  0
SECTION
  2
HEADER
  9
$ACADVER
  1
AC1015
  9
$ACADMAINTVER
 70
    20
  9
$DWGCODEPAGE
  3
ANSI_936
  9
$INSBASE
 10
0.0
 20
0.0
 30
0.0
  9
$EXTMIN
 10
767.4216847101911
 20
183.9928850216617
 30
-0.0000000000112498
  9
$EXTMAX
 10
1017.9836278633
 20
361.1359079027535
 30
0.0000000000002956
  9
$LIMMIN
 10
0.0
 20
0.0
  9
$LIMMAX
 10
12.0
 20
9.0
  9
$ORTHOMODE
 70
     1
  9
$REGENMODE
 70
     1
  9
$FILLMODE
 70
     1
  9
$QTEXTMODE
 70
     0
  9
$MIRRTEXT
 70
     1
  9
$LTSCALE
 40
1.0
  9
$ATTMODE
 70
     1
  9
$TEXTSIZE
 40
0.2
  9
$TRACEWID
 40
0.05
  9
$TEXTSTYLE
  7
Standard
  9
$CLAYER
  8
0
  9
$CELTYPE
  6
ByLayer
  9
$CECOLOR
 62
   256
  9
$CELTSCALE
 40
1.0
  9
$DISPSILH
 70
     0
  9
$DIMSCALE
 40
1.0
  9
$DIMASZ
 40
1.5
  9
$DIMEXO
 40
0.2
  9
$DIMDLI
 40
0.2
  9
$DIMRND
 40
0.0
  9
$DIMDLE
 40
0.0
  9
$DIMEXE
 40
0.5
  9
$DIMTP
 40
0.0
  9
$DIMTM
 40
0.0
  9
$DIMTXT
 40
2.0
  9
$DIMCEN
 40
0.0
  9
$DIMTSZ
 40
0.0
  9
$DIMTOL
 70
     0
  9
$DIMLIM
 70
     0
  9
$DIMTIH
 70
     0
  9
$DIMTOH
 70
     0
  9
$DIMSE1
 70
     0
  9
$DIMSE2
 70
     0
  9
$DIMTAD
 70
     1
  9
$DIMZIN
 70
     8
  9
$DIMBLK
  1

  9
$DIMASO
 70
     1
  9
$DIMSHO
 70
     1
  9
$DIMPOST
  1

  9
$DIMAPOST
  1

  9
$DIMALT
 70
     0
  9
$DIMALTD
 70
     2
  9
$DIMALTF
 40
25.4
  9
$DIMLFAC
 40
1.0
  9
$DIMTOFL
 70
     0
  9
$DIMTVP
 40
0.0
  9
$DIMTIX
 70
     0
  9
$DIMSOXD
 70
     0
  9
$DIMSAH
 70
     0
  9
$DIMBLK1
  1

  9
$DIMBLK2
  1

  9
$DIMSTYLE
  2
01
  9
$DIMCLRD
 70
     1
  9
$DIMCLRE
 70
     6
  9
$DIMCLRT
 70
     4
  9
$DIMTFAC
 40
1.0
  9
$DIMGAP
 40
0.5
  9
$DIMJUST
 70
     0
  9
$DIMSD1
 70
     0
  9
$DIMSD2
 70
     0
  9
$DIMTOLJ
 70
     1
  9
$DIMTZIN
 70
     0
  9
$DIMALTZ
 70
     0
  9
$DIMALTTZ
 70
     0
  9
$DIMUPT
 70
     0
  9
$DIMDEC
 70
     1
  9
$DIMTDEC
 70
     1
  9
$DIMALTU
 70
     2
  9
$DIMALTTD
 70
     2
  9
$DIMTXSTY
  7
Romans字体
  9
$DIMAUNIT
 70
     0
  9
$DIMADEC
 70
     2
  9
$DIMALTRND
 40
0.0
  9
$DIMAZIN
 70
     2
  9
$DIMDSEP
 70
    46
  9
$DIMATFIT
 70
     3
  9
$DIMFRAC
 70
     0
  9
$DIMLDRBLK
  1

  9
$DIMLUNIT
 70
     2
  9
$DIMLWD
 70
    -2
  9
$DIMLWE
 70
    -2
  9
$DIMTMOVE
 70
     0
  9
$LUNITS
 70
     2
  9
$LUPREC
 70
     4
  9
$SKETCHINC
 40
0.1
  9
$FILLETRAD
 40
0.5
  9
$AUNITS
 70
     0
  9
$AUPREC
 70
     0
  9
$MENU
  1
.
  9
$ELEVATION
 40
0.0
  9
$PELEVATION
 40
0.0
  9
$THICKNESS
 40
0.0
  9
$LIMCHECK
 70
     0
  9
$CHAMFERA
 40
0.5
  9
$CHAMFERB
 40
0.5
  9
$CHAMFERC
 40
1.0
  9
$CHAMFERD
 40
0.0
  9
$SKPOLY
 70
     0
  9
$TDCREATE
 40
2456524.383632987
  9
$TDUCREATE
 40
2456524.050299653
  9
$TDUPDATE
 40
2460339.799788565
  9
$TDUUPDATE
 40
2460339.466455232
  9
$TDINDWG
 40
1.2396339468
  9
$TDUSRTIMER
 40
1.2396145833
  9
$USRTIMER
 70
     1
  9
$ANGBASE
 50
0.0
  9
$ANGDIR
 70
     0
  9
$PDMODE
 70
     0
  9
$PDSIZE
 40
0.0
  9
$PLINEWID
 40
0.0
  9
$SPLFRAME
 70
     0
  9
$SPLINETYPE
 70
     6
  9
$SPLINESEGS
 70
     8
  9
$HANDSEED
  5
168A
  9
$SURFTAB1
 70
     6
  9
$SURFTAB2
 70
     6
  9
$SURFTYPE
 70
     6
  9
$SURFU
 70
     6
  9
$SURFV
 70
     6
  9
$UCSBASE
  2

  9
$UCSNAME
  2

  9
$UCSORG
 10
0.0
 20
0.0
 30
0.0
  9
$UCSXDIR
 10
1.0
 20
0.0
 30
0.0
  9
$UCSYDIR
 10
0.0
 20
1.0
 30
0.0
  9
$UCSORTHOREF
  2

  9
$UCSORTHOVIEW
 70
     0
  9
$UCSORGTOP
 10
0.0
 20
0.0
 30
0.0
  9
$UCSORGBOTTOM
 10
0.0
 20
0.0
 30
0.0
  9
$UCSORGLEFT
 10
0.0
 20
0.0
 30
0.0
  9
$UCSORGRIGHT
 10
0.0
 20
0.0
 30
0.0
  9
$UCSORGFRONT
 10
0.0
 20
0.0
 30
0.0
  9
$UCSORGBACK
 10
0.0
 20
0.0
 30
0.0
  9
$PUCSBASE
  2

  9
$PUCSNAME
  2

  9
$PUCSORG
 10
0.0
 20
0.0
 30
0.0
  9
$PUCSXDIR
 10
1.0
 20
0.0
 30
0.0
  9
$PUCSYDIR
 10
0.0
 20
1.0
 30
0.0
  9
$PUCSORTHOREF
  2

  9
$PUCSORTHOVIEW
 70
     0
  9
$PUCSORGTOP
 10
0.0
 20
0.0
 30
0.0
  9
$PUCSORGBOTTOM
 10
0.0
 20
0.0
 30
0.0
  9
$PUCSORGLEFT
 10
0.0
 20
0.0
 30
0.0
  9
$PUCSORGRIGHT
 10
0.0
 20
0.0
 30
0.0
  9
$PUCSORGFRONT
 10
0.0
 20
0.0
 30
0.0
  9
$PUCSORGBACK
 10
0.0
 20
0.0
 30
0.0
  9
$USERI1
 70
     0
  9
$USERI2
 70
     0
  9
$USERI3
 70
     0
  9
$USERI4
 70
     0
  9
$USERI5
 70
     0
  9
$USERR1
 40
0.0
  9
$USERR2
 40
0.0
  9
$USERR3
 40
0.0
  9
$USERR4
 40
0.0
  9
$USERR5
 40
0.0
  9
$WORLDVIEW
 70
     1
  9
$SHADEDGE
 70
     3
  9
$SHADEDIF
 70
    70
  9
$TILEMODE
 70
     1
  9
$MAXACTVP
 70
    64
  9
$PINSBASE
 10
0.0
 20
0.0
 30
0.0
  9
$PLIMCHECK
 70
     0
  9
$PEXTMIN
 10
1.000000000000000E+20
 20
1.000000000000000E+20
 30
1.000000000000000E+20
  9
$PEXTMAX
 10
-1.000000000000000E+20
 20
-1.000000000000000E+20
 30
-1.000000000000000E+20
  9
$PLIMMIN
 10
0.0
 20
0.0
  9
$PLIMMAX
 10
12.0
 20
9.0
  9
$UNITMODE
 70
     0
  9
$VISRETAIN
 70
     1
  9
$PLINEGEN
 70
     0
  9
$PSLTSCALE
 70
     1
  9
$TREEDEPTH
 70
  3020
  9
$CMLSTYLE
  2
Standard
  9
$CMLJUST
 70
     0
  9
$CMLSCALE
 40
1.0
  9
$PROXYGRAPHICS
 70
     1
  9
$MEASUREMENT
 70
     0
  9
$CELWEIGHT
370
    -1
  9
$ENDCAPS
280
     0
  9
$JOINSTYLE
280
     0
  9
$LWDISPLAY
290
     0
  9
$INSUNITS
 70
     4
  9
$HYPERLINKBASE
  1

  9
$STYLESHEET
  1
monochrome.ctb
  9
$XEDIT
290
     1
  9
$CEPSNTYPE
380
     0
  9
$PSTYLEMODE
290
     1
  9
$FINGERPRINTGUID
  2
{0D5DEDD1-09FA-4BB9-A6E7-AA77DCD72BF2}
  9
$VERSIONGUID
  2
{04C5D5D1-01CC-44D3-93B1-C8CAC42C482A}
  9
$EXTNAMES
290
     1
  9
$PSVPSCALE
 40
0.0
  9
$OLESTARTUP
290
     0
  0
ENDSEC
  0
SECTION
  2
CLASSES
  0
CLASS
  1
ACDBDICTIONARYWDFLT
  2
AcDbDictionaryWithDefault
  3
ObjectDBX Classes
 90
        0
280
     0
281
     0
  0
CLASS
  1
VISUALSTYLE
  2
AcDbVisualStyle
  3
ObjectDBX Classes
 90
     4095
280
     0
281
     0
  0
CLASS
  1
MATERIAL
  2
AcDbMaterial
  3
ObjectDBX Classes
 90
     1153
280
     0
281
     0
  0
CLASS
  1
TABLESTYLE
  2
AcDbTableStyle
  3
ObjectDBX Classes
 90
     4095
280
     0
281
     0
  0
CLASS
  1
SCALE
  2
AcDbScale
  3
ObjectDBX Classes
 90
     1153
280
     0
281
     0
  0
CLASS
  1
MLEADERSTYLE
  2
AcDbMLeaderStyle
  3
ACDB_MLEADERSTYLE_CLASS
 90
     4095
280
     0
281
     0
  0
CLASS
  1
CELLSTYLEMAP
  2
AcDbCellStyleMap
  3
ObjectDBX Classes
 90
     1152
280
     0
281
     0
  0
CLASS
  1
DICTIONARYVAR
  2
AcDbDictionaryVar
  3
ObjectDBX Classes
 90
        0
280
     0
281
     0
  0
CLASS
  1
SORTENTSTABLE
  2
AcDbSortentsTable
  3
ObjectDBX Classes
 90
        0
280
     0
281
     0
  0
CLASS
  1
ACAD_EVALUATION_GRAPH
  2
AcDbEvalGraph
  3
ObjectDBX Classes
 90
    33921
280
     0
281
     0
  0
CLASS
  1
ACAECUSTOBJ
  2
AcAeEditorObj
  3
AcAeEditorObj
 90
    33792
280
     1
281
     0
  0
CLASS
  1
ACDB_DYNAMICBLOCKPURGEPREVENTER_VERSION
  2
AcDbDynamicBlockPurgePreventer
  3
ObjectDBX Classes
 90
    33921
280
     0
281
     0
  0
CLASS
  1
MENTALRAYRENDERSETTINGS
  2
AcDbMentalRayRenderSettings
  3
SCENEOE
 90
    33792
280
     0
281
     0
  0
CLASS
  1
ACDB_BLOCKREPRESENTATION_DATA
  2
AcDbBlockRepresentationData
  3
ObjectDBX Classes
 90
    33921
280
     0
281
     0
  0
CLASS
  1
DIMASSOC
  2
AcDbDimAssoc
  3
"AcDbDimAssoc|Product Desc:     AcDim ARX App For Dimension|Company:          Autodesk, Inc.|WEB Address:      www.autodesk.com"
 90
    32768
280
     0
281
     0
  0
CLASS
  1
ACDBPLACEHOLDER
  2
AcDbPlaceHolder
  3
ObjectDBX Classes
 90
        0
280
     0
281
     0
  0
CLASS
  1
LAYOUT
  2
AcDbLayout
  3
ObjectDBX Classes
 90
        0
280
     0
281
     0
  0
ENDSEC
  0
SECTION
  2
TABLES
  0
TABLE
  2
VPORT
  5
1CF
102
{ACAD_XDICTIONARY
360
1D3
102
}
330
0
100
AcDbSymbolTable
 70
     1
  0
VPORT
  5
1D0
330
1CF
100
AcDbSymbolTableRecord
100
AcDbViewportTableRecord
  2
*Active
 70
     0
 10
0.0
 20
0.0
 11
1.0
 21
1.0
 12
735.6905014539973
 22
131.6550814598137
 13
0.0
 23
0.0
 14
0.5
 24
0.5
 15
0.5
 25
0.5
 16
0.0
 26
0.0
 36
1.0
 17
104.9654968719086
 27
148.5022307685978
 37
0.0
 40
313.490918460959
 41
2.087847730600292
 42
50.0
 43
0.0
 44
0.0
 50
0.0
 51
0.0
 71
     0
 72
   100
 73
     1
 74
     3
 75
     0
 76
     0
 77
     0
 78
     0
281
     0
 65
     1
110
0.0
120
0.0
130
0.0
111
1.0
121
0.0
131
0.0
112
0.0
122
1.0
132
0.0
 79
     0
146
0.0
  0
ENDTAB
  0
TABLE
  2
LTYPE
  5
1CA
330
0
100
AcDbSymbolTable
 70
     4
  0
LTYPE
  5
1CB
330
1CA
100
AcDbSymbolTableRecord
100
AcDbLinetypeTableRecord
  2
ByBlock
 70
     0
  3

 72
    65
 73
     0
 40
0.0
  0
LTYPE
  5
1CC
330
1CA
100
AcDbSymbolTableRecord
100
AcDbLinetypeTableRecord
  2
ByLayer
 70
     0
  3

 72
    65
 73
     0
 40
0.0
  0
LTYPE
  5
15
330
1CA
100
AcDbSymbolTableRecord
100
AcDbLinetypeTableRecord
  2
Continuous
 70
     0
  3
Solid line
 72
    65
 73
     0
 40
0.0
  0
LTYPE
  5
108
330
1CA
100
AcDbSymbolTableRecord
100
AcDbLinetypeTableRecord
  2
CENTER
 70
     0
  3
Center ____ _ ____ _ ____ _ ____ _ ____ _ ____
 72
    65
 73
     4
 40
2.0
 49
1.25
 74
     0
 49
-0.25
 74
     0
 49
0.25
 74
     0
 49
-0.25
 74
     0
  0
LTYPE
  5
C1B
330
1CA
100
AcDbSymbolTableRecord
100
AcDbLinetypeTableRecord
  2
CENTERX2
 70
     0
  3
Center (2x) ________  __  ________  __  _____
 72
    65
 73
     4
 40
4.0
 49
2.5
 74
     0
 49
-0.5
 74
     0
 49
0.5
 74
     0
 49
-0.5
 74
     0
  0
LTYPE
  5
C1C
330
1CA
100
AcDbSymbolTableRecord
100
AcDbLinetypeTableRecord
  2
HIDDEN2
 70
     0
  3
Hidden (.5x) _ _ _ _ _ _ _ _ _ _ _ _ _ _ _ _ _
 72
    65
 73
     2
 40
0.1875
 49
0.125
 74
     0
 49
-0.0625
 74
     0
  0
ENDTAB
  0
TABLE
  2
LAYER
  5
1C3
102
{ACAD_XDICTIONARY
360
1C4
102
}
330
0
100
AcDbSymbolTable
 70
    10
  0
LAYER
  5
6
102
{ACAD_XDICTIONARY
360
7
102
}
330
1C3
100
AcDbSymbolTableRecord
100
AcDbLayerTableRecord
  2
0
 70
     0
 62
     7
  6
Continuous
370
    30
390
9
  0
LAYER
  5
17
102
{ACAD_XDICTIONARY
360
18
102
}
330
1C3
100
AcDbSymbolTableRecord
100
AcDbLayerTableRecord
  2
图层 1
 70
     0
 62
     7
  6
Continuous
370
    -3
390
9
  0
LAYER
  5
25
102
{ACAD_XDICTIONARY
360
26
102
}
330
1C3
100
AcDbSymbolTableRecord
100
AcDbLayerTableRecord
  2
图框
 70
     0
 62
     7
  6
Continuous
370
    20
390
9
  0
LAYER
  5
168
330
1C3
100
AcDbSymbolTableRecord
100
AcDbLayerTableRecord
  2
Defpoints
 70
     0
 62
     7
  6
Continuous
290
     0
370
    -3
390
9
  0
LAYER
  5
113
330
1C3
100
AcDbSymbolTableRecord
100
AcDbLayerTableRecord
  2
DIM
 70
     0
 62
     3
  6
Continuous
370
    15
390
9
1001
AcAecLayerStandard
1000

1000

  0
LAYER
  5
E6
330
1C3
100
AcDbSymbolTableRecord
100
AcDbLayerTableRecord
  2
打标文字
 70
     0
 62
     3
  6
Continuous
370
    20
390
9
  0
LAYER
  5
107
330
1C3
100
AcDbSymbolTableRecord
100
AcDbLayerTableRecord
  2
CEN
 70
     0
 62
     1
  6
CENTER
370
    15
390
9
1001
AcAecLayerStandard
1000

1000

  0
LAYER
  5
F8
330
1C3
100
AcDbSymbolTableRecord
100
AcDbLayerTableRecord
  2
hat
 70
     0
 62
     6
  6
Continuous
370
    15
390
9
1001
AcAecLayerStandard
1000

1000

  0
LAYER
  5
C1D
102
{ACAD_XDICTIONARY
360
C1E
102
}
330
1C3
100
AcDbSymbolTableRecord
100
AcDbLayerTableRecord
  2
文本
 70
     0
 62
     4
  6
Continuous
370
    25
390
C27
  0
LAYER
  5
C1F
330
1C3
100
AcDbSymbolTableRecord
100
AcDbLayerTableRecord
  2
xuxian
 70
     0
 62
     2
  6
HIDDEN2
370
    15
390
9
1001
AcAecLayerStandard
1000

1000

  0
ENDTAB
  0
TABLE
  2
STYLE
  5
1C8
330
0
100
AcDbSymbolTable
 70
     6
  0
STYLE
  5
46
330
1C8
100
AcDbSymbolTableRecord
100
AcDbTextStyleTableRecord
  2
Standard
 70
     0
 40
0.0
 41
0.75
 50
0.0
 71
     0
 42
0.2
  3

  4

1001
ACAD
1000
仿宋_GB2312
1071
    34353
  0
STYLE
  5
28
330
1C8
100
AcDbSymbolTableRecord
100
AcDbTextStyleTableRecord
  2
Romans字体
 70
     0
 40
0.0
 41
0.75
 50
0.0
 71
     0
 42
0.2
  3
romans.shx
  4

  0
STYLE
  5
48
330
1C8
100
AcDbSymbolTableRecord
100
AcDbTextStyleTableRecord
  2
工程字
 70
     0
 40
0.0
 41
1.0
 50
0.0
 71
     0
 42
3.5
  3
gbenor.shx
  4
gbcbig.shx
  0
STYLE
  5
4A
330
1C8
100
AcDbSymbolTableRecord
100
AcDbTextStyleTableRecord
  2
Chinese
 70
     0
 40
0.0
 41
1.0
 50
0.0
 71
     0
 42
2.5
  3
PMingLiU.ttf
  4

1001
ACAD
1000
PMingLiU
1071
    34834
  0
STYLE
  5
C20
330
1C8
100
AcDbSymbolTableRecord
100
AcDbTextStyleTableRecord
  2
样式 3
 70
     0
 40
3.5
 41
0.7
 50
0.0
 71
     0
 42
3.5
  3
仿宋_GB2312_0.ttf
  4

1001
ACAD
1000
仿宋_GB2312
1071
    34353
  0
ENDTAB
  0
TABLE
  2
VIEW
  5
1CD
330
0
100
AcDbSymbolTable
 70
     0
  0
ENDTAB
  0
TABLE
  2
UCS
  5
1CE
330
0
100
AcDbSymbolTable
 70
     0
  0
ENDTAB
  0
TABLE
  2
APPID
  5
1D4
330
0
100
AcDbSymbolTable
 70
    16
  0
APPID
  5
29
330
1D4
100
AcDbSymbolTableRecord
100
AcDbRegAppTableRecord
  2
ACAD
 70
     0
  0
APPID
  5
35
330
1D4
100
AcDbSymbolTableRecord
100
AcDbRegAppTableRecord
  2
AcDbBlockRepETag
 70
     0
  0
APPID
  5
1BA
330
1D4
100
AcDbSymbolTableRecord
100
AcDbRegAppTableRecord
  2
ACAD_PSEXT
 70
     0
  0
APPID
  5
F9
330
1D4
100
AcDbSymbolTableRecord
100
AcDbRegAppTableRecord
  2
AcAecLayerStandard
 70
     0
  0
APPID
  5
16D
330
1D4
100
AcDbSymbolTableRecord
100
AcDbRegAppTableRecord
  2
ACAD_DSTYLE_DIMJAG
 70
     0
  0
APPID
  5
16E
330
1D4
100
AcDbSymbolTableRecord
100
AcDbRegAppTableRecord
  2
ACAD_DSTYLE_DIMTALN
 70
     0
  0
APPID
  5
24E
330
1D4
100
AcDbSymbolTableRecord
100
AcDbRegAppTableRecord
  2
ACAD_MLEADERVER
 70
     0
  0
APPID
  5
33F
330
1D4
100
AcDbSymbolTableRecord
100
AcDbRegAppTableRecord
  2
AcDbDynamicBlockGUID
 70
     0
  0
APPID
  5
599
330
1D4
100
AcDbSymbolTableRecord
100
AcDbRegAppTableRecord
  2
ACAD_EXEMPT_FROM_CAD_STANDARDS
 70
     0
  0
APPID
  5
860
330
1D4
100
AcDbSymbolTableRecord
100
AcDbRegAppTableRecord
  2
DCO15
 70
     0
  0
APPID
  5
C23
330
1D4
100
AcDbSymbolTableRecord
100
AcDbRegAppTableRecord
  2
ACAD_NAV_VCDISPLAY
 70
     0
  0
APPID
  5
C24
330
1D4
100
AcDbSymbolTableRecord
100
AcDbRegAppTableRecord
  2
GradientColor1ACI
 70
     0
  0
APPID
  5
C25
330
1D4
100
AcDbSymbolTableRecord
100
AcDbRegAppTableRecord
  2
GradientColor2ACI
 70
     0
  0
APPID
  5
C26
330
1D4
100
AcDbSymbolTableRecord
100
AcDbRegAppTableRecord
  2
ACAD_DSTYLE_DIMINSPECT
 70
     0
  0
APPID
  5
11DC
330
1D4
100
AcDbSymbolTableRecord
100
AcDbRegAppTableRecord
  2
ACAD_DSTYLE_DIMRADIAL_EXTENSION
 70
     0
  0
APPID
  5
15BC
330
1D4
100
AcDbSymbolTableRecord
100
AcDbRegAppTableRecord
  2
AcadAnnoPO
 70
     0
  0
ENDTAB
  0
TABLE
  2
DIMSTYLE
  5
1D5
330
0
100
AcDbSymbolTable
 70
     5
100
AcDbDimStyleTable
 71
     2
340
16C
340
1D6
  0
DIMSTYLE
105
1D6
330
1D5
100
AcDbSymbolTableRecord
100
AcDbDimStyleTableRecord
  2
Standard
 70
     0
340
46
  0
DIMSTYLE
105
16C
102
{ACAD_REACTORS
330
F2E
330
10F6
330
1104
330
1377
102
}
330
1D5
100
AcDbSymbolTableRecord
100
AcDbDimStyleTableRecord
  2
01
 70
     0
 41
1.5
 42
0.2
 43
0.2
 44
0.5
 73
     0
 74
     0
 77
     1
 78
     8
 79
     2
140
2.0
141
0.0
147
0.5
176
     1
177
     6
178
     4
179
     2
271
     1
272
     1
340
28
1001
ACAD_DSTYLE_DIMJAG
1070
   388
1040
1.5
1001
ACAD_DSTYLE_DIMTALN
1070
   392
1070
     0
  0
DIMSTYLE
105
C21
330
1D5
100
AcDbSymbolTableRecord
100
AcDbDimStyleTableRecord
  2
02
 70
     0
 40
0.65
 41
2.5
 42
0.1
 43
0.1
 44
1.0
 47
0.01
 48
0.000000001
 73
     0
 74
     0
 78
     8
 79
     2
140
2.5
141
0.0
146
0.7
147
0.5
176
     1
177
     6
178
     4
179
     2
271
     2
272
     2
284
     8
340
46
  0
DIMSTYLE
105
C22
330
1D5
100
AcDbSymbolTableRecord
100
AcDbDimStyleTableRecord
  2
01$7
 70
     0
 41
2.0
 42
0.2
 43
0.2
 44
1.199999999999999
 47
0.01
 48
0.01
 73
     0
 74
     0
 77
     1
 78
     8
 79
     2
140
2.5
141
0.0
147
0.5
176
     1
177
     6
178
     4
179
     2
271
     2
272
     2
340
46
  0
ENDTAB
  0
TABLE
  2
BLOCK_RECORD
  5
1
330
0
100
AcDbSymbolTable
 70
    10
  0
BLOCK_RECORD
  5
2
102
{ACAD_XDICTIONARY
360
3
102
}
330
1
100
AcDbSymbolTableRecord
100
AcDbBlockTableRecord
  2
*Model_Space
340
1B8
  0
BLOCK_RECORD
  5
1BB
330
1
100
AcDbSymbolTableRecord
100
AcDbBlockTableRecord
  2
*Paper_Space
340
1BE
  0
BLOCK_RECORD
  5
1BF
330
1
100
AcDbSymbolTableRecord
100
AcDbBlockTableRecord
  2
*Paper_Space0
340
1C2
  0
BLOCK_RECORD
  5
25B
102
{ACAD_XDICTIONARY
360
25C
102
}
330
1
100
AcDbSymbolTableRecord
100
AcDbBlockTableRecord
  2
A4图框-NEW
340
0
310
2800000020000000200000000100080000000000000400000000000000000000000000000000000000000000000080000080000000808000800000008000800080800000C0C0C000C0DCC000F0CAA6000020400000206000002080000020A0000020C0000020E00000400000004020000040400000406000004080000040A0
310
000040C0000040E00000600000006020000060400000606000006080000060A0000060C0000060E00000800000008020000080400000806000008080000080A0000080C0000080E00000A0000000A0200000A0400000A0600000A0800000A0A00000A0C00000A0E00000C0000000C0200000C0400000C0600000C0800000C0
310
A00000C0C00000C0E00000E0000000E0200000E0400000E0600000E0800000E0A00000E0C00000E0E00040000000400020004000400040006000400080004000A0004000C0004000E00040200000402020004020400040206000402080004020A0004020C0004020E000404000004040200040404000404060004040800040
310
40A0004040C0004040E00040600000406020004060400040606000406080004060A0004060C0004060E00040800000408020004080400040806000408080004080A0004080C0004080E00040A0000040A0200040A0400040A0600040A0800040A0A00040A0C00040A0E00040C0000040C0200040C0400040C0600040C08000
310
40C0A00040C0C00040C0E00040E0000040E0200040E0400040E0600040E0800040E0A00040E0C00040E0E00080000000800020008000400080006000800080008000A0008000C0008000E00080200000802020008020400080206000802080008020A0008020C0008020E00080400000804020008040400080406000804080
310
008040A0008040C0008040E00080600000806020008060400080606000806080008060A0008060C0008060E00080800000808020008080400080806000808080008080A0008080C0008080E00080A0000080A0200080A0400080A0600080A0800080A0A00080A0C00080A0E00080C0000080C0200080C0400080C0600080C0
310
800080C0A00080C0C00080C0E00080E0000080E0200080E0400080E0600080E0800080E0A00080E0C00080E0E000C0000000C0002000C0004000C0006000C0008000C000A000C000C000C000E000C0200000C0202000C0204000C0206000C0208000C020A000C020C000C020E000C0400000C0402000C0404000C0406000C0
310
408000C040A000C040C000C040E000C0600000C0602000C0604000C0606000C0608000C060A000C060C000C060E000C0800000C0802000C0804000C0806000C0808000C080A000C080C000C080E000C0A00000C0A02000C0A04000C0A06000C0A08000C0A0A000C0A0C000C0A0E000C0C00000C0C02000C0C04000C0C06000
310
C0C08000C0C0A000F0FBFF00A4A0A000808080000000FF0000FF000000FFFF00FF000000FF00FF00FFFF0000FFFFFF0000000000000000000000000000000000000000000000000000000000000000000000000000000000000000000000000000000000000000000000000000000000000000000000000000000000000000
310
000000000000000000000000000000000000000000000000000000000000000000000000000000000000000000000000000000000000000000000000000000000000000000000000000000000000000000000000000000000000000000000000000000000000000000000000000000000000F9F9F9F9F9F9F9F9F9F9F9F9F9
310
F9F9F9F9F9F9F9F9F9F9F9F9F9F9FF00000000F9FF000000000000000000FFFFFFFFFFFFFFFFFFFFFFFFF9FAFAFAFF00000000F9FF000000000000000000FFFFFFFFFFFFFFFFFFFFFFFFFFFFFFFFFF00000000F9FD000000000000000000FFFFFFFFFFFFFFFFFFFFFFFFFFFFFFFFFF00000000F9FF000000000000000000FF
310
FFFFFFFFFFFFFFFFFFFFFFFFFFFFFFFF00000000F9FD000000000000000000FFFFFFFFFFFFFFFFFFFFFFFFFFFFFFFFFF00000000F9FF00000000000000000000000000000000000000000000000000FF00000000F9FD00000000000000000000000000000000000000000000000000FF00000000F9FF000000000000000000
310
00000000000000000000000000000000FF00000000F9FD00000000000000000000000000000000000000000000000000FF00000000F9FF00000000000000000000000000000000000000000000000000FF00000000F9FD00000000000000000000000000000000000000000000000000FF00000000F9FD0000000000000000
310
0000000000000000000000000000000000FF00000000F9FF00000000000000000000000000000000000000000000000000FF00000000F9FD00000000000000000000000000000000000000000000000000FF00000000F9FF00000000000000000000000000000000000000000000000000FF00000000F9FD00000000000000
310
000000000000000000000000000000000000FF00000000F9FF00000000000000000000000000000000000000000000000000FF00000000F9FFFFFFFFFFFFFFFFFFFFFFFFFFFFFFFFFFFFFFFFFFFFFFFFFFFFFF00000000F9FFFFFFF9F9F9F9F9F9F9F9F9F9F9F9F9F9F9F9F9F9F9F9F9F9F9F9000000000000000000000000
310
00000000000000000000000000000000000000000000000000000000000000000000000000000000000000000000000000000000000000000000000000000000000000000000000000000000000000000000000000000000000000000000000000000000000000000000000000000000000000000000000000000000000000
310
0000000000000000000000000000000000000000000000000000000000000000000000000000000000000000000000000000000000000000
1001
AcDbDynamicBlockGUID
1000
{B20AF43E-609B-4C24-A7D9-4BFB144A2E28}
1001
AcDbBlockRepETag
1070
     1
1071
      149
1001
ACAD
1000
DesignCenter Data
1002
{
1070
     1
1070
     4
1002
}
  0
BLOCK_RECORD
  5
B83
102
{ACAD_XDICTIONARY
360
B84
102
}
330
1
100
AcDbSymbolTableRecord
100
AcDbBlockTableRecord
  2
dfd
340
0
310
2800000020000000200000000100080000000000000400000000000000000000000000000000000000000000000080000080000000808000800000008000800080800000C0C0C000C0DCC000F0CAA6000020400000206000002080000020A0000020C0000020E00000400000004020000040400000406000004080000040A0
310
000040C0000040E00000600000006020000060400000606000006080000060A0000060C0000060E00000800000008020000080400000806000008080000080A0000080C0000080E00000A0000000A0200000A0400000A0600000A0800000A0A00000A0C00000A0E00000C0000000C0200000C0400000C0600000C0800000C0
310
A00000C0C00000C0E00000E0000000E0200000E0400000E0600000E0800000E0A00000E0C00000E0E00040000000400020004000400040006000400080004000A0004000C0004000E00040200000402020004020400040206000402080004020A0004020C0004020E000404000004040200040404000404060004040800040
310
40A0004040C0004040E00040600000406020004060400040606000406080004060A0004060C0004060E00040800000408020004080400040806000408080004080A0004080C0004080E00040A0000040A0200040A0400040A0600040A0800040A0A00040A0C00040A0E00040C0000040C0200040C0400040C0600040C08000
310
40C0A00040C0C00040C0E00040E0000040E0200040E0400040E0600040E0800040E0A00040E0C00040E0E00080000000800020008000400080006000800080008000A0008000C0008000E00080200000802020008020400080206000802080008020A0008020C0008020E00080400000804020008040400080406000804080
310
008040A0008040C0008040E00080600000806020008060400080606000806080008060A0008060C0008060E00080800000808020008080400080806000808080008080A0008080C0008080E00080A0000080A0200080A0400080A0600080A0800080A0A00080A0C00080A0E00080C0000080C0200080C0400080C0600080C0
310
800080C0A00080C0C00080C0E00080E0000080E0200080E0400080E0600080E0800080E0A00080E0C00080E0E000C0000000C0002000C0004000C0006000C0008000C000A000C000C000C000E000C0200000C0202000C0204000C0206000C0208000C020A000C020C000C020E000C0400000C0402000C0404000C0406000C0
310
408000C040A000C040C000C040E000C0600000C0602000C0604000C0606000C0608000C060A000C060C000C060E000C0800000C0802000C0804000C0806000C0808000C080A000C080C000C080E000C0A00000C0A02000C0A04000C0A06000C0A08000C0A0A000C0A0C000C0A0E000C0C00000C0C02000C0C04000C0C06000
310
C0C08000C0C0A000F0FBFF00A4A0A000808080000000FF0000FF000000FFFF00FF000000FF00FF00FFFF0000FFFFFF000000000000000000000000000000000000000000000000000000000000000000000000000000000000000000000000FFFF000000000000000000000000000000000000000000000000000000000000
310
FFFF000000000000000000000000000000000000000000000000000000000000FAFF000000000000000000000000000000000000000000000000000000000000FAFF000000000000000000000000000000000000000000000000000000000000FAFF0000000000000000000000000000000000000000000000000000000000
310
00FAFF000000000000000000000000000000000000000000000000000000000000FAFF000000000000000000000000000000000000000000000000000000000000FAFF000000000000000000000000000000000000000000000000000000000000FAFF00000000000000000000000000000000000000000000000000000000
310
0000FAFF000000000000000000000000000000000000000000000000000000000000FAFF000000000000000000000000000000000000000000000000000000000000FAFF000000000000000000000000000000000000000000000000000000000000FAFF000000000000000000000000000000000000000000000000000000
310
000000FAFF000000000000000000000000000000000000000000000000000000000000FFFF000000000000000000000000000000000000000000000000000000000000FFFF000000000000000000000000000000000000000000000000000000000000FAFF0000000000000000000000000000000000000000000000000000
310
00000000FAFF000000000000000000000000000000000000000000000000000000000000FAFF000000000000000000000000000000000000000000000000000000000000FAFF000000000000000000000000000000000000000000000000000000000000FAFF00000000000000000000000000000000000000000000000000
310
0000000000FAFF000000000000000000000000000000000000000000000000000000000000FAFF000000000000000000000000000000000000000000000000000000000000FAFF000000000000000000000000000000000000000000000000000000000000FAFF000000000000000000000000000000000000000000000000
310
000000000000FAFF000000000000000000000000000000000000000000000000000000000000FAFF000000000000000000000000000000000000000000000000000000000000FAFF000000000000000000000000000000000000000000000000000000000000FFFF0000000000000000000000000000000000000000000000
310
00000000000000FFFF0000000000000000000000000000000000000000000000000000000000000000000000000000000000000000000000
1001
AcDbDynamicBlockGUID
1000
{5BFF25D5-1997-4C46-BFF4-5395F7A79CEE}
1001
ACAD
1000
DesignCenter Data
1002
{
1070
     1
1070
     1
1002
}
  0
BLOCK_RECORD
  5
B93
330
1
100
AcDbSymbolTableRecord
100
AcDbBlockTableRecord
  2
ghghh
340
0
310
2800000020000000200000000100080000000000000400000000000000000000000000000000000000000000000080000080000000808000800000008000800080800000C0C0C000C0DCC000F0CAA6000020400000206000002080000020A0000020C0000020E00000400000004020000040400000406000004080000040A0
310
000040C0000040E00000600000006020000060400000606000006080000060A0000060C0000060E00000800000008020000080400000806000008080000080A0000080C0000080E00000A0000000A0200000A0400000A0600000A0800000A0A00000A0C00000A0E00000C0000000C0200000C0400000C0600000C0800000C0
310
A00000C0C00000C0E00000E0000000E0200000E0400000E0600000E0800000E0A00000E0C00000E0E00040000000400020004000400040006000400080004000A0004000C0004000E00040200000402020004020400040206000402080004020A0004020C0004020E000404000004040200040404000404060004040800040
310
40A0004040C0004040E00040600000406020004060400040606000406080004060A0004060C0004060E00040800000408020004080400040806000408080004080A0004080C0004080E00040A0000040A0200040A0400040A0600040A0800040A0A00040A0C00040A0E00040C0000040C0200040C0400040C0600040C08000
310
40C0A00040C0C00040C0E00040E0000040E0200040E0400040E0600040E0800040E0A00040E0C00040E0E00080000000800020008000400080006000800080008000A0008000C0008000E00080200000802020008020400080206000802080008020A0008020C0008020E00080400000804020008040400080406000804080
310
008040A0008040C0008040E00080600000806020008060400080606000806080008060A0008060C0008060E00080800000808020008080400080806000808080008080A0008080C0008080E00080A0000080A0200080A0400080A0600080A0800080A0A00080A0C00080A0E00080C0000080C0200080C0400080C0600080C0
310
800080C0A00080C0C00080C0E00080E0000080E0200080E0400080E0600080E0800080E0A00080E0C00080E0E000C0000000C0002000C0004000C0006000C0008000C000A000C000C000C000E000C0200000C0202000C0204000C0206000C0208000C020A000C020C000C020E000C0400000C0402000C0404000C0406000C0
310
408000C040A000C040C000C040E000C0600000C0602000C0604000C0606000C0608000C060A000C060C000C060E000C0800000C0802000C0804000C0806000C0808000C080A000C080C000C080E000C0A00000C0A02000C0A04000C0A06000C0A08000C0A0A000C0A0C000C0A0E000C0C00000C0C02000C0C04000C0C06000
310
C0C08000C0C0A000F0FBFF00A4A0A000808080000000FF0000FF000000FFFF00FF000000FF00FF00FFFF0000FFFFFF0000000000000000000000000000000000000000000000000000000000000000000000000000000000000000000000FFFFFFFF00000000000000000000000000000000000000000000000000000000FF
310
FFFFFF00000000000000000000000000000000000000000000000000000000FFFFFFFF00000000000000000000000000000000000000000000000000000000FFFFFFFF00000000000000000000000000000000000000000000000000000000FFFFFFFF00000000000000000000000000000000000000000000000000000000
310
FFFFFFFF00000000000000000000000000000000000000000000000000000000FFFFFFFF00000000000000000000000000000000000000000000000000000000FFFFFFFF00000000000000000000000000000000000000000000000000000000FFFFFFFF000000000000000000000000000000000000000000000000000000
310
00FFFFFFFF00000000000000000000000000000000000000000000000000000000FFFFFFFF00000000000000000000000000000000000000000000000000000000FFFFFFFF00000000000000000000000000000000000000000000000000000000FFFFFFFF0000000000000000000000000000000000000000000000000000
310
0000FFFFFFFF00000000000000000000000000000000000000000000000000000000FFFFFFFF0000000000000000000000000000000000000000000000000000000000FFFF000000000000000000000000000000000000000000000000000000000000FFFF0000000000000000000000000000000000000000000000000000
310
00000000FFFF000000000000000000000000000000000000000000000000000000000000FFFF000000000000000000000000000000000000000000000000000000000000FFFF000000000000000000000000000000000000000000000000000000000000FFFF00000000000000000000000000000000000000000000000000
310
0000000000FFFF000000000000000000000000000000000000000000000000000000000000FFFF000000000000000000000000000000000000000000000000000000000000FFFF000000000000000000000000000000000000000000000000000000000000FFFF000000000000000000000000000000000000000000000000
310
000000000000FFFF000000000000000000000000000000000000000000000000000000000000FFFF000000000000000000000000000000000000000000000000000000000000FFFF000000000000000000000000000000000000000000000000000000000000FFFF0000000000000000000000000000000000000000000000
310
00000000000000FFFF0000000000000000000000000000000000000000000000000000000000000000000000000000000000000000000000
1001
ACAD
1000
DesignCenter Data
1002
{
1070
     1
1070
     1
1002
}
  0
BLOCK_RECORD
  5
BA7
330
1
100
AcDbSymbolTableRecord
100
AcDbBlockTableRecord
  2
ghgh
340
0
310
2800000020000000200000000100080000000000000400000000000000000000000000000000000000000000000080000080000000808000800000008000800080800000C0C0C000C0DCC000F0CAA6000020400000206000002080000020A0000020C0000020E00000400000004020000040400000406000004080000040A0
310
000040C0000040E00000600000006020000060400000606000006080000060A0000060C0000060E00000800000008020000080400000806000008080000080A0000080C0000080E00000A0000000A0200000A0400000A0600000A0800000A0A00000A0C00000A0E00000C0000000C0200000C0400000C0600000C0800000C0
310
A00000C0C00000C0E00000E0000000E0200000E0400000E0600000E0800000E0A00000E0C00000E0E00040000000400020004000400040006000400080004000A0004000C0004000E00040200000402020004020400040206000402080004020A0004020C0004020E000404000004040200040404000404060004040800040
310
40A0004040C0004040E00040600000406020004060400040606000406080004060A0004060C0004060E00040800000408020004080400040806000408080004080A0004080C0004080E00040A0000040A0200040A0400040A0600040A0800040A0A00040A0C00040A0E00040C0000040C0200040C0400040C0600040C08000
310
40C0A00040C0C00040C0E00040E0000040E0200040E0400040E0600040E0800040E0A00040E0C00040E0E00080000000800020008000400080006000800080008000A0008000C0008000E00080200000802020008020400080206000802080008020A0008020C0008020E00080400000804020008040400080406000804080
310
008040A0008040C0008040E00080600000806020008060400080606000806080008060A0008060C0008060E00080800000808020008080400080806000808080008080A0008080C0008080E00080A0000080A0200080A0400080A0600080A0800080A0A00080A0C00080A0E00080C0000080C0200080C0400080C0600080C0
310
800080C0A00080C0C00080C0E00080E0000080E0200080E0400080E0600080E0800080E0A00080E0C00080E0E000C0000000C0002000C0004000C0006000C0008000C000A000C000C000C000E000C0200000C0202000C0204000C0206000C0208000C020A000C020C000C020E000C0400000C0402000C0404000C0406000C0
310
408000C040A000C040C000C040E000C0600000C0602000C0604000C0606000C0608000C060A000C060C000C060E000C0800000C0802000C0804000C0806000C0808000C080A000C080C000C080E000C0A00000C0A02000C0A04000C0A06000C0A08000C0A0A000C0A0C000C0A0E000C0C00000C0C02000C0C04000C0C06000
310
C0C08000C0C0A000F0FBFF00A4A0A000808080000000FF0000FF000000FFFF00FF000000FF00FF00FFFF0000FFFFFF000000000000000000000000000000000000000000000000000000000000000000000000000000000000000000000000F900000000000000000000000000000000000000000000000000000000000000
310
F9000000000000000000000000000000000000000000000000000000000000FFF9FFFF000000000000000000000000000000000000000000000000000000FFFFF900FFFF00000000000000000000000000000000000000000000000000FF0000F9000000FF0000000000000000000000000000000000000000000000FF0000
310
00F900000000FF00000000000000000000000000000000000000000000FF000000F900000000FF00000000000000000000000000000000000000000000FF000000F900000000FF00000000000000000000000000000000000000000000FF000000F900000000FF00000000000000000000000000000000000000000000FF00
310
0000F900000000FF00000000000000000000000000000000000000000000FF000000F900000000FF00000000000000000000000000000000000000000000FF000000F900000000FF00000000000000000000000000000000000000000000FF000000F900000000FF00000000000000000000000000000000000000000000FF
310
000000F900000000FF00000000000000000000000000000000000000000000FF000000F900000000FF00000000000000000000000000000000000000000000FF000000F900000000FF00000000000000000000000000000000000000000000FF000000F900000000FF00000000000000000000000000000000000000000000
310
FF000000F900000000FF00000000000000000000000000000000000000000000FF0000FFFFFFFF0000FF00000000000000000000000000000000000000000000FF0000FFF900FF0000FF00000000000000000000000000000000000000000000FFFFFFFFF900FFFFFFFF000000000000000000000000000000000000000000
310
000000FFFFF900FFFF0000000000000000000000000000000000000000000000000000FFFFF900FFFF0000000000000000000000000000000000000000000000000000FFFFF900FFFF0000000000000000000000000000000000000000000000000000FFFFF900FFFF00000000000000000000000000000000000000000000
310
00000000FFFFF900FFFF0000000000000000000000000000000000000000000000000000FAFAF9FFFAFA0000000000000000000000000000000000000000000000000000FAFAF90000FF0000000000000000000000000000000000000000000000000000FFFFF9FFFFFF000000000000000000000000000000000000000000
310
00000000000000F9000000000000000000000000000000000000000000000000000000000000000000000000000000000000000000000000
1001
ACAD
1000
DesignCenter Data
1002
{
1070
     1
1070
     1
1002
}
  0
BLOCK_RECORD
  5
F5B
330
1
100
AcDbSymbolTableRecord
100
AcDbBlockTableRecord
  2
*D5
340
0
  0
BLOCK_RECORD
  5
10F7
330
1
100
AcDbSymbolTableRecord
100
AcDbBlockTableRecord
  2
*D6
340
0
  0
BLOCK_RECORD
  5
1105
330
1
100
AcDbSymbolTableRecord
100
AcDbBlockTableRecord
  2
*D7
340
0
  0
BLOCK_RECORD
  5
1378
330
1
100
AcDbSymbolTableRecord
100
AcDbBlockTableRecord
  2
*D8
340
0
  0
ENDTAB
  0
ENDSEC
  0
SECTION
  2
BLOCKS
  0
BLOCK
  5
5
330
2
100
AcDbEntity
  8
0
100
AcDbBlockBegin
  2
*Model_Space
 70
     0
 10
0.0
 20
0.0
 30
0.0
  3
*Model_Space
  1

  0
ENDBLK
  5
1B7
330
2
100
AcDbEntity
  8
0
100
AcDbBlockEnd
  0
BLOCK
  5
1BC
330
1BB
100
AcDbEntity
 67
     1
  8
0
100
AcDbBlockBegin
  2
*Paper_Space
 70
     0
 10
0.0
 20
0.0
 30
0.0
  3
*Paper_Space
  1

  0
ENDBLK
  5
1BD
330
1BB
100
AcDbEntity
 67
     1
  8
0
100
AcDbBlockEnd
  0
BLOCK
  5
1C0
330
1BF
100
AcDbEntity
 67
     1
  8
0
100
AcDbBlockBegin
  2
*Paper_Space0
 70
     0
 10
0.0
 20
0.0
 30
0.0
  3
*Paper_Space0
  1

  0
ENDBLK
  5
1C1
330
1BF
100
AcDbEntity
 67
     1
  8
0
100
AcDbBlockEnd
  0
BLOCK
  5
25D
330
25B
100
AcDbEntity
  8
0
100
AcDbBlockBegin
  2
A4图框-NEW
 70
     0
 10
0.0
 20
0.0
 30
0.0
  3
A4图框-NEW
  1

  0
MTEXT
  5
25E
102
{ACAD_XDICTIONARY
360
162E
102
}
330
25B
100
AcDbEntity
  8
图框
 62
     3
100
AcDbMText
 10
967.6594956750133
 20
499.7664151964293
 30
0.0
 40
2.985513575034151
 41
15.50176341157864
 71
     5
 72
     5
  1
BQ LUO
  7
Romans字体
 73
     1
 44
1.0
1001
AcDbBlockRepETag
1070
     1
1071
        0
1005
25E
1001
ACAD
1000
MTEXTBEGIN
1070
    73
1070
     1
1070
    44
1040
1.0
1070
    74
1070
     0
1000
MTEXTEND
1000
ACAD_MTEXT_DEFINED_HEIGHT_BEGIN
1070
    46
1040
6.292658374511018
1000
ACAD_MTEXT_DEFINED_HEIGHT_END
  0
MTEXT
  5
25F
330
25B
100
AcDbEntity
  8
图框
 62
     3
100
AcDbMText
 10
983.041569333247
 20
499.7664151964293
 30
0.0
 40
2.487927979195124
 41
15.26238390489062
 71
     5
 72
     5
  1
{\W0.7;18.10.2010}
  7
Romans字体
 73
     1
 44
1.0
1001
AcDbBlockRepETag
1070
     1
1071
        1
1005
25F
1001
ACAD
1000
MTEXTBEGIN
1070
    73
1070
     1
1070
    44
1040
1.0
1070
    74
1070
     0
1000
MTEXTEND
1000
ACAD_MTEXT_DEFINED_HEIGHT_BEGIN
1070
    46
1040
6.292658374511042
1000
ACAD_MTEXT_DEFINED_HEIGHT_END
  0
MTEXT
  5
260
330
25B
100
AcDbEntity
  8
图框
 62
     3
100
AcDbMText
 10
1012.477254728976
 20
487.1810984474071
 30
0.0
 40
2.985513575034151
 41
17.64876416884615
 71
     5
 72
     5
  1
YY LIN
  7
Romans字体
 73
     1
 44
1.0
1001
AcDbBlockRepETag
1070
     1
1071
        2
1005
260
1001
ACAD
1000
MTEXTBEGIN
1070
    73
1070
     1
1070
    44
1040
1.0
1070
    74
1070
     0
1000
MTEXTEND
1000
ACAD_MTEXT_DEFINED_HEIGHT_BEGIN
1070
    46
1040
6.292658374511455
1000
ACAD_MTEXT_DEFINED_HEIGHT_END
  0
MTEXT
  5
261
330
25B
100
AcDbEntity
  8
图框
 62
     3
100
AcDbMText
 10
1028.977802139886
 20
487.1810984474071
 30
0.0
 40
2.487927979195124
 41
15.35233065297276
 71
     5
 72
     5
  1
{\W0.7;18.10.2010}
  7
Romans字体
 73
     1
 44
1.0
1001
AcDbBlockRepETag
1070
     1
1071
        3
1005
261
1001
ACAD
1000
MTEXTBEGIN
1070
    73
1070
     1
1070
    44
1040
1.0
1070
    74
1070
     0
1000
MTEXTEND
1000
ACAD_MTEXT_DEFINED_HEIGHT_BEGIN
1070
    46
1040
6.292658374511495
1000
ACAD_MTEXT_DEFINED_HEIGHT_END
  0
MTEXT
  5
262
330
25B
100
AcDbEntity
  8
图框
 62
     3
100
AcDbMText
 10
1063.722665487208
 20
525.4145966538831
 30
0.0
 40
2.985513575034151
 41
32.4973914334545
 71
     5
 72
     5
  1
-
  7
Romans字体
 73
     1
 44
1.0
1001
AcDbBlockRepETag
1070
     1
1071
        4
1005
262
1001
ACAD
1000
MTEXTBEGIN
1070
    73
1070
     1
1070
    44
1040
1.0
1070
    74
1070
     0
1000
MTEXTEND
1000
ACAD_MTEXT_DEFINED_HEIGHT_BEGIN
1070
    46
1040
11.82914190181707
1000
ACAD_MTEXT_DEFINED_HEIGHT_END
  0
MTEXT
  5
263
330
25B
100
AcDbEntity
  8
图框
 62
     3
100
AcDbMText
 10
1063.727338552349
 20
513.5854547520641
 30
0.0
 40
2.985513575034151
 41
32.48804530317308
 71
     5
 72
     5
  1
-
  7
Romans字体
 73
     1
 44
1.0
1001
AcDbBlockRepETag
1070
     1
1071
        5
1005
263
1001
ACAD
1000
MTEXTBEGIN
1070
    73
1070
     1
1070
    44
1040
1.0
1070
    74
1070
     0
1000
MTEXTEND
1000
ACAD_MTEXT_DEFINED_HEIGHT_BEGIN
1070
    46
1040
11.82914190182139
1000
ACAD_MTEXT_DEFINED_HEIGHT_END
  0
MTEXT
  5
264
330
25B
100
AcDbEntity
  8
图框
 62
     3
100
AcDbMText
 10
1110.122306614152
 20
526.8006839312707
 30
0.0
 40
2.985513575034151
 41
33.61239199242139
 71
     5
 72
     5
  1
-
  7
Romans字体
 73
     1
 44
1.0
1001
AcDbBlockRepETag
1070
     1
1071
        6
1005
264
1001
ACAD
1000
MTEXTBEGIN
1070
    73
1070
     1
1070
    44
1040
1.0
1070
    74
1070
     0
1000
MTEXTEND
1000
ACAD_MTEXT_DEFINED_HEIGHT_BEGIN
1070
    46
1040
9.05696734704178
1000
ACAD_MTEXT_DEFINED_HEIGHT_END
  0
MTEXT
  5
265
330
25B
100
AcDbEntity
  8
图框
 62
     3
100
AcDbMText
 10
1110.122306614152
 20
500.2775205517162
 30
0.0
 40
2.985513575034151
 41
33.61239199242139
 71
     5
 72
     5
  1
-
  7
Romans字体
 73
     1
 44
1.0
1001
AcDbBlockRepETag
1070
     1
1071
        7
1005
265
1001
ACAD
1000
MTEXTBEGIN
1070
    73
1070
     1
1070
    44
1040
1.0
1070
    74
1070
     0
1000
MTEXTEND
1000
ACAD_MTEXT_DEFINED_HEIGHT_BEGIN
1070
    46
1040
8.871557304763419
1000
ACAD_MTEXT_DEFINED_HEIGHT_END
  0
MTEXT
  5
266
330
25B
100
AcDbEntity
  8
图框
 62
     3
100
AcDbMText
 10
967.6594956750133
 20
493.4737568219182
 30
0.0
 40
2.985513575034151
 41
15.50176341157864
 71
     5
 72
     5
  1
P RAO
  7
Romans字体
 73
     1
 44
1.0
1001
AcDbBlockRepETag
1070
     1
1071
        8
1005
266
1001
ACAD
1000
MTEXTBEGIN
1070
    73
1070
     1
1070
    44
1040
1.0
1070
    74
1070
     0
1000
MTEXTEND
1000
ACAD_MTEXT_DEFINED_HEIGHT_BEGIN
1070
    46
1040
6.292658374510335
1000
ACAD_MTEXT_DEFINED_HEIGHT_END
  0
MTEXT
  5
267
330
25B
100
AcDbEntity
  8
图框
 62
     3
100
AcDbMText
 10
983.041569333247
 20
493.2441970450405
 30
0.0
 40
2.487927979195124
 41
15.26238390489051
 71
     5
 72
     5
  1
{\W0.7;18.10.2010}
  7
Romans字体
 73
     1
 44
1.0
1001
AcDbBlockRepETag
1070
     1
1071
        9
1005
267
1001
ACAD
1000
MTEXTBEGIN
1070
    73
1070
     1
1070
    44
1040
1.0
1070
    74
1070
     0
1000
MTEXTEND
1000
ACAD_MTEXT_DEFINED_HEIGHT_BEGIN
1070
    46
1040
6.751777928266487
1000
ACAD_MTEXT_DEFINED_HEIGHT_END
  0
MTEXT
  5
268
330
25B
100
AcDbEntity
  8
图框
 62
     3
100
AcDbMText
 10
1012.477254728976
 20
499.7664151964291
 30
0.0
 40
2.985513575034151
 41
17.64876416884615
 71
     5
 72
     5
  1
-
  7
Romans字体
 73
     1
 44
1.0
1001
AcDbBlockRepETag
1070
     1
1071
       10
1005
268
1001
ACAD
1000
MTEXTBEGIN
1070
    73
1070
     1
1070
    44
1040
1.0
1070
    74
1070
     0
1000
MTEXTEND
1000
ACAD_MTEXT_DEFINED_HEIGHT_BEGIN
1070
    46
1040
6.292658374511397
1000
ACAD_MTEXT_DEFINED_HEIGHT_END
  0
MTEXT
  5
269
330
25B
100
AcDbEntity
  8
图框
 62
     3
100
AcDbMText
 10
1028.977802139886
 20
499.7664151964289
 30
0.0
 40
2.487927979195124
 41
15.35233065297265
 71
     5
 72
     5
  1
-
  7
Romans字体
 73
     1
 44
1.0
1001
AcDbBlockRepETag
1070
     1
1071
       11
1005
269
1001
ACAD
1000
MTEXTBEGIN
1070
    73
1070
     1
1070
    44
1040
1.0
1070
    74
1070
     0
1000
MTEXTEND
1000
ACAD_MTEXT_DEFINED_HEIGHT_BEGIN
1070
    46
1040
6.292658374511382
1000
ACAD_MTEXT_DEFINED_HEIGHT_END
  0
MTEXT
  5
26A
330
25B
100
AcDbEntity
  8
图框
 62
     3
100
AcDbMText
 10
967.6594956750133
 20
487.1810984474071
 30
0.0
 40
2.985513575034151
 41
15.50176341157863
 71
     5
 72
     5
  1
-
  7
Romans字体
 73
     1
 44
1.0
1001
AcDbBlockRepETag
1070
     1
1071
       12
1005
26A
1001
ACAD
1000
MTEXTBEGIN
1070
    73
1070
     1
1070
    44
1040
1.0
1070
    74
1070
     0
1000
MTEXTEND
1000
ACAD_MTEXT_DEFINED_HEIGHT_BEGIN
1070
    46
1040
6.292658374511478
1000
ACAD_MTEXT_DEFINED_HEIGHT_END
  0
MTEXT
  5
26B
330
25B
100
AcDbEntity
  8
图框
 62
     3
100
AcDbMText
 10
983.041569333247
 20
487.1810984474071
 30
0.0
 40
2.487927979195124
 41
15.26238390489062
 71
     5
 72
     5
  1
-
  7
Romans字体
 73
     1
 44
1.0
1001
AcDbBlockRepETag
1070
     1
1071
       13
1005
26B
1001
ACAD
1000
MTEXTBEGIN
1070
    73
1070
     1
1070
    44
1040
1.0
1070
    74
1070
     0
1000
MTEXTEND
1000
ACAD_MTEXT_DEFINED_HEIGHT_BEGIN
1070
    46
1040
6.292658374511495
1000
ACAD_MTEXT_DEFINED_HEIGHT_END
  0
MTEXT
  5
26C
330
25B
100
AcDbEntity
  8
图框
 62
     3
100
AcDbMText
 10
1074.556686986741
 20
495.8417418993361
 30
0.0
 40
2.985513575034151
 41
10.82934843438978
 71
     5
 72
     5
  1
-
  7
Romans字体
 73
     1
 44
1.0
1001
AcDbBlockRepETag
1070
     1
1071
       14
1005
26C
1001
ACAD
1000
MTEXTBEGIN
1070
    73
1070
     1
1070
    44
1040
1.0
1070
    74
1070
     0
1000
MTEXTEND
1000
ACAD_MTEXT_DEFINED_HEIGHT_BEGIN
1070
    46
1040
7.886094601210427
1000
ACAD_MTEXT_DEFINED_HEIGHT_END
  0
LINE
  5
26D
330
25B
100
AcDbEntity
  8
图框
370
    -3
100
AcDbLine
 10
1036.653967466372
 20
499.7847891999413
 30
0.0
 11
1079.971361203936
 21
499.7847891999413
 31
0.0
1001
AcDbBlockRepETag
1070
     1
1071
       15
1005
26D
  0
MTEXT
  5
26E
330
25B
100
AcDbEntity
  8
图框
 62
     1
370
    20
100
AcDbMText
 10
1108.26336443907
 20
491.5162596080882
 30
0.0
 40
2.699054613030988
 41
82.30831305643079
 71
     5
 72
     5
  1
{\fSimHei|b0|i0|c134|p2;厦门唯恩电气有限公司}
 73
     1
 44
1.0
1001
AcDbBlockRepETag
1070
     1
1071
       16
1005
26E
1001
ACAD
1000
MTEXTBEGIN
1070
    73
1070
     1
1070
    44
1040
1.0
1070
    74
1070
     0
1000
MTEXTEND
  0
MTEXT
  5
26F
330
25B
100
AcDbEntity
  8
图框
 62
     3
370
    20
100
AcDbMText
 10
1108.435451459908
 20
487.298967726064
 30
0.0
 40
1.652482416141417
 41
68.08558693693567
 71
     5
 72
     5
  1
{\fArial Narrow|b0|i0|c0|p34;XIAMEN WAIN ELECTRICAL CO.LTD}
  7
工程字
 73
     1
 44
1.0
1001
AcDbBlockRepETag
1070
     1
1071
       17
1005
26F
1001
ACAD
1000
MTEXTBEGIN
1070
    73
1070
     1
1070
    44
1040
1.0
1070
    74
1070
     0
1000
MTEXTEND
  0
MTEXT
  5
270
330
25B
100
AcDbEntity
  8
图框
 62
     1
370
    20
100
AcDbMText
 10
1085.711816899387
 20
491.0944802995856
 30
0.0
 40
2.005930044038334
 41
5.047240019334847
 71
     1
 72
     5
  1
{\fArial|b0|i0|c0|p34;A}
  7
Chinese
 73
     1
 44
1.0
1001
AcDbBlockRepETag
1070
     1
1071
       18
1005
270
1001
ACAD
1000
MTEXTBEGIN
1070
    73
1070
     1
1070
    44
1040
1.0
1070
    74
1070
     0
1000
MTEXTEND
  0
MTEXT
  5
271
330
25B
100
AcDbEntity
  8
图框
 62
     1
370
    20
100
AcDbMText
 10
1088.213485935716
 20
491.0944802995856
 30
0.0
 40
2.005930044038334
 41
5.047240019334847
 71
     1
 72
     5
  1
{\fArial|b0|i0|c0|p34;I}
  7
Chinese
 73
     1
 44
1.0
1001
AcDbBlockRepETag
1070
     1
1071
       19
1005
271
1001
ACAD
1000
MTEXTBEGIN
1070
    73
1070
     1
1070
    44
1040
1.0
1070
    74
1070
     0
1000
MTEXTEND
  0
MTEXT
  5
272
330
25B
100
AcDbEntity
  8
图框
 62
     1
370
    20
100
AcDbMText
 10
1089.142375222864
 20
491.0822866326808
 30
0.0
 40
2.005930044038334
 41
5.047240019334847
 71
     1
 72
     5
  1
{\fArial|b0|i0|c0|p34;N}
  7
Chinese
 73
     1
 44
1.0
1001
AcDbBlockRepETag
1070
     1
1071
       20
1005
272
1001
ACAD
1000
MTEXTBEGIN
1070
    73
1070
     1
1070
    44
1040
1.0
1070
    74
1070
     0
1000
MTEXTEND
  0
MTEXT
  5
273
330
25B
100
AcDbEntity
  8
图框
100
AcDbMText
 10
1069.142012769545
 20
487.9667319294409
 30
0.0
 40
2.252848170144607
 41
21.65869686878327
 71
     5
 72
     5
  1
{\W0.5;\C1;All Dimensions in mm\POriginal Size DIN A 4}
  7
Romans字体
 73
     1
 44
1.0
1001
AcDbBlockRepETag
1070
     1
1071
       21
1005
273
1001
ACAD
1000
MTEXTBEGIN
1070
    73
1070
     1
1070
    44
1040
1.0
1070
    74
1070
     0
1000
MTEXTEND
1000
ACAD_MTEXT_DEFINED_HEIGHT_BEGIN
1070
    46
1040
7.863925338579296
1000
ACAD_MTEXT_DEFINED_HEIGHT_END
  0
MTEXT
  5
274
330
25B
100
AcDbEntity
  8
图框
  6
ByBlock
 62
     6
370
    18
100
AcDbMText
 10
1127.40434942308
 20
508.7896535755975
 30
0.0
 40
2.651776162684904
 41
2.557913877927211
 71
     1
 72
     5
  1
A
  7
Romans字体
 11
0.0000000000000001
 21
1.0
 31
0.0
 73
     1
 44
1.0
1001
AcDbBlockRepETag
1070
     1
1071
       22
1005
274
1001
ACAD
1000
MTEXTBEGIN
1070
    73
1070
     1
1070
    44
1040
1.0
1070
    74
1070
     0
1000
MTEXTEND
  0
MTEXT
  5
275
330
25B
100
AcDbEntity
  8
图框
 62
     6
100
AcDbMText
 10
1127.40434942308
 20
556.3746573232886
 30
0.0
 40
2.651776162684904
 41
2.557913877927211
 71
     1
 72
     5
  1
B
  7
Romans字体
 11
0.0000000000000001
 21
1.0
 31
0.0
 73
     1
 44
1.0
1001
AcDbBlockRepETag
1070
     1
1071
       23
1005
275
1001
ACAD
1000
MTEXTBEGIN
1070
    73
1070
     1
1070
    44
1040
1.0
1070
    74
1070
     0
1000
MTEXTEND
  0
MTEXT
  5
276
330
25B
100
AcDbEntity
  8
图框
 62
     6
100
AcDbMText
 10
1127.40434942308
 20
607.5539372630998
 30
0.0
 40
2.651776162684904
 41
2.557913877927211
 71
     1
 72
     5
  1
C
  7
Romans字体
 11
0.0000000000000001
 21
1.0
 31
0.0
 73
     1
 44
1.0
1001
AcDbBlockRepETag
1070
     1
1071
       24
1005
276
1001
ACAD
1000
MTEXTBEGIN
1070
    73
1070
     1
1070
    44
1040
1.0
1070
    74
1070
     0
1000
MTEXTEND
  0
MTEXT
  5
277
330
25B
100
AcDbEntity
  8
图框
 62
     6
100
AcDbMText
 10
1127.40434942308
 20
658.7332172029115
 30
0.0
 40
2.651776162684904
 41
2.557913877927211
 71
     1
 72
     5
  1
D
  7
Romans字体
 11
0.0000000000000001
 21
1.0
 31
0.0
 73
     1
 44
1.0
1001
AcDbBlockRepETag
1070
     1
1071
       25
1005
277
1001
ACAD
1000
MTEXTBEGIN
1070
    73
1070
     1
1070
    44
1040
1.0
1070
    74
1070
     0
1000
MTEXTEND
  0
LINE
  5
278
330
25B
100
AcDbEntity
  8
图框
 62
     6
100
AcDbLine
 10
1130.411601781241
 20
634.0726090796082
 30
0.0
 11
1126.928502610363
 21
634.0726090796082
 31
0.0
1001
AcDbBlockRepETag
1070
     1
1071
       26
1005
278
  0
LINE
  5
279
330
25B
100
AcDbEntity
  8
图框
 62
     6
100
AcDbLine
 10
1130.411601781241
 20
582.89332913979
 30
0.0
 11
1126.928502610363
 21
582.89332913979
 31
0.0
1001
AcDbBlockRepETag
1070
     1
1071
       27
1005
279
  0
MTEXT
  5
27A
330
25B
100
AcDbEntity
  8
图框
 62
     6
100
AcDbMText
 10
1105.329704038389
 20
483.6164543011163
 30
0.0
 40
2.651776162684904
 41
2.557913877927211
 71
     1
 72
     5
  1
6
  7
Romans字体
 73
     1
 44
1.0
1001
AcDbBlockRepETag
1070
     1
1071
       28
1005
27A
1001
ACAD
1000
MTEXTBEGIN
1070
    73
1070
     1
1070
    44
1040
1.0
1070
    74
1070
     0
1000
MTEXTEND
  0
LINE
  5
27B
330
25B
100
AcDbEntity
  8
图框
 62
     6
100
AcDbLine
 10
1081.088565155284
 20
484.0347692601515
 30
0.0
 11
1081.088565155284
 21
480.5347692601475
 31
0.0
1001
AcDbBlockRepETag
1070
     1
1071
       29
1005
27B
  0
MTEXT
  5
27C
330
25B
100
AcDbEntity
  8
图框
 62
     6
100
AcDbMText
 10
1055.900596365941
 20
483.520053108993
 30
0.0
 40
2.651776162684904
 41
2.557913877927211
 71
     1
 72
     5
  1
5
  7
Romans字体
 73
     1
 44
1.0
1001
AcDbBlockRepETag
1070
     1
1071
       30
1005
27C
1001
ACAD
1000
MTEXTBEGIN
1070
    73
1070
     1
1070
    44
1040
1.0
1070
    74
1070
     0
1000
MTEXTEND
  0
LINE
  5
27D
330
25B
100
AcDbEntity
  8
图框
 62
     6
100
AcDbLine
 10
1031.553386436349
 20
484.0347692601515
 30
0.0
 11
1031.553386436349
 21
480.5347692601475
 31
0.0
1001
AcDbBlockRepETag
1070
     1
1071
       31
1005
27D
  0
MTEXT
  5
27E
330
25B
100
AcDbEntity
  8
图框
 62
     6
100
AcDbMText
 10
1006.383180575197
 20
483.5687958215896
 30
0.0
 40
2.651776162684904
 41
2.557913877927211
 71
     1
 72
     5
  1
4
  7
Romans字体
 73
     1
 44
1.0
1001
AcDbBlockRepETag
1070
     1
1071
       32
1005
27E
1001
ACAD
1000
MTEXTBEGIN
1070
    73
1070
     1
1070
    44
1040
1.0
1070
    74
1070
     0
1000
MTEXTEND
  0
LINE
  5
27F
330
25B
100
AcDbEntity
  8
图框
 62
     6
100
AcDbLine
 10
982.0182077173887
 20
484.0347692601515
 30
0.0
 11
982.0182077173887
 21
480.5347692601475
 31
0.0
1001
AcDbBlockRepETag
1070
     1
1071
       33
1005
27F
  0
MTEXT
  5
280
330
25B
100
AcDbEntity
  8
图框
 62
     6
100
AcDbMText
 10
956.8302389280352
 20
483.5989680297948
 30
0.0
 40
2.651776162684904
 41
2.557913877927211
 71
     1
 72
     5
  1
3
  7
Romans字体
 73
     1
 44
1.0
1001
AcDbBlockRepETag
1070
     1
1071
       34
1005
280
1001
ACAD
1000
MTEXTBEGIN
1070
    73
1070
     1
1070
    44
1040
1.0
1070
    74
1070
     0
1000
MTEXTEND
  0
LINE
  5
281
330
25B
100
AcDbEntity
  8
图框
 62
     6
100
AcDbLine
 10
932.4830289984245
 20
484.0347692601515
 30
0.0
 11
932.4830289984245
 21
480.5347692601475
 31
0.0
1001
AcDbBlockRepETag
1070
     1
1071
       35
1005
281
  0
MTEXT
  5
282
330
25B
100
AcDbEntity
  8
图框
 62
     6
100
AcDbMText
 10
906.0252349826365
 20
483.6475250013156
 30
0.0
 40
2.651776162684904
 41
2.557913877927211
 71
     1
 72
     5
  1
2
  7
Romans字体
 73
     1
 44
1.0
1001
AcDbBlockRepETag
1070
     1
1071
       36
1005
282
1001
ACAD
1000
MTEXTBEGIN
1070
    73
1070
     1
1070
    44
1040
1.0
1070
    74
1070
     0
1000
MTEXTEND
  0
LINE
  5
283
330
25B
100
AcDbEntity
  8
图框
 62
     6
100
AcDbLine
 10
882.9478502794648
 20
484.0347692601515
 30
0.0
 11
882.9478502794648
 21
480.5347692601475
 31
0.0
1001
AcDbBlockRepETag
1070
     1
1071
       37
1005
283
  0
MTEXT
  5
284
330
25B
100
AcDbEntity
  8
图框
 62
     6
100
AcDbMText
 10
857.7598814901191
 20
483.651829494754
 30
0.0
 40
2.651776162684904
 41
2.557913877927211
 71
     1
 72
     5
  1
1
  7
Romans字体
 73
     1
 44
1.0
1001
AcDbBlockRepETag
1070
     1
1071
       38
1005
284
1001
ACAD
1000
MTEXTBEGIN
1070
    73
1070
     1
1070
    44
1040
1.0
1070
    74
1070
     0
1000
MTEXTEND
  0
LINE
  5
285
330
25B
100
AcDbEntity
  8
图框
370
    50
100
AcDbLine
 10
836.8548209370597
 20
484.0347692601515
 30
0.0
 11
1126.928502610363
 21
484.0347692601515
 31
0.0
1001
AcDbBlockRepETag
1070
     1
1071
       39
1005
285
  0
LINE
  5
286
330
25B
100
AcDbEntity
  8
图框
370
    50
100
AcDbLine
 10
836.9128518455362
 20
484.0178684310246
 30
0.0
 11
836.9128518455394
 21
675.0207195125422
 31
0.0
1001
AcDbBlockRepETag
1070
     1
1071
       40
1005
286
  0
MTEXT
  5
287
330
25B
100
AcDbEntity
  8
图框
 62
     6
100
AcDbMText
 10
833.8475685789031
 20
658.7332172029115
 30
0.0
 40
2.651776162684904
 41
2.557913877927211
 71
     1
 72
     5
  1
D
  7
Romans字体
 11
0.0000000000000001
 21
1.0
 31
0.0
 73
     1
 44
1.0
1001
AcDbBlockRepETag
1070
     1
1071
       41
1005
287
1001
ACAD
1000
MTEXTBEGIN
1070
    73
1070
     1
1070
    44
1040
1.0
1070
    74
1070
     0
1000
MTEXTEND
  0
LINE
  5
288
330
25B
100
AcDbEntity
  8
图框
 62
     6
100
AcDbLine
 10
836.9128518455386
 20
634.0726090796082
 30
0.0
 11
833.4128518455365
 21
634.0726090796082
 31
0.0
1001
AcDbBlockRepETag
1070
     1
1071
       42
1005
288
  0
MTEXT
  5
289
330
25B
100
AcDbEntity
  8
图框
 62
     6
100
AcDbMText
 10
833.9039177480142
 20
607.5539372630998
 30
0.0
 40
2.651776162684904
 41
2.557913877927211
 71
     1
 72
     5
  1
C
  7
Romans字体
 11
0.0000000000000001
 21
1.0
 31
0.0
 73
     1
 44
1.0
1001
AcDbBlockRepETag
1070
     1
1071
       43
1005
289
1001
ACAD
1000
MTEXTBEGIN
1070
    73
1070
     1
1070
    44
1040
1.0
1070
    74
1070
     0
1000
MTEXTEND
  0
LINE
  5
28A
330
25B
100
AcDbEntity
  8
图框
 62
     6
100
AcDbLine
 10
836.9128518455378
 20
582.89332913979
 30
0.0
 11
833.4128518455365
 21
582.89332913979
 31
0.0
1001
AcDbBlockRepETag
1070
     1
1071
       44
1005
28A
  0
MTEXT
  5
28B
330
25B
100
AcDbEntity
  8
图框
 62
     6
100
AcDbMText
 10
833.9039177480142
 20
556.3746573232886
 30
0.0
 40
2.651776162684904
 41
2.557913877927211
 71
     1
 72
     5
  1
B
  7
Romans字体
 11
0.0000000000000001
 21
1.0
 31
0.0
 73
     1
 44
1.0
1001
AcDbBlockRepETag
1070
     1
1071
       45
1005
28B
1001
ACAD
1000
MTEXTBEGIN
1070
    73
1070
     1
1070
    44
1040
1.0
1070
    74
1070
     0
1000
MTEXTEND
  0
LINE
  5
28C
330
25B
100
AcDbEntity
  8
图框
 62
     6
100
AcDbLine
 10
836.9128518455367
 20
531.714049199969
 30
0.0
 11
833.4128518455365
 21
531.714049199969
 31
0.0
1001
AcDbBlockRepETag
1070
     1
1071
       46
1005
28C
  0
MTEXT
  5
28D
330
25B
100
AcDbEntity
  8
图框
 62
     6
100
AcDbMText
 10
833.9039177480142
 20
508.7896535755975
 30
0.0
 40
2.651776162684904
 41
2.557913877927211
 71
     1
 72
     5
  1
A
  7
Romans字体
 11
0.0000000000000001
 21
1.0
 31
0.0
 73
     1
 44
1.0
1001
AcDbBlockRepETag
1070
     1
1071
       47
1005
28D
1001
ACAD
1000
MTEXTBEGIN
1070
    73
1070
     1
1070
    44
1040
1.0
1070
    74
1070
     0
1000
MTEXTEND
  0
LINE
  5
28E
330
25B
100
AcDbEntity
  8
图框
370
    -3
100
AcDbLine
 10
836.9128518455394
 20
675.0207195125422
 30
0.0
 11
836.9128518455394
 21
684.5021384922564
 31
0.0
1001
AcDbBlockRepETag
1070
     1
1071
       48
1005
28E
  0
LINE
  5
28F
330
25B
100
AcDbEntity
  8
图框
370
    -3
100
AcDbLine
 10
842.6237321475781
 20
675.5347692601515
 30
0.0
 11
842.6237321475781
 21
685.0161882398658
 31
0.0
1001
AcDbBlockRepETag
1070
     1
1071
       49
1005
28F
  0
LINE
  5
290
330
25B
100
AcDbEntity
  8
图框
370
    -3
100
AcDbLine
 10
848.3346124496179
 20
675.5347692601515
 30
0.0
 11
848.3346124496179
 21
685.0161882398658
 31
0.0
1001
AcDbBlockRepETag
1070
     1
1071
       50
1005
290
  0
LINE
  5
291
330
25B
100
AcDbEntity
  8
图框
370
    -3
100
AcDbLine
 10
854.0454927516588
 20
675.5347692601515
 30
0.0
 11
854.0454927516588
 21
685.0161882398658
 31
0.0
1001
AcDbBlockRepETag
1070
     1
1071
       51
1005
291
  0
LINE
  5
292
330
25B
100
AcDbEntity
  8
图框
370
    -3
100
AcDbLine
 10
861.5351874539182
 20
675.5347692601515
 30
0.0
 11
861.5351874539182
 21
686.7901958362482
 31
0.0
1001
AcDbBlockRepETag
1070
     1
1071
       52
1005
292
  0
MTEXT
  5
293
330
25B
100
AcDbEntity
  8
图框
 62
     6
100
AcDbMText
 10
1105.329704038389
 20
678.859919059449
 30
0.0
 40
2.651776162684904
 41
2.557913877927211
 71
     1
 72
     5
  1
6
  7
Romans字体
 73
     1
 44
1.0
1001
AcDbBlockRepETag
1070
     1
1071
       53
1005
293
1001
ACAD
1000
MTEXTBEGIN
1070
    73
1070
     1
1070
    44
1040
1.0
1070
    74
1070
     0
1000
MTEXTEND
  0
LINE
  5
294
330
25B
100
AcDbEntity
  8
图框
 62
     6
100
AcDbLine
 10
1081.088565155284
 20
679.0347692601516
 30
0.0
 11
1081.088565155284
 21
675.5347692601515
 31
0.0
1001
AcDbBlockRepETag
1070
     1
1071
       54
1005
294
  0
MTEXT
  5
295
330
25B
100
AcDbEntity
  8
图框
 62
     6
100
AcDbMText
 10
1055.900596365941
 20
678.859919059449
 30
0.0
 40
2.651776162684904
 41
2.557913877927211
 71
     1
 72
     5
  1
5
  7
Romans字体
 73
     1
 44
1.0
1001
AcDbBlockRepETag
1070
     1
1071
       55
1005
295
1001
ACAD
1000
MTEXTBEGIN
1070
    73
1070
     1
1070
    44
1040
1.0
1070
    74
1070
     0
1000
MTEXTEND
  0
LINE
  5
296
330
25B
100
AcDbEntity
  8
图框
 62
     6
100
AcDbLine
 10
1031.553386436349
 20
679.0347692601516
 30
0.0
 11
1031.553386436349
 21
675.5347692601515
 31
0.0
1001
AcDbBlockRepETag
1070
     1
1071
       56
1005
296
  0
MTEXT
  5
297
330
25B
100
AcDbEntity
  8
图框
 62
     6
100
AcDbMText
 10
1006.36541764698
 20
678.7312083656147
 30
0.0
 40
2.651776162684904
 41
2.557913877927211
 71
     1
 72
     5
  1
4
  7
Romans字体
 73
     1
 44
1.0
1001
AcDbBlockRepETag
1070
     1
1071
       57
1005
297
1001
ACAD
1000
MTEXTBEGIN
1070
    73
1070
     1
1070
    44
1040
1.0
1070
    74
1070
     0
1000
MTEXTEND
  0
LINE
  5
298
330
25B
100
AcDbEntity
  8
图框
 62
     6
100
AcDbLine
 10
982.0182077173887
 20
679.0347692601516
 30
0.0
 11
982.0182077173887
 21
675.5347692601515
 31
0.0
1001
AcDbBlockRepETag
1070
     1
1071
       58
1005
298
  0
MTEXT
  5
299
330
25B
100
AcDbEntity
  8
图框
 62
     6
100
AcDbMText
 10
956.8302389280352
 20
678.859919059449
 30
0.0
 40
2.651776162684904
 41
2.557913877927211
 71
     1
 72
     5
  1
3
  7
Romans字体
 73
     1
 44
1.0
1001
AcDbBlockRepETag
1070
     1
1071
       59
1005
299
1001
ACAD
1000
MTEXTBEGIN
1070
    73
1070
     1
1070
    44
1040
1.0
1070
    74
1070
     0
1000
MTEXTEND
  0
LINE
  5
29A
330
25B
100
AcDbEntity
  8
图框
 62
     6
100
AcDbLine
 10
932.4830289984245
 20
679.0347692601516
 30
0.0
 11
932.4830289984245
 21
675.5347692601515
 31
0.0
1001
AcDbBlockRepETag
1070
     1
1071
       60
1005
29A
  0
MTEXT
  5
29B
330
25B
100
AcDbEntity
  8
图框
 62
     6
100
AcDbMText
 10
907.295060209082
 20
678.859919059449
 30
0.0
 40
2.651776162684904
 41
2.557913877927211
 71
     1
 72
     5
  1
2
  7
Romans字体
 73
     1
 44
1.0
1001
AcDbBlockRepETag
1070
     1
1071
       61
1005
29B
1001
ACAD
1000
MTEXTBEGIN
1070
    73
1070
     1
1070
    44
1040
1.0
1070
    74
1070
     0
1000
MTEXTEND
  0
LINE
  5
29C
330
25B
100
AcDbEntity
  8
图框
 62
     6
100
AcDbLine
 10
882.9478502794648
 20
678.7962435131815
 30
0.0
 11
882.9478502794648
 21
675.5347692601515
 31
0.0
1001
AcDbBlockRepETag
1070
     1
1071
       62
1005
29C
  0
MTEXT
  5
29D
330
25B
100
AcDbEntity
  8
图框
 62
     6
100
AcDbMText
 10
862.6286629643733
 20
678.859919059449
 30
0.0
 40
2.651776162684904
 41
2.557913877927211
 71
     1
 72
     5
  1
1
  7
Romans字体
 73
     1
 44
1.0
1001
AcDbBlockRepETag
1070
     1
1071
       63
1005
29D
1001
ACAD
1000
MTEXTBEGIN
1070
    73
1070
     1
1070
    44
1040
1.0
1070
    74
1070
     0
1000
MTEXTEND
  0
LINE
  5
29E
330
25B
100
AcDbEntity
  8
图框
370
    -3
100
AcDbLine
 10
836.9128518455394
 20
675.0207195125422
 30
0.0
 11
836.9128518455394
 21
686.7901958362482
 31
0.0
1001
AcDbBlockRepETag
1070
     1
1071
       64
1005
29E
  0
LINE
  5
29F
330
25B
100
AcDbEntity
  8
图框
370
    50
100
AcDbLine
 10
836.9128518455394
 20
675.5347692601515
 30
0.0
 11
1126.928502610363
 21
675.5347692601515
 31
0.0
1001
AcDbBlockRepETag
1070
     1
1071
       65
1005
29F
  0
LINE
  5
2A0
330
25B
100
AcDbEntity
  8
图框
370
    -3
100
AcDbLine
 10
842.6237321475781
 20
675.5347692601515
 30
0.0
 11
842.6237321475781
 21
686.7901958362482
 31
0.0
1001
AcDbBlockRepETag
1070
     1
1071
       66
1005
2A0
  0
LINE
  5
2A1
330
25B
100
AcDbEntity
  8
图框
370
    -3
100
AcDbLine
 10
848.3346124496179
 20
675.5347692601515
 30
0.0
 11
848.3346124496179
 21
686.7901958362482
 31
0.0
1001
AcDbBlockRepETag
1070
     1
1071
       67
1005
2A1
  0
MTEXT
  5
2A2
102
{ACAD_XDICTIONARY
360
1630
102
}
330
25B
100
AcDbEntity
  8
图框
100
AcDbMText
 10
857.7903401027889
 20
686.7901958362482
 30
0.0
 40
1.958998408821398
 41
11.25542657609672
 71
     4
 72
     5
  1
{\W2.08073; }档案员{\H0.7x;\P\Fromans|c134;\W1.0325; \W0.75;Filing Clerk\fFangSong_GB2312|b0|i0|c134|p49; }
 11
-0.0000000000000002
 21
-1.0
 31
0.0
 73
     1
 44
1.0
1001
AcDbBlockRepETag
1070
     1
1071
       68
1005
2A2
1001
ACAD
1000
MTEXTBEGIN
1070
    73
1070
     1
1070
    44
1040
1.0
1070
    74
1070
     0
1000
MTEXTEND
1000
ACAD_MTEXT_DEFINED_HEIGHT_BEGIN
1070
    46
1040
7.489694702258906
1000
ACAD_MTEXT_DEFINED_HEIGHT_END
  0
MTEXT
  5
2A3
102
{ACAD_XDICTIONARY
360
1632
102
}
330
25B
100
AcDbEntity
  8
图框
100
AcDbMText
 10
845.479172298598
 20
686.7901958362482
 30
0.0
 40
1.958998408821398
 41
11.25542657609672
 71
     4
 72
     5
  1
{\W0.524929; }日期{\Fromans|c134;/Date}
 11
-0.0000000000000002
 21
-1.0
 31
0.0
 73
     1
 44
1.0
1001
AcDbBlockRepETag
1070
     1
1071
       69
1005
2A3
1001
ACAD
1000
MTEXTBEGIN
1070
    73
1070
     1
1070
    44
1040
1.0
1070
    74
1070
     0
1000
MTEXTEND
1000
ACAD_MTEXT_DEFINED_HEIGHT_BEGIN
1070
    46
1040
5.710880302039671
1000
ACAD_MTEXT_DEFINED_HEIGHT_END
  0
LINE
  5
2A4
330
25B
100
AcDbEntity
  8
图框
370
    -3
100
AcDbLine
 10
854.0454927516588
 20
675.5347692601515
 30
0.0
 11
854.0454927516588
 21
686.7901958362482
 31
0.0
1001
AcDbBlockRepETag
1070
     1
1071
       70
1005
2A4
  0
LINE
  5
2A5
330
25B
100
AcDbEntity
  8
图框
370
    -3
100
AcDbLine
 10
1036.653967466372
 20
531.3291676047914
 30
0.0
 11
1036.653967466372
 21
484.0126019753161
 31
0.0
1001
AcDbBlockRepETag
1070
     1
1071
       71
1005
2A5
  0
LINE
  5
2A6
330
25B
100
AcDbEntity
  8
图框
370
    -3
100
AcDbLine
 10
1047.483315900763
 20
507.6708838011533
 30
0.0
 11
1047.483315900763
 21
491.8986945987308
 31
0.0
1001
AcDbBlockRepETag
1070
     1
1071
       72
1005
2A6
  0
LINE
  5
2A7
330
25B
100
AcDbEntity
  8
图框
370
    -3
100
AcDbLine
 10
1058.312664335153
 20
507.6708838011533
 30
0.0
 11
1058.312664335153
 21
484.0347692601515
 31
0.0
1001
AcDbBlockRepETag
1070
     1
1071
       73
1005
2A7
  0
LINE
  5
2A8
330
25B
100
AcDbEntity
  8
图框
370
    25
100
AcDbLine
 10
1048.474135214456
 20
488.1095628329926
 30
0.0
 11
1054.946420288459
 21
488.1095628329926
 31
0.0
1001
AcDbBlockRepETag
1070
     1
1071
       74
1005
2A8
  0
LINE
  5
2A9
330
25B
100
AcDbEntity
  8
图框
370
    25
100
AcDbLine
 10
1054.232527365989
 20
487.0761716842634
 30
0.0
 11
1049.156490914508
 21
486.4576273751
 31
0.0
1001
AcDbBlockRepETag
1070
     1
1071
       75
1005
2A9
  0
LINE
  5
2AA
330
25B
100
AcDbEntity
  8
图框
370
    25
100
AcDbLine
 10
1054.232527365989
 20
489.1429539817209
 30
0.0
 11
1049.156490914508
 21
489.7614982908846
 31
0.0
1001
AcDbBlockRepETag
1070
     1
1071
       76
1005
2AA
  0
LINE
  5
2AB
330
25B
100
AcDbEntity
  8
图框
370
    25
100
AcDbLine
 10
1049.156490914508
 20
489.7614982908846
 30
0.0
 11
1049.156490914508
 21
486.4576273751
 31
0.0
1001
AcDbBlockRepETag
1070
     1
1071
       77
1005
2AB
  0
LINE
  5
2AC
330
25B
100
AcDbEntity
  8
图框
370
    25
100
AcDbLine
 10
1054.232527365989
 20
489.1429539817209
 30
0.0
 11
1054.232527365989
 21
487.0761716842634
 31
0.0
1001
AcDbBlockRepETag
1070
     1
1071
       78
1005
2AC
  0
CIRCLE
  5
2AD
330
25B
100
AcDbEntity
  8
图框
370
    25
100
AcDbCircle
 10
1042.502700458579
 20
488.1095628329926
 30
0.0
 40
1.651935457891863
1001
AcDbBlockRepETag
1070
     1
1071
       79
1005
2AD
  0
CIRCLE
  5
2AE
330
25B
100
AcDbEntity
  8
图框
370
    25
100
AcDbCircle
 10
1042.502700458579
 20
488.1095628329926
 30
0.0
 40
1.033391148728775
1001
AcDbBlockRepETag
1070
     1
1071
       80
1005
2AE
  0
LINE
  5
2AF
330
25B
100
AcDbEntity
  8
图框
370
    25
100
AcDbLine
 10
1040.136872078216
 20
488.1095628329926
 30
0.0
 11
1044.868528838943
 21
488.1095628329926
 31
0.0
1001
AcDbBlockRepETag
1070
     1
1071
       81
1005
2AF
  0
LINE
  5
2B0
330
25B
100
AcDbEntity
  8
图框
370
    25
100
AcDbLine
 10
1042.502700458579
 20
490.475391213355
 30
0.0
 11
1042.502700458579
 21
485.743734452629
 31
0.0
1001
AcDbBlockRepETag
1070
     1
1071
       82
1005
2B0
  0
LINE
  5
2B1
330
25B
100
AcDbEntity
  8
图框
370
    -3
100
AcDbLine
 10
1069.142012769546
 20
507.6708838011533
 30
0.0
 11
1069.142012769546
 21
491.8986945987308
 31
0.0
1001
AcDbBlockRepETag
1070
     1
1071
       83
1005
2B1
  0
MTEXT
  5
2B2
330
25B
100
AcDbEntity
  8
图框
100
AcDbMText
 10
1086.643735910939
 20
526.8006839312707
 30
0.0
 40
2.154898249703542
 41
13.34474941400573
 71
     5
 72
     5
  1
图号{\Ftxt|c134;\P\Fromans|c134;\W0.65;Drawing No.}
 73
     1
 44
1.0
1001
AcDbBlockRepETag
1070
     1
1071
       84
1005
2B2
1001
ACAD
1000
MTEXTBEGIN
1070
    73
1070
     1
1070
    44
1040
1.0
1070
    74
1070
     0
1000
MTEXTEND
1000
ACAD_MTEXT_DEFINED_HEIGHT_BEGIN
1070
    46
1040
9.056967347041775
1000
ACAD_MTEXT_DEFINED_HEIGHT_END
  0
LINE
  5
2B3
330
25B
100
AcDbEntity
  8
图框
370
    -3
100
AcDbLine
 10
1093.316110617942
 20
531.3291676047914
 30
0.0
 11
1093.316110617942
 21
495.8417418993347
 31
0.0
1001
AcDbBlockRepETag
1070
     1
1071
       85
1005
2B3
  0
LINE
  5
2B4
330
25B
100
AcDbEntity
  8
图框
370
    -3
100
AcDbLine
 10
1047.473969770481
 20
531.3291676047914
 30
0.0
 11
1047.473969770481
 21
507.6708838011533
 31
0.0
1001
AcDbBlockRepETag
1070
     1
1071
       86
1005
2B4
  0
MTEXT
  5
2B5
330
25B
100
AcDbEntity
  8
图框
100
AcDbMText
 10
1063.72733855235
 20
503.7278365005473
 30
0.0
 40
2.252848170144607
 41
10.82934843439208
 71
     5
 72
     5
  1
重量\P{\Fromans|c134;Weight}
 73
     1
 44
1.0
1001
AcDbBlockRepETag
1070
     1
1071
       87
1005
2B5
1001
ACAD
1000
MTEXTBEGIN
1070
    73
1070
     1
1070
    44
1040
1.0
1070
    74
1070
     0
1000
MTEXTEND
1000
ACAD_MTEXT_DEFINED_HEIGHT_BEGIN
1070
    46
1040
7.886094601212128
1000
ACAD_MTEXT_DEFINED_HEIGHT_END
  0
LINE
  5
2B6
330
25B
100
AcDbEntity
  8
图框
370
    -3
100
AcDbLine
 10
1036.653967466372
 20
519.5000257029746
 30
0.0
 11
1079.971361203936
 21
519.5000257029746
 31
0.0
1001
AcDbBlockRepETag
1070
     1
1071
       88
1005
2B6
  0
MTEXT
  5
2B7
330
25B
100
AcDbEntity
  8
图框
100
AcDbMText
 10
1074.556686986741
 20
503.7278365005473
 30
0.0
 40
2.252848170144607
 41
10.82934843438984
 71
     5
 72
     5
  1
数量\P{\Fromans|c134;Qty.}
 73
     1
 44
1.0
1001
AcDbBlockRepETag
1070
     1
1071
       89
1005
2B7
1001
ACAD
1000
MTEXTBEGIN
1070
    73
1070
     1
1070
    44
1040
1.0
1070
    74
1070
     0
1000
MTEXTEND
1000
ACAD_MTEXT_DEFINED_HEIGHT_BEGIN
1070
    46
1040
7.886094601212141
1000
ACAD_MTEXT_DEFINED_HEIGHT_END
  0
LINE
  5
2B8
330
25B
100
AcDbEntity
  8
图框
370
    -3
100
AcDbLine
 10
1079.971361203936
 20
495.8417418993347
 30
0.0
 11
1126.928502610363
 21
495.8417418993342
 31
0.0
1001
AcDbBlockRepETag
1070
     1
1071
       90
1005
2B8
  0
LINE
  5
2B9
330
25B
100
AcDbEntity
  8
图框
370
    -3
100
AcDbLine
 10
1079.971361203936
 20
504.7132992040975
 30
0.0
 11
1126.928502610363
 21
504.7132992040975
 31
0.0
1001
AcDbBlockRepETag
1070
     1
1071
       91
1005
2B9
  0
MTEXT
  5
2BA
330
25B
100
AcDbEntity
  8
图框
100
AcDbMText
 10
1052.893317052817
 20
503.7278365005473
 30
0.0
 40
2.252848170144607
 41
10.83869456467139
 71
     5
 72
     5
  1
版本\P{\Fromans|c134;REV.}
 73
     1
 44
1.0
1001
AcDbBlockRepETag
1070
     1
1071
       92
1005
2BA
1001
ACAD
1000
MTEXTBEGIN
1070
    73
1070
     1
1070
    44
1040
1.0
1070
    74
1070
     0
1000
MTEXTEND
1000
ACAD_MTEXT_DEFINED_HEIGHT_BEGIN
1070
    46
1040
7.886094601212101
1000
ACAD_MTEXT_DEFINED_HEIGHT_END
  0
MTEXT
  5
2BB
330
25B
100
AcDbEntity
  8
图框
100
AcDbMText
 10
1042.068641683568
 20
503.7278365005473
 30
0.0
 40
2.252848170144607
 41
10.8293484343908
 71
     5
 72
     5
  1
比例\P{\Fromans|c134;Scale}
 73
     1
 44
1.0
1001
AcDbBlockRepETag
1070
     1
1071
       93
1005
2BB
1001
ACAD
1000
MTEXTBEGIN
1070
    73
1070
     1
1070
    44
1040
1.0
1070
    74
1070
     0
1000
MTEXTEND
1000
ACAD_MTEXT_DEFINED_HEIGHT_BEGIN
1070
    46
1040
7.886094601212136
1000
ACAD_MTEXT_DEFINED_HEIGHT_END
  0
LINE
  5
2BC
330
25B
100
AcDbEntity
  8
图框
370
    -3
100
AcDbLine
 10
1036.653967466372
 20
507.6708838011533
 30
0.0
 11
1079.971361203936
 21
507.6708838011533
 31
0.0
1001
AcDbBlockRepETag
1070
     1
1071
       94
1005
2BC
  0
LINE
  5
2BD
330
25B
100
AcDbEntity
  8
图框
370
    -3
100
AcDbLine
 10
1036.653967466372
 20
491.8986945987308
 30
0.0
 11
1079.971361203936
 21
491.8986945987308
 31
0.0
1001
AcDbBlockRepETag
1070
     1
1071
       95
1005
2BD
  0
LINE
  5
2BE
330
25B
100
AcDbEntity
  8
图框
370
    -3
100
AcDbLine
 10
1079.971361203936
 20
531.3291676047914
 30
0.0
 11
1079.971361203936
 21
484.0125999975168
 31
0.0
1001
AcDbBlockRepETag
1070
     1
1071
       96
1005
2BE
  0
MTEXT
  5
2BF
330
25B
100
AcDbEntity
  8
图框
100
AcDbMText
 10
1042.063968618426
 20
525.4145966538832
 30
0.0
 40
2.252848170144607
 41
10.82000230410933
 71
     5
 72
     5
  1
表面处理\P{\Fromans|c134;Finish}
 73
     1
 44
1.0
1001
AcDbBlockRepETag
1070
     1
1071
       97
1005
2BF
1001
ACAD
1000
MTEXTBEGIN
1070
    73
1070
     1
1070
    44
1040
1.0
1070
    74
1070
     0
1000
MTEXTEND
1000
ACAD_MTEXT_DEFINED_HEIGHT_BEGIN
1070
    46
1040
11.82914190181708
1000
ACAD_MTEXT_DEFINED_HEIGHT_END
  0
MTEXT
  5
2C0
330
25B
100
AcDbEntity
  8
图框
100
AcDbMText
 10
1042.063968618426
 20
513.5854547520639
 30
0.0
 40
2.252848170144607
 41
10.82000230410933
 71
     5
 72
     5
  1
材料\P{\Fromans|c134;Material}
 73
     1
 44
1.0
1001
AcDbBlockRepETag
1070
     1
1071
       98
1005
2C0
1001
ACAD
1000
MTEXTBEGIN
1070
    73
1070
     1
1070
    44
1040
1.0
1070
    74
1070
     0
1000
MTEXTEND
1000
ACAD_MTEXT_DEFINED_HEIGHT_BEGIN
1070
    46
1040
11.8291419018212
1000
ACAD_MTEXT_DEFINED_HEIGHT_END
  0
LINE
  5
2C1
330
25B
100
AcDbEntity
  8
图框
370
    -3
100
AcDbLine
 10
1079.971361203936
 20
522.27220025775
 30
0.0
 11
1126.928502610363
 21
522.27220025775
 31
0.0
1001
AcDbBlockRepETag
1070
     1
1071
       99
1005
2C1
  0
LINE
  5
2C2
330
25B
100
AcDbEntity
  8
图框
370
    -3
100
AcDbLine
 10
1079.971361203936
 20
513.5854547520641
 30
0.0
 11
1126.928502610363
 21
513.5854547520639
 31
0.0
1001
AcDbBlockRepETag
1070
     1
1071
      100
1005
2C2
  0
MTEXT
  5
2C3
330
25B
100
AcDbEntity
  8
图框
100
AcDbMText
 10
1086.643735910939
 20
517.9288275049072
 30
0.0
 40
1.958998408821398
 41
13.34474941400573
 71
     5
 72
     5
  1
产品代号\P{\Fromans|c134;Part Code}
 73
     1
 44
1.0
1001
AcDbBlockRepETag
1070
     1
1071
      101
1005
2C3
1001
ACAD
1000
MTEXTBEGIN
1070
    73
1070
     1
1070
    44
1040
1.0
1070
    74
1070
     0
1000
MTEXTEND
1000
ACAD_MTEXT_DEFINED_HEIGHT_BEGIN
1070
    46
1040
8.686745505685811
1000
ACAD_MTEXT_DEFINED_HEIGHT_END
  0
LINE
  5
2C4
330
25B
100
AcDbEntity
  8
图框
370
    -3
100
AcDbLine
 10
946.9285026103634
 20
525.7982263931411
 30
0.0
 11
1036.653967466372
 21
525.7982263931411
 31
0.0
1001
AcDbBlockRepETag
1070
     1
1071
      102
1005
2C4
  0
LINE
  5
2C5
330
25B
100
AcDbEntity
  8
图框
370
    -3
100
AcDbLine
 10
946.9285026103634
 20
520.2672851814959
 30
0.0
 11
1036.653967466372
 21
520.2672851814959
 31
0.0
1001
AcDbBlockRepETag
1070
     1
1071
      103
1005
2C5
  0
LINE
  5
2C6
330
25B
100
AcDbEntity
  8
图框
370
    35
100
AcDbLine
 10
946.9285026103634
 20
531.3291676047914
 30
0.0
 11
1126.928502610363
 21
531.3291676047914
 31
0.0
1001
AcDbBlockRepETag
1070
     1
1071
      104
1005
2C6
  0
LINE
  5
2C7
330
25B
100
AcDbEntity
  8
图框
370
    -3
100
AcDbLine
 10
990.6727612856927
 20
509.2054027581959
 30
0.0
 11
990.6727612856927
 21
484.0347692601515
 31
0.0
1001
AcDbBlockRepETag
1070
     1
1071
      105
1005
2C7
  0
MTEXT
  5
2C8
102
{ACAD_XDICTIONARY
360
1634
102
}
330
25B
100
AcDbEntity
  8
图框
100
AcDbMText
 10
997.1628169651232
 20
499.816589978722
 30
0.0
 40
2.252848170144607
 41
12.98011135886052
 71
     5
 72
     5
  1
{\fSimSun|b0|i0|c134|p2;标准化}\PStand.
  7
Romans字体
 73
     1
 44
1.0
1001
AcDbBlockRepETag
1070
     1
1071
      106
1005
2C8
1001
ACAD
1000
MTEXTBEGIN
1070
    73
1070
     1
1070
    44
1040
1.0
1070
    74
1070
     0
1000
MTEXTEND
1000
ACAD_MTEXT_DEFINED_HEIGHT_BEGIN
1070
    46
1040
6.19230880992475
1000
ACAD_MTEXT_DEFINED_HEIGHT_END
  0
LINE
  5
2C9
330
25B
100
AcDbEntity
  8
图框
370
    -3
100
AcDbLine
 10
975.4103773808022
 20
509.2054027581959
 30
0.0
 11
975.4103773808022
 21
484.0347692601515
 31
0.0
1001
AcDbBlockRepETag
1070
     1
1071
      107
1005
2C9
  0
MTEXT
  5
2CA
330
25B
100
AcDbEntity
  8
图框
100
AcDbMText
 10
984.5089229802068
 20
511.9708733640202
 30
0.0
 40
2.448748011026752
 41
38.287899328693
 71
     5
 72
     5
  1
  变更描述{\Fromans|c134;/Description}
 73
     1
 44
1.0
1001
AcDbBlockRepETag
1070
     1
1071
      108
1005
2CA
1001
ACAD
1000
MTEXTBEGIN
1070
    73
1070
     1
1070
    44
1040
1.0
1070
    74
1070
     0
1000
MTEXTEND
1000
ACAD_MTEXT_DEFINED_HEIGHT_BEGIN
1070
    46
1040
5.530941211648832
1000
ACAD_MTEXT_DEFINED_HEIGHT_END
  0
MTEXT
  5
2CB
102
{ACAD_XDICTIONARY
360
1636
102
}
330
25B
100
AcDbEntity
  8
图框
100
AcDbMText
 10
1012.466086049227
 20
511.9708733640202
 30
0.0
 40
1.958998408821398
 41
17.6264268093469
 71
     5
 72
     5
  1
签名\P{\Fromans|c134;Signature} 
 73
     1
 44
1.0
1001
AcDbBlockRepETag
1070
     1
1071
      109
1005
2CB
1001
ACAD
1000
MTEXTBEGIN
1070
    73
1070
     1
1070
    44
1040
1.0
1070
    74
1070
     0
1000
MTEXTEND
1000
ACAD_MTEXT_DEFINED_HEIGHT_BEGIN
1070
    46
1040
5.530941211648825
1000
ACAD_MTEXT_DEFINED_HEIGHT_END
  0
MTEXT
  5
2CC
102
{ACAD_XDICTIONARY
360
1638
102
}
330
25B
100
AcDbEntity
  8
图框
100
AcDbMText
 10
960.7558556394856
 20
511.9708733640202
 30
0.0
 40
1.958998408821398
 41
9.218235352749283
 71
     5
 72
     5
  1
处数\P{\Fromans|c134;Number }
 73
     1
 44
1.0
1001
AcDbBlockRepETag
1070
     1
1071
      110
1005
2CC
1001
ACAD
1000
MTEXTBEGIN
1070
    73
1070
     1
1070
    44
1040
1.0
1070
    74
1070
     0
1000
MTEXTEND
1000
ACAD_MTEXT_DEFINED_HEIGHT_BEGIN
1070
    46
1040
5.530941211648841
1000
ACAD_MTEXT_DEFINED_HEIGHT_END
  0
LINE
  5
2CD
330
25B
100
AcDbEntity
  8
图框
370
    -3
100
AcDbLine
 10
946.9285026103634
 20
514.7363439698449
 30
0.0
 11
1036.653967466372
 21
514.7363439698449
 31
0.0
1001
AcDbBlockRepETag
1070
     1
1071
      111
1005
2CD
  0
LINE
  5
2CE
330
25B
100
AcDbEntity
  8
图框
370
    -3
100
AcDbLine
 10
946.9285026103634
 20
509.2054027581959
 30
0.0
 11
1036.653967466372
 21
509.2054027581959
 31
0.0
1001
AcDbBlockRepETag
1070
     1
1071
      112
1005
2CE
  0
LINE
  5
2CF
330
25B
100
AcDbEntity
  8
图框
370
    -3
100
AcDbLine
 10
946.9285026103634
 20
502.9127443836848
 30
0.0
 11
1036.653967466372
 21
502.9127443836848
 31
0.0
1001
AcDbBlockRepETag
1070
     1
1071
      113
1005
2CF
  0
LINE
  5
2D0
330
25B
100
AcDbEntity
  8
图框
370
    -3
100
AcDbLine
 10
946.9285026103634
 20
496.620086009173
 30
0.0
 11
1036.653967466372
 21
496.620086009173
 31
0.0
1001
AcDbBlockRepETag
1070
     1
1071
      114
1005
2D0
  0
LINE
  5
2D1
330
25B
100
AcDbEntity
  8
图框
370
    35
380
     1
100
AcDbLine
 10
946.9285026103634
 20
531.3291676047914
 30
0.0
 11
946.9285026103634
 21
484.0347692601515
 31
0.0
1001
AcDbBlockRepETag
1070
     1
1071
      115
1005
2D1
  0
LINE
  5
2D2
330
25B
100
AcDbEntity
  8
图框
370
    -3
100
AcDbLine
 10
1021.301636813399
 20
531.3291676047914
 30
0.0
 11
1021.301636813399
 21
484.0347692601515
 31
0.0
1001
AcDbBlockRepETag
1070
     1
1071
      116
1005
2D2
  0
LINE
  5
2D3
330
25B
100
AcDbEntity
  8
图框
370
    -3
100
AcDbLine
 10
1003.652872644553
 20
531.3291676047914
 30
0.0
 11
1003.652872644553
 21
484.0347692601515
 31
0.0
1001
AcDbBlockRepETag
1070
     1
1071
      117
1005
2D3
  0
LINE
  5
2D4
330
25B
100
AcDbEntity
  8
图框
370
    -3
100
AcDbLine
 10
965.3649733158603
 20
531.3291676047914
 30
0.0
 11
965.3649733158603
 21
509.2054027581959
 31
0.0
1001
AcDbBlockRepETag
1070
     1
1071
      118
1005
2D4
  0
LINE
  5
2D5
330
25B
100
AcDbEntity
  8
图框
370
    -3
100
AcDbLine
 10
956.1467379631109
 20
531.3291676047914
 30
0.0
 11
956.1467379631109
 21
509.2054027581959
 31
0.0
1001
AcDbBlockRepETag
1070
     1
1071
      119
1005
2D5
  0
MTEXT
  5
2D6
102
{ACAD_XDICTIONARY
360
163A
102
}
330
25B
100
AcDbEntity
  8
图框
100
AcDbMText
 10
951.537620286737
 20
511.9708733640202
 30
0.0
 40
1.958998408821398
 41
9.218235352747692
 71
     5
 72
     5
  1
标记\P{\Fromans|c134;Mark}
 73
     1
 44
1.0
1001
AcDbBlockRepETag
1070
     1
1071
      120
1005
2D6
1001
ACAD
1000
MTEXTBEGIN
1070
    73
1070
     1
1070
    44
1040
1.0
1070
    74
1070
     0
1000
MTEXTEND
1000
ACAD_MTEXT_DEFINED_HEIGHT_BEGIN
1070
    46
1040
5.530941211648832
1000
ACAD_MTEXT_DEFINED_HEIGHT_END
  0
MTEXT
  5
2D7
102
{ACAD_XDICTIONARY
360
163C
102
}
330
25B
100
AcDbEntity
  8
图框
100
AcDbMText
 10
953.4185582897936
 20
493.4737568219182
 30
0.0
 40
2.252848170144607
 41
12.98011135886041
 71
     5
 72
     5
  1
审核\P{\Fromans|c134;Checked}
 73
     1
 44
1.0
1001
AcDbBlockRepETag
1070
     1
1071
      121
1005
2D7
1001
ACAD
1000
MTEXTBEGIN
1070
    73
1070
     1
1070
    44
1040
1.0
1070
    74
1070
     0
1000
MTEXTEND
1000
ACAD_MTEXT_DEFINED_HEIGHT_BEGIN
1070
    46
1040
6.292658374510382
1000
ACAD_MTEXT_DEFINED_HEIGHT_END
  0
MTEXT
  5
2D8
102
{ACAD_XDICTIONARY
360
163E
102
}
330
25B
100
AcDbEntity
  8
图框
100
AcDbMText
 10
953.4185582897936
 20
499.8775635376777
 30
0.0
 40
2.252848170144607
 41
12.98011135886041
 71
     5
 72
     5
  1
绘图\P{\Fromans|c134;Drawn\Ftxt|c134; }
 73
     1
 44
1.0
1001
AcDbBlockRepETag
1070
     1
1071
      122
1005
2D8
1001
ACAD
1000
MTEXTBEGIN
1070
    73
1070
     1
1070
    44
1040
1.0
1070
    74
1070
     0
1000
MTEXTEND
1000
ACAD_MTEXT_DEFINED_HEIGHT_BEGIN
1070
    46
1040
6.070361692014189
1000
ACAD_MTEXT_DEFINED_HEIGHT_END
  0
ARC
  5
2D9
330
25B
100
AcDbEntity
  8
图框
 62
     4
370
    35
100
AcDbCircle
 10
1086.900627017421
 20
490.0179944151195
 30
0.0
 40
4.063310408393665
100
AcDbArc
 50
18.95237904564806
 51
161.0476209543519
1001
AcDbBlockRepETag
1070
     1
1071
      123
1005
2D9
  0
ARC
  5
2DA
330
25B
100
AcDbEntity
  8
图框
 62
     4
370
    35
100
AcDbCircle
 10
1086.900627017421
 20
490.0179944151195
 30
0.0
 40
4.063310408393665
100
AcDbArc
 50
198.952379045648
 51
341.0476209543519
1001
AcDbBlockRepETag
1070
     1
1071
      124
1005
2DA
  0
LINE
  5
2DB
330
25B
100
AcDbEntity
  8
图框
 62
     4
370
    35
100
AcDbLine
 10
1083.057593369548
 20
488.6983035966752
 30
0.0
 11
1090.74366066529
 21
488.6983035966752
 31
0.0
1001
AcDbBlockRepETag
1070
     1
1071
      125
1005
2DB
  0
LINE
  5
2DC
330
25B
100
AcDbEntity
  8
图框
 62
     4
370
    35
100
AcDbLine
 10
1083.057593369548
 20
491.3376852335652
 30
0.0
 11
1090.74366066529
 21
491.3376852335652
 31
0.0
1001
AcDbBlockRepETag
1070
     1
1071
      126
1005
2DC
  0
MTEXT
  5
2DD
330
25B
100
AcDbEntity
  8
图框
 62
     1
370
    20
100
AcDbMText
 10
1083.034582879669
 20
491.0506288081688
 30
0.0
 40
2.005930044038334
 41
5.047240019334847
 71
     1
 72
     5
  1
{\fArial|b0|i0|c0|p34;W}
  7
Chinese
 73
     1
 44
1.0
1001
AcDbBlockRepETag
1070
     1
1071
      127
1005
2DD
1001
ACAD
1000
MTEXTBEGIN
1070
    73
1070
     1
1070
    44
1040
1.0
1070
    74
1070
     0
1000
MTEXTEND
  0
LINE
  5
2DE
330
25B
100
AcDbEntity
  8
图框
370
    -3
100
AcDbLine
 10
946.9285026103634
 20
490.327427634663
 30
0.0
 11
1036.653967466372
 21
490.327427634663
 31
0.0
1001
AcDbBlockRepETag
1070
     1
1071
      128
1005
2DE
  0
LINE
  5
2DF
330
25B
100
AcDbEntity
  8
图框
370
    -3
100
AcDbLine
 10
959.9086139692238
 20
509.2054027581959
 30
0.0
 11
959.9086139692238
 21
484.0347692601515
 31
0.0
1001
AcDbBlockRepETag
1070
     1
1071
      129
1005
2DF
  0
MTEXT
  5
2E0
330
25B
100
AcDbEntity
  8
图框
100
AcDbMText
 10
967.6594956750129
 20
506.0590735709403
 30
0.0
 40
2.252848170144607
 41
15.50176341157869
 71
     5
 72
     5
  1
姓名{\Fromans|c134;/Name\Ftxt|c134; }
 73
     1
 44
1.0
1001
AcDbBlockRepETag
1070
     1
1071
      130
1005
2E0
1001
ACAD
1000
MTEXTBEGIN
1070
    73
1070
     1
1070
    44
1040
1.0
1070
    74
1070
     0
1000
MTEXTEND
1000
ACAD_MTEXT_DEFINED_HEIGHT_BEGIN
1070
    46
1040
6.292658374511246
1000
ACAD_MTEXT_DEFINED_HEIGHT_END
  0
MTEXT
  5
2E1
330
25B
100
AcDbEntity
  8
图框
100
AcDbMText
 10
983.0415693332477
 20
506.0590735709403
 30
0.0
 40
2.252848170144607
 41
15.26238390489042
 71
     5
 72
     5
  1
日期{\Fromans|c134;/Date}
 73
     1
 44
1.0
1001
AcDbBlockRepETag
1070
     1
1071
      131
1005
2E1
1001
ACAD
1000
MTEXTBEGIN
1070
    73
1070
     1
1070
    44
1040
1.0
1070
    74
1070
     0
1000
MTEXTEND
1000
ACAD_MTEXT_DEFINED_HEIGHT_BEGIN
1070
    46
1040
6.2926583745112
1000
ACAD_MTEXT_DEFINED_HEIGHT_END
  0
LINE
  5
2E2
330
25B
100
AcDbEntity
  8
图框
370
    -3
100
AcDbLine
 10
946.9285026103634
 20
509.2054027581959
 30
0.0
 11
959.9086139692238
 21
502.9127443836848
 31
0.0
1001
AcDbBlockRepETag
1070
     1
1071
      132
1005
2E2
  0
MTEXT
  5
2E3
330
25B
100
AcDbEntity
  8
图框
100
AcDbMText
 10
1012.931405110086
 20
506.0185715840725
 30
0.0
 40
2.252848170144607
 41
16.93492221063566
 71
     5
 72
     5
  1
姓名{\Fromans|c134;/Name}
 73
     1
 44
1.0
1001
AcDbBlockRepETag
1070
     1
1071
      133
1005
2E3
1001
ACAD
1000
MTEXTBEGIN
1070
    73
1070
     1
1070
    44
1040
1.0
1070
    74
1070
     0
1000
MTEXTEND
  0
MTEXT
  5
2E4
330
25B
100
AcDbEntity
  8
图框
100
AcDbMText
 10
1028.977802139886
 20
506.0590735709403
 30
0.0
 40
2.252848170144607
 41
15.35233065297283
 71
     5
 72
     5
  1
日期{\Fromans|c134;/Date}
 73
     1
 44
1.0
1001
AcDbBlockRepETag
1070
     1
1071
      134
1005
2E4
1001
ACAD
1000
MTEXTBEGIN
1070
    73
1070
     1
1070
    44
1040
1.0
1070
    74
1070
     0
1000
MTEXTEND
1000
ACAD_MTEXT_DEFINED_HEIGHT_BEGIN
1070
    46
1040
6.292658374511256
1000
ACAD_MTEXT_DEFINED_HEIGHT_END
  0
LINE
  5
2E5
330
25B
100
AcDbEntity
  8
图框
370
    -3
100
AcDbLine
 10
1003.652872644553
 20
502.9127443836848
 30
0.0
 11
990.6727612856927
 21
509.2054027581959
 31
0.0
1001
AcDbBlockRepETag
1070
     1
1071
      135
1005
2E5
  0
MTEXT
  5
2E6
102
{ACAD_XDICTIONARY
360
1640
102
}
330
25B
100
AcDbEntity
  8
图框
100
AcDbMText
 10
997.1628169651232
 20
487.1810984474071
 30
0.0
 40
2.252848170144607
 41
12.98011135886052
 71
     5
 72
     5
  1
批准\P{\Fromans|c134;Approved}
 73
     1
 44
1.0
1001
AcDbBlockRepETag
1070
     1
1071
      136
1005
2E6
1001
ACAD
1000
MTEXTBEGIN
1070
    73
1070
     1
1070
    44
1040
1.0
1070
    74
1070
     0
1000
MTEXTEND
1000
ACAD_MTEXT_DEFINED_HEIGHT_BEGIN
1070
    46
1040
6.292658374511517
1000
ACAD_MTEXT_DEFINED_HEIGHT_END
  0
MTEXT
  5
2E7
102
{ACAD_XDICTIONARY
360
1642
102
}
330
25B
100
AcDbEntity
  8
图框
100
AcDbMText
 10
953.4185582897936
 20
487.1810984474071
 30
0.0
 40
2.252848170144607
 41
12.98011135886041
 71
     5
 72
     5
  1
工艺\P{\Fromans|c134;Process}
 73
     1
 44
1.0
1001
AcDbBlockRepETag
1070
     1
1071
      137
1005
2E7
1001
ACAD
1000
MTEXTBEGIN
1070
    73
1070
     1
1070
    44
1040
1.0
1070
    74
1070
     0
1000
MTEXTEND
1000
ACAD_MTEXT_DEFINED_HEIGHT_BEGIN
1070
    46
1040
6.292658374511495
1000
ACAD_MTEXT_DEFINED_HEIGHT_END
  0
MTEXT
  5
2E8
102
{ACAD_XDICTIONARY
360
1644
102
}
330
25B
100
AcDbEntity
  8
图框
100
AcDbMText
 10
1028.977802139886
 20
511.8287965307664
 30
0.0
 40
1.958998408821398
 41
15.3523306529728
 71
     5
 72
     5
  1
日期\P{\Fromans|c134;Date}
 73
     1
 44
1.0
1001
AcDbBlockRepETag
1070
     1
1071
      138
1005
2E8
1001
ACAD
1000
MTEXTBEGIN
1070
    73
1070
     1
1070
    44
1040
1.0
1070
    74
1070
     0
1000
MTEXTEND
1000
ACAD_MTEXT_DEFINED_HEIGHT_BEGIN
1070
    46
1040
5.246787545140668
1000
ACAD_MTEXT_DEFINED_HEIGHT_END
  0
MTEXT
  5
2E9
330
25B
100
AcDbEntity
  8
图框
100
AcDbMText
 10
1086.643735910939
 20
509.1493769780809
 30
0.0
 40
2.154898249703542
 41
13.34474941400573
 71
     5
 72
     5
  1
产品料号\P{\Fromans|c134;Part No.}
 73
     1
 44
1.0
1001
AcDbBlockRepETag
1070
     1
1071
      139
1005
2E9
1001
ACAD
1000
MTEXTBEGIN
1070
    73
1070
     1
1070
    44
1040
1.0
1070
    74
1070
     0
1000
MTEXTEND
1000
ACAD_MTEXT_DEFINED_HEIGHT_BEGIN
1070
    46
1040
8.87215554796615
1000
ACAD_MTEXT_DEFINED_HEIGHT_END
  0
MTEXT
  5
2EA
330
25B
100
AcDbEntity
  8
图框
100
AcDbMText
 10
1086.643735910939
 20
500.2775205517163
 30
0.0
 40
1.958998408821398
 41
13.34474941400573
 71
     5
 72
     5
  1
产品名称\P{\Fromans|c134;Part Name}
 73
     1
 44
1.0
1001
AcDbBlockRepETag
1070
     1
1071
      140
1005
2EA
1001
ACAD
1000
MTEXTBEGIN
1070
    73
1070
     1
1070
    44
1040
1.0
1070
    74
1070
     0
1000
MTEXTEND
1000
ACAD_MTEXT_DEFINED_HEIGHT_BEGIN
1070
    46
1040
8.871557304763321
1000
ACAD_MTEXT_DEFINED_HEIGHT_END
  0
LINE
  5
2EB
330
25B
100
AcDbEntity
  8
图框
 62
     1
370
    18
100
AcDbLine
 10
833.4128518455365
 20
690.5347692601515
 30
0.0
 11
833.4128518455365
 21
480.5347692601515
 31
0.0
1001
AcDbBlockRepETag
1070
     1
1071
      141
1005
2EB
  0
LINE
  5
2EC
330
25B
100
AcDbEntity
  8
图框
 62
     1
370
    18
100
AcDbLine
 10
833.4128518455365
 20
480.5347692601515
 30
0.0
 11
1130.411601781236
 21
480.5347692601515
 31
0.0
1001
AcDbBlockRepETag
1070
     1
1071
      142
1005
2EC
  0
LINE
  5
2ED
330
25B
100
AcDbEntity
  8
图框
 62
     1
370
    18
100
AcDbLine
 10
833.4128518455365
 20
690.5347692601515
 30
0.0
 11
1130.411601781236
 21
690.5347692601515
 31
0.0
1001
AcDbBlockRepETag
1070
     1
1071
      143
1005
2ED
  0
LINE
  5
2EE
330
25B
100
AcDbEntity
  8
图框
 62
     1
370
    18
100
AcDbLine
 10
1130.411601781236
 20
480.5347692601515
 30
0.0
 11
1130.411601781236
 21
690.5347692601515
 31
0.0
1001
AcDbBlockRepETag
1070
     1
1071
      144
1005
2EE
  0
LINE
  5
2EF
330
25B
100
AcDbEntity
  8
图框
370
    18
100
AcDbLine
 10
836.9128518455394
 20
686.7901958362482
 30
0.0
 11
861.5351874539182
 21
686.7901958362482
 31
0.0
1001
AcDbBlockRepETag
1070
     1
1071
      145
1005
2EF
  0
LINE
  5
2F0
330
25B
100
AcDbEntity
  8
图框
370
    50
100
AcDbLine
 10
1126.928502610363
 20
484.3410054693078
 30
0.0
 11
1126.928502610363
 21
675.5347692601515
 31
0.0
1001
AcDbBlockRepETag
1070
     1
1071
      146
1005
2F0
  0
MTEXT
  5
2F1
330
25B
100
AcDbEntity
  8
图框
 62
     3
100
AcDbMText
 10
1052.897990117958
 20
495.8417418993364
 30
0.0
 40
2.985513575034151
 41
10.82934843439114
 71
     5
 72
     5
  1
V1.0
  7
Romans字体
 73
     1
 44
1.0
1001
AcDbBlockRepETag
1070
     1
1071
      147
1005
2F1
1001
ACAD
1000
MTEXTBEGIN
1070
    73
1070
     1
1070
    44
1040
1.0
1070
    74
1070
     0
1000
MTEXTEND
1000
ACAD_MTEXT_DEFINED_HEIGHT_BEGIN
1070
    46
1040
7.886094601211307
1000
ACAD_MTEXT_DEFINED_HEIGHT_END
  0
LINE
  5
2F2
330
25B
100
AcDbEntity
  8
图框
 62
     6
100
AcDbLine
 10
1126.911601781236
 20
531.714049199969
 30
0.0
 11
1130.411601781236
 21
531.714049199969
 31
0.0
1001
AcDbBlockRepETag
1070
     1
1071
      148
1005
2F2
  0
ENDBLK
  5
2F3
330
25B
100
AcDbEntity
  8
0
100
AcDbBlockEnd
  0
BLOCK
  5
B85
330
B83
100
AcDbEntity
  8
0
100
AcDbBlockBegin
  2
dfd
 70
     0
 10
0.0
 20
0.0
 30
0.0
  3
dfd
  1

  0
LINE
  5
B86
330
B83
100
AcDbEntity
  8
0
 62
     1
100
AcDbLine
 10
13870.92272310677
 20
-5600.094401737457
 30
0.0
 11
13870.92272310677
 21
-5640.494401737455
 31
0.0
  0
LINE
  5
B87
330
B83
100
AcDbEntity
  8
0
 62
     1
100
AcDbLine
 10
13871.67272310537
 20
-5555.294401737454
 30
0.0
 11
13871.67272310537
 21
-5598.294401737398
 31
0.0
  0
HATCH
  5
B88
330
B83
100
AcDbEntity
  8
DIM
 62
     1
100
AcDbHatch
 10
0.0
 20
0.0
 30
0.0
210
0.0
220
0.0
230
1.0
  2
ANSI31
 70
     0
 71
     0
 91
        2
 92
        7
 72
     1
 73
     1
 93
        8
 10
13872.922723106
 20
-5556.094401737655
 42
-0.4142135628392686
 10
13872.12272310453
 20
-5555.294401737454
 42
0.0
 10
13871.67272310537
 20
-5555.294401737454
 42
0.0
 10
13871.67272310537
 20
-5598.294401737393
 42
-0.0984449115350241
 10
13870.92272310677
 20
-5600.094401737457
 42
0.0
 10
13870.92272310677
 20
-5640.494401737456
 42
0.0
 10
13871.92272310575
 20
-5641.494401736429
 42
0.0
 10
13872.922723106
 20
-5641.494401736429
 42
0.0
 97
        0
 92
        7
 72
     1
 73
     1
 93
        8
 10
13874.92272310522
 20
-5600.094401737472
 42
-0.0984449115294858
 10
13874.17272310664
 20
-5598.294401737518
 42
0.0
 10
13874.17272310664
 20
-5555.294401737454
 42
0.0
 10
13873.72272310493
 20
-5555.294401737454
 42
-0.4142135619069191
 10
13872.922723106
 20
-5556.094401737655
 42
0.0
 10
13872.922723106
 20
-5641.494401736429
 42
0.0
 10
13873.92272310624
 20
-5641.494401736429
 42
0.0
 10
13874.92272310522
 20
-5640.494401737456
 42
0.0
 97
        0
 75
     1
 76
     1
 52
0.0
 41
20.0
 77
     0
 78
     1
 53
45.0
 43
-165.0183756516053
 44
0.0
 45
-1.767766952966368
 46
1.767766952966368
 79
     0
 47
0.078763714550781
 98
        2
 10
13872.33934499957
 20
-5616.373000323867
 10
13874.2311801115
 20
-5615.034017737595
1001
GradientColor1ACI
1070
     5
1001
GradientColor2ACI
1070
     2
1001
ACAD
1010
0.0
1020
0.0
1030
0.0
  0
LINE
  5
B89
330
B83
100
AcDbEntity
  8
0
 62
     1
100
AcDbLine
 10
13874.17272310664
 20
-5555.294401737454
 30
0.0
 11
13874.17272310664
 21
-5598.294401737518
 31
0.0
  0
LINE
  5
B8A
330
B83
100
AcDbEntity
  8
0
 62
     1
100
AcDbLine
 10
13874.92272310522
 20
-5600.094401737472
 30
0.0
 11
13874.92272310522
 21
-5640.494401737455
 31
0.0
  0
LINE
  5
B8B
330
B83
100
AcDbEntity
  8
0
 62
     1
100
AcDbLine
 10
13874.17272310664
 20
-5555.294401737454
 30
0.0
 11
13871.67272310537
 21
-5555.294401737454
 31
0.0
  0
ARC
  5
B8C
330
B83
100
AcDbEntity
  8
0
 62
     1
100
AcDbCircle
 10
13872.92272310473
 20
-5555.294401737454
 30
0.0
 40
0.8000000002
100
AcDbArc
 50
180.0
 51
0.0
  0
LINE
  5
B8D
330
B83
100
AcDbEntity
  8
0
 62
     1
100
AcDbLine
 10
13873.92272310624
 20
-5641.494401736429
 30
0.0
 11
13871.92272310575
 21
-5641.494401736429
 31
0.0
  0
LINE
  5
B8E
330
B83
100
AcDbEntity
  8
0
 62
     1
100
AcDbLine
 10
13870.92272310677
 20
-5640.494401737456
 30
0.0
 11
13871.92272310575
 21
-5641.494401736429
 31
0.0
  0
LINE
  5
B8F
330
B83
100
AcDbEntity
  8
0
 62
     1
100
AcDbLine
 10
13874.92272310522
 20
-5640.494401737456
 30
0.0
 11
13873.92272310624
 21
-5641.494401736429
 31
0.0
  0
ARC
  5
B90
330
B83
100
AcDbEntity
  8
0
 62
     1
100
AcDbCircle
 10
13879.07450730221
 20
-5597.308241659215
 30
0.0
 40
5.000000000000288
100
AcDbArc
 50
191.3751413205645
 51
213.8645884990189
  0
ARC
  5
B91
330
B83
100
AcDbEntity
  8
0
 62
     1
100
AcDbCircle
 10
13866.77093890977
 20
-5597.308241659215
 30
0.0
 40
5.000000000000288
100
AcDbArc
 50
326.135411500952
 51
348.6248586794085
  0
ENDBLK
  5
B92
330
B83
100
AcDbEntity
  8
0
100
AcDbBlockEnd
  0
BLOCK
  5
B94
330
B93
100
AcDbEntity
  8
0
100
AcDbBlockBegin
  2
ghghh
 70
     0
 10
0.0
 20
0.0
 30
0.0
  3
ghghh
  1

  0
HATCH
  5
B95
330
B93
100
AcDbEntity
  8
0
100
AcDbHatch
 10
0.0
 20
0.0
 30
0.0
210
0.0
220
0.0
230
1.0
  2
ANSI31
 70
     0
 71
     0
 91
        2
 92
        7
 72
     1
 73
     1
 93
        9
 10
13442.22880862745
 20
-5655.355596498204
 42
-0.017212160273846
 10
13442.02880862869
 20
-5655.259179836393
 42
0.0
 10
13442.02880862869
 20
-5674.903325808534
 42
-0.1132370115878481
 10
13441.57880862819
 20
-5676.864830335304
 42
0.1132370115814585
 10
13441.27880862756
 20
-5678.172500019672
 42
0.0
 10
13441.27880862753
 20
-5697.903325808484
 42
0.0
 10
13440.52880862892
 20
-5697.903325808484
 42
0.0
 10
13440.52880862892
 20
-5700.403325807211
 42
0.0
 10
13442.22880862745
 20
-5700.403325807211
 42
0.0
 97
        0
 92
        7
 72
     1
 73
     1
 93
        9
 10
13446.5288086279
 20
-5697.903325808484
 42
0.0
 10
13445.7788086293
 20
-5697.903325808484
 42
0.0
 10
13445.7788086293
 20
-5678.17250001967
 42
0.1132370115908892
 10
13445.47880862911
 20
-5676.864830335087
 42
-0.1132370115813381
 10
13445.02880862816
 20
-5674.903325808537
 42
0.0
 10
13445.02880862816
 20
-5655.259179836393
 42
-0.0172121602763113
 10
13444.82880862938
 20
-5655.355596498218
 42
0.0
 10
13444.82880862938
 20
-5700.403325807211
 42
0.0
 10
13446.5288086279
 20
-5700.403325807211
 42
0.0
 97
        0
 75
     1
 76
     1
 52
0.0
 41
10.0
 77
     0
 78
     1
 53
45.0
 43
-539.0586135009433
 44
-1571.33385630339
 45
-0.8838834764831842
 46
0.8838834764831844
 79
     0
 47
0.0848218610069868
 98
        3
 10
13442.36288142769
 20
-5680.910443895118
 10
13441.83128135431
 20
-5698.178420381933
 10
13445.83118723097
 20
-5698.944633288975
1001
GradientColor1ACI
1070
     5
1001
GradientColor2ACI
1070
     2
1001
ACAD
1010
0.0
1020
0.0
1030
0.0
  0
LINE
  5
B96
330
B93
100
AcDbEntity
  8
0
100
AcDbLine
 10
13446.5288086279
 20
-5700.403325807211
 30
0.0
 11
13440.52880862892
 21
-5700.403325807211
 31
0.0
  0
LINE
  5
B97
330
B93
100
AcDbEntity
  8
0
100
AcDbLine
 10
13446.5288086279
 20
-5697.903325808484
 30
0.0
 11
13445.7788086293
 21
-5697.903325808484
 31
0.0
  0
LINE
  5
B98
330
B93
100
AcDbEntity
  8
0
100
AcDbLine
 10
13441.27880862753
 20
-5697.903325808484
 30
0.0
 11
13440.52880862892
 21
-5697.903325808484
 31
0.0
  0
LINE
  5
B99
330
B93
100
AcDbEntity
  8
0
100
AcDbLine
 10
13440.52880862892
 20
-5697.903325808484
 30
0.0
 11
13440.52880862892
 21
-5700.403325807211
 31
0.0
  0
LINE
  5
B9A
330
B93
100
AcDbEntity
  8
0
100
AcDbLine
 10
13441.27880862753
 20
-5678.17250001967
 30
0.0
 11
13441.27880862753
 21
-5697.903325808484
 31
0.0
  0
LINE
  5
B9B
330
B93
100
AcDbEntity
  8
0
100
AcDbLine
 10
13442.02880862869
 20
-5652.403325808376
 30
0.0
 11
13442.02880862869
 21
-5674.903325808536
 31
0.0
  0
LINE
  5
B9C
330
B93
100
AcDbEntity
  8
0
100
AcDbLine
 10
13442.22880862745
 20
-5652.403325808376
 30
0.0
 11
13442.22880862745
 21
-5700.403325807211
 31
0.0
  0
LINE
  5
B9D
330
B93
100
AcDbEntity
  8
0
100
AcDbLine
 10
13444.82880862938
 20
-5652.403325808376
 30
0.0
 11
13444.82880862938
 21
-5700.403325807211
 31
0.0
  0
LINE
  5
B9E
330
B93
100
AcDbEntity
  8
0
100
AcDbLine
 10
13445.02880862816
 20
-5652.403325808376
 30
0.0
 11
13445.02880862817
 21
-5674.903325808536
 31
0.0
  0
LINE
  5
B9F
330
B93
100
AcDbEntity
  8
0
100
AcDbLine
 10
13445.7788086293
 20
-5678.17250001967
 30
0.0
 11
13445.7788086293
 21
-5697.903325808484
 31
0.0
  0
LINE
  5
BA0
330
B93
100
AcDbEntity
  8
0
100
AcDbLine
 10
13446.5288086279
 20
-5697.903325808484
 30
0.0
 11
13446.5288086279
 21
-5700.403325807211
 31
0.0
  0
LINE
  5
BA1
330
B93
100
AcDbEntity
  8
0
100
AcDbLine
 10
13445.02880862816
 20
-5652.403325808376
 30
0.0
 11
13442.02880862869
 21
-5652.403325808376
 31
0.0
  0
ARC
  5
BA2
330
B93
100
AcDbEntity
  8
0
100
AcDbCircle
 10
13442.7788086293
 20
-5678.17250001967
 30
0.0
 40
3.0
100
AcDbArc
 50
0.0
 51
25.84193279089427
  0
ARC
  5
BA3
330
B93
100
AcDbEntity
  8
0
100
AcDbCircle
 10
13449.52880862817
 20
-5674.903325808536
 30
0.0
 40
4.5
100
AcDbArc
 50
180.0
 51
205.8419327908942
  0
ARC
  5
BA4
330
B93
100
AcDbEntity
  8
0
100
AcDbCircle
 10
13444.27880862756
 20
-5678.17250001967
 30
0.0
 40
2.999999999999998
100
AcDbArc
 50
154.1580672091526
 51
180.0
  0
ARC
  5
BA5
330
B93
100
AcDbEntity
  8
0
100
AcDbCircle
 10
13437.5288086287
 20
-5674.903325808536
 30
0.0
 40
4.499999999999999
100
AcDbArc
 50
334.1580672091057
 51
0.0
  0
ENDBLK
  5
BA6
330
B93
100
AcDbEntity
  8
0
100
AcDbBlockEnd
  0
BLOCK
  5
BA8
330
BA7
100
AcDbEntity
  8
0
100
AcDbBlockBegin
  2
ghgh
 70
     0
 10
0.0
 20
0.0
 30
0.0
  3
ghgh
  1

  0
LINE
  5
BA9
330
BA7
100
AcDbEntity
  8
0
100
AcDbLine
 10
13260.25914961043
 20
-5650.385020368827
 30
0.0
 11
13257.85914961149
 21
-5650.385020368827
 31
0.0
  0
LINE
  5
BAA
330
BA7
100
AcDbEntity
  8
0
100
AcDbLine
 10
13250.65914961148
 20
-5650.385020368827
 30
0.0
 11
13249.86466580711
 21
-5650.385020368827
 31
0.0
  0
LINE
  5
BAB
330
BA7
100
AcDbEntity
  8
0
100
AcDbLine
 10
13249.85914961036
 20
-5650.385020368827
 30
0.0
 11
13248.25914960998
 21
-5650.385020368827
 31
0.0
  0
LINE
  5
BAC
330
BA7
100
AcDbEntity
  8
0
100
AcDbLine
 10
13258.25914961148
 20
-5642.385020368827
 30
0.0
 11
13250.25914961148
 21
-5642.385020368827
 31
0.0
  0
LINE
  5
BAD
330
BA7
100
AcDbEntity
  8
0
100
AcDbLine
 10
13250.25914961148
 20
-5640.385020368871
 30
0.0
 11
13258.25914961149
 21
-5640.385020368871
 31
0.0
  0
LINE
  5
BAE
330
BA7
100
AcDbEntity
  8
0
100
AcDbLine
 10
13248.25914961253
 20
-5650.385020368827
 30
0.0
 11
13248.25914961253
 21
-5672.385020369249
 31
0.0
  0
LINE
  5
BAF
330
BA7
100
AcDbEntity
  8
0
100
AcDbLine
 10
13252.25914961098
 20
-5642.385020369372
 30
0.0
 11
13252.25914961098
 21
-5653.785020369373
 31
0.0
  0
LINE
  5
BB0
330
BA7
100
AcDbEntity
  8
0
100
AcDbLine
 10
13256.25914961199
 20
-5642.385020369372
 30
0.0
 11
13256.25914961199
 21
-5653.785020369373
 31
0.0
  0
LINE
  5
BB1
330
BA7
100
AcDbEntity
  8
0
100
AcDbLine
 10
13260.25914961043
 20
-5650.385020368827
 30
0.0
 11
13260.25914961043
 21
-5672.385020369249
 31
0.0
  0
LINE
  5
BB2
330
BA7
100
AcDbEntity
  8
0
100
AcDbLine
 10
13260.25914961043
 20
-5650.385020368827
 30
0.0
 11
13258.65914961259
 21
-5650.385020368827
 31
0.0
  0
LINE
  5
BB3
330
BA7
100
AcDbEntity
  8
0
100
AcDbLine
 10
13256.25914961199
 20
-5653.785020369373
 30
0.0
 11
13252.25914961098
 21
-5653.785020369373
 31
0.0
  0
ARC
  5
BB4
330
BA7
100
AcDbEntity
  8
0
100
AcDbCircle
 10
13254.25914961148
 20
-5667.885020370028
 30
0.0
 40
7.500000001239999
100
AcDbArc
 50
216.8698976457398
 51
323.1301023542602
  0
LINE
  5
BB5
330
BA7
100
AcDbEntity
  8
CEN
100
AcDbLine
 10
13254.25914961148
 20
-5678.051010132386
 30
0.0
 11
13254.25914961148
 21
-5639.082368354891
 31
0.0
  0
LINE
  5
BB6
330
BA7
100
AcDbEntity
  8
DIM
100
AcDbLine
 10
13257.85914961149
 20
-5650.385020368827
 30
0.0
 11
13257.85914961149
 21
-5640.385020368871
 31
0.0
  0
LINE
  5
BB7
330
BA7
100
AcDbEntity
  8
0
100
AcDbLine
 10
13255.25914961173
 20
-5653.785020369373
 30
0.0
 11
13253.25914961123
 21
-5653.785020369373
 31
0.0
  0
LINE
  5
BB8
330
BA7
100
AcDbEntity
  8
DIM
100
AcDbLine
 10
13250.65914961149
 20
-5640.385020368871
 30
0.0
 11
13250.65914961149
 21
-5650.385020368827
 31
0.0
  0
LINE
  5
BB9
330
BA7
100
AcDbEntity
  8
0
100
AcDbLine
 10
13258.25914961148
 20
-5640.385020368871
 30
0.0
 11
13258.25914961149
 21
-5650.385020368827
 31
0.0
  0
LINE
  5
BBA
330
BA7
100
AcDbEntity
  8
0
100
AcDbLine
 10
13250.25914961148
 20
-5640.385020368871
 30
0.0
 11
13250.25914961148
 21
-5650.385020368827
 31
0.0
  0
CIRCLE
  5
BBB
330
BA7
100
AcDbEntity
  8
DIM
100
AcDbCircle
 10
13251.75914988116
 20
-5641.985020368828
 30
0.0
 40
0.4
  0
ARC
  5
BBC
330
BA7
100
AcDbEntity
  8
DIM
100
AcDbCircle
 10
13256.75914961149
 20
-5642.385020368827
 30
0.0
 40
0.3999999999996362
100
AcDbArc
 50
0.0
 51
179.9999999997915
  0
ENDBLK
  5
BBD
330
BA7
100
AcDbEntity
  8
0
100
AcDbBlockEnd
  0
BLOCK
  5
F5C
330
F5B
100
AcDbEntity
  8
0
100
AcDbBlockBegin
  2
*D5
 70
     1
 10
0.0
 20
0.0
 30
0.0
  3
*D5
  1

  0
LINE
  5
15BD
330
F5B
100
AcDbEntity
  8
DIM
 62
     6
370
    -2
100
AcDbLine
 10
810.2426409039685
 20
294.6128259207244
 30
0.0
 11
810.2426409039685
 21
268.7136240137739
 31
0.0
  0
LINE
  5
15BE
330
F5B
100
AcDbEntity
  8
DIM
 62
     6
370
    -2
100
AcDbLine
 10
936.7426409067723
 20
292.8128259209707
 30
0.0
 11
936.7426409067723
 21
268.7136240137739
 31
0.0
  0
LINE
  5
15BF
330
F5B
100
AcDbEntity
  8
DIM
 62
     1
370
    -2
100
AcDbLine
 10
811.7426409039685
 20
269.2136240137739
 30
0.0
 11
935.2426409067723
 21
269.2136240137739
 31
0.0
  0
SOLID
  5
15C0
330
F5B
100
AcDbEntity
  8
DIM
 62
     1
100
AcDbTrace
 10
811.7426409039685
 20
269.4636240137739
 30
0.0
 11
811.7426409039685
 21
268.963624013774
 31
0.0
 12
810.2426409039685
 22
269.2136240137739
 32
0.0
 13
810.2426409039685
 23
269.2136240137739
 33
0.0
  0
SOLID
  5
15C1
330
F5B
100
AcDbEntity
  8
DIM
 62
     1
100
AcDbTrace
 10
935.2426409067723
 20
269.4636240137739
 30
0.0
 11
935.2426409067723
 21
268.963624013774
 31
0.0
 12
936.7426409067723
 22
269.2136240137739
 32
0.0
 13
936.7426409067723
 23
269.2136240137739
 33
0.0
  0
MTEXT
  5
15C2
330
F5B
100
AcDbEntity
  8
DIM
 62
     4
100
AcDbMText
 10
872.4168154400445
 20
272.2136240137739
 30
0.0
 40
2.0
 41
0.0
 71
     5
 72
     1
  1
\A1;{\H2.5x;126.5}
  7
Romans字体
 73
     1
 44
1.0
1001
ACAD
1000
MTEXTBEGIN
1070
    73
1070
     1
1070
    44
1040
1.0
1070
    74
1070
     0
1000
MTEXTEND
  0
POINT
  5
15C3
330
F5B
100
AcDbEntity
  8
Defpoints
 62
     0
100
AcDbPoint
 10
810.2426409039685
 20
294.8128259207244
 30
0.0
  0
POINT
  5
15C4
330
F5B
100
AcDbEntity
  8
Defpoints
 62
     0
100
AcDbPoint
 10
936.7426409067723
 20
293.0128259209707
 30
0.0
  0
POINT
  5
15C5
330
F5B
100
AcDbEntity
  8
Defpoints
 62
     0
100
AcDbPoint
 10
936.7426409067723
 20
269.2136240137739
 30
0.0
  0
ENDBLK
  5
F5D
330
F5B
100
AcDbEntity
  8
0
100
AcDbBlockEnd
  0
BLOCK
  5
10F8
330
10F7
100
AcDbEntity
  8
0
100
AcDbBlockBegin
  2
*D6
 70
     1
 10
0.0
 20
0.0
 30
0.0
  3
*D6
  1

  0
LINE
  5
1283
330
10F7
100
AcDbEntity
  8
0
 62
     6
370
    -2
100
AcDbLine
 10
936.9426409067683
 20
296.0128259204484
 30
0.0
 11
946.7662779281702
 21
296.0128259204484
 31
0.0
  0
LINE
  5
1284
330
10F7
100
AcDbEntity
  8
0
 62
     6
370
    -2
100
AcDbLine
 10
936.9426409067688
 20
293.0128259209723
 30
0.0
 11
946.7662779281702
 21
293.0128259209723
 31
0.0
  0
LINE
  5
1285
330
10F7
100
AcDbEntity
  8
0
 62
     1
370
    -2
100
AcDbLine
 10
946.2662779281703
 20
297.5128259204485
 30
0.0
 11
946.2662779281703
 21
299.0128259204484
 31
0.0
  0
LINE
  5
1286
330
10F7
100
AcDbEntity
  8
0
 62
     1
370
    -2
100
AcDbLine
 10
946.2662779281703
 20
291.5128259209723
 30
0.0
 11
946.2662779281703
 21
281.4706757596412
 31
0.0
  0
SOLID
  5
1287
330
10F7
100
AcDbEntity
  8
0
 62
     1
100
AcDbTrace
 10
946.0162779281702
 20
297.5128259204485
 30
0.0
 11
946.5162779281699
 21
297.5128259204485
 31
0.0
 12
946.2662779281703
 22
296.0128259204484
 32
0.0
 13
946.2662779281703
 23
296.0128259204484
 33
0.0
  0
SOLID
  5
1288
330
10F7
100
AcDbEntity
  8
0
 62
     1
100
AcDbTrace
 10
946.0162779281702
 20
291.5128259209723
 30
0.0
 11
946.5162779281699
 21
291.5128259209723
 31
0.0
 12
946.2662779281703
 22
293.0128259209723
 32
0.0
 13
946.2662779281703
 23
293.0128259209723
 33
0.0
  0
MTEXT
  5
1289
330
10F7
100
AcDbEntity
  8
0
 62
     4
100
AcDbMText
 10
943.2662779281699
 20
284.91710433107
 30
0.0
 40
2.0
 41
0.0
 71
     5
 72
     1
  1
\A1;{\H2.5x;%%C3}
  7
Romans字体
 11
0.0000000000000001
 21
1.0
 31
0.0
 73
     1
 44
1.0
1001
ACAD
1000
MTEXTBEGIN
1070
    73
1070
     1
1070
    44
1040
1.0
1070
    74
1070
     0
1000
MTEXTEND
  0
POINT
  5
128A
330
10F7
100
AcDbEntity
  8
Defpoints
 62
     0
100
AcDbPoint
 10
936.7426409067682
 20
296.0128259204484
 30
0.0
  0
POINT
  5
128B
330
10F7
100
AcDbEntity
  8
Defpoints
 62
     0
100
AcDbPoint
 10
936.7426409067686
 20
293.0128259209723
 30
0.0
  0
POINT
  5
128C
330
10F7
100
AcDbEntity
  8
Defpoints
 62
     0
100
AcDbPoint
 10
946.2662779281703
 20
293.0128259209723
 30
0.0
  0
ENDBLK
  5
10F9
330
10F7
100
AcDbEntity
  8
0
100
AcDbBlockEnd
  0
BLOCK
  5
1106
330
1105
100
AcDbEntity
  8
0
100
AcDbBlockBegin
  2
*D7
 70
     1
 10
0.0
 20
0.0
 30
0.0
  3
*D7
  1

  0
LINE
  5
1270
330
1105
100
AcDbEntity
  8
0
 62
     6
370
    -2
100
AcDbLine
 10
812.4436213900132
 20
300.0128259209361
 30
0.0
 11
800.8267461677826
 21
300.0128259209361
 31
0.0
  0
LINE
  5
1271
330
1105
100
AcDbEntity
  8
0
 62
     6
370
    -2
100
AcDbLine
 10
812.4436213900482
 20
289.012825920485
 30
0.0
 11
800.8267461677826
 21
289.012825920485
 31
0.0
  0
LINE
  5
1272
330
1105
100
AcDbEntity
  8
0
 62
     1
370
    -2
100
AcDbLine
 10
801.3267461677823
 20
298.5128259209361
 30
0.0
 11
801.3267461677823
 21
290.512825920485
 31
0.0
  0
SOLID
  5
1273
330
1105
100
AcDbEntity
  8
0
 62
     1
100
AcDbTrace
 10
801.0767461677826
 20
298.5128259209361
 30
0.0
 11
801.5767461677826
 21
298.5128259209361
 31
0.0
 12
801.3267461677823
 22
300.0128259209361
 32
0.0
 13
801.3267461677823
 23
300.0128259209361
 33
0.0
  0
SOLID
  5
1274
330
1105
100
AcDbEntity
  8
0
 62
     1
100
AcDbTrace
 10
801.0767461677826
 20
290.512825920485
 30
0.0
 11
801.5767461677826
 21
290.512825920485
 31
0.0
 12
801.3267461677823
 22
289.012825920485
 32
0.0
 13
801.3267461677823
 23
289.012825920485
 33
0.0
  0
MTEXT
  5
1275
330
1105
100
AcDbEntity
  8
0
 62
     4
100
AcDbMText
 10
798.3267461677824
 20
293.9588084636318
 30
0.0
 40
2.0
 41
0.0
 71
     5
 72
     1
  1
\A1;{\H2.5x;%%C11}
  7
Romans字体
 11
0.0000000000000001
 21
1.0
 31
0.0
 73
     1
 44
1.0
1001
ACAD
1000
MTEXTBEGIN
1070
    73
1070
     1
1070
    44
1040
1.0
1070
    74
1070
     0
1000
MTEXTEND
  0
POINT
  5
1276
330
1105
100
AcDbEntity
  8
Defpoints
 62
     0
100
AcDbPoint
 10
812.6436213900131
 20
300.0128259209361
 30
0.0
  0
POINT
  5
1277
330
1105
100
AcDbEntity
  8
Defpoints
 62
     0
100
AcDbPoint
 10
812.6436213900483
 20
289.012825920485
 30
0.0
  0
POINT
  5
1278
330
1105
100
AcDbEntity
  8
Defpoints
 62
     0
100
AcDbPoint
 10
801.3267461677823
 20
289.012825920485
 30
0.0
  0
ENDBLK
  5
1107
330
1105
100
AcDbEntity
  8
0
100
AcDbBlockEnd
  0
BLOCK
  5
1379
330
1378
100
AcDbEntity
  8
0
100
AcDbBlockBegin
  2
*D8
 70
     1
 10
0.0
 20
0.0
 30
0.0
  3
*D8
  1

  0
LINE
  5
13A3
330
1378
100
AcDbEntity
  8
0
 62
     6
370
    -2
100
AcDbLine
 10
936.9426409067683
 20
293.2628259207104
 30
0.0
 11
942.5543431635752
 21
293.2628259207104
 31
0.0
  0
LINE
  5
13A4
330
1378
100
AcDbEntity
  8
0
 62
     6
370
    -2
100
AcDbLine
 10
936.9426409067683
 20
295.7628259207104
 30
0.0
 11
942.5543431635752
 21
295.7628259207104
 31
0.0
  0
LINE
  5
13A5
330
1378
100
AcDbEntity
  8
0
 62
     1
370
    -2
100
AcDbLine
 10
942.0543431635753
 20
291.7628259207104
 30
0.0
 11
942.0543431635753
 21
290.2628259207104
 31
0.0
  0
LINE
  5
13A6
330
1378
100
AcDbEntity
  8
0
 62
     1
370
    -2
100
AcDbLine
 10
942.0543431635753
 20
297.2628259207104
 30
0.0
 11
942.0543431635753
 21
308.7628259207104
 31
0.0
  0
SOLID
  5
13A7
330
1378
100
AcDbEntity
  8
0
 62
     1
100
AcDbTrace
 10
941.8043431635751
 20
291.7628259207104
 30
0.0
 11
942.3043431635752
 21
291.7628259207104
 31
0.0
 12
942.0543431635753
 22
293.2628259207104
 32
0.0
 13
942.0543431635753
 23
293.2628259207104
 33
0.0
  0
SOLID
  5
13A8
330
1378
100
AcDbEntity
  8
0
 62
     1
100
AcDbTrace
 10
941.8043431635751
 20
297.2628259207104
 30
0.0
 11
942.3043431635752
 21
297.2628259207104
 31
0.0
 12
942.0543431635753
 22
295.7628259207104
 32
0.0
 13
942.0543431635753
 23
295.7628259207104
 33
0.0
  0
MTEXT
  5
13A9
330
1378
100
AcDbEntity
  8
0
 62
     4
100
AcDbMText
 10
939.5543431635752
 20
303.7628259207107
 30
0.0
 40
4.0
 41
0.0
 71
     5
 72
     1
  1
\A1;%%c2.5
  7
Romans字体
 11
0.0000000000000001
 21
1.0
 31
0.0
 73
     1
 44
1.0
1001
ACAD
1000
MTEXTBEGIN
1070
    73
1070
     1
1070
    44
1040
1.0
1070
    74
1070
     0
1000
MTEXTEND
  0
POINT
  5
13AA
330
1378
100
AcDbEntity
  8
Defpoints
 62
     0
100
AcDbPoint
 10
936.7426409067682
 20
293.2628259207104
 30
0.0
  0
POINT
  5
13AB
330
1378
100
AcDbEntity
  8
Defpoints
 62
     0
100
AcDbPoint
 10
936.7426409067686
 20
295.7628259207104
 30
0.0
  0
POINT
  5
13AC
330
1378
100
AcDbEntity
  8
Defpoints
 62
     0
100
AcDbPoint
 10
942.0543431635753
 20
295.7628259207104
 30
0.0
  0
ENDBLK
  5
137A
330
1378
100
AcDbEntity
  8
0
100
AcDbBlockEnd
  0
ENDSEC
  0
SECTION
  2
ENTITIES
  0
HATCH
  5
16
330
2
100
AcDbEntity
  8
图层 1
 62
     7
100
AcDbHatch
 10
0.0
 20
0.0
 30
0.0
210
0.0
220
0.0
230
1.0
  2
SOLID
 70
     1
 71
     0
 91
        1
 92
        1
 93
        2
 72
     4
 94
        3
 73
     0
 74
     0
 95
       17
 96
       13
 40
0.0
 40
0.0
 40
0.0
 40
0.0
 40
0.3527780104152769
 40
0.3527780104152769
 40
0.3527780104152769
 40
0.7055560208305538
 40
0.7055560208305538
 40
0.7055560208305538
 40
1.058334031245828
 40
1.058334031245828
 40
1.058334031245828
 40
1.411112041661104
 40
1.411112041661104
 40
1.411112041661104
 40
1.411112041661104
 10
11.07013262565829
 20
29.50312817963231
 10
11.07013262565829
 20
29.50312817963231
 10
10.9431807732774
 20
29.50312817963231
 10
10.9431807732774
 20
29.50312817963231
 10
10.9431807732774
 20
29.50312817963231
 10
10.85843136843155
 20
29.22786486877117
 10
10.85843136843155
 20
29.22786486877117
 10
10.85843136843155
 20
29.22786486877117
 10
10.90080607085448
 20
29.2068497724476
 10
10.90080607085448
 20
29.2068497724476
 10
10.94455881238059
 20
29.31571486159919
 10
11.00346998404173
 20
29.40907701083995
 10
11.07013262565829
 20
29.50312817963231
 72
     1
 10
11.07013262565829
 20
29.50312817963231
 11
11.07013262565829
 21
29.50312817963231
 97
        0
 75
     0
 76
     1
 98
        0
  0
HATCH
  5
1A
330
2
100
AcDbEntity
  8
图层 1
 62
     7
100
AcDbHatch
 10
0.0
 20
0.0
 30
0.0
210
0.0
220
0.0
230
1.0
  2
SOLID
 70
     1
 71
     0
 91
        1
 92
        1
 93
        2
 72
     4
 94
        3
 73
     0
 74
     0
 95
       47
 96
       43
 40
0.0
 40
0.0
 40
0.0
 40
0.0
 40
0.3527780104152769
 40
0.3527780104152769
 40
0.3527780104152769
 40
0.7055560208305538
 40
0.7055560208305538
 40
0.7055560208305538
 40
1.058334031245828
 40
1.058334031245828
 40
1.058334031245828
 40
1.411112041661104
 40
1.411112041661104
 40
1.411112041661104
 40
1.763890052076384
 40
1.763890052076384
 40
1.763890052076384
 40
2.116668062491659
 40
2.116668062491659
 40
2.116668062491659
 40
2.469446072906936
 40
2.469446072906936
 40
2.469446072906936
 40
2.822224083322215
 40
2.822224083322215
 40
2.822224083322215
 40
3.175002093737492
 40
3.175002093737492
 40
3.175002093737492
 40
3.527780104152768
 40
3.527780104152768
 40
3.527780104152768
 40
3.880558114568044
 40
3.880558114568044
 40
3.880558114568044
 40
4.233336124983321
 40
4.233336124983321
 40
4.233336124983321
 40
4.586114135398599
 40
4.586114135398599
 40
4.586114135398599
 40
4.938892145813873
 40
4.938892145813873
 40
4.938892145813873
 40
4.938892145813873
 10
162.8986914070121
 20
257.4895347631509
 10
162.8986914070121
 20
257.4895347631509
 10
162.9200510131114
 20
257.4471600607279
 10
162.9200510131114
 20
257.4471600607279
 10
162.9200510131114
 20
257.4471600607279
 10
162.9200510131114
 20
257.404785358305
 10
162.9200510131114
 20
257.404785358305
 10
162.9200510131114
 20
257.404785358305
 10
162.8986914070121
 20
257.36258291077
 10
162.8986914070121
 20
257.36258291077
 10
162.8986914070121
 20
257.36258291077
 10
162.8986914070121
 20
257.320208208347
 10
162.8986914070121
 20
257.320208208347
 10
162.8986914070121
 20
257.320208208347
 10
162.8563167045891
 20
257.2990208571356
 10
162.8563167045891
 20
257.2990208571356
 10
162.8563167045891
 20
257.2990208571356
 10
162.8139420021662
 20
257.2563016449369
 10
162.8139420021662
 20
257.2563016449369
 10
162.8139420021662
 20
257.2563016449369
 10
162.7295371070961
 20
257.2563016449369
 10
162.7295371070961
 20
257.2563016449369
 10
162.7295371070961
 20
257.2563016449369
 10
162.6658027985738
 20
257.2778335059241
 10
162.6658027985738
 20
257.2778335059241
 10
162.6658027985738
 20
257.2778335059241
 10
162.6237726059267
 20
257.2990208571356
 10
162.6237726059267
 20
257.2990208571356
 10
162.6237726059267
 20
257.2990208571356
 10
162.5813979035038
 20
257.3413955595585
 10
162.5813979035038
 20
257.3413955595585
 10
162.5813979035038
 20
257.3413955595585
 10
162.5813979035038
 20
257.4895347631509
 10
162.5813979035038
 20
257.4895347631509
 10
162.5813979035038
 20
257.4895347631509
 10
162.6447877022503
 20
257.5525800521216
 10
162.6447877022503
 20
257.5525800521216
 10
162.6447877022503
 20
257.5525800521216
 10
162.7081775009967
 20
257.5525800521216
 10
162.7081775009967
 20
257.5525800521216
 10
162.8749202324821
 20
257.5424170137356
 10
162.7918933765152
 20
257.5939212252171
 10
162.8986914070121
 20
257.4895347631509
 72
     1
 10
162.8986914070121
 20
257.4895347631509
 11
162.8986914070121
 21
257.4895347631509
 97
        0
 75
     0
 76
     1
 98
        0
  0
HATCH
  5
1B
330
2
100
AcDbEntity
  8
图层 1
 62
     7
100
AcDbHatch
 10
0.0
 20
0.0
 30
0.0
210
0.0
220
0.0
230
1.0
  2
SOLID
 70
     1
 71
     0
 91
        1
 92
        1
 93
        2
 72
     4
 94
        3
 73
     0
 74
     0
 95
       56
 96
       52
 40
0.0
 40
0.0
 40
0.0
 40
0.0
 40
0.3527780104152769
 40
0.3527780104152769
 40
0.3527780104152769
 40
0.7055560208305538
 40
0.7055560208305538
 40
0.7055560208305538
 40
1.058334031245828
 40
1.058334031245828
 40
1.058334031245828
 40
1.411112041661104
 40
1.411112041661104
 40
1.411112041661104
 40
1.763890052076384
 40
1.763890052076384
 40
1.763890052076384
 40
2.116668062491659
 40
2.116668062491659
 40
2.116668062491659
 40
2.469446072906936
 40
2.469446072906936
 40
2.469446072906936
 40
2.822224083322215
 40
2.822224083322215
 40
2.822224083322215
 40
3.175002093737492
 40
3.175002093737492
 40
3.175002093737492
 40
3.527780104152768
 40
3.527780104152768
 40
3.527780104152768
 40
3.880558114568044
 40
3.880558114568044
 40
3.880558114568044
 40
4.233336124983321
 40
4.233336124983321
 40
4.233336124983321
 40
4.586114135398599
 40
4.586114135398599
 40
4.586114135398599
 40
4.938892145813873
 40
4.938892145813873
 40
4.938892145813873
 40
5.291670156229153
 40
5.291670156229153
 40
5.291670156229153
 40
5.64444816664443
 40
5.64444816664443
 40
5.64444816664443
 40
5.997226177059705
 40
5.997226177059705
 40
5.997226177059705
 40
5.997226177059705
 10
185.4837187788815
 20
241.4451977396596
 10
185.4837187788815
 20
241.4451977396596
 10
185.4837187788815
 20
241.4028230372367
 10
185.4837187788815
 20
241.4028230372367
 10
185.4837187788815
 20
241.4028230372367
 10
185.5047338752051
 20
241.3604483348137
 10
185.5047338752051
 20
241.3604483348137
 10
185.4520238795082
 20
241.2782827532863
 10
185.4671823096433
 20
241.1897437409066
 10
185.335579575289
 20
241.2119646214456
 10
185.335579575289
 20
241.2119646214456
 10
185.2932048728662
 20
241.2119646214456
 10
185.2932048728662
 20
241.2119646214456
 10
185.2932048728662
 20
241.2119646214456
 10
185.2294705643439
 20
241.2334964824328
 10
185.2294705643439
 20
241.2334964824328
 10
185.2294705643439
 20
241.2334964824328
 10
185.1660807655974
 20
241.2543393238685
 10
185.1660807655974
 20
241.2543393238685
 10
185.1660807655974
 20
241.2543393238685
 10
185.1450656692739
 20
241.2758711848558
 10
185.1450656692739
 20
241.2758711848558
 10
185.1450656692739
 20
241.2758711848558
 10
185.1450656692739
 20
241.2967140262914
 10
185.1450656692739
 20
241.2967140262914
 10
185.1450656692739
 20
241.2967140262914
 10
185.1237060631745
 20
241.3604483348137
 10
185.1237060631745
 20
241.3604483348137
 10
185.1237060631745
 20
241.3604483348137
 10
185.1237060631745
 20
241.4028230372367
 10
185.1237060631745
 20
241.4028230372367
 10
185.1237060631745
 20
241.4028230372367
 10
185.1660807655974
 20
241.4875724420825
 10
185.1660807655974
 20
241.4875724420825
 10
185.1660807655974
 20
241.4875724420825
 10
185.2084554680203
 20
241.5085875384061
 10
185.2084554680203
 20
241.5085875384061
 10
185.2084554680203
 20
241.5085875384061
 10
185.2718452667668
 20
241.5297748896175
 10
185.2718452667668
 20
241.5297748896175
 10
185.2718452667668
 20
241.5297748896175
 10
185.3565946716127
 20
241.5297748896175
 10
185.3565946716127
 20
241.5297748896175
 10
185.3565946716127
 20
241.5297748896175
 10
185.4199844703592
 20
241.5085875384061
 10
185.4199844703592
 20
241.5085875384061
 10
185.4199844703592
 20
241.5085875384061
 10
185.4623591727821
 20
241.4875724420825
 10
185.4623591727821
 20
241.4875724420825
 10
185.4623591727821
 20
241.4875724420825
 10
185.4837187788815
 20
241.4451977396596
 10
185.4837187788815
 20
241.4451977396596
 72
     1
 10
185.4837187788815
 20
241.4451977396596
 11
185.4837187788815
 21
241.4451977396596
 97
        0
 75
     0
 76
     1
 98
        0
  0
HATCH
  5
1C
330
2
100
AcDbEntity
  8
图层 1
 62
     7
100
AcDbHatch
 10
0.0
 20
0.0
 30
0.0
210
0.0
220
0.0
230
1.0
  2
SOLID
 70
     1
 71
     0
 91
        1
 92
        1
 93
        2
 72
     4
 94
        3
 73
     0
 74
     0
 95
       38
 96
       34
 40
0.0
 40
0.0
 40
0.0
 40
0.0
 40
0.3527780104152769
 40
0.3527780104152769
 40
0.3527780104152769
 40
0.7055560208305538
 40
0.7055560208305538
 40
0.7055560208305538
 40
1.058334031245828
 40
1.058334031245828
 40
1.058334031245828
 40
1.411112041661104
 40
1.411112041661104
 40
1.411112041661104
 40
1.763890052076384
 40
1.763890052076384
 40
1.763890052076384
 40
2.116668062491659
 40
2.116668062491659
 40
2.116668062491659
 40
2.469446072906936
 40
2.469446072906936
 40
2.469446072906936
 40
2.822224083322215
 40
2.822224083322215
 40
2.822224083322215
 40
3.175002093737492
 40
3.175002093737492
 40
3.175002093737492
 40
3.527780104152768
 40
3.527780104152768
 40
3.527780104152768
 40
3.880558114568044
 40
3.880558114568044
 40
3.880558114568044
 40
3.880558114568044
 10
185.907121293335
 20
220.1937677098971
 10
185.9005756075949
 20
220.0449394867532
 10
185.9329595265197
 20
220.1136691870245
 10
185.864746590912
 20
219.9817219428946
 10
185.864746590912
 20
219.9817219428946
 10
185.822371888489
 20
219.9605345916831
 10
185.822371888489
 20
219.9605345916831
 10
185.822371888489
 20
219.9605345916831
 10
185.6528730787974
 20
219.9605345916831
 10
185.6528730787974
 20
219.9605345916831
 10
185.6528730787974
 20
219.9605345916831
 10
185.5894832800509
 20
220.002909294106
 10
185.5894832800509
 20
220.002909294106
 10
185.5894832800509
 20
220.002909294106
 10
185.5681236739515
 20
220.0240966453175
 10
185.5681236739515
 20
220.0240966453175
 10
185.5681236739515
 20
220.0240966453175
 10
185.5681236739515
 20
220.045283996529
 10
185.5681236739515
 20
220.045283996529
 10
185.5681236739515
 20
220.045283996529
 10
185.547108577628
 20
220.0876586989519
 10
185.547108577628
 20
220.0876586989519
 10
185.547108577628
 20
220.0876586989519
 10
185.547108577628
 20
220.1513930074742
 10
185.547108577628
 20
220.1513930074742
 10
185.547108577628
 20
220.1513930074742
 10
185.5894832800509
 20
220.23614241232
 10
185.5894832800509
 20
220.23614241232
 10
185.5894832800509
 20
220.23614241232
 10
185.6318579824738
 20
220.2573297635315
 10
185.6318579824738
 20
220.2573297635315
 10
185.7055830744942
 20
220.2566407439799
 10
185.8416644359337
 20
220.3310548555519
 10
185.907121293335
 20
220.1937677098971
 72
     1
 10
185.907121293335
 20
220.1937677098971
 11
185.907121293335
 21
220.1937677098971
 97
        0
 75
     0
 76
     1
 98
        0
  0
HATCH
  5
1D
330
2
100
AcDbEntity
  8
图层 1
 62
     7
100
AcDbHatch
 10
0.0
 20
0.0
 30
0.0
210
0.0
220
0.0
230
1.0
  2
SOLID
 70
     1
 71
     0
 91
        1
 92
        1
 93
        2
 72
     4
 94
        3
 73
     0
 74
     0
 95
       50
 96
       46
 40
0.0
 40
0.0
 40
0.0
 40
0.0
 40
0.3527780104152769
 40
0.3527780104152769
 40
0.3527780104152769
 40
0.7055560208305538
 40
0.7055560208305538
 40
0.7055560208305538
 40
1.058334031245828
 40
1.058334031245828
 40
1.058334031245828
 40
1.411112041661104
 40
1.411112041661104
 40
1.411112041661104
 40
1.763890052076384
 40
1.763890052076384
 40
1.763890052076384
 40
2.116668062491659
 40
2.116668062491659
 40
2.116668062491659
 40
2.469446072906936
 40
2.469446072906936
 40
2.469446072906936
 40
2.822224083322215
 40
2.822224083322215
 40
2.822224083322215
 40
3.175002093737492
 40
3.175002093737492
 40
3.175002093737492
 40
3.527780104152768
 40
3.527780104152768
 40
3.527780104152768
 40
3.880558114568044
 40
3.880558114568044
 40
3.880558114568044
 40
4.233336124983321
 40
4.233336124983321
 40
4.233336124983321
 40
4.586114135398599
 40
4.586114135398599
 40
4.586114135398599
 40
4.938892145813873
 40
4.938892145813873
 40
4.938892145813873
 40
5.291670156229153
 40
5.291670156229153
 40
5.291670156229153
 40
5.291670156229153
 10
180.9117295442905
 20
208.9327766684477
 10
180.9117295442905
 20
208.9327766684477
 10
180.9117295442905
 20
208.7637946234197
 10
180.9117295442905
 20
208.7637946234197
 10
181.2273004989198
 20
208.6749111012643
 10
181.3833634273555
 20
208.6776671794706
 10
181.6948002646751
 20
208.5097186637701
 10
181.9542161258496
 20
208.4294478860095
 10
182.1388733656765
 20
208.2134402565853
 10
182.3297317814676
 20
208.02292635057
 10
182.3297317814676
 20
208.02292635057
 10
182.435496282637
 20
208.065301052993
 10
182.435496282637
 20
208.065301052993
 10
182.288390608372
 20
208.2733849575739
 10
182.3752070718726
 20
208.2134402565853
 10
182.1605774815516
 20
208.3824223016133
 10
182.1605774815516
 20
208.3824223016133
 10
182.1182027791287
 20
208.4247970040363
 10
182.1182027791287
 20
208.4247970040363
 10
182.1182027791287
 20
208.4247970040363
 10
182.0968431730294
 20
208.467516216235
 10
182.0968431730294
 20
208.467516216235
 10
182.0968431730294
 20
208.467516216235
 10
182.0544684706064
 20
208.4883590576707
 10
182.0544684706064
 20
208.4883590576707
 10
182.0544684706064
 20
208.4883590576707
 10
181.9910786718599
 20
208.5305615052057
 10
181.9910786718599
 20
208.5305615052057
 10
181.9910786718599
 20
208.5305615052057
 10
181.948703969437
 20
208.552093366193
 10
181.948703969437
 20
208.552093366193
 10
181.948703969437
 20
208.552093366193
 10
181.9063292670141
 20
208.5729362076286
 10
181.9063292670141
 20
208.5729362076286
 10
181.9063292670141
 20
208.5729362076286
 10
181.8639545645911
 20
208.6156554198274
 10
181.8639545645911
 20
208.6156554198274
 10
181.8639545645911
 20
208.6156554198274
 10
181.821924371944
 20
208.6368427710388
 10
181.821924371944
 20
208.6368427710388
 10
181.6637943848536
 20
208.6742220817127
 10
181.5452830219797
 20
208.8092699138248
 10
181.3771622513911
 20
208.8061693258427
 10
181.2803550043924
 20
208.8573290275484
 10
181.0126709085988
 20
208.8971199066528
 10
180.9117295442905
 20
208.9327766684477
 72
     1
 10
180.9117295442905
 20
208.9327766684477
 11
180.9117295442905
 21
208.9327766684477
 97
        0
 75
     0
 76
     1
 98
        0
  0
HATCH
  5
1E
330
2
100
AcDbEntity
  8
图层 1
 62
     7
100
AcDbHatch
 10
0.0
 20
0.0
 30
0.0
210
0.0
220
0.0
230
1.0
  2
SOLID
 70
     1
 71
     0
 91
        1
 92
        1
 93
        2
 72
     4
 94
        3
 73
     0
 74
     0
 95
       38
 96
       34
 40
0.0
 40
0.0
 40
0.0
 40
0.0
 40
0.3527780104152769
 40
0.3527780104152769
 40
0.3527780104152769
 40
0.7055560208305538
 40
0.7055560208305538
 40
0.7055560208305538
 40
1.058334031245828
 40
1.058334031245828
 40
1.058334031245828
 40
1.411112041661104
 40
1.411112041661104
 40
1.411112041661104
 40
1.763890052076384
 40
1.763890052076384
 40
1.763890052076384
 40
2.116668062491659
 40
2.116668062491659
 40
2.116668062491659
 40
2.469446072906936
 40
2.469446072906936
 40
2.469446072906936
 40
2.822224083322215
 40
2.822224083322215
 40
2.822224083322215
 40
3.175002093737492
 40
3.175002093737492
 40
3.175002093737492
 40
3.527780104152768
 40
3.527780104152768
 40
3.527780104152768
 40
3.880558114568044
 40
3.880558114568044
 40
3.880558114568044
 40
3.880558114568044
 10
189.145513185819
 20
166.8326485368285
 10
189.207869455238
 20
166.740492171803
 10
189.1317327947871
 20
166.6833035490209
 10
189.103138483396
 20
166.6209472796017
 10
189.103138483396
 20
166.6209472796017
 10
189.0607637809731
 20
166.5997599283903
 10
189.0607637809731
 20
166.5997599283903
 10
189.0607637809731
 20
166.5997599283903
 10
188.9973739822266
 20
166.5785725771788
 10
188.9973739822266
 20
166.5785725771788
 10
188.9973739822266
 20
166.5785725771788
 10
188.9549992798037
 20
166.5997599283903
 10
188.9549992798037
 20
166.5997599283903
 10
188.9549992798037
 20
166.5997599283903
 10
188.8916094810572
 20
166.5997599283903
 10
188.8916094810572
 20
166.5997599283903
 10
188.8916094810572
 20
166.5997599283903
 10
188.8492347786343
 20
166.6209472796017
 10
188.8492347786343
 20
166.6209472796017
 10
188.8492347786343
 20
166.6209472796017
 10
188.8278751725349
 20
166.6633219820247
 10
188.8278751725349
 20
166.6633219820247
 10
188.8278751725349
 20
166.6633219820247
 10
188.8068600762114
 20
166.6845093332361
 10
188.8068600762114
 20
166.6845093332361
 10
188.8068600762114
 20
166.6845093332361
 10
188.8068600762114
 20
166.8326485368285
 10
188.8068600762114
 20
166.8326485368285
 10
188.8068600762114
 20
166.8326485368285
 10
188.8702498749578
 20
166.896038335575
 10
188.8702498749578
 20
166.896038335575
 10
189.0228677056355
 20
166.8819134347673
 10
189.0686875058164
 20
166.9411691162043
 10
189.145513185819
 20
166.8326485368285
 72
     1
 10
189.145513185819
 20
166.8326485368285
 11
189.145513185819
 21
166.8326485368285
 97
        0
 75
     0
 76
     1
 98
        0
  0
HATCH
  5
1F
330
2
100
AcDbEntity
  8
图层 1
 62
     7
100
AcDbHatch
 10
0.0
 20
0.0
 30
0.0
210
0.0
220
0.0
230
1.0
  2
SOLID
 70
     1
 71
     0
 91
        1
 92
        1
 93
        2
 72
     4
 94
        3
 73
     0
 74
     0
 95
       68
 96
       64
 40
0.0
 40
0.0
 40
0.0
 40
0.0
 40
0.3527780104152769
 40
0.3527780104152769
 40
0.3527780104152769
 40
0.7055560208305538
 40
0.7055560208305538
 40
0.7055560208305538
 40
1.058334031245828
 40
1.058334031245828
 40
1.058334031245828
 40
1.411112041661104
 40
1.411112041661104
 40
1.411112041661104
 40
1.763890052076384
 40
1.763890052076384
 40
1.763890052076384
 40
2.116668062491659
 40
2.116668062491659
 40
2.116668062491659
 40
2.469446072906936
 40
2.469446072906936
 40
2.469446072906936
 40
2.822224083322215
 40
2.822224083322215
 40
2.822224083322215
 40
3.175002093737492
 40
3.175002093737492
 40
3.175002093737492
 40
3.527780104152768
 40
3.527780104152768
 40
3.527780104152768
 40
3.880558114568044
 40
3.880558114568044
 40
3.880558114568044
 40
4.233336124983321
 40
4.233336124983321
 40
4.233336124983321
 40
4.586114135398599
 40
4.586114135398599
 40
4.586114135398599
 40
4.938892145813873
 40
4.938892145813873
 40
4.938892145813873
 40
5.291670156229153
 40
5.291670156229153
 40
5.291670156229153
 40
5.64444816664443
 40
5.64444816664443
 40
5.64444816664443
 40
5.997226177059705
 40
5.997226177059705
 40
5.997226177059705
 40
6.350004187474984
 40
6.350004187474984
 40
6.350004187474984
 40
6.702782197890257
 40
6.702782197890257
 40
6.702782197890257
 40
7.055560208305537
 40
7.055560208305537
 40
7.055560208305537
 40
7.408338218720808
 40
7.408338218720808
 40
7.408338218720808
 40
7.408338218720808
 10
174.7732543591544
 20
135.4846705078077
 10
174.7732543591544
 20
135.4846705078077
 10
174.7732543591544
 20
135.3789060066383
 10
174.7732543591544
 20
135.3789060066383
 10
174.7732543591544
 20
135.3789060066383
 10
174.8156290615773
 20
135.3789060066383
 10
174.8156290615773
 20
135.3789060066383
 10
174.8156290615773
 20
135.3789060066383
 10
174.8580037640002
 20
135.3578909103147
 10
174.8580037640002
 20
135.3578909103147
 10
174.8580037640002
 20
135.3578909103147
 10
174.9213935627468
 20
135.3578909103147
 10
174.9213935627468
 20
135.3578909103147
 10
174.9213935627468
 20
135.3578909103147
 10
174.9637682651697
 20
135.3365313042154
 10
174.9637682651697
 20
135.3365313042154
 10
174.9637682651697
 20
135.3365313042154
 10
174.9847833614933
 20
135.3365313042154
 10
174.9847833614933
 20
135.3365313042154
 10
174.9847833614933
 20
135.3365313042154
 10
175.0271580639162
 20
135.3155162078918
 10
175.0271580639162
 20
135.3155162078918
 10
175.0271580639162
 20
135.3155162078918
 10
175.0485176700155
 20
135.2941566017924
 10
175.0485176700155
 20
135.2941566017924
 10
175.0485176700155
 20
135.2941566017924
 10
175.0695327663391
 20
135.2941566017924
 10
175.0695327663391
 20
135.2941566017924
 10
175.0695327663391
 20
135.2941566017924
 10
175.0908923724385
 20
135.2731415054689
 10
175.0908923724385
 20
135.2731415054689
 10
175.0908923724385
 20
135.2731415054689
 10
175.1332670748614
 20
135.2731415054689
 10
175.1332670748614
 20
135.2731415054689
 10
175.1332670748614
 20
135.2731415054689
 10
175.154282171185
 20
135.2517818993695
 10
175.154282171185
 20
135.2517818993695
 10
175.154282171185
 20
135.2517818993695
 10
175.154282171185
 20
135.3578909103147
 10
175.154282171185
 20
135.3578909103147
 10
175.154282171185
 20
135.3578909103147
 10
175.1332670748614
 20
135.3789060066383
 10
175.1332670748614
 20
135.3789060066383
 10
175.1332670748614
 20
135.3789060066383
 10
175.0908923724385
 20
135.3789060066383
 10
175.0908923724385
 20
135.3789060066383
 10
175.0908923724385
 20
135.3789060066383
 10
175.0908923724385
 20
135.3999211029619
 10
175.0908923724385
 20
135.3999211029619
 10
175.0908923724385
 20
135.3999211029619
 10
175.0695327663391
 20
135.3999211029619
 10
175.0695327663391
 20
135.3999211029619
 10
175.0695327663391
 20
135.3999211029619
 10
175.0271580639162
 20
135.4212807090612
 10
175.0271580639162
 20
135.4212807090612
 10
175.0271580639162
 20
135.4212807090612
 10
175.0061429675926
 20
135.4212807090612
 10
175.0061429675926
 20
135.4212807090612
 10
175.0061429675926
 20
135.4212807090612
 10
174.9637682651697
 20
135.4422958053848
 10
174.9637682651697
 20
135.4422958053848
 10
174.8996894468716
 20
135.4498750204523
 10
174.8394002361073
 20
135.4860485469109
 10
174.7732543591544
 20
135.4846705078077
 72
     1
 10
174.7732543591544
 20
135.4846705078077
 11
174.7732543591544
 21
135.4846705078077
 97
        0
 75
     0
 76
     1
 98
        0
  0
HATCH
  5
20
330
2
100
AcDbEntity
  8
图层 1
 62
     7
100
AcDbHatch
 10
0.0
 20
0.0
 30
0.0
210
0.0
220
0.0
230
1.0
  2
SOLID
 70
     1
 71
     0
 91
        1
 92
        1
 93
        2
 72
     4
 94
        3
 73
     0
 74
     0
 95
       29
 96
       25
 40
0.0
 40
0.0
 40
0.0
 40
0.0
 40
0.3527780104152769
 40
0.3527780104152769
 40
0.3527780104152769
 40
0.7055560208305538
 40
0.7055560208305538
 40
0.7055560208305538
 40
1.058334031245828
 40
1.058334031245828
 40
1.058334031245828
 40
1.411112041661104
 40
1.411112041661104
 40
1.411112041661104
 40
1.763890052076384
 40
1.763890052076384
 40
1.763890052076384
 40
2.116668062491659
 40
2.116668062491659
 40
2.116668062491659
 40
2.469446072906936
 40
2.469446072906936
 40
2.469446072906936
 40
2.822224083322215
 40
2.822224083322215
 40
2.822224083322215
 40
2.822224083322215
 10
175.4929352807925
 20
164.0174869039101
 10
175.4929352807925
 20
164.0174869039101
 10
175.5139503771161
 20
163.9751122014871
 10
175.5139503771161
 20
163.9751122014871
 10
175.5139503771161
 20
163.9751122014871
 10
175.5139503771161
 20
163.9327374990642
 10
175.5139503771161
 20
163.9327374990642
 10
175.5139503771161
 20
163.9327374990642
 10
175.4929352807925
 20
163.8903627966413
 10
175.4929352807925
 20
163.8903627966413
 10
175.4929352807925
 20
163.8903627966413
 10
175.471920184469
 20
163.8691754454298
 10
175.471920184469
 20
163.8691754454298
 10
175.471920184469
 20
163.8691754454298
 10
175.4505605783696
 20
163.8269729978948
 10
175.4505605783696
 20
163.8269729978948
 10
175.3571984291289
 20
163.7715069239916
 10
175.272449024283
 20
163.8195660377152
 10
175.1966568736079
 20
163.8691754454298
 10
175.208370205985
 20
163.9930267098286
 10
175.1563492298397
 20
164.0216210212197
 10
175.2600466723544
 20
164.0596893514451
 10
175.3330827448232
 20
164.1094710140476
 10
175.4357466580104
 20
164.0753645462439
 10
175.4929352807925
 20
164.0174869039101
 72
     1
 10
175.4929352807925
 20
164.0174869039101
 11
175.4929352807925
 21
164.0174869039101
 97
        0
 75
     0
 76
     1
 98
        0
  0
HATCH
  5
21
330
2
100
AcDbEntity
  8
图层 1
 62
     7
100
AcDbHatch
 10
0.0
 20
0.0
 30
0.0
210
0.0
220
0.0
230
1.0
  2
SOLID
 70
     1
 71
     0
 91
        1
 92
        1
 93
        2
 72
     4
 94
        3
 73
     0
 74
     0
 95
       11
 96
        7
 40
0.0
 40
0.0
 40
0.0
 40
0.0
 40
0.3527780104152769
 40
0.3527780104152769
 40
0.3527780104152769
 40
0.7055560208305538
 40
0.7055560208305538
 40
0.7055560208305538
 40
0.7055560208305538
 10
174.9213935627468
 20
174.5369206529582
 10
174.9213935627468
 20
174.5369206529582
 10
174.9213935627468
 20
174.3043765542958
 10
174.9213935627468
 20
174.3043765542958
 10
174.9213935627468
 20
174.3043765542958
 10
174.9213935627468
 20
174.5369206529582
 10
174.9213935627468
 20
174.5369206529582
 72
     1
 10
174.9213935627468
 20
174.5369206529582
 11
174.9213935627468
 21
174.5369206529582
 97
        0
 75
     0
 76
     1
 98
        0
  0
HATCH
  5
22
330
2
100
AcDbEntity
  8
图层 1
 62
     7
100
AcDbHatch
 10
0.0
 20
0.0
 30
0.0
210
0.0
220
0.0
230
1.0
  2
SOLID
 70
     1
 71
     0
 91
        1
 92
        1
 93
        2
 72
     4
 94
        3
 73
     0
 74
     0
 95
      131
 96
      127
 40
0.0
 40
0.0
 40
0.0
 40
0.0
 40
0.3527780104152769
 40
0.3527780104152769
 40
0.3527780104152769
 40
0.7055560208305538
 40
0.7055560208305538
 40
0.7055560208305538
 40
1.058334031245828
 40
1.058334031245828
 40
1.058334031245828
 40
1.411112041661104
 40
1.411112041661104
 40
1.411112041661104
 40
1.763890052076384
 40
1.763890052076384
 40
1.763890052076384
 40
2.116668062491659
 40
2.116668062491659
 40
2.116668062491659
 40
2.469446072906936
 40
2.469446072906936
 40
2.469446072906936
 40
2.822224083322215
 40
2.822224083322215
 40
2.822224083322215
 40
3.175002093737492
 40
3.175002093737492
 40
3.175002093737492
 40
3.527780104152768
 40
3.527780104152768
 40
3.527780104152768
 40
3.880558114568044
 40
3.880558114568044
 40
3.880558114568044
 40
4.233336124983321
 40
4.233336124983321
 40
4.233336124983321
 40
4.586114135398599
 40
4.586114135398599
 40
4.586114135398599
 40
4.938892145813873
 40
4.938892145813873
 40
4.938892145813873
 40
5.291670156229153
 40
5.291670156229153
 40
5.291670156229153
 40
5.64444816664443
 40
5.64444816664443
 40
5.64444816664443
 40
5.997226177059705
 40
5.997226177059705
 40
5.997226177059705
 40
6.350004187474984
 40
6.350004187474984
 40
6.350004187474984
 40
6.702782197890257
 40
6.702782197890257
 40
6.702782197890257
 40
7.055560208305537
 40
7.055560208305537
 40
7.055560208305537
 40
7.408338218720808
 40
7.408338218720808
 40
7.408338218720808
 40
7.76111622913609
 40
7.76111622913609
 40
7.76111622913609
 40
8.113894239551369
 40
8.113894239551369
 40
8.113894239551369
 40
8.466672249966642
 40
8.466672249966642
 40
8.466672249966642
 40
8.819450260381922
 40
8.819450260381922
 40
8.819450260381922
 40
9.172228270797198
 40
9.172228270797198
 40
9.172228270797198
 40
9.525006281212476
 40
9.525006281212476
 40
9.525006281212476
 40
9.877784291627751
 40
9.877784291627751
 40
9.877784291627751
 40
10.23056230204303
 40
10.23056230204303
 40
10.23056230204303
 40
10.58334031245831
 40
10.58334031245831
 40
10.58334031245831
 40
10.93611832287358
 40
10.93611832287358
 40
10.93611832287358
 40
11.28889633328886
 40
11.28889633328886
 40
11.28889633328886
 40
11.64167434370414
 40
11.64167434370414
 40
11.64167434370414
 40
11.99445235411941
 40
11.99445235411941
 40
11.99445235411941
 40
12.34723036453469
 40
12.34723036453469
 40
12.34723036453469
 40
12.70000837494997
 40
12.70000837494997
 40
12.70000837494997
 40
13.05278638536524
 40
13.05278638536524
 40
13.05278638536524
 40
13.40556439578052
 40
13.40556439578052
 40
13.40556439578052
 40
13.7583424061958
 40
13.7583424061958
 40
13.7583424061958
 40
14.11112041661107
 40
14.11112041661107
 40
14.11112041661107
 40
14.46389842702635
 40
14.46389842702635
 40
14.46389842702635
 40
14.81667643744163
 40
14.81667643744163
 40
14.81667643744163
 40
14.81667643744163
 10
173.3972823146245
 20
126.8274843518258
 10
173.3972823146245
 20
126.8274843518258
 10
173.3972823146245
 20
126.7217198506564
 10
173.3972823146245
 20
126.7217198506564
 10
173.3972823146245
 20
126.7217198506564
 10
173.4186419207238
 20
126.7217198506564
 10
173.4186419207238
 20
126.7217198506564
 10
173.4186419207238
 20
126.7217198506564
 10
173.4820317194703
 20
126.7007047543328
 10
173.4820317194703
 20
126.7007047543328
 10
173.4820317194703
 20
126.7007047543328
 10
173.5244064218933
 20
126.6793451482334
 10
173.5244064218933
 20
126.6793451482334
 10
173.5244064218933
 20
126.6793451482334
 10
173.5877962206398
 20
126.6793451482334
 10
173.5877962206398
 20
126.6793451482334
 10
173.5877962206398
 20
126.6793451482334
 10
173.6301709230627
 20
126.6583300519099
 10
173.6301709230627
 20
126.6583300519099
 10
173.7955356154449
 20
126.5911506456296
 10
173.759706598762
 20
126.6380039751379
 10
173.9478089363468
 20
126.5525655507404
 10
173.9478089363468
 20
126.5525655507404
 10
173.9688240326703
 20
126.4464565397952
 10
173.9688240326703
 20
126.4464565397952
 10
173.9688240326703
 20
126.4464565397952
 10
174.0325583411926
 20
126.5101908483175
 10
174.0325583411926
 20
126.5101908483175
 10
174.0325583411926
 20
126.5101908483175
 10
174.0749330436156
 20
126.5101908483175
 10
174.0749330436156
 20
126.5101908483175
 10
174.0749330436156
 20
126.5101908483175
 10
174.1593379386856
 20
126.4678161458946
 10
174.1593379386856
 20
126.4678161458946
 10
174.1593379386856
 20
126.4678161458946
 10
174.180697544785
 20
126.4464565397952
 10
174.180697544785
 20
126.4464565397952
 10
174.2464989119621
 20
126.3982251711837
 10
174.3298702777047
 20
126.3716979184474
 10
174.3922265471239
 20
126.3196769423022
 10
174.608234176548
 20
126.2059887162895
 10
174.7749769080334
 20
126.0278771622029
 10
174.9637682651697
 20
125.8749148217494
 10
174.9637682651697
 20
125.8749148217494
 10
175.0061429675926
 20
125.9172895241723
 10
175.0061429675926
 20
125.9172895241723
 10
174.961356696739
 20
125.9631093243532
 10
174.782211613325
 20
126.1246844092016
 10
174.7308796567315
 20
126.1501781326105
 10
174.7308796567315
 20
126.1501781326105
 10
174.6885049543085
 20
126.1925528350335
 10
174.6885049543085
 20
126.1925528350335
 10
174.6885049543085
 20
126.1925528350335
 10
174.667489857985
 20
126.2349275374564
 10
174.667489857985
 20
126.2349275374564
 10
174.667489857985
 20
126.2349275374564
 10
174.625115155562
 20
126.2559426337799
 10
174.625115155562
 20
126.2559426337799
 10
174.625115155562
 20
126.2559426337799
 10
174.5827404531391
 20
126.2983173362029
 10
174.5827404531391
 20
126.2983173362029
 10
174.5827404531391
 20
126.2983173362029
 10
174.5403657507162
 20
126.3196769423022
 10
174.5403657507162
 20
126.3196769423022
 10
174.5403657507162
 20
126.3196769423022
 10
174.4979910482932
 20
126.3620516447252
 10
174.4979910482932
 20
126.3620516447252
 10
174.4735308542117
 20
126.3875453681341
 10
174.3247026310678
 20
126.4695386947736
 10
174.2864620459544
 20
126.4888312422181
 10
174.2864620459544
 20
126.4888312422181
 10
174.2654469496308
 20
126.5101908483175
 10
174.2654469496308
 20
126.5101908483175
 10
174.2654469496308
 20
126.5101908483175
 10
174.2230722472079
 20
126.5312059446411
 10
174.2230722472079
 20
126.5312059446411
 10
174.2230722472079
 20
126.5312059446411
 10
174.2017126411085
 20
126.5525655507404
 10
174.2017126411085
 20
126.5525655507404
 10
174.2017126411085
 20
126.5525655507404
 10
174.1383228423621
 20
126.573580647064
 10
174.1383228423621
 20
126.573580647064
 10
174.1383228423621
 20
126.573580647064
 10
174.1169632362627
 20
126.5945957433876
 10
174.1169632362627
 20
126.5945957433876
 10
174.1169632362627
 20
126.5945957433876
 10
174.0959481399391
 20
126.7007047543328
 10
174.0959481399391
 20
126.7007047543328
 10
174.0959481399391
 20
126.7007047543328
 10
174.0325583411926
 20
126.6369704458105
 10
174.0325583411926
 20
126.6369704458105
 10
174.0325583411926
 20
126.6369704458105
 10
173.9901836387697
 20
126.6369704458105
 10
173.9901836387697
 20
126.6369704458105
 10
173.9901836387697
 20
126.6369704458105
 10
173.9054342339239
 20
126.6793451482334
 10
173.9054342339239
 20
126.6793451482334
 10
173.9054342339239
 20
126.6793451482334
 10
173.8420444351773
 20
126.7007047543328
 10
173.8420444351773
 20
126.7007047543328
 10
173.8420444351773
 20
126.7007047543328
 10
173.7996697327544
 20
126.7217198506564
 10
173.7996697327544
 20
126.7217198506564
 10
173.7996697327544
 20
126.7217198506564
 10
173.7572950303315
 20
126.7217198506564
 10
173.7572950303315
 20
126.7217198506564
 10
173.7572950303315
 20
126.7217198506564
 10
173.6725456254856
 20
126.7640945530793
 10
173.6725456254856
 20
126.7640945530793
 10
173.6725456254856
 20
126.7640945530793
 10
173.6515305291621
 20
126.7640945530793
 10
173.6515305291621
 20
126.7640945530793
 10
173.6515305291621
 20
126.7640945530793
 10
173.5667811243162
 20
126.7851096494029
 10
173.5667811243162
 20
126.7851096494029
 10
173.5667811243162
 20
126.7851096494029
 10
173.5033913255697
 20
126.8064692555022
 10
173.5033913255697
 20
126.8064692555022
 10
173.5033913255697
 20
126.8064692555022
 10
173.4396570170474
 20
126.8064692555022
 10
173.4396570170474
 20
126.8064692555022
 10
173.4396570170474
 20
126.8064692555022
 10
173.4186419207238
 20
126.8274843518258
 10
173.4186419207238
 20
126.8274843518258
 10
173.4186419207238
 20
126.8274843518258
 10
173.3972823146245
 20
126.8274843518258
 10
173.3972823146245
 20
126.8274843518258
 72
     1
 10
173.3972823146245
 20
126.8274843518258
 11
173.3972823146245
 21
126.8274843518258
 97
        0
 75
     0
 76
     1
 98
        0
  0
HATCH
  5
23
330
2
100
AcDbEntity
  8
图层 1
 62
     7
100
AcDbHatch
 10
0.0
 20
0.0
 30
0.0
210
0.0
220
0.0
230
1.0
  2
SOLID
 70
     1
 71
     0
 91
        1
 92
        1
 93
        2
 72
     4
 94
        3
 73
     0
 74
     0
 95
       47
 96
       43
 40
0.0
 40
0.0
 40
0.0
 40
0.0
 40
0.3527780104152769
 40
0.3527780104152769
 40
0.3527780104152769
 40
0.7055560208305538
 40
0.7055560208305538
 40
0.7055560208305538
 40
1.058334031245828
 40
1.058334031245828
 40
1.058334031245828
 40
1.411112041661104
 40
1.411112041661104
 40
1.411112041661104
 40
1.763890052076384
 40
1.763890052076384
 40
1.763890052076384
 40
2.116668062491659
 40
2.116668062491659
 40
2.116668062491659
 40
2.469446072906936
 40
2.469446072906936
 40
2.469446072906936
 40
2.822224083322215
 40
2.822224083322215
 40
2.822224083322215
 40
3.175002093737492
 40
3.175002093737492
 40
3.175002093737492
 40
3.527780104152768
 40
3.527780104152768
 40
3.527780104152768
 40
3.880558114568044
 40
3.880558114568044
 40
3.880558114568044
 40
4.233336124983321
 40
4.233336124983321
 40
4.233336124983321
 40
4.586114135398599
 40
4.586114135398599
 40
4.586114135398599
 40
4.938892145813873
 40
4.938892145813873
 40
4.938892145813873
 40
4.938892145813873
 10
180.1920486226523
 20
255.6479577566324
 10
180.1920486226523
 20
255.6479577566324
 10
180.2130637189759
 20
255.6055830542095
 10
180.2130637189759
 20
255.6055830542095
 10
180.2130637189759
 20
255.6055830542095
 10
180.2130637189759
 20
255.5210059042515
 10
180.2130637189759
 20
255.5210059042515
 10
180.2130637189759
 20
255.5210059042515
 10
180.1920486226523
 20
255.4786312018286
 10
180.1920486226523
 20
255.4786312018286
 10
180.1920486226523
 20
255.4786312018286
 10
180.1496739202294
 20
255.4359119896299
 10
180.1496739202294
 20
255.4359119896299
 10
180.1496739202294
 20
255.4359119896299
 10
180.1283143141301
 20
255.4147246384184
 10
180.1283143141301
 20
255.4147246384184
 10
180.1283143141301
 20
255.4147246384184
 10
180.0225498129606
 20
255.4147246384184
 10
180.0225498129606
 20
255.4147246384184
 10
180.0225498129606
 20
255.4147246384184
 10
179.9591600142141
 20
255.4359119896299
 10
179.9591600142141
 20
255.4359119896299
 10
179.9591600142141
 20
255.4359119896299
 10
179.9167853117912
 20
255.4570993408414
 10
179.9167853117912
 20
255.4570993408414
 10
179.9167853117912
 20
255.4570993408414
 10
179.8957702154676
 20
255.4786312018286
 10
179.8957702154676
 20
255.4786312018286
 10
179.8957702154676
 20
255.4786312018286
 10
179.8744106093683
 20
255.4994740432643
 10
179.8744106093683
 20
255.4994740432643
 10
179.8744106093683
 20
255.4994740432643
 10
179.8744106093683
 20
255.6479577566324
 10
179.8744106093683
 20
255.6479577566324
 10
179.9608825630931
 20
255.7323626517025
 10
180.045631967939
 20
255.7085914771726
 10
180.1496739202294
 20
255.7115198102668
 10
180.1496739202294
 20
255.7115198102668
 10
180.170689016553
 20
255.6688005980681
 10
180.170689016553
 20
255.6688005980681
 10
180.170689016553
 20
255.6688005980681
 10
180.1920486226523
 20
255.6479577566324
 10
180.1920486226523
 20
255.6479577566324
 72
     1
 10
180.1920486226523
 20
255.6479577566324
 11
180.1920486226523
 21
255.6479577566324
 97
        0
 75
     0
 76
     1
 98
        0
  0
MTEXT
  5
483
330
2
100
AcDbEntity
  8
图框
 62
     3
100
AcDbMText
 10
1000.855145755506
 20
215.5464333173265
 30
0.0
 40
2.518122455374194
 41
28.35027104306095
 71
     5
 72
     5
  1
TL00
  7
Romans字体
 73
     1
 44
1.0
1001
ACAD
1000
MTEXTBEGIN
1070
    73
1070
     1
1070
    44
1040
1.0
1070
    74
1070
     0
1000
MTEXTEND
1000
ACAD_MTEXT_DEFINED_HEIGHT_BEGIN
1070
    46
1040
7.326809398861374
1000
ACAD_MTEXT_DEFINED_HEIGHT_END
  0
MTEXT
  5
484
330
2
100
AcDbEntity
  8
图框
 62
     3
100
AcDbMText
 10
1000.855145755506
 20
208.1414321469007
 30
0.0
 40
2.518122455374194
 41
28.35027104306095
 71
     5
 72
     5
  1
1980010000001
  7
Romans字体
 73
     1
 44
1.0
1001
ACAD
1000
MTEXTBEGIN
1070
    73
1070
     1
1070
    44
1040
1.0
1070
    74
1070
     0
1000
MTEXTEND
1000
ACAD_MTEXT_DEFINED_HEIGHT_BEGIN
1070
    46
1040
7.48319294198842
1000
ACAD_MTEXT_DEFINED_HEIGHT_END
  0
MTEXT
  5
486
330
2
100
AcDbEntity
  8
图框
 62
     3
100
AcDbMText
 10
961.7234488177096
 20
196.9171470835636
 30
0.0
 40
2.518122455374194
 41
9.133980308275596
 71
     5
 72
     5
  1
23.8g
  7
Romans字体
 73
     1
 44
1.0
1001
ACAD
1000
MTEXTBEGIN
1070
    73
1070
     1
1070
    44
1040
1.0
1070
    74
1070
     0
1000
MTEXTEND
1000
ACAD_MTEXT_DEFINED_HEIGHT_BEGIN
1070
    46
1040
6.651503299824156
1000
ACAD_MTEXT_DEFINED_HEIGHT_END
  0
MTEXT
  5
487
330
2
100
AcDbEntity
  8
图框
 62
     3
100
AcDbMText
 10
943.4554854937218
 20
196.9171468291988
 30
0.0
 40
2.518122452416913
 41
9.133981391249472
 71
     5
 72
     5
  1
1:1
  7
Romans字体
 73
     1
 44
1.0
1001
ACAD
1000
MTEXTBEGIN
1070
    73
1070
     1
1070
    44
1040
1.0
1070
    74
1070
     0
1000
MTEXTEND
1000
ACAD_MTEXT_DEFINED_HEIGHT_BEGIN
1070
    46
1040
6.651502791095107
1000
ACAD_MTEXT_DEFINED_HEIGHT_END
  0
MTEXT
  5
71A
102
{ACAD_XDICTIONARY
360
1646
102
}
330
2
100
AcDbEntity
  8
图框
 62
     3
100
AcDbMText
 10
880.6953149166483
 20
200.2274007267048
 30
0.0
 40
2.518122452416917
 41
13.07491576162226
 71
     5
 72
     5
  1
CH GUO
  7
Romans字体
 73
     1
 44
1.0
1001
AcDbBlockRepETag
1070
     1
1071
        0
1005
71A
1001
ACAD
1000
MTEXTBEGIN
1070
    73
1070
     1
1070
    44
1040
1.0
1070
    74
1070
     0
1000
MTEXTEND
1000
ACAD_MTEXT_DEFINED_HEIGHT_BEGIN
1070
    46
1040
5.307523794482923
1000
ACAD_MTEXT_DEFINED_HEIGHT_END
  0
MTEXT
  5
71B
330
2
100
AcDbEntity
  8
图框
 62
     3
100
AcDbMText
 10
807.1948973837816
 20
188.8144382432125
 30
0.0
 40
0.6219819947987812
 41
3.815595976222653
 71
     5
 72
     5
  1
{\W0.7; }
  7
Romans字体
 73
     1
 44
1.0
1001
AcDbBlockRepETag
1070
     1
1071
        1
1005
71B
1001
ACAD
1000
MTEXTBEGIN
1070
    73
1070
     1
1070
    44
1040
1.0
1070
    74
1070
     0
1000
MTEXTEND
1000
ACAD_MTEXT_DEFINED_HEIGHT_BEGIN
1070
    46
1040
1.57316459362776
1000
ACAD_MTEXT_DEFINED_HEIGHT_END
  0
MTEXT
  5
71C
330
2
100
AcDbEntity
  8
图框
 62
     3
100
AcDbMText
 10
918.4967190986752
 20
189.6123531377388
 30
0.0
 40
2.518122452416917
 41
14.88579709789942
 71
     5
 72
     5
  1
 
  7
Romans字体
 73
     1
 44
1.0
1001
AcDbBlockRepETag
1070
     1
1071
        2
1005
71C
1001
ACAD
1000
MTEXTBEGIN
1070
    73
1070
     1
1070
    44
1040
1.0
1070
    74
1070
     0
1000
MTEXTEND
1000
ACAD_MTEXT_DEFINED_HEIGHT_BEGIN
1070
    46
1040
5.307523794483292
1000
ACAD_MTEXT_DEFINED_HEIGHT_END
  0
MTEXT
  5
71D
330
2
100
AcDbEntity
  8
图框
 62
     3
100
AcDbMText
 10
932.4140562228611
 20
189.6123531377388
 30
0.0
 40
2.098435377014096
 41
12.94887715047049
 71
     5
 72
     5
  1
{\W0.7; }
  7
Romans字体
 73
     1
 44
1.0
1001
AcDbBlockRepETag
1070
     1
1071
        3
1005
71D
1001
ACAD
1000
MTEXTBEGIN
1070
    73
1070
     1
1070
    44
1040
1.0
1070
    74
1070
     0
1000
MTEXTEND
1000
ACAD_MTEXT_DEFINED_HEIGHT_BEGIN
1070
    46
1040
5.307523794483326
1000
ACAD_MTEXT_DEFINED_HEIGHT_END
  0
MTEXT
  5
71E
330
2
100
AcDbEntity
  8
图框
 62
     3
100
AcDbMText
 10
961.7195067934712
 20
221.8602822958127
 30
0.0
 40
2.518122452416917
 41
27.40982713924752
 71
     5
 72
     5
  1
-
  7
Romans字体
 73
     1
 44
1.0
1001
AcDbBlockRepETag
1070
     1
1071
        4
1005
71E
1001
ACAD
1000
MTEXTBEGIN
1070
    73
1070
     1
1070
    44
1040
1.0
1070
    74
1070
     0
1000
MTEXTEND
1000
ACAD_MTEXT_DEFINED_HEIGHT_BEGIN
1070
    46
1040
9.977254186643779
1000
ACAD_MTEXT_DEFINED_HEIGHT_END
  0
MTEXT
  5
71F
330
2
100
AcDbEntity
  8
图框
 62
     3
100
AcDbMText
 10
961.7234482762199
 20
211.8830281091673
 30
0.0
 40
2.518122452416917
 41
27.40194417374985
 71
     5
 72
     5
  1
-
  7
Romans字体
 73
     1
 44
1.0
1001
AcDbBlockRepETag
1070
     1
1071
        5
1005
71F
1001
ACAD
1000
MTEXTBEGIN
1070
    73
1070
     1
1070
    44
1040
1.0
1070
    74
1070
     0
1000
MTEXTEND
1000
ACAD_MTEXT_DEFINED_HEIGHT_BEGIN
1070
    46
1040
9.977254186647423
1000
ACAD_MTEXT_DEFINED_HEIGHT_END
  0
MTEXT
  5
720
330
2
100
AcDbEntity
  8
图框
 62
     3
100
AcDbMText
 10
1000.855144655881
 20
223.0293734442792
 30
0.0
 40
2.518122452416917
 41
28.35027100976646
 71
     5
 72
     5
  1
-
  7
Romans字体
 73
     1
 44
1.0
1001
AcDbBlockRepETag
1070
     1
1071
        6
1005
720
1001
ACAD
1000
MTEXTBEGIN
1070
    73
1070
     1
1070
    44
1040
1.0
1070
    74
1070
     0
1000
MTEXTEND
1000
ACAD_MTEXT_DEFINED_HEIGHT_BEGIN
1070
    46
1040
7.639071889710602
1000
ACAD_MTEXT_DEFINED_HEIGHT_END
  0
MTEXT
  5
721
330
2
100
AcDbEntity
  8
图框
 62
     3
100
AcDbMText
 10
1000.855144655881
 20
200.6584910025826
 30
0.0
 40
2.518122452416917
 41
28.35027100976646
 71
     5
 72
     5
  1
-
  7
Romans字体
 73
     1
 44
1.0
1001
AcDbBlockRepETag
1070
     1
1071
        7
1005
721
1001
ACAD
1000
MTEXTBEGIN
1070
    73
1070
     1
1070
    44
1040
1.0
1070
    74
1070
     0
1000
MTEXTEND
1000
ACAD_MTEXT_DEFINED_HEIGHT_BEGIN
1070
    46
1040
7.48268834676879
1000
ACAD_MTEXT_DEFINED_HEIGHT_END
  0
MTEXT
  5
722
330
2
100
AcDbEntity
  8
图框
 62
     3
100
AcDbMText
 10
880.6953149166483
 20
194.9198769322218
 30
0.0
 40
2.518122452416917
 41
13.07491576162226
 71
     5
 72
     5
  1
P RAO
  7
Romans字体
 73
     1
 44
1.0
1001
AcDbBlockRepETag
1070
     1
1071
        8
1005
722
1001
ACAD
1000
MTEXTBEGIN
1070
    73
1070
     1
1070
    44
1040
1.0
1070
    74
1070
     0
1000
MTEXTEND
1000
ACAD_MTEXT_DEFINED_HEIGHT_BEGIN
1070
    46
1040
5.307523794482347
1000
ACAD_MTEXT_DEFINED_HEIGHT_END
  0
MTEXT
  5
723
330
2
100
AcDbEntity
  8
图框
 62
     3
100
AcDbMText
 10
807.1948973837816
 20
187.1838837053653
 30
0.0
 40
0.6219819947987812
 41
3.815595976222627
 71
     5
 72
     5
  1
{\W0.7; }
  7
Romans字体
 73
     1
 44
1.0
1001
AcDbBlockRepETag
1070
     1
1071
        9
1005
723
1001
ACAD
1000
MTEXTBEGIN
1070
    73
1070
     1
1070
    44
1040
1.0
1070
    74
1070
     0
1000
MTEXTEND
1000
ACAD_MTEXT_DEFINED_HEIGHT_BEGIN
1070
    46
1040
1.68794448206662
1000
ACAD_MTEXT_DEFINED_HEIGHT_END
  0
MTEXT
  5
724
330
2
100
AcDbEntity
  8
图框
 62
     3
100
AcDbMText
 10
918.4967190986752
 20
200.2274007267045
 30
0.0
 40
2.518122452416917
 41
14.88579709789942
 71
     5
 72
     5
  1
-
  7
Romans字体
 73
     1
 44
1.0
1001
AcDbBlockRepETag
1070
     1
1071
       10
1005
724
1001
ACAD
1000
MTEXTBEGIN
1070
    73
1070
     1
1070
    44
1040
1.0
1070
    74
1070
     0
1000
MTEXTEND
1000
ACAD_MTEXT_DEFINED_HEIGHT_BEGIN
1070
    46
1040
5.307523794483244
1000
ACAD_MTEXT_DEFINED_HEIGHT_END
  0
MTEXT
  5
725
330
2
100
AcDbEntity
  8
图框
 62
     3
100
AcDbMText
 10
932.4140562228611
 20
200.2274007267045
 30
0.0
 40
2.098435377014096
 41
12.94887715047039
 71
     5
 72
     5
  1
-
  7
Romans字体
 73
     1
 44
1.0
1001
AcDbBlockRepETag
1070
     1
1071
       11
1005
725
1001
ACAD
1000
MTEXTBEGIN
1070
    73
1070
     1
1070
    44
1040
1.0
1070
    74
1070
     0
1000
MTEXTEND
1000
ACAD_MTEXT_DEFINED_HEIGHT_BEGIN
1070
    46
1040
5.30752379448323
1000
ACAD_MTEXT_DEFINED_HEIGHT_END
  0
MTEXT
  5
726
330
2
100
AcDbEntity
  8
图框
 62
     3
100
AcDbMText
 10
880.6953149166483
 20
189.6123531377388
 30
0.0
 40
2.518122452416917
 41
13.07491576162225
 71
     5
 72
     5
  1
-
  7
Romans字体
 73
     1
 44
1.0
1001
AcDbBlockRepETag
1070
     1
1071
       12
1005
726
1001
ACAD
1000
MTEXTBEGIN
1070
    73
1070
     1
1070
    44
1040
1.0
1070
    74
1070
     0
1000
MTEXTEND
1000
ACAD_MTEXT_DEFINED_HEIGHT_BEGIN
1070
    46
1040
5.307523794483311
1000
ACAD_MTEXT_DEFINED_HEIGHT_END
  0
MTEXT
  5
727
330
2
100
AcDbEntity
  8
图框
 62
     3
100
AcDbMText
 10
893.6692787155186
 20
189.6123531377388
 30
0.0
 40
2.098435377014096
 41
12.87301183612003
 71
     5
 72
     5
  1
-
  7
Romans字体
 73
     1
 44
1.0
1001
AcDbBlockRepETag
1070
     1
1071
       13
1005
727
1001
ACAD
1000
MTEXTBEGIN
1070
    73
1070
     1
1070
    44
1040
1.0
1070
    74
1070
     0
1000
MTEXTEND
1000
ACAD_MTEXT_DEFINED_HEIGHT_BEGIN
1070
    46
1040
5.307523794483326
1000
ACAD_MTEXT_DEFINED_HEIGHT_END
  0
MTEXT
  5
728
330
2
100
AcDbEntity
  8
图框
 62
     3
100
AcDbMText
 10
970.8574296674706
 20
196.9171468291995
 30
0.0
 40
2.518122452416917
 41
9.133981391248894
 71
     5
 72
     5
  1
-
  7
Romans字体
 73
     1
 44
1.0
1001
AcDbBlockRepETag
1070
     1
1071
       14
1005
728
1001
ACAD
1000
MTEXTBEGIN
1070
    73
1070
     1
1070
    44
1040
1.0
1070
    74
1070
     0
1000
MTEXTEND
1000
ACAD_MTEXT_DEFINED_HEIGHT_BEGIN
1070
    46
1040
6.651502791095047
1000
ACAD_MTEXT_DEFINED_HEIGHT_END
  0
LINE
  5
729
330
2
100
AcDbEntity
  8
图框
370
    -3
100
AcDbLine
 10
938.8884947980956
 20
200.2428982247471
 30
0.0
 11
975.4244203630955
 21
200.2428982247471
 31
0.0
1001
AcDbBlockRepETag
1070
     1
1071
       15
1005
729
  0
MTEXT
  5
72A
330
2
100
AcDbEntity
  8
图框
 62
     1
370
    20
100
AcDbMText
 10
999.2872254650379
 20
193.2688317901367
 30
0.0
 40
2.276509501818306
 41
69.42269928402119
 71
     5
 72
     5
  1
{\fSimHei|b0|i0|c134|p2;厦门唯恩电气有限公司}
 73
     1
 44
1.0
1001
AcDbBlockRepETag
1070
     1
1071
       16
1005
72A
1001
ACAD
1000
MTEXTBEGIN
1070
    73
1070
     1
1070
    44
1040
1.0
1070
    74
1070
     0
1000
MTEXTEND
  0
MTEXT
  5
72B
330
2
100
AcDbEntity
  8
图框
 62
     3
370
    20
100
AcDbMText
 10
999.4323717455859
 20
189.711769626586
 30
0.0
 40
1.393781327643857
 41
57.426583682481
 71
     5
 72
     5
  1
{\fArial Narrow|b0|i0|c0|p34;XIAMEN WAIN ELECTRICAL CO.LTD}
  7
工程字
 73
     1
 44
1.0
1001
AcDbBlockRepETag
1070
     1
1071
       17
1005
72B
1001
ACAD
1000
MTEXTBEGIN
1070
    73
1070
     1
1070
    44
1040
1.0
1070
    74
1070
     0
1000
MTEXTEND
  0
MTEXT
  5
72C
330
2
100
AcDbEntity
  8
图框
 62
     1
370
    20
100
AcDbMText
 10
980.2661904674753
 20
192.9130832999651
 30
0.0
 40
1.691895667167684
 41
4.257079425699441
 71
     1
 72
     5
  1
{\fArial|b0|i0|c0|p34;A}
  7
Chinese
 73
     1
 44
1.0
1001
AcDbBlockRepETag
1070
     1
1071
       18
1005
72C
1001
ACAD
1000
MTEXTBEGIN
1070
    73
1070
     1
1070
    44
1040
1.0
1070
    74
1070
     0
1000
MTEXTEND
  0
MTEXT
  5
72D
330
2
100
AcDbEntity
  8
图框
 62
     1
370
    20
100
AcDbMText
 10
982.3762156978324
 20
192.9130832999651
 30
0.0
 40
1.691895667167684
 41
4.257079425699441
 71
     1
 72
     5
  1
{\fArial|b0|i0|c0|p34;I}
  7
Chinese
 73
     1
 44
1.0
1001
AcDbBlockRepETag
1070
     1
1071
       19
1005
72D
1001
ACAD
1000
MTEXTBEGIN
1070
    73
1070
     1
1070
    44
1040
1.0
1070
    74
1070
     0
1000
MTEXTEND
  0
MTEXT
  5
72E
330
2
100
AcDbEntity
  8
图框
 62
     1
370
    20
100
AcDbMText
 10
983.1596845754608
 20
192.9027985882602
 30
0.0
 40
1.691895667167684
 41
4.257079425699441
 71
     1
 72
     5
  1
{\fArial|b0|i0|c0|p34;N}
  7
Chinese
 73
     1
 44
1.0
1001
AcDbBlockRepETag
1070
     1
1071
       20
1005
72E
1001
ACAD
1000
MTEXTBEGIN
1070
    73
1070
     1
1070
    44
1040
1.0
1070
    74
1070
     0
1000
MTEXTEND
  0
MTEXT
  5
72F
330
2
100
AcDbEntity
  8
图框
100
AcDbMText
 10
966.2904389718461
 20
190.2749933370743
 30
0.0
 40
1.900158018562219
 41
18.26796278250092
 71
     5
 72
     5
  1
{\W0.5;\C1;All Dimensions in mm\POriginal Size DIN A 4}
  7
Romans字体
 73
     1
 44
1.0
1001
AcDbBlockRepETag
1070
     1
1071
       21
1005
72F
1001
ACAD
1000
MTEXTBEGIN
1070
    73
1070
     1
1070
    44
1040
1.0
1070
    74
1070
     0
1000
MTEXTEND
1000
ACAD_MTEXT_DEFINED_HEIGHT_BEGIN
1070
    46
1040
6.632804193154712
1000
ACAD_MTEXT_DEFINED_HEIGHT_END
  0
MTEXT
  5
730
330
2
100
AcDbEntity
  8
图框
  6
ByBlock
 62
     6
370
    18
100
AcDbMText
 10
1015.431631724875
 20
207.8380240198289
 30
0.0
 40
2.236632634961122
 41
2.157464772969138
 71
     1
 72
     5
  1
A
  7
Romans字体
 11
0.0000000000000001
 21
1.0
 31
0.0
 73
     1
 44
1.0
1001
AcDbBlockRepETag
1070
     1
1071
       22
1005
730
1001
ACAD
1000
MTEXTBEGIN
1070
    73
1070
     1
1070
    44
1040
1.0
1070
    74
1070
     0
1000
MTEXTEND
  0
MTEXT
  5
731
330
2
100
AcDbEntity
  8
图框
 62
     6
100
AcDbMText
 10
1015.431631724875
 20
247.9734524223053
 30
0.0
 40
2.236632634961122
 41
2.157464772969138
 71
     1
 72
     5
  1
B
  7
Romans字体
 11
0.0000000000000001
 21
1.0
 31
0.0
 73
     1
 44
1.0
1001
AcDbBlockRepETag
1070
     1
1071
       23
1005
731
1001
ACAD
1000
MTEXTBEGIN
1070
    73
1070
     1
1070
    44
1040
1.0
1070
    74
1070
     0
1000
MTEXTEND
  0
MTEXT
  5
732
330
2
100
AcDbEntity
  8
图框
 62
     6
100
AcDbMText
 10
1015.431631724875
 20
291.1404622770485
 30
0.0
 40
2.236632634961122
 41
2.157464772969138
 71
     1
 72
     5
  1
C
  7
Romans字体
 11
0.0000000000000001
 21
1.0
 31
0.0
 73
     1
 44
1.0
1001
AcDbBlockRepETag
1070
     1
1071
       24
1005
732
1001
ACAD
1000
MTEXTBEGIN
1070
    73
1070
     1
1070
    44
1040
1.0
1070
    74
1070
     0
1000
MTEXTEND
  0
MTEXT
  5
733
330
2
100
AcDbEntity
  8
图框
 62
     6
100
AcDbMText
 10
1015.431631724875
 20
334.3074721317924
 30
0.0
 40
2.236632634961122
 41
2.157464772969138
 71
     1
 72
     5
  1
D
  7
Romans字体
 11
0.0000000000000001
 21
1.0
 31
0.0
 73
     1
 44
1.0
1001
AcDbBlockRepETag
1070
     1
1071
       25
1005
733
1001
ACAD
1000
MTEXTBEGIN
1070
    73
1070
     1
1070
    44
1040
1.0
1070
    74
1070
     0
1000
MTEXTEND
  0
LINE
  5
734
330
2
100
AcDbEntity
  8
图框
 62
     6
100
AcDbLine
 10
1017.968089688588
 20
313.5075563233926
 30
0.0
 11
1015.030280160764
 21
313.5075563233926
 31
0.0
1001
AcDbBlockRepETag
1070
     1
1071
       26
1005
734
  0
LINE
  5
735
330
2
100
AcDbEntity
  8
图框
 62
     6
100
AcDbLine
 10
1017.968089688588
 20
270.3405464686433
 30
0.0
 11
1015.030280160764
 21
270.3405464686433
 31
0.0
1001
AcDbBlockRepETag
1070
     1
1071
       27
1005
735
  0
MTEXT
  5
736
330
2
100
AcDbEntity
  8
图框
 62
     6
100
AcDbMText
 10
996.8128384166933
 20
186.6057647454724
 30
0.0
 40
2.236632634961122
 41
2.157464772969138
 71
     1
 72
     5
  1
6
  7
Romans字体
 73
     1
 44
1.0
1001
AcDbBlockRepETag
1070
     1
1071
       28
1005
736
1001
ACAD
1000
MTEXTBEGIN
1070
    73
1070
     1
1070
    44
1040
1.0
1070
    74
1070
     0
1000
MTEXTEND
  0
LINE
  5
737
330
2
100
AcDbEntity
  8
图框
 62
     6
100
AcDbLine
 10
976.3667226782963
 20
186.9585912404973
 30
0.0
 11
976.3667226782963
 21
184.0065267591395
 31
0.0
1001
AcDbBlockRepETag
1070
     1
1071
       29
1005
737
  0
MTEXT
  5
738
330
2
100
AcDbEntity
  8
图框
 62
     6
100
AcDbMText
 10
955.122006101017
 20
186.524455449693
 30
0.0
 40
2.236632634961122
 41
2.157464772969138
 71
     1
 72
     5
  1
5
  7
Romans字体
 73
     1
 44
1.0
1001
AcDbBlockRepETag
1070
     1
1071
       30
1005
738
1001
ACAD
1000
MTEXTBEGIN
1070
    73
1070
     1
1070
    44
1040
1.0
1070
    74
1070
     0
1000
MTEXTEND
  0
LINE
  5
739
330
2
100
AcDbEntity
  8
图框
 62
     6
100
AcDbLine
 10
934.5864250572383
 20
186.9585912404973
 30
0.0
 11
934.5864250572383
 21
184.0065267591395
 31
0.0
1001
AcDbBlockRepETag
1070
     1
1071
       31
1005
739
  0
MTEXT
  5
73A
330
2
100
AcDbEntity
  8
图框
 62
     6
100
AcDbMText
 10
913.3566905683586
 20
186.565567344145
 30
0.0
 40
2.236632634961122
 41
2.157464772969138
 71
     1
 72
     5
  1
4
  7
Romans字体
 73
     1
 44
1.0
1001
AcDbBlockRepETag
1070
     1
1071
       32
1005
73A
1001
ACAD
1000
MTEXTBEGIN
1070
    73
1070
     1
1070
    44
1040
1.0
1070
    74
1070
     0
1000
MTEXTEND
  0
LINE
  5
73B
330
2
100
AcDbEntity
  8
图框
 62
     6
100
AcDbLine
 10
892.8061274361594
 20
186.9585912404973
 30
0.0
 11
892.8061274361594
 21
184.0065267591395
 31
0.0
1001
AcDbBlockRepETag
1070
     1
1071
       33
1005
73B
  0
MTEXT
  5
73C
330
2
100
AcDbEntity
  8
图框
 62
     6
100
AcDbMText
 10
871.5614108588711
 20
186.5910160024782
 30
0.0
 40
2.236632634961122
 41
2.157464772969138
 71
     1
 72
     5
  1
3
  7
Romans字体
 73
     1
 44
1.0
1001
AcDbBlockRepETag
1070
     1
1071
       34
1005
73C
1001
ACAD
1000
MTEXTBEGIN
1070
    73
1070
     1
1070
    44
1040
1.0
1070
    74
1070
     0
1000
MTEXTEND
  0
LINE
  5
73D
330
2
100
AcDbEntity
  8
图框
 62
     6
100
AcDbLine
 10
851.025829815077
 20
186.9585912404973
 30
0.0
 11
851.025829815077
 21
184.0065267591395
 31
0.0
1001
AcDbBlockRepETag
1070
     1
1071
       35
1005
73D
  0
MTEXT
  5
73E
330
2
100
AcDbEntity
  8
图框
 62
     6
100
AcDbMText
 10
828.7100829667933
 20
186.6319712341778
 30
0.0
 40
2.236632634961122
 41
2.157464772969138
 71
     1
 72
     5
  1
2
  7
Romans字体
 73
     1
 44
1.0
1001
AcDbBlockRepETag
1070
     1
1071
       36
1005
73E
1001
ACAD
1000
MTEXTBEGIN
1070
    73
1070
     1
1070
    44
1040
1.0
1070
    74
1070
     0
1000
MTEXTEND
  0
LINE
  5
73F
330
2
100
AcDbEntity
  8
图框
 62
     6
100
AcDbLine
 10
809.2455321939985
 20
186.9585912404973
 30
0.0
 11
809.2455321939985
 21
184.0065267591395
 31
0.0
1001
AcDbBlockRepETag
1070
     1
1071
       37
1005
73F
  0
MTEXT
  5
740
330
2
100
AcDbEntity
  8
图框
 62
     6
100
AcDbMText
 10
788.0008156167169
 20
186.6356018462321
 30
0.0
 40
2.236632634961122
 41
2.157464772969138
 71
     1
 72
     5
  1
1
  7
Romans字体
 73
     1
 44
1.0
1001
AcDbBlockRepETag
1070
     1
1071
       38
1005
740
1001
ACAD
1000
MTEXTBEGIN
1070
    73
1070
     1
1070
    44
1040
1.0
1070
    74
1070
     0
1000
MTEXTEND
  0
LINE
  5
741
330
2
100
AcDbEntity
  8
图框
370
    50
100
AcDbLine
 10
770.3685051197894
 20
186.9585912404973
 30
0.0
 11
1015.030280160764
 21
186.9585912404973
 31
0.0
1001
AcDbBlockRepETag
1070
     1
1071
       39
1005
741
  0
LINE
  5
742
330
2
100
AcDbEntity
  8
图框
370
    50
100
AcDbLine
 10
770.417451115142
 20
186.9443362869627
 30
0.0
 11
770.4174511151446
 21
348.0451170055741
 31
0.0
1001
AcDbBlockRepETag
1070
     1
1071
       40
1005
742
  0
MTEXT
  5
743
330
2
100
AcDbEntity
  8
图框
 62
     6
100
AcDbMText
 10
767.8320471560802
 20
334.3074721317924
 30
0.0
 40
2.236632634961122
 41
2.157464772969138
 71
     1
 72
     5
  1
D
  7
Romans字体
 11
0.0000000000000001
 21
1.0
 31
0.0
 73
     1
 44
1.0
1001
AcDbBlockRepETag
1070
     1
1071
       41
1005
743
1001
ACAD
1000
MTEXTBEGIN
1070
    73
1070
     1
1070
    44
1040
1.0
1070
    74
1070
     0
1000
MTEXTEND
  0
LINE
  5
744
330
2
100
AcDbEntity
  8
图框
 62
     6
100
AcDbLine
 10
770.4174511151442
 20
313.5075563233926
 30
0.0
 11
767.4653866337877
 21
313.5075563233926
 31
0.0
1001
AcDbBlockRepETag
1070
     1
1071
       42
1005
744
  0
MTEXT
  5
745
330
2
100
AcDbEntity
  8
图框
 62
     6
100
AcDbMText
 10
767.8795746934195
 20
291.1404622770485
 30
0.0
 40
2.236632634961122
 41
2.157464772969138
 71
     1
 72
     5
  1
C
  7
Romans字体
 11
0.0000000000000001
 21
1.0
 31
0.0
 73
     1
 44
1.0
1001
AcDbBlockRepETag
1070
     1
1071
       43
1005
745
1001
ACAD
1000
MTEXTBEGIN
1070
    73
1070
     1
1070
    44
1040
1.0
1070
    74
1070
     0
1000
MTEXTEND
  0
LINE
  5
746
330
2
100
AcDbEntity
  8
图框
 62
     6
100
AcDbLine
 10
770.4174511151434
 20
270.3405464686433
 30
0.0
 11
767.4653866337877
 21
270.3405464686433
 31
0.0
1001
AcDbBlockRepETag
1070
     1
1071
       44
1005
746
  0
MTEXT
  5
747
330
2
100
AcDbEntity
  8
图框
 62
     6
100
AcDbMText
 10
767.8795746934195
 20
247.9734524223053
 30
0.0
 40
2.236632634961122
 41
2.157464772969138
 71
     1
 72
     5
  1
B
  7
Romans字体
 11
0.0000000000000001
 21
1.0
 31
0.0
 73
     1
 44
1.0
1001
AcDbBlockRepETag
1070
     1
1071
       45
1005
747
1001
ACAD
1000
MTEXTBEGIN
1070
    73
1070
     1
1070
    44
1040
1.0
1070
    74
1070
     0
1000
MTEXTEND
  0
LINE
  5
748
330
2
100
AcDbEntity
  8
图框
 62
     6
100
AcDbLine
 10
770.4174511151426
 20
227.1735366138916
 30
0.0
 11
767.4653866337877
 21
227.1735366138916
 31
0.0
1001
AcDbBlockRepETag
1070
     1
1071
       46
1005
748
  0
MTEXT
  5
749
330
2
100
AcDbEntity
  8
图框
 62
     6
100
AcDbMText
 10
767.8795746934195
 20
207.8380240198289
 30
0.0
 40
2.236632634961122
 41
2.157464772969138
 71
     1
 72
     5
  1
A
  7
Romans字体
 11
0.0000000000000001
 21
1.0
 31
0.0
 73
     1
 44
1.0
1001
AcDbBlockRepETag
1070
     1
1071
       47
1005
749
1001
ACAD
1000
MTEXTBEGIN
1070
    73
1070
     1
1070
    44
1040
1.0
1070
    74
1070
     0
1000
MTEXTEND
  0
LINE
  5
74A
330
2
100
AcDbEntity
  8
图框
370
    -3
100
AcDbLine
 10
770.4174511151446
 20
348.0451170055741
 30
0.0
 11
770.4174511151446
 21
356.0421913492461
 31
0.0
1001
AcDbBlockRepETag
1070
     1
1071
       48
1005
74A
  0
LINE
  5
74B
330
2
100
AcDbEntity
  8
图框
370
    -3
100
AcDbLine
 10
775.2342759428345
 20
348.4786907203074
 30
0.0
 11
775.2342759428345
 21
356.4757650639795
 31
0.0
1001
AcDbBlockRepETag
1070
     1
1071
       49
1005
74B
  0
LINE
  5
74C
330
2
100
AcDbEntity
  8
图框
370
    -3
100
AcDbLine
 10
780.0511007705251
 20
348.4786907203074
 30
0.0
 11
780.0511007705251
 21
356.4757650639795
 31
0.0
1001
AcDbBlockRepETag
1070
     1
1071
       50
1005
74C
  0
LINE
  5
74D
330
2
100
AcDbEntity
  8
图框
370
    -3
100
AcDbLine
 10
784.8679255982167
 20
348.4786907203074
 30
0.0
 11
784.8679255982167
 21
356.4757650639795
 31
0.0
1001
AcDbBlockRepETag
1070
     1
1071
       51
1005
74D
  0
LINE
  5
74E
330
2
100
AcDbEntity
  8
图框
370
    -3
100
AcDbLine
 10
791.1850860858533
 20
348.4786907203074
 30
0.0
 11
791.1850860858533
 21
357.9720464396746
 31
0.0
1001
AcDbBlockRepETag
1070
     1
1071
       52
1005
74E
  0
MTEXT
  5
74F
330
2
100
AcDbEntity
  8
图框
 62
     6
100
AcDbMText
 10
996.8128384166933
 20
351.2832783253612
 30
0.0
 40
2.236632634961122
 41
2.157464772969138
 71
     1
 72
     5
  1
6
  7
Romans字体
 73
     1
 44
1.0
1001
AcDbBlockRepETag
1070
     1
1071
       53
1005
74F
1001
ACAD
1000
MTEXTBEGIN
1070
    73
1070
     1
1070
    44
1040
1.0
1070
    74
1070
     0
1000
MTEXTEND
  0
LINE
  5
750
330
2
100
AcDbEntity
  8
图框
 62
     6
100
AcDbLine
 10
976.3667226782963
 20
351.4307552016617
 30
0.0
 11
976.3667226782963
 21
348.4786907203074
 31
0.0
1001
AcDbBlockRepETag
1070
     1
1071
       54
1005
750
  0
MTEXT
  5
751
330
2
100
AcDbEntity
  8
图框
 62
     6
100
AcDbMText
 10
955.122006101017
 20
351.2832783253612
 30
0.0
 40
2.236632634961122
 41
2.157464772969138
 71
     1
 72
     5
  1
5
  7
Romans字体
 73
     1
 44
1.0
1001
AcDbBlockRepETag
1070
     1
1071
       55
1005
751
1001
ACAD
1000
MTEXTBEGIN
1070
    73
1070
     1
1070
    44
1040
1.0
1070
    74
1070
     0
1000
MTEXTEND
  0
LINE
  5
752
330
2
100
AcDbEntity
  8
图框
 62
     6
100
AcDbLine
 10
934.5864250572383
 20
351.4307552016617
 30
0.0
 11
934.5864250572383
 21
348.4786907203074
 31
0.0
1001
AcDbBlockRepETag
1070
     1
1071
       56
1005
752
  0
MTEXT
  5
753
330
2
100
AcDbEntity
  8
图框
 62
     6
100
AcDbMText
 10
913.341708479937
 20
351.1747176774645
 30
0.0
 40
2.236632634961122
 41
2.157464772969138
 71
     1
 72
     5
  1
4
  7
Romans字体
 73
     1
 44
1.0
1001
AcDbBlockRepETag
1070
     1
1071
       57
1005
753
1001
ACAD
1000
MTEXTBEGIN
1070
    73
1070
     1
1070
    44
1040
1.0
1070
    74
1070
     0
1000
MTEXTEND
  0
LINE
  5
754
330
2
100
AcDbEntity
  8
图框
 62
     6
100
AcDbLine
 10
892.8061274361594
 20
351.4307552016617
 30
0.0
 11
892.8061274361594
 21
348.4786907203074
 31
0.0
1001
AcDbBlockRepETag
1070
     1
1071
       58
1005
754
  0
MTEXT
  5
755
330
2
100
AcDbEntity
  8
图框
 62
     6
100
AcDbMText
 10
871.5614108588711
 20
351.2832783253612
 30
0.0
 40
2.236632634961122
 41
2.157464772969138
 71
     1
 72
     5
  1
3
  7
Romans字体
 73
     1
 44
1.0
1001
AcDbBlockRepETag
1070
     1
1071
       59
1005
755
1001
ACAD
1000
MTEXTBEGIN
1070
    73
1070
     1
1070
    44
1040
1.0
1070
    74
1070
     0
1000
MTEXTEND
  0
LINE
  5
756
330
2
100
AcDbEntity
  8
图框
 62
     6
100
AcDbLine
 10
851.025829815077
 20
351.4307552016617
 30
0.0
 11
851.025829815077
 21
348.4786907203074
 31
0.0
1001
AcDbBlockRepETag
1070
     1
1071
       60
1005
756
  0
MTEXT
  5
757
330
2
100
AcDbEntity
  8
图框
 62
     6
100
AcDbMText
 10
829.7811132377983
 20
351.2832783253612
 30
0.0
 40
2.236632634961122
 41
2.157464772969138
 71
     1
 72
     5
  1
2
  7
Romans字体
 73
     1
 44
1.0
1001
AcDbBlockRepETag
1070
     1
1071
       61
1005
757
1001
ACAD
1000
MTEXTBEGIN
1070
    73
1070
     1
1070
    44
1040
1.0
1070
    74
1070
     0
1000
MTEXTEND
  0
LINE
  5
758
330
2
100
AcDbEntity
  8
图框
 62
     6
100
AcDbLine
 10
809.2455321939985
 20
351.2295713772277
 30
0.0
 11
809.2455321939985
 21
348.4786907203074
 31
0.0
1001
AcDbBlockRepETag
1070
     1
1071
       62
1005
758
  0
MTEXT
  5
759
330
2
100
AcDbEntity
  8
图框
 62
     6
100
AcDbMText
 10
792.1073747188946
 20
351.2832783253612
 30
0.0
 40
2.236632634961122
 41
2.157464772969138
 71
     1
 72
     5
  1
1
  7
Romans字体
 73
     1
 44
1.0
1001
AcDbBlockRepETag
1070
     1
1071
       63
1005
759
1001
ACAD
1000
MTEXTBEGIN
1070
    73
1070
     1
1070
    44
1040
1.0
1070
    74
1070
     0
1000
MTEXTEND
  0
LINE
  5
75A
330
2
100
AcDbEntity
  8
图框
370
    -3
100
AcDbLine
 10
770.4174511151446
 20
348.0451170055741
 30
0.0
 11
770.4174511151446
 21
357.9720464396746
 31
0.0
1001
AcDbBlockRepETag
1070
     1
1071
       64
1005
75A
  0
LINE
  5
75B
330
2
100
AcDbEntity
  8
图框
370
    50
100
AcDbLine
 10
770.4174511151446
 20
348.4786907203074
 30
0.0
 11
1015.030280160764
 21
348.4786907203074
 31
0.0
1001
AcDbBlockRepETag
1070
     1
1071
       65
1005
75B
  0
LINE
  5
75C
330
2
100
AcDbEntity
  8
图框
370
    -3
100
AcDbLine
 10
775.2342759428345
 20
348.4786907203074
 30
0.0
 11
775.2342759428345
 21
357.9720464396746
 31
0.0
1001
AcDbBlockRepETag
1070
     1
1071
       66
1005
75C
  0
LINE
  5
75D
330
2
100
AcDbEntity
  8
图框
370
    -3
100
AcDbLine
 10
780.0511007705251
 20
348.4786907203074
 30
0.0
 11
780.0511007705251
 21
357.9720464396746
 31
0.0
1001
AcDbBlockRepETag
1070
     1
1071
       67
1005
75D
  0
MTEXT
  5
75E
102
{ACAD_XDICTIONARY
360
1648
102
}
330
2
100
AcDbEntity
  8
图框
100
AcDbMText
 10
788.0265058420349
 20
357.9720464396746
 30
0.0
 40
1.652311320488886
 41
9.493355719367317
 71
     4
 72
     5
  1
{\W2.08073; }档案员{\H0.7x;\P\Fromans|c134;\W1.0325; \W0.75;Filing Clerk\fFangSong_GB2312|b0|i0|c134|p49; }
 11
-0.0000000000000002
 21
-1.0
 31
0.0
 73
     1
 44
1.0
1001
AcDbBlockRepETag
1070
     1
1071
       68
1005
75E
1001
ACAD
1000
MTEXTBEGIN
1070
    73
1070
     1
1070
    44
1040
1.0
1070
    74
1070
     0
1000
MTEXTEND
1000
ACAD_MTEXT_DEFINED_HEIGHT_BEGIN
1070
    46
1040
6.317160487635852
1000
ACAD_MTEXT_DEFINED_HEIGHT_END
  0
MTEXT
  5
75F
102
{ACAD_XDICTIONARY
360
164A
102
}
330
2
100
AcDbEntity
  8
图框
100
AcDbMText
 10
777.6426883566795
 20
357.9720464396746
 30
0.0
 40
1.652311320488886
 41
9.493355719367317
 71
     4
 72
     5
  1
{\W0.524929; }日期{\Fromans|c134;/Date}
 11
-0.0000000000000002
 21
-1.0
 31
0.0
 73
     1
 44
1.0
1001
AcDbBlockRepETag
1070
     1
1071
       69
1005
75F
1001
ACAD
1000
MTEXTBEGIN
1070
    73
1070
     1
1070
    44
1040
1.0
1070
    74
1070
     0
1000
MTEXTEND
1000
ACAD_MTEXT_DEFINED_HEIGHT_BEGIN
1070
    46
1040
4.816824827690527
1000
ACAD_MTEXT_DEFINED_HEIGHT_END
  0
LINE
  5
760
330
2
100
AcDbEntity
  8
图框
370
    -3
100
AcDbLine
 10
784.8679255982167
 20
348.4786907203074
 30
0.0
 11
784.8679255982167
 21
357.9720464396746
 31
0.0
1001
AcDbBlockRepETag
1070
     1
1071
       70
1005
760
  0
LINE
  5
761
330
2
100
AcDbEntity
  8
图框
370
    -3
100
AcDbLine
 10
938.8884947980956
 20
226.8489093891343
 30
0.0
 11
938.8884947980956
 21
186.9398943107228
 31
0.0
1001
AcDbBlockRepETag
1070
     1
1071
       71
1005
761
  0
LINE
  5
762
330
2
100
AcDbEntity
  8
图框
370
    -3
100
AcDbLine
 10
948.022476189346
 20
206.8944010158434
 30
0.0
 11
948.022476189346
 21
193.591395433652
 31
0.0
1001
AcDbBlockRepETag
1070
     1
1071
       72
1005
762
  0
LINE
  5
763
330
2
100
AcDbEntity
  8
图框
370
    -3
100
AcDbLine
 10
957.1564575805952
 20
206.8944010158434
 30
0.0
 11
957.1564575805952
 21
186.9585912404973
 31
0.0
1001
AcDbBlockRepETag
1070
     1
1071
       73
1005
763
  0
LINE
  5
764
330
2
100
AcDbEntity
  8
图框
370
    25
100
AcDbLine
 10
948.8581797617436
 20
190.3954636334215
 30
0.0
 11
954.3172091560764
 21
190.3954636334215
 31
0.0
1001
AcDbBlockRepETag
1070
     1
1071
       74
1005
764
  0
LINE
  5
765
330
2
100
AcDbEntity
  8
图框
370
    25
100
AcDbLine
 10
953.7150783161008
 20
189.5238529747044
 30
0.0
 11
949.4337106262506
 21
189.0021436360687
 31
0.0
1001
AcDbBlockRepETag
1070
     1
1071
       75
1005
765
  0
LINE
  5
766
330
2
100
AcDbEntity
  8
图框
370
    25
100
AcDbLine
 10
953.7150783161008
 20
191.2670742921376
 30
0.0
 11
949.4337106262506
 21
191.7887836307736
 31
0.0
1001
AcDbBlockRepETag
1070
     1
1071
       76
1005
766
  0
LINE
  5
767
330
2
100
AcDbEntity
  8
图框
370
    25
100
AcDbLine
 10
949.4337106262506
 20
191.7887836307736
 30
0.0
 11
949.4337106262506
 21
189.0021436360687
 31
0.0
1001
AcDbBlockRepETag
1070
     1
1071
       77
1005
767
  0
LINE
  5
768
330
2
100
AcDbEntity
  8
图框
370
    25
100
AcDbLine
 10
953.7150783161008
 20
191.2670742921376
 30
0.0
 11
953.7150783161008
 21
189.5238529747044
 31
0.0
1001
AcDbBlockRepETag
1070
     1
1071
       78
1005
768
  0
CIRCLE
  5
769
330
2
100
AcDbEntity
  8
图框
370
    25
100
AcDbCircle
 10
943.8215910630155
 20
190.3954636334215
 30
0.0
 40
1.393319997352059
1001
AcDbBlockRepETag
1070
     1
1071
       79
1005
769
  0
CIRCLE
  5
76A
330
2
100
AcDbEntity
  8
图框
370
    25
100
AcDbCircle
 10
943.8215910630155
 20
190.3954636334215
 30
0.0
 40
0.8716106587165903
1001
AcDbBlockRepETag
1070
     1
1071
       80
1005
76A
  0
LINE
  5
76B
330
2
100
AcDbEntity
  8
图框
370
    25
100
AcDbLine
 10
941.8261402256868
 20
190.3954636334215
 30
0.0
 11
945.8170419003453
 21
190.3954636334215
 31
0.0
1001
AcDbBlockRepETag
1070
     1
1071
       81
1005
76B
  0
LINE
  5
76C
330
2
100
AcDbEntity
  8
图框
370
    25
100
AcDbLine
 10
943.8215910630155
 20
192.3909144707493
 30
0.0
 11
943.8215910630155
 21
188.4000127960925
 31
0.0
1001
AcDbBlockRepETag
1070
     1
1071
       82
1005
76C
  0
LINE
  5
76D
330
2
100
AcDbEntity
  8
图框
370
    -3
100
AcDbLine
 10
966.2904389718466
 20
206.8944010158434
 30
0.0
 11
966.2904389718466
 21
193.591395433652
 31
0.0
1001
AcDbBlockRepETag
1070
     1
1071
       83
1005
76D
  0
MTEXT
  5
76E
330
2
100
AcDbEntity
  8
图框
100
AcDbMText
 10
981.0522147570473
 20
223.0293734442792
 30
0.0
 40
1.81754245253778
 41
11.25558878790257
 71
     5
 72
     5
  1
图号{\Ftxt|c134;\P\Fromans|c134;\W0.65;Drawing No.}
 73
     1
 44
1.0
1001
AcDbBlockRepETag
1070
     1
1071
       84
1005
76E
1001
ACAD
1000
MTEXTBEGIN
1070
    73
1070
     1
1070
    44
1040
1.0
1070
    74
1070
     0
1000
MTEXTEND
1000
ACAD_MTEXT_DEFINED_HEIGHT_BEGIN
1070
    46
1040
7.639071889710598
1000
ACAD_MTEXT_DEFINED_HEIGHT_END
  0
LINE
  5
76F
330
2
100
AcDbEntity
  8
图框
370
    -3
100
AcDbLine
 10
986.6800091509986
 20
226.8489093891343
 30
0.0
 11
986.6800091509986
 21
196.9171468291984
 31
0.0
1001
AcDbBlockRepETag
1070
     1
1071
       85
1005
76F
  0
LINE
  5
770
330
2
100
AcDbEntity
  8
图框
370
    -3
100
AcDbLine
 10
948.0145932238476
 20
226.8489093891343
 30
0.0
 11
948.0145932238476
 21
206.8944010158434
 31
0.0
1001
AcDbBlockRepETag
1070
     1
1071
       86
1005
770
  0
MTEXT
  5
771
330
2
100
AcDbEntity
  8
图框
100
AcDbMText
 10
961.723448276221
 20
203.5686496202952
 30
0.0
 40
1.900158018562219
 41
9.133981391250836
 71
     5
 72
     5
  1
重量\P{\Fromans|c134;Weight}
 73
     1
 44
1.0
1001
AcDbBlockRepETag
1070
     1
1071
       87
1005
771
1001
ACAD
1000
MTEXTBEGIN
1070
    73
1070
     1
1070
    44
1040
1.0
1070
    74
1070
     0
1000
MTEXTEND
1000
ACAD_MTEXT_DEFINED_HEIGHT_BEGIN
1070
    46
1040
6.651502791096482
1000
ACAD_MTEXT_DEFINED_HEIGHT_END
  0
LINE
  5
772
330
2
100
AcDbEntity
  8
图框
370
    -3
100
AcDbLine
 10
938.8884947980956
 20
216.8716552024909
 30
0.0
 11
975.4244203630955
 21
216.8716552024909
 31
0.0
1001
AcDbBlockRepETag
1070
     1
1071
       88
1005
772
  0
MTEXT
  5
773
330
2
100
AcDbEntity
  8
图框
100
AcDbMText
 10
970.8574296674706
 20
203.5686496202952
 30
0.0
 40
1.900158018562219
 41
9.133981391248944
 71
     5
 72
     5
  1
数量\P{\Fromans|c134;Qty.}
 73
     1
 44
1.0
1001
AcDbBlockRepETag
1070
     1
1071
       89
1005
773
1001
ACAD
1000
MTEXTBEGIN
1070
    73
1070
     1
1070
    44
1040
1.0
1070
    74
1070
     0
1000
MTEXTEND
1000
ACAD_MTEXT_DEFINED_HEIGHT_BEGIN
1070
    46
1040
6.651502791096493
1000
ACAD_MTEXT_DEFINED_HEIGHT_END
  0
LINE
  5
774
330
2
100
AcDbEntity
  8
图框
370
    -3
100
AcDbLine
 10
975.4244203630955
 20
196.9171468291984
 30
0.0
 11
1015.030280160764
 21
196.9171468291979
 31
0.0
1001
AcDbBlockRepETag
1070
     1
1071
       90
1005
774
  0
LINE
  5
775
330
2
100
AcDbEntity
  8
图框
370
    -3
100
AcDbLine
 10
975.4244203630955
 20
204.3998351759666
 30
0.0
 11
1015.030280160764
 21
204.3998351759666
 31
0.0
1001
AcDbBlockRepETag
1070
     1
1071
       91
1005
775
  0
MTEXT
  5
776
330
2
100
AcDbEntity
  8
图框
100
AcDbMText
 10
952.5855254022214
 20
203.5686496202952
 30
0.0
 40
1.900158018562219
 41
9.141864356746738
 71
     5
 72
     5
  1
版本\P{\Fromans|c134;REV.}
 73
     1
 44
1.0
1001
AcDbBlockRepETag
1070
     1
1071
       92
1005
776
1001
ACAD
1000
MTEXTBEGIN
1070
    73
1070
     1
1070
    44
1040
1.0
1070
    74
1070
     0
1000
MTEXTEND
1000
ACAD_MTEXT_DEFINED_HEIGHT_BEGIN
1070
    46
1040
6.651502791096461
1000
ACAD_MTEXT_DEFINED_HEIGHT_END
  0
MTEXT
  5
777
330
2
100
AcDbEntity
  8
图框
100
AcDbMText
 10
943.4554854937212
 20
203.5686496202952
 30
0.0
 40
1.900158018562219
 41
9.133981391249756
 71
     5
 72
     5
  1
比例\P{\Fromans|c134;Scale}
 73
     1
 44
1.0
1001
AcDbBlockRepETag
1070
     1
1071
       93
1005
777
1001
ACAD
1000
MTEXTBEGIN
1070
    73
1070
     1
1070
    44
1040
1.0
1070
    74
1070
     0
1000
MTEXTEND
1000
ACAD_MTEXT_DEFINED_HEIGHT_BEGIN
1070
    46
1040
6.65150279109649
1000
ACAD_MTEXT_DEFINED_HEIGHT_END
  0
LINE
  5
778
330
2
100
AcDbEntity
  8
图框
370
    -3
100
AcDbLine
 10
938.8884947980956
 20
206.8944010158434
 30
0.0
 11
975.4244203630955
 21
206.8944010158434
 31
0.0
1001
AcDbBlockRepETag
1070
     1
1071
       94
1005
778
  0
LINE
  5
779
330
2
100
AcDbEntity
  8
图框
370
    -3
100
AcDbLine
 10
938.8884947980956
 20
193.591395433652
 30
0.0
 11
975.4244203630955
 21
193.591395433652
 31
0.0
1001
AcDbBlockRepETag
1070
     1
1071
       95
1005
779
  0
LINE
  5
77A
330
2
100
AcDbEntity
  8
图框
370
    -3
100
AcDbLine
 10
975.4244203630955
 20
226.8489093891343
 30
0.0
 11
975.4244203630955
 21
186.9398926425537
 31
0.0
1001
AcDbBlockRepETag
1070
     1
1071
       96
1005
77A
  0
MTEXT
  5
77B
330
2
100
AcDbEntity
  8
图框
100
AcDbMText
 10
943.4515440109713
 20
221.8602822958127
 30
0.0
 40
1.900158018562219
 41
9.126098425752033
 71
     5
 72
     5
  1
表面处理\P{\Fromans|c134;Finish}
 73
     1
 44
1.0
1001
AcDbBlockRepETag
1070
     1
1071
       97
1005
77B
1001
ACAD
1000
MTEXTBEGIN
1070
    73
1070
     1
1070
    44
1040
1.0
1070
    74
1070
     0
1000
MTEXTEND
1000
ACAD_MTEXT_DEFINED_HEIGHT_BEGIN
1070
    46
1040
9.977254186643786
1000
ACAD_MTEXT_DEFINED_HEIGHT_END
  0
MTEXT
  5
77C
330
2
100
AcDbEntity
  8
图框
100
AcDbMText
 10
943.4515440109713
 20
211.8830281091671
 30
0.0
 40
1.900158018562219
 41
9.126098425752033
 71
     5
 72
     5
  1
材料\P{\Fromans|c134;Material}
 73
     1
 44
1.0
1001
AcDbBlockRepETag
1070
     1
1071
       98
1005
77C
1001
ACAD
1000
MTEXTBEGIN
1070
    73
1070
     1
1070
    44
1040
1.0
1070
    74
1070
     0
1000
MTEXTEND
1000
ACAD_MTEXT_DEFINED_HEIGHT_BEGIN
1070
    46
1040
9.977254186647263
1000
ACAD_MTEXT_DEFINED_HEIGHT_END
  0
LINE
  5
77D
330
2
100
AcDbEntity
  8
图框
370
    -3
100
AcDbLine
 10
975.4244203630955
 20
219.2098374994241
 30
0.0
 11
1015.030280160764
 21
219.2098374994241
 31
0.0
1001
AcDbBlockRepETag
1070
     1
1071
       99
1005
77D
  0
LINE
  5
77E
330
2
100
AcDbEntity
  8
图框
370
    -3
100
AcDbLine
 10
975.4244203630955
 20
211.8830281091673
 30
0.0
 11
1015.030280160764
 21
211.8830281091671
 31
0.0
1001
AcDbBlockRepETag
1070
     1
1071
      100
1005
77E
  0
MTEXT
  5
77F
330
2
100
AcDbEntity
  8
图框
100
AcDbMText
 10
981.0522147570473
 20
215.5464328042957
 30
0.0
 40
1.652311320488886
 41
11.25558878790257
 71
     5
 72
     5
  1
产品代号\P{\Fromans|c134;Part Code}
 73
     1
 44
1.0
1001
AcDbBlockRepETag
1070
     1
1071
      101
1005
77F
1001
ACAD
1000
MTEXTBEGIN
1070
    73
1070
     1
1070
    44
1040
1.0
1070
    74
1070
     0
1000
MTEXTEND
1000
ACAD_MTEXT_DEFINED_HEIGHT_BEGIN
1070
    46
1040
7.32680939025674
1000
ACAD_MTEXT_DEFINED_HEIGHT_END
  0
LINE
  5
780
330
2
100
AcDbEntity
  8
图框
370
    -3
100
AcDbLine
 10
863.2098211196902
 20
222.1838536464568
 30
0.0
 11
938.8884947980956
 21
222.1838536464568
 31
0.0
1001
AcDbBlockRepETag
1070
     1
1071
      102
1005
780
  0
LINE
  5
781
330
2
100
AcDbEntity
  8
图框
370
    -3
100
AcDbLine
 10
863.2098211196902
 20
217.5187979037837
 30
0.0
 11
938.8884947980956
 21
217.5187979037837
 31
0.0
1001
AcDbBlockRepETag
1070
     1
1071
      103
1005
781
  0
LINE
  5
782
330
2
100
AcDbEntity
  8
图框
370
    35
100
AcDbLine
 10
863.2098211196902
 20
226.8489093891343
 30
0.0
 11
1015.030280160764
 21
226.8489093891343
 31
0.0
1001
AcDbBlockRepETag
1070
     1
1071
      104
1005
782
  0
LINE
  5
783
330
2
100
AcDbEntity
  8
图框
370
    -3
100
AcDbLine
 10
900.1057846335791
 20
208.1886864184292
 30
0.0
 11
900.1057846335791
 21
186.9585912404973
 31
0.0
1001
AcDbBlockRepETag
1070
     1
1071
      105
1005
783
  0
MTEXT
  5
784
102
{ACAD_XDICTIONARY
360
164C
102
}
330
2
100
AcDbEntity
  8
图框
100
AcDbMText
 10
905.5798025916526
 20
200.2697204960379
 30
0.0
 40
1.900158018562219
 41
10.94803591614707
 71
     5
 72
     5
  1
{\fSimSun|b0|i0|c134|p2;标准化}\PStand.
  7
Romans字体
 73
     1
 44
1.0
1001
AcDbBlockRepETag
1070
     1
1071
      106
1005
784
1001
ACAD
1000
MTEXTBEGIN
1070
    73
1070
     1
1070
    44
1040
1.0
1070
    74
1070
     0
1000
MTEXTEND
1000
ACAD_MTEXT_DEFINED_HEIGHT_BEGIN
1070
    46
1040
5.222884255815928
1000
ACAD_MTEXT_DEFINED_HEIGHT_END
  0
LINE
  5
785
330
2
100
AcDbEntity
  8
图框
370
    -3
100
AcDbLine
 10
887.2327727974591
 20
208.1886864184292
 30
0.0
 11
887.2327727974591
 21
186.9585912404973
 31
0.0
1001
AcDbBlockRepETag
1070
     1
1071
      107
1005
785
  0
MTEXT
  5
786
330
2
100
AcDbEntity
  8
图框
100
AcDbMText
 10
894.906913739169
 20
210.5212142897672
 30
0.0
 40
2.065389150611113
 41
32.29381362111463
 71
     5
 72
     5
  1
  变更描述{\Fromans|c134;/Description}
 73
     1
 44
1.0
1001
AcDbBlockRepETag
1070
     1
1071
      108
1005
786
1001
ACAD
1000
MTEXTBEGIN
1070
    73
1070
     1
1070
    44
1040
1.0
1070
    74
1070
     0
1000
MTEXTEND
1000
ACAD_MTEXT_DEFINED_HEIGHT_BEGIN
1070
    46
1040
4.665055742676244
1000
ACAD_MTEXT_DEFINED_HEIGHT_END
  0
MTEXT
  5
787
102
{ACAD_XDICTIONARY
360
164E
102
}
330
2
100
AcDbEntity
  8
图框
100
AcDbMText
 10
918.4872989093067
 20
210.5212142897672
 30
0.0
 40
1.652311320488886
 41
14.86695671916085
 71
     5
 72
     5
  1
签名\P{\Fromans|c134;Signature} 
 73
     1
 44
1.0
1001
AcDbBlockRepETag
1070
     1
1071
      109
1005
787
1001
ACAD
1000
MTEXTBEGIN
1070
    73
1070
     1
1070
    44
1040
1.0
1070
    74
1070
     0
1000
MTEXTEND
1000
ACAD_MTEXT_DEFINED_HEIGHT_BEGIN
1070
    46
1040
4.665055742676238
1000
ACAD_MTEXT_DEFINED_HEIGHT_END
  0
MTEXT
  5
788
102
{ACAD_XDICTIONARY
360
1650
102
}
330
2
100
AcDbEntity
  8
图框
100
AcDbMText
 10
874.8724604763808
 20
210.5212142897672
 30
0.0
 40
1.652311320488886
 41
7.775092904461446
 71
     5
 72
     5
  1
处数\P{\Fromans|c134;Number }
 73
     1
 44
1.0
1001
AcDbBlockRepETag
1070
     1
1071
      110
1005
788
1001
ACAD
1000
MTEXTBEGIN
1070
    73
1070
     1
1070
    44
1040
1.0
1070
    74
1070
     0
1000
MTEXTEND
1000
ACAD_MTEXT_DEFINED_HEIGHT_BEGIN
1070
    46
1040
4.665055742676252
1000
ACAD_MTEXT_DEFINED_HEIGHT_END
  0
LINE
  5
789
330
2
100
AcDbEntity
  8
图框
370
    -3
100
AcDbLine
 10
863.2098211196902
 20
212.8537421611056
 30
0.0
 11
938.8884947980956
 21
212.8537421611056
 31
0.0
1001
AcDbBlockRepETag
1070
     1
1071
      111
1005
789
  0
LINE
  5
78A
330
2
100
AcDbEntity
  8
图框
370
    -3
100
AcDbLine
 10
863.2098211196902
 20
208.1886864184292
 30
0.0
 11
938.8884947980956
 21
208.1886864184292
 31
0.0
1001
AcDbBlockRepETag
1070
     1
1071
      112
1005
78A
  0
LINE
  5
78B
330
2
100
AcDbEntity
  8
图框
370
    -3
100
AcDbLine
 10
863.2098211196902
 20
202.8811626239463
 30
0.0
 11
938.8884947980956
 21
202.8811626239463
 31
0.0
1001
AcDbBlockRepETag
1070
     1
1071
      113
1005
78B
  0
LINE
  5
78C
330
2
100
AcDbEntity
  8
图框
370
    -3
100
AcDbLine
 10
863.2098211196902
 20
197.5736388294625
 30
0.0
 11
938.8884947980956
 21
197.5736388294625
 31
0.0
1001
AcDbBlockRepETag
1070
     1
1071
      114
1005
78C
  0
LINE
  5
78D
330
2
100
AcDbEntity
  8
图框
370
    35
380
     1
100
AcDbLine
 10
863.2098211196902
 20
226.8489093891343
 30
0.0
 11
863.2098211196902
 21
186.9585912404973
 31
0.0
1001
AcDbBlockRepETag
1070
     1
1071
      115
1005
78D
  0
LINE
  5
78E
330
2
100
AcDbEntity
  8
图框
370
    -3
100
AcDbLine
 10
925.9396176476254
 20
226.8489093891343
 30
0.0
 11
925.9396176476254
 21
186.9585912404973
 31
0.0
1001
AcDbBlockRepETag
1070
     1
1071
      116
1005
78E
  0
LINE
  5
78F
330
2
100
AcDbEntity
  8
图框
370
    -3
100
AcDbLine
 10
911.053820549726
 20
226.8489093891343
 30
0.0
 11
911.053820549726
 21
186.9585912404973
 31
0.0
1001
AcDbBlockRepETag
1070
     1
1071
      117
1005
78F
  0
LINE
  5
790
330
2
100
AcDbEntity
  8
图框
370
    -3
100
AcDbLine
 10
878.7600069286114
 20
226.8489093891343
 30
0.0
 11
878.7600069286114
 21
208.1886864184292
 31
0.0
1001
AcDbBlockRepETag
1070
     1
1071
      118
1005
790
  0
LINE
  5
791
330
2
100
AcDbEntity
  8
图框
370
    -3
100
AcDbLine
 10
870.98491402415
 20
226.8489093891343
 30
0.0
 11
870.98491402415
 21
208.1886864184292
 31
0.0
1001
AcDbBlockRepETag
1070
     1
1071
      119
1005
791
  0
MTEXT
  5
792
102
{ACAD_XDICTIONARY
360
1652
102
}
330
2
100
AcDbEntity
  8
图框
100
AcDbMText
 10
867.0973675719196
 20
210.5212142897672
 30
0.0
 40
1.652311320488886
 41
7.775092904460103
 71
     5
 72
     5
  1
标记\P{\Fromans|c134;Mark}
 73
     1
 44
1.0
1001
AcDbBlockRepETag
1070
     1
1071
      120
1005
792
1001
ACAD
1000
MTEXTBEGIN
1070
    73
1070
     1
1070
    44
1040
1.0
1070
    74
1070
     0
1000
MTEXTEND
1000
ACAD_MTEXT_DEFINED_HEIGHT_BEGIN
1070
    46
1040
4.665055742676244
1000
ACAD_MTEXT_DEFINED_HEIGHT_END
  0
MTEXT
  5
793
102
{ACAD_XDICTIONARY
360
1654
102
}
330
2
100
AcDbEntity
  8
图框
100
AcDbMText
 10
868.6838390777635
 20
194.9198769322218
 30
0.0
 40
1.900158018562219
 41
10.94803591614698
 71
     5
 72
     5
  1
审核\P{\Fromans|c134;Checked}
 73
     1
 44
1.0
1001
AcDbBlockRepETag
1070
     1
1071
      121
1005
793
1001
ACAD
1000
MTEXTBEGIN
1070
    73
1070
     1
1070
    44
1040
1.0
1070
    74
1070
     0
1000
MTEXTEND
1000
ACAD_MTEXT_DEFINED_HEIGHT_BEGIN
1070
    46
1040
5.307523794482388
1000
ACAD_MTEXT_DEFINED_HEIGHT_END
  0
MTEXT
  5
794
102
{ACAD_XDICTIONARY
360
1656
102
}
330
2
100
AcDbEntity
  8
图框
100
AcDbMText
 10
868.6838390777635
 20
200.3211484610935
 30
0.0
 40
1.900158018562219
 41
10.94803591614698
 71
     5
 72
     5
  1
绘图\P{\Fromans|c134;Drawn\Ftxt|c134; }
 73
     1
 44
1.0
1001
AcDbBlockRepETag
1070
     1
1071
      122
1005
794
1001
ACAD
1000
MTEXTBEGIN
1070
    73
1070
     1
1070
    44
1040
1.0
1070
    74
1070
     0
1000
MTEXTEND
1000
ACAD_MTEXT_DEFINED_HEIGHT_BEGIN
1070
    46
1040
5.120028325705276
1000
ACAD_MTEXT_DEFINED_HEIGHT_END
  0
ARC
  5
795
330
2
100
AcDbEntity
  8
图框
 62
     4
370
    35
100
AcDbCircle
 10
981.2688887887674
 20
192.0051245159046
 30
0.0
 40
3.427186952381684
100
AcDbArc
 50
18.95237904564812
 51
161.047620954353
1001
AcDbBlockRepETag
1070
     1
1071
      123
1005
795
  0
ARC
  5
796
330
2
100
AcDbEntity
  8
图框
 62
     4
370
    35
100
AcDbCircle
 10
981.2688887887674
 20
192.0051245159046
 30
0.0
 40
3.427186952381684
100
AcDbArc
 50
198.9523790456469
 51
341.0476209543518
1001
AcDbBlockRepETag
1070
     1
1071
      124
1005
796
  0
LINE
  5
797
330
2
100
AcDbEntity
  8
图框
 62
     4
370
    35
100
AcDbLine
 10
978.0274936080431
 20
190.8920352611906
 30
0.0
 11
984.5102839694883
 21
190.8920352611906
 31
0.0
1001
AcDbBlockRepETag
1070
     1
1071
      125
1005
797
  0
LINE
  5
798
330
2
100
AcDbEntity
  8
图框
 62
     4
370
    35
100
AcDbLine
 10
978.0274936080431
 20
193.1182137706197
 30
0.0
 11
984.5102839694883
 21
193.1182137706197
 31
0.0
1001
AcDbBlockRepETag
1070
     1
1071
      126
1005
798
  0
MTEXT
  5
799
330
2
100
AcDbEntity
  8
图框
 62
     1
370
    20
100
AcDbMText
 10
978.0080854795086
 20
192.8760968913177
 30
0.0
 40
1.691895667167684
 41
4.257079425699441
 71
     1
 72
     5
  1
{\fArial|b0|i0|c0|p34;W}
  7
Chinese
 73
     1
 44
1.0
1001
AcDbBlockRepETag
1070
     1
1071
      127
1005
799
1001
ACAD
1000
MTEXTBEGIN
1070
    73
1070
     1
1070
    44
1040
1.0
1070
    74
1070
     0
1000
MTEXTEND
  0
LINE
  5
79A
330
2
100
AcDbEntity
  8
图框
370
    -3
100
AcDbLine
 10
863.2098211196902
 20
192.2661150349805
 30
0.0
 11
938.8884947980956
 21
192.2661150349805
 31
0.0
1001
AcDbBlockRepETag
1070
     1
1071
      128
1005
79A
  0
LINE
  5
79B
330
2
100
AcDbEntity
  8
图框
370
    -3
100
AcDbLine
 10
874.1578570358369
 20
208.1886864184292
 30
0.0
 11
874.1578570358369
 21
186.9585912404973
 31
0.0
1001
AcDbBlockRepETag
1070
     1
1071
      129
1005
79B
  0
MTEXT
  5
79C
330
2
100
AcDbEntity
  8
图框
100
AcDbMText
 10
880.695314916648
 20
205.5349245211876
 30
0.0
 40
1.900158018562219
 41
13.0749157616223
 71
     5
 72
     5
  1
姓名{\Fromans|c134;/Name\Ftxt|c134; }
 73
     1
 44
1.0
1001
AcDbBlockRepETag
1070
     1
1071
      130
1005
79C
1001
ACAD
1000
MTEXTBEGIN
1070
    73
1070
     1
1070
    44
1040
1.0
1070
    74
1070
     0
1000
MTEXTEND
1000
ACAD_MTEXT_DEFINED_HEIGHT_BEGIN
1070
    46
1040
5.307523794483117
1000
ACAD_MTEXT_DEFINED_HEIGHT_END
  0
MTEXT
  5
79D
330
2
100
AcDbEntity
  8
图框
100
AcDbMText
 10
893.6692787155195
 20
205.5349245211876
 30
0.0
 40
1.900158018562219
 41
12.87301183611986
 71
     5
 72
     5
  1
日期{\Fromans|c134;/Date}
 73
     1
 44
1.0
1001
AcDbBlockRepETag
1070
     1
1071
      131
1005
79D
1001
ACAD
1000
MTEXTBEGIN
1070
    73
1070
     1
1070
    44
1040
1.0
1070
    74
1070
     0
1000
MTEXTEND
1000
ACAD_MTEXT_DEFINED_HEIGHT_BEGIN
1070
    46
1040
5.307523794483078
1000
ACAD_MTEXT_DEFINED_HEIGHT_END
  0
LINE
  5
79E
330
2
100
AcDbEntity
  8
图框
370
    -3
100
AcDbLine
 10
863.2098211196902
 20
208.1886864184292
 30
0.0
 11
874.1578570358369
 21
202.8811626239463
 31
0.0
1001
AcDbBlockRepETag
1070
     1
1071
      132
1005
79E
  0
MTEXT
  5
79F
330
2
100
AcDbEntity
  8
图框
100
AcDbMText
 10
918.8797708727522
 20
205.5007632420857
 30
0.0
 40
1.900158018562219
 41
14.28370924357555
 71
     5
 72
     5
  1
姓名{\Fromans|c134;/Name}
 73
     1
 44
1.0
1001
AcDbBlockRepETag
1070
     1
1071
      133
1005
79F
1001
ACAD
1000
MTEXTBEGIN
1070
    73
1070
     1
1070
    44
1040
1.0
1070
    74
1070
     0
1000
MTEXTEND
  0
MTEXT
  5
7A0
330
2
100
AcDbEntity
  8
图框
100
AcDbMText
 10
932.4140562228611
 20
205.5349245211876
 30
0.0
 40
1.900158018562219
 41
12.94887715047055
 71
     5
 72
     5
  1
日期{\Fromans|c134;/Date}
 73
     1
 44
1.0
1001
AcDbBlockRepETag
1070
     1
1071
      134
1005
7A0
1001
ACAD
1000
MTEXTBEGIN
1070
    73
1070
     1
1070
    44
1040
1.0
1070
    74
1070
     0
1000
MTEXTEND
1000
ACAD_MTEXT_DEFINED_HEIGHT_BEGIN
1070
    46
1040
5.307523794483125
1000
ACAD_MTEXT_DEFINED_HEIGHT_END
  0
LINE
  5
7A1
330
2
100
AcDbEntity
  8
图框
370
    -3
100
AcDbLine
 10
911.053820549726
 20
202.8811626239463
 30
0.0
 11
900.1057846335791
 21
208.1886864184292
 31
0.0
1001
AcDbBlockRepETag
1070
     1
1071
      135
1005
7A1
  0
MTEXT
  5
7A2
102
{ACAD_XDICTIONARY
360
1658
102
}
330
2
100
AcDbEntity
  8
图框
100
AcDbMText
 10
905.5798025916526
 20
189.6123531377388
 30
0.0
 40
1.900158018562219
 41
10.94803591614707
 71
     5
 72
     5
  1
批准\P{\Fromans|c134;Approved}
 73
     1
 44
1.0
1001
AcDbBlockRepETag
1070
     1
1071
      136
1005
7A2
1001
ACAD
1000
MTEXTBEGIN
1070
    73
1070
     1
1070
    44
1040
1.0
1070
    74
1070
     0
1000
MTEXTEND
1000
ACAD_MTEXT_DEFINED_HEIGHT_BEGIN
1070
    46
1040
5.307523794483344
1000
ACAD_MTEXT_DEFINED_HEIGHT_END
  0
MTEXT
  5
7A3
102
{ACAD_XDICTIONARY
360
165A
102
}
330
2
100
AcDbEntity
  8
图框
100
AcDbMText
 10
868.6838390777635
 20
189.6123531377388
 30
0.0
 40
1.900158018562219
 41
10.94803591614698
 71
     5
 72
     5
  1
工艺\P{\Fromans|c134;Process}
 73
     1
 44
1.0
1001
AcDbBlockRepETag
1070
     1
1071
      137
1005
7A3
1001
ACAD
1000
MTEXTBEGIN
1070
    73
1070
     1
1070
    44
1040
1.0
1070
    74
1070
     0
1000
MTEXTEND
1000
ACAD_MTEXT_DEFINED_HEIGHT_BEGIN
1070
    46
1040
5.307523794483326
1000
ACAD_MTEXT_DEFINED_HEIGHT_END
  0
MTEXT
  5
7A4
102
{ACAD_XDICTIONARY
360
165C
102
}
330
2
100
AcDbEntity
  8
图框
100
AcDbMText
 10
932.4140562228611
 20
210.4013800117467
 30
0.0
 40
1.652311320488886
 41
12.94887715047052
 71
     5
 72
     5
  1
日期\P{\Fromans|c134;Date}
 73
     1
 44
1.0
1001
AcDbBlockRepETag
1070
     1
1071
      138
1005
7A4
1001
ACAD
1000
MTEXTBEGIN
1070
    73
1070
     1
1070
    44
1040
1.0
1070
    74
1070
     0
1000
MTEXTEND
1000
ACAD_MTEXT_DEFINED_HEIGHT_BEGIN
1070
    46
1040
4.425387186634722
1000
ACAD_MTEXT_DEFINED_HEIGHT_END
  0
MTEXT
  5
7A5
330
2
100
AcDbEntity
  8
图框
100
AcDbMText
 10
981.0522147570473
 20
208.141431642567
 30
0.0
 40
1.81754245253778
 41
11.25558878790257
 71
     5
 72
     5
  1
产品料号\P{\Fromans|c134;Part No.}
 73
     1
 44
1.0
1001
AcDbBlockRepETag
1070
     1
1071
      139
1005
7A5
1001
ACAD
1000
MTEXTBEGIN
1070
    73
1070
     1
1070
    44
1040
1.0
1070
    74
1070
     0
1000
MTEXTEND
1000
ACAD_MTEXT_DEFINED_HEIGHT_BEGIN
1070
    46
1040
7.483192933200218
1000
ACAD_MTEXT_DEFINED_HEIGHT_END
  0
MTEXT
  5
7A6
330
2
100
AcDbEntity
  8
图框
100
AcDbMText
 10
981.0522147570473
 20
200.6584910025826
 30
0.0
 40
1.652311320488886
 41
11.25558878790257
 71
     5
 72
     5
  1
产品名称\P{\Fromans|c134;Part Name}
 73
     1
 44
1.0
1001
AcDbBlockRepETag
1070
     1
1071
      140
1005
7A6
1001
ACAD
1000
MTEXTBEGIN
1070
    73
1070
     1
1070
    44
1040
1.0
1070
    74
1070
     0
1000
MTEXTEND
1000
ACAD_MTEXT_DEFINED_HEIGHT_BEGIN
1070
    46
1040
7.482688346768709
1000
ACAD_MTEXT_DEFINED_HEIGHT_END
  0
LINE
  5
7A7
330
2
100
AcDbEntity
  8
图框
 62
     1
370
    18
100
AcDbLine
 10
767.4653866337877
 20
361.130395640397
 30
0.0
 11
767.4653866337877
 21
184.006526759143
 31
0.0
1001
AcDbBlockRepETag
1070
     1
1071
      141
1005
7A7
  0
LINE
  5
7A8
330
2
100
AcDbEntity
  8
图框
 62
     1
370
    18
100
AcDbLine
 10
767.4653866337877
 20
184.006526759143
 30
0.0
 11
1017.968089688584
 21
184.006526759143
 31
0.0
1001
AcDbBlockRepETag
1070
     1
1071
      142
1005
7A8
  0
LINE
  5
7A9
330
2
100
AcDbEntity
  8
图框
 62
     1
370
    18
100
AcDbLine
 10
767.4653866337877
 20
361.130395640397
 30
0.0
 11
1017.968089688584
 21
361.130395640397
 31
0.0
1001
AcDbBlockRepETag
1070
     1
1071
      143
1005
7A9
  0
LINE
  5
7AA
330
2
100
AcDbEntity
  8
图框
 62
     1
370
    18
100
AcDbLine
 10
1017.968089688584
 20
184.006526759143
 30
0.0
 11
1017.968089688584
 21
361.130395640397
 31
0.0
1001
AcDbBlockRepETag
1070
     1
1071
      144
1005
7AA
  0
LINE
  5
7AB
330
2
100
AcDbEntity
  8
图框
370
    18
100
AcDbLine
 10
770.4174511151446
 20
357.9720464396746
 30
0.0
 11
791.1850860858533
 21
357.9720464396746
 31
0.0
1001
AcDbBlockRepETag
1070
     1
1071
      145
1005
7AB
  0
LINE
  5
7AC
330
2
100
AcDbEntity
  8
图框
370
    50
100
AcDbLine
 10
1015.030280160764
 20
187.2168852507699
 30
0.0
 11
1015.030280160764
 21
348.4786907203074
 31
0.0
1001
AcDbBlockRepETag
1070
     1
1071
      146
1005
7AC
  0
MTEXT
  5
7AD
330
2
100
AcDbEntity
  8
图框
 62
     3
100
AcDbMText
 10
952.5894668849703
 20
196.9171468291996
 30
0.0
 40
2.518122452416917
 41
9.133981391250042
 71
     5
 72
     5
  1
V1.1
  7
Romans字体
 73
     1
 44
1.0
1001
AcDbBlockRepETag
1070
     1
1071
      147
1005
7AD
1001
ACAD
1000
MTEXTBEGIN
1070
    73
1070
     1
1070
    44
1040
1.0
1070
    74
1070
     0
1000
MTEXTEND
1000
ACAD_MTEXT_DEFINED_HEIGHT_BEGIN
1070
    46
1040
6.65150279109579
1000
ACAD_MTEXT_DEFINED_HEIGHT_END
  0
LINE
  5
7AE
330
2
100
AcDbEntity
  8
图框
 62
     6
100
AcDbLine
 10
1015.016025207229
 20
227.1735366138916
 30
0.0
 11
1017.968089688584
 21
227.1735366138916
 31
0.0
1001
AcDbBlockRepETag
1070
     1
1071
      148
1005
7AE
  0
MTEXT
  5
85D
330
2
100
AcDbEntity
  8
0
100
AcDbMText
 10
961.5304044476879
 20
258.8140556875337
 30
0.0
 40
3.0
 41
52.54900835018543
 71
     1
 72
     5
  1
{\f仿宋_GB2312|b0|i0|c134|p49;技术参数}:\P-10A{\f仿宋_GB2312|b0|i0|c134|p49;冷压针}\P-16A{\f仿宋_GB2312|b0|i0|c134|p49;带三爪的公插针}
  7
Romans字体
 73
     1
 44
1.0
1001
ACAD
1000
MTEXTBEGIN
1070
    73
1070
     1
1070
    44
1040
1.0
1070
    74
1070
     0
1000
MTEXTEND
  0
MTEXT
  5
A70
102
{ACAD_XDICTIONARY
360
165E
102
}
330
2
100
AcDbEntity
  8
图框
 62
     3
100
AcDbMText
 10
893.5787273472032
 20
200.3358961182189
 30
0.0
 40
2.0
 41
16.2084694775381
 71
     5
 72
     5
  1
19.10.2018
  7
Romans字体
 73
     1
 44
1.0
1001
AcDbBlockRepETag
1070
     1
1071
        0
1005
A70
1001
ACAD
1000
MTEXTBEGIN
1070
    73
1070
     1
1070
    44
1040
1.0
1070
    74
1070
     0
1000
MTEXTEND
1000
ACAD_MTEXT_DEFINED_HEIGHT_BEGIN
1070
    46
1040
6.579532823965968
1000
ACAD_MTEXT_DEFINED_HEIGHT_END
  0
MTEXT
  5
A78
102
{ACAD_XDICTIONARY
360
1660
102
}
330
2
100
AcDbEntity
  8
图框
 62
     3
100
AcDbMText
 10
893.3399159156001
 20
194.8401394439884
 30
0.0
 40
2.0
 41
16.2084694775381
 71
     5
 72
     5
  1
19.10.2018
  7
Romans字体
 73
     1
 44
1.0
1001
AcDbBlockRepETag
1070
     1
1071
        0
1005
A78
1001
ACAD
1000
MTEXTBEGIN
1070
    73
1070
     1
1070
    44
1040
1.0
1070
    74
1070
     0
1000
MTEXTEND
1000
ACAD_MTEXT_DEFINED_HEIGHT_BEGIN
1070
    46
1040
6.579532823965968
1000
ACAD_MTEXT_DEFINED_HEIGHT_END
  0
MTEXT
  5
A80
102
{ACAD_XDICTIONARY
360
1662
102
}
330
2
100
AcDbEntity
  8
图框
 62
     3
100
AcDbMText
 10
932.0467607657663
 20
189.4270082942817
 30
0.0
 40
2.0
 41
16.2084694775381
 71
     5
 72
     5
  1
19.10.2018
  7
Romans字体
 73
     1
 44
1.0
1001
AcDbBlockRepETag
1070
     1
1071
        0
1005
A80
1001
ACAD
1000
MTEXTBEGIN
1070
    73
1070
     1
1070
    44
1040
1.0
1070
    74
1070
     0
1000
MTEXTEND
1000
ACAD_MTEXT_DEFINED_HEIGHT_BEGIN
1070
    46
1040
6.579532823965968
1000
ACAD_MTEXT_DEFINED_HEIGHT_END
  0
MTEXT
  5
A88
102
{ACAD_XDICTIONARY
360
1664
102
}
330
2
100
AcDbEntity
  8
图框
 62
     3
100
AcDbMText
 10
918.5037927155361
 20
189.4270082942817
 30
0.0
 40
2.0
 41
16.2084694775381
 71
     5
 72
     5
  1
HQ ZHANG
  7
Romans字体
 73
     1
 44
1.0
1001
AcDbBlockRepETag
1070
     1
1071
        0
1005
A88
1001
ACAD
1000
MTEXTBEGIN
1070
    73
1070
     1
1070
    44
1040
1.0
1070
    74
1070
     0
1000
MTEXTEND
1000
ACAD_MTEXT_DEFINED_HEIGHT_BEGIN
1070
    46
1040
6.579532823965968
1000
ACAD_MTEXT_DEFINED_HEIGHT_END
  0
DIMENSION
  5
F2E
330
2
100
AcDbEntity
  8
DIM
100
AcDbDimension
  2
*D5
 10
936.7426409067723
 20
269.2136240137739
 30
0.0
 11
872.4168154400445
 21
269.2136240137739
 31
0.0
 70
   160
  1
{\H2.5x;126.5}
 71
     5
 42
126.5000000028037
  3
01
100
AcDbAlignedDimension
 13
810.2426409039685
 23
294.8128259207244
 33
0.0
 14
936.7426409067723
 24
293.0128259209707
 34
0.0
100
AcDbRotatedDimension
  0
LINE
  5
F37
330
2
100
AcDbEntity
  8
0
100
AcDbLine
 10
888.2426409067758
 20
300.0128259209361
 30
0.0
 11
835.7426409064045
 21
300.0128259209361
 31
0.0
  0
LINE
  5
F38
330
2
100
AcDbEntity
  8
0
100
AcDbLine
 10
897.7226409067826
 20
299.0128259212126
 30
0.0
 11
889.7426409067762
 21
299.012825921214
 31
0.0
  0
LINE
  5
F3E
330
2
100
AcDbEntity
  8
0
100
AcDbLine
 10
897.7226409067826
 20
290.0128259202231
 30
0.0
 11
889.742640906776
 21
290.0128259202244
 31
0.0
  0
LINE
  5
F40
330
2
100
AcDbEntity
  8
0
100
AcDbLine
 10
888.2426409067758
 20
289.0128259204849
 30
0.0
 11
835.7426409064045
 21
289.012825920485
 31
0.0
  0
LINE
  5
F42
330
2
100
AcDbEntity
  8
0
100
AcDbLine
 10
888.2426409067758
 20
289.0128259204849
 30
0.0
 11
888.2426409067758
 21
300.0128259209361
 31
0.0
  0
LINE
  5
F44
330
2
100
AcDbEntity
  8
0
100
AcDbLine
 10
899.2426409071725
 20
291.5328259206201
 30
0.0
 11
899.2426409071725
 21
297.4928259208302
 31
0.0
  0
ARC
  5
F45
330
2
100
AcDbEntity
  8
0
100
AcDbCircle
 10
897.7226409067826
 20
291.5328259206201
 30
0.0
 40
1.520000000379998
100
AcDbArc
 50
270.0
 51
0.0
  0
ARC
  5
F46
330
2
100
AcDbEntity
  8
0
100
AcDbCircle
 10
897.7226409067826
 20
297.4928259208302
 30
0.0
 40
1.520000000379998
100
AcDbArc
 50
0.0
 51
90.0
  0
LINE
  5
1087
330
2
100
AcDbEntity
  8
0
100
AcDbLine
 10
910.9734666954718
 20
296.7628259216126
 30
0.0
 11
899.2426409071724
 21
296.7628259216126
 31
0.0
  0
LINE
  5
1088
102
{ACAD_REACTORS
330
1376
102
}
330
2
100
AcDbEntity
  8
0
100
AcDbLine
 10
936.7426409067682
 20
296.0128259204484
 30
0.0
 11
914.2426409066084
 21
296.0128259204484
 31
0.0
  0
LINE
  5
108B
102
{ACAD_REACTORS
330
1376
102
}
330
2
100
AcDbEntity
  8
0
100
AcDbLine
 10
936.7426409067682
 20
293.0128259209723
 30
0.0
 11
914.2426409066084
 21
293.0128259209705
 31
0.0
  0
LINE
  5
108C
330
2
100
AcDbEntity
  8
0
100
AcDbLine
 10
910.9734666954718
 20
292.2628259198372
 30
0.0
 11
899.2426409071724
 21
292.2628259198362
 31
0.0
  0
LINE
  5
108E
102
{ACAD_REACTORS
330
1376
102
}
330
2
100
AcDbEntity
  8
0
100
AcDbLine
 10
936.7426409067682
 20
293.0128259209723
 30
0.0
 11
936.7426409067682
 21
296.0128259204484
 31
0.0
  0
ARC
  5
108F
330
2
100
AcDbEntity
  8
0
100
AcDbCircle
 10
910.9734666954718
 20
295.2628259198355
 30
0.0
 40
3.0
100
AcDbArc
 50
270.0
 51
295.8419327908942
  0
ARC
  5
1090
330
2
100
AcDbEntity
  8
0
100
AcDbCircle
 10
914.2426409066084
 20
288.5128259209723
 30
0.0
 40
4.5
100
AcDbArc
 50
90.0
 51
115.8419327908942
  0
ARC
  5
1091
330
2
100
AcDbEntity
  8
0
100
AcDbCircle
 10
910.9734666954718
 20
293.7628259215799
 30
0.0
 40
2.999999999999998
100
AcDbArc
 50
64.15806720915263
 51
90.0
  0
ARC
  5
1092
330
2
100
AcDbEntity
  8
0
100
AcDbCircle
 10
914.2426409066084
 20
300.512825920443
 30
0.0
 40
4.499999999999999
100
AcDbArc
 50
244.1580672091058
 51
270.0
  0
ARC
  5
109E
330
2
100
AcDbEntity
  8
0
100
AcDbCircle
 10
817.742640905204
 20
294.5128259207267
 30
0.0
 40
7.500000001239999
100
AcDbArc
 50
132.8334280739329
 51
227.1665719264316
  0
LINE
  5
10EB
330
2
100
AcDbEntity
  8
0
100
AcDbLine
 10
835.7426409064045
 20
300.0128259209361
 30
0.0
 11
835.742640906403
 21
289.012825920485
 31
0.0
  0
LINE
  5
10EF
330
2
100
AcDbEntity
  8
0
100
AcDbLine
 10
835.2426409064046
 20
300.0128259209361
 30
0.0
 11
812.6436213900131
 21
300.0128259209361
 31
0.0
  0
LINE
  5
10F0
330
2
100
AcDbEntity
  8
0
100
AcDbLine
 10
835.2426409064046
 20
289.012825920485
 30
0.0
 11
812.6436213900483
 21
289.012825920485
 31
0.0
  0
LINE
  5
10F1
330
2
100
AcDbEntity
  8
0
100
AcDbLine
 10
835.2426409064046
 20
300.0128259209361
 30
0.0
 11
835.2426409064046
 21
289.012825920485
 31
0.0
  0
LINE
  5
10F4
330
2
100
AcDbEntity
  8
0
100
AcDbLine
 10
835.7426409064043
 20
299.5128259209361
 30
0.0
 11
835.2426409064046
 21
299.512825920936
 31
0.0
  0
LINE
  5
10F5
330
2
100
AcDbEntity
  8
0
100
AcDbLine
 10
835.742640906403
 20
289.512825920485
 30
0.0
 11
835.2426409064046
 21
289.512825920485
 31
0.0
  0
DIMENSION
  5
10F6
330
2
100
AcDbEntity
  8
0
100
AcDbDimension
  2
*D6
 10
946.2662779281703
 20
293.0128259209723
 30
0.0
 11
946.2662779281698
 21
284.91710433107
 31
0.0
 70
   160
  1
{\H2.5x;%%C<>}
 71
     5
 42
2.999999999476131
  3
01
100
AcDbAlignedDimension
 13
936.7426409067682
 23
296.0128259204484
 33
0.0
 14
936.7426409067686
 24
293.0128259209723
 34
0.0
 50
90.0
100
AcDbRotatedDimension
  0
DIMENSION
  5
1104
330
2
100
AcDbEntity
  8
0
100
AcDbDimension
  2
*D7
 10
801.3267461677823
 20
289.012825920485
 30
0.0
 11
801.3267461677823
 21
293.9588084636318
 31
0.0
 70
   160
  1
{\H2.5x;%%C<>}
 71
     5
 42
11.00000000045111
  3
01
100
AcDbAlignedDimension
 13
812.6436213900131
 23
300.0128259209361
 33
0.0
 14
812.6436213900483
 24
289.012825920485
 34
0.0
 50
90.0
100
AcDbRotatedDimension
  0
LINE
  5
11D8
330
2
100
AcDbEntity
  8
0
100
AcDbLine
 10
812.6436213900131
 20
300.0128259209361
 30
0.0
 11
812.6436213900483
 21
289.012825920485
 31
0.0
  0
LINE
  5
11E0
330
2
100
AcDbEntity
  8
0
100
AcDbLine
 10
910.9734666954718
 20
296.7628259215798
 30
0.0
 11
910.9734666954718
 21
292.2628259198372
 31
0.0
  0
LINE
  5
11E1
330
2
100
AcDbEntity
  8
0
100
AcDbLine
 10
914.2426409066084
 20
296.012825920443
 30
0.0
 11
914.2426409066084
 21
293.0128259209723
 31
0.0
  0
LINE
  5
11E2
330
2
100
AcDbEntity
  8
0
100
AcDbLine
 10
889.2426409067757
 20
298.7128259212141
 30
0.0
 11
888.2426409067758
 21
298.7128259212143
 31
0.0
  0
LINE
  5
11E3
330
2
100
AcDbEntity
  8
0
100
AcDbLine
 10
889.2426409067757
 20
290.3128259202246
 30
0.0
 11
888.2426409067761
 21
290.3128259202248
 31
0.0
  0
LINE
  5
11E5
330
2
100
AcDbEntity
  8
0
100
AcDbLine
 10
889.2426409067757
 20
290.3128259202246
 30
0.0
 11
889.2426409067757
 21
298.7128259212141
 31
0.0
  0
LINE
  5
11E7
330
2
100
AcDbEntity
  8
0
100
AcDbLine
 10
889.2426409067761
 20
298.7128259212141
 30
0.0
 11
889.742640906776
 21
299.0128259212138
 31
0.0
  0
LINE
  5
11E8
330
2
100
AcDbEntity
  8
0
100
AcDbLine
 10
889.2426409067761
 20
290.3128259202246
 30
0.0
 11
889.742640906776
 21
290.0128259202244
 31
0.0
  0
SPLINE
  5
1315
102
{ACAD_REACTORS
330
1376
102
}
330
2
100
AcDbEntity
  8
0
100
AcDbSpline
210
0.0
220
0.0
230
1.0
 70
     8
 71
     3
 72
    10
 73
     6
 74
     4
 42
0.0000000001
 43
0.0000000001
 44
0.0000000001
 40
0.0
 40
0.0
 40
0.0
 40
0.0
 40
2.169224584678718
 40
3.708520505269327
 40
5.677377530191822
 40
5.677377530191822
 40
5.677377530191822
 40
5.677377530191822
 10
920.4423934691169
 20
296.6267881869196
 30
0.0
 10
919.5746215076145
 20
296.2110134583385
 30
0.0
 10
918.0910728995732
 20
295.5002022692128
 30
0.0
 10
920.0094073150637
 20
293.7824044572122
 30
0.0
 10
919.4243295713858
 20
292.6224920086009
 30
0.0
 10
919.0959703340157
 20
291.9715221654347
 30
0.0
 11
920.4423934691169
 21
296.6267881869196
 31
0.0
 11
918.7753943720704
 21
295.2387502518398
 31
0.0
 11
919.523406412418
 21
293.8934213260221
 31
0.0
 11
919.0959703340157
 21
291.9715221654347
 31
0.0
  0
LINE
  5
131C
330
2
100
AcDbEntity
  8
CEN
100
AcDbLine
 10
937.615677639234
 20
294.5128259207104
 30
0.0
 11
808.6189969593831
 21
294.5128259207104
 31
0.0
  0
LINE
  5
1366
102
{ACAD_REACTORS
330
1376
102
}
330
2
100
AcDbEntity
  8
0
100
AcDbLine
 10
936.7426409067682
 20
295.7628259207104
 30
0.0
 11
918.9931285725336
 21
295.7628259207104
 31
0.0
  0
LINE
  5
1367
102
{ACAD_REACTORS
330
1376
102
}
330
2
100
AcDbEntity
  8
0
100
AcDbLine
 10
936.7426409067682
 20
293.2628259207104
 30
0.0
 11
919.587278087136
 21
293.2628259207104
 31
0.0
  0
HATCH
  5
1376
330
2
100
AcDbEntity
  8
0
100
AcDbHatch
 10
0.0
 20
0.0
 30
0.0
210
0.0
220
0.0
230
1.0
  2
ANSI31
 70
     0
 71
     1
 91
        2
 92
        5
 93
        4
 72
     4
 94
        3
 73
     0
 74
     0
 95
        8
 96
        4
 40
1.040719337734451
 40
1.040719337734451
 40
1.040719337734451
 40
1.040719337734451
 40
1.432102991038053
 40
1.432102991038053
 40
1.432102991038053
 40
1.432102991038053
 10
919.2968095795192
 20
296.0128259204481
 10
919.179126039245
 20
295.9319657471268
 10
919.0760658951599
 20
295.8489079063777
 10
918.9931285725339
 20
295.7628259207104
 72
     1
 10
918.9931285725339
 20
295.7628259207104
 11
936.7426409067682
 21
295.7628259207104
 72
     1
 10
936.7426409067682
 20
295.7628259207104
 11
936.7426409067682
 21
296.0128259204484
 72
     1
 10
936.7426409067682
 20
296.0128259204484
 11
919.2968095795196
 21
296.0128259204484
 97
        4
330
1088
330
1315
330
1366
330
108E
 92
        5
 93
        4
 72
     1
 10
936.7426409067682
 20
293.0128259209724
 11
936.7426409067682
 21
293.2628259207104
 72
     1
 10
936.7426409067682
 20
293.2628259207104
 11
919.587278087136
 21
293.2628259207104
 72
     4
 94
        3
 73
     0
 74
     0
 95
        8
 96
        4
 40
4.366297207885711
 40
4.366297207885711
 40
4.366297207885711
 40
4.366297207885711
 40
4.62276567910179
 40
4.62276567910179
 40
4.62276567910179
 40
4.62276567910179
 10
919.587278087136
 20
293.2628259207104
 10
919.5767162292032
 20
293.17982013766
 10
919.5598533649175
 20
293.0964639565766
 10
919.5379220728169
 20
293.0128259209709
 72
     1
 10
919.5379220728172
 20
293.012825920971
 11
936.7426409067682
 21
293.0128259209724
 97
        4
330
1367
330
1315
330
108B
330
108E
 75
     0
 76
     1
 52
0.0
 41
5.0
 77
     0
 78
     1
 53
45.0
 43
0.0
 44
0.0
 45
-0.4419417382415923
 46
0.4419417382415923
 79
     0
 47
0.0146144861240298
 98
        2
 10
930.380896191091
 20
295.8974650629667
 10
929.868972968204
 20
293.1353269914552
1001
ACAD
1010
0.0
1020
0.0
1030
0.0
  0
DIMENSION
  5
1377
330
2
100
AcDbEntity
  8
0
100
AcDbDimension
  2
*D8
 10
942.0543431635753
 20
295.7628259207104
 30
0.0
 11
939.5543431635752
 21
303.7628259207107
 31
0.0
 70
    32
 71
     5
 42
2.500000000000055
  3
01
100
AcDbAlignedDimension
 13
936.7426409067682
 23
293.2628259207104
 33
0.0
 14
936.7426409067686
 24
295.7628259207104
 34
0.0
 50
90.0
100
AcDbRotatedDimension
1001
ACAD
1000
DSTYLE
1002
{
1070
     3
1000
%%c<>
1070
   140
1040
4.0
1002
}
  0
ENDSEC
  0
SECTION
  2
OBJECTS
  0
DICTIONARY
  5
B
330
0
100
AcDbDictionary
281
     1
  3
ACAD_COLOR
350
1EB
  3
ACAD_GROUP
350
1D8
  3
ACAD_LAYOUT
350
1B9
  3
ACAD_MATERIAL
350
D
  3
ACAD_MLEADERSTYLE
350
24C
  3
ACAD_MLINESTYLE
350
1D9
  3
ACAD_PLOTSETTINGS
350
1DA
  3
ACAD_PLOTSTYLENAME
350
A
  3
ACAD_SCALELIST
350
1EC
  3
ACAD_TABLESTYLE
350
1ED
  3
ACAD_VISUALSTYLE
350
1D2
  3
ACDB_RECOMPOSE_DATA
350
23C
  3
AcDbVariableDictionary
350
215
  3
ASE_INDEX_DICTIONARY
350
131D
  3
DWGPROPS
350
1666
  0
DICTIONARY
  5
1D3
330
1CF
100
AcDbDictionary
280
     1
281
     1
  0
DICTIONARY
  5
1C4
330
1C3
100
AcDbDictionary
280
     1
281
     1
  3
ACAD_LAYERFILTERS
360
5A2
  3
ACAD_LAYERSTATES
360
1C6
  3
ACLYDICTIONARY
360
5A1
  0
DICTIONARY
  5
7
330
6
100
AcDbDictionary
280
     1
281
     1
  3
ADSK_XREC_LAYER_RECONCILED
360
8
  0
DICTIONARY
  5
18
330
17
100
AcDbDictionary
280
     1
281
     1
  3
ADSK_XREC_LAYER_RECONCILED
360
19
  0
DICTIONARY
  5
26
330
25
100
AcDbDictionary
280
     1
281
     1
  3
ADSK_XREC_LAYER_RECONCILED
360
27
  0
DICTIONARY
  5
C1E
330
C1D
100
AcDbDictionary
280
     1
281
     1
  0
DICTIONARY
  5
3
330
2
100
AcDbDictionary
280
     1
281
     1
  3
ACAD_SORTENTS
360
214
  0
DICTIONARY
  5
25C
330
25B
100
AcDbDictionary
280
     1
281
     1
  0
DICTIONARY
  5
B84
330
B83
100
AcDbDictionary
280
     1
281
     1
  0
DICTIONARY
  5
162E
330
25E
100
AcDbDictionary
280
     1
281
     1
  3
ACAD_MTEXT_2008_RT
360
162F
  3
ACAD_MTEXT_RT
360
166E
  0
DICTIONARY
  5
1630
330
2A2
100
AcDbDictionary
280
     1
281
     1
  3
ACAD_MTEXT_2008_RT
360
1631
  3
ACAD_MTEXT_RT
360
166F
  0
DICTIONARY
  5
1632
330
2A3
100
AcDbDictionary
280
     1
281
     1
  3
ACAD_MTEXT_2008_RT
360
1633
  3
ACAD_MTEXT_RT
360
1670
  0
DICTIONARY
  5
1634
330
2C8
100
AcDbDictionary
280
     1
281
     1
  3
ACAD_MTEXT_2008_RT
360
1635
  3
ACAD_MTEXT_RT
360
1671
  0
DICTIONARY
  5
1636
330
2CB
100
AcDbDictionary
280
     1
281
     1
  3
ACAD_MTEXT_2008_RT
360
1637
  3
ACAD_MTEXT_RT
360
1672
  0
DICTIONARY
  5
1638
330
2CC
100
AcDbDictionary
280
     1
281
     1
  3
ACAD_MTEXT_2008_RT
360
1639
  3
ACAD_MTEXT_RT
360
1673
  0
DICTIONARY
  5
163A
330
2D6
100
AcDbDictionary
280
     1
281
     1
  3
ACAD_MTEXT_2008_RT
360
163B
  3
ACAD_MTEXT_RT
360
1674
  0
DICTIONARY
  5
163C
330
2D7
100
AcDbDictionary
280
     1
281
     1
  3
ACAD_MTEXT_2008_RT
360
163D
  3
ACAD_MTEXT_RT
360
1675
  0
DICTIONARY
  5
163E
330
2D8
100
AcDbDictionary
280
     1
281
     1
  3
ACAD_MTEXT_2008_RT
360
163F
  3
ACAD_MTEXT_RT
360
1676
  0
DICTIONARY
  5
1640
330
2E6
100
AcDbDictionary
280
     1
281
     1
  3
ACAD_MTEXT_2008_RT
360
1641
  3
ACAD_MTEXT_RT
360
1677
  0
DICTIONARY
  5
1642
330
2E7
100
AcDbDictionary
280
     1
281
     1
  3
ACAD_MTEXT_2008_RT
360
1643
  3
ACAD_MTEXT_RT
360
1678
  0
DICTIONARY
  5
1644
330
2E8
100
AcDbDictionary
280
     1
281
     1
  3
ACAD_MTEXT_2008_RT
360
1645
  3
ACAD_MTEXT_RT
360
1679
  0
DICTIONARY
  5
1646
330
71A
100
AcDbDictionary
280
     1
281
     1
  3
ACAD_MTEXT_2008_RT
360
1647
  3
ACAD_MTEXT_RT
360
167A
  0
DICTIONARY
  5
1648
330
75E
100
AcDbDictionary
280
     1
281
     1
  3
ACAD_MTEXT_2008_RT
360
1649
  3
ACAD_MTEXT_RT
360
167B
  0
DICTIONARY
  5
164A
330
75F
100
AcDbDictionary
280
     1
281
     1
  3
ACAD_MTEXT_2008_RT
360
164B
  3
ACAD_MTEXT_RT
360
167C
  0
DICTIONARY
  5
164C
330
784
100
AcDbDictionary
280
     1
281
     1
  3
ACAD_MTEXT_2008_RT
360
164D
  3
ACAD_MTEXT_RT
360
167D
  0
DICTIONARY
  5
164E
330
787
100
AcDbDictionary
280
     1
281
     1
  3
ACAD_MTEXT_2008_RT
360
164F
  3
ACAD_MTEXT_RT
360
167E
  0
DICTIONARY
  5
1650
330
788
100
AcDbDictionary
280
     1
281
     1
  3
ACAD_MTEXT_2008_RT
360
1651
  3
ACAD_MTEXT_RT
360
167F
  0
DICTIONARY
  5
1652
330
792
100
AcDbDictionary
280
     1
281
     1
  3
ACAD_MTEXT_2008_RT
360
1653
  3
ACAD_MTEXT_RT
360
1680
  0
DICTIONARY
  5
1654
330
793
100
AcDbDictionary
280
     1
281
     1
  3
ACAD_MTEXT_2008_RT
360
1655
  3
ACAD_MTEXT_RT
360
1681
  0
DICTIONARY
  5
1656
330
794
100
AcDbDictionary
280
     1
281
     1
  3
ACAD_MTEXT_2008_RT
360
1657
  3
ACAD_MTEXT_RT
360
1682
  0
DICTIONARY
  5
1658
330
7A2
100
AcDbDictionary
280
     1
281
     1
  3
ACAD_MTEXT_2008_RT
360
1659
  3
ACAD_MTEXT_RT
360
1683
  0
DICTIONARY
  5
165A
330
7A3
100
AcDbDictionary
280
     1
281
     1
  3
ACAD_MTEXT_2008_RT
360
165B
  3
ACAD_MTEXT_RT
360
1684
  0
DICTIONARY
  5
165C
330
7A4
100
AcDbDictionary
280
     1
281
     1
  3
ACAD_MTEXT_2008_RT
360
165D
  3
ACAD_MTEXT_RT
360
1685
  0
DICTIONARY
  5
165E
330
A70
100
AcDbDictionary
280
     1
281
     1
  3
ACAD_MTEXT_2008_RT
360
165F
  3
ACAD_MTEXT_RT
360
1686
  0
DICTIONARY
  5
1660
330
A78
100
AcDbDictionary
280
     1
281
     1
  3
ACAD_MTEXT_2008_RT
360
1661
  3
ACAD_MTEXT_RT
360
1687
  0
DICTIONARY
  5
1662
330
A80
100
AcDbDictionary
280
     1
281
     1
  3
ACAD_MTEXT_2008_RT
360
1663
  3
ACAD_MTEXT_RT
360
1688
  0
DICTIONARY
  5
1664
330
A88
100
AcDbDictionary
280
     1
281
     1
  3
ACAD_MTEXT_2008_RT
360
1665
  3
ACAD_MTEXT_RT
360
1689
  0
DICTIONARY
  5
1EB
102
{ACAD_REACTORS
330
B
102
}
330
B
100
AcDbDictionary
281
     1
  0
DICTIONARY
  5
1D8
102
{ACAD_REACTORS
330
B
102
}
330
B
100
AcDbDictionary
281
     1
  0
DICTIONARY
  5
1B9
102
{ACAD_REACTORS
330
B
102
}
330
B
100
AcDbDictionary
281
     1
  3
Layout1
350
1BE
  3
Layout2
350
1C2
  3
Model
350
1B8
  0
DICTIONARY
  5
D
102
{ACAD_REACTORS
330
B
102
}
330
B
100
AcDbDictionary
281
     1
  3
ByBlock
350
1E3
  3
ByLayer
350
1DB
  3
Global
350
C
  0
DICTIONARY
  5
24C
102
{ACAD_REACTORS
330
B
102
}
330
B
100
AcDbDictionary
281
     1
  3
Standard
350
24D
  0
DICTIONARY
  5
1D9
102
{ACAD_REACTORS
330
B
102
}
330
B
100
AcDbDictionary
281
     1
  3
Standard
350
1EE
  0
DICTIONARY
  5
1DA
102
{ACAD_REACTORS
330
B
102
}
330
B
100
AcDbDictionary
281
     1
  0
ACDBDICTIONARYWDFLT
  5
A
102
{ACAD_REACTORS
330
B
102
}
330
B
100
AcDbDictionary
281
     1
  3
Normal
350
9
  3
Style 1
350
C27
100
AcDbDictionaryWithDefault
340
9
  0
DICTIONARY
  5
1EC
102
{ACAD_REACTORS
330
B
102
}
330
B
100
AcDbDictionary
281
     1
  3
A0
350
1F3
  3
A1
350
1F4
  3
A2
350
1F5
  3
A3
350
1F6
  3
A4
350
1F7
  3
A5
350
1F8
  3
A6
350
1F9
  3
A7
350
1FA
  3
A8
350
1FB
  3
A9
350
1FC
  3
B0
350
1FD
  3
B1
350
1FE
  3
B2
350
1FF
  3
B3
350
200
  3
B4
350
201
  3
B5
350
202
  3
B6
350
203
  3
B7
350
204
  3
B8
350
205
  3
B9
350
206
  3
C0
350
207
  3
C1
350
208
  3
C2
350
209
  3
C3
350
20A
  3
C4
350
20B
  3
C5
350
20C
  3
C6
350
20D
  3
C7
350
20E
  3
C8
350
20F
  3
C9
350
210
  3
D0
350
211
  3
D1
350
212
  3
D2
350
213
  0
DICTIONARY
  5
1ED
102
{ACAD_REACTORS
330
B
102
}
330
B
100
AcDbDictionary
281
     1
  3
Standard
350
1EF
  0
DICTIONARY
  5
1D2
102
{ACAD_REACTORS
330
B
102
}
330
B
100
AcDbDictionary
281
     1
  3
2dWireframe
350
1D1
  3
3D Hidden
350
244
  3
3dWireframe
350
1F2
  3
Basic
350
243
  3
Brighten
350
247
  3
ColorChange
350
24B
  3
Conceptual
350
245
  3
Dim
350
246
  3
Facepattern
350
24A
  3
Flat
350
23F
  3
FlatWithEdges
350
240
  3
Gouraud
350
241
  3
GouraudWithEdges
350
242
  3
Linepattern
350
249
  3
Realistic
350
1F1
  3
Thicken
350
248
  0
XRECORD
  5
23C
102
{ACAD_REACTORS
330
B
102
}
330
B
100
AcDbXrecord
280
     1
 90
        1
330
1EF
330
25E
330
2A2
330
2A3
330
2C8
330
2CB
330
2CC
330
2D6
330
2D7
330
2D8
330
2E6
330
2E7
330
2E8
330
71A
330
75E
330
75F
330
784
330
787
330
788
330
792
330
793
330
794
330
7A2
330
7A3
330
7A4
330
A70
330
A78
330
A80
330
A88
  0
DICTIONARY
  5
215
102
{ACAD_REACTORS
330
B
102
}
330
B
100
AcDbDictionary
281
     1
  3
CANNOSCALE
350
218
  3
CMLEADERSTYLE
350
217
  3
CTABLESTYLE
350
216
  3
DIMASSOC
350
518
  3
HIDETEXT
350
517
  3
INDEXCTL
350
516
  3
LIGHTINGUNITS
350
219
  3
LOFTANG1
350
15C6
  3
LOFTANG2
350
15C7
  3
MSLTSCALE
350
514
  3
SORTENTS
350
515
  0
DICTIONARY
  5
131D
102
{ACAD_REACTORS
330
B
102
}
330
B
100
AcDbDictionary
281
     1
  3
ASEBlockHierarchyIndexRecord
350
131E
1001
DCO15
1040
1965199471.979
  0
XRECORD
  5
1666
102
{ACAD_REACTORS
330
B
102
}
330
B
100
AcDbXrecord
280
     1
  1
DWGPROPS COOKIE
  2

  3

  4

  6

  7

  8
13188
  9

300
=
301
=
302
=
303
=
304
=
305
=
306
=
307
=
308
=
309
=
 40
1.239633506944444
 41
2456524.383632987
 42
2460339.799788565
  1

 90
        0
  0
DICTIONARY
  5
5A2
102
{ACAD_REACTORS
330
1C4
102
}
330
1C4
100
AcDbDictionary
281
     1
  0
DICTIONARY
  5
1C6
102
{ACAD_REACTORS
330
1C4
102
}
330
1C4
100
AcDbDictionary
281
     1
  0
DICTIONARY
  5
5A1
102
{ACAD_REACTORS
330
1C4
102
}
330
1C4
100
AcDbDictionary
281
     1
1001
ACAD
1000
<All
  0
XRECORD
  5
8
102
{ACAD_REACTORS
330
7
102
}
330
7
100
AcDbXrecord
280
     1
290
     1
  0
XRECORD
  5
19
102
{ACAD_REACTORS
330
18
102
}
330
18
100
AcDbXrecord
280
     1
290
     1
  0
XRECORD
  5
27
102
{ACAD_REACTORS
330
26
102
}
330
26
100
AcDbXrecord
280
     1
290
     1
  0
SORTENTSTABLE
  5
214
102
{ACAD_REACTORS
330
3
102
}
330
3
100
AcDbSortentsTable
330
2
331
75B
  5
758
331
763
  5
760
331
11D8
  5
11E7
331
724
  5
721
331
788
  5
785
331
76B
  5
768
331
72C
  5
729
331
1315
  5
131C
331
790
  5
78D
331
1E
  5
1E
331
734
  5
731
331
773
  5
770
331
F46
  5
1096
331
108E
  5
11D9
331
798
  5
795
331
73C
  5
739
331
77B
  5
778
331
783
  5
780
331
744
  5
741
331
74C
  5
749
331
7A0
  5
79D
331
754
  5
751
331
109E
  5
11DD
331
7A8
  5
7A5
331
F37
  5
F37
331
75C
  5
759
331
725
  5
722
331
764
  5
761
331
10F4
  5
F3E
331
789
  5
786
331
72D
  5
72A
331
76C
  5
769
331
A70
  5
A70
331
A78
  5
A78
331
1104
  5
11E3
331
791
  5
78E
331
774
  5
771
331
735
  5
732
331
1F
  5
1F
331
A80
  5
A80
331
1087
  5
10A1
331
1366
  5
1368
331
799
  5
796
331
108F
  5
10A2
331
77C
  5
779
331
73D
  5
73A
331
745
  5
742
331
784
  5
781
331
74D
  5
74A
331
71A
  5
486
331
7A1
  5
79E
331
A88
  5
A88
331
755
  5
752
331
F38
  5
F3F
331
10EF
  5
F38
331
7A9
  5
7A6
331
11E7
  5
11EA
331
75D
  5
75A
331
765
  5
762
331
726
  5
723
331
10F5
  5
1084
331
78A
  5
787
331
72E
  5
72B
331
76D
  5
76A
331
16
  5
16
331
F40
  5
F53
331
792
  5
78F
331
20
  5
20
331
736
  5
733
331
775
  5
772
331
1088
  5
10F6
331
1090
  5
10EB
331
79A
  5
797
331
73E
  5
73B
331
77D
  5
77A
331
785
  5
782
331
746
  5
743
331
483
  5
483
331
71B
  5
487
331
7A2
  5
79F
331
74E
  5
74B
331
756
  5
753
331
11E0
  5
11E8
331
7AA
  5
7A7
331
F2E
  5
F2E
331
11E8
  5
1315
331
75E
  5
75B
331
727
  5
724
331
766
  5
763
331
10F6
  5
11E2
331
78B
  5
788
331
72F
  5
72C
331
76E
  5
76B
331
793
  5
790
331
776
  5
773
331
737
  5
734
331
21
  5
21
331
1376
  5
10F5
331
1091
  5
10F2
331
79B
  5
798
331
73F
  5
73C
331
77E
  5
77B
331
484
  5
484
331
747
  5
744
331
786
  5
783
331
74F
  5
74C
331
71C
  5
597
331
7A3
  5
7A0
331
757
  5
754
331
7AB
  5
7A8
331
11E1
  5
11E9
331
720
  5
71D
331
75F
  5
75C
331
767
  5
764
331
728
  5
725
331
78C
  5
789
331
1A
  5
1A
331
730
  5
72D
331
76F
  5
76C
331
F42
  5
1085
331
794
  5
791
331
22
  5
22
331
777
  5
774
331
1092
  5
10F4
331
79C
  5
799
331
738
  5
735
331
740
  5
73D
331
77F
  5
77C
331
787
  5
784
331
748
  5
745
331
7A4
  5
7A1
331
750
  5
74D
331
71D
  5
71A
331
11E2
  5
F41
331
7AC
  5
7A9
331
758
  5
755
331
721
  5
71E
331
760
  5
75D
331
10F0
  5
1082
331
729
  5
726
331
768
  5
765
331
78D
  5
78A
331
1B
  5
1B
331
731
  5
72E
331
770
  5
76D
331
795
  5
792
331
23
  5
23
331
108B
  5
1104
331
79D
  5
79A
331
778
  5
775
331
739
  5
736
331
741
  5
73E
331
780
  5
77D
331
749
  5
746
331
486
  5
7AC
331
751
  5
74E
331
71E
  5
71B
331
7A5
  5
7A2
331
10EB
  5
11E0
331
7AD
  5
7AA
331
11E3
  5
F52
331
85D
  5
85D
331
759
  5
756
331
761
  5
75E
331
722
  5
71F
331
769
  5
766
331
72A
  5
727
331
10F1
  5
11E1
331
78E
  5
78B
331
1C
  5
1C
331
732
  5
72F
331
771
  5
76E
331
F44
  5
1092
331
796
  5
793
331
108C
  5
11D8
331
79E
  5
79B
331
73A
  5
737
331
779
  5
776
331
742
  5
73F
331
781
  5
77E
331
74A
  5
747
331
487
  5
7AD
331
752
  5
74F
331
71F
  5
71C
331
7A6
  5
7A3
331
7AE
  5
7AB
331
75A
  5
757
331
723
  5
720
331
762
  5
75F
331
72B
  5
728
331
76A
  5
767
331
F45
  5
1093
331
78F
  5
78C
331
772
  5
76F
331
733
  5
730
331
1D
  5
1D
331
131C
  5
1366
331
797
  5
794
331
79F
  5
79C
331
77A
  5
777
331
73B
  5
738
331
743
  5
740
331
782
  5
77F
331
74B
  5
748
331
753
  5
750
331
7A7
  5
7A4
331
F3E
  5
F45
331
11E5
  5
1086
  0
XRECORD
  5
162F
102
{ACAD_REACTORS
330
162E
102
}
330
162E
100
AcDbXrecord
280
     1
 40
1527.0
  1
\pxqc;BQ LUO
  0
XRECORD
  5
166E
102
{ACAD_REACTORS
330
162E
102
}
330
162E
100
AcDbXrecord
280
     1
 40
1527.0
  1
\pxqc;BQ LUO
  0
XRECORD
  5
1631
102
{ACAD_REACTORS
330
1630
102
}
330
1630
100
AcDbXrecord
280
     1
 40
1262561.0
  1
\pxqc;档案员{\H0.7x;\P\Fromans|c134;Filing Clerk\fFangSong_GB2312|b0|i0|c134|p49; }
  0
XRECORD
  5
166F
102
{ACAD_REACTORS
330
1630
102
}
330
1630
100
AcDbXrecord
280
     1
 40
448513.0
  1
\pxqc;档案员{\H0.7x;\P\Fromans|c134;Filing Clerk\fFangSong_GB2312|b0|i0|c134|p49; }
  0
XRECORD
  5
1633
102
{ACAD_REACTORS
330
1632
102
}
330
1632
100
AcDbXrecord
280
     1
 40
650528.0
  1
\pxqc;日期{\Fromans|c134;/Date}
  0
XRECORD
  5
1670
102
{ACAD_REACTORS
330
1632
102
}
330
1632
100
AcDbXrecord
280
     1
 40
58584.0
  1
\pxqc;日期{\Fromans|c134;/Date}
  0
XRECORD
  5
1635
102
{ACAD_REACTORS
330
1634
102
}
330
1634
100
AcDbXrecord
280
     1
 40
1836818.0
  1
\pxsm0.7;{\fFangSong_GB2312|b0|i0|c134|p49;标准化}\PStand.
  0
XRECORD
  5
1671
102
{ACAD_REACTORS
330
1634
102
}
330
1634
100
AcDbXrecord
280
     1
 40
45027.0
  1
\pxsm0.7;{\fFangSong_GB2312|b0|i0|c134|p49;标准化}\PStand.
  0
XRECORD
  5
1637
102
{ACAD_REACTORS
330
1636
102
}
330
1636
100
AcDbXrecord
280
     1
 40
118135.0
  1
\pxsm0.7;签名\P{\Fromans|c134;Signature} 
  0
XRECORD
  5
1672
102
{ACAD_REACTORS
330
1636
102
}
330
1636
100
AcDbXrecord
280
     1
 40
48353.0
  1
\pxsm0.7;签名\P{\Fromans|c134;Signature} 
  0
XRECORD
  5
1639
102
{ACAD_REACTORS
330
1638
102
}
330
1638
100
AcDbXrecord
280
     1
 40
108939.0
  1
\pxsm0.7,qc;处数\P{\Fromans|c134;Number }
  0
XRECORD
  5
1673
102
{ACAD_REACTORS
330
1638
102
}
330
1638
100
AcDbXrecord
280
     1
 40
38427.0
  1
\pxsm0.7,qc;处数\P{\Fromans|c134;Number }
  0
XRECORD
  5
163B
102
{ACAD_REACTORS
330
163A
102
}
330
163A
100
AcDbXrecord
280
     1
 40
125762.0
  1
\pxsm0.7;标记\P{\Fromans|c134;Mark}
  0
XRECORD
  5
1674
102
{ACAD_REACTORS
330
163A
102
}
330
163A
100
AcDbXrecord
280
     1
 40
31190.0
  1
\pxsm0.7;标记\P{\Fromans|c134;Mark}
  0
XRECORD
  5
163D
102
{ACAD_REACTORS
330
163C
102
}
330
163C
100
AcDbXrecord
280
     1
 40
111973.0
  1
\pxsm0.7;审核\P{\Fromans|c134;Checked}
  0
XRECORD
  5
1675
102
{ACAD_REACTORS
330
163C
102
}
330
163C
100
AcDbXrecord
280
     1
 40
39355.0
  1
\pxsm0.7;审核\P{\Fromans|c134;Checked}
  0
XRECORD
  5
163F
102
{ACAD_REACTORS
330
163E
102
}
330
163E
100
AcDbXrecord
280
     1
 40
137968.0
  1
\pxsm0.7;绘图\P{\Fromans|c134;Drawn\Ftxt|c134; }
  0
XRECORD
  5
1676
102
{ACAD_REACTORS
330
163E
102
}
330
163E
100
AcDbXrecord
280
     1
 40
66730.0
  1
\pxsm0.7;绘图\P{\Fromans|c134;Drawn\Ftxt|c134; }
  0
XRECORD
  5
1641
102
{ACAD_REACTORS
330
1640
102
}
330
1640
100
AcDbXrecord
280
     1
 40
106320.0
  1
\pxsm0.7;批准\P{\Fromans|c134;Approved}
  0
XRECORD
  5
1677
102
{ACAD_REACTORS
330
1640
102
}
330
1640
100
AcDbXrecord
280
     1
 40
43787.0
  1
\pxsm0.7;批准\P{\Fromans|c134;Approved}
  0
XRECORD
  5
1643
102
{ACAD_REACTORS
330
1642
102
}
330
1642
100
AcDbXrecord
280
     1
 40
127283.0
  1
\pxsm0.7;工艺\P{\Fromans|c134;Process}
  0
XRECORD
  5
1678
102
{ACAD_REACTORS
330
1642
102
}
330
1642
100
AcDbXrecord
280
     1
 40
40691.0
  1
\pxsm0.7;工艺\P{\Fromans|c134;Process}
  0
XRECORD
  5
1645
102
{ACAD_REACTORS
330
1644
102
}
330
1644
100
AcDbXrecord
280
     1
 40
106220.0
  1
\pxsm0.7;日期\P{\Fromans|c134;Date}
  0
XRECORD
  5
1679
102
{ACAD_REACTORS
330
1644
102
}
330
1644
100
AcDbXrecord
280
     1
 40
30977.0
  1
\pxsm0.7;日期\P{\Fromans|c134;Date}
  0
XRECORD
  5
1647
102
{ACAD_REACTORS
330
1646
102
}
330
1646
100
AcDbXrecord
280
     1
 40
1490.0
  1
\pxqc;CH GUO
  0
XRECORD
  5
167A
102
{ACAD_REACTORS
330
1646
102
}
330
1646
100
AcDbXrecord
280
     1
 40
1490.0
  1
\pxqc;CH GUO
  0
XRECORD
  5
1649
102
{ACAD_REACTORS
330
1648
102
}
330
1648
100
AcDbXrecord
280
     1
 40
1262564.0
  1
\pxqc;档案员{\H0.7x;\P\Fromans|c134;Filing Clerk\fFangSong_GB2312|b0|i0|c134|p49; }
  0
XRECORD
  5
167B
102
{ACAD_REACTORS
330
1648
102
}
330
1648
100
AcDbXrecord
280
     1
 40
448513.0
  1
\pxqc;档案员{\H0.7x;\P\Fromans|c134;Filing Clerk\fFangSong_GB2312|b0|i0|c134|p49; }
  0
XRECORD
  5
164B
102
{ACAD_REACTORS
330
164A
102
}
330
164A
100
AcDbXrecord
280
     1
 40
705433.0
  1
\pxqc;日期{\Fromans|c134;/Date}
  0
XRECORD
  5
167C
102
{ACAD_REACTORS
330
164A
102
}
330
164A
100
AcDbXrecord
280
     1
 40
58584.0
  1
\pxqc;日期{\Fromans|c134;/Date}
  0
XRECORD
  5
164D
102
{ACAD_REACTORS
330
164C
102
}
330
164C
100
AcDbXrecord
280
     1
 40
1836818.0
  1
\pxsm0.7;{\fFangSong_GB2312|b0|i0|c134|p49;标准化}\PStand.
  0
XRECORD
  5
167D
102
{ACAD_REACTORS
330
164C
102
}
330
164C
100
AcDbXrecord
280
     1
 40
45027.0
  1
\pxsm0.7;{\fFangSong_GB2312|b0|i0|c134|p49;标准化}\PStand.
  0
XRECORD
  5
164F
102
{ACAD_REACTORS
330
164E
102
}
330
164E
100
AcDbXrecord
280
     1
 40
118135.0
  1
\pxsm0.7;签名\P{\Fromans|c134;Signature} 
  0
XRECORD
  5
167E
102
{ACAD_REACTORS
330
164E
102
}
330
164E
100
AcDbXrecord
280
     1
 40
48353.0
  1
\pxsm0.7;签名\P{\Fromans|c134;Signature} 
  0
XRECORD
  5
1651
102
{ACAD_REACTORS
330
1650
102
}
330
1650
100
AcDbXrecord
280
     1
 40
108939.0
  1
\pxsm0.7,qc;处数\P{\Fromans|c134;Number }
  0
XRECORD
  5
167F
102
{ACAD_REACTORS
330
1650
102
}
330
1650
100
AcDbXrecord
280
     1
 40
38427.0
  1
\pxsm0.7,qc;处数\P{\Fromans|c134;Number }
  0
XRECORD
  5
1653
102
{ACAD_REACTORS
330
1652
102
}
330
1652
100
AcDbXrecord
280
     1
 40
125762.0
  1
\pxsm0.7;标记\P{\Fromans|c134;Mark}
  0
XRECORD
  5
1680
102
{ACAD_REACTORS
330
1652
102
}
330
1652
100
AcDbXrecord
280
     1
 40
31190.0
  1
\pxsm0.7;标记\P{\Fromans|c134;Mark}
  0
XRECORD
  5
1655
102
{ACAD_REACTORS
330
1654
102
}
330
1654
100
AcDbXrecord
280
     1
 40
111973.0
  1
\pxsm0.7;审核\P{\Fromans|c134;Checked}
  0
XRECORD
  5
1681
102
{ACAD_REACTORS
330
1654
102
}
330
1654
100
AcDbXrecord
280
     1
 40
39355.0
  1
\pxsm0.7;审核\P{\Fromans|c134;Checked}
  0
XRECORD
  5
1657
102
{ACAD_REACTORS
330
1656
102
}
330
1656
100
AcDbXrecord
280
     1
 40
137968.0
  1
\pxsm0.7;绘图\P{\Fromans|c134;Drawn\Ftxt|c134; }
  0
XRECORD
  5
1682
102
{ACAD_REACTORS
330
1656
102
}
330
1656
100
AcDbXrecord
280
     1
 40
66730.0
  1
\pxsm0.7;绘图\P{\Fromans|c134;Drawn\Ftxt|c134; }
  0
XRECORD
  5
1659
102
{ACAD_REACTORS
330
1658
102
}
330
1658
100
AcDbXrecord
280
     1
 40
106320.0
  1
\pxsm0.7;批准\P{\Fromans|c134;Approved}
  0
XRECORD
  5
1683
102
{ACAD_REACTORS
330
1658
102
}
330
1658
100
AcDbXrecord
280
     1
 40
43787.0
  1
\pxsm0.7;批准\P{\Fromans|c134;Approved}
  0
XRECORD
  5
165B
102
{ACAD_REACTORS
330
165A
102
}
330
165A
100
AcDbXrecord
280
     1
 40
127283.0
  1
\pxsm0.7;工艺\P{\Fromans|c134;Process}
  0
XRECORD
  5
1684
102
{ACAD_REACTORS
330
165A
102
}
330
165A
100
AcDbXrecord
280
     1
 40
40691.0
  1
\pxsm0.7;工艺\P{\Fromans|c134;Process}
  0
XRECORD
  5
165D
102
{ACAD_REACTORS
330
165C
102
}
330
165C
100
AcDbXrecord
280
     1
 40
106220.0
  1
\pxsm0.7;日期\P{\Fromans|c134;Date}
  0
XRECORD
  5
1685
102
{ACAD_REACTORS
330
165C
102
}
330
165C
100
AcDbXrecord
280
     1
 40
30977.0
  1
\pxsm0.7;日期\P{\Fromans|c134;Date}
  0
XRECORD
  5
165F
102
{ACAD_REACTORS
330
165E
102
}
330
165E
100
AcDbXrecord
280
     1
 40
2748.0
  1
\pxqc;19.10.2018
  0
XRECORD
  5
1686
102
{ACAD_REACTORS
330
165E
102
}
330
165E
100
AcDbXrecord
280
     1
 40
2748.0
  1
\pxqc;19.10.2018
  0
XRECORD
  5
1661
102
{ACAD_REACTORS
330
1660
102
}
330
1660
100
AcDbXrecord
280
     1
 40
2748.0
  1
\pxqc;19.10.2018
  0
XRECORD
  5
1687
102
{ACAD_REACTORS
330
1660
102
}
330
1660
100
AcDbXrecord
280
     1
 40
2748.0
  1
\pxqc;19.10.2018
  0
XRECORD
  5
1663
102
{ACAD_REACTORS
330
1662
102
}
330
1662
100
AcDbXrecord
280
     1
 40
2748.0
  1
\pxqc;19.10.2018
  0
XRECORD
  5
1688
102
{ACAD_REACTORS
330
1662
102
}
330
1662
100
AcDbXrecord
280
     1
 40
2748.0
  1
\pxqc;19.10.2018
  0
XRECORD
  5
1665
102
{ACAD_REACTORS
330
1664
102
}
330
1664
100
AcDbXrecord
280
     1
 40
2554.0
  1
\pxqc;HQ ZHANG
  0
XRECORD
  5
1689
102
{ACAD_REACTORS
330
1664
102
}
330
1664
100
AcDbXrecord
280
     1
 40
2554.0
  1
\pxqc;HQ ZHANG
  0
LAYOUT
  5
1BE
102
{ACAD_XDICTIONARY
360
1669
102
}
102
{ACAD_REACTORS
330
1B9
102
}
330
1B9
100
AcDbPlotSettings
  1

  2
none_device
  4

  6

 40
0.0
 41
0.0
 42
0.0
 43
0.0
 44
0.0
 45
0.0
 46
0.0
 47
0.0
 48
0.0
 49
0.0
140
0.0
141
0.0
142
1.0
143
1.0
 70
   688
 72
     0
 73
     0
 74
     5
  7

 75
    16
147
1.0
148
0.0
149
0.0
100
AcDbLayout
  1
Layout1
 70
     1
 71
     1
 10
0.0
 20
0.0
 11
12.0
 21
9.0
 12
0.0
 22
0.0
 32
0.0
 14
1.000000000000000E+20
 24
1.000000000000000E+20
 34
1.000000000000000E+20
 15
-1.000000000000000E+20
 25
-1.000000000000000E+20
 35
-1.000000000000000E+20
146
0.0
 13
0.0
 23
0.0
 33
0.0
 16
1.0
 26
0.0
 36
0.0
 17
0.0
 27
1.0
 37
0.0
 76
     0
330
1BB
  0
LAYOUT
  5
1C2
102
{ACAD_XDICTIONARY
360
166B
102
}
102
{ACAD_REACTORS
330
1B9
102
}
330
1B9
100
AcDbPlotSettings
  1

  2
none_device
  4

  6

 40
0.0
 41
0.0
 42
0.0
 43
0.0
 44
0.0
 45
0.0
 46
0.0
 47
0.0
 48
0.0
 49
0.0
140
0.0
141
0.0
142
1.0
143
1.0
 70
   688
 72
     0
 73
     0
 74
     5
  7

 75
    16
147
1.0
148
0.0
149
0.0
100
AcDbLayout
  1
Layout2
 70
     1
 71
     2
 10
0.0
 20
0.0
 11
0.0
 21
0.0
 12
0.0
 22
0.0
 32
0.0
 14
0.0
 24
0.0
 34
0.0
 15
0.0
 25
0.0
 35
0.0
146
0.0
 13
0.0
 23
0.0
 33
0.0
 16
1.0
 26
0.0
 36
0.0
 17
0.0
 27
1.0
 37
0.0
 76
     0
330
1BF
  0
LAYOUT
  5
1B8
102
{ACAD_XDICTIONARY
360
1667
102
}
102
{ACAD_REACTORS
330
1B9
102
}
330
1B9
100
AcDbPlotSettings
  1

  2
Adobe PDF Converter.pc3
  4
A4
  6

 40
3.174999952316281
 41
3.174999952316281
 42
3.17498779296875
 43
3.175003051757812
 44
297.0318298339844
 45
209.9733276367186
 46
0.0000000000000076
 47
1.630241740247063
 48
246.9897427644609
 49
39.36804549891383
140
544.952097801264
141
244.7492402188181
142
1.0
143
1.025046328645055
 70
  3764
 72
     1
 73
     0
 74
     4
  7
monochrome.ctb
 75
     0
147
0.9755656618192436
148
-246.9897427644609
149
-39.36804549891383
100
AcDbLayout
  1
Model
 70
     1
 71
     0
 10
0.0
 20
0.0
 11
12.0
 21
9.0
 12
0.0
 22
0.0
 32
0.0
 14
1.000000000000000E+20
 24
1.000000000000000E+20
 34
1.000000000000000E+20
 15
-1.000000000000000E+20
 25
-1.000000000000000E+20
 35
-1.000000000000000E+20
146
0.0
 13
0.0
 23
0.0
 33
0.0
 16
1.0
 26
0.0
 36
0.0
 17
0.0
 27
1.0
 37
0.0
 76
     0
330
2
331
1D0
1001
ACAD_PSEXT
1000
Adobe PDF Converter.pc3
1000
Adobe PDF Converter
1000
桌面\*.pdf
1000

1070
     0
  0
MATERIAL
  5
1E3
102
{ACAD_XDICTIONARY
360
1E4
102
}
102
{ACAD_REACTORS
330
D
102
}
330
D
100
AcDbMaterial
  1
ByBlock
 72
     0
 43
0.0208333333333333
 43
0.0
 43
0.0
 43
0.0
 43
0.0
 43
0.0208333333333333
 43
0.0
 43
0.0
 43
0.0
 43
0.0
 43
1.0
 43
0.0
 43
0.0
 43
0.0
 43
0.0
 43
1.0
 77
     0
 47
0.0208333333333333
 47
0.0
 47
0.0
 47
0.0
 47
0.0
 47
0.0208333333333333
 47
0.0
 47
0.0
 47
0.0
 47
0.0
 47
1.0
 47
0.0
 47
0.0
 47
0.0
 47
0.0
 47
1.0
171
     0
 49
0.0208333333333333
 49
0.0
 49
0.0
 49
0.0
 49
0.0
 49
0.0208333333333333
 49
0.0
 49
0.0
 49
0.0
 49
0.0
 49
1.0
 49
0.0
 49
0.0
 49
0.0
 49
0.0
 49
1.0
175
     0
142
0.0208333333333333
142
0.0
142
0.0
142
0.0
142
0.0
142
0.0208333333333333
142
0.0
142
0.0
142
0.0
142
0.0
142
1.0
142
0.0
142
0.0
142
0.0
142
0.0
142
1.0
179
     0
144
0.0208333333333333
144
0.0
144
0.0
144
0.0
144
0.0
144
0.0208333333333333
144
0.0
144
0.0
144
0.0
144
0.0
144
1.0
144
0.0
144
0.0
144
0.0
144
0.0
144
1.0
147
0.0208333333333333
147
0.0
147
0.0
147
0.0
147
0.0
147
0.0208333333333333
147
0.0
147
0.0
147
0.0
147
0.0
147
1.0
147
0.0
147
0.0
147
0.0
147
0.0
147
1.0
  0
MATERIAL
  5
1DB
102
{ACAD_XDICTIONARY
360
1DC
102
}
102
{ACAD_REACTORS
330
D
102
}
330
D
100
AcDbMaterial
  1
ByLayer
 72
     0
 43
0.0208333333333333
 43
0.0
 43
0.0
 43
0.0
 43
0.0
 43
0.0208333333333333
 43
0.0
 43
0.0
 43
0.0
 43
0.0
 43
1.0
 43
0.0
 43
0.0
 43
0.0
 43
0.0
 43
1.0
 77
     0
 47
0.0208333333333333
 47
0.0
 47
0.0
 47
0.0
 47
0.0
 47
0.0208333333333333
 47
0.0
 47
0.0
 47
0.0
 47
0.0
 47
1.0
 47
0.0
 47
0.0
 47
0.0
 47
0.0
 47
1.0
171
     0
 49
0.0208333333333333
 49
0.0
 49
0.0
 49
0.0
 49
0.0
 49
0.0208333333333333
 49
0.0
 49
0.0
 49
0.0
 49
0.0
 49
1.0
 49
0.0
 49
0.0
 49
0.0
 49
0.0
 49
1.0
175
     0
142
0.0208333333333333
142
0.0
142
0.0
142
0.0
142
0.0
142
0.0208333333333333
142
0.0
142
0.0
142
0.0
142
0.0
142
1.0
142
0.0
142
0.0
142
0.0
142
0.0
142
1.0
179
     0
144
0.0208333333333333
144
0.0
144
0.0
144
0.0
144
0.0
144
0.0208333333333333
144
0.0
144
0.0
144
0.0
144
0.0
144
1.0
144
0.0
144
0.0
144
0.0
144
0.0
144
1.0
147
0.0208333333333333
147
0.0
147
0.0
147
0.0
147
0.0
147
0.0208333333333333
147
0.0
147
0.0
147
0.0
147
0.0
147
1.0
147
0.0
147
0.0
147
0.0
147
0.0
147
1.0
  0
MATERIAL
  5
C
102
{ACAD_XDICTIONARY
360
E
102
}
102
{ACAD_REACTORS
330
D
102
}
330
D
100
AcDbMaterial
  1
Global
 72
     0
 43
0.0208333333333333
 43
0.0
 43
0.0
 43
0.0
 43
0.0
 43
0.0208333333333333
 43
0.0
 43
0.0
 43
0.0
 43
0.0
 43
1.0
 43
0.0
 43
0.0
 43
0.0
 43
0.0
 43
1.0
 77
     0
 47
0.0208333333333333
 47
0.0
 47
0.0
 47
0.0
 47
0.0
 47
0.0208333333333333
 47
0.0
 47
0.0
 47
0.0
 47
0.0
 47
1.0
 47
0.0
 47
0.0
 47
0.0
 47
0.0
 47
1.0
171
     0
 49
0.0208333333333333
 49
0.0
 49
0.0
 49
0.0
 49
0.0
 49
0.0208333333333333
 49
0.0
 49
0.0
 49
0.0
 49
0.0
 49
1.0
 49
0.0
 49
0.0
 49
0.0
 49
0.0
 49
1.0
175
     0
142
0.0208333333333333
142
0.0
142
0.0
142
0.0
142
0.0
142
0.0208333333333333
142
0.0
142
0.0
142
0.0
142
0.0
142
1.0
142
0.0
142
0.0
142
0.0
142
0.0
142
1.0
179
     0
144
0.0208333333333333
144
0.0
144
0.0
144
0.0
144
0.0
144
0.0208333333333333
144
0.0
144
0.0
144
0.0
144
0.0
144
1.0
144
0.0
144
0.0
144
0.0
144
0.0
144
1.0
147
0.0208333333333333
147
0.0
147
0.0
147
0.0
147
0.0
147
0.0208333333333333
147
0.0
147
0.0
147
0.0
147
0.0
147
1.0
147
0.0
147
0.0
147
0.0
147
0.0
147
1.0
  0
MLEADERSTYLE
  5
24D
102
{ACAD_REACTORS
330
24C
102
}
330
24C
100
AcDbMLeaderStyle
170
     2
171
     1
172
     0
 90
        2
 40
0.0
 41
0.0
173
     1
 91
-1056964608
340
1CB
 92
       -2
290
     1
 42
0.09
291
     1
 43
0.36
  3
Standard
 44
0.18
300

342
46
174
     1
178
     6
175
     1
176
     0
 93
-1056964608
 45
0.18
292
     0
297
     0
 46
0.18
 94
-1056964608
 47
1.0
 49
1.0
140
1.0
293
     1
141
0.0
294
     1
177
     0
142
1.0
295
     0
296
     0
143
0.125
1001
ACAD_MLEADERVER
1070
     2
  0
MLINESTYLE
  5
1EE
102
{ACAD_REACTORS
330
1D9
102
}
330
1D9
100
AcDbMlineStyle
  2
STANDARD
 70
     0
  3

 62
   256
 51
90.0
 52
90.0
 71
     2
 49
0.5
 62
   256
  6
BYLAYER
 49
-0.5
 62
   256
  6
BYLAYER
  0
ACDBPLACEHOLDER
  5
9
102
{ACAD_REACTORS
330
A
102
}
330
A
  0
ACDBPLACEHOLDER
  5
C27
102
{ACAD_REACTORS
330
A
102
}
330
A
  0
SCALE
  5
1F3
102
{ACAD_REACTORS
330
1EC
102
}
330
1EC
100
AcDbScale
 70
     0
300
1:1
140
1.0
141
1.0
290
     1
  0
SCALE
  5
1F4
102
{ACAD_REACTORS
330
1EC
102
}
330
1EC
100
AcDbScale
 70
     0
300
1:2
140
1.0
141
2.0
290
     0
  0
SCALE
  5
1F5
102
{ACAD_REACTORS
330
1EC
102
}
330
1EC
100
AcDbScale
 70
     0
300
1:4
140
1.0
141
4.0
290
     0
  0
SCALE
  5
1F6
102
{ACAD_REACTORS
330
1EC
102
}
330
1EC
100
AcDbScale
 70
     0
300
1:5
140
1.0
141
5.0
290
     0
  0
SCALE
  5
1F7
102
{ACAD_REACTORS
330
1EC
102
}
330
1EC
100
AcDbScale
 70
     0
300
1:8
140
1.0
141
8.0
290
     0
  0
SCALE
  5
1F8
102
{ACAD_REACTORS
330
1EC
102
}
330
1EC
100
AcDbScale
 70
     0
300
1:10
140
1.0
141
10.0
290
     0
  0
SCALE
  5
1F9
102
{ACAD_REACTORS
330
1EC
102
}
330
1EC
100
AcDbScale
 70
     0
300
1:16
140
1.0
141
16.0
290
     0
  0
SCALE
  5
1FA
102
{ACAD_REACTORS
330
1EC
102
}
330
1EC
100
AcDbScale
 70
     0
300
1:20
140
1.0
141
20.0
290
     0
  0
SCALE
  5
1FB
102
{ACAD_REACTORS
330
1EC
102
}
330
1EC
100
AcDbScale
 70
     0
300
1:30
140
1.0
141
30.0
290
     0
  0
SCALE
  5
1FC
102
{ACAD_REACTORS
330
1EC
102
}
330
1EC
100
AcDbScale
 70
     0
300
1:40
140
1.0
141
40.0
290
     0
  0
SCALE
  5
1FD
102
{ACAD_REACTORS
330
1EC
102
}
330
1EC
100
AcDbScale
 70
     0
300
1:50
140
1.0
141
50.0
290
     0
  0
SCALE
  5
1FE
102
{ACAD_REACTORS
330
1EC
102
}
330
1EC
100
AcDbScale
 70
     0
300
1:100
140
1.0
141
100.0
290
     0
  0
SCALE
  5
1FF
102
{ACAD_REACTORS
330
1EC
102
}
330
1EC
100
AcDbScale
 70
     0
300
2:1
140
2.0
141
1.0
290
     0
  0
SCALE
  5
200
102
{ACAD_REACTORS
330
1EC
102
}
330
1EC
100
AcDbScale
 70
     0
300
4:1
140
4.0
141
1.0
290
     0
  0
SCALE
  5
201
102
{ACAD_REACTORS
330
1EC
102
}
330
1EC
100
AcDbScale
 70
     0
300
8:1
140
8.0
141
1.0
290
     0
  0
SCALE
  5
202
102
{ACAD_REACTORS
330
1EC
102
}
330
1EC
100
AcDbScale
 70
     0
300
10:1
140
10.0
141
1.0
290
     0
  0
SCALE
  5
203
102
{ACAD_REACTORS
330
1EC
102
}
330
1EC
100
AcDbScale
 70
     0
300
100:1
140
100.0
141
1.0
290
     0
  0
SCALE
  5
204
102
{ACAD_REACTORS
330
1EC
102
}
330
1EC
100
AcDbScale
 70
     0
300
1/128" = 1'-0"
140
0.0078125
141
12.0
290
     0
  0
SCALE
  5
205
102
{ACAD_REACTORS
330
1EC
102
}
330
1EC
100
AcDbScale
 70
     0
300
1/64" = 1'-0"
140
0.015625
141
12.0
290
     0
  0
SCALE
  5
206
102
{ACAD_REACTORS
330
1EC
102
}
330
1EC
100
AcDbScale
 70
     0
300
1/32" = 1'-0"
140
0.03125
141
12.0
290
     0
  0
SCALE
  5
207
102
{ACAD_REACTORS
330
1EC
102
}
330
1EC
100
AcDbScale
 70
     0
300
1/16" = 1'-0"
140
0.0625
141
12.0
290
     0
  0
SCALE
  5
208
102
{ACAD_REACTORS
330
1EC
102
}
330
1EC
100
AcDbScale
 70
     0
300
3/32" = 1'-0"
140
0.09375
141
12.0
290
     0
  0
SCALE
  5
209
102
{ACAD_REACTORS
330
1EC
102
}
330
1EC
100
AcDbScale
 70
     0
300
1/8" = 1'-0"
140
0.125
141
12.0
290
     0
  0
SCALE
  5
20A
102
{ACAD_REACTORS
330
1EC
102
}
330
1EC
100
AcDbScale
 70
     0
300
3/16" = 1'-0"
140
0.1875
141
12.0
290
     0
  0
SCALE
  5
20B
102
{ACAD_REACTORS
330
1EC
102
}
330
1EC
100
AcDbScale
 70
     0
300
1/4" = 1'-0"
140
0.25
141
12.0
290
     0
  0
SCALE
  5
20C
102
{ACAD_REACTORS
330
1EC
102
}
330
1EC
100
AcDbScale
 70
     0
300
3/8" = 1'-0"
140
0.375
141
12.0
290
     0
  0
SCALE
  5
20D
102
{ACAD_REACTORS
330
1EC
102
}
330
1EC
100
AcDbScale
 70
     0
300
1/2" = 1'-0"
140
0.5
141
12.0
290
     0
  0
SCALE
  5
20E
102
{ACAD_REACTORS
330
1EC
102
}
330
1EC
100
AcDbScale
 70
     0
300
3/4" = 1'-0"
140
0.75
141
12.0
290
     0
  0
SCALE
  5
20F
102
{ACAD_REACTORS
330
1EC
102
}
330
1EC
100
AcDbScale
 70
     0
300
1" = 1'-0"
140
1.0
141
12.0
290
     0
  0
SCALE
  5
210
102
{ACAD_REACTORS
330
1EC
102
}
330
1EC
100
AcDbScale
 70
     0
300
1-1/2" = 1'-0"
140
1.5
141
12.0
290
     0
  0
SCALE
  5
211
102
{ACAD_REACTORS
330
1EC
102
}
330
1EC
100
AcDbScale
 70
     0
300
3" = 1'-0"
140
3.0
141
12.0
290
     0
  0
SCALE
  5
212
102
{ACAD_REACTORS
330
1EC
102
}
330
1EC
100
AcDbScale
 70
     0
300
6" = 1'-0"
140
6.0
141
12.0
290
     0
  0
SCALE
  5
213
102
{ACAD_REACTORS
330
1EC
102
}
330
1EC
100
AcDbScale
 70
     0
300
1'-0" = 1'-0"
140
12.0
141
12.0
290
     0
  0
TABLESTYLE
  5
1EF
102
{ACAD_XDICTIONARY
360
1F0
102
}
102
{ACAD_REACTORS
330
1ED
102
}
330
1ED
100
AcDbTableStyle
  3
Standard
 70
     0
 71
     0
 40
0.06
 41
0.06
280
     0
281
     0
  7
Standard
140
0.18
170
     2
 62
     0
 63
     7
283
     0
274
    -2
284
     1
 64
     0
275
    -2
285
     1
 65
     0
276
    -2
286
     1
 66
     0
277
    -2
287
     1
 67
     0
278
    -2
288
     1
 68
     0
279
    -2
289
     1
 69
     0
  7
Standard
140
0.25
170
     5
 62
     0
 63
     7
283
     0
274
    -2
284
     1
 64
     0
275
    -2
285
     1
 65
     0
276
    -2
286
     1
 66
     0
277
    -2
287
     1
 67
     0
278
    -2
288
     1
 68
     0
279
    -2
289
     1
 69
     0
  7
Standard
140
0.18
170
     5
 62
     0
 63
     7
283
     0
274
    -2
284
     1
 64
     0
275
    -2
285
     1
 65
     0
276
    -2
286
     1
 66
     0
277
    -2
287
     1
 67
     0
278
    -2
288
     1
 68
     0
279
    -2
289
     1
 69
     0
  0
VISUALSTYLE
  5
1D1
102
{ACAD_REACTORS
330
1D2
102
}
330
1D2
100
AcDbVisualStyle
  2
2dWireframe
 70
     4
 71
     0
 72
     2
 73
     0
 90
        0
 40
-0.6
 41
-30.0
 62
     5
 63
     7
 74
     1
 91
        4
 64
     7
 65
   257
 75
     1
175
     1
 42
1.0
 92
        0
 66
   257
 43
1.0
 76
     1
 77
     6
 78
     2
 67
     7
 79
     5
170
     0
171
     0
290
     0
174
     0
 93
        1
 44
0.0
173
     0
291
     0
 45
0.0
1001
ACAD
1000
AcDbSavedByObjectVersion
1070
     0
1000
AcDbSavedByObjectVersion
1070
     0
1000
AcDbSavedByObjectVersion
1070
     0
1000
AcDbSavedByObjectVersion
1070
     0
1000
AcDbSavedByObjectVersion
1070
     0
1000
AcDbSavedByObjectVersion
1070
     0
1000
AcDbSavedByObjectVersion
1070
     0
1000
AcDbSavedByObjectVersion
1070
     0
1000
AcDbSavedByObjectVersion
1070
     0
1000
AcDbSavedByObjectVersion
1070
     0
1000
AcDbSavedByObjectVersion
1070
     0
1000
AcDbSavedByObjectVersion
1070
     0
1000
AcDbSavedByObjectVersion
1070
     0
1000
AcDbSavedByObjectVersion
1070
     0
1000
AcDbSavedByObjectVersion
1070
     0
1000
AcDbSavedByObjectVersion
1070
     0
1000
AcDbSavedByObjectVersion
1070
     0
1000
AcDbSavedByObjectVersion
1070
     0
1000
AcDbSavedByObjectVersion
1070
     0
1000
AcDbSavedByObjectVersion
1070
     0
1000
AcDbSavedByObjectVersion
1070
     0
1000
AcDbSavedByObjectVersion
1070
     0
1000
AcDbSavedByObjectVersion
1070
     0
1000
AcDbSavedByObjectVersion
1070
     0
1000
AcDbSavedByObjectVersion
1070
     0
1000
AcDbSavedByObjectVersion
1070
     0
1000
AcDbSavedByObjectVersion
1070
     0
1000
AcDbSavedByObjectVersion
1070
     0
1000
AcDbSavedByObjectVersion
1070
     0
1000
AcDbSavedByObjectVersion
1070
     0
1000
AcDbSavedByObjectVersion
1070
     0
  0
VISUALSTYLE
  5
244
102
{ACAD_REACTORS
330
1D2
102
}
330
1D2
100
AcDbVisualStyle
  2
3D Hidden
 70
     6
 71
     1
 72
     2
 73
     2
 90
        0
 40
-0.6
 41
-30.0
 62
     5
 63
     7
 74
     2
 91
        2
 64
     7
 65
   257
 75
     2
175
     1
 42
40.0
 92
        0
 66
   257
 43
1.0
 76
     1
 77
     6
 78
     2
 67
     7
 79
     3
170
     0
171
     0
290
     0
174
     0
 93
        1
 44
0.0
173
     0
291
     0
 45
0.0
1001
ACAD
1000
AcDbSavedByObjectVersion
1070
     0
1000
AcDbSavedByObjectVersion
1070
     0
  0
VISUALSTYLE
  5
1F2
102
{ACAD_REACTORS
330
1D2
102
}
330
1D2
100
AcDbVisualStyle
  2
3dWireframe
 70
     5
 71
     0
 72
     2
 73
     0
 90
        0
 40
-0.6
 41
-30.0
 62
     5
 63
     7
 74
     1
 91
        4
 64
     7
 65
   257
 75
     1
175
     1
 42
1.0
 92
        0
 66
   257
 43
1.0
 76
     1
 77
     6
 78
     2
 67
     7
 79
     5
170
     0
171
     0
290
     0
174
     0
 93
        1
 44
0.0
173
     0
291
     0
 45
0.0
1001
ACAD
1000
AcDbSavedByObjectVersion
1070
     0
1000
AcDbSavedByObjectVersion
1070
     0
1000
AcDbSavedByObjectVersion
1070
     0
1000
AcDbSavedByObjectVersion
1070
     0
1000
AcDbSavedByObjectVersion
1070
     0
1000
AcDbSavedByObjectVersion
1070
     0
1000
AcDbSavedByObjectVersion
1070
     0
1000
AcDbSavedByObjectVersion
1070
     0
1000
AcDbSavedByObjectVersion
1070
     0
1000
AcDbSavedByObjectVersion
1070
     0
1000
AcDbSavedByObjectVersion
1070
     0
1000
AcDbSavedByObjectVersion
1070
     0
1000
AcDbSavedByObjectVersion
1070
     0
1000
AcDbSavedByObjectVersion
1070
     0
1000
AcDbSavedByObjectVersion
1070
     0
1000
AcDbSavedByObjectVersion
1070
     0
1000
AcDbSavedByObjectVersion
1070
     0
1000
AcDbSavedByObjectVersion
1070
     0
1000
AcDbSavedByObjectVersion
1070
     0
1000
AcDbSavedByObjectVersion
1070
     0
1000
AcDbSavedByObjectVersion
1070
     0
1000
AcDbSavedByObjectVersion
1070
     0
1000
AcDbSavedByObjectVersion
1070
     0
1000
AcDbSavedByObjectVersion
1070
     0
1000
AcDbSavedByObjectVersion
1070
     0
1000
AcDbSavedByObjectVersion
1070
     0
1000
AcDbSavedByObjectVersion
1070
     0
1000
AcDbSavedByObjectVersion
1070
     0
1000
AcDbSavedByObjectVersion
1070
     0
1000
AcDbSavedByObjectVersion
1070
     0
1000
AcDbSavedByObjectVersion
1070
     0
  0
VISUALSTYLE
  5
243
102
{ACAD_REACTORS
330
1D2
102
}
330
1D2
100
AcDbVisualStyle
  2
Basic
 70
     7
 71
     1
 72
     0
 73
     1
 90
        0
 40
-0.6
 41
-30.0
 62
     5
 63
     7
 74
     0
 91
        4
 64
     7
 65
   257
 75
     1
175
     1
 42
1.0
 92
        8
 66
     7
 43
1.0
 76
     1
 77
     6
 78
     2
 67
     7
 79
     5
170
     0
171
     0
290
     0
174
     0
 93
        1
 44
0.0
173
     0
291
     1
 45
0.0
1001
ACAD
1000
AcDbSavedByObjectVersion
1070
     0
1000
AcDbSavedByObjectVersion
1070
     0
  0
VISUALSTYLE
  5
247
102
{ACAD_REACTORS
330
1D2
102
}
330
1D2
100
AcDbVisualStyle
  2
Brighten
 70
    12
 71
     2
 72
     2
 73
     0
 90
        0
 40
-0.6
 41
-30.0
 62
     5
 63
     7
 74
     1
 91
        4
 64
     7
 65
   257
 75
     1
175
     1
 42
1.0
 92
        8
 66
     7
 43
1.0
 76
     1
 77
     6
 78
     2
 67
     7
 79
     5
170
     0
171
     0
290
     0
174
     0
 93
        1
 44
50.0
173
     0
291
     1
 45
0.0
1001
ACAD
1000
AcDbSavedByObjectVersion
1070
     0
1000
AcDbSavedByObjectVersion
1070
     0
  0
VISUALSTYLE
  5
24B
102
{ACAD_REACTORS
330
1D2
102
}
330
1D2
100
AcDbVisualStyle
  2
ColorChange
 70
    16
 71
     2
 72
     2
 73
     3
 90
        0
 40
-0.6
 41
-30.0
 62
     5
 63
     8
 74
     1
 91
        4
 64
     7
 65
   257
 75
     1
175
     1
 42
1.0
 92
        8
 66
     8
 43
1.0
 76
     1
 77
     6
 78
     2
 67
     7
 79
     5
170
     0
171
     0
290
     0
174
     0
 93
        1
 44
0.0
173
     0
291
     1
 45
0.0
1001
ACAD
1000
AcDbSavedByObjectVersion
1070
     0
1000
AcDbSavedByObjectVersion
1070
     0
  0
VISUALSTYLE
  5
245
102
{ACAD_REACTORS
330
1D2
102
}
330
1D2
100
AcDbVisualStyle
  2
Conceptual
 70
     9
 71
     3
 72
     2
 73
     0
 90
        0
 40
-0.6
 41
-30.0
 62
     5
 63
     7
 74
     2
 91
        2
 64
     7
 65
   257
 75
     1
175
     1
 42
40.0
 92
        8
 66
     7
 43
1.0
 76
     1
 77
     6
 78
     2
 67
     7
 79
     3
170
     0
171
     0
290
     0
174
     0
 93
        1
 44
0.0
173
     0
291
     0
 45
0.0
1001
ACAD
1000
AcDbSavedByObjectVersion
1070
     0
1000
AcDbSavedByObjectVersion
1070
     0
  0
VISUALSTYLE
  5
246
102
{ACAD_REACTORS
330
1D2
102
}
330
1D2
100
AcDbVisualStyle
  2
Dim
 70
    11
 71
     2
 72
     2
 73
     0
 90
        0
 40
-0.6
 41
-30.0
 62
     5
 63
     7
 74
     1
 91
        4
 64
     7
 65
   257
 75
     1
175
     1
 42
1.0
 92
        8
 66
     7
 43
1.0
 76
     1
 77
     6
 78
     2
 67
     7
 79
     5
170
     0
171
     0
290
     0
174
     0
 93
        1
 44
-50.0
173
     0
291
     1
 45
0.0
1001
ACAD
1000
AcDbSavedByObjectVersion
1070
     0
1000
AcDbSavedByObjectVersion
1070
     0
  0
VISUALSTYLE
  5
24A
102
{ACAD_REACTORS
330
1D2
102
}
330
1D2
100
AcDbVisualStyle
  2
Facepattern
 70
    15
 71
     2
 72
     2
 73
     0
 90
        0
 40
-0.6
 41
-30.0
 62
     5
 63
     7
 74
     1
 91
        4
 64
     7
 65
   257
 75
     1
175
     1
 42
1.0
 92
        8
 66
     7
 43
1.0
 76
     1
 77
     6
 78
     2
 67
     7
 79
     5
170
     0
171
     0
290
     0
174
     0
 93
        1
 44
0.0
173
     0
291
     1
 45
0.0
1001
ACAD
1000
AcDbSavedByObjectVersion
1070
     0
1000
AcDbSavedByObjectVersion
1070
     0
  0
VISUALSTYLE
  5
23F
102
{ACAD_REACTORS
330
1D2
102
}
330
1D2
100
AcDbVisualStyle
  2
Flat
 70
     0
 71
     2
 72
     1
 73
     1
 90
        2
 40
-0.6
 41
30.0
 62
     5
 63
     7
 74
     0
 91
        4
 64
     7
 65
   257
 75
     1
175
     1
 42
1.0
 92
        8
 66
     7
 43
1.0
 76
     1
 77
     6
 78
     2
 67
     7
 79
     5
170
     0
171
     0
290
     0
174
     0
 93
       13
 44
0.0
173
     0
291
     1
 45
0.0
1001
ACAD
1000
AcDbSavedByObjectVersion
1070
     0
1000
AcDbSavedByObjectVersion
1070
     0
  0
VISUALSTYLE
  5
240
102
{ACAD_REACTORS
330
1D2
102
}
330
1D2
100
AcDbVisualStyle
  2
FlatWithEdges
 70
     1
 71
     2
 72
     1
 73
     1
 90
        2
 40
-0.6
 41
30.0
 62
     5
 63
     7
 74
     1
 91
        4
 64
     7
 65
   257
 75
     1
175
     1
 42
1.0
 92
        0
 66
   257
 43
1.0
 76
     1
 77
     6
 78
     2
 67
     7
 79
     5
170
     0
171
     0
290
     0
174
     0
 93
       13
 44
0.0
173
     0
291
     1
 45
0.0
1001
ACAD
1000
AcDbSavedByObjectVersion
1070
     0
1000
AcDbSavedByObjectVersion
1070
     0
  0
VISUALSTYLE
  5
241
102
{ACAD_REACTORS
330
1D2
102
}
330
1D2
100
AcDbVisualStyle
  2
Gouraud
 70
     2
 71
     2
 72
     2
 73
     1
 90
        2
 40
-0.6
 41
30.0
 62
     5
 63
     7
 74
     0
 91
        4
 64
     7
 65
   257
 75
     1
175
     1
 42
1.0
 92
        0
 66
     7
 43
1.0
 76
     1
 77
     6
 78
     2
 67
     7
 79
     5
170
     0
171
     0
290
     0
174
     0
 93
       13
 44
0.0
173
     0
291
     1
 45
0.0
1001
ACAD
1000
AcDbSavedByObjectVersion
1070
     0
1000
AcDbSavedByObjectVersion
1070
     0
  0
VISUALSTYLE
  5
242
102
{ACAD_REACTORS
330
1D2
102
}
330
1D2
100
AcDbVisualStyle
  2
GouraudWithEdges
 70
     3
 71
     2
 72
     2
 73
     1
 90
        2
 40
-0.6
 41
30.0
 62
     5
 63
     7
 74
     1
 91
        4
 64
     7
 65
   257
 75
     1
175
     1
 42
1.0
 92
        0
 66
   257
 43
1.0
 76
     1
 77
     6
 78
     2
 67
     7
 79
     5
170
     0
171
     0
290
     0
174
     0
 93
       13
 44
0.0
173
     0
291
     1
 45
0.0
1001
ACAD
1000
AcDbSavedByObjectVersion
1070
     0
1000
AcDbSavedByObjectVersion
1070
     0
  0
VISUALSTYLE
  5
249
102
{ACAD_REACTORS
330
1D2
102
}
330
1D2
100
AcDbVisualStyle
  2
Linepattern
 70
    14
 71
     2
 72
     2
 73
     0
 90
        0
 40
-0.6
 41
-30.0
 62
     5
 63
     7
 74
     1
 91
        4
 64
     7
 65
   257
 75
     7
175
     7
 42
1.0
 92
        8
 66
     7
 43
1.0
 76
     1
 77
     6
 78
     2
 67
     7
 79
     5
170
     0
171
     0
290
     0
174
     0
 93
        1
 44
0.0
173
     0
291
     1
 45
0.0
1001
ACAD
1000
AcDbSavedByObjectVersion
1070
     0
1000
AcDbSavedByObjectVersion
1070
     0
  0
VISUALSTYLE
  5
1F1
102
{ACAD_REACTORS
330
1D2
102
}
330
1D2
100
AcDbVisualStyle
  2
Realistic
 70
     8
 71
     2
 72
     2
 73
     0
 90
        0
 40
-0.6
 41
-30.0
 62
     5
 63
     7
 74
     1
 91
        0
 64
     7
 65
   257
 75
     1
175
     1
 42
1.0
 92
        8
 66
     8
 43
1.0
 76
     1
 77
     6
 78
     2
 67
     7
 79
     5
170
     0
171
     0
290
     0
174
     0
 93
       13
 44
0.0
173
     0
291
     0
 45
0.0
1001
ACAD
1000
AcDbSavedByObjectVersion
1070
     0
1000
AcDbSavedByObjectVersion
1070
     0
1000
AcDbSavedByObjectVersion
1070
     0
1000
AcDbSavedByObjectVersion
1070
     0
1000
AcDbSavedByObjectVersion
1070
     0
1000
AcDbSavedByObjectVersion
1070
     0
1000
AcDbSavedByObjectVersion
1070
     0
1000
AcDbSavedByObjectVersion
1070
     0
1000
AcDbSavedByObjectVersion
1070
     0
1000
AcDbSavedByObjectVersion
1070
     0
1000
AcDbSavedByObjectVersion
1070
     0
1000
AcDbSavedByObjectVersion
1070
     0
1000
AcDbSavedByObjectVersion
1070
     0
1000
AcDbSavedByObjectVersion
1070
     0
1000
AcDbSavedByObjectVersion
1070
     0
1000
AcDbSavedByObjectVersion
1070
     0
1000
AcDbSavedByObjectVersion
1070
     0
1000
AcDbSavedByObjectVersion
1070
     0
1000
AcDbSavedByObjectVersion
1070
     0
1000
AcDbSavedByObjectVersion
1070
     0
1000
AcDbSavedByObjectVersion
1070
     0
1000
AcDbSavedByObjectVersion
1070
     0
1000
AcDbSavedByObjectVersion
1070
     0
1000
AcDbSavedByObjectVersion
1070
     0
1000
AcDbSavedByObjectVersion
1070
     0
1000
AcDbSavedByObjectVersion
1070
     0
1000
AcDbSavedByObjectVersion
1070
     0
1000
AcDbSavedByObjectVersion
1070
     0
1000
AcDbSavedByObjectVersion
1070
     0
1000
AcDbSavedByObjectVersion
1070
     0
1000
AcDbSavedByObjectVersion
1070
     0
  0
VISUALSTYLE
  5
248
102
{ACAD_REACTORS
330
1D2
102
}
330
1D2
100
AcDbVisualStyle
  2
Thicken
 70
    13
 71
     2
 72
     2
 73
     0
 90
        0
 40
-0.6
 41
-30.0
 62
     5
 63
     7
 74
     1
 91
        4
 64
     7
 65
   257
 75
     1
175
     1
 42
1.0
 92
       12
 66
     7
 43
1.0
 76
     1
 77
     6
 78
     2
 67
     7
 79
     5
170
     0
171
     0
290
     0
174
     0
 93
        1
 44
0.0
173
     0
291
     1
 45
0.0
1001
ACAD
1000
AcDbSavedByObjectVersion
1070
     0
1000
AcDbSavedByObjectVersion
1070
     0
  0
DICTIONARYVAR
  5
218
102
{ACAD_REACTORS
330
215
102
}
330
215
100
DictionaryVariables
280
     0
  1
1:1
  0
DICTIONARYVAR
  5
217
102
{ACAD_REACTORS
330
215
102
}
330
215
100
DictionaryVariables
280
     0
  1
STANDARD
  0
DICTIONARYVAR
  5
216
102
{ACAD_REACTORS
330
215
102
}
330
215
100
DictionaryVariables
280
     0
  1
STANDARD
  0
DICTIONARYVAR
  5
518
102
{ACAD_REACTORS
330
215
102
}
330
215
100
DictionaryVariables
280
     0
  1
1
  0
DICTIONARYVAR
  5
517
102
{ACAD_REACTORS
330
215
102
}
330
215
100
DictionaryVariables
280
     0
  1
1
  0
DICTIONARYVAR
  5
516
102
{ACAD_REACTORS
330
215
102
}
330
215
100
DictionaryVariables
280
     0
  1
0
  0
DICTIONARYVAR
  5
219
102
{ACAD_REACTORS
330
215
102
}
330
215
100
DictionaryVariables
280
     0
  1
0
  0
DICTIONARYVAR
  5
15C6
102
{ACAD_REACTORS
330
215
102
}
330
215
100
DictionaryVariables
280
     0
  1
1.570796
  0
DICTIONARYVAR
  5
15C7
102
{ACAD_REACTORS
330
215
102
}
330
215
100
DictionaryVariables
280
     0
  1
1.570796
  0
DICTIONARYVAR
  5
514
102
{ACAD_REACTORS
330
215
102
}
330
215
100
DictionaryVariables
280
     0
  1
1
  0
DICTIONARYVAR
  5
515
102
{ACAD_REACTORS
330
215
102
}
330
215
100
DictionaryVariables
280
     0
  1
127
  0
XRECORD
  5
131E
102
{ACAD_REACTORS
330
131D
102
}
330
131D
100
AcDbXrecord
280
     1
  0
DICTIONARY
  5
1669
330
1BE
100
AcDbDictionary
280
     1
281
     1
  3
ACAD_XREC_ROUNDTRIP
360
166A
  0
DICTIONARY
  5
166B
330
1C2
100
AcDbDictionary
280
     1
281
     1
  3
ACAD_XREC_ROUNDTRIP
360
166C
  0
DICTIONARY
  5
1667
330
1B8
100
AcDbDictionary
280
     1
281
     1
  3
ACAD_XREC_ROUNDTRIP
360
1668
  0
DICTIONARY
  5
1E4
330
1E3
100
AcDbDictionary
280
     1
281
     1
  3
ACAD_XREC_ROUNDTRIP
360
53F
  3
BUMPTILE
360
1E5
  3
DIFFUSETILE
360
1E6
  3
OPACITYTILE
360
1E7
  3
REFLECTIONTILE
360
1E8
  3
REFRACTIONTILE
360
1E9
  3
SPECULARTILE
360
1EA
  0
DICTIONARY
  5
1DC
330
1DB
100
AcDbDictionary
280
     1
281
     1
  3
ACAD_XREC_ROUNDTRIP
360
53E
  3
BUMPTILE
360
1DD
  3
DIFFUSETILE
360
1DE
  3
OPACITYTILE
360
1DF
  3
REFLECTIONTILE
360
1E0
  3
REFRACTIONTILE
360
1E1
  3
SPECULARTILE
360
1E2
  0
DICTIONARY
  5
E
330
C
100
AcDbDictionary
280
     1
281
     1
  3
ACAD_XREC_ROUNDTRIP
360
537
  3
BUMPTILE
360
F
  3
DIFFUSETILE
360
10
  3
OPACITYTILE
360
11
  3
REFLECTIONTILE
360
12
  3
REFRACTIONTILE
360
13
  3
SPECULARTILE
360
14
  0
DICTIONARY
  5
1F0
330
1EF
100
AcDbDictionary
280
     1
281
     1
  3
ACAD_ROUNDTRIP_2008_TABLESTYLE_CELLSTYLEMAP
360
162D
  3
ACAD_XREC_ROUNDTRIP
360
166D
  0
XRECORD
  5
166A
102
{ACAD_REACTORS
330
1669
102
}
330
1669
100
AcDbXrecord
280
     1
102
SHADEPLOT
 70
     0
102
SHADEPLOTRESLEVEL
 70
     2
102
SHADEPLOTCUSTOMDPI
 70
   300
  0
XRECORD
  5
166C
102
{ACAD_REACTORS
330
166B
102
}
330
166B
100
AcDbXrecord
280
     1
102
SHADEPLOT
 70
     0
102
SHADEPLOTRESLEVEL
 70
     2
102
SHADEPLOTCUSTOMDPI
 70
   300
  0
XRECORD
  5
1668
102
{ACAD_REACTORS
330
1667
102
}
330
1667
100
AcDbXrecord
280
     1
102
SHADEPLOT
 70
     1
102
SHADEPLOTRESLEVEL
 70
     2
102
SHADEPLOTCUSTOMDPI
 70
   300
  0
XRECORD
  5
53F
102
{ACAD_REACTORS
330
1E4
102
}
330
1E4
100
AcDbXrecord
280
     1
102
MATERIAL
148
0.0
149
0.0
149
0.0
 93
        0
 94
      127
282
     0
 72
     0
 77
     0
171
     0
175
     0
179
     0
273
     0
  0
XRECORD
  5
1E5
102
{ACAD_REACTORS
330
1E4
102
}
330
1E4
100
AcDbXrecord
280
     1
270
     1
271
     1
  0
XRECORD
  5
1E6
102
{ACAD_REACTORS
330
1E4
102
}
330
1E4
100
AcDbXrecord
280
     1
270
     1
271
     1
  0
XRECORD
  5
1E7
102
{ACAD_REACTORS
330
1E4
102
}
330
1E4
100
AcDbXrecord
280
     1
270
     1
271
     1
  0
XRECORD
  5
1E8
102
{ACAD_REACTORS
330
1E4
102
}
330
1E4
100
AcDbXrecord
280
     1
270
     1
271
     1
  0
XRECORD
  5
1E9
102
{ACAD_REACTORS
330
1E4
102
}
330
1E4
100
AcDbXrecord
280
     1
270
     1
271
     1
  0
XRECORD
  5
1EA
102
{ACAD_REACTORS
330
1E4
102
}
330
1E4
100
AcDbXrecord
280
     1
270
     1
271
     1
  0
XRECORD
  5
53E
102
{ACAD_REACTORS
330
1DC
102
}
330
1DC
100
AcDbXrecord
280
     1
102
MATERIAL
148
0.0
149
0.0
149
0.0
 93
        0
 94
      127
282
     0
 72
     0
 77
     0
171
     0
175
     0
179
     0
273
     0
  0
XRECORD
  5
1DD
102
{ACAD_REACTORS
330
1DC
102
}
330
1DC
100
AcDbXrecord
280
     1
270
     1
271
     1
  0
XRECORD
  5
1DE
102
{ACAD_REACTORS
330
1DC
102
}
330
1DC
100
AcDbXrecord
280
     1
270
     1
271
     1
  0
XRECORD
  5
1DF
102
{ACAD_REACTORS
330
1DC
102
}
330
1DC
100
AcDbXrecord
280
     1
270
     1
271
     1
  0
XRECORD
  5
1E0
102
{ACAD_REACTORS
330
1DC
102
}
330
1DC
100
AcDbXrecord
280
     1
270
     1
271
     1
  0
XRECORD
  5
1E1
102
{ACAD_REACTORS
330
1DC
102
}
330
1DC
100
AcDbXrecord
280
     1
270
     1
271
     1
  0
XRECORD
  5
1E2
102
{ACAD_REACTORS
330
1DC
102
}
330
1DC
100
AcDbXrecord
280
     1
270
     1
271
     1
  0
XRECORD
  5
537
102
{ACAD_REACTORS
330
E
102
}
330
E
100
AcDbXrecord
280
     1
102
MATERIAL
148
0.0
149
0.0
149
0.0
 93
        0
 94
      127
282
     0
 72
     0
 77
     0
171
     0
175
     0
179
     0
273
     0
  0
XRECORD
  5
F
102
{ACAD_REACTORS
330
E
102
}
330
E
100
AcDbXrecord
280
     1
270
     1
271
     1
  0
XRECORD
  5
10
102
{ACAD_REACTORS
330
E
102
}
330
E
100
AcDbXrecord
280
     1
270
     1
271
     1
  0
XRECORD
  5
11
102
{ACAD_REACTORS
330
E
102
}
330
E
100
AcDbXrecord
280
     1
270
     1
271
     1
  0
XRECORD
  5
12
102
{ACAD_REACTORS
330
E
102
}
330
E
100
AcDbXrecord
280
     1
270
     1
271
     1
  0
XRECORD
  5
13
102
{ACAD_REACTORS
330
E
102
}
330
E
100
AcDbXrecord
280
     1
270
     1
271
     1
  0
XRECORD
  5
14
102
{ACAD_REACTORS
330
E
102
}
330
E
100
AcDbXrecord
280
     1
270
     1
271
     1
  0
CELLSTYLEMAP
  5
162D
102
{ACAD_REACTORS
330
1F0
102
}
330
1F0
100
AcDbCellStyleMap
 90
        3
300
CELLSTYLE
  1
TABLEFORMAT_BEGIN
 90
        5
170
     1
 91
        0
 92
    32768
 62
   257
 93
        1
300
CONTENTFORMAT
  1
CONTENTFORMAT_BEGIN
 90
        0
 91
        0
 92
      512
 93
        0
300

 40
0.0
140
1.0
 94
        5
 62
     0
340
46
144
0.25
309
CONTENTFORMAT_END
171
     1
301
MARGIN
  1
CELLMARGIN_BEGIN
 40
0.06
 40
0.06
 40
0.06
 40
0.06
 40
0.18
 40
0.18
309
CELLMARGIN_END
 94
        6
 95
        1
302
GRIDFORMAT
  1
GRIDFORMAT_BEGIN
 90
        0
 91
        1
 62
     0
 92
       -2
340
0
 93
        0
 40
0.045
309
GRIDFORMAT_END
 95
        2
302
GRIDFORMAT
  1
GRIDFORMAT_BEGIN
 90
        0
 91
        1
 62
     0
 92
       -2
340
0
 93
        0
 40
0.045
309
GRIDFORMAT_END
 95
        4
302
GRIDFORMAT
  1
GRIDFORMAT_BEGIN
 90
        0
 91
        1
 62
     0
 92
       -2
340
0
 93
        0
 40
0.045
309
GRIDFORMAT_END
 95
        8
302
GRIDFORMAT
  1
GRIDFORMAT_BEGIN
 90
        0
 91
        1
 62
     0
 92
       -2
340
0
 93
        0
 40
0.045
309
GRIDFORMAT_END
 95
       16
302
GRIDFORMAT
  1
GRIDFORMAT_BEGIN
 90
        0
 91
        1
 62
     0
 92
       -2
340
0
 93
        0
 40
0.045
309
GRIDFORMAT_END
 95
       32
302
GRIDFORMAT
  1
GRIDFORMAT_BEGIN
 90
        0
 91
        1
 62
     0
 92
       -2
340
0
 93
        0
 40
0.045
309
GRIDFORMAT_END
309
TABLEFORMAT_END
  1
CELLSTYLE_BEGIN
 90
        1
 91
        1
300
_TITLE
309
CELLSTYLE_END
300
CELLSTYLE
  1
TABLEFORMAT_BEGIN
 90
        5
170
     1
 91
        0
 92
        0
 62
   257
 93
        1
300
CONTENTFORMAT
  1
CONTENTFORMAT_BEGIN
 90
        0
 91
        0
 92
      512
 93
        0
300

 40
0.0
140
1.0
 94
        5
 62
     0
340
46
144
0.18
309
CONTENTFORMAT_END
171
     1
301
MARGIN
  1
CELLMARGIN_BEGIN
 40
0.06
 40
0.06
 40
0.06
 40
0.06
 40
0.18
 40
0.18
309
CELLMARGIN_END
 94
        6
 95
        1
302
GRIDFORMAT
  1
GRIDFORMAT_BEGIN
 90
        0
 91
        1
 62
     0
 92
       -2
340
0
 93
        0
 40
0.045
309
GRIDFORMAT_END
 95
        2
302
GRIDFORMAT
  1
GRIDFORMAT_BEGIN
 90
        0
 91
        1
 62
     0
 92
       -2
340
0
 93
        0
 40
0.045
309
GRIDFORMAT_END
 95
        4
302
GRIDFORMAT
  1
GRIDFORMAT_BEGIN
 90
        0
 91
        1
 62
     0
 92
       -2
340
0
 93
        0
 40
0.045
309
GRIDFORMAT_END
 95
        8
302
GRIDFORMAT
  1
GRIDFORMAT_BEGIN
 90
        0
 91
        1
 62
     0
 92
       -2
340
0
 93
        0
 40
0.045
309
GRIDFORMAT_END
 95
       16
302
GRIDFORMAT
  1
GRIDFORMAT_BEGIN
 90
        0
 91
        1
 62
     0
 92
       -2
340
0
 93
        0
 40
0.045
309
GRIDFORMAT_END
 95
       32
302
GRIDFORMAT
  1
GRIDFORMAT_BEGIN
 90
        0
 91
        1
 62
     0
 92
       -2
340
0
 93
        0
 40
0.045
309
GRIDFORMAT_END
309
TABLEFORMAT_END
  1
CELLSTYLE_BEGIN
 90
        2
 91
        1
300
_HEADER
309
CELLSTYLE_END
300
CELLSTYLE
  1
TABLEFORMAT_BEGIN
 90
        5
170
     1
 91
        0
 92
        0
 62
   257
 93
        1
300
CONTENTFORMAT
  1
CONTENTFORMAT_BEGIN
 90
        0
 91
        0
 92
      512
 93
        0
300

 40
0.0
140
1.0
 94
        2
 62
     0
340
46
144
0.18
309
CONTENTFORMAT_END
171
     1
301
MARGIN
  1
CELLMARGIN_BEGIN
 40
0.06
 40
0.06
 40
0.06
 40
0.06
 40
0.18
 40
0.18
309
CELLMARGIN_END
 94
        6
 95
        1
302
GRIDFORMAT
  1
GRIDFORMAT_BEGIN
 90
        0
 91
        1
 62
     0
 92
       -2
340
0
 93
        0
 40
0.045
309
GRIDFORMAT_END
 95
        2
302
GRIDFORMAT
  1
GRIDFORMAT_BEGIN
 90
        0
 91
        1
 62
     0
 92
       -2
340
0
 93
        0
 40
0.045
309
GRIDFORMAT_END
 95
        4
302
GRIDFORMAT
  1
GRIDFORMAT_BEGIN
 90
        0
 91
        1
 62
     0
 92
       -2
340
0
 93
        0
 40
0.045
309
GRIDFORMAT_END
 95
        8
302
GRIDFORMAT
  1
GRIDFORMAT_BEGIN
 90
        0
 91
        1
 62
     0
 92
       -2
340
0
 93
        0
 40
0.045
309
GRIDFORMAT_END
 95
       16
302
GRIDFORMAT
  1
GRIDFORMAT_BEGIN
 90
        0
 91
        1
 62
     0
 92
       -2
340
0
 93
        0
 40
0.045
309
GRIDFORMAT_END
 95
       32
302
GRIDFORMAT
  1
GRIDFORMAT_BEGIN
 90
        0
 91
        1
 62
     0
 92
       -2
340
0
 93
        0
 40
0.045
309
GRIDFORMAT_END
309
TABLEFORMAT_END
  1
CELLSTYLE_BEGIN
 90
        3
 91
        2
300
_DATA
309
CELLSTYLE_END
  0
XRECORD
  5
166D
102
{ACAD_REACTORS
330
1F0
102
}
330
1F0
100
AcDbXrecord
280
     1
102
ACAD_ROUNDTRIP_PRE2007_TABLESTYLE
 90
      512
 91
        0
  1

 92
      512
 93
        0
  2

 94
      512
 95
        0
  3

  0
ENDSEC
  0
EOF
