  0
SECTION
  2
HEADER
  9
$ACADVER
  1
AC1021
  9
$ACADMAINTVER
 70
    25
  9
$DWGCODEPAGE
  3
ANSI_936
  9
$LASTSAVEDBY
  1
14609
  9
$INSBASE
 10
0.0
 20
0.0
 30
0.0
  9
$EXTMIN
 10
322.6820467089912
 20
146.3945072874961
 30
0.0
  9
$EXTMAX
 10
619.6807966446957
 20
356.3945072875001
 30
0.0
  9
$LIMMIN
 10
0.0
 20
0.0
  9
$LIMMAX
 10
12.0
 20
9.0
  9
$ORTHOMODE
 70
     0
  9
$REGENMODE
 70
     1
  9
$FILLMODE
 70
     1
  9
$QTEXTMODE
 70
     0
  9
$MIRRTEXT
 70
     1
  9
$LTSCALE
 40
1.0
  9
$ATTMODE
 70
     1
  9
$TEXTSIZE
 40
0.2
  9
$TRACEWID
 40
0.05
  9
$TEXTSTYLE
  7
Standard
  9
$CLAYER
  8
0
  9
$CELTYPE
  6
ByLayer
  9
$CECOLOR
 62
   256
  9
$CELTSCALE
 40
1.0
  9
$DISPSILH
 70
     0
  9
$DIMSCALE
 40
1.0
  9
$DIMASZ
 40
3.0
  9
$DIMEXO
 40
0.2
  9
$DIMDLI
 40
0.2
  9
$DIMRND
 40
0.0
  9
$DIMDLE
 40
0.0
  9
$DIMEXE
 40
0.5
  9
$DIMTP
 40
0.0
  9
$DIMTM
 40
0.0
  9
$DIMTXT
 40
3.5
  9
$DIMCEN
 40
0.0
  9
$DIMTSZ
 40
0.0
  9
$DIMTOL
 70
     0
  9
$DIMLIM
 70
     0
  9
$DIMTIH
 70
     0
  9
$DIMTOH
 70
     0
  9
$DIMSE1
 70
     0
  9
$DIMSE2
 70
     0
  9
$DIMTAD
 70
     1
  9
$DIMZIN
 70
     8
  9
$DIMBLK
  1

  9
$DIMASO
 70
     1
  9
$DIMSHO
 70
     1
  9
$DIMPOST
  1

  9
$DIMAPOST
  1

  9
$DIMALT
 70
     0
  9
$DIMALTD
 70
     2
  9
$DIMALTF
 40
25.4
  9
$DIMLFAC
 40
1.0
  9
$DIMTOFL
 70
     0
  9
$DIMTVP
 40
0.0
  9
$DIMTIX
 70
     0
  9
$DIMSOXD
 70
     0
  9
$DIMSAH
 70
     0
  9
$DIMBLK1
  1

  9
$DIMBLK2
  1

  9
$DIMSTYLE
  2
01
  9
$DIMCLRD
 70
     1
  9
$DIMCLRE
 70
     6
  9
$DIMCLRT
 70
     4
  9
$DIMTFAC
 40
1.0
  9
$DIMGAP
 40
0.5
  9
$DIMJUST
 70
     0
  9
$DIMSD1
 70
     0
  9
$DIMSD2
 70
     0
  9
$DIMTOLJ
 70
     1
  9
$DIMTZIN
 70
     0
  9
$DIMALTZ
 70
     0
  9
$DIMALTTZ
 70
     0
  9
$DIMUPT
 70
     0
  9
$DIMDEC
 70
     1
  9
$DIMTDEC
 70
     1
  9
$DIMALTU
 70
     2
  9
$DIMALTTD
 70
     2
  9
$DIMTXSTY
  7
Romans字体
  9
$DIMAUNIT
 70
     0
  9
$DIMADEC
 70
     2
  9
$DIMALTRND
 40
0.0
  9
$DIMAZIN
 70
     2
  9
$DIMDSEP
 70
    46
  9
$DIMATFIT
 70
     3
  9
$DIMFRAC
 70
     0
  9
$DIMLDRBLK
  1

  9
$DIMLUNIT
 70
     2
  9
$DIMLWD
 70
    -2
  9
$DIMLWE
 70
    -2
  9
$DIMTMOVE
 70
     0
  9
$DIMFXL
 40
1.0
  9
$DIMFXLON
 70
     0
  9
$DIMJOGANG
 40
0.7853981633974483
  9
$DIMTFILL
 70
     0
  9
$DIMTFILLCLR
 70
     0
  9
$DIMARCSYM
 70
     0
  9
$DIMLTYPE
  6

  9
$DIMLTEX1
  6

  9
$DIMLTEX2
  6

  9
$LUNITS
 70
     2
  9
$LUPREC
 70
     4
  9
$SKETCHINC
 40
0.1
  9
$FILLETRAD
 40
0.5
  9
$AUNITS
 70
     0
  9
$AUPREC
 70
     0
  9
$MENU
  1
.
  9
$ELEVATION
 40
0.0
  9
$PELEVATION
 40
0.0
  9
$THICKNESS
 40
0.0
  9
$LIMCHECK
 70
     0
  9
$CHAMFERA
 40
0.5
  9
$CHAMFERB
 40
0.5
  9
$CHAMFERC
 40
1.0
  9
$CHAMFERD
 40
0.0
  9
$SKPOLY
 70
     0
  9
$TDCREATE
 40
2456524.383632987
  9
$TDUCREATE
 40
2456524.050299653
  9
$TDUPDATE
 40
2460346.549519896
  9
$TDUUPDATE
 40
2460346.216186563
  9
$TDINDWG
 40
1.1063919907
  9
$TDUSRTIMER
 40
1.1063710995
  9
$USRTIMER
 70
     1
  9
$ANGBASE
 50
0.0
  9
$ANGDIR
 70
     0
  9
$PDMODE
 70
     0
  9
$PDSIZE
 40
0.0
  9
$PLINEWID
 40
0.0
  9
$SPLFRAME
 70
     0
  9
$SPLINETYPE
 70
     6
  9
$SPLINESEGS
 70
     8
  9
$HANDSEED
  5
18C0A
  9
$SURFTAB1
 70
     6
  9
$SURFTAB2
 70
     6
  9
$SURFTYPE
 70
     6
  9
$SURFU
 70
     6
  9
$SURFV
 70
     6
  9
$UCSBASE
  2

  9
$UCSNAME
  2

  9
$UCSORG
 10
0.0
 20
0.0
 30
0.0
  9
$UCSXDIR
 10
1.0
 20
0.0
 30
0.0
  9
$UCSYDIR
 10
0.0
 20
1.0
 30
0.0
  9
$UCSORTHOREF
  2

  9
$UCSORTHOVIEW
 70
     0
  9
$UCSORGTOP
 10
0.0
 20
0.0
 30
0.0
  9
$UCSORGBOTTOM
 10
0.0
 20
0.0
 30
0.0
  9
$UCSORGLEFT
 10
0.0
 20
0.0
 30
0.0
  9
$UCSORGRIGHT
 10
0.0
 20
0.0
 30
0.0
  9
$UCSORGFRONT
 10
0.0
 20
0.0
 30
0.0
  9
$UCSORGBACK
 10
0.0
 20
0.0
 30
0.0
  9
$PUCSBASE
  2

  9
$PUCSNAME
  2

  9
$PUCSORG
 10
0.0
 20
0.0
 30
0.0
  9
$PUCSXDIR
 10
1.0
 20
0.0
 30
0.0
  9
$PUCSYDIR
 10
0.0
 20
1.0
 30
0.0
  9
$PUCSORTHOREF
  2

  9
$PUCSORTHOVIEW
 70
     0
  9
$PUCSORGTOP
 10
0.0
 20
0.0
 30
0.0
  9
$PUCSORGBOTTOM
 10
0.0
 20
0.0
 30
0.0
  9
$PUCSORGLEFT
 10
0.0
 20
0.0
 30
0.0
  9
$PUCSORGRIGHT
 10
0.0
 20
0.0
 30
0.0
  9
$PUCSORGFRONT
 10
0.0
 20
0.0
 30
0.0
  9
$PUCSORGBACK
 10
0.0
 20
0.0
 30
0.0
  9
$USERI1
 70
     0
  9
$USERI2
 70
     0
  9
$USERI3
 70
     0
  9
$USERI4
 70
     0
  9
$USERI5
 70
     0
  9
$USERR1
 40
0.0
  9
$USERR2
 40
0.0
  9
$USERR3
 40
0.0
  9
$USERR4
 40
0.0
  9
$USERR5
 40
0.0
  9
$WORLDVIEW
 70
     1
  9
$SHADEDGE
 70
     3
  9
$SHADEDIF
 70
    70
  9
$TILEMODE
 70
     1
  9
$MAXACTVP
 70
    64
  9
$PINSBASE
 10
0.0
 20
0.0
 30
0.0
  9
$PLIMCHECK
 70
     0
  9
$PEXTMIN
 10
1.000000000000000E+20
 20
1.000000000000000E+20
 30
1.000000000000000E+20
  9
$PEXTMAX
 10
-1.000000000000000E+20
 20
-1.000000000000000E+20
 30
-1.000000000000000E+20
  9
$PLIMMIN
 10
0.0
 20
0.0
  9
$PLIMMAX
 10
12.0
 20
9.0
  9
$UNITMODE
 70
     0
  9
$VISRETAIN
 70
     1
  9
$PLINEGEN
 70
     0
  9
$PSLTSCALE
 70
     1
  9
$TREEDEPTH
 70
  3020
  9
$CMLSTYLE
  2
Standard
  9
$CMLJUST
 70
     0
  9
$CMLSCALE
 40
1.0
  9
$PROXYGRAPHICS
 70
     1
  9
$MEASUREMENT
 70
     0
  9
$CELWEIGHT
370
    -1
  9
$ENDCAPS
280
     0
  9
$JOINSTYLE
280
     0
  9
$LWDISPLAY
290
     0
  9
$INSUNITS
 70
     4
  9
$HYPERLINKBASE
  1

  9
$STYLESHEET
  1
MONOCHROME.CTB
  9
$XEDIT
290
     1
  9
$CEPSNTYPE
380
     0
  9
$PSTYLEMODE
290
     1
  9
$FINGERPRINTGUID
  2
{4A02065B-8BB3-4A96-9036-502DC906C165}
  9
$VERSIONGUID
  2
{C01EB501-57DA-498D-BC1E-4E78CF373FFB}
  9
$EXTNAMES
290
     1
  9
$PSVPSCALE
 40
0.0
  9
$OLESTARTUP
290
     0
  9
$SORTENTS
280
   127
  9
$INDEXCTL
280
     0
  9
$HIDETEXT
280
     0
  9
$XCLIPFRAME
290
     0
  9
$HALOGAP
280
     0
  9
$OBSCOLOR
 70
   257
  9
$OBSLTYPE
280
     0
  9
$INTERSECTIONDISPLAY
280
     0
  9
$INTERSECTIONCOLOR
 70
   257
  9
$DIMASSOC
280
     1
  9
$PROJECTNAME
  1

  9
$CAMERADISPLAY
290
     0
  9
$LENSLENGTH
 40
50.0
  9
$CAMERAHEIGHT
 40
0.0
  9
$STEPSPERSEC
 40
2.0
  9
$STEPSIZE
 40
6.0
  9
$3DDWFPREC
 40
2.0
  9
$PSOLWIDTH
 40
0.25
  9
$PSOLHEIGHT
 40
4.0
  9
$LOFTANG1
 40
1.570796326794896
  9
$LOFTANG2
 40
1.570796326794896
  9
$LOFTMAG1
 40
0.0
  9
$LOFTMAG2
 40
0.0
  9
$LOFTPARAM
 70
     7
  9
$LOFTNORMALS
280
     1
  9
$LATITUDE
 40
37.795
  9
$LONGITUDE
 40
-122.394
  9
$NORTHDIRECTION
 40
0.0
  9
$TIMEZONE
 70
 -8000
  9
$LIGHTGLYPHDISPLAY
280
     1
  9
$TILEMODELIGHTSYNCH
280
     1
  9
$CMATERIAL
347
4FE6
  9
$SOLIDHIST
280
     1
  9
$SHOWHIST
280
     1
  9
$DWFFRAME
280
     2
  9
$DGNFRAME
280
     0
  9
$REALWORLDSCALE
290
     1
  9
$INTERFERECOLOR
 62
     1
  9
$INTERFEREOBJVS
345
33
  9
$INTERFEREVPVS
346
30
  9
$CSHADOW
280
     0
  9
$SHADOWPLANELOCATION
 40
0.0
  0
ENDSEC
  0
SECTION
  2
CLASSES
  0
CLASS
  1
ACDBDICTIONARYWDFLT
  2
AcDbDictionaryWithDefault
  3
ObjectDBX Classes
 90
        0
 91
        1
280
     0
281
     0
  0
CLASS
  1
VISUALSTYLE
  2
AcDbVisualStyle
  3
ObjectDBX Classes
 90
     4095
 91
       16
280
     0
281
     0
  0
CLASS
  1
MATERIAL
  2
AcDbMaterial
  3
ObjectDBX Classes
 90
     1153
 91
        3
280
     0
281
     0
  0
CLASS
  1
TABLESTYLE
  2
AcDbTableStyle
  3
ObjectDBX Classes
 90
     4095
 91
        1
280
     0
281
     0
  0
CLASS
  1
SCALE
  2
AcDbScale
  3
ObjectDBX Classes
 90
     1153
 91
       33
280
     0
281
     0
  0
CLASS
  1
MLEADERSTYLE
  2
AcDbMLeaderStyle
  3
ACDB_MLEADERSTYLE_CLASS
 90
     4095
 91
        1
280
     0
281
     0
  0
CLASS
  1
CELLSTYLEMAP
  2
AcDbCellStyleMap
  3
ObjectDBX Classes
 90
     1152
 91
        2
280
     0
281
     0
  0
CLASS
  1
DICTIONARYVAR
  2
AcDbDictionaryVar
  3
ObjectDBX Classes
 90
        0
 91
        8
280
     0
281
     0
  0
CLASS
  1
SORTENTSTABLE
  2
AcDbSortentsTable
  3
ObjectDBX Classes
 90
        0
 91
        1
280
     0
281
     0
  0
CLASS
  1
ACAD_EVALUATION_GRAPH
  2
AcDbEvalGraph
  3
ObjectDBX Classes
 90
     1153
 91
        0
280
     0
281
     0
  0
CLASS
  1
ACAECUSTOBJ
  2
AcAeEditorObj
  3
AcAeEditorObj
 90
     1024
 91
        0
280
     0
281
     0
  0
CLASS
  1
ACDB_DYNAMICBLOCKPURGEPREVENTER_VERSION
  2
AcDbDynamicBlockPurgePreventer
  3
ObjectDBX Classes
 90
     1153
 91
        0
280
     0
281
     0
  0
CLASS
  1
MENTALRAYRENDERSETTINGS
  2
AcDbMentalRayRenderSettings
  3
SCENEOE
 90
     1024
 91
        1
280
     0
281
     0
  0
CLASS
  1
ACDB_BLOCKREPRESENTATION_DATA
  2
AcDbBlockRepresentationData
  3
ObjectDBX Classes
 90
     1153
 91
        0
280
     0
281
     0
  0
CLASS
  1
DIMASSOC
  2
AcDbDimAssoc
  3
"AcDbDimAssoc|Product Desc:     AcDim ARX App For Dimension|Company:          Autodesk, Inc.|WEB Address:      www.autodesk.com"
 90
        0
 91
        1
280
     0
281
     0
  0
ENDSEC
  0
SECTION
  2
TABLES
  0
TABLE
  2
VPORT
  5
8
102
{ACAD_XDICTIONARY
360
50EE
102
}
330
0
100
AcDbSymbolTable
 70
     1
  0
VPORT
  5
29
330
8
100
AcDbSymbolTableRecord
100
AcDbViewportTableRecord
  2
*Active
 70
     0
 10
0.0
 20
0.0
 11
1.0
 21
1.0
 12
410.5314188297942
 22
108.4814181968403
 13
0.0
 23
0.0
 14
0.5
 24
0.5
 15
0.5
 25
0.5
 16
0.0
 26
0.0
 36
1.0
 17
104.9654968719086
 27
148.5022307685978
 37
0.0
 40
252.8665516505566
 41
1.967136150234741
 42
50.0
 43
0.0
 44
0.0
 50
0.0
 51
0.0
 71
     0
 72
   100
 73
     1
 74
     3
 75
     0
 76
     0
 77
     0
 78
     0
281
     0
 65
     1
110
0.0
120
0.0
130
0.0
111
1.0
121
0.0
131
0.0
112
0.0
122
1.0
132
0.0
 79
     0
146
0.0
348
2F
 60
     3
 61
     5
292
     1
282
     1
141
0.0
142
0.0
 63
   250
421
  3355443
  0
ENDTAB
  0
TABLE
  2
LTYPE
  5
5
330
0
100
AcDbSymbolTable
 70
     2
  0
LTYPE
  5
14
330
5
100
AcDbSymbolTableRecord
100
AcDbLinetypeTableRecord
  2
ByBlock
 70
     0
  3

 72
    65
 73
     0
 40
0.0
  0
LTYPE
  5
15
330
5
100
AcDbSymbolTableRecord
100
AcDbLinetypeTableRecord
  2
ByLayer
 70
     0
  3

 72
    65
 73
     0
 40
0.0
  0
LTYPE
  5
16
330
5
100
AcDbSymbolTableRecord
100
AcDbLinetypeTableRecord
  2
Continuous
 70
     0
  3
Solid line
 72
    65
 73
     0
 40
0.0
  0
LTYPE
  5
67BA
330
5
100
AcDbSymbolTableRecord
100
AcDbLinetypeTableRecord
  2
CENTER
 70
     0
  3
Center ____ _ ____ _ ____ _ ____ _ ____ _ ____
 72
    65
 73
     4
 40
2.0
 49
1.25
 74
     0
 49
-0.25
 74
     0
 49
0.25
 74
     0
 49
-0.25
 74
     0
  0
ENDTAB
  0
TABLE
  2
LAYER
  5
2
102
{ACAD_XDICTIONARY
360
50B8
102
}
330
0
100
AcDbSymbolTable
 70
    10
  0
LAYER
  5
10
102
{ACAD_XDICTIONARY
360
50D0
102
}
330
2
100
AcDbSymbolTableRecord
100
AcDbLayerTableRecord
  2
0
 70
     0
 62
     7
  6
Continuous
370
    30
390
F
347
4FF6
  0
LAYER
  5
3B
102
{ACAD_XDICTIONARY
360
50D2
102
}
330
2
100
AcDbSymbolTableRecord
100
AcDbLayerTableRecord
  2
图层 1
 70
     0
 62
     7
  6
Continuous
370
    -3
390
F
347
4FF6
  0
LAYER
  5
50AE
102
{ACAD_XDICTIONARY
360
50AF
102
}
330
2
100
AcDbSymbolTableRecord
100
AcDbLayerTableRecord
  2
图框
 70
     0
 62
     7
  6
Continuous
370
    20
390
F
347
4FF6
  0
LAYER
  5
5141
330
2
100
AcDbSymbolTableRecord
100
AcDbLayerTableRecord
  2
Defpoints
 70
     0
 62
     7
  6
Continuous
290
     0
370
    -3
390
F
347
4FF6
  0
LAYER
  5
5144
330
2
100
AcDbSymbolTableRecord
100
AcDbLayerTableRecord
  2
DIM
 70
     0
 62
     3
  6
Continuous
370
    15
390
F
347
4FF6
1001
AcAecLayerStandard
1000

1000

  0
LAYER
  5
52F3
330
2
100
AcDbSymbolTableRecord
100
AcDbLayerTableRecord
  2
打标文字
 70
     0
 62
     3
  6
Continuous
370
    20
390
F
347
4FF6
  0
LAYER
  5
67B7
330
2
100
AcDbSymbolTableRecord
100
AcDbLayerTableRecord
  2
CEN
 70
     0
 62
     1
  6
CENTER
370
    15
390
F
347
4FF6
1001
AcAecLayerStandard
1000

1000

  0
LAYER
  5
11B6B
330
2
100
AcDbSymbolTableRecord
100
AcDbLayerTableRecord
  2
hat
 70
     0
 62
     6
  6
Continuous
370
    15
390
F
347
4FF6
1001
AcAecLayerStandard
1000

1000

  0
LAYER
  5
17660
330
2
100
AcDbSymbolTableRecord
100
AcDbLayerTableRecord
  2
5
 70
     0
 62
     7
  6
Continuous
370
    -3
390
F
347
4FF6
  0
LAYER
  5
188EA
102
{ACAD_XDICTIONARY
360
188EB
102
}
330
2
100
AcDbSymbolTableRecord
100
AcDbLayerTableRecord
  2
02___PRT_ALL_AXES
 70
     0
 62
     7
  6
Continuous
370
    -3
390
F
347
4FF6
  0
ENDTAB
  0
TABLE
  2
STYLE
  5
3
330
0
100
AcDbSymbolTable
 70
     4
  0
STYLE
  5
11
330
3
100
AcDbSymbolTableRecord
100
AcDbTextStyleTableRecord
  2
Standard
 70
     0
 40
0.0
 41
0.75
 50
0.0
 71
     0
 42
0.2
  3

  4

1001
ACAD
1000
仿宋_GB2312
1071
    34353
  0
STYLE
  5
FD48
330
3
100
AcDbSymbolTableRecord
100
AcDbTextStyleTableRecord
  2
Romans字体
 70
     0
 40
0.0
 41
0.75
 50
0.0
 71
     0
 42
0.2
  3
romans.shx
  4

  0
STYLE
  5
11080
330
3
100
AcDbSymbolTableRecord
100
AcDbTextStyleTableRecord
  2
工程字
 70
     0
 40
0.0
 41
1.0
 50
0.0
 71
     0
 42
3.5
  3
gbenor.shx
  4
gbcbig.shx
  0
STYLE
  5
11081
330
3
100
AcDbSymbolTableRecord
100
AcDbTextStyleTableRecord
  2
Chinese
 70
     0
 40
0.0
 41
1.0
 50
0.0
 71
     0
 42
2.5
  3

  4

1001
ACAD
1000
PMingLiU
1071
    34834
  0
ENDTAB
  0
TABLE
  2
VIEW
  5
6
330
0
100
AcDbSymbolTable
 70
     0
  0
ENDTAB
  0
TABLE
  2
UCS
  5
7
330
0
100
AcDbSymbolTable
 70
     0
  0
ENDTAB
  0
TABLE
  2
APPID
  5
9
330
0
100
AcDbSymbolTable
 70
    17
  0
APPID
  5
12
330
9
100
AcDbSymbolTableRecord
100
AcDbRegAppTableRecord
  2
ACAD
 70
     0
  0
APPID
  5
5024
330
9
100
AcDbSymbolTableRecord
100
AcDbRegAppTableRecord
  2
ACAD_MLEADERVER
 70
     0
  0
APPID
  5
50B5
330
9
100
AcDbSymbolTableRecord
100
AcDbRegAppTableRecord
  2
AcDbDynamicBlockGUID
 70
     0
  0
APPID
  5
50B6
330
9
100
AcDbSymbolTableRecord
100
AcDbRegAppTableRecord
  2
AcDbBlockRepETag
 70
     0
  0
APPID
  5
50B7
330
9
100
AcDbSymbolTableRecord
100
AcDbRegAppTableRecord
  2
ACAD_PSEXT
 70
     0
  0
APPID
  5
50CF
330
9
100
AcDbSymbolTableRecord
100
AcDbRegAppTableRecord
  2
AcadAnnoPO
 70
     0
  0
APPID
  5
5146
330
9
100
AcDbSymbolTableRecord
100
AcDbRegAppTableRecord
  2
AcAecLayerStandard
 70
     0
  0
APPID
  5
5147
330
9
100
AcDbSymbolTableRecord
100
AcDbRegAppTableRecord
  2
ACAD_DSTYLE_DIMJAG
 70
     0
  0
APPID
  5
5148
330
9
100
AcDbSymbolTableRecord
100
AcDbRegAppTableRecord
  2
ACAD_DSTYLE_DIMTALN
 70
     0
  0
APPID
  5
52AD
330
9
100
AcDbSymbolTableRecord
100
AcDbRegAppTableRecord
  2
ACAUTHENVIRON
 70
     0
  0
APPID
  5
52B0
330
9
100
AcDbSymbolTableRecord
100
AcDbRegAppTableRecord
  2
AcDbDynamicBlockTrueName
 70
     0
  0
APPID
  5
67C6
330
9
100
AcDbSymbolTableRecord
100
AcDbRegAppTableRecord
  2
ACAD_EXEMPT_FROM_CAD_STANDARDS
 70
     0
  0
APPID
  5
6838
330
9
100
AcDbSymbolTableRecord
100
AcDbRegAppTableRecord
  2
ACAD_NAV_VCDISPLAY
 70
     0
  0
APPID
  5
70A9
330
9
100
AcDbSymbolTableRecord
100
AcDbRegAppTableRecord
  2
DCO15
 70
     0
  0
APPID
  5
8725
330
9
100
AcDbSymbolTableRecord
100
AcDbRegAppTableRecord
  2
AcDbBlockRepBTag
 70
     0
  0
APPID
  5
FE64
330
9
100
AcDbSymbolTableRecord
100
AcDbRegAppTableRecord
  2
ACAD_DSTYLE_DIMRADIAL_EXTENSION
 70
     0
  0
APPID
  5
FF93
330
9
100
AcDbSymbolTableRecord
100
AcDbRegAppTableRecord
  2
ACAD_DSTYLE_DIMBREAK
 70
     0
  0
ENDTAB
  0
TABLE
  2
DIMSTYLE
  5
A
330
0
100
AcDbSymbolTable
 70
     2
100
AcDbDimStyleTable
 71
     2
340
5145
340
27
  0
DIMSTYLE
105
27
330
A
100
AcDbSymbolTableRecord
100
AcDbDimStyleTableRecord
  2
Standard
 70
     0
340
11
  0
DIMSTYLE
105
5145
102
{ACAD_REACTORS
330
1874E
330
1874F
330
18750
330
18751
330
18752
330
18753
330
18754
102
}
330
A
100
AcDbSymbolTableRecord
100
AcDbDimStyleTableRecord
  2
01
 70
     0
 41
3.0
 42
0.2
 43
0.2
 44
0.5
 73
     0
 74
     0
 77
     1
 78
     8
 79
     2
140
3.5
141
0.0
147
0.5
176
     1
177
     6
178
     4
179
     2
271
     1
272
     1
340
FD48
1001
ACAD_DSTYLE_DIMJAG
1070
   388
1040
1.5
1001
ACAD_DSTYLE_DIMTALN
1070
   392
1070
     0
  0
ENDTAB
  0
TABLE
  2
BLOCK_RECORD
  5
1
330
0
100
AcDbSymbolTable
 70
    39
  0
BLOCK_RECORD
  5
1F
102
{ACAD_XDICTIONARY
360
67C0
102
}
330
1
100
AcDbSymbolTableRecord
100
AcDbBlockTableRecord
  2
*Model_Space
340
22
 70
     0
280
     1
281
     0
  0
BLOCK_RECORD
  5
1B
330
1
100
AcDbSymbolTableRecord
100
AcDbBlockTableRecord
  2
*Paper_Space
340
1E
 70
     0
280
     1
281
     0
  0
BLOCK_RECORD
  5
23
330
1
100
AcDbSymbolTableRecord
100
AcDbBlockTableRecord
  2
*Paper_Space0
340
26
 70
     0
280
     1
281
     0
  0
BLOCK_RECORD
  5
10FE8
102
{ACAD_XDICTIONARY
360
18B87
102
}
330
1
100
AcDbSymbolTableRecord
100
AcDbBlockTableRecord
  2
A4图框-NEW
340
0
310
2800000020000000200000000100080000000000000400000000000000000000000000000000000000000000000080000080000000808000800000008000800080800000C0C0C000C0DCC000F0CAA6000020400000206000002080000020A0000020C0000020E00000400000004020000040400000406000004080000040A0
310
000040C0000040E00000600000006020000060400000606000006080000060A0000060C0000060E00000800000008020000080400000806000008080000080A0000080C0000080E00000A0000000A0200000A0400000A0600000A0800000A0A00000A0C00000A0E00000C0000000C0200000C0400000C0600000C0800000C0
310
A00000C0C00000C0E00000E0000000E0200000E0400000E0600000E0800000E0A00000E0C00000E0E00040000000400020004000400040006000400080004000A0004000C0004000E00040200000402020004020400040206000402080004020A0004020C0004020E000404000004040200040404000404060004040800040
310
40A0004040C0004040E00040600000406020004060400040606000406080004060A0004060C0004060E00040800000408020004080400040806000408080004080A0004080C0004080E00040A0000040A0200040A0400040A0600040A0800040A0A00040A0C00040A0E00040C0000040C0200040C0400040C0600040C08000
310
40C0A00040C0C00040C0E00040E0000040E0200040E0400040E0600040E0800040E0A00040E0C00040E0E00080000000800020008000400080006000800080008000A0008000C0008000E00080200000802020008020400080206000802080008020A0008020C0008020E00080400000804020008040400080406000804080
310
008040A0008040C0008040E00080600000806020008060400080606000806080008060A0008060C0008060E00080800000808020008080400080806000808080008080A0008080C0008080E00080A0000080A0200080A0400080A0600080A0800080A0A00080A0C00080A0E00080C0000080C0200080C0400080C0600080C0
310
800080C0A00080C0C00080C0E00080E0000080E0200080E0400080E0600080E0800080E0A00080E0C00080E0E000C0000000C0002000C0004000C0006000C0008000C000A000C000C000C000E000C0200000C0202000C0204000C0206000C0208000C020A000C020C000C020E000C0400000C0402000C0404000C0406000C0
310
408000C040A000C040C000C040E000C0600000C0602000C0604000C0606000C0608000C060A000C060C000C060E000C0800000C0802000C0804000C0806000C0808000C080A000C080C000C080E000C0A00000C0A02000C0A04000C0A06000C0A08000C0A0A000C0A0C000C0A0E000C0C00000C0C02000C0C04000C0C06000
310
C0C08000C0C0A000F0FBFF00A4A0A000808080000000FF0000FF000000FFFF00FF000000FF00FF00FFFF0000FFFFFF0000000000000000000000000000000000000000000000000000000000000000000000000000000000000000000000000000000000000000000000000000000000000000000000000000000000000000
310
000000000000000000000000000000000000000000000000000000000000000000000000000000000000000000000000000000000000000000000000000000000000000000000000000000000000000000000000000000000000000000000000000000000000000000000000000000000000F9F9F9F9F9F9F9F9F9F9F9F9F9
310
F9F9F9F9F9F9F9F9F9F9F9F9F9F9FF00000000F9FF000000000000000000FFFFFFFFFFFFFFFFFFFFFFFFF9FAFAFAFF00000000F9FF000000000000000000FFFFFFFFFFFFFFFFFFFFFFFFFFFFFFFFFF00000000F9FD000000000000000000FFFFFFFFFFFFFFFFFFFFFFFFFFFFFFFFFF00000000F9FF000000000000000000FF
310
FFFFFFFFFFFFFFFFFFFFFFFFFFFFFFFF00000000F9FD000000000000000000FFFFFFFFFFFFFFFFFFFFFFFFFFFFFFFFFF00000000F9FF00000000000000000000000000000000000000000000000000FF00000000F9FD00000000000000000000000000000000000000000000000000FF00000000F9FF000000000000000000
310
00000000000000000000000000000000FF00000000F9FD00000000000000000000000000000000000000000000000000FF00000000F9FF00000000000000000000000000000000000000000000000000FF00000000F9FD00000000000000000000000000000000000000000000000000FF00000000F9FD0000000000000000
310
0000000000000000000000000000000000FF00000000F9FF00000000000000000000000000000000000000000000000000FF00000000F9FD00000000000000000000000000000000000000000000000000FF00000000F9FF00000000000000000000000000000000000000000000000000FF00000000F9FD00000000000000
310
000000000000000000000000000000000000FF00000000F9FF00000000000000000000000000000000000000000000000000FF00000000F9FFFFFFFFFFFFFFFFFFFFFFFFFFFFFFFFFFFFFFFFFFFFFFFFFFFFFF00000000F9FFFFFFF9F9F9F9F9F9F9F9F9F9F9F9F9F9F9F9F9F9F9F9F9F9F9F9000000000000000000000000
310
00000000000000000000000000000000000000000000000000000000000000000000000000000000000000000000000000000000000000000000000000000000000000000000000000000000000000000000000000000000000000000000000000000000000000000000000000000000000000000000000000000000000000
310
0000000000000000000000000000000000000000000000000000000000000000000000000000000000000000000000000000000000000000
102
{BLKREFS
331
1382D
102
}
 70
     4
280
     1
281
     0
1001
AcDbDynamicBlockGUID
1000
{DF337083-E76F-40A7-A2C3-3D0500D9C0CC}
1001
AcDbBlockRepETag
1070
     1
1071
      149
  0
BLOCK_RECORD
  5
18451
330
1
100
AcDbSymbolTableRecord
100
AcDbBlockTableRecord
  2
*X24
340
0
102
{BLKREFS
331
18619
102
}
 70
     0
280
     1
281
     0
  0
BLOCK_RECORD
  5
18757
330
1
100
AcDbSymbolTableRecord
100
AcDbBlockTableRecord
  2
*D32
340
0
 70
     0
280
     1
281
     0
  0
BLOCK_RECORD
  5
18763
330
1
100
AcDbSymbolTableRecord
100
AcDbBlockTableRecord
  2
*D33
340
0
 70
     0
280
     1
281
     0
  0
BLOCK_RECORD
  5
1876F
330
1
100
AcDbSymbolTableRecord
100
AcDbBlockTableRecord
  2
*D34
340
0
 70
     0
280
     1
281
     0
  0
BLOCK_RECORD
  5
1877B
330
1
100
AcDbSymbolTableRecord
100
AcDbBlockTableRecord
  2
*D35
340
0
 70
     0
280
     1
281
     0
  0
BLOCK_RECORD
  5
18787
330
1
100
AcDbSymbolTableRecord
100
AcDbBlockTableRecord
  2
*D36
340
0
 70
     0
280
     1
281
     0
  0
BLOCK_RECORD
  5
18793
330
1
100
AcDbSymbolTableRecord
100
AcDbBlockTableRecord
  2
*D37
340
0
 70
     0
280
     1
281
     0
  0
BLOCK_RECORD
  5
187D5
330
1
100
AcDbSymbolTableRecord
100
AcDbBlockTableRecord
  2
*D38
340
0
 70
     0
280
     1
281
     0
  0
ENDTAB
  0
ENDSEC
  0
SECTION
  2
BLOCKS
  0
BLOCK
  5
20
330
1F
100
AcDbEntity
  8
0
100
AcDbBlockBegin
  2
*Model_Space
 70
     0
 10
0.0
 20
0.0
 30
0.0
  3
*Model_Space
  1

  0
ENDBLK
  5
21
330
1F
100
AcDbEntity
  8
0
100
AcDbBlockEnd
  0
BLOCK
  5
1C
330
1B
100
AcDbEntity
 67
     1
  8
0
100
AcDbBlockBegin
  2
*Paper_Space
 70
     0
 10
0.0
 20
0.0
 30
0.0
  3
*Paper_Space
  1

  0
ENDBLK
  5
1D
330
1B
100
AcDbEntity
 67
     1
  8
0
100
AcDbBlockEnd
  0
BLOCK
  5
24
330
23
100
AcDbEntity
 67
     1
  8
0
100
AcDbBlockBegin
  2
*Paper_Space0
 70
     0
 10
0.0
 20
0.0
 30
0.0
  3
*Paper_Space0
  1

  0
ENDBLK
  5
25
330
23
100
AcDbEntity
 67
     1
  8
0
100
AcDbBlockEnd
  0
BLOCK
  5
10FEA
330
10FE8
100
AcDbEntity
  8
0
100
AcDbBlockBegin
  2
A4图框-NEW
 70
     0
 10
0.0
 20
0.0
 30
0.0
  3
A4图框-NEW
  1

  0
MTEXT
  5
18AF2
102
{ACAD_XDICTIONARY
360
18BF2
102
}
330
10FE8
100
AcDbEntity
  8
图框
 62
     3
100
AcDbMText
 10
967.6594956750133
 20
499.7664151964293
 30
0.0
 40
2.985513575034151
 41
15.50176341157864
 46
6.292658374511018
 71
     5
 72
     5
  1
BQ LUO
  7
Romans字体
 73
     1
 44
1.0
1001
AcDbBlockRepETag
1070
     1
1071
        0
1005
18AF2
1001
ACAD
1000
ACAD_MTEXT_DEFINED_HEIGHT_BEGIN
1070
    46
1040
6.292658374511018
1000
ACAD_MTEXT_DEFINED_HEIGHT_END
  0
MTEXT
  5
18AF3
330
10FE8
100
AcDbEntity
  8
图框
 62
     3
100
AcDbMText
 10
983.041569333247
 20
499.7664151964293
 30
0.0
 40
2.487927979195124
 41
15.26238390489051
 46
6.292658374511042
 71
     5
 72
     5
  1
{\W0.7;18.10.2010}
  7
Romans字体
 73
     1
 44
1.0
1001
AcDbBlockRepETag
1070
     1
1071
        1
1005
18AF3
1001
ACAD
1000
ACAD_MTEXT_DEFINED_HEIGHT_BEGIN
1070
    46
1040
6.292658374511042
1000
ACAD_MTEXT_DEFINED_HEIGHT_END
  0
MTEXT
  5
18AF4
330
10FE8
100
AcDbEntity
  8
图框
 62
     3
100
AcDbMText
 10
1012.477254728976
 20
487.1810984474071
 30
0.0
 40
2.985513575034151
 41
17.64876416884615
 46
6.292658374511455
 71
     5
 72
     5
  1
YY LIN
  7
Romans字体
 73
     1
 44
1.0
1001
AcDbBlockRepETag
1070
     1
1071
        2
1005
18AF4
1001
ACAD
1000
ACAD_MTEXT_DEFINED_HEIGHT_BEGIN
1070
    46
1040
6.292658374511455
1000
ACAD_MTEXT_DEFINED_HEIGHT_END
  0
MTEXT
  5
18AF5
330
10FE8
100
AcDbEntity
  8
图框
 62
     3
100
AcDbMText
 10
1028.977802139886
 20
487.1810984474071
 30
0.0
 40
2.487927979195124
 41
15.35233065297276
 46
6.292658374511495
 71
     5
 72
     5
  1
{\W0.7;18.10.2010}
  7
Romans字体
 73
     1
 44
1.0
1001
AcDbBlockRepETag
1070
     1
1071
        3
1005
18AF5
1001
ACAD
1000
ACAD_MTEXT_DEFINED_HEIGHT_BEGIN
1070
    46
1040
6.292658374511495
1000
ACAD_MTEXT_DEFINED_HEIGHT_END
  0
MTEXT
  5
18AF6
330
10FE8
100
AcDbEntity
  8
图框
 62
     3
100
AcDbMText
 10
1063.722665487208
 20
525.4145966538831
 30
0.0
 40
2.985513575034151
 41
32.4973914334545
 46
11.82914190181707
 71
     5
 72
     5
  1
-
  7
Romans字体
 73
     1
 44
1.0
1001
AcDbBlockRepETag
1070
     1
1071
        4
1005
18AF6
1001
ACAD
1000
ACAD_MTEXT_DEFINED_HEIGHT_BEGIN
1070
    46
1040
11.82914190181707
1000
ACAD_MTEXT_DEFINED_HEIGHT_END
  0
MTEXT
  5
18AF7
330
10FE8
100
AcDbEntity
  8
图框
 62
     3
100
AcDbMText
 10
1063.727338552349
 20
513.5854547520641
 30
0.0
 40
2.985513575034151
 41
32.48804530317308
 46
11.82914190182139
 71
     5
 72
     5
  1
-
  7
Romans字体
 73
     1
 44
1.0
1001
AcDbBlockRepETag
1070
     1
1071
        5
1005
18AF7
1001
ACAD
1000
ACAD_MTEXT_DEFINED_HEIGHT_BEGIN
1070
    46
1040
11.82914190182139
1000
ACAD_MTEXT_DEFINED_HEIGHT_END
  0
MTEXT
  5
18AF8
330
10FE8
100
AcDbEntity
  8
图框
 62
     3
100
AcDbMText
 10
1110.122306614152
 20
526.8006839312707
 30
0.0
 40
2.985513575034151
 41
33.61239199242139
 46
9.05696734704178
 71
     5
 72
     5
  1
-
  7
Romans字体
 73
     1
 44
1.0
1001
AcDbBlockRepETag
1070
     1
1071
        6
1005
18AF8
1001
ACAD
1000
ACAD_MTEXT_DEFINED_HEIGHT_BEGIN
1070
    46
1040
9.05696734704178
1000
ACAD_MTEXT_DEFINED_HEIGHT_END
  0
MTEXT
  5
18AF9
330
10FE8
100
AcDbEntity
  8
图框
 62
     3
100
AcDbMText
 10
1110.122306614152
 20
500.2775205517162
 30
0.0
 40
2.985513575034151
 41
33.61239199242139
 46
8.871557304763419
 71
     5
 72
     5
  1
-
  7
Romans字体
 73
     1
 44
1.0
1001
AcDbBlockRepETag
1070
     1
1071
        7
1005
18AF9
1001
ACAD
1000
ACAD_MTEXT_DEFINED_HEIGHT_BEGIN
1070
    46
1040
8.871557304763419
1000
ACAD_MTEXT_DEFINED_HEIGHT_END
  0
MTEXT
  5
18AFA
330
10FE8
100
AcDbEntity
  8
图框
 62
     3
100
AcDbMText
 10
967.6594956750133
 20
493.4737568219182
 30
0.0
 40
2.985513575034151
 41
15.50176341157864
 46
6.292658374510335
 71
     5
 72
     5
  1
P RAO
  7
Romans字体
 73
     1
 44
1.0
1001
AcDbBlockRepETag
1070
     1
1071
        8
1005
18AFA
1001
ACAD
1000
ACAD_MTEXT_DEFINED_HEIGHT_BEGIN
1070
    46
1040
6.292658374510335
1000
ACAD_MTEXT_DEFINED_HEIGHT_END
  0
MTEXT
  5
18AFB
330
10FE8
100
AcDbEntity
  8
图框
 62
     3
100
AcDbMText
 10
983.041569333247
 20
493.2441970450405
 30
0.0
 40
2.487927979195124
 41
15.26238390489051
 46
6.751777928266487
 71
     5
 72
     5
  1
{\W0.7;18.10.2010}
  7
Romans字体
 73
     1
 44
1.0
1001
AcDbBlockRepETag
1070
     1
1071
        9
1005
18AFB
1001
ACAD
1000
ACAD_MTEXT_DEFINED_HEIGHT_BEGIN
1070
    46
1040
6.751777928266487
1000
ACAD_MTEXT_DEFINED_HEIGHT_END
  0
MTEXT
  5
18AFC
330
10FE8
100
AcDbEntity
  8
图框
 62
     3
100
AcDbMText
 10
1012.477254728976
 20
499.7664151964291
 30
0.0
 40
2.985513575034151
 41
17.64876416884615
 46
6.292658374511397
 71
     5
 72
     5
  1
-
  7
Romans字体
 73
     1
 44
1.0
1001
AcDbBlockRepETag
1070
     1
1071
       10
1005
18AFC
1001
ACAD
1000
ACAD_MTEXT_DEFINED_HEIGHT_BEGIN
1070
    46
1040
6.292658374511397
1000
ACAD_MTEXT_DEFINED_HEIGHT_END
  0
MTEXT
  5
18AFD
330
10FE8
100
AcDbEntity
  8
图框
 62
     3
100
AcDbMText
 10
1028.977802139886
 20
499.7664151964289
 30
0.0
 40
2.487927979195124
 41
15.35233065297265
 46
6.292658374511382
 71
     5
 72
     5
  1
-
  7
Romans字体
 73
     1
 44
1.0
1001
AcDbBlockRepETag
1070
     1
1071
       11
1005
18AFD
1001
ACAD
1000
ACAD_MTEXT_DEFINED_HEIGHT_BEGIN
1070
    46
1040
6.292658374511382
1000
ACAD_MTEXT_DEFINED_HEIGHT_END
  0
MTEXT
  5
18AFE
330
10FE8
100
AcDbEntity
  8
图框
 62
     3
100
AcDbMText
 10
967.6594956750133
 20
487.1810984474071
 30
0.0
 40
2.985513575034151
 41
15.50176341157863
 46
6.292658374511478
 71
     5
 72
     5
  1
-
  7
Romans字体
 73
     1
 44
1.0
1001
AcDbBlockRepETag
1070
     1
1071
       12
1005
18AFE
1001
ACAD
1000
ACAD_MTEXT_DEFINED_HEIGHT_BEGIN
1070
    46
1040
6.292658374511478
1000
ACAD_MTEXT_DEFINED_HEIGHT_END
  0
MTEXT
  5
18AFF
330
10FE8
100
AcDbEntity
  8
图框
 62
     3
100
AcDbMText
 10
983.041569333247
 20
487.1810984474071
 30
0.0
 40
2.487927979195124
 41
15.26238390489062
 46
6.292658374511495
 71
     5
 72
     5
  1
-
  7
Romans字体
 73
     1
 44
1.0
1001
AcDbBlockRepETag
1070
     1
1071
       13
1005
18AFF
1001
ACAD
1000
ACAD_MTEXT_DEFINED_HEIGHT_BEGIN
1070
    46
1040
6.292658374511495
1000
ACAD_MTEXT_DEFINED_HEIGHT_END
  0
MTEXT
  5
18B00
330
10FE8
100
AcDbEntity
  8
图框
 62
     3
100
AcDbMText
 10
1074.556686986741
 20
495.8417418993361
 30
0.0
 40
2.985513575034151
 41
10.82934843438978
 46
7.886094601210427
 71
     5
 72
     5
  1
-
  7
Romans字体
 73
     1
 44
1.0
1001
AcDbBlockRepETag
1070
     1
1071
       14
1005
18B00
1001
ACAD
1000
ACAD_MTEXT_DEFINED_HEIGHT_BEGIN
1070
    46
1040
7.886094601210427
1000
ACAD_MTEXT_DEFINED_HEIGHT_END
  0
LINE
  5
18B01
330
10FE8
100
AcDbEntity
  8
图框
370
    -3
100
AcDbLine
 10
1036.653967466372
 20
499.7847891999413
 30
0.0
 11
1079.971361203936
 21
499.7847891999413
 31
0.0
1001
AcDbBlockRepETag
1070
     1
1071
       15
1005
18B01
  0
MTEXT
  5
18B02
330
10FE8
100
AcDbEntity
  8
图框
 62
     1
370
    20
100
AcDbMText
 10
1108.26336443907
 20
491.5162596080882
 30
0.0
 40
2.699054613030988
 41
82.30831305643079
 46
0.0
 71
     5
 72
     5
  1
{\fSimHei|b0|i0|c134|p2;厦门唯恩电气有限公司}
 73
     1
 44
1.0
1001
AcDbBlockRepETag
1070
     1
1071
       16
1005
18B02
  0
MTEXT
  5
18B03
330
10FE8
100
AcDbEntity
  8
图框
 62
     3
370
    20
100
AcDbMText
 10
1108.435451459908
 20
487.298967726064
 30
0.0
 40
1.652482416141417
 41
68.08558693693567
 46
0.0
 71
     5
 72
     5
  1
{\fArial Narrow|b0|i0|c0|p34;XIAMEN WAIN ELECTRICAL CO.LTD}
  7
工程字
 73
     1
 44
1.0
1001
AcDbBlockRepETag
1070
     1
1071
       17
1005
18B03
  0
MTEXT
  5
18B04
330
10FE8
100
AcDbEntity
  8
图框
 62
     1
370
    20
100
AcDbMText
 10
1085.711816899387
 20
491.0944802995856
 30
0.0
 40
2.005930044038334
 41
5.047240019334847
 46
0.0
 71
     1
 72
     5
  1
{\fArial|b0|i0|c0|p34;A}
  7
Chinese
 73
     1
 44
1.0
1001
AcDbBlockRepETag
1070
     1
1071
       18
1005
18B04
  0
MTEXT
  5
18B05
330
10FE8
100
AcDbEntity
  8
图框
 62
     1
370
    20
100
AcDbMText
 10
1088.213485935716
 20
491.0944802995856
 30
0.0
 40
2.005930044038334
 41
5.047240019334847
 46
0.0
 71
     1
 72
     5
  1
{\fArial|b0|i0|c0|p34;I}
  7
Chinese
 73
     1
 44
1.0
1001
AcDbBlockRepETag
1070
     1
1071
       19
1005
18B05
  0
MTEXT
  5
18B06
330
10FE8
100
AcDbEntity
  8
图框
 62
     1
370
    20
100
AcDbMText
 10
1089.142375222864
 20
491.0822866326808
 30
0.0
 40
2.005930044038334
 41
5.047240019334847
 46
0.0
 71
     1
 72
     5
  1
{\fArial|b0|i0|c0|p34;N}
  7
Chinese
 73
     1
 44
1.0
1001
AcDbBlockRepETag
1070
     1
1071
       20
1005
18B06
  0
MTEXT
  5
18B07
330
10FE8
100
AcDbEntity
  8
图框
100
AcDbMText
 10
1069.142012769545
 20
487.9667319294409
 30
0.0
 40
2.252848170144607
 41
21.65869686878327
 46
7.863925338579296
 71
     5
 72
     5
  1
{\W0.5;\C1;All Dimensions in mm\POriginal Size DIN A 4}
  7
Romans字体
 73
     1
 44
1.0
1001
AcDbBlockRepETag
1070
     1
1071
       21
1005
18B07
1001
ACAD
1000
ACAD_MTEXT_DEFINED_HEIGHT_BEGIN
1070
    46
1040
7.863925338579296
1000
ACAD_MTEXT_DEFINED_HEIGHT_END
  0
MTEXT
  5
18B08
330
10FE8
100
AcDbEntity
  8
图框
  6
ByBlock
 62
     6
370
    18
100
AcDbMText
 10
1127.40434942308
 20
508.7896535755975
 30
0.0
 40
2.651776162684904
 41
2.557913877927211
 46
0.0
 71
     1
 72
     5
  1
A
  7
Romans字体
 11
0.0000000000000001
 21
1.0
 31
0.0
 73
     1
 44
1.0
1001
AcDbBlockRepETag
1070
     1
1071
       22
1005
18B08
  0
MTEXT
  5
18B09
330
10FE8
100
AcDbEntity
  8
图框
 62
     6
100
AcDbMText
 10
1127.40434942308
 20
556.3746573232886
 30
0.0
 40
2.651776162684904
 41
2.557913877927211
 46
0.0
 71
     1
 72
     5
  1
B
  7
Romans字体
 11
0.0000000000000001
 21
1.0
 31
0.0
 73
     1
 44
1.0
1001
AcDbBlockRepETag
1070
     1
1071
       23
1005
18B09
  0
MTEXT
  5
18B0A
330
10FE8
100
AcDbEntity
  8
图框
 62
     6
100
AcDbMText
 10
1127.40434942308
 20
607.5539372630998
 30
0.0
 40
2.651776162684904
 41
2.557913877927211
 46
0.0
 71
     1
 72
     5
  1
C
  7
Romans字体
 11
0.0000000000000001
 21
1.0
 31
0.0
 73
     1
 44
1.0
1001
AcDbBlockRepETag
1070
     1
1071
       24
1005
18B0A
  0
MTEXT
  5
18B0B
330
10FE8
100
AcDbEntity
  8
图框
 62
     6
100
AcDbMText
 10
1127.40434942308
 20
658.7332172029115
 30
0.0
 40
2.651776162684904
 41
2.557913877927211
 46
0.0
 71
     1
 72
     5
  1
D
  7
Romans字体
 11
0.0000000000000001
 21
1.0
 31
0.0
 73
     1
 44
1.0
1001
AcDbBlockRepETag
1070
     1
1071
       25
1005
18B0B
  0
LINE
  5
18B0C
330
10FE8
100
AcDbEntity
  8
图框
 62
     6
100
AcDbLine
 10
1130.411601781241
 20
634.0726090796082
 30
0.0
 11
1126.928502610363
 21
634.0726090796082
 31
0.0
1001
AcDbBlockRepETag
1070
     1
1071
       26
1005
18B0C
  0
LINE
  5
18B0D
330
10FE8
100
AcDbEntity
  8
图框
 62
     6
100
AcDbLine
 10
1130.411601781241
 20
582.89332913979
 30
0.0
 11
1126.928502610363
 21
582.89332913979
 31
0.0
1001
AcDbBlockRepETag
1070
     1
1071
       27
1005
18B0D
  0
MTEXT
  5
18B0E
330
10FE8
100
AcDbEntity
  8
图框
 62
     6
100
AcDbMText
 10
1105.329704038389
 20
483.6164543011163
 30
0.0
 40
2.651776162684904
 41
2.557913877927211
 46
0.0
 71
     1
 72
     5
  1
6
  7
Romans字体
 73
     1
 44
1.0
1001
AcDbBlockRepETag
1070
     1
1071
       28
1005
18B0E
  0
LINE
  5
18B0F
330
10FE8
100
AcDbEntity
  8
图框
 62
     6
100
AcDbLine
 10
1081.088565155284
 20
484.0347692601515
 30
0.0
 11
1081.088565155284
 21
480.5347692601475
 31
0.0
1001
AcDbBlockRepETag
1070
     1
1071
       29
1005
18B0F
  0
MTEXT
  5
18B10
330
10FE8
100
AcDbEntity
  8
图框
 62
     6
100
AcDbMText
 10
1055.900596365941
 20
483.520053108993
 30
0.0
 40
2.651776162684904
 41
2.557913877927211
 46
0.0
 71
     1
 72
     5
  1
5
  7
Romans字体
 73
     1
 44
1.0
1001
AcDbBlockRepETag
1070
     1
1071
       30
1005
18B10
  0
LINE
  5
18B11
330
10FE8
100
AcDbEntity
  8
图框
 62
     6
100
AcDbLine
 10
1031.553386436349
 20
484.0347692601515
 30
0.0
 11
1031.553386436349
 21
480.5347692601475
 31
0.0
1001
AcDbBlockRepETag
1070
     1
1071
       31
1005
18B11
  0
MTEXT
  5
18B12
330
10FE8
100
AcDbEntity
  8
图框
 62
     6
100
AcDbMText
 10
1006.383180575197
 20
483.5687958215896
 30
0.0
 40
2.651776162684904
 41
2.557913877927211
 46
0.0
 71
     1
 72
     5
  1
4
  7
Romans字体
 73
     1
 44
1.0
1001
AcDbBlockRepETag
1070
     1
1071
       32
1005
18B12
  0
LINE
  5
18B13
330
10FE8
100
AcDbEntity
  8
图框
 62
     6
100
AcDbLine
 10
982.0182077173887
 20
484.0347692601515
 30
0.0
 11
982.0182077173887
 21
480.5347692601475
 31
0.0
1001
AcDbBlockRepETag
1070
     1
1071
       33
1005
18B13
  0
MTEXT
  5
18B14
330
10FE8
100
AcDbEntity
  8
图框
 62
     6
100
AcDbMText
 10
956.8302389280352
 20
483.5989680297948
 30
0.0
 40
2.651776162684904
 41
2.557913877927211
 46
0.0
 71
     1
 72
     5
  1
3
  7
Romans字体
 73
     1
 44
1.0
1001
AcDbBlockRepETag
1070
     1
1071
       34
1005
18B14
  0
LINE
  5
18B15
330
10FE8
100
AcDbEntity
  8
图框
 62
     6
100
AcDbLine
 10
932.4830289984245
 20
484.0347692601515
 30
0.0
 11
932.4830289984245
 21
480.5347692601475
 31
0.0
1001
AcDbBlockRepETag
1070
     1
1071
       35
1005
18B15
  0
MTEXT
  5
18B16
330
10FE8
100
AcDbEntity
  8
图框
 62
     6
100
AcDbMText
 10
906.0252349826365
 20
483.6475250013156
 30
0.0
 40
2.651776162684904
 41
2.557913877927211
 46
0.0
 71
     1
 72
     5
  1
2
  7
Romans字体
 73
     1
 44
1.0
1001
AcDbBlockRepETag
1070
     1
1071
       36
1005
18B16
  0
LINE
  5
18B17
330
10FE8
100
AcDbEntity
  8
图框
 62
     6
100
AcDbLine
 10
882.9478502794648
 20
484.0347692601515
 30
0.0
 11
882.9478502794648
 21
480.5347692601475
 31
0.0
1001
AcDbBlockRepETag
1070
     1
1071
       37
1005
18B17
  0
MTEXT
  5
18B18
330
10FE8
100
AcDbEntity
  8
图框
 62
     6
100
AcDbMText
 10
857.7598814901191
 20
483.651829494754
 30
0.0
 40
2.651776162684904
 41
2.557913877927211
 46
0.0
 71
     1
 72
     5
  1
1
  7
Romans字体
 73
     1
 44
1.0
1001
AcDbBlockRepETag
1070
     1
1071
       38
1005
18B18
  0
LINE
  5
18B19
330
10FE8
100
AcDbEntity
  8
图框
370
    50
100
AcDbLine
 10
836.8548209370597
 20
484.0347692601515
 30
0.0
 11
1126.928502610363
 21
484.0347692601515
 31
0.0
1001
AcDbBlockRepETag
1070
     1
1071
       39
1005
18B19
  0
LINE
  5
18B1A
330
10FE8
100
AcDbEntity
  8
图框
370
    50
100
AcDbLine
 10
836.9128518455362
 20
484.0178684310246
 30
0.0
 11
836.9128518455394
 21
675.0207195125422
 31
0.0
1001
AcDbBlockRepETag
1070
     1
1071
       40
1005
18B1A
  0
MTEXT
  5
18B1B
330
10FE8
100
AcDbEntity
  8
图框
 62
     6
100
AcDbMText
 10
833.8475685789031
 20
658.7332172029115
 30
0.0
 40
2.651776162684904
 41
2.557913877927211
 46
0.0
 71
     1
 72
     5
  1
D
  7
Romans字体
 11
0.0000000000000001
 21
1.0
 31
0.0
 73
     1
 44
1.0
1001
AcDbBlockRepETag
1070
     1
1071
       41
1005
18B1B
  0
LINE
  5
18B1C
330
10FE8
100
AcDbEntity
  8
图框
 62
     6
100
AcDbLine
 10
836.9128518455386
 20
634.0726090796082
 30
0.0
 11
833.4128518455365
 21
634.0726090796082
 31
0.0
1001
AcDbBlockRepETag
1070
     1
1071
       42
1005
18B1C
  0
MTEXT
  5
18B1D
330
10FE8
100
AcDbEntity
  8
图框
 62
     6
100
AcDbMText
 10
833.9039177480142
 20
607.5539372630998
 30
0.0
 40
2.651776162684904
 41
2.557913877927211
 46
0.0
 71
     1
 72
     5
  1
C
  7
Romans字体
 11
0.0000000000000001
 21
1.0
 31
0.0
 73
     1
 44
1.0
1001
AcDbBlockRepETag
1070
     1
1071
       43
1005
18B1D
  0
LINE
  5
18B1E
330
10FE8
100
AcDbEntity
  8
图框
 62
     6
100
AcDbLine
 10
836.9128518455378
 20
582.89332913979
 30
0.0
 11
833.4128518455365
 21
582.89332913979
 31
0.0
1001
AcDbBlockRepETag
1070
     1
1071
       44
1005
18B1E
  0
MTEXT
  5
18B1F
330
10FE8
100
AcDbEntity
  8
图框
 62
     6
100
AcDbMText
 10
833.9039177480142
 20
556.3746573232886
 30
0.0
 40
2.651776162684904
 41
2.557913877927211
 46
0.0
 71
     1
 72
     5
  1
B
  7
Romans字体
 11
0.0000000000000001
 21
1.0
 31
0.0
 73
     1
 44
1.0
1001
AcDbBlockRepETag
1070
     1
1071
       45
1005
18B1F
  0
LINE
  5
18B20
330
10FE8
100
AcDbEntity
  8
图框
 62
     6
100
AcDbLine
 10
836.9128518455367
 20
531.714049199969
 30
0.0
 11
833.4128518455365
 21
531.714049199969
 31
0.0
1001
AcDbBlockRepETag
1070
     1
1071
       46
1005
18B20
  0
MTEXT
  5
18B21
330
10FE8
100
AcDbEntity
  8
图框
 62
     6
100
AcDbMText
 10
833.9039177480142
 20
508.7896535755975
 30
0.0
 40
2.651776162684904
 41
2.557913877927211
 46
0.0
 71
     1
 72
     5
  1
A
  7
Romans字体
 11
0.0000000000000001
 21
1.0
 31
0.0
 73
     1
 44
1.0
1001
AcDbBlockRepETag
1070
     1
1071
       47
1005
18B21
  0
LINE
  5
18B22
330
10FE8
100
AcDbEntity
  8
图框
370
    -3
100
AcDbLine
 10
836.9128518455394
 20
675.0207195125422
 30
0.0
 11
836.9128518455394
 21
684.5021384922564
 31
0.0
1001
AcDbBlockRepETag
1070
     1
1071
       48
1005
18B22
  0
LINE
  5
18B23
330
10FE8
100
AcDbEntity
  8
图框
370
    -3
100
AcDbLine
 10
842.6237321475781
 20
675.5347692601515
 30
0.0
 11
842.6237321475781
 21
685.0161882398658
 31
0.0
1001
AcDbBlockRepETag
1070
     1
1071
       49
1005
18B23
  0
LINE
  5
18B24
330
10FE8
100
AcDbEntity
  8
图框
370
    -3
100
AcDbLine
 10
848.3346124496179
 20
675.5347692601515
 30
0.0
 11
848.3346124496179
 21
685.0161882398658
 31
0.0
1001
AcDbBlockRepETag
1070
     1
1071
       50
1005
18B24
  0
LINE
  5
18B25
330
10FE8
100
AcDbEntity
  8
图框
370
    -3
100
AcDbLine
 10
854.0454927516588
 20
675.5347692601515
 30
0.0
 11
854.0454927516588
 21
685.0161882398658
 31
0.0
1001
AcDbBlockRepETag
1070
     1
1071
       51
1005
18B25
  0
LINE
  5
18B26
330
10FE8
100
AcDbEntity
  8
图框
370
    -3
100
AcDbLine
 10
861.5351874539182
 20
675.5347692601515
 30
0.0
 11
861.5351874539182
 21
686.7901958362482
 31
0.0
1001
AcDbBlockRepETag
1070
     1
1071
       52
1005
18B26
  0
MTEXT
  5
18B27
330
10FE8
100
AcDbEntity
  8
图框
 62
     6
100
AcDbMText
 10
1105.329704038389
 20
678.859919059449
 30
0.0
 40
2.651776162684904
 41
2.557913877927211
 46
0.0
 71
     1
 72
     5
  1
6
  7
Romans字体
 73
     1
 44
1.0
1001
AcDbBlockRepETag
1070
     1
1071
       53
1005
18B27
  0
LINE
  5
18B28
330
10FE8
100
AcDbEntity
  8
图框
 62
     6
100
AcDbLine
 10
1081.088565155284
 20
679.0347692601516
 30
0.0
 11
1081.088565155284
 21
675.5347692601515
 31
0.0
1001
AcDbBlockRepETag
1070
     1
1071
       54
1005
18B28
  0
MTEXT
  5
18B29
330
10FE8
100
AcDbEntity
  8
图框
 62
     6
100
AcDbMText
 10
1055.900596365941
 20
678.859919059449
 30
0.0
 40
2.651776162684904
 41
2.557913877927211
 46
0.0
 71
     1
 72
     5
  1
5
  7
Romans字体
 73
     1
 44
1.0
1001
AcDbBlockRepETag
1070
     1
1071
       55
1005
18B29
  0
LINE
  5
18B2A
330
10FE8
100
AcDbEntity
  8
图框
 62
     6
100
AcDbLine
 10
1031.553386436349
 20
679.0347692601516
 30
0.0
 11
1031.553386436349
 21
675.5347692601515
 31
0.0
1001
AcDbBlockRepETag
1070
     1
1071
       56
1005
18B2A
  0
MTEXT
  5
18B2B
330
10FE8
100
AcDbEntity
  8
图框
 62
     6
100
AcDbMText
 10
1006.36541764698
 20
678.7312083656147
 30
0.0
 40
2.651776162684904
 41
2.557913877927211
 46
0.0
 71
     1
 72
     5
  1
4
  7
Romans字体
 73
     1
 44
1.0
1001
AcDbBlockRepETag
1070
     1
1071
       57
1005
18B2B
  0
LINE
  5
18B2C
330
10FE8
100
AcDbEntity
  8
图框
 62
     6
100
AcDbLine
 10
982.0182077173887
 20
679.0347692601516
 30
0.0
 11
982.0182077173887
 21
675.5347692601515
 31
0.0
1001
AcDbBlockRepETag
1070
     1
1071
       58
1005
18B2C
  0
MTEXT
  5
18B2D
330
10FE8
100
AcDbEntity
  8
图框
 62
     6
100
AcDbMText
 10
956.8302389280352
 20
678.859919059449
 30
0.0
 40
2.651776162684904
 41
2.557913877927211
 46
0.0
 71
     1
 72
     5
  1
3
  7
Romans字体
 73
     1
 44
1.0
1001
AcDbBlockRepETag
1070
     1
1071
       59
1005
18B2D
  0
LINE
  5
18B2E
330
10FE8
100
AcDbEntity
  8
图框
 62
     6
100
AcDbLine
 10
932.4830289984245
 20
679.0347692601516
 30
0.0
 11
932.4830289984245
 21
675.5347692601515
 31
0.0
1001
AcDbBlockRepETag
1070
     1
1071
       60
1005
18B2E
  0
MTEXT
  5
18B2F
330
10FE8
100
AcDbEntity
  8
图框
 62
     6
100
AcDbMText
 10
907.295060209082
 20
678.859919059449
 30
0.0
 40
2.651776162684904
 41
2.557913877927211
 46
0.0
 71
     1
 72
     5
  1
2
  7
Romans字体
 73
     1
 44
1.0
1001
AcDbBlockRepETag
1070
     1
1071
       61
1005
18B2F
  0
LINE
  5
18B30
330
10FE8
100
AcDbEntity
  8
图框
 62
     6
100
AcDbLine
 10
882.9478502794648
 20
678.7962435131815
 30
0.0
 11
882.9478502794648
 21
675.5347692601515
 31
0.0
1001
AcDbBlockRepETag
1070
     1
1071
       62
1005
18B30
  0
MTEXT
  5
18B31
330
10FE8
100
AcDbEntity
  8
图框
 62
     6
100
AcDbMText
 10
862.6286629643733
 20
678.859919059449
 30
0.0
 40
2.651776162684904
 41
2.557913877927211
 46
0.0
 71
     1
 72
     5
  1
1
  7
Romans字体
 73
     1
 44
1.0
1001
AcDbBlockRepETag
1070
     1
1071
       63
1005
18B31
  0
LINE
  5
18B32
330
10FE8
100
AcDbEntity
  8
图框
370
    -3
100
AcDbLine
 10
836.9128518455394
 20
675.0207195125422
 30
0.0
 11
836.9128518455394
 21
686.7901958362482
 31
0.0
1001
AcDbBlockRepETag
1070
     1
1071
       64
1005
18B32
  0
LINE
  5
18B33
330
10FE8
100
AcDbEntity
  8
图框
370
    50
100
AcDbLine
 10
836.9128518455394
 20
675.5347692601515
 30
0.0
 11
1126.928502610363
 21
675.5347692601515
 31
0.0
1001
AcDbBlockRepETag
1070
     1
1071
       65
1005
18B33
  0
LINE
  5
18B34
330
10FE8
100
AcDbEntity
  8
图框
370
    -3
100
AcDbLine
 10
842.6237321475781
 20
675.5347692601515
 30
0.0
 11
842.6237321475781
 21
686.7901958362482
 31
0.0
1001
AcDbBlockRepETag
1070
     1
1071
       66
1005
18B34
  0
LINE
  5
18B35
330
10FE8
100
AcDbEntity
  8
图框
370
    -3
100
AcDbLine
 10
848.3346124496179
 20
675.5347692601515
 30
0.0
 11
848.3346124496179
 21
686.7901958362482
 31
0.0
1001
AcDbBlockRepETag
1070
     1
1071
       67
1005
18B35
  0
MTEXT
  5
18B36
102
{ACAD_XDICTIONARY
360
18BF4
102
}
330
10FE8
100
AcDbEntity
  8
图框
100
AcDbMText
 10
857.7903401027889
 20
686.7901958362482
 30
0.0
 40
1.958998408821398
 41
11.25542657609672
 46
7.489694702258906
 71
     4
 72
     5
  1
\pi2.8203;档案员{\H0.7x;\P\pi1.4159;\Fromans|c134;Filing Clerk\fFangSong_GB2312|b0|i0|c134|p49; }
 11
-0.0000000000000002
 21
-1.0
 31
0.0
 73
     1
 44
1.0
1001
AcDbBlockRepETag
1070
     1
1071
       68
1005
18B36
1001
ACAD
1000
ACAD_MTEXT_DEFINED_HEIGHT_BEGIN
1070
    46
1040
7.489694702258906
1000
ACAD_MTEXT_DEFINED_HEIGHT_END
  0
MTEXT
  5
18B37
102
{ACAD_XDICTIONARY
360
18BF6
102
}
330
10FE8
100
AcDbEntity
  8
图框
100
AcDbMText
 10
845.479172298598
 20
686.7901958362482
 30
0.0
 40
1.958998408821398
 41
11.25542657609672
 46
5.710880302039671
 71
     4
 72
     5
  1
\pi0.7115;日期{\Fromans|c134;/Date}
 11
-0.0000000000000002
 21
-1.0
 31
0.0
 73
     1
 44
1.0
1001
AcDbBlockRepETag
1070
     1
1071
       69
1005
18B37
1001
ACAD
1000
ACAD_MTEXT_DEFINED_HEIGHT_BEGIN
1070
    46
1040
5.710880302039671
1000
ACAD_MTEXT_DEFINED_HEIGHT_END
  0
LINE
  5
18B38
330
10FE8
100
AcDbEntity
  8
图框
370
    -3
100
AcDbLine
 10
854.0454927516588
 20
675.5347692601515
 30
0.0
 11
854.0454927516588
 21
686.7901958362482
 31
0.0
1001
AcDbBlockRepETag
1070
     1
1071
       70
1005
18B38
  0
LINE
  5
18B39
330
10FE8
100
AcDbEntity
  8
图框
370
    -3
100
AcDbLine
 10
1036.653967466372
 20
531.3291676047914
 30
0.0
 11
1036.653967466372
 21
484.0126019753161
 31
0.0
1001
AcDbBlockRepETag
1070
     1
1071
       71
1005
18B39
  0
LINE
  5
18B3A
330
10FE8
100
AcDbEntity
  8
图框
370
    -3
100
AcDbLine
 10
1047.483315900763
 20
507.6708838011533
 30
0.0
 11
1047.483315900763
 21
491.8986945987308
 31
0.0
1001
AcDbBlockRepETag
1070
     1
1071
       72
1005
18B3A
  0
LINE
  5
18B3B
330
10FE8
100
AcDbEntity
  8
图框
370
    -3
100
AcDbLine
 10
1058.312664335153
 20
507.6708838011533
 30
0.0
 11
1058.312664335153
 21
484.0347692601515
 31
0.0
1001
AcDbBlockRepETag
1070
     1
1071
       73
1005
18B3B
  0
LINE
  5
18B3C
330
10FE8
100
AcDbEntity
  8
图框
370
    25
100
AcDbLine
 10
1048.474135214456
 20
488.1095628329926
 30
0.0
 11
1054.946420288459
 21
488.1095628329926
 31
0.0
1001
AcDbBlockRepETag
1070
     1
1071
       74
1005
18B3C
  0
LINE
  5
18B3D
330
10FE8
100
AcDbEntity
  8
图框
370
    25
100
AcDbLine
 10
1054.232527365989
 20
487.0761716842634
 30
0.0
 11
1049.156490914508
 21
486.4576273751
 31
0.0
1001
AcDbBlockRepETag
1070
     1
1071
       75
1005
18B3D
  0
LINE
  5
18B3E
330
10FE8
100
AcDbEntity
  8
图框
370
    25
100
AcDbLine
 10
1054.232527365989
 20
489.1429539817209
 30
0.0
 11
1049.156490914508
 21
489.7614982908846
 31
0.0
1001
AcDbBlockRepETag
1070
     1
1071
       76
1005
18B3E
  0
LINE
  5
18B3F
330
10FE8
100
AcDbEntity
  8
图框
370
    25
100
AcDbLine
 10
1049.156490914508
 20
489.7614982908846
 30
0.0
 11
1049.156490914508
 21
486.4576273751
 31
0.0
1001
AcDbBlockRepETag
1070
     1
1071
       77
1005
18B3F
  0
LINE
  5
18B40
330
10FE8
100
AcDbEntity
  8
图框
370
    25
100
AcDbLine
 10
1054.232527365989
 20
489.1429539817209
 30
0.0
 11
1054.232527365989
 21
487.0761716842634
 31
0.0
1001
AcDbBlockRepETag
1070
     1
1071
       78
1005
18B40
  0
CIRCLE
  5
18B41
330
10FE8
100
AcDbEntity
  8
图框
370
    25
100
AcDbCircle
 10
1042.502700458579
 20
488.1095628329926
 30
0.0
 40
1.651935457891863
1001
AcDbBlockRepETag
1070
     1
1071
       79
1005
18B41
  0
CIRCLE
  5
18B42
330
10FE8
100
AcDbEntity
  8
图框
370
    25
100
AcDbCircle
 10
1042.502700458579
 20
488.1095628329926
 30
0.0
 40
1.033391148728775
1001
AcDbBlockRepETag
1070
     1
1071
       80
1005
18B42
  0
LINE
  5
18B43
330
10FE8
100
AcDbEntity
  8
图框
370
    25
100
AcDbLine
 10
1040.136872078216
 20
488.1095628329926
 30
0.0
 11
1044.868528838943
 21
488.1095628329926
 31
0.0
1001
AcDbBlockRepETag
1070
     1
1071
       81
1005
18B43
  0
LINE
  5
18B44
330
10FE8
100
AcDbEntity
  8
图框
370
    25
100
AcDbLine
 10
1042.502700458579
 20
490.475391213355
 30
0.0
 11
1042.502700458579
 21
485.743734452629
 31
0.0
1001
AcDbBlockRepETag
1070
     1
1071
       82
1005
18B44
  0
LINE
  5
18B45
330
10FE8
100
AcDbEntity
  8
图框
370
    -3
100
AcDbLine
 10
1069.142012769546
 20
507.6708838011533
 30
0.0
 11
1069.142012769546
 21
491.8986945987308
 31
0.0
1001
AcDbBlockRepETag
1070
     1
1071
       83
1005
18B45
  0
MTEXT
  5
18B46
330
10FE8
100
AcDbEntity
  8
图框
100
AcDbMText
 10
1086.643735910939
 20
526.8006839312707
 30
0.0
 40
2.154898249703542
 41
13.34474941400573
 46
9.056967347041775
 71
     5
 72
     5
  1
图号{\Ftxt|c134;\P\Fromans|c134;\W0.65;Drawing No.}
 73
     1
 44
1.0
1001
AcDbBlockRepETag
1070
     1
1071
       84
1005
18B46
1001
ACAD
1000
ACAD_MTEXT_DEFINED_HEIGHT_BEGIN
1070
    46
1040
9.056967347041775
1000
ACAD_MTEXT_DEFINED_HEIGHT_END
  0
LINE
  5
18B47
330
10FE8
100
AcDbEntity
  8
图框
370
    -3
100
AcDbLine
 10
1093.316110617942
 20
531.3291676047914
 30
0.0
 11
1093.316110617942
 21
495.8417418993347
 31
0.0
1001
AcDbBlockRepETag
1070
     1
1071
       85
1005
18B47
  0
LINE
  5
18B48
330
10FE8
100
AcDbEntity
  8
图框
370
    -3
100
AcDbLine
 10
1047.473969770481
 20
531.3291676047914
 30
0.0
 11
1047.473969770481
 21
507.6708838011533
 31
0.0
1001
AcDbBlockRepETag
1070
     1
1071
       86
1005
18B48
  0
MTEXT
  5
18B49
330
10FE8
100
AcDbEntity
  8
图框
100
AcDbMText
 10
1063.72733855235
 20
503.7278365005473
 30
0.0
 40
2.252848170144607
 41
10.82934843439208
 46
7.886094601212128
 71
     5
 72
     5
  1
重量\P{\Fromans|c134;Weight}
 73
     1
 44
1.0
1001
AcDbBlockRepETag
1070
     1
1071
       87
1005
18B49
1001
ACAD
1000
ACAD_MTEXT_DEFINED_HEIGHT_BEGIN
1070
    46
1040
7.886094601212128
1000
ACAD_MTEXT_DEFINED_HEIGHT_END
  0
LINE
  5
18B4A
330
10FE8
100
AcDbEntity
  8
图框
370
    -3
100
AcDbLine
 10
1036.653967466372
 20
519.5000257029746
 30
0.0
 11
1079.971361203936
 21
519.5000257029746
 31
0.0
1001
AcDbBlockRepETag
1070
     1
1071
       88
1005
18B4A
  0
MTEXT
  5
18B4B
330
10FE8
100
AcDbEntity
  8
图框
100
AcDbMText
 10
1074.556686986741
 20
503.7278365005473
 30
0.0
 40
2.252848170144607
 41
10.82934843438984
 46
7.886094601212141
 71
     5
 72
     5
  1
数量\P{\Fromans|c134;Qty.}
 73
     1
 44
1.0
1001
AcDbBlockRepETag
1070
     1
1071
       89
1005
18B4B
1001
ACAD
1000
ACAD_MTEXT_DEFINED_HEIGHT_BEGIN
1070
    46
1040
7.886094601212141
1000
ACAD_MTEXT_DEFINED_HEIGHT_END
  0
LINE
  5
18B4C
330
10FE8
100
AcDbEntity
  8
图框
370
    -3
100
AcDbLine
 10
1079.971361203936
 20
495.8417418993347
 30
0.0
 11
1126.928502610363
 21
495.8417418993342
 31
0.0
1001
AcDbBlockRepETag
1070
     1
1071
       90
1005
18B4C
  0
LINE
  5
18B4D
330
10FE8
100
AcDbEntity
  8
图框
370
    -3
100
AcDbLine
 10
1079.971361203936
 20
504.7132992040975
 30
0.0
 11
1126.928502610363
 21
504.7132992040975
 31
0.0
1001
AcDbBlockRepETag
1070
     1
1071
       91
1005
18B4D
  0
MTEXT
  5
18B4E
330
10FE8
100
AcDbEntity
  8
图框
100
AcDbMText
 10
1052.893317052817
 20
503.7278365005473
 30
0.0
 40
2.252848170144607
 41
10.83869456467139
 46
7.886094601212101
 71
     5
 72
     5
  1
版本\P{\Fromans|c134;REV.}
 73
     1
 44
1.0
1001
AcDbBlockRepETag
1070
     1
1071
       92
1005
18B4E
1001
ACAD
1000
ACAD_MTEXT_DEFINED_HEIGHT_BEGIN
1070
    46
1040
7.886094601212101
1000
ACAD_MTEXT_DEFINED_HEIGHT_END
  0
MTEXT
  5
18B4F
330
10FE8
100
AcDbEntity
  8
图框
100
AcDbMText
 10
1042.068641683568
 20
503.7278365005473
 30
0.0
 40
2.252848170144607
 41
10.8293484343908
 46
7.886094601212136
 71
     5
 72
     5
  1
比例\P{\Fromans|c134;Scale}
 73
     1
 44
1.0
1001
AcDbBlockRepETag
1070
     1
1071
       93
1005
18B4F
1001
ACAD
1000
ACAD_MTEXT_DEFINED_HEIGHT_BEGIN
1070
    46
1040
7.886094601212136
1000
ACAD_MTEXT_DEFINED_HEIGHT_END
  0
LINE
  5
18B50
330
10FE8
100
AcDbEntity
  8
图框
370
    -3
100
AcDbLine
 10
1036.653967466372
 20
507.6708838011533
 30
0.0
 11
1079.971361203936
 21
507.6708838011533
 31
0.0
1001
AcDbBlockRepETag
1070
     1
1071
       94
1005
18B50
  0
LINE
  5
18B51
330
10FE8
100
AcDbEntity
  8
图框
370
    -3
100
AcDbLine
 10
1036.653967466372
 20
491.8986945987308
 30
0.0
 11
1079.971361203936
 21
491.8986945987308
 31
0.0
1001
AcDbBlockRepETag
1070
     1
1071
       95
1005
18B51
  0
LINE
  5
18B52
330
10FE8
100
AcDbEntity
  8
图框
370
    -3
100
AcDbLine
 10
1079.971361203936
 20
531.3291676047914
 30
0.0
 11
1079.971361203936
 21
484.0125999975168
 31
0.0
1001
AcDbBlockRepETag
1070
     1
1071
       96
1005
18B52
  0
MTEXT
  5
18B53
330
10FE8
100
AcDbEntity
  8
图框
100
AcDbMText
 10
1042.063968618426
 20
525.4145966538832
 30
0.0
 40
2.252848170144607
 41
10.82000230410933
 46
11.82914190181708
 71
     5
 72
     5
  1
表面处理\P{\Fromans|c134;Finish}
 73
     1
 44
1.0
1001
AcDbBlockRepETag
1070
     1
1071
       97
1005
18B53
1001
ACAD
1000
ACAD_MTEXT_DEFINED_HEIGHT_BEGIN
1070
    46
1040
11.82914190181708
1000
ACAD_MTEXT_DEFINED_HEIGHT_END
  0
MTEXT
  5
18B54
330
10FE8
100
AcDbEntity
  8
图框
100
AcDbMText
 10
1042.063968618426
 20
513.5854547520639
 30
0.0
 40
2.252848170144607
 41
10.82000230410933
 46
11.8291419018212
 71
     5
 72
     5
  1
材料\P{\Fromans|c134;Material}
 73
     1
 44
1.0
1001
AcDbBlockRepETag
1070
     1
1071
       98
1005
18B54
1001
ACAD
1000
ACAD_MTEXT_DEFINED_HEIGHT_BEGIN
1070
    46
1040
11.8291419018212
1000
ACAD_MTEXT_DEFINED_HEIGHT_END
  0
LINE
  5
18B55
330
10FE8
100
AcDbEntity
  8
图框
370
    -3
100
AcDbLine
 10
1079.971361203936
 20
522.27220025775
 30
0.0
 11
1126.928502610363
 21
522.27220025775
 31
0.0
1001
AcDbBlockRepETag
1070
     1
1071
       99
1005
18B55
  0
LINE
  5
18B56
330
10FE8
100
AcDbEntity
  8
图框
370
    -3
100
AcDbLine
 10
1079.971361203936
 20
513.5854547520641
 30
0.0
 11
1126.928502610363
 21
513.5854547520639
 31
0.0
1001
AcDbBlockRepETag
1070
     1
1071
      100
1005
18B56
  0
MTEXT
  5
18B57
330
10FE8
100
AcDbEntity
  8
图框
100
AcDbMText
 10
1086.643735910939
 20
517.9288275049072
 30
0.0
 40
1.958998408821398
 41
13.34474941400573
 46
8.686745505685811
 71
     5
 72
     5
  1
产品代号\P{\Fromans|c134;Part Code}
 73
     1
 44
1.0
1001
AcDbBlockRepETag
1070
     1
1071
      101
1005
18B57
1001
ACAD
1000
ACAD_MTEXT_DEFINED_HEIGHT_BEGIN
1070
    46
1040
8.686745505685811
1000
ACAD_MTEXT_DEFINED_HEIGHT_END
  0
LINE
  5
18B58
330
10FE8
100
AcDbEntity
  8
图框
370
    -3
100
AcDbLine
 10
946.9285026103634
 20
525.7982263931411
 30
0.0
 11
1036.653967466372
 21
525.7982263931411
 31
0.0
1001
AcDbBlockRepETag
1070
     1
1071
      102
1005
18B58
  0
LINE
  5
18B59
330
10FE8
100
AcDbEntity
  8
图框
370
    -3
100
AcDbLine
 10
946.9285026103634
 20
520.2672851814959
 30
0.0
 11
1036.653967466372
 21
520.2672851814959
 31
0.0
1001
AcDbBlockRepETag
1070
     1
1071
      103
1005
18B59
  0
LINE
  5
18B5A
330
10FE8
100
AcDbEntity
  8
图框
370
    35
100
AcDbLine
 10
946.9285026103634
 20
531.3291676047914
 30
0.0
 11
1126.928502610363
 21
531.3291676047914
 31
0.0
1001
AcDbBlockRepETag
1070
     1
1071
      104
1005
18B5A
  0
LINE
  5
18B5B
330
10FE8
100
AcDbEntity
  8
图框
370
    -3
100
AcDbLine
 10
990.6727612856927
 20
509.2054027581959
 30
0.0
 11
990.6727612856927
 21
484.0347692601515
 31
0.0
1001
AcDbBlockRepETag
1070
     1
1071
      105
1005
18B5B
  0
MTEXT
  5
18B5C
102
{ACAD_XDICTIONARY
360
18BF8
102
}
330
10FE8
100
AcDbEntity
  8
图框
100
AcDbMText
 10
997.1628169651232
 20
499.816589978722
 30
0.0
 40
2.252848170144607
 41
12.98011135886052
 46
6.19230880992475
 71
     5
 72
     5
  1
{\fSimSun|b0|i0|c134|p2;标准化}\PStand.
  7
Romans字体
 73
     1
 44
1.0
1001
AcDbBlockRepETag
1070
     1
1071
      106
1005
18B5C
1001
ACAD
1000
ACAD_MTEXT_DEFINED_HEIGHT_BEGIN
1070
    46
1040
6.19230880992475
1000
ACAD_MTEXT_DEFINED_HEIGHT_END
  0
LINE
  5
18B5D
330
10FE8
100
AcDbEntity
  8
图框
370
    -3
100
AcDbLine
 10
975.4103773808022
 20
509.2054027581959
 30
0.0
 11
975.4103773808022
 21
484.0347692601515
 31
0.0
1001
AcDbBlockRepETag
1070
     1
1071
      107
1005
18B5D
  0
MTEXT
  5
18B5E
330
10FE8
100
AcDbEntity
  8
图框
100
AcDbMText
 10
984.5089229802068
 20
511.9708733640202
 30
0.0
 40
2.448748011026752
 41
38.287899328693
 46
5.530941211648832
 71
     5
 72
     5
  1
  变更描述{\Fromans|c134;/Description}
 73
     1
 44
1.0
1001
AcDbBlockRepETag
1070
     1
1071
      108
1005
18B5E
1001
ACAD
1000
ACAD_MTEXT_DEFINED_HEIGHT_BEGIN
1070
    46
1040
5.530941211648832
1000
ACAD_MTEXT_DEFINED_HEIGHT_END
  0
MTEXT
  5
18B5F
102
{ACAD_XDICTIONARY
360
18BFA
102
}
330
10FE8
100
AcDbEntity
  8
图框
100
AcDbMText
 10
1012.477254728976
 20
511.9708733640202
 30
0.0
 40
1.958998408821398
 41
17.64876416884548
 46
5.530941211648825
 71
     5
 72
     5
  1
签名\P{\Fromans|c134;Signature} 
 73
     1
 44
1.0
1001
AcDbBlockRepETag
1070
     1
1071
      109
1005
18B5F
1001
ACAD
1000
ACAD_MTEXT_DEFINED_HEIGHT_BEGIN
1070
    46
1040
5.530941211648825
1000
ACAD_MTEXT_DEFINED_HEIGHT_END
  0
MTEXT
  5
18B60
102
{ACAD_XDICTIONARY
360
18BFC
102
}
330
10FE8
100
AcDbEntity
  8
图框
100
AcDbMText
 10
960.7558556394856
 20
511.9708733640202
 30
0.0
 40
1.958998408821398
 41
9.218235352749283
 46
5.530941211648841
 71
     5
 72
     5
  1
处数\P{\Fromans|c134;Number }
 73
     1
 44
1.0
1001
AcDbBlockRepETag
1070
     1
1071
      110
1005
18B60
1001
ACAD
1000
ACAD_MTEXT_DEFINED_HEIGHT_BEGIN
1070
    46
1040
5.530941211648841
1000
ACAD_MTEXT_DEFINED_HEIGHT_END
  0
LINE
  5
18B61
330
10FE8
100
AcDbEntity
  8
图框
370
    -3
100
AcDbLine
 10
946.9285026103634
 20
514.7363439698449
 30
0.0
 11
1036.653967466372
 21
514.7363439698449
 31
0.0
1001
AcDbBlockRepETag
1070
     1
1071
      111
1005
18B61
  0
LINE
  5
18B62
330
10FE8
100
AcDbEntity
  8
图框
370
    -3
100
AcDbLine
 10
946.9285026103634
 20
509.2054027581959
 30
0.0
 11
1036.653967466372
 21
509.2054027581959
 31
0.0
1001
AcDbBlockRepETag
1070
     1
1071
      112
1005
18B62
  0
LINE
  5
18B63
330
10FE8
100
AcDbEntity
  8
图框
370
    -3
100
AcDbLine
 10
946.9285026103634
 20
502.9127443836848
 30
0.0
 11
1036.653967466372
 21
502.9127443836848
 31
0.0
1001
AcDbBlockRepETag
1070
     1
1071
      113
1005
18B63
  0
LINE
  5
18B64
330
10FE8
100
AcDbEntity
  8
图框
370
    -3
100
AcDbLine
 10
946.9285026103634
 20
496.620086009173
 30
0.0
 11
1036.653967466372
 21
496.620086009173
 31
0.0
1001
AcDbBlockRepETag
1070
     1
1071
      114
1005
18B64
  0
LINE
  5
18B65
330
10FE8
100
AcDbEntity
  8
图框
370
    35
380
     1
100
AcDbLine
 10
946.9285026103634
 20
531.3291676047914
 30
0.0
 11
946.9285026103634
 21
484.0347692601515
 31
0.0
1001
AcDbBlockRepETag
1070
     1
1071
      115
1005
18B65
  0
LINE
  5
18B66
330
10FE8
100
AcDbEntity
  8
图框
370
    -3
100
AcDbLine
 10
1021.301636813399
 20
531.3291676047914
 30
0.0
 11
1021.301636813399
 21
484.0347692601515
 31
0.0
1001
AcDbBlockRepETag
1070
     1
1071
      116
1005
18B66
  0
LINE
  5
18B67
330
10FE8
100
AcDbEntity
  8
图框
370
    -3
100
AcDbLine
 10
1003.652872644553
 20
531.3291676047914
 30
0.0
 11
1003.652872644553
 21
484.0347692601515
 31
0.0
1001
AcDbBlockRepETag
1070
     1
1071
      117
1005
18B67
  0
LINE
  5
18B68
330
10FE8
100
AcDbEntity
  8
图框
370
    -3
100
AcDbLine
 10
965.3649733158603
 20
531.3291676047914
 30
0.0
 11
965.3649733158603
 21
509.2054027581959
 31
0.0
1001
AcDbBlockRepETag
1070
     1
1071
      118
1005
18B68
  0
LINE
  5
18B69
330
10FE8
100
AcDbEntity
  8
图框
370
    -3
100
AcDbLine
 10
956.1467379631109
 20
531.3291676047914
 30
0.0
 11
956.1467379631109
 21
509.2054027581959
 31
0.0
1001
AcDbBlockRepETag
1070
     1
1071
      119
1005
18B69
  0
MTEXT
  5
18B6A
102
{ACAD_XDICTIONARY
360
18BFE
102
}
330
10FE8
100
AcDbEntity
  8
图框
100
AcDbMText
 10
951.537620286737
 20
511.9708733640202
 30
0.0
 40
1.958998408821398
 41
9.218235352747692
 46
5.530941211648832
 71
     5
 72
     5
  1
标记\P{\Fromans|c134;Mark}
 73
     1
 44
1.0
1001
AcDbBlockRepETag
1070
     1
1071
      120
1005
18B6A
1001
ACAD
1000
ACAD_MTEXT_DEFINED_HEIGHT_BEGIN
1070
    46
1040
5.530941211648832
1000
ACAD_MTEXT_DEFINED_HEIGHT_END
  0
MTEXT
  5
18B6B
102
{ACAD_XDICTIONARY
360
18C00
102
}
330
10FE8
100
AcDbEntity
  8
图框
100
AcDbMText
 10
953.4185582897936
 20
493.4737568219182
 30
0.0
 40
2.252848170144607
 41
12.98011135886041
 46
6.292658374510382
 71
     5
 72
     5
  1
审核\P{\Fromans|c134;Checked}
 73
     1
 44
1.0
1001
AcDbBlockRepETag
1070
     1
1071
      121
1005
18B6B
1001
ACAD
1000
ACAD_MTEXT_DEFINED_HEIGHT_BEGIN
1070
    46
1040
6.292658374510382
1000
ACAD_MTEXT_DEFINED_HEIGHT_END
  0
MTEXT
  5
18B6C
102
{ACAD_XDICTIONARY
360
18C02
102
}
330
10FE8
100
AcDbEntity
  8
图框
100
AcDbMText
 10
953.4185582897936
 20
499.8775635376777
 30
0.0
 40
2.252848170144607
 41
12.98011135886041
 46
6.070361692014189
 71
     5
 72
     5
  1
绘图\P{\Fromans|c134;Drawn\Ftxt|c134; }
 73
     1
 44
1.0
1001
AcDbBlockRepETag
1070
     1
1071
      122
1005
18B6C
1001
ACAD
1000
ACAD_MTEXT_DEFINED_HEIGHT_BEGIN
1070
    46
1040
6.070361692014189
1000
ACAD_MTEXT_DEFINED_HEIGHT_END
  0
ARC
  5
18B6D
330
10FE8
100
AcDbEntity
  8
图框
 62
     4
370
    35
100
AcDbCircle
 10
1086.900627017421
 20
490.0179944151195
 30
0.0
 40
4.063310408393665
100
AcDbArc
 50
18.95237904564806
 51
161.0476209543519
1001
AcDbBlockRepETag
1070
     1
1071
      123
1005
18B6D
  0
ARC
  5
18B6E
330
10FE8
100
AcDbEntity
  8
图框
 62
     4
370
    35
100
AcDbCircle
 10
1086.900627017421
 20
490.0179944151195
 30
0.0
 40
4.063310408393665
100
AcDbArc
 50
198.952379045648
 51
341.0476209543519
1001
AcDbBlockRepETag
1070
     1
1071
      124
1005
18B6E
  0
LINE
  5
18B6F
330
10FE8
100
AcDbEntity
  8
图框
 62
     4
370
    35
100
AcDbLine
 10
1083.057593369548
 20
488.6983035966752
 30
0.0
 11
1090.74366066529
 21
488.6983035966752
 31
0.0
1001
AcDbBlockRepETag
1070
     1
1071
      125
1005
18B6F
  0
LINE
  5
18B70
330
10FE8
100
AcDbEntity
  8
图框
 62
     4
370
    35
100
AcDbLine
 10
1083.057593369548
 20
491.3376852335652
 30
0.0
 11
1090.74366066529
 21
491.3376852335652
 31
0.0
1001
AcDbBlockRepETag
1070
     1
1071
      126
1005
18B70
  0
MTEXT
  5
18B71
330
10FE8
100
AcDbEntity
  8
图框
 62
     1
370
    20
100
AcDbMText
 10
1083.034582879669
 20
491.0506288081688
 30
0.0
 40
2.005930044038334
 41
5.047240019334847
 46
0.0
 71
     1
 72
     5
  1
{\fArial|b0|i0|c0|p34;W}
  7
Chinese
 73
     1
 44
1.0
1001
AcDbBlockRepETag
1070
     1
1071
      127
1005
18B71
  0
LINE
  5
18B72
330
10FE8
100
AcDbEntity
  8
图框
370
    -3
100
AcDbLine
 10
946.9285026103634
 20
490.327427634663
 30
0.0
 11
1036.653967466372
 21
490.327427634663
 31
0.0
1001
AcDbBlockRepETag
1070
     1
1071
      128
1005
18B72
  0
LINE
  5
18B73
330
10FE8
100
AcDbEntity
  8
图框
370
    -3
100
AcDbLine
 10
959.9086139692238
 20
509.2054027581959
 30
0.0
 11
959.9086139692238
 21
484.0347692601515
 31
0.0
1001
AcDbBlockRepETag
1070
     1
1071
      129
1005
18B73
  0
MTEXT
  5
18B74
330
10FE8
100
AcDbEntity
  8
图框
100
AcDbMText
 10
967.6594956750129
 20
506.0590735709403
 30
0.0
 40
2.252848170144607
 41
15.50176341157869
 46
6.292658374511246
 71
     5
 72
     5
  1
姓名{\Fromans|c134;/Name\Ftxt|c134; }
 73
     1
 44
1.0
1001
AcDbBlockRepETag
1070
     1
1071
      130
1005
18B74
1001
ACAD
1000
ACAD_MTEXT_DEFINED_HEIGHT_BEGIN
1070
    46
1040
6.292658374511246
1000
ACAD_MTEXT_DEFINED_HEIGHT_END
  0
MTEXT
  5
18B75
330
10FE8
100
AcDbEntity
  8
图框
100
AcDbMText
 10
983.0415693332477
 20
506.0590735709403
 30
0.0
 40
2.252848170144607
 41
15.26238390489042
 46
6.2926583745112
 71
     5
 72
     5
  1
日期{\Fromans|c134;/Date}
 73
     1
 44
1.0
1001
AcDbBlockRepETag
1070
     1
1071
      131
1005
18B75
1001
ACAD
1000
ACAD_MTEXT_DEFINED_HEIGHT_BEGIN
1070
    46
1040
6.2926583745112
1000
ACAD_MTEXT_DEFINED_HEIGHT_END
  0
LINE
  5
18B76
330
10FE8
100
AcDbEntity
  8
图框
370
    -3
100
AcDbLine
 10
946.9285026103634
 20
509.2054027581959
 30
0.0
 11
959.9086139692238
 21
502.9127443836848
 31
0.0
1001
AcDbBlockRepETag
1070
     1
1071
      132
1005
18B76
  0
MTEXT
  5
18B77
330
10FE8
100
AcDbEntity
  8
图框
100
AcDbMText
 10
1012.931405110086
 20
506.0185715840725
 30
0.0
 40
2.252848170144607
 41
16.93492221063566
 46
0.0
 71
     5
 72
     5
  1
姓名{\Fromans|c134;/Name}
 73
     1
 44
1.0
1001
AcDbBlockRepETag
1070
     1
1071
      133
1005
18B77
  0
MTEXT
  5
18B78
330
10FE8
100
AcDbEntity
  8
图框
100
AcDbMText
 10
1028.977802139886
 20
506.0590735709403
 30
0.0
 40
2.252848170144607
 41
15.35233065297283
 46
6.292658374511256
 71
     5
 72
     5
  1
日期{\Fromans|c134;/Date}
 73
     1
 44
1.0
1001
AcDbBlockRepETag
1070
     1
1071
      134
1005
18B78
1001
ACAD
1000
ACAD_MTEXT_DEFINED_HEIGHT_BEGIN
1070
    46
1040
6.292658374511256
1000
ACAD_MTEXT_DEFINED_HEIGHT_END
  0
LINE
  5
18B79
330
10FE8
100
AcDbEntity
  8
图框
370
    -3
100
AcDbLine
 10
1003.652872644553
 20
502.9127443836848
 30
0.0
 11
990.6727612856927
 21
509.2054027581959
 31
0.0
1001
AcDbBlockRepETag
1070
     1
1071
      135
1005
18B79
  0
MTEXT
  5
18B7A
102
{ACAD_XDICTIONARY
360
18C04
102
}
330
10FE8
100
AcDbEntity
  8
图框
100
AcDbMText
 10
997.1628169651232
 20
487.1810984474071
 30
0.0
 40
2.252848170144607
 41
12.98011135886052
 46
6.292658374511517
 71
     5
 72
     5
  1
批准\P{\Fromans|c134;Approved}
 73
     1
 44
1.0
1001
AcDbBlockRepETag
1070
     1
1071
      136
1005
18B7A
1001
ACAD
1000
ACAD_MTEXT_DEFINED_HEIGHT_BEGIN
1070
    46
1040
6.292658374511517
1000
ACAD_MTEXT_DEFINED_HEIGHT_END
  0
MTEXT
  5
18B7B
102
{ACAD_XDICTIONARY
360
18C06
102
}
330
10FE8
100
AcDbEntity
  8
图框
100
AcDbMText
 10
953.4185582897936
 20
487.1810984474071
 30
0.0
 40
2.252848170144607
 41
12.98011135886041
 46
6.292658374511495
 71
     5
 72
     5
  1
工艺\P{\Fromans|c134;Process}
 73
     1
 44
1.0
1001
AcDbBlockRepETag
1070
     1
1071
      137
1005
18B7B
1001
ACAD
1000
ACAD_MTEXT_DEFINED_HEIGHT_BEGIN
1070
    46
1040
6.292658374511495
1000
ACAD_MTEXT_DEFINED_HEIGHT_END
  0
MTEXT
  5
18B7C
102
{ACAD_XDICTIONARY
360
18C08
102
}
330
10FE8
100
AcDbEntity
  8
图框
100
AcDbMText
 10
1028.977802139886
 20
511.9708733640202
 30
0.0
 40
1.958998408821398
 41
15.3523306529728
 46
5.530941211648912
 71
     5
 72
     5
  1
日期\P{\Fromans|c134;Date}
 73
     1
 44
1.0
1001
AcDbBlockRepETag
1070
     1
1071
      138
1005
18B7C
1001
ACAD
1000
ACAD_MTEXT_DEFINED_HEIGHT_BEGIN
1070
    46
1040
5.530941211648912
1000
ACAD_MTEXT_DEFINED_HEIGHT_END
  0
MTEXT
  5
18B7D
330
10FE8
100
AcDbEntity
  8
图框
100
AcDbMText
 10
1086.643735910939
 20
509.1493769780809
 30
0.0
 40
2.154898249703542
 41
13.34474941400573
 46
8.87215554796615
 71
     5
 72
     5
  1
产品料号\P{\Fromans|c134;Part No.}
 73
     1
 44
1.0
1001
AcDbBlockRepETag
1070
     1
1071
      139
1005
18B7D
1001
ACAD
1000
ACAD_MTEXT_DEFINED_HEIGHT_BEGIN
1070
    46
1040
8.87215554796615
1000
ACAD_MTEXT_DEFINED_HEIGHT_END
  0
MTEXT
  5
18B7E
330
10FE8
100
AcDbEntity
  8
图框
100
AcDbMText
 10
1086.643735910939
 20
500.2775205517163
 30
0.0
 40
1.958998408821398
 41
13.34474941400573
 46
8.871557304763321
 71
     5
 72
     5
  1
产品名称\P{\Fromans|c134;Part Name}
 73
     1
 44
1.0
1001
AcDbBlockRepETag
1070
     1
1071
      140
1005
18B7E
1001
ACAD
1000
ACAD_MTEXT_DEFINED_HEIGHT_BEGIN
1070
    46
1040
8.871557304763321
1000
ACAD_MTEXT_DEFINED_HEIGHT_END
  0
LINE
  5
18B7F
330
10FE8
100
AcDbEntity
  8
图框
 62
     1
370
    18
100
AcDbLine
 10
833.4128518455365
 20
690.5347692601515
 30
0.0
 11
833.4128518455365
 21
480.5347692601515
 31
0.0
1001
AcDbBlockRepETag
1070
     1
1071
      141
1005
18B7F
  0
LINE
  5
18B80
330
10FE8
100
AcDbEntity
  8
图框
 62
     1
370
    18
100
AcDbLine
 10
833.4128518455365
 20
480.5347692601515
 30
0.0
 11
1130.411601781236
 21
480.5347692601515
 31
0.0
1001
AcDbBlockRepETag
1070
     1
1071
      142
1005
18B80
  0
LINE
  5
18B81
330
10FE8
100
AcDbEntity
  8
图框
 62
     1
370
    18
100
AcDbLine
 10
833.4128518455365
 20
690.5347692601515
 30
0.0
 11
1130.411601781236
 21
690.5347692601515
 31
0.0
1001
AcDbBlockRepETag
1070
     1
1071
      143
1005
18B81
  0
LINE
  5
18B82
330
10FE8
100
AcDbEntity
  8
图框
 62
     1
370
    18
100
AcDbLine
 10
1130.411601781236
 20
480.5347692601515
 30
0.0
 11
1130.411601781236
 21
690.5347692601515
 31
0.0
1001
AcDbBlockRepETag
1070
     1
1071
      144
1005
18B82
  0
LINE
  5
18B83
330
10FE8
100
AcDbEntity
  8
图框
370
    18
100
AcDbLine
 10
836.9128518455394
 20
686.7901958362482
 30
0.0
 11
861.5351874539182
 21
686.7901958362482
 31
0.0
1001
AcDbBlockRepETag
1070
     1
1071
      145
1005
18B83
  0
LINE
  5
18B84
330
10FE8
100
AcDbEntity
  8
图框
370
    50
100
AcDbLine
 10
1126.928502610363
 20
484.3410054693078
 30
0.0
 11
1126.928502610363
 21
675.5347692601515
 31
0.0
1001
AcDbBlockRepETag
1070
     1
1071
      146
1005
18B84
  0
MTEXT
  5
18B85
330
10FE8
100
AcDbEntity
  8
图框
 62
     3
100
AcDbMText
 10
1052.897990117958
 20
495.8417418993364
 30
0.0
 40
2.985513575034151
 41
10.82934843439114
 46
7.886094601211307
 71
     5
 72
     5
  1
V1.1
  7
Romans字体
 73
     1
 44
1.0
1001
AcDbBlockRepETag
1070
     1
1071
      147
1005
18B85
1001
ACAD
1000
ACAD_MTEXT_DEFINED_HEIGHT_BEGIN
1070
    46
1040
7.886094601211307
1000
ACAD_MTEXT_DEFINED_HEIGHT_END
  0
LINE
  5
18B86
330
10FE8
100
AcDbEntity
  8
图框
 62
     6
100
AcDbLine
 10
1126.911601781236
 20
531.714049199969
 30
0.0
 11
1130.411601781236
 21
531.714049199969
 31
0.0
1001
AcDbBlockRepETag
1070
     1
1071
      148
1005
18B86
  0
ENDBLK
  5
1107F
330
10FE8
100
AcDbEntity
  8
0
100
AcDbBlockEnd
  0
BLOCK
  5
18452
330
18451
100
AcDbEntity
  8
0
100
AcDbBlockBegin
  2
*X24
 70
     1
 10
0.0
 20
0.0
 30
0.0
  3
*X24
  1

  0
LINE
  5
18453
330
18451
100
AcDbEntity
  8
5
  6
Continuous
 62
     1
100
AcDbLine
 10
-0.76516504
 20
-0.76516504
 30
0.0
 11
0.76516504
 21
0.76516504
 31
0.0
  0
LINE
  5
18454
330
18451
100
AcDbEntity
  8
5
  6
Continuous
 62
     1
100
AcDbLine
 10
-1.825825199999996
 20
0.29549513
 30
0.0
 11
0.49130037
 21
2.612620699999999
 31
0.0
  0
LINE
  5
18455
330
18451
100
AcDbEntity
  8
5
  6
Continuous
 62
     1
100
AcDbLine
 10
-3.2881358
 20
0.9545048699999998
 30
0.0
 11
-0.85356284
 21
3.389077799999998
 31
0.0
  0
LINE
  5
18456
330
18451
100
AcDbEntity
  8
5
  6
Continuous
 62
     1
100
AcDbLine
 10
-5.4094562
 20
0.9545048699999998
 30
0.0
 11
-2.9094562
 21
3.454504899999998
 31
0.0
  0
LINE
  5
18457
330
18451
100
AcDbEntity
  8
5
  6
Continuous
 62
     1
100
AcDbLine
 10
-7.530776499999999
 20
0.9545048699999998
 30
0.0
 11
-5.030776499999999
 21
3.454504899999998
 31
0.0
  0
LINE
  5
18458
330
18451
100
AcDbEntity
  8
5
  6
Continuous
 62
     1
100
AcDbLine
 10
-9.6520968
 20
0.9545048699999998
 30
0.0
 11
-7.152096799999998
 21
3.454504899999998
 31
0.0
  0
LINE
  5
18459
330
18451
100
AcDbEntity
  8
5
  6
Continuous
 62
     1
100
AcDbLine
 10
-11.773417
 20
0.9545048699999998
 30
0.0
 11
-9.273417199999999
 21
3.454504899999998
 31
0.0
  0
LINE
  5
1845A
330
18451
100
AcDbEntity
  8
5
  6
Continuous
 62
     1
100
AcDbLine
 10
-13.894738
 20
0.9545048699999998
 30
0.0
 11
-11.394738
 21
3.454504899999998
 31
0.0
  0
LINE
  5
1845B
330
18451
100
AcDbEntity
  8
5
  6
Continuous
 62
     1
100
AcDbLine
 10
-16.01605799999999
 20
0.9545048699999998
 30
0.0
 11
-13.516058
 21
3.454504899999998
 31
0.0
  0
LINE
  5
1845C
330
18451
100
AcDbEntity
  8
5
  6
Continuous
 62
     1
100
AcDbLine
 10
-2.016057899999998
 20
14.954505
 30
0.0
 11
0.76516504
 21
17.735728
 31
0.0
  0
LINE
  5
1845D
330
18451
100
AcDbEntity
  8
5
  6
Continuous
 62
     1
100
AcDbLine
 10
-18.137378
 20
0.9545048699999998
 30
0.0
 11
-15.637378
 21
3.454504899999998
 31
0.0
  0
LINE
  5
1845E
330
18451
100
AcDbEntity
  8
5
  6
Continuous
 62
     1
100
AcDbLine
 10
-4.137378199999997
 20
14.954505
 30
0.0
 11
0.61262178
 21
19.704505
 31
0.0
  0
LINE
  5
1845F
330
18451
100
AcDbEntity
  8
5
  6
Continuous
 62
     1
100
AcDbLine
 10
-20.258699
 20
0.9545048699999998
 30
0.0
 11
-17.758699
 21
3.454504899999998
 31
0.0
  0
LINE
  5
18460
330
18451
100
AcDbEntity
  8
5
  6
Continuous
 62
     1
100
AcDbLine
 10
-6.258698599999998
 20
14.954505
 30
0.0
 11
-3.758698599999998
 21
17.454505
 31
0.0
  0
LINE
  5
18461
330
18451
100
AcDbEntity
  8
5
  6
Continuous
 62
     1
100
AcDbLine
 10
-25.130019
 20
-1.795495099999999
 30
0.0
 11
-24.234835
 21
-0.9003111799999999
 31
0.0
  0
LINE
  5
18462
330
18451
100
AcDbEntity
  8
5
  6
Continuous
 62
     1
100
AcDbLine
 10
-22.380019
 20
0.9545048699999998
 30
0.0
 11
-19.880019
 21
3.454504899999998
 31
0.0
  0
LINE
  5
18463
330
18451
100
AcDbEntity
  8
5
  6
Continuous
 62
     1
100
AcDbLine
 10
-8.380018899999999
 20
14.954505
 30
0.0
 11
-5.880018899999996
 21
17.454505
 31
0.0
  0
LINE
  5
18464
330
18451
100
AcDbEntity
  8
5
  6
Continuous
 62
     1
100
AcDbLine
 10
-27.251339
 20
-1.795495099999999
 30
0.0
 11
-22.001339
 21
3.454504899999998
 31
0.0
  0
LINE
  5
18465
330
18451
100
AcDbEntity
  8
5
  6
Continuous
 62
     1
100
AcDbLine
 10
-10.501339
 20
14.954505
 30
0.0
 11
-8.001339299999997
 21
17.454505
 31
0.0
  0
LINE
  5
18466
330
18451
100
AcDbEntity
  8
5
  6
Continuous
 62
     1
100
AcDbLine
 10
-28.803747
 20
-1.2265828
 30
0.0
 11
-24.12266
 21
3.454504899999998
 31
0.0
  0
LINE
  5
18467
330
18451
100
AcDbEntity
  8
5
  6
Continuous
 62
     1
100
AcDbLine
 10
-12.62266
 20
14.954505
 30
0.0
 11
-10.12266
 21
17.454505
 31
0.0
  0
LINE
  5
18468
330
18451
100
AcDbEntity
  8
5
  6
Continuous
 62
     1
100
AcDbLine
 10
-29.234835
 20
0.46364985
 30
0.0
 11
-26.24398
 21
3.454504899999998
 31
0.0
  0
LINE
  5
18469
330
18451
100
AcDbEntity
  8
5
  6
Continuous
 62
     1
100
AcDbLine
 10
-14.74398
 20
14.954505
 30
0.0
 11
-12.24398
 21
17.454505
 31
0.0
  0
LINE
  5
1846A
330
18451
100
AcDbEntity
  8
5
  6
Continuous
 62
     1
100
AcDbLine
 10
-29.8653
 20
1.954504899999999
 30
0.0
 11
-27.965601
 21
3.854203899999999
 31
0.0
  0
LINE
  5
1846B
330
18451
100
AcDbEntity
  8
5
  6
Continuous
 62
     1
100
AcDbLine
 10
-16.8653
 20
14.954505
 30
0.0
 11
-14.3653
 21
17.454505
 31
0.0
  0
LINE
  5
1846C
330
18451
100
AcDbEntity
  8
5
  6
Continuous
 62
     1
100
AcDbLine
 10
-31.986621
 20
1.954504899999999
 30
0.0
 11
-28.742058
 21
5.199067099999997
 31
0.0
  0
LINE
  5
1846D
330
18451
100
AcDbEntity
  8
5
  6
Continuous
 62
     1
100
AcDbLine
 10
-18.986621
 20
14.954505
 30
0.0
 11
-16.486621
 21
17.454505
 31
0.0
  0
LINE
  5
1846E
330
18451
100
AcDbEntity
  8
5
  6
Continuous
 62
     1
100
AcDbLine
 10
-32.323194
 20
3.7392519
 30
0.0
 11
-29.518516
 21
6.5439303
 31
0.0
  0
LINE
  5
1846F
330
18451
100
AcDbEntity
  8
5
  6
Continuous
 62
     1
100
AcDbLine
 10
-21.107941
 20
14.954505
 30
0.0
 11
-18.607941
 21
17.454505
 31
0.0
  0
LINE
  5
18470
330
18451
100
AcDbEntity
  8
5
  6
Continuous
 62
     1
100
AcDbLine
 10
-32.323194
 20
5.8605722
 30
0.0
 11
-30.294973
 21
7.888793499999997
 31
0.0
  0
LINE
  5
18471
330
18451
100
AcDbEntity
  8
5
  6
Continuous
 62
     1
100
AcDbLine
 10
-23.229261
 20
14.954505
 30
0.0
 11
-20.729261
 21
17.454505
 31
0.0
  0
LINE
  5
18472
330
18451
100
AcDbEntity
  8
5
  6
Continuous
 62
     1
100
AcDbLine
 10
-32.323194
 20
7.981892599999999
 30
0.0
 11
-30.991786
 21
9.313300999999999
 31
0.0
  0
LINE
  5
18473
330
18451
100
AcDbEntity
  8
5
  6
Continuous
 62
     1
100
AcDbLine
 10
-25.350582
 20
14.954505
 30
0.0
 11
-22.850582
 21
17.454505
 31
0.0
  0
LINE
  5
18474
330
18451
100
AcDbEntity
  8
5
  6
Continuous
 62
     1
100
AcDbLine
 10
-32.323194
 20
10.103213
 30
0.0
 11
-28.094008
 21
14.332399
 31
0.0
  0
LINE
  5
18475
330
18451
100
AcDbEntity
  8
5
  6
Continuous
 62
     1
100
AcDbLine
 10
-27.471902
 20
14.954505
 30
0.0
 11
-24.206844
 21
18.219563
 31
0.0
  0
LINE
  5
18476
330
18451
100
AcDbEntity
  8
5
  6
Continuous
 62
     1
100
AcDbLine
 10
-32.323194
 20
12.224533
 30
0.0
 11
-24.343222
 21
20.204505
 31
0.0
  0
LINE
  5
18477
330
18451
100
AcDbEntity
  8
5
  6
Continuous
 62
     1
100
AcDbLine
 10
-32.323194
 20
14.345854
 30
0.0
 11
-30.214543
 21
16.454505
 31
0.0
  0
LINE
  5
18478
330
18451
100
AcDbEntity
  8
5
  6
Continuous
 62
     1
100
AcDbLine
 10
-29.234835
 20
17.434213
 30
0.0
 11
-26.464543
 21
20.204505
 31
0.0
  0
ENDBLK
  5
18479
330
18451
100
AcDbEntity
  8
0
100
AcDbBlockEnd
  0
BLOCK
  5
18758
330
18757
100
AcDbEntity
  8
0
100
AcDbBlockBegin
  2
*D32
 70
     1
 10
0.0
 20
0.0
 30
0.0
  3
*D32
  1

  0
LINE
  5
1880B
330
18757
100
AcDbEntity
  8
DIM
 62
     6
370
    -2
100
AcDbLine
 10
473.5857832224271
 20
269.5576780711231
 30
0.0
 11
480.2769832224274
 21
269.5576780711231
 31
0.0
  0
LINE
  5
1880C
330
18757
100
AcDbEntity
  8
DIM
 62
     6
370
    -2
100
AcDbLine
 10
473.5857832224271
 20
258.057678071123
 30
0.0
 11
480.2769832224274
 21
258.057678071123
 31
0.0
  0
LINE
  5
1880D
330
18757
100
AcDbEntity
  8
DIM
 62
     1
370
    -2
100
AcDbLine
 10
479.7769832224274
 20
266.557678071123
 30
0.0
 11
479.7769832224274
 21
261.0576780711231
 31
0.0
  0
SOLID
  5
1880E
330
18757
100
AcDbEntity
  8
DIM
 62
     1
100
AcDbTrace
 10
479.2769832224273
 20
266.557678071123
 30
0.0
 11
480.2769832224274
 21
266.557678071123
 31
0.0
 12
479.7769832224274
 22
269.5576780711231
 32
0.0
 13
479.7769832224274
 23
269.5576780711231
 33
0.0
  0
SOLID
  5
1880F
330
18757
100
AcDbEntity
  8
DIM
 62
     1
100
AcDbTrace
 10
479.2769832224273
 20
261.0576780711231
 30
0.0
 11
480.2769832224274
 21
261.0576780711231
 31
0.0
 12
479.7769832224274
 22
258.057678071123
 32
0.0
 13
479.7769832224274
 23
258.057678071123
 33
0.0
  0
MTEXT
  5
18810
330
18757
100
AcDbEntity
  8
DIM
 62
     4
100
AcDbMText
 10
477.5269832224274
 20
263.8076780711231
 30
0.0
 40
3.5
 41
0.0
 46
0.0
 71
     5
 72
     1
  1
\A1;%%C11.5
  7
Romans字体
 11
0.0000000000000001
 21
1.0
 31
0.0
 73
     1
 44
1.0
  0
POINT
  5
18811
330
18757
100
AcDbEntity
  8
Defpoints
 62
     0
100
AcDbPoint
 10
473.3857832224273
 20
269.5576780711231
 30
0.0
  0
POINT
  5
18812
330
18757
100
AcDbEntity
  8
Defpoints
 62
     0
100
AcDbPoint
 10
473.3857832224273
 20
258.057678071123
 30
0.0
  0
POINT
  5
18813
330
18757
100
AcDbEntity
  8
Defpoints
 62
     0
100
AcDbPoint
 10
479.7769832224274
 20
258.057678071123
 30
0.0
  0
ENDBLK
  5
18759
330
18757
100
AcDbEntity
  8
0
100
AcDbBlockEnd
  0
BLOCK
  5
18764
330
18763
100
AcDbEntity
  8
0
100
AcDbBlockBegin
  2
*D33
 70
     1
 10
0.0
 20
0.0
 30
0.0
  3
*D33
  1

  0
LINE
  5
18814
330
18763
100
AcDbEntity
  8
DIM
 62
     6
370
    -2
100
AcDbLine
 10
474.3178332224275
 20
274.3076780711231
 30
0.0
 11
485.0780732224282
 21
274.3076780711231
 31
0.0
  0
LINE
  5
18815
330
18763
100
AcDbEntity
  8
DIM
 62
     6
370
    -2
100
AcDbLine
 10
474.3178332224275
 20
253.3076780711231
 30
0.0
 11
485.0780732224282
 21
253.3076780711231
 31
0.0
  0
LINE
  5
18816
330
18763
100
AcDbEntity
  8
DIM
 62
     1
370
    -2
100
AcDbLine
 10
484.5780732224282
 20
271.3076780711231
 30
0.0
 11
484.5780732224282
 21
256.3076780711231
 31
0.0
  0
SOLID
  5
18817
330
18763
100
AcDbEntity
  8
DIM
 62
     1
100
AcDbTrace
 10
484.0780732224279
 20
271.3076780711231
 30
0.0
 11
485.0780732224282
 21
271.3076780711231
 31
0.0
 12
484.5780732224282
 22
274.3076780711231
 32
0.0
 13
484.5780732224282
 23
274.3076780711231
 33
0.0
  0
SOLID
  5
18818
330
18763
100
AcDbEntity
  8
DIM
 62
     1
100
AcDbTrace
 10
484.0780732224279
 20
256.3076780711231
 30
0.0
 11
485.0780732224282
 21
256.3076780711231
 31
0.0
 12
484.5780732224282
 22
253.3076780711231
 32
0.0
 13
484.5780732224282
 23
253.3076780711231
 33
0.0
  0
MTEXT
  5
18819
330
18763
100
AcDbEntity
  8
DIM
 62
     4
100
AcDbMText
 10
482.3280732224282
 20
263.8076780711231
 30
0.0
 40
3.5
 41
0.0
 46
0.0
 71
     5
 72
     1
  1
\A1;%%C21
  7
Romans字体
 11
0.0000000000000001
 21
1.0
 31
0.0
 73
     1
 44
1.0
  0
POINT
  5
1881A
330
18763
100
AcDbEntity
  8
Defpoints
 62
     0
100
AcDbPoint
 10
474.1178332224277
 20
274.3076780711231
 30
0.0
  0
POINT
  5
1881B
330
18763
100
AcDbEntity
  8
Defpoints
 62
     0
100
AcDbPoint
 10
474.1178332224277
 20
253.3076780711231
 30
0.0
  0
POINT
  5
1881C
330
18763
100
AcDbEntity
  8
Defpoints
 62
     0
100
AcDbPoint
 10
484.5780732224282
 20
253.3076780711231
 30
0.0
  0
ENDBLK
  5
18765
330
18763
100
AcDbEntity
  8
0
100
AcDbBlockEnd
  0
BLOCK
  5
18770
330
1876F
100
AcDbEntity
  8
0
100
AcDbBlockBegin
  2
*D34
 70
     1
 10
0.0
 20
0.0
 30
0.0
  3
*D34
  1

  0
LINE
  5
1881D
330
1876F
100
AcDbEntity
  8
DIM
 62
     6
370
    -2
100
AcDbLine
 10
445.9178332224276
 20
274.807678071123
 30
0.0
 11
407.2605932224274
 21
274.807678071123
 31
0.0
  0
LINE
  5
1881E
330
1876F
100
AcDbEntity
  8
DIM
 62
     6
370
    -2
100
AcDbLine
 10
449.9178332224276
 20
252.8076780711231
 30
0.0
 11
407.2605932224274
 21
252.8076780711232
 31
0.0
  0
LINE
  5
1881F
330
1876F
100
AcDbEntity
  8
DIM
 62
     1
370
    -2
100
AcDbLine
 10
407.7605932224273
 20
271.8076780711231
 30
0.0
 11
407.7605932224273
 21
255.8076780711231
 31
0.0
  0
SOLID
  5
18820
330
1876F
100
AcDbEntity
  8
DIM
 62
     1
100
AcDbTrace
 10
407.2605932224274
 20
271.8076780711231
 30
0.0
 11
408.2605932224272
 21
271.8076780711231
 31
0.0
 12
407.7605932224273
 22
274.807678071123
 32
0.0
 13
407.7605932224273
 23
274.807678071123
 33
0.0
  0
SOLID
  5
18821
330
1876F
100
AcDbEntity
  8
DIM
 62
     1
100
AcDbTrace
 10
407.2605932224274
 20
255.8076780711231
 30
0.0
 11
408.2605932224272
 21
255.8076780711231
 31
0.0
 12
407.7605932224273
 22
252.8076780711232
 32
0.0
 13
407.7605932224273
 23
252.8076780711232
 33
0.0
  0
MTEXT
  5
18822
330
1876F
100
AcDbEntity
  8
DIM
 62
     4
100
AcDbMText
 10
405.5105932224273
 20
263.8076780711231
 30
0.0
 40
3.5
 41
0.0
 46
0.0
 71
     5
 72
     1
  1
\A1;%%C22
  7
Romans字体
 11
0.0000000000000001
 21
1.0
 31
0.0
 73
     1
 44
1.0
  0
POINT
  5
18823
330
1876F
100
AcDbEntity
  8
Defpoints
 62
     0
100
AcDbPoint
 10
446.1178332224275
 20
274.807678071123
 30
0.0
  0
POINT
  5
18824
330
1876F
100
AcDbEntity
  8
Defpoints
 62
     0
100
AcDbPoint
 10
450.1178332224275
 20
252.8076780711231
 30
0.0
  0
POINT
  5
18825
330
1876F
100
AcDbEntity
  8
Defpoints
 62
     0
100
AcDbPoint
 10
407.7605932224273
 20
252.8076780711232
 30
0.0
  0
ENDBLK
  5
18771
330
1876F
100
AcDbEntity
  8
0
100
AcDbBlockEnd
  0
BLOCK
  5
1877C
330
1877B
100
AcDbEntity
  8
0
100
AcDbBlockBegin
  2
*D35
 70
     1
 10
0.0
 20
0.0
 30
0.0
  3
*D35
  1

  0
LINE
  5
18908
330
1877B
100
AcDbEntity
  8
DIM
 62
     6
370
    -2
100
AcDbLine
 10
419.9178332224276
 20
271.0576780711231
 30
0.0
 11
412.0616832224276
 21
271.0576780711231
 31
0.0
  0
LINE
  5
18909
330
1877B
100
AcDbEntity
  8
DIM
 62
     6
370
    -2
100
AcDbLine
 10
419.9178332224276
 20
256.5576780711231
 30
0.0
 11
412.0616832224276
 21
256.5576780711231
 31
0.0
  0
LINE
  5
1890A
330
1877B
100
AcDbEntity
  8
DIM
 62
     1
370
    -2
100
AcDbLine
 10
412.5616832224276
 20
268.0576780711231
 30
0.0
 11
412.5616832224276
 21
259.5576780711231
 31
0.0
  0
SOLID
  5
1890B
330
1877B
100
AcDbEntity
  8
DIM
 62
     1
100
AcDbTrace
 10
412.0616832224276
 20
268.0576780711231
 30
0.0
 11
413.0616832224276
 21
268.0576780711231
 31
0.0
 12
412.5616832224276
 22
271.0576780711231
 32
0.0
 13
412.5616832224276
 23
271.0576780711231
 33
0.0
  0
SOLID
  5
1890C
330
1877B
100
AcDbEntity
  8
DIM
 62
     1
100
AcDbTrace
 10
412.0616832224276
 20
259.5576780711231
 30
0.0
 11
413.0616832224276
 21
259.5576780711231
 31
0.0
 12
412.5616832224276
 22
256.5576780711231
 32
0.0
 13
412.5616832224276
 23
256.5576780711231
 33
0.0
  0
MTEXT
  5
1890D
330
1877B
100
AcDbEntity
  8
DIM
 62
     4
100
AcDbMText
 10
410.3116832224275
 20
263.8076780711231
 30
0.0
 40
3.5
 41
0.0
 46
0.0
 71
     5
 72
     1
  1
\A1;%%C14.5
  7
Romans字体
 11
0.0000000000000001
 21
1.0
 31
0.0
 73
     1
 44
1.0
  0
POINT
  5
1890E
330
1877B
100
AcDbEntity
  8
Defpoints
 62
     0
100
AcDbPoint
 10
420.1178332224277
 20
271.0576780711231
 30
0.0
  0
POINT
  5
1890F
330
1877B
100
AcDbEntity
  8
Defpoints
 62
     0
100
AcDbPoint
 10
420.1178332224277
 20
256.5576780711231
 30
0.0
  0
POINT
  5
18910
330
1877B
100
AcDbEntity
  8
Defpoints
 62
     0
100
AcDbPoint
 10
412.5616832224276
 20
256.5576780711231
 30
0.0
  0
ENDBLK
  5
1877D
330
1877B
100
AcDbEntity
  8
0
100
AcDbBlockEnd
  0
BLOCK
  5
18788
330
18787
100
AcDbEntity
  8
0
100
AcDbBlockBegin
  2
*D36
 70
     1
 10
0.0
 20
0.0
 30
0.0
  3
*D36
  1

  0
LINE
  5
1882F
330
18787
100
AcDbEntity
  8
DIM
 62
     6
370
    -2
100
AcDbLine
 10
475.1178332224275
 20
253.1076780711231
 30
0.0
 11
475.1178332224275
 21
248.9779680711231
 31
0.0
  0
LINE
  5
18830
330
18787
100
AcDbEntity
  8
DIM
 62
     6
370
    -2
100
AcDbLine
 10
446.6178332224278
 20
257.8576780711231
 30
0.0
 11
446.6178332224278
 21
248.9779680711231
 31
0.0
  0
LINE
  5
18831
330
18787
100
AcDbEntity
  8
DIM
 62
     1
370
    -2
100
AcDbLine
 10
472.1178332224278
 20
249.4779680711232
 30
0.0
 11
449.6178332224276
 21
249.4779680711232
 31
0.0
  0
SOLID
  5
18832
330
18787
100
AcDbEntity
  8
DIM
 62
     1
100
AcDbTrace
 10
472.1178332224278
 20
249.9779680711232
 30
0.0
 11
472.1178332224278
 21
248.9779680711231
 31
0.0
 12
475.1178332224275
 22
249.4779680711232
 32
0.0
 13
475.1178332224275
 23
249.4779680711232
 33
0.0
  0
SOLID
  5
18833
330
18787
100
AcDbEntity
  8
DIM
 62
     1
100
AcDbTrace
 10
449.6178332224276
 20
249.9779680711232
 30
0.0
 11
449.6178332224276
 21
248.9779680711231
 31
0.0
 12
446.6178332224278
 22
249.4779680711232
 32
0.0
 13
446.6178332224278
 23
249.4779680711232
 33
0.0
  0
MTEXT
  5
18834
330
18787
100
AcDbEntity
  8
DIM
 62
     4
100
AcDbMText
 10
460.8678332224278
 20
251.7279680711232
 30
0.0
 40
3.5
 41
0.0
 46
0.0
 71
     5
 72
     1
  1
\A1;28.5
  7
Romans字体
 73
     1
 44
1.0
  0
POINT
  5
18835
330
18787
100
AcDbEntity
  8
Defpoints
 62
     0
100
AcDbPoint
 10
475.1178332224275
 20
253.3076780711231
 30
0.0
  0
POINT
  5
18836
330
18787
100
AcDbEntity
  8
Defpoints
 62
     0
100
AcDbPoint
 10
446.6178332224278
 20
258.057678071123
 30
0.0
  0
POINT
  5
18837
330
18787
100
AcDbEntity
  8
Defpoints
 62
     0
100
AcDbPoint
 10
446.6178332224278
 20
249.4779680711232
 30
0.0
  0
ENDBLK
  5
18789
330
18787
100
AcDbEntity
  8
0
100
AcDbBlockEnd
  0
BLOCK
  5
18794
330
18793
100
AcDbEntity
  8
0
100
AcDbBlockBegin
  2
*D37
 70
     1
 10
0.0
 20
0.0
 30
0.0
  3
*D37
  1

  0
LINE
  5
1891A
330
18793
100
AcDbEntity
  8
DIM
 62
     6
370
    -2
100
AcDbLine
 10
475.1178332224275
 20
253.1076780711231
 30
0.0
 11
475.1178332224275
 21
242.3349851189029
 31
0.0
  0
LINE
  5
1891B
330
18793
100
AcDbEntity
  8
DIM
 62
     6
370
    -2
100
AcDbLine
 10
418.1178332224275
 20
260.2326780711231
 30
0.0
 11
418.1178332224275
 21
242.3349851189029
 31
0.0
  0
LINE
  5
1891C
330
18793
100
AcDbEntity
  8
DIM
 62
     1
370
    -2
100
AcDbLine
 10
472.1178332224275
 20
242.8349851189029
 30
0.0
 11
421.1178332224275
 21
242.8349851189029
 31
0.0
  0
SOLID
  5
1891D
330
18793
100
AcDbEntity
  8
DIM
 62
     1
100
AcDbTrace
 10
472.1178332224275
 20
243.3349851189029
 30
0.0
 11
472.1178332224275
 21
242.3349851189029
 31
0.0
 12
475.1178332224275
 22
242.8349851189029
 32
0.0
 13
475.1178332224275
 23
242.8349851189029
 33
0.0
  0
SOLID
  5
1891E
330
18793
100
AcDbEntity
  8
DIM
 62
     1
100
AcDbTrace
 10
421.1178332224275
 20
243.3349851189029
 30
0.0
 11
421.1178332224275
 21
242.3349851189029
 31
0.0
 12
418.1178332224275
 22
242.8349851189029
 32
0.0
 13
418.1178332224275
 23
242.8349851189029
 33
0.0
  0
MTEXT
  5
1891F
330
18793
100
AcDbEntity
  8
DIM
 62
     4
100
AcDbMText
 10
446.8831832537776
 20
245.0849851189029
 30
0.0
 40
3.5
 41
0.0
 46
0.0
 71
     5
 72
     1
  1
\A1;57
  7
Romans字体
 73
     1
 44
1.0
  0
POINT
  5
18920
330
18793
100
AcDbEntity
  8
Defpoints
 62
     0
100
AcDbPoint
 10
475.1178332224275
 20
253.3076780711231
 30
0.0
  0
POINT
  5
18921
330
18793
100
AcDbEntity
  8
Defpoints
 62
     0
100
AcDbPoint
 10
418.1178332224275
 20
260.4326780711231
 30
0.0
  0
POINT
  5
18922
330
18793
100
AcDbEntity
  8
Defpoints
 62
     0
100
AcDbPoint
 10
418.1178332224275
 20
242.8349851189029
 30
0.0
  0
ENDBLK
  5
18795
330
18793
100
AcDbEntity
  8
0
100
AcDbBlockEnd
  0
BLOCK
  5
187D6
330
187D5
100
AcDbEntity
  8
0
100
AcDbBlockBegin
  2
*D38
 70
     1
 10
0.0
 20
0.0
 30
0.0
  3
*D38
  1

  0
LINE
  5
18841
330
187D5
100
AcDbEntity
  8
DIM
 62
     6
370
    -2
100
AcDbLine
 10
460.7667447943703
 20
272.0576780711231
 30
0.0
 11
461.1803769504966
 21
272.0576780711231
 31
0.0
  0
LINE
  5
18842
330
187D5
100
AcDbEntity
  8
DIM
 62
     6
370
    -2
100
AcDbLine
 10
460.0281395420386
 20
255.5576780711231
 30
0.0
 11
461.1803769504966
 21
255.5576780711231
 31
0.0
  0
LINE
  5
18843
330
187D5
100
AcDbEntity
  8
DIM
 62
     1
370
    -2
100
AcDbLine
 10
460.6803769504966
 20
258.5576780711231
 30
0.0
 11
460.6803769504966
 21
269.0576780711231
 31
0.0
  0
LINE
  5
18844
330
187D5
100
AcDbEntity
  8
DIM
 62
     1
370
    -2
100
AcDbLine
 10
460.6803769504966
 20
272.0576780711231
 30
0.0
 11
460.6803769504966
 21
286.4326780711231
 31
0.0
  0
SOLID
  5
18845
330
187D5
100
AcDbEntity
  8
DIM
 62
     1
100
AcDbTrace
 10
460.1803769504966
 20
258.5576780711231
 30
0.0
 11
461.1803769504966
 21
258.5576780711231
 31
0.0
 12
460.6803769504966
 22
255.5576780711231
 32
0.0
 13
460.6803769504966
 23
255.5576780711231
 33
0.0
  0
SOLID
  5
18846
330
187D5
100
AcDbEntity
  8
DIM
 62
     1
100
AcDbTrace
 10
460.1803769504966
 20
269.0576780711231
 30
0.0
 11
461.1803769504966
 21
269.0576780711231
 31
0.0
 12
460.6803769504966
 22
272.0576780711231
 32
0.0
 13
460.6803769504966
 23
272.0576780711231
 33
0.0
  0
MTEXT
  5
18847
330
187D5
100
AcDbEntity
  8
DIM
 62
     4
100
AcDbMText
 10
458.4303769504963
 20
280.7451780711232
 30
0.0
 40
3.5
 41
0.0
 46
0.0
 71
     5
 72
     1
  1
\A1;%%C16.5
  7
Romans字体
 11
0.0000000000000001
 21
1.0
 31
0.0
 73
     1
 44
1.0
  0
POINT
  5
18848
330
187D5
100
AcDbEntity
  8
Defpoints
 62
     0
100
AcDbPoint
 10
460.5667447943702
 20
272.0576780711231
 30
0.0
  0
POINT
  5
18849
330
187D5
100
AcDbEntity
  8
Defpoints
 62
     0
100
AcDbPoint
 10
459.8281395420388
 20
255.5576780711231
 30
0.0
  0
POINT
  5
1884A
330
187D5
100
AcDbEntity
  8
Defpoints
 62
     0
100
AcDbPoint
 10
460.6803769504966
 20
255.5576780711231
 30
0.0
  0
ENDBLK
  5
187D7
330
187D5
100
AcDbEntity
  8
0
100
AcDbBlockEnd
  0
ENDSEC
  0
SECTION
  2
ENTITIES
  0
HATCH
  5
28AE
330
1F
100
AcDbEntity
  8
图层 1
 62
     7
100
AcDbHatch
 10
0.0
 20
0.0
 30
0.0
210
0.0
220
0.0
230
1.0
  2
SOLID
 70
     1
 71
     0
 91
        1
 92
        1
 93
        2
 72
     4
 94
        3
 73
     0
 74
     0
 95
       17
 96
       13
 40
0.0
 40
0.0
 40
0.0
 40
0.0
 40
0.3527780104152769
 40
0.3527780104152769
 40
0.3527780104152769
 40
0.7055560208305538
 40
0.7055560208305538
 40
0.7055560208305538
 40
1.058334031245828
 40
1.058334031245828
 40
1.058334031245828
 40
1.411112041661104
 40
1.411112041661104
 40
1.411112041661104
 40
1.411112041661104
 10
11.07013262565829
 20
29.50312817963231
 10
11.07013262565829
 20
29.50312817963231
 10
10.9431807732774
 20
29.50312817963231
 10
10.9431807732774
 20
29.50312817963231
 10
10.9431807732774
 20
29.50312817963231
 10
10.85843136843155
 20
29.22786486877117
 10
10.85843136843155
 20
29.22786486877117
 10
10.85843136843155
 20
29.22786486877117
 10
10.90080607085448
 20
29.2068497724476
 10
10.90080607085448
 20
29.2068497724476
 10
10.94455881238059
 20
29.31571486159919
 10
11.00346998404173
 20
29.40907701083995
 10
11.07013262565829
 20
29.50312817963231
 72
     1
 10
11.07013262565829
 20
29.50312817963231
 11
11.07013262565829
 21
29.50312817963231
 97
        0
 75
     0
 76
     1
 98
        0
450
        0
451
        0
460
0.0
461
0.0
452
        0
462
0.0
453
        0
470

  0
HATCH
  5
2C65
330
1F
100
AcDbEntity
  8
图层 1
 62
     7
100
AcDbHatch
 10
0.0
 20
0.0
 30
0.0
210
0.0
220
0.0
230
1.0
  2
SOLID
 70
     1
 71
     0
 91
        1
 92
        1
 93
        2
 72
     4
 94
        3
 73
     0
 74
     0
 95
       47
 96
       43
 40
0.0
 40
0.0
 40
0.0
 40
0.0
 40
0.3527780104152769
 40
0.3527780104152769
 40
0.3527780104152769
 40
0.7055560208305538
 40
0.7055560208305538
 40
0.7055560208305538
 40
1.058334031245828
 40
1.058334031245828
 40
1.058334031245828
 40
1.411112041661104
 40
1.411112041661104
 40
1.411112041661104
 40
1.763890052076384
 40
1.763890052076384
 40
1.763890052076384
 40
2.116668062491659
 40
2.116668062491659
 40
2.116668062491659
 40
2.469446072906936
 40
2.469446072906936
 40
2.469446072906936
 40
2.822224083322215
 40
2.822224083322215
 40
2.822224083322215
 40
3.175002093737492
 40
3.175002093737492
 40
3.175002093737492
 40
3.527780104152768
 40
3.527780104152768
 40
3.527780104152768
 40
3.880558114568044
 40
3.880558114568044
 40
3.880558114568044
 40
4.233336124983321
 40
4.233336124983321
 40
4.233336124983321
 40
4.586114135398599
 40
4.586114135398599
 40
4.586114135398599
 40
4.938892145813873
 40
4.938892145813873
 40
4.938892145813873
 40
4.938892145813873
 10
162.8986914070121
 20
257.4895347631509
 10
162.8986914070121
 20
257.4895347631509
 10
162.9200510131114
 20
257.4471600607279
 10
162.9200510131114
 20
257.4471600607279
 10
162.9200510131114
 20
257.4471600607279
 10
162.9200510131114
 20
257.404785358305
 10
162.9200510131114
 20
257.404785358305
 10
162.9200510131114
 20
257.404785358305
 10
162.8986914070121
 20
257.36258291077
 10
162.8986914070121
 20
257.36258291077
 10
162.8986914070121
 20
257.36258291077
 10
162.8986914070121
 20
257.320208208347
 10
162.8986914070121
 20
257.320208208347
 10
162.8986914070121
 20
257.320208208347
 10
162.8563167045891
 20
257.2990208571356
 10
162.8563167045891
 20
257.2990208571356
 10
162.8563167045891
 20
257.2990208571356
 10
162.8139420021662
 20
257.2563016449369
 10
162.8139420021662
 20
257.2563016449369
 10
162.8139420021662
 20
257.2563016449369
 10
162.7295371070961
 20
257.2563016449369
 10
162.7295371070961
 20
257.2563016449369
 10
162.7295371070961
 20
257.2563016449369
 10
162.6658027985738
 20
257.2778335059241
 10
162.6658027985738
 20
257.2778335059241
 10
162.6658027985738
 20
257.2778335059241
 10
162.6237726059267
 20
257.2990208571356
 10
162.6237726059267
 20
257.2990208571356
 10
162.6237726059267
 20
257.2990208571356
 10
162.5813979035038
 20
257.3413955595585
 10
162.5813979035038
 20
257.3413955595585
 10
162.5813979035038
 20
257.3413955595585
 10
162.5813979035038
 20
257.4895347631509
 10
162.5813979035038
 20
257.4895347631509
 10
162.5813979035038
 20
257.4895347631509
 10
162.6447877022503
 20
257.5525800521216
 10
162.6447877022503
 20
257.5525800521216
 10
162.6447877022503
 20
257.5525800521216
 10
162.7081775009967
 20
257.5525800521216
 10
162.7081775009967
 20
257.5525800521216
 10
162.8749202324821
 20
257.5424170137356
 10
162.7918933765152
 20
257.5939212252171
 10
162.8986914070121
 20
257.4895347631509
 72
     1
 10
162.8986914070121
 20
257.4895347631509
 11
162.8986914070121
 21
257.4895347631509
 97
        0
 75
     0
 76
     1
 98
        0
450
        0
451
        0
460
0.0
461
0.0
452
        0
462
0.0
453
        0
470

  0
HATCH
  5
2EE7
330
1F
100
AcDbEntity
  8
图层 1
 62
     7
100
AcDbHatch
 10
0.0
 20
0.0
 30
0.0
210
0.0
220
0.0
230
1.0
  2
SOLID
 70
     1
 71
     0
 91
        1
 92
        1
 93
        2
 72
     4
 94
        3
 73
     0
 74
     0
 95
       56
 96
       52
 40
0.0
 40
0.0
 40
0.0
 40
0.0
 40
0.3527780104152769
 40
0.3527780104152769
 40
0.3527780104152769
 40
0.7055560208305538
 40
0.7055560208305538
 40
0.7055560208305538
 40
1.058334031245828
 40
1.058334031245828
 40
1.058334031245828
 40
1.411112041661104
 40
1.411112041661104
 40
1.411112041661104
 40
1.763890052076384
 40
1.763890052076384
 40
1.763890052076384
 40
2.116668062491659
 40
2.116668062491659
 40
2.116668062491659
 40
2.469446072906936
 40
2.469446072906936
 40
2.469446072906936
 40
2.822224083322215
 40
2.822224083322215
 40
2.822224083322215
 40
3.175002093737492
 40
3.175002093737492
 40
3.175002093737492
 40
3.527780104152768
 40
3.527780104152768
 40
3.527780104152768
 40
3.880558114568044
 40
3.880558114568044
 40
3.880558114568044
 40
4.233336124983321
 40
4.233336124983321
 40
4.233336124983321
 40
4.586114135398599
 40
4.586114135398599
 40
4.586114135398599
 40
4.938892145813873
 40
4.938892145813873
 40
4.938892145813873
 40
5.291670156229153
 40
5.291670156229153
 40
5.291670156229153
 40
5.64444816664443
 40
5.64444816664443
 40
5.64444816664443
 40
5.997226177059705
 40
5.997226177059705
 40
5.997226177059705
 40
5.997226177059705
 10
185.4837187788815
 20
241.4451977396596
 10
185.4837187788815
 20
241.4451977396596
 10
185.4837187788815
 20
241.4028230372367
 10
185.4837187788815
 20
241.4028230372367
 10
185.4837187788815
 20
241.4028230372367
 10
185.5047338752051
 20
241.3604483348137
 10
185.5047338752051
 20
241.3604483348137
 10
185.4520238795082
 20
241.2782827532863
 10
185.4671823096433
 20
241.1897437409066
 10
185.335579575289
 20
241.2119646214456
 10
185.335579575289
 20
241.2119646214456
 10
185.2932048728662
 20
241.2119646214456
 10
185.2932048728662
 20
241.2119646214456
 10
185.2932048728662
 20
241.2119646214456
 10
185.2294705643439
 20
241.2334964824328
 10
185.2294705643439
 20
241.2334964824328
 10
185.2294705643439
 20
241.2334964824328
 10
185.1660807655974
 20
241.2543393238685
 10
185.1660807655974
 20
241.2543393238685
 10
185.1660807655974
 20
241.2543393238685
 10
185.1450656692739
 20
241.2758711848558
 10
185.1450656692739
 20
241.2758711848558
 10
185.1450656692739
 20
241.2758711848558
 10
185.1450656692739
 20
241.2967140262914
 10
185.1450656692739
 20
241.2967140262914
 10
185.1450656692739
 20
241.2967140262914
 10
185.1237060631745
 20
241.3604483348137
 10
185.1237060631745
 20
241.3604483348137
 10
185.1237060631745
 20
241.3604483348137
 10
185.1237060631745
 20
241.4028230372367
 10
185.1237060631745
 20
241.4028230372367
 10
185.1237060631745
 20
241.4028230372367
 10
185.1660807655974
 20
241.4875724420825
 10
185.1660807655974
 20
241.4875724420825
 10
185.1660807655974
 20
241.4875724420825
 10
185.2084554680203
 20
241.5085875384061
 10
185.2084554680203
 20
241.5085875384061
 10
185.2084554680203
 20
241.5085875384061
 10
185.2718452667668
 20
241.5297748896175
 10
185.2718452667668
 20
241.5297748896175
 10
185.2718452667668
 20
241.5297748896175
 10
185.3565946716127
 20
241.5297748896175
 10
185.3565946716127
 20
241.5297748896175
 10
185.3565946716127
 20
241.5297748896175
 10
185.4199844703592
 20
241.5085875384061
 10
185.4199844703592
 20
241.5085875384061
 10
185.4199844703592
 20
241.5085875384061
 10
185.4623591727821
 20
241.4875724420825
 10
185.4623591727821
 20
241.4875724420825
 10
185.4623591727821
 20
241.4875724420825
 10
185.4837187788815
 20
241.4451977396596
 10
185.4837187788815
 20
241.4451977396596
 72
     1
 10
185.4837187788815
 20
241.4451977396596
 11
185.4837187788815
 21
241.4451977396596
 97
        0
 75
     0
 76
     1
 98
        0
450
        0
451
        0
460
0.0
461
0.0
452
        0
462
0.0
453
        0
470

  0
HATCH
  5
2F93
330
1F
100
AcDbEntity
  8
图层 1
 62
     7
100
AcDbHatch
 10
0.0
 20
0.0
 30
0.0
210
0.0
220
0.0
230
1.0
  2
SOLID
 70
     1
 71
     0
 91
        1
 92
        1
 93
        2
 72
     4
 94
        3
 73
     0
 74
     0
 95
       38
 96
       34
 40
0.0
 40
0.0
 40
0.0
 40
0.0
 40
0.3527780104152769
 40
0.3527780104152769
 40
0.3527780104152769
 40
0.7055560208305538
 40
0.7055560208305538
 40
0.7055560208305538
 40
1.058334031245828
 40
1.058334031245828
 40
1.058334031245828
 40
1.411112041661104
 40
1.411112041661104
 40
1.411112041661104
 40
1.763890052076384
 40
1.763890052076384
 40
1.763890052076384
 40
2.116668062491659
 40
2.116668062491659
 40
2.116668062491659
 40
2.469446072906936
 40
2.469446072906936
 40
2.469446072906936
 40
2.822224083322215
 40
2.822224083322215
 40
2.822224083322215
 40
3.175002093737492
 40
3.175002093737492
 40
3.175002093737492
 40
3.527780104152768
 40
3.527780104152768
 40
3.527780104152768
 40
3.880558114568044
 40
3.880558114568044
 40
3.880558114568044
 40
3.880558114568044
 10
185.907121293335
 20
220.1937677098971
 10
185.9005756075949
 20
220.0449394867532
 10
185.9329595265197
 20
220.1136691870245
 10
185.864746590912
 20
219.9817219428946
 10
185.864746590912
 20
219.9817219428946
 10
185.822371888489
 20
219.9605345916831
 10
185.822371888489
 20
219.9605345916831
 10
185.822371888489
 20
219.9605345916831
 10
185.6528730787974
 20
219.9605345916831
 10
185.6528730787974
 20
219.9605345916831
 10
185.6528730787974
 20
219.9605345916831
 10
185.5894832800509
 20
220.002909294106
 10
185.5894832800509
 20
220.002909294106
 10
185.5894832800509
 20
220.002909294106
 10
185.5681236739515
 20
220.0240966453175
 10
185.5681236739515
 20
220.0240966453175
 10
185.5681236739515
 20
220.0240966453175
 10
185.5681236739515
 20
220.045283996529
 10
185.5681236739515
 20
220.045283996529
 10
185.5681236739515
 20
220.045283996529
 10
185.547108577628
 20
220.0876586989519
 10
185.547108577628
 20
220.0876586989519
 10
185.547108577628
 20
220.0876586989519
 10
185.547108577628
 20
220.1513930074742
 10
185.547108577628
 20
220.1513930074742
 10
185.547108577628
 20
220.1513930074742
 10
185.5894832800509
 20
220.23614241232
 10
185.5894832800509
 20
220.23614241232
 10
185.5894832800509
 20
220.23614241232
 10
185.6318579824738
 20
220.2573297635315
 10
185.6318579824738
 20
220.2573297635315
 10
185.7055830744942
 20
220.2566407439799
 10
185.8416644359337
 20
220.3310548555519
 10
185.907121293335
 20
220.1937677098971
 72
     1
 10
185.907121293335
 20
220.1937677098971
 11
185.907121293335
 21
220.1937677098971
 97
        0
 75
     0
 76
     1
 98
        0
450
        0
451
        0
460
0.0
461
0.0
452
        0
462
0.0
453
        0
470

  0
HATCH
  5
2FDE
330
1F
100
AcDbEntity
  8
图层 1
 62
     7
100
AcDbHatch
 10
0.0
 20
0.0
 30
0.0
210
0.0
220
0.0
230
1.0
  2
SOLID
 70
     1
 71
     0
 91
        1
 92
        1
 93
        2
 72
     4
 94
        3
 73
     0
 74
     0
 95
       50
 96
       46
 40
0.0
 40
0.0
 40
0.0
 40
0.0
 40
0.3527780104152769
 40
0.3527780104152769
 40
0.3527780104152769
 40
0.7055560208305538
 40
0.7055560208305538
 40
0.7055560208305538
 40
1.058334031245828
 40
1.058334031245828
 40
1.058334031245828
 40
1.411112041661104
 40
1.411112041661104
 40
1.411112041661104
 40
1.763890052076384
 40
1.763890052076384
 40
1.763890052076384
 40
2.116668062491659
 40
2.116668062491659
 40
2.116668062491659
 40
2.469446072906936
 40
2.469446072906936
 40
2.469446072906936
 40
2.822224083322215
 40
2.822224083322215
 40
2.822224083322215
 40
3.175002093737492
 40
3.175002093737492
 40
3.175002093737492
 40
3.527780104152768
 40
3.527780104152768
 40
3.527780104152768
 40
3.880558114568044
 40
3.880558114568044
 40
3.880558114568044
 40
4.233336124983321
 40
4.233336124983321
 40
4.233336124983321
 40
4.586114135398599
 40
4.586114135398599
 40
4.586114135398599
 40
4.938892145813873
 40
4.938892145813873
 40
4.938892145813873
 40
5.291670156229153
 40
5.291670156229153
 40
5.291670156229153
 40
5.291670156229153
 10
180.9117295442905
 20
208.9327766684477
 10
180.9117295442905
 20
208.9327766684477
 10
180.9117295442905
 20
208.7637946234197
 10
180.9117295442905
 20
208.7637946234197
 10
181.2273004989198
 20
208.6749111012643
 10
181.3833634273555
 20
208.6776671794706
 10
181.6948002646751
 20
208.5097186637701
 10
181.9542161258496
 20
208.4294478860095
 10
182.1388733656765
 20
208.2134402565853
 10
182.3297317814676
 20
208.02292635057
 10
182.3297317814676
 20
208.02292635057
 10
182.435496282637
 20
208.065301052993
 10
182.435496282637
 20
208.065301052993
 10
182.288390608372
 20
208.2733849575739
 10
182.3752070718726
 20
208.2134402565853
 10
182.1605774815516
 20
208.3824223016133
 10
182.1605774815516
 20
208.3824223016133
 10
182.1182027791287
 20
208.4247970040363
 10
182.1182027791287
 20
208.4247970040363
 10
182.1182027791287
 20
208.4247970040363
 10
182.0968431730294
 20
208.467516216235
 10
182.0968431730294
 20
208.467516216235
 10
182.0968431730294
 20
208.467516216235
 10
182.0544684706064
 20
208.4883590576707
 10
182.0544684706064
 20
208.4883590576707
 10
182.0544684706064
 20
208.4883590576707
 10
181.9910786718599
 20
208.5305615052057
 10
181.9910786718599
 20
208.5305615052057
 10
181.9910786718599
 20
208.5305615052057
 10
181.948703969437
 20
208.552093366193
 10
181.948703969437
 20
208.552093366193
 10
181.948703969437
 20
208.552093366193
 10
181.9063292670141
 20
208.5729362076286
 10
181.9063292670141
 20
208.5729362076286
 10
181.9063292670141
 20
208.5729362076286
 10
181.8639545645911
 20
208.6156554198274
 10
181.8639545645911
 20
208.6156554198274
 10
181.8639545645911
 20
208.6156554198274
 10
181.821924371944
 20
208.6368427710388
 10
181.821924371944
 20
208.6368427710388
 10
181.6637943848536
 20
208.6742220817127
 10
181.5452830219797
 20
208.8092699138248
 10
181.3771622513911
 20
208.8061693258427
 10
181.2803550043924
 20
208.8573290275484
 10
181.0126709085988
 20
208.8971199066528
 10
180.9117295442905
 20
208.9327766684477
 72
     1
 10
180.9117295442905
 20
208.9327766684477
 11
180.9117295442905
 21
208.9327766684477
 97
        0
 75
     0
 76
     1
 98
        0
450
        0
451
        0
460
0.0
461
0.0
452
        0
462
0.0
453
        0
470

  0
HATCH
  5
35C8
330
1F
100
AcDbEntity
  8
图层 1
 62
     7
100
AcDbHatch
 10
0.0
 20
0.0
 30
0.0
210
0.0
220
0.0
230
1.0
  2
SOLID
 70
     1
 71
     0
 91
        1
 92
        1
 93
        2
 72
     4
 94
        3
 73
     0
 74
     0
 95
       38
 96
       34
 40
0.0
 40
0.0
 40
0.0
 40
0.0
 40
0.3527780104152769
 40
0.3527780104152769
 40
0.3527780104152769
 40
0.7055560208305538
 40
0.7055560208305538
 40
0.7055560208305538
 40
1.058334031245828
 40
1.058334031245828
 40
1.058334031245828
 40
1.411112041661104
 40
1.411112041661104
 40
1.411112041661104
 40
1.763890052076384
 40
1.763890052076384
 40
1.763890052076384
 40
2.116668062491659
 40
2.116668062491659
 40
2.116668062491659
 40
2.469446072906936
 40
2.469446072906936
 40
2.469446072906936
 40
2.822224083322215
 40
2.822224083322215
 40
2.822224083322215
 40
3.175002093737492
 40
3.175002093737492
 40
3.175002093737492
 40
3.527780104152768
 40
3.527780104152768
 40
3.527780104152768
 40
3.880558114568044
 40
3.880558114568044
 40
3.880558114568044
 40
3.880558114568044
 10
189.145513185819
 20
166.8326485368285
 10
189.207869455238
 20
166.740492171803
 10
189.1317327947871
 20
166.6833035490209
 10
189.103138483396
 20
166.6209472796017
 10
189.103138483396
 20
166.6209472796017
 10
189.0607637809731
 20
166.5997599283903
 10
189.0607637809731
 20
166.5997599283903
 10
189.0607637809731
 20
166.5997599283903
 10
188.9973739822266
 20
166.5785725771788
 10
188.9973739822266
 20
166.5785725771788
 10
188.9973739822266
 20
166.5785725771788
 10
188.9549992798037
 20
166.5997599283903
 10
188.9549992798037
 20
166.5997599283903
 10
188.9549992798037
 20
166.5997599283903
 10
188.8916094810572
 20
166.5997599283903
 10
188.8916094810572
 20
166.5997599283903
 10
188.8916094810572
 20
166.5997599283903
 10
188.8492347786343
 20
166.6209472796017
 10
188.8492347786343
 20
166.6209472796017
 10
188.8492347786343
 20
166.6209472796017
 10
188.8278751725349
 20
166.6633219820247
 10
188.8278751725349
 20
166.6633219820247
 10
188.8278751725349
 20
166.6633219820247
 10
188.8068600762114
 20
166.6845093332361
 10
188.8068600762114
 20
166.6845093332361
 10
188.8068600762114
 20
166.6845093332361
 10
188.8068600762114
 20
166.8326485368285
 10
188.8068600762114
 20
166.8326485368285
 10
188.8068600762114
 20
166.8326485368285
 10
188.8702498749578
 20
166.896038335575
 10
188.8702498749578
 20
166.896038335575
 10
189.0228677056355
 20
166.8819134347673
 10
189.0686875058164
 20
166.9411691162043
 10
189.145513185819
 20
166.8326485368285
 72
     1
 10
189.145513185819
 20
166.8326485368285
 11
189.145513185819
 21
166.8326485368285
 97
        0
 75
     0
 76
     1
 98
        0
450
        0
451
        0
460
0.0
461
0.0
452
        0
462
0.0
453
        0
470

  0
HATCH
  5
35D8
330
1F
100
AcDbEntity
  8
图层 1
 62
     7
100
AcDbHatch
 10
0.0
 20
0.0
 30
0.0
210
0.0
220
0.0
230
1.0
  2
SOLID
 70
     1
 71
     0
 91
        1
 92
        1
 93
        2
 72
     4
 94
        3
 73
     0
 74
     0
 95
       68
 96
       64
 40
0.0
 40
0.0
 40
0.0
 40
0.0
 40
0.3527780104152769
 40
0.3527780104152769
 40
0.3527780104152769
 40
0.7055560208305538
 40
0.7055560208305538
 40
0.7055560208305538
 40
1.058334031245828
 40
1.058334031245828
 40
1.058334031245828
 40
1.411112041661104
 40
1.411112041661104
 40
1.411112041661104
 40
1.763890052076384
 40
1.763890052076384
 40
1.763890052076384
 40
2.116668062491659
 40
2.116668062491659
 40
2.116668062491659
 40
2.469446072906936
 40
2.469446072906936
 40
2.469446072906936
 40
2.822224083322215
 40
2.822224083322215
 40
2.822224083322215
 40
3.175002093737492
 40
3.175002093737492
 40
3.175002093737492
 40
3.527780104152768
 40
3.527780104152768
 40
3.527780104152768
 40
3.880558114568044
 40
3.880558114568044
 40
3.880558114568044
 40
4.233336124983321
 40
4.233336124983321
 40
4.233336124983321
 40
4.586114135398599
 40
4.586114135398599
 40
4.586114135398599
 40
4.938892145813873
 40
4.938892145813873
 40
4.938892145813873
 40
5.291670156229153
 40
5.291670156229153
 40
5.291670156229153
 40
5.64444816664443
 40
5.64444816664443
 40
5.64444816664443
 40
5.997226177059705
 40
5.997226177059705
 40
5.997226177059705
 40
6.350004187474984
 40
6.350004187474984
 40
6.350004187474984
 40
6.702782197890257
 40
6.702782197890257
 40
6.702782197890257
 40
7.055560208305537
 40
7.055560208305537
 40
7.055560208305537
 40
7.408338218720808
 40
7.408338218720808
 40
7.408338218720808
 40
7.408338218720808
 10
174.7732543591544
 20
135.4846705078077
 10
174.7732543591544
 20
135.4846705078077
 10
174.7732543591544
 20
135.3789060066383
 10
174.7732543591544
 20
135.3789060066383
 10
174.7732543591544
 20
135.3789060066383
 10
174.8156290615773
 20
135.3789060066383
 10
174.8156290615773
 20
135.3789060066383
 10
174.8156290615773
 20
135.3789060066383
 10
174.8580037640002
 20
135.3578909103147
 10
174.8580037640002
 20
135.3578909103147
 10
174.8580037640002
 20
135.3578909103147
 10
174.9213935627468
 20
135.3578909103147
 10
174.9213935627468
 20
135.3578909103147
 10
174.9213935627468
 20
135.3578909103147
 10
174.9637682651697
 20
135.3365313042154
 10
174.9637682651697
 20
135.3365313042154
 10
174.9637682651697
 20
135.3365313042154
 10
174.9847833614933
 20
135.3365313042154
 10
174.9847833614933
 20
135.3365313042154
 10
174.9847833614933
 20
135.3365313042154
 10
175.0271580639162
 20
135.3155162078918
 10
175.0271580639162
 20
135.3155162078918
 10
175.0271580639162
 20
135.3155162078918
 10
175.0485176700155
 20
135.2941566017924
 10
175.0485176700155
 20
135.2941566017924
 10
175.0485176700155
 20
135.2941566017924
 10
175.0695327663391
 20
135.2941566017924
 10
175.0695327663391
 20
135.2941566017924
 10
175.0695327663391
 20
135.2941566017924
 10
175.0908923724385
 20
135.2731415054689
 10
175.0908923724385
 20
135.2731415054689
 10
175.0908923724385
 20
135.2731415054689
 10
175.1332670748614
 20
135.2731415054689
 10
175.1332670748614
 20
135.2731415054689
 10
175.1332670748614
 20
135.2731415054689
 10
175.154282171185
 20
135.2517818993695
 10
175.154282171185
 20
135.2517818993695
 10
175.154282171185
 20
135.2517818993695
 10
175.154282171185
 20
135.3578909103147
 10
175.154282171185
 20
135.3578909103147
 10
175.154282171185
 20
135.3578909103147
 10
175.1332670748614
 20
135.3789060066383
 10
175.1332670748614
 20
135.3789060066383
 10
175.1332670748614
 20
135.3789060066383
 10
175.0908923724385
 20
135.3789060066383
 10
175.0908923724385
 20
135.3789060066383
 10
175.0908923724385
 20
135.3789060066383
 10
175.0908923724385
 20
135.3999211029619
 10
175.0908923724385
 20
135.3999211029619
 10
175.0908923724385
 20
135.3999211029619
 10
175.0695327663391
 20
135.3999211029619
 10
175.0695327663391
 20
135.3999211029619
 10
175.0695327663391
 20
135.3999211029619
 10
175.0271580639162
 20
135.4212807090612
 10
175.0271580639162
 20
135.4212807090612
 10
175.0271580639162
 20
135.4212807090612
 10
175.0061429675926
 20
135.4212807090612
 10
175.0061429675926
 20
135.4212807090612
 10
175.0061429675926
 20
135.4212807090612
 10
174.9637682651697
 20
135.4422958053848
 10
174.9637682651697
 20
135.4422958053848
 10
174.8996894468716
 20
135.4498750204523
 10
174.8394002361073
 20
135.4860485469109
 10
174.7732543591544
 20
135.4846705078077
 72
     1
 10
174.7732543591544
 20
135.4846705078077
 11
174.7732543591544
 21
135.4846705078077
 97
        0
 75
     0
 76
     1
 98
        0
450
        0
451
        0
460
0.0
461
0.0
452
        0
462
0.0
453
        0
470

  0
HATCH
  5
3807
330
1F
100
AcDbEntity
  8
图层 1
 62
     7
100
AcDbHatch
 10
0.0
 20
0.0
 30
0.0
210
0.0
220
0.0
230
1.0
  2
SOLID
 70
     1
 71
     0
 91
        1
 92
        1
 93
        2
 72
     4
 94
        3
 73
     0
 74
     0
 95
       29
 96
       25
 40
0.0
 40
0.0
 40
0.0
 40
0.0
 40
0.3527780104152769
 40
0.3527780104152769
 40
0.3527780104152769
 40
0.7055560208305538
 40
0.7055560208305538
 40
0.7055560208305538
 40
1.058334031245828
 40
1.058334031245828
 40
1.058334031245828
 40
1.411112041661104
 40
1.411112041661104
 40
1.411112041661104
 40
1.763890052076384
 40
1.763890052076384
 40
1.763890052076384
 40
2.116668062491659
 40
2.116668062491659
 40
2.116668062491659
 40
2.469446072906936
 40
2.469446072906936
 40
2.469446072906936
 40
2.822224083322215
 40
2.822224083322215
 40
2.822224083322215
 40
2.822224083322215
 10
175.4929352807925
 20
164.0174869039101
 10
175.4929352807925
 20
164.0174869039101
 10
175.5139503771161
 20
163.9751122014871
 10
175.5139503771161
 20
163.9751122014871
 10
175.5139503771161
 20
163.9751122014871
 10
175.5139503771161
 20
163.9327374990642
 10
175.5139503771161
 20
163.9327374990642
 10
175.5139503771161
 20
163.9327374990642
 10
175.4929352807925
 20
163.8903627966413
 10
175.4929352807925
 20
163.8903627966413
 10
175.4929352807925
 20
163.8903627966413
 10
175.471920184469
 20
163.8691754454298
 10
175.471920184469
 20
163.8691754454298
 10
175.471920184469
 20
163.8691754454298
 10
175.4505605783696
 20
163.8269729978948
 10
175.4505605783696
 20
163.8269729978948
 10
175.3571984291289
 20
163.7715069239916
 10
175.272449024283
 20
163.8195660377152
 10
175.1966568736079
 20
163.8691754454298
 10
175.208370205985
 20
163.9930267098286
 10
175.1563492298397
 20
164.0216210212197
 10
175.2600466723544
 20
164.0596893514451
 10
175.3330827448232
 20
164.1094710140476
 10
175.4357466580104
 20
164.0753645462439
 10
175.4929352807925
 20
164.0174869039101
 72
     1
 10
175.4929352807925
 20
164.0174869039101
 11
175.4929352807925
 21
164.0174869039101
 97
        0
 75
     0
 76
     1
 98
        0
450
        0
451
        0
460
0.0
461
0.0
452
        0
462
0.0
453
        0
470

  0
HATCH
  5
3895
330
1F
100
AcDbEntity
  8
图层 1
 62
     7
100
AcDbHatch
 10
0.0
 20
0.0
 30
0.0
210
0.0
220
0.0
230
1.0
  2
SOLID
 70
     1
 71
     0
 91
        1
 92
        1
 93
        2
 72
     4
 94
        3
 73
     0
 74
     0
 95
       11
 96
        7
 40
0.0
 40
0.0
 40
0.0
 40
0.0
 40
0.3527780104152769
 40
0.3527780104152769
 40
0.3527780104152769
 40
0.7055560208305538
 40
0.7055560208305538
 40
0.7055560208305538
 40
0.7055560208305538
 10
174.9213935627468
 20
174.5369206529582
 10
174.9213935627468
 20
174.5369206529582
 10
174.9213935627468
 20
174.3043765542958
 10
174.9213935627468
 20
174.3043765542958
 10
174.9213935627468
 20
174.3043765542958
 10
174.9213935627468
 20
174.5369206529582
 10
174.9213935627468
 20
174.5369206529582
 72
     1
 10
174.9213935627468
 20
174.5369206529582
 11
174.9213935627468
 21
174.5369206529582
 97
        0
 75
     0
 76
     1
 98
        0
450
        0
451
        0
460
0.0
461
0.0
452
        0
462
0.0
453
        0
470

  0
HATCH
  5
3943
330
1F
100
AcDbEntity
  8
图层 1
 62
     7
100
AcDbHatch
 10
0.0
 20
0.0
 30
0.0
210
0.0
220
0.0
230
1.0
  2
SOLID
 70
     1
 71
     0
 91
        1
 92
        1
 93
        2
 72
     4
 94
        3
 73
     0
 74
     0
 95
      131
 96
      127
 40
0.0
 40
0.0
 40
0.0
 40
0.0
 40
0.3527780104152769
 40
0.3527780104152769
 40
0.3527780104152769
 40
0.7055560208305538
 40
0.7055560208305538
 40
0.7055560208305538
 40
1.058334031245828
 40
1.058334031245828
 40
1.058334031245828
 40
1.411112041661104
 40
1.411112041661104
 40
1.411112041661104
 40
1.763890052076384
 40
1.763890052076384
 40
1.763890052076384
 40
2.116668062491659
 40
2.116668062491659
 40
2.116668062491659
 40
2.469446072906936
 40
2.469446072906936
 40
2.469446072906936
 40
2.822224083322215
 40
2.822224083322215
 40
2.822224083322215
 40
3.175002093737492
 40
3.175002093737492
 40
3.175002093737492
 40
3.527780104152768
 40
3.527780104152768
 40
3.527780104152768
 40
3.880558114568044
 40
3.880558114568044
 40
3.880558114568044
 40
4.233336124983321
 40
4.233336124983321
 40
4.233336124983321
 40
4.586114135398599
 40
4.586114135398599
 40
4.586114135398599
 40
4.938892145813873
 40
4.938892145813873
 40
4.938892145813873
 40
5.291670156229153
 40
5.291670156229153
 40
5.291670156229153
 40
5.64444816664443
 40
5.64444816664443
 40
5.64444816664443
 40
5.997226177059705
 40
5.997226177059705
 40
5.997226177059705
 40
6.350004187474984
 40
6.350004187474984
 40
6.350004187474984
 40
6.702782197890257
 40
6.702782197890257
 40
6.702782197890257
 40
7.055560208305537
 40
7.055560208305537
 40
7.055560208305537
 40
7.408338218720808
 40
7.408338218720808
 40
7.408338218720808
 40
7.76111622913609
 40
7.76111622913609
 40
7.76111622913609
 40
8.113894239551369
 40
8.113894239551369
 40
8.113894239551369
 40
8.466672249966642
 40
8.466672249966642
 40
8.466672249966642
 40
8.819450260381922
 40
8.819450260381922
 40
8.819450260381922
 40
9.172228270797198
 40
9.172228270797198
 40
9.172228270797198
 40
9.525006281212476
 40
9.525006281212476
 40
9.525006281212476
 40
9.877784291627751
 40
9.877784291627751
 40
9.877784291627751
 40
10.23056230204303
 40
10.23056230204303
 40
10.23056230204303
 40
10.58334031245831
 40
10.58334031245831
 40
10.58334031245831
 40
10.93611832287358
 40
10.93611832287358
 40
10.93611832287358
 40
11.28889633328886
 40
11.28889633328886
 40
11.28889633328886
 40
11.64167434370414
 40
11.64167434370414
 40
11.64167434370414
 40
11.99445235411941
 40
11.99445235411941
 40
11.99445235411941
 40
12.34723036453469
 40
12.34723036453469
 40
12.34723036453469
 40
12.70000837494997
 40
12.70000837494997
 40
12.70000837494997
 40
13.05278638536524
 40
13.05278638536524
 40
13.05278638536524
 40
13.40556439578052
 40
13.40556439578052
 40
13.40556439578052
 40
13.7583424061958
 40
13.7583424061958
 40
13.7583424061958
 40
14.11112041661107
 40
14.11112041661107
 40
14.11112041661107
 40
14.46389842702635
 40
14.46389842702635
 40
14.46389842702635
 40
14.81667643744163
 40
14.81667643744163
 40
14.81667643744163
 40
14.81667643744163
 10
173.3972823146245
 20
126.8274843518258
 10
173.3972823146245
 20
126.8274843518258
 10
173.3972823146245
 20
126.7217198506564
 10
173.3972823146245
 20
126.7217198506564
 10
173.3972823146245
 20
126.7217198506564
 10
173.4186419207238
 20
126.7217198506564
 10
173.4186419207238
 20
126.7217198506564
 10
173.4186419207238
 20
126.7217198506564
 10
173.4820317194703
 20
126.7007047543328
 10
173.4820317194703
 20
126.7007047543328
 10
173.4820317194703
 20
126.7007047543328
 10
173.5244064218933
 20
126.6793451482334
 10
173.5244064218933
 20
126.6793451482334
 10
173.5244064218933
 20
126.6793451482334
 10
173.5877962206398
 20
126.6793451482334
 10
173.5877962206398
 20
126.6793451482334
 10
173.5877962206398
 20
126.6793451482334
 10
173.6301709230627
 20
126.6583300519099
 10
173.6301709230627
 20
126.6583300519099
 10
173.7955356154449
 20
126.5911506456296
 10
173.759706598762
 20
126.6380039751379
 10
173.9478089363468
 20
126.5525655507404
 10
173.9478089363468
 20
126.5525655507404
 10
173.9688240326703
 20
126.4464565397952
 10
173.9688240326703
 20
126.4464565397952
 10
173.9688240326703
 20
126.4464565397952
 10
174.0325583411926
 20
126.5101908483175
 10
174.0325583411926
 20
126.5101908483175
 10
174.0325583411926
 20
126.5101908483175
 10
174.0749330436156
 20
126.5101908483175
 10
174.0749330436156
 20
126.5101908483175
 10
174.0749330436156
 20
126.5101908483175
 10
174.1593379386856
 20
126.4678161458946
 10
174.1593379386856
 20
126.4678161458946
 10
174.1593379386856
 20
126.4678161458946
 10
174.180697544785
 20
126.4464565397952
 10
174.180697544785
 20
126.4464565397952
 10
174.2464989119621
 20
126.3982251711837
 10
174.3298702777047
 20
126.3716979184474
 10
174.3922265471239
 20
126.3196769423022
 10
174.608234176548
 20
126.2059887162895
 10
174.7749769080334
 20
126.0278771622029
 10
174.9637682651697
 20
125.8749148217494
 10
174.9637682651697
 20
125.8749148217494
 10
175.0061429675926
 20
125.9172895241723
 10
175.0061429675926
 20
125.9172895241723
 10
174.961356696739
 20
125.9631093243532
 10
174.782211613325
 20
126.1246844092016
 10
174.7308796567315
 20
126.1501781326105
 10
174.7308796567315
 20
126.1501781326105
 10
174.6885049543085
 20
126.1925528350335
 10
174.6885049543085
 20
126.1925528350335
 10
174.6885049543085
 20
126.1925528350335
 10
174.667489857985
 20
126.2349275374564
 10
174.667489857985
 20
126.2349275374564
 10
174.667489857985
 20
126.2349275374564
 10
174.625115155562
 20
126.2559426337799
 10
174.625115155562
 20
126.2559426337799
 10
174.625115155562
 20
126.2559426337799
 10
174.5827404531391
 20
126.2983173362029
 10
174.5827404531391
 20
126.2983173362029
 10
174.5827404531391
 20
126.2983173362029
 10
174.5403657507162
 20
126.3196769423022
 10
174.5403657507162
 20
126.3196769423022
 10
174.5403657507162
 20
126.3196769423022
 10
174.4979910482932
 20
126.3620516447252
 10
174.4979910482932
 20
126.3620516447252
 10
174.4735308542117
 20
126.3875453681341
 10
174.3247026310678
 20
126.4695386947736
 10
174.2864620459544
 20
126.4888312422181
 10
174.2864620459544
 20
126.4888312422181
 10
174.2654469496308
 20
126.5101908483175
 10
174.2654469496308
 20
126.5101908483175
 10
174.2654469496308
 20
126.5101908483175
 10
174.2230722472079
 20
126.5312059446411
 10
174.2230722472079
 20
126.5312059446411
 10
174.2230722472079
 20
126.5312059446411
 10
174.2017126411085
 20
126.5525655507404
 10
174.2017126411085
 20
126.5525655507404
 10
174.2017126411085
 20
126.5525655507404
 10
174.1383228423621
 20
126.573580647064
 10
174.1383228423621
 20
126.573580647064
 10
174.1383228423621
 20
126.573580647064
 10
174.1169632362627
 20
126.5945957433876
 10
174.1169632362627
 20
126.5945957433876
 10
174.1169632362627
 20
126.5945957433876
 10
174.0959481399391
 20
126.7007047543328
 10
174.0959481399391
 20
126.7007047543328
 10
174.0959481399391
 20
126.7007047543328
 10
174.0325583411926
 20
126.6369704458105
 10
174.0325583411926
 20
126.6369704458105
 10
174.0325583411926
 20
126.6369704458105
 10
173.9901836387697
 20
126.6369704458105
 10
173.9901836387697
 20
126.6369704458105
 10
173.9901836387697
 20
126.6369704458105
 10
173.9054342339239
 20
126.6793451482334
 10
173.9054342339239
 20
126.6793451482334
 10
173.9054342339239
 20
126.6793451482334
 10
173.8420444351773
 20
126.7007047543328
 10
173.8420444351773
 20
126.7007047543328
 10
173.8420444351773
 20
126.7007047543328
 10
173.7996697327544
 20
126.7217198506564
 10
173.7996697327544
 20
126.7217198506564
 10
173.7996697327544
 20
126.7217198506564
 10
173.7572950303315
 20
126.7217198506564
 10
173.7572950303315
 20
126.7217198506564
 10
173.7572950303315
 20
126.7217198506564
 10
173.6725456254856
 20
126.7640945530793
 10
173.6725456254856
 20
126.7640945530793
 10
173.6725456254856
 20
126.7640945530793
 10
173.6515305291621
 20
126.7640945530793
 10
173.6515305291621
 20
126.7640945530793
 10
173.6515305291621
 20
126.7640945530793
 10
173.5667811243162
 20
126.7851096494029
 10
173.5667811243162
 20
126.7851096494029
 10
173.5667811243162
 20
126.7851096494029
 10
173.5033913255697
 20
126.8064692555022
 10
173.5033913255697
 20
126.8064692555022
 10
173.5033913255697
 20
126.8064692555022
 10
173.4396570170474
 20
126.8064692555022
 10
173.4396570170474
 20
126.8064692555022
 10
173.4396570170474
 20
126.8064692555022
 10
173.4186419207238
 20
126.8274843518258
 10
173.4186419207238
 20
126.8274843518258
 10
173.4186419207238
 20
126.8274843518258
 10
173.3972823146245
 20
126.8274843518258
 10
173.3972823146245
 20
126.8274843518258
 72
     1
 10
173.3972823146245
 20
126.8274843518258
 11
173.3972823146245
 21
126.8274843518258
 97
        0
 75
     0
 76
     1
 98
        0
450
        0
451
        0
460
0.0
461
0.0
452
        0
462
0.0
453
        0
470

  0
HATCH
  5
4842
330
1F
100
AcDbEntity
  8
图层 1
 62
     7
100
AcDbHatch
 10
0.0
 20
0.0
 30
0.0
210
0.0
220
0.0
230
1.0
  2
SOLID
 70
     1
 71
     0
 91
        1
 92
        1
 93
        2
 72
     4
 94
        3
 73
     0
 74
     0
 95
       47
 96
       43
 40
0.0
 40
0.0
 40
0.0
 40
0.0
 40
0.3527780104152769
 40
0.3527780104152769
 40
0.3527780104152769
 40
0.7055560208305538
 40
0.7055560208305538
 40
0.7055560208305538
 40
1.058334031245828
 40
1.058334031245828
 40
1.058334031245828
 40
1.411112041661104
 40
1.411112041661104
 40
1.411112041661104
 40
1.763890052076384
 40
1.763890052076384
 40
1.763890052076384
 40
2.116668062491659
 40
2.116668062491659
 40
2.116668062491659
 40
2.469446072906936
 40
2.469446072906936
 40
2.469446072906936
 40
2.822224083322215
 40
2.822224083322215
 40
2.822224083322215
 40
3.175002093737492
 40
3.175002093737492
 40
3.175002093737492
 40
3.527780104152768
 40
3.527780104152768
 40
3.527780104152768
 40
3.880558114568044
 40
3.880558114568044
 40
3.880558114568044
 40
4.233336124983321
 40
4.233336124983321
 40
4.233336124983321
 40
4.586114135398599
 40
4.586114135398599
 40
4.586114135398599
 40
4.938892145813873
 40
4.938892145813873
 40
4.938892145813873
 40
4.938892145813873
 10
180.1920486226523
 20
255.6479577566324
 10
180.1920486226523
 20
255.6479577566324
 10
180.2130637189759
 20
255.6055830542095
 10
180.2130637189759
 20
255.6055830542095
 10
180.2130637189759
 20
255.6055830542095
 10
180.2130637189759
 20
255.5210059042515
 10
180.2130637189759
 20
255.5210059042515
 10
180.2130637189759
 20
255.5210059042515
 10
180.1920486226523
 20
255.4786312018286
 10
180.1920486226523
 20
255.4786312018286
 10
180.1920486226523
 20
255.4786312018286
 10
180.1496739202294
 20
255.4359119896299
 10
180.1496739202294
 20
255.4359119896299
 10
180.1496739202294
 20
255.4359119896299
 10
180.1283143141301
 20
255.4147246384184
 10
180.1283143141301
 20
255.4147246384184
 10
180.1283143141301
 20
255.4147246384184
 10
180.0225498129606
 20
255.4147246384184
 10
180.0225498129606
 20
255.4147246384184
 10
180.0225498129606
 20
255.4147246384184
 10
179.9591600142141
 20
255.4359119896299
 10
179.9591600142141
 20
255.4359119896299
 10
179.9591600142141
 20
255.4359119896299
 10
179.9167853117912
 20
255.4570993408414
 10
179.9167853117912
 20
255.4570993408414
 10
179.9167853117912
 20
255.4570993408414
 10
179.8957702154676
 20
255.4786312018286
 10
179.8957702154676
 20
255.4786312018286
 10
179.8957702154676
 20
255.4786312018286
 10
179.8744106093683
 20
255.4994740432643
 10
179.8744106093683
 20
255.4994740432643
 10
179.8744106093683
 20
255.4994740432643
 10
179.8744106093683
 20
255.6479577566324
 10
179.8744106093683
 20
255.6479577566324
 10
179.9608825630931
 20
255.7323626517025
 10
180.045631967939
 20
255.7085914771726
 10
180.1496739202294
 20
255.7115198102668
 10
180.1496739202294
 20
255.7115198102668
 10
180.170689016553
 20
255.6688005980681
 10
180.170689016553
 20
255.6688005980681
 10
180.170689016553
 20
255.6688005980681
 10
180.1920486226523
 20
255.6479577566324
 10
180.1920486226523
 20
255.6479577566324
 72
     1
 10
180.1920486226523
 20
255.6479577566324
 11
180.1920486226523
 21
255.6479577566324
 97
        0
 75
     0
 76
     1
 98
        0
450
        0
451
        0
460
0.0
461
0.0
452
        0
462
0.0
453
        0
470

  0
MTEXT
  5
1338B
102
{ACAD_XDICTIONARY
360
18BF0
102
}
330
1F
100
AcDbEntity
  8
打标文字
 62
     3
100
AcDbMText
 10
540.3427923518417
 20
323.4774954938323
 30
0.0
 40
3.0
 41
86.2548180434813
 46
107.8236110958389
 71
     1
 72
     5
  3
\A1;{\f仿宋_GB2312|b0|i0|c134|p49;技术参数}:\P- {\f仿宋_GB2312|b0|i0|c134|p49;材料}: {\f仿宋_GB2312|b0|i0|c134|p49;铜合金}\P- {\f仿宋_GB2312|b0|i0|c134|p49;表面处理}: {\f仿宋_GB2312|b0|i0|c134|p49;镀银}\P- {\f仿宋_GB2312|b0|i0|c134|p49;额定电流}: 350A\P- {\f仿宋_GB2312|b0|i0|c134|p4
  3
9;接触电阻}: ≤0.3mΩ\P- {\f仿宋_GB2312|b0|i0|c134|p49;线径范围}: 70mm{\H0.7x;\S2^ ;}\P- {\f仿宋_GB2312|b0|i0|c134|p49;剥线长度}: 28mm\P- {\f仿宋_GB2312|b0|i0|c134|p49;最大电缆直径}: 22mm\P- {\f仿宋_GB2312|b0|i0|c134|p49;冷压模具}: {\f仿宋_GB2312|b0|i0|c134|p49;按照} DIN 46 235\P- {\f仿宋
  3
_GB2312|b0|i0|c134|p49;压力要求}: 130kN\P- {\f仿宋_GB2312|b0|i0|c134|p49;可插拔次数}: {\f仿宋_GB2312|b0|i0|c134|p49;≥}500\P\PTechnical specification:\P- Material: copper alloy\P- Surface: hard-silver plated\P- Rated current: 350A\P- Contact resistance: ≤0.3mΩ\P- 
  1
Wire gauge: 70mm{\H0.7x;\S2^ ;}\P- Stripping length: 28mm\P- Max. insulation diameter: 22mm\P- Crimp dies: acc. to DIN 46 235\P- Pressing force: 130kN\P- Mating cycles: {\f仿宋_GB2312|b0|i0|c134|p49;≥}500
  7
Romans字体
 73
     1
 44
1.0
1001
ACAD
1000
ACAD_MTEXT_DEFINED_HEIGHT_BEGIN
1070
    46
1040
107.8236110958389
1000
ACAD_MTEXT_DEFINED_HEIGHT_END
  0
MTEXT
  5
13829
330
1F
100
AcDbEntity
  8
图框
 62
     3
100
AcDbMText
 10
599.3915027813324
 20
183.7885661405102
 30
0.0
 40
2.985513578540332
 41
33.6123920318957
 46
8.686745515887562
 71
     5
 72
     5
  1
CHSM350-70
  7
Romans字体
 73
     1
 44
1.0
1001
ACAD
1000
ACAD_MTEXT_DEFINED_HEIGHT_BEGIN
1070
    46
1040
8.686745515887562
1000
ACAD_MTEXT_DEFINED_HEIGHT_END
  0
MTEXT
  5
1382A
330
1F
100
AcDbEntity
  8
图框
 62
     3
100
AcDbMText
 10
599.3915027813324
 20
175.0091156033734
 30
0.0
 40
2.985513578540332
 41
33.6123920318957
 46
8.872155558385545
 71
     5
 72
     5
  1
1010291101901
  7
Romans字体
 73
     1
 44
1.0
1001
ACAD
1000
ACAD_MTEXT_DEFINED_HEIGHT_BEGIN
1070
    46
1040
8.872155558385545
1000
ACAD_MTEXT_DEFINED_HEIGHT_END
  0
MTEXT
  5
1382B
330
1F
100
AcDbEntity
  8
图框
 62
     3
100
AcDbMText
 10
531.3378377708253
 20
161.701480509
 30
0.0
 40
2.985513578540332
 41
10.82934844710844
 46
7.88609461047191
 71
     5
 72
     5
  1
1:1 
  7
Romans字体
 73
     1
 44
1.0
1001
ACAD
1000
ACAD_MTEXT_DEFINED_HEIGHT_BEGIN
1070
    46
1040
7.88609461047191
1000
ACAD_MTEXT_DEFINED_HEIGHT_END
  0
MTEXT
  5
1382C
330
1F
100
AcDbEntity
  8
图框
 62
     3
100
AcDbMText
 10
552.9965346650443
 20
161.701480509
 30
0.0
 40
2.985513578540332
 41
10.82934844711013
 46
7.886094610471809
 71
     5
 72
     5
  1
66.8g
  7
Romans字体
 73
     1
 44
1.0
1001
ACAD
1000
ACAD_MTEXT_DEFINED_HEIGHT_BEGIN
1070
    46
1040
7.886094610471809
1000
ACAD_MTEXT_DEFINED_HEIGHT_END
  0
INSERT
  5
1382D
330
1F
100
AcDbEntity
  8
DIM
100
AcDbBlockReference
  2
A4图框-NEW
 10
-510.7308051365452
 20
-334.1402619726514
 30
0.0
  0
INSERT
  5
18619
330
1F
100
AcDbEntity
  8
0
100
AcDbBlockReference
  2
*X24
 10
474.3526732224278
 20
254.6031680711231
 30
0.0
  0
LINE
  5
1861A
330
1F
100
AcDbEntity
  8
0
100
AcDbLine
 10
440.1178332224279
 20
265.3076780711231
 30
0.0
 11
440.1178332224279
 21
262.307678071123
 31
0.0
  0
LINE
  5
1861B
330
1F
100
AcDbEntity
  8
0
100
AcDbLine
 10
440.1178332224279
 20
262.307678071123
 30
0.0
 11
418.1178332224275
 21
262.307678071123
 31
0.0
  0
LINE
  5
18620
330
1F
100
AcDbEntity
  8
0
100
AcDbLine
 10
418.1178332224275
 20
265.3076780711231
 30
0.0
 11
440.1178332224279
 21
265.3076780711231
 31
0.0
  0
ARC
  5
18623
330
1F
100
AcDbEntity
  8
0
100
AcDbCircle
 10
447.6178332224278
 20
263.8076780711231
 30
0.0
 40
1.0
100
AcDbArc
 50
180.0
 51
270.0
  0
ARC
  5
18624
330
1F
100
AcDbEntity
  8
0
100
AcDbCircle
 10
447.6178332224278
 20
263.8076780711231
 30
0.0
 40
1.0
100
AcDbArc
 50
270.0
 51
180.0
  0
LINE
  5
18625
330
1F
100
AcDbEntity
  8
0
100
AcDbLine
 10
475.1178332224275
 20
257.0576780711231
 30
0.0
 11
475.1178332224275
 21
253.3076780711231
 31
0.0
  0
LINE
  5
18626
330
1F
100
AcDbEntity
  8
0
100
AcDbLine
 10
475.1178332224275
 20
274.3076780711231
 30
0.0
 11
475.1178332224275
 21
270.557678071123
 31
0.0
  0
LINE
  5
18627
330
1F
100
AcDbEntity
  8
0
100
AcDbLine
 10
475.1178332224275
 20
270.557678071123
 30
0.0
 11
475.1178332224275
 21
257.0576780711231
 31
0.0
  0
LINE
  5
18628
330
1F
100
AcDbEntity
  8
0
100
AcDbLine
 10
445.1178332224277
 20
271.5576780711231
 30
0.0
 11
445.1178332224277
 21
273.8076780711231
 31
0.0
  0
LINE
  5
18629
330
1F
100
AcDbEntity
  8
0
100
AcDbLine
 10
445.1178332224277
 20
253.8076780711231
 30
0.0
 11
445.1178332224277
 21
256.057678071123
 31
0.0
  0
LINE
  5
1862A
330
1F
100
AcDbEntity
  8
0
100
AcDbLine
 10
450.1178332224275
 20
252.8076980711231
 30
0.0
 11
450.1178332224275
 21
254.5576780711231
 31
0.0
  0
LINE
  5
1862B
330
1F
100
AcDbEntity
  8
0
100
AcDbLine
 10
450.1178332224275
 20
273.0576780711231
 30
0.0
 11
450.1178332224275
 21
274.807678071123
 31
0.0
  0
LINE
  5
1868E
330
1F
100
AcDbEntity
  8
0
100
AcDbLine
 10
474.1178332224277
 20
253.3076780711231
 30
0.0
 11
471.8678332224278
 21
255.5576780711231
 31
0.0
  0
LINE
  5
1868F
330
1F
100
AcDbEntity
  8
0
100
AcDbLine
 10
471.8678332224278
 20
272.0576780711231
 30
0.0
 11
474.1178332224277
 21
274.3076780711231
 31
0.0
  0
ARC
  5
18690
330
1F
100
AcDbEntity
  8
0
100
AcDbCircle
 10
451.1178332224278
 20
254.5576780711231
 30
0.0
 40
1.0
100
AcDbArc
 50
90.0
 51
180.0
  0
ARC
  5
18691
330
1F
100
AcDbEntity
  8
0
100
AcDbCircle
 10
451.1178332224278
 20
273.0576780711231
 30
0.0
 40
1.0
100
AcDbArc
 50
180.0
 51
270.0
  0
LINE
  5
18692
330
1F
100
AcDbEntity
  8
0
100
AcDbLine
 10
474.1178332224277
 20
253.3076780711231
 30
0.0
 11
475.1178332224275
 21
253.3076780711231
 31
0.0
  0
LINE
  5
18693
330
1F
100
AcDbEntity
  8
0
100
AcDbLine
 10
475.1178332224275
 20
274.3076780711231
 30
0.0
 11
474.1178332224277
 21
274.3076780711231
 31
0.0
  0
LINE
  5
18694
330
1F
100
AcDbEntity
  8
0
100
AcDbLine
 10
473.3857832224273
 20
258.057678071123
 30
0.0
 11
475.1178332224275
 21
257.0576780711231
 31
0.0
  0
LINE
  5
18695
330
1F
100
AcDbEntity
  8
0
100
AcDbLine
 10
475.1178332224275
 20
270.557678071123
 30
0.0
 11
473.3857832224273
 21
269.5576780711231
 31
0.0
  0
LINE
  5
18696
330
1F
100
AcDbEntity
  8
0
100
AcDbLine
 10
473.3857832224273
 20
269.5576780711231
 30
0.0
 11
473.3857832224273
 21
258.057678071123
 31
0.0
  0
LINE
  5
18697
330
1F
100
AcDbEntity
  8
0
100
AcDbLine
 10
446.6178332224278
 20
258.057678071123
 30
0.0
 11
443.2980732224272
 21
263.8076780711231
 31
0.0
  0
LINE
  5
18698
330
1F
100
AcDbEntity
  8
0
100
AcDbLine
 10
443.2980732224272
 20
263.8076780711231
 30
0.0
 11
446.6178332224278
 21
269.5576780711231
 31
0.0
  0
LINE
  5
18699
330
1F
100
AcDbEntity
  8
0
100
AcDbLine
 10
446.6178332224278
 20
263.8076780711231
 30
0.0
 11
446.6178332224278
 21
269.5576780711231
 31
0.0
  0
LINE
  5
1869A
330
1F
100
AcDbEntity
  8
0
100
AcDbLine
 10
446.6178332224278
 20
258.057678071123
 30
0.0
 11
446.6178332224278
 21
263.8076780711231
 31
0.0
  0
LINE
  5
1869B
330
1F
100
AcDbEntity
  8
0
100
AcDbLine
 10
473.3857832224273
 20
258.057678071123
 30
0.0
 11
446.6178332224278
 21
258.057678071123
 31
0.0
  0
LINE
  5
1869C
330
1F
100
AcDbEntity
  8
0
100
AcDbLine
 10
446.6178332224278
 20
269.5576780711231
 30
0.0
 11
473.3857832224273
 21
269.5576780711231
 31
0.0
  0
ARC
  5
1869D
330
1F
100
AcDbEntity
  8
0
100
AcDbCircle
 10
444.6178332224278
 20
256.057678071123
 30
0.0
 40
0.5
100
AcDbArc
 50
0.0
 51
90.0
  0
ARC
  5
1869E
330
1F
100
AcDbEntity
  8
0
100
AcDbCircle
 10
444.6178332224278
 20
271.5576780711231
 30
0.0
 40
0.5
100
AcDbArc
 50
270.0
 51
0.0
  0
LINE
  5
1869F
330
1F
100
AcDbEntity
  8
0
100
AcDbLine
 10
446.1178332224275
 20
252.8076780711231
 30
0.0
 11
445.1178332224277
 21
253.8076780711231
 31
0.0
  0
LINE
  5
186A0
330
1F
100
AcDbEntity
  8
0
100
AcDbLine
 10
445.1178332224277
 20
273.8076780711231
 30
0.0
 11
446.1178332224275
 21
274.807678071123
 31
0.0
  0
LINE
  5
186A1
330
1F
100
AcDbEntity
  8
0
100
AcDbLine
 10
420.1178332224277
 20
256.5576780711231
 30
0.0
 11
442.0294732224281
 21
256.5576780711231
 31
0.0
  0
LINE
  5
186A2
330
1F
100
AcDbEntity
  8
0
100
AcDbLine
 10
444.6178332224278
 20
256.5576780711231
 30
0.0
 11
442.0294732224281
 21
256.5576780711231
 31
0.0
  0
LINE
  5
186A3
330
1F
100
AcDbEntity
  8
0
100
AcDbLine
 10
442.0294732224281
 20
271.0576780711231
 30
0.0
 11
420.1178332224277
 21
271.0576780711231
 31
0.0
  0
LINE
  5
186A4
330
1F
100
AcDbEntity
  8
0
100
AcDbLine
 10
442.0294732224281
 20
271.0576780711231
 30
0.0
 11
444.6178332224278
 21
271.0576780711231
 31
0.0
  0
LINE
  5
186A5
102
{ACAD_REACTORS
330
18756
102
}
330
1F
100
AcDbEntity
  8
0
100
AcDbLine
 10
451.1178332224278
 20
255.5576780711231
 30
0.0
 11
471.8678332224278
 21
255.5576780711231
 31
0.0
  0
LINE
  5
186A6
102
{ACAD_REACTORS
330
18756
102
}
330
1F
100
AcDbEntity
  8
0
100
AcDbLine
 10
471.8678332224278
 20
272.0576780711231
 30
0.0
 11
451.1178332224278
 21
272.0576780711231
 31
0.0
  0
LINE
  5
186A7
330
1F
100
AcDbEntity
  8
0
100
AcDbLine
 10
450.1178332224275
 20
252.8076780711231
 30
0.0
 11
446.1178332224275
 21
252.8076780711231
 31
0.0
  0
LINE
  5
186A8
330
1F
100
AcDbEntity
  8
0
100
AcDbLine
 10
446.1178332224275
 20
274.807678071123
 30
0.0
 11
450.1178332224275
 21
274.807678071123
 31
0.0
  0
LINE
  5
186A9
330
1F
100
AcDbEntity
  8
CEN
100
AcDbLine
 10
417.558246675779
 20
263.8076780711231
 30
0.0
 11
476.5158632224281
 21
263.8076780711231
 31
0.0
  0
LINE
  5
186AA
330
1F
100
AcDbEntity
  8
0
100
AcDbLine
 10
447.6178332224278
 20
263.8076780711231
 30
0.0
 11
447.6178332224278
 21
263.8076780711231
 31
0.0
  0
LINE
  5
186AB
330
1F
100
AcDbEntity
  8
0
100
AcDbLine
 10
447.6178332224278
 20
263.8076780711231
 30
0.0
 11
447.6178332224278
 21
263.8076780711231
 31
0.0
  0
LINE
  5
186AC
330
1F
100
AcDbEntity
  8
CEN
100
AcDbLine
 10
447.6178332224278
 20
261.9783883943845
 30
0.0
 11
447.6178332224278
 21
265.7593055479736
 31
0.0
  0
POLYLINE
  5
186AD
330
1F
100
AcDbEntity
  8
0
100
AcDb2dPolyline
 66
     1
 10
0.0
 20
0.0
 30
0.0
 70
     2
  0
VERTEX
  5
186AE
330
186AD
100
AcDbEntity
  8
0
100
AcDbVertex
100
AcDb2dVertex
 10
442.0294732224281
 20
256.5576780711231
 30
0.0
  0
VERTEX
  5
186AF
330
186AD
100
AcDbEntity
  8
0
100
AcDbVertex
100
AcDb2dVertex
 10
442.0068932224274
 20
256.6489180711231
 30
0.0
 42
-0.0060563737
 70
     1
  0
VERTEX
  5
186B0
330
186AD
100
AcDbEntity
  8
0
100
AcDbVertex
100
AcDb2dVertex
 10
441.9866132224274
 20
256.7402080711232
 30
0.0
 42
-0.0061443244
  0
VERTEX
  5
186B1
330
186AD
100
AcDbEntity
  8
0
100
AcDbVertex
100
AcDb2dVertex
 10
441.9687332224282
 20
256.8315480711231
 30
0.0
 42
-0.0061772274
 70
     1
  0
VERTEX
  5
186B2
330
186AD
100
AcDbEntity
  8
0
100
AcDbVertex
100
AcDb2dVertex
 10
441.9531432224273
 20
256.9229480711231
 30
0.0
 42
-0.0061404004
  0
VERTEX
  5
186B3
330
186AD
100
AcDbEntity
  8
0
100
AcDbVertex
100
AcDb2dVertex
 10
441.9398932224273
 20
257.014398071123
 30
0.0
 42
-0.006120433
 70
     1
  0
VERTEX
  5
186B4
330
186AD
100
AcDbEntity
  8
0
100
AcDbVertex
100
AcDb2dVertex
 10
441.9288732224273
 20
257.105918071123
 30
0.0
 42
-0.0060996346
  0
VERTEX
  5
186B5
330
186AD
100
AcDbEntity
  8
0
100
AcDbVertex
100
AcDb2dVertex
 10
441.9201532224276
 20
257.197498071123
 30
0.0
 42
-0.0060626176
 70
     1
  0
VERTEX
  5
186B6
330
186AD
100
AcDbEntity
  8
0
100
AcDbVertex
100
AcDb2dVertex
 10
441.9136332224276
 20
257.2891480711231
 30
0.0
 42
-0.0059916441
  0
VERTEX
  5
186B7
330
186AD
100
AcDbEntity
  8
0
100
AcDbVertex
100
AcDb2dVertex
 10
441.9093532224275
 20
257.380868071123
 30
0.0
 42
-0.005978002
 70
     1
  0
VERTEX
  5
186B8
330
186AD
100
AcDbEntity
  8
0
100
AcDbVertex
100
AcDb2dVertex
 10
441.9072432224282
 20
257.4726680711231
 30
0.0
 42
-0.0060174544
  0
VERTEX
  5
186B9
330
186AD
100
AcDbEntity
  8
0
100
AcDbVertex
100
AcDb2dVertex
 10
441.9074132224275
 20
257.5645380711231
 30
0.0
 42
-0.0061146983
 70
     1
  0
VERTEX
  5
186BA
330
186AD
100
AcDbEntity
  8
0
100
AcDbVertex
100
AcDb2dVertex
 10
441.909833222428
 20
257.6564680711231
 30
0.0
 42
-0.0062972473
  0
VERTEX
  5
186BB
330
186AD
100
AcDbEntity
  8
0
100
AcDbVertex
100
AcDb2dVertex
 10
441.9146632224281
 20
257.7484380711231
 30
0.0
 42
-0.0064444631
 70
     1
  0
VERTEX
  5
186BC
330
186AD
100
AcDbEntity
  8
0
100
AcDbVertex
100
AcDb2dVertex
 10
441.9218732224278
 20
257.8404580711231
 30
0.0
 42
-0.006599221
  0
VERTEX
  5
186BD
330
186AD
100
AcDbEntity
  8
0
100
AcDbVertex
100
AcDb2dVertex
 10
441.9316132224273
 20
257.9324980711231
 30
0.0
 42
-0.006698363
 70
     1
  0
VERTEX
  5
186BE
330
186AD
100
AcDbEntity
  8
0
100
AcDbVertex
100
AcDb2dVertex
 10
441.9438432224275
 20
258.0245580711231
 30
0.0
 42
-0.006779688
  0
VERTEX
  5
186BF
330
186AD
100
AcDbEntity
  8
0
100
AcDbVertex
100
AcDb2dVertex
 10
441.9587032224278
 20
258.116618071123
 30
0.0
 42
-0.0069416734
 70
     1
  0
VERTEX
  5
186C0
330
186AD
100
AcDbEntity
  8
0
100
AcDbVertex
100
AcDb2dVertex
 10
441.9762232224281
 20
258.2086880711232
 30
0.0
 42
-0.0072386591
  0
VERTEX
  5
186C1
330
186AD
100
AcDbEntity
  8
0
100
AcDbVertex
100
AcDb2dVertex
 10
441.9965632224273
 20
258.3007380711231
 30
0.0
 42
-0.0069513266
 70
     1
  0
VERTEX
  5
186C2
330
186AD
100
AcDbEntity
  8
0
100
AcDbVertex
100
AcDb2dVertex
 10
442.0193932224281
 20
258.3927580711229
 30
0.0
 42
-0.0060673074
  0
VERTEX
  5
186C3
330
186AD
100
AcDbEntity
  8
0
100
AcDbVertex
100
AcDb2dVertex
 10
442.0444132224282
 20
258.4847280711231
 30
0.0
 42
-0.0047508891
 70
     1
  0
VERTEX
  5
186C4
330
186AD
100
AcDbEntity
  8
0
100
AcDbVertex
100
AcDb2dVertex
 10
442.0708732224282
 20
258.5766080711231
 30
0.0
 42
-0.0027065319
  0
VERTEX
  5
186C5
330
186AD
100
AcDbEntity
  8
0
100
AcDbVertex
100
AcDb2dVertex
 10
442.0980532224281
 20
258.668358071123
 30
0.0
 42
-0.0010264863
 70
     1
  0
VERTEX
  5
186C6
330
186AD
100
AcDbEntity
  8
0
100
AcDbVertex
100
AcDb2dVertex
 10
442.1252332224272
 20
258.7599480711231
 30
0.0
 42
0.0007438422
  0
VERTEX
  5
186C7
330
186AD
100
AcDbEntity
  8
0
100
AcDbVertex
100
AcDb2dVertex
 10
442.1517332224273
 20
258.8513480711231
 30
0.0
 42
0.002356827
 70
     1
  0
VERTEX
  5
186C8
330
186AD
100
AcDbEntity
  8
0
100
AcDbVertex
100
AcDb2dVertex
 10
442.1768932224273
 20
258.9425280711231
 30
0.0
 42
0.0042446848
  0
VERTEX
  5
186C9
330
186AD
100
AcDbEntity
  8
0
100
AcDbVertex
100
AcDb2dVertex
 10
442.1999332224275
 20
259.0334480711231
 30
0.0
 42
0.0059939116
 70
     1
  0
VERTEX
  5
186CA
330
186AD
100
AcDbEntity
  8
0
100
AcDbVertex
100
AcDb2dVertex
 10
442.220253222428
 20
259.1240680711231
 30
0.0
 42
0.008040375
  0
VERTEX
  5
186CB
330
186AD
100
AcDbEntity
  8
0
100
AcDbVertex
100
AcDb2dVertex
 10
442.2370332224279
 20
259.2143680711231
 30
0.0
 42
0.009929697
 70
     1
  0
VERTEX
  5
186CC
330
186AD
100
AcDbEntity
  8
0
100
AcDbVertex
100
AcDb2dVertex
 10
442.2497532224276
 20
259.304308071123
 30
0.0
 42
0.01206807
  0
VERTEX
  5
186CD
330
186AD
100
AcDbEntity
  8
0
100
AcDbVertex
100
AcDb2dVertex
 10
442.2575332224275
 20
259.393838071123
 30
0.0
 42
0.014230868
 70
     1
  0
VERTEX
  5
186CE
330
186AD
100
AcDbEntity
  8
0
100
AcDbVertex
100
AcDb2dVertex
 10
442.2597932224276
 20
259.482958071123
 30
0.0
 42
0.016840577
  0
VERTEX
  5
186CF
330
186AD
100
AcDbEntity
  8
0
100
AcDbVertex
100
AcDb2dVertex
 10
442.2555932224272
 20
259.571588071123
 30
0.0
 42
0.018365849
 70
     1
  0
VERTEX
  5
186D0
330
186AD
100
AcDbEntity
  8
0
100
AcDbVertex
100
AcDb2dVertex
 10
442.2448732224281
 20
259.659758071123
 30
0.0
 42
0.019017219
  0
VERTEX
  5
186D1
330
186AD
100
AcDbEntity
  8
0
100
AcDbVertex
100
AcDb2dVertex
 10
442.2273232224275
 20
259.747488071123
 30
0.0
 42
0.017492272
 70
     1
  0
VERTEX
  5
186D2
330
186AD
100
AcDbEntity
  8
0
100
AcDbVertex
100
AcDb2dVertex
 10
442.204193222428
 20
259.834898071123
 30
0.0
 42
0.013680679
  0
VERTEX
  5
186D3
330
186AD
100
AcDbEntity
  8
0
100
AcDbVertex
100
AcDb2dVertex
 10
442.1764132224277
 20
259.9221280711232
 30
0.0
 42
0.010599619
 70
     1
  0
VERTEX
  5
186D4
330
186AD
100
AcDbEntity
  8
0
100
AcDbVertex
100
AcDb2dVertex
 10
442.1451632224274
 20
260.0093180711231
 30
0.0
 42
0.0075865114
  0
VERTEX
  5
186D5
330
186AD
100
AcDbEntity
  8
0
100
AcDbVertex
100
AcDb2dVertex
 10
442.1113332224273
 20
260.0965780711231
 30
0.0
 42
0.0049862348
 70
     1
  0
VERTEX
  5
186D6
330
186AD
100
AcDbEntity
  8
0
100
AcDbVertex
100
AcDb2dVertex
 10
442.0760032224277
 20
260.1840380711231
 30
0.0
 42
0.0021570774
  0
VERTEX
  5
186D7
330
186AD
100
AcDbEntity
  8
0
100
AcDbVertex
100
AcDb2dVertex
 10
442.0401732224278
 20
260.2718180711232
 30
0.0
 42
-0.0004144206
 70
     1
  0
VERTEX
  5
186D8
330
186AD
100
AcDbEntity
  8
0
100
AcDbVertex
100
AcDb2dVertex
 10
442.0049232224279
 20
260.360068071123
 30
0.0
 42
-0.0034255883
  0
VERTEX
  5
186D9
330
186AD
100
AcDbEntity
  8
0
100
AcDbVertex
100
AcDb2dVertex
 10
441.9713332224278
 20
260.448928071123
 30
0.0
 42
-0.0053200511
 70
     1
  0
VERTEX
  5
186DA
330
186AD
100
AcDbEntity
  8
0
100
AcDbVertex
100
AcDb2dVertex
 10
441.9398832224276
 20
260.5383880711229
 30
0.0
 42
-0.0065930414
  0
VERTEX
  5
186DB
330
186AD
100
AcDbEntity
  8
0
100
AcDbVertex
100
AcDb2dVertex
 10
441.911103222428
 20
260.6284580711232
 30
0.0
 42
-0.0072235318
 70
     1
  0
VERTEX
  5
186DC
330
186AD
100
AcDbEntity
  8
0
100
AcDbVertex
100
AcDb2dVertex
 10
441.8849932224282
 20
260.719028071123
 30
0.0
 42
-0.0073466876
  0
VERTEX
  5
186DD
330
186AD
100
AcDbEntity
  8
0
100
AcDbVertex
100
AcDb2dVertex
 10
441.8617632224274
 20
260.8100080711231
 30
0.0
 42
-0.0075946672
 70
     1
  0
VERTEX
  5
186DE
330
186AD
100
AcDbEntity
  8
0
100
AcDbVertex
100
AcDb2dVertex
 10
441.8414132224277
 20
260.901298071123
 30
0.0
 42
-0.0080141101
  0
VERTEX
  5
186DF
330
186AD
100
AcDbEntity
  8
0
100
AcDbVertex
100
AcDb2dVertex
 10
441.8242132224275
 20
260.9928380711231
 30
0.0
 42
-0.0083870479
 70
     1
  0
VERTEX
  5
186E0
330
186AD
100
AcDbEntity
  8
0
100
AcDbVertex
100
AcDb2dVertex
 10
441.8101832224281
 20
261.0845180711231
 30
0.0
 42
-0.0087836154
  0
VERTEX
  5
186E1
330
186AD
100
AcDbEntity
  8
0
100
AcDbVertex
100
AcDb2dVertex
 10
441.7995832224276
 20
261.1762580711229
 30
0.0
 42
-0.009148597
 70
     1
  0
VERTEX
  5
186E2
330
186AD
100
AcDbEntity
  8
0
100
AcDbVertex
100
AcDb2dVertex
 10
441.7923932224272
 20
261.2679780711231
 30
0.0
 42
-0.0095450518
  0
VERTEX
  5
186E3
330
186AD
100
AcDbEntity
  8
0
100
AcDbVertex
100
AcDb2dVertex
 10
441.7888832224276
 20
261.359588071123
 30
0.0
 42
-0.0099850253
 70
     1
  0
VERTEX
  5
186E4
330
186AD
100
AcDbEntity
  8
0
100
AcDbVertex
100
AcDb2dVertex
 10
441.7890832224282
 20
261.450998071123
 30
0.0
 42
-0.010558861
  0
VERTEX
  5
186E5
330
186AD
100
AcDbEntity
  8
0
100
AcDbVertex
100
AcDb2dVertex
 10
441.7932732224278
 20
261.5420980711231
 30
0.0
 42
-0.010569299
 70
     1
  0
VERTEX
  5
186E6
330
186AD
100
AcDbEntity
  8
0
100
AcDbVertex
100
AcDb2dVertex
 10
441.8011332224272
 20
261.632918071123
 30
0.0
 42
-0.0099719283
  0
VERTEX
  5
186E7
330
186AD
100
AcDbEntity
  8
0
100
AcDbVertex
100
AcDb2dVertex
 10
441.8125932224281
 20
261.723458071123
 30
0.0
 42
-0.009173834
 70
     1
  0
VERTEX
  5
186E8
330
186AD
100
AcDbEntity
  8
0
100
AcDbVertex
100
AcDb2dVertex
 10
441.8271332224271
 20
261.8137780711229
 30
0.0
 42
-0.0079868576
  0
VERTEX
  5
186E9
330
186AD
100
AcDbEntity
  8
0
100
AcDbVertex
100
AcDb2dVertex
 10
441.8445032224278
 20
261.9039480711231
 30
0.0
 42
-0.006974871
 70
     1
  0
VERTEX
  5
186EA
330
186AD
100
AcDbEntity
  8
0
100
AcDbVertex
100
AcDb2dVertex
 10
441.8642432224276
 20
261.9940280711231
 30
0.0
 42
-0.0059090378
  0
VERTEX
  5
186EB
330
186AD
100
AcDbEntity
  8
0
100
AcDbVertex
100
AcDb2dVertex
 10
441.8860732224278
 20
262.0840580711231
 30
0.0
 42
-0.0049523132
 70
     1
  0
VERTEX
  5
186EC
330
186AD
100
AcDbEntity
  8
0
100
AcDbVertex
100
AcDb2dVertex
 10
441.9095832224281
 20
262.1741080711232
 30
0.0
 42
-0.003881487
  0
VERTEX
  5
186ED
330
186AD
100
AcDbEntity
  8
0
100
AcDbVertex
100
AcDb2dVertex
 10
441.9344632224281
 20
262.264228071123
 30
0.0
 42
-0.002944805
 70
     1
  0
VERTEX
  5
186EE
330
186AD
100
AcDbEntity
  8
0
100
AcDbVertex
100
AcDb2dVertex
 10
441.9603032224272
 20
262.354468071123
 30
0.0
 42
-0.001913006
  0
VERTEX
  5
186EF
330
186AD
100
AcDbEntity
  8
0
100
AcDbVertex
100
AcDb2dVertex
 10
441.9867932224276
 20
262.4449080711229
 30
0.0
 42
-0.0010097739
 70
     1
  0
VERTEX
  5
186F0
330
186AD
100
AcDbEntity
  8
0
100
AcDbVertex
100
AcDb2dVertex
 10
442.0135432224276
 20
262.535578071123
 30
0.0
 42
-0.000005844
  0
VERTEX
  5
186F1
330
186AD
100
AcDbEntity
  8
0
100
AcDbVertex
100
AcDb2dVertex
 10
442.0402032224281
 20
262.626528071123
 30
0.0
 42
0.0008394276
 70
     1
  0
VERTEX
  5
186F2
330
186AD
100
AcDbEntity
  8
0
100
AcDbVertex
100
AcDb2dVertex
 10
442.0664332224276
 20
262.7177180711231
 30
0.0
 42
0.0017495671
  0
VERTEX
  5
186F3
330
186AD
100
AcDbEntity
  8
0
100
AcDbVertex
100
AcDb2dVertex
 10
442.0918432224278
 20
262.8090980711232
 30
0.0
 42
0.0025637293
 70
     1
  0
VERTEX
  5
186F4
330
186AD
100
AcDbEntity
  8
0
100
AcDbVertex
100
AcDb2dVertex
 10
442.1161232224273
 20
262.9006280711231
 30
0.0
 42
0.0034962607
  0
VERTEX
  5
186F5
330
186AD
100
AcDbEntity
  8
0
100
AcDbVertex
100
AcDb2dVertex
 10
442.138853222428
 20
262.992248071123
 30
0.0
 42
0.0043445664
 70
     1
  0
VERTEX
  5
186F6
330
186AD
100
AcDbEntity
  8
0
100
AcDbVertex
100
AcDb2dVertex
 10
442.1597532224275
 20
263.083908071123
 30
0.0
 42
0.0053224931
  0
VERTEX
  5
186F7
330
186AD
100
AcDbEntity
  8
0
100
AcDbVertex
100
AcDb2dVertex
 10
442.1783832224279
 20
263.1755680711231
 30
0.0
 42
0.006225791
 70
     1
  0
VERTEX
  5
186F8
330
186AD
100
AcDbEntity
  8
0
100
AcDbVertex
100
AcDb2dVertex
 10
442.1944832224276
 20
263.267178071123
 30
0.0
 42
0.0072672584
  0
VERTEX
  5
186F9
330
186AD
100
AcDbEntity
  8
0
100
AcDbVertex
100
AcDb2dVertex
 10
442.2075732224282
 20
263.358678071123
 30
0.0
 42
0.0082299868
 70
     1
  0
VERTEX
  5
186FA
330
186AD
100
AcDbEntity
  8
0
100
AcDbVertex
100
AcDb2dVertex
 10
442.2174432224279
 20
263.450038071123
 30
0.0
 42
0.0093235219
  0
VERTEX
  5
186FB
330
186AD
100
AcDbEntity
  8
0
100
AcDbVertex
100
AcDb2dVertex
 10
442.2235832224273
 20
263.5411980711231
 30
0.0
 42
0.010339444
 70
     1
  0
VERTEX
  5
186FC
330
186AD
100
AcDbEntity
  8
0
100
AcDbVertex
100
AcDb2dVertex
 10
442.225793222428
 20
263.632108071123
 30
0.0
 42
0.011486707
  0
VERTEX
  5
186FD
330
186AD
100
AcDbEntity
  8
0
100
AcDbVertex
100
AcDb2dVertex
 10
442.2235432224276
 20
263.722708071123
 30
0.0
 42
0.012455117
 70
     1
  0
VERTEX
  5
186FE
330
186AD
100
AcDbEntity
  8
0
100
AcDbVertex
100
AcDb2dVertex
 10
442.2166732224275
 20
263.8129880711231
 30
0.0
 42
0.013438758
  0
VERTEX
  5
186FF
330
186AD
100
AcDbEntity
  8
0
100
AcDbVertex
100
AcDb2dVertex
 10
442.2048332224274
 20
263.9028780711231
 30
0.0
 42
0.012982649
 70
     1
  0
VERTEX
  5
18700
330
186AD
100
AcDbEntity
  8
0
100
AcDbVertex
100
AcDb2dVertex
 10
442.1886932224277
 20
263.9924580711232
 30
0.0
 42
0.011002365
  0
VERTEX
  5
18701
330
186AD
100
AcDbEntity
  8
0
100
AcDbVertex
100
AcDb2dVertex
 10
442.1687332224278
 20
264.0817980711231
 30
0.0
 42
0.009238504
 70
     1
  0
VERTEX
  5
18702
330
186AD
100
AcDbEntity
  8
0
100
AcDbVertex
100
AcDb2dVertex
 10
442.1457432224277
 20
264.1709580711232
 30
0.0
 42
0.0073071581
  0
VERTEX
  5
18703
330
186AD
100
AcDbEntity
  8
0
100
AcDbVertex
100
AcDb2dVertex
 10
442.1202432224279
 20
264.2600280711231
 30
0.0
 42
0.005619847
 70
     1
  0
VERTEX
  5
18704
330
186AD
100
AcDbEntity
  8
0
100
AcDbVertex
100
AcDb2dVertex
 10
442.0929632224276
 20
264.349058071123
 30
0.0
 42
0.0037739594
  0
VERTEX
  5
18705
330
186AD
100
AcDbEntity
  8
0
100
AcDbVertex
100
AcDb2dVertex
 10
442.0644732224279
 20
264.438128071123
 30
0.0
 42
0.0021568793
 70
     1
  0
VERTEX
  5
18706
330
186AD
100
AcDbEntity
  8
0
100
AcDbVertex
100
AcDb2dVertex
 10
442.0354732224275
 20
264.5273080711232
 30
0.0
 42
0.0003534986
  0
VERTEX
  5
18707
330
186AD
100
AcDbEntity
  8
0
100
AcDbVertex
100
AcDb2dVertex
 10
442.0065832224278
 20
264.6166780711231
 30
0.0
 42
-0.0011941616
 70
     1
  0
VERTEX
  5
18708
330
186AD
100
AcDbEntity
  8
0
100
AcDbVertex
100
AcDb2dVertex
 10
441.9784032224277
 20
264.706298071123
 30
0.0
 42
-0.0028951962
  0
VERTEX
  5
18709
330
186AD
100
AcDbEntity
  8
0
100
AcDbVertex
100
AcDb2dVertex
 10
441.9515232224273
 20
264.7962280711232
 30
0.0
 42
-0.0038489104
 70
     1
  0
VERTEX
  5
1870A
330
186AD
100
AcDbEntity
  8
0
100
AcDbVertex
100
AcDb2dVertex
 10
441.9261332224275
 20
264.886438071123
 30
0.0
 42
-0.0042960717
  0
VERTEX
  5
1870B
330
186AD
100
AcDbEntity
  8
0
100
AcDbVertex
100
AcDb2dVertex
 10
441.9024732224277
 20
264.9768980711231
 30
0.0
 42
-0.00472208
 70
     1
  0
VERTEX
  5
1870C
330
186AD
100
AcDbEntity
  8
0
100
AcDbVertex
100
AcDb2dVertex
 10
441.8806332224272
 20
265.0675880711231
 30
0.0
 42
-0.0052299451
  0
VERTEX
  5
1870D
330
186AD
100
AcDbEntity
  8
0
100
AcDbVertex
100
AcDb2dVertex
 10
441.8608932224276
 20
265.1584680711231
 30
0.0
 42
-0.0056932422
 70
     1
  0
VERTEX
  5
1870E
330
186AD
100
AcDbEntity
  8
0
100
AcDbVertex
100
AcDb2dVertex
 10
441.8433432224278
 20
265.2495180711231
 30
0.0
 42
-0.006219108
  0
VERTEX
  5
1870F
330
186AD
100
AcDbEntity
  8
0
100
AcDbVertex
100
AcDb2dVertex
 10
441.8282632224276
 20
265.340698071123
 30
0.0
 42
-0.0066915444
 70
     1
  0
VERTEX
  5
18710
330
186AD
100
AcDbEntity
  8
0
100
AcDbVertex
100
AcDb2dVertex
 10
441.8157232224281
 20
265.4319880711231
 30
0.0
 42
-0.0072149378
  0
VERTEX
  5
18711
330
186AD
100
AcDbEntity
  8
0
100
AcDbVertex
100
AcDb2dVertex
 10
441.8060032224282
 20
265.5233580711231
 30
0.0
 42
-0.0077303882
 70
     1
  0
VERTEX
  5
18712
330
186AD
100
AcDbEntity
  8
0
100
AcDbVertex
100
AcDb2dVertex
 10
441.7992132224276
 20
265.6147680711232
 30
0.0
 42
-0.0083529747
  0
VERTEX
  5
18713
330
186AD
100
AcDbEntity
  8
0
100
AcDbVertex
100
AcDb2dVertex
 10
441.7956332224273
 20
265.7061980711231
 30
0.0
 42
-0.0086980301
 70
     1
  0
VERTEX
  5
18714
330
186AD
100
AcDbEntity
  8
0
100
AcDbVertex
100
AcDb2dVertex
 10
441.7952132224279
 20
265.797618071123
 30
0.0
 42
-0.0088331971
  0
VERTEX
  5
18715
330
186AD
100
AcDbEntity
  8
0
100
AcDbVertex
100
AcDb2dVertex
 10
441.7981032224274
 20
265.8890180711231
 30
0.0
 42
-0.0087342508
 70
     1
  0
VERTEX
  5
18716
330
186AD
100
AcDbEntity
  8
0
100
AcDbVertex
100
AcDb2dVertex
 10
441.8040832224276
 20
265.980378071123
 30
0.0
 42
-0.0083769777
  0
VERTEX
  5
18717
330
186AD
100
AcDbEntity
  8
0
100
AcDbVertex
100
AcDb2dVertex
 10
441.8131532224276
 20
266.071698071123
 30
0.0
 42
-0.008082947
 70
     1
  0
VERTEX
  5
18718
330
186AD
100
AcDbEntity
  8
0
100
AcDbVertex
100
AcDb2dVertex
 10
441.8251132224273
 20
266.1629580711231
 30
0.0
 42
-0.0077927448
  0
VERTEX
  5
18719
330
186AD
100
AcDbEntity
  8
0
100
AcDbVertex
100
AcDb2dVertex
 10
441.8399932224281
 20
266.254148071123
 30
0.0
 42
-0.007516891
 70
     1
  0
VERTEX
  5
1871A
330
186AD
100
AcDbEntity
  8
0
100
AcDbVertex
100
AcDb2dVertex
 10
441.8575932224272
 20
266.345268071123
 30
0.0
 42
-0.0072075058
  0
VERTEX
  5
1871B
330
186AD
100
AcDbEntity
  8
0
100
AcDbVertex
100
AcDb2dVertex
 10
441.8779132224279
 20
266.4362880711231
 30
0.0
 42
-0.0069003813
 70
     1
  0
VERTEX
  5
1871C
330
186AD
100
AcDbEntity
  8
0
100
AcDbVertex
100
AcDb2dVertex
 10
441.9007632224281
 20
266.5272180711232
 30
0.0
 42
-0.0065441381
  0
VERTEX
  5
1871D
330
186AD
100
AcDbEntity
  8
0
100
AcDbVertex
100
AcDb2dVertex
 10
441.9261332224275
 20
266.6180280711231
 30
0.0
 42
-0.0063118402
 70
     1
  0
VERTEX
  5
1871E
330
186AD
100
AcDbEntity
  8
0
100
AcDbVertex
100
AcDb2dVertex
 10
441.9539032224281
 20
266.7087280711231
 30
0.0
 42
-0.0061647766
  0
VERTEX
  5
1871F
330
186AD
100
AcDbEntity
  8
0
100
AcDbVertex
100
AcDb2dVertex
 10
441.9840532224275
 20
266.799278071123
 30
0.0
 42
-0.0055571261
 70
     1
  0
VERTEX
  5
18720
330
186AD
100
AcDbEntity
  8
0
100
AcDbVertex
100
AcDb2dVertex
 10
442.0161432224274
 20
266.889698071123
 30
0.0
 42
-0.004387948
  0
VERTEX
  5
18721
330
186AD
100
AcDbEntity
  8
0
100
AcDbVertex
100
AcDb2dVertex
 10
442.0497432224281
 20
266.9799680711231
 30
0.0
 42
-0.0029799077
 70
     1
  0
VERTEX
  5
18722
330
186AD
100
AcDbEntity
  8
0
100
AcDbVertex
100
AcDb2dVertex
 10
442.0841032224275
 20
267.0700880711229
 30
0.0
 42
-0.0009833301
  0
VERTEX
  5
18723
330
186AD
100
AcDbEntity
  8
0
100
AcDbVertex
100
AcDb2dVertex
 10
442.1184432224277
 20
267.1600580711232
 30
0.0
 42
0.000699445
 70
     1
  0
VERTEX
  5
18724
330
186AD
100
AcDbEntity
  8
0
100
AcDbVertex
100
AcDb2dVertex
 10
442.1520832224275
 20
267.2498680711231
 30
0.0
 42
0.002527325
  0
VERTEX
  5
18725
330
186AD
100
AcDbEntity
  8
0
100
AcDbVertex
100
AcDb2dVertex
 10
442.1842632224276
 20
267.339508071123
 30
0.0
 42
0.0042146253
 70
     1
  0
VERTEX
  5
18726
330
186AD
100
AcDbEntity
  8
0
100
AcDbVertex
100
AcDb2dVertex
 10
442.2143232224278
 20
267.4289980711231
 30
0.0
 42
0.0062029951
  0
VERTEX
  5
18727
330
186AD
100
AcDbEntity
  8
0
100
AcDbVertex
100
AcDb2dVertex
 10
442.2414432224273
 20
267.5183180711231
 30
0.0
 42
0.0080877598
 70
     1
  0
VERTEX
  5
18728
330
186AD
100
AcDbEntity
  8
0
100
AcDbVertex
100
AcDb2dVertex
 10
442.2650232224275
 20
267.6074680711232
 30
0.0
 42
0.01031107
  0
VERTEX
  5
18729
330
186AD
100
AcDbEntity
  8
0
100
AcDbVertex
100
AcDb2dVertex
 10
442.2841832224273
 20
267.6964480711232
 30
0.0
 42
0.012355721
 70
     1
  0
VERTEX
  5
1872A
330
186AD
100
AcDbEntity
  8
0
100
AcDbVertex
100
AcDb2dVertex
 10
442.2984332224275
 20
267.7852480711231
 30
0.0
 42
0.014613123
  0
VERTEX
  5
1872B
330
186AD
100
AcDbEntity
  8
0
100
AcDbVertex
100
AcDb2dVertex
 10
442.3068232224275
 20
267.8738680711231
 30
0.0
 42
0.016981294
 70
     1
  0
VERTEX
  5
1872C
330
186AD
100
AcDbEntity
  8
0
100
AcDbVertex
100
AcDb2dVertex
 10
442.3087432224281
 20
267.962308071123
 30
0.0
 42
0.019885201
  0
VERTEX
  5
1872D
330
186AD
100
AcDbEntity
  8
0
100
AcDbVertex
100
AcDb2dVertex
 10
442.3032232224275
 20
268.0505580711231
 30
0.0
 42
0.020507294
 70
     1
  0
VERTEX
  5
1872E
330
186AD
100
AcDbEntity
  8
0
100
AcDbVertex
100
AcDb2dVertex
 10
442.2907932224275
 20
268.1386480711231
 30
0.0
 42
0.018943476
  0
VERTEX
  5
1872F
330
186AD
100
AcDbEntity
  8
0
100
AcDbVertex
100
AcDb2dVertex
 10
442.2717332224281
 20
268.226598071123
 30
0.0
 42
0.016357423
 70
     1
  0
VERTEX
  5
18730
330
186AD
100
AcDbEntity
  8
0
100
AcDbVertex
100
AcDb2dVertex
 10
442.247393222428
 20
268.3144880711231
 30
0.0
 42
0.012456797
  0
VERTEX
  5
18731
330
186AD
100
AcDbEntity
  8
0
100
AcDbVertex
100
AcDb2dVertex
 10
442.2188032224274
 20
268.4023480711231
 30
0.0
 42
0.0093264879
 70
     1
  0
VERTEX
  5
18732
330
186AD
100
AcDbEntity
  8
0
100
AcDbVertex
100
AcDb2dVertex
 10
442.1872032224278
 20
268.490248071123
 30
0.0
 42
0.0062458661
  0
VERTEX
  5
18733
330
186AD
100
AcDbEntity
  8
0
100
AcDbVertex
100
AcDb2dVertex
 10
442.1535432224279
 20
268.5782280711231
 30
0.0
 42
0.0036152571
 70
     1
  0
VERTEX
  5
18734
330
186AD
100
AcDbEntity
  8
0
100
AcDbVertex
100
AcDb2dVertex
 10
442.1189632224275
 20
268.666338071123
 30
0.0
 42
0.0007438673
  0
VERTEX
  5
18735
330
186AD
100
AcDbEntity
  8
0
100
AcDbVertex
100
AcDb2dVertex
 10
442.0845532224282
 20
268.7546380711231
 30
0.0
 42
-0.0019273172
 70
     1
  0
VERTEX
  5
18736
330
186AD
100
AcDbEntity
  8
0
100
AcDbVertex
100
AcDb2dVertex
 10
442.0514532224276
 20
268.8431780711231
 30
0.0
 42
-0.0051452113
  0
VERTEX
  5
18737
330
186AD
100
AcDbEntity
  8
0
100
AcDbVertex
100
AcDb2dVertex
 10
442.0208532224275
 20
268.932008071123
 30
0.0
 42
-0.0072234087
 70
     1
  0
VERTEX
  5
18738
330
186AD
100
AcDbEntity
  8
0
100
AcDbVertex
100
AcDb2dVertex
 10
441.9932232224279
 20
269.021158071123
 30
0.0
 42
-0.0086365884
  0
VERTEX
  5
18739
330
186AD
100
AcDbEntity
  8
0
100
AcDbVertex
100
AcDb2dVertex
 10
441.9690732224278
 20
269.1106480711231
 30
0.0
 42
-0.0090680263
 70
     1
  0
VERTEX
  5
1873A
330
186AD
100
AcDbEntity
  8
0
100
AcDbVertex
100
AcDb2dVertex
 10
441.9481432224279
 20
269.200468071123
 30
0.0
 42
-0.0085211968
  0
VERTEX
  5
1873B
330
186AD
100
AcDbEntity
  8
0
100
AcDbVertex
100
AcDb2dVertex
 10
441.9303632224279
 20
269.290618071123
 30
0.0
 42
-0.0081884559
 70
     1
  0
VERTEX
  5
1873C
330
186AD
100
AcDbEntity
  8
0
100
AcDbVertex
100
AcDb2dVertex
 10
441.9154932224279
 20
269.3810780711231
 30
0.0
 42
-0.007978067
  0
VERTEX
  5
1873D
330
186AD
100
AcDbEntity
  8
0
100
AcDbVertex
100
AcDb2dVertex
 10
441.9035632224272
 20
269.4718480711231
 30
0.0
 42
-0.007737198
 70
     1
  0
VERTEX
  5
1873E
330
186AD
100
AcDbEntity
  8
0
100
AcDbVertex
100
AcDb2dVertex
 10
441.8943532224282
 20
269.562938071123
 30
0.0
 42
-0.0073975366
  0
VERTEX
  5
1873F
330
186AD
100
AcDbEntity
  8
0
100
AcDbVertex
100
AcDb2dVertex
 10
441.8878332224274
 20
269.6543380711231
 30
0.0
 42
-0.0070734854
 70
     1
  0
VERTEX
  5
18740
330
186AD
100
AcDbEntity
  8
0
100
AcDbVertex
100
AcDb2dVertex
 10
441.8837932224276
 20
269.7459980711231
 30
0.0
 42
-0.0066992113
  0
VERTEX
  5
18741
330
186AD
100
AcDbEntity
  8
0
100
AcDbVertex
100
AcDb2dVertex
 10
441.8822232224281
 20
269.8379280711232
 30
0.0
 42
-0.0064175208
 70
     1
  0
VERTEX
  5
18742
330
186AD
100
AcDbEntity
  8
0
100
AcDbVertex
100
AcDb2dVertex
 10
441.8829232224275
 20
269.9302280711232
 30
0.0
 42
-0.0061352647
  0
VERTEX
  5
18743
330
186AD
100
AcDbEntity
  8
0
100
AcDbVertex
100
AcDb2dVertex
 10
441.8858832224271
 20
270.022968071123
 30
0.0
 42
-0.0056781651
 70
     1
  0
VERTEX
  5
18744
330
186AD
100
AcDbEntity
  8
0
100
AcDbVertex
100
AcDb2dVertex
 10
441.8908032224278
 20
270.1155880711231
 30
0.0
 42
-0.0050654867
  0
VERTEX
  5
18745
330
186AD
100
AcDbEntity
  8
0
100
AcDbVertex
100
AcDb2dVertex
 10
441.8976132224275
 20
270.2079180711231
 30
0.0
 42
-0.0051117478
 70
     1
  0
VERTEX
  5
18746
330
186AD
100
AcDbEntity
  8
0
100
AcDbVertex
100
AcDb2dVertex
 10
441.9065232224282
 20
270.3020180711231
 30
0.0
 42
-0.0054054533
  0
VERTEX
  5
18747
330
186AD
100
AcDbEntity
  8
0
100
AcDbVertex
100
AcDb2dVertex
 10
441.9176532224279
 20
270.3986280711232
 30
0.0
 42
-0.0040430873
 70
     1
  0
VERTEX
  5
18748
330
186AD
100
AcDbEntity
  8
0
100
AcDbVertex
100
AcDb2dVertex
 10
441.9291732224277
 20
270.4894880711232
 30
0.0
 42
-0.001879283
  0
VERTEX
  5
18749
330
186AD
100
AcDbEntity
  8
0
100
AcDbVertex
100
AcDb2dVertex
 10
441.9404732224282
 20
270.5717580711231
 30
0.0
 42
-0.004676823
 70
     1
  0
VERTEX
  5
1874A
330
186AD
100
AcDbEntity
  8
0
100
AcDbVertex
100
AcDb2dVertex
 10
441.9578232224274
 20
270.677948071123
 30
0.0
 42
-0.0066400172
  0
VERTEX
  5
1874B
330
186AD
100
AcDbEntity
  8
0
100
AcDbVertex
100
AcDb2dVertex
 10
441.9879532224274
 20
270.8421880711231
 30
0.0
 42
-0.0031198041
 70
     1
  0
VERTEX
  5
1874C
330
186AD
100
AcDbEntity
  8
0
100
AcDbVertex
100
AcDb2dVertex
 10
442.0294732224281
 20
271.0576780711231
 30
0.0
 42
-0.0017079913
  0
SEQEND
  5
1874D
330
186AD
100
AcDbEntity
  8
0
  0
DIMENSION
  5
1874E
330
1F
100
AcDbEntity
  8
DIM
100
AcDbDimension
  2
*D32
 10
479.7769832224274
 20
258.057678071123
 30
0.0
 11
479.7769832224274
 21
263.8076780711231
 31
0.0
 70
   160
  1
%%C<>
 71
     5
 42
11.5
 73
     0
 74
     0
 75
     0
  3
01
100
AcDbAlignedDimension
 13
473.3857832224273
 23
269.5576780711231
 33
0.0
 14
473.3857832224273
 24
258.057678071123
 34
0.0
 50
90.0
100
AcDbRotatedDimension
  0
DIMENSION
  5
1874F
330
1F
100
AcDbEntity
  8
DIM
100
AcDbDimension
  2
*D33
 10
484.5780732224282
 20
253.3076780711231
 30
0.0
 11
484.5780732224282
 21
263.8076780711231
 31
0.0
 70
   160
  1
%%C<>
 71
     5
 42
21.0
 73
     0
 74
     0
 75
     0
  3
01
100
AcDbAlignedDimension
 13
474.1178332224277
 23
274.3076780711231
 33
0.0
 14
474.1178332224277
 24
253.3076780711231
 34
0.0
 50
90.0
100
AcDbRotatedDimension
  0
DIMENSION
  5
18750
330
1F
100
AcDbEntity
  8
DIM
100
AcDbDimension
  2
*D34
 10
407.7605932224273
 20
252.8076780711232
 30
0.0
 11
407.7605932224273
 21
263.8076780711231
 31
0.0
 70
   160
  1
%%C<>
 71
     5
 42
22.0
 73
     0
 74
     0
 75
     0
  3
01
100
AcDbAlignedDimension
 13
446.1178332224275
 23
274.807678071123
 33
0.0
 14
450.1178332224275
 24
252.8076780711231
 34
0.0
 50
90.0
100
AcDbRotatedDimension
  0
DIMENSION
  5
18751
330
1F
100
AcDbEntity
  8
DIM
100
AcDbDimension
  2
*D35
 10
412.5616832224276
 20
256.5576780711231
 30
0.0
 11
412.5616832224275
 21
263.8076780711231
 31
0.0
 70
   160
  1
%%C<>
 71
     5
 42
14.5
 73
     0
 74
     0
 75
     0
  3
01
100
AcDbAlignedDimension
 13
420.1178332224277
 23
271.0576780711231
 33
0.0
 14
420.1178332224277
 24
256.5576780711231
 34
0.0
 50
90.0
100
AcDbRotatedDimension
  0
DIMENSION
  5
18752
330
1F
100
AcDbEntity
  8
DIM
100
AcDbDimension
  2
*D36
 10
446.6178332224278
 20
249.4779680711232
 30
0.0
 11
460.8678332224278
 21
249.4779680711232
 31
0.0
 70
   160
 71
     5
 42
28.5
 73
     0
 74
     0
 75
     0
  3
01
100
AcDbAlignedDimension
 13
475.1178332224275
 23
253.3076780711231
 33
0.0
 14
446.6178332224278
 24
258.057678071123
 34
0.0
100
AcDbRotatedDimension
  0
DIMENSION
  5
18753
330
1F
100
AcDbEntity
  8
DIM
100
AcDbDimension
  2
*D37
 10
418.1178332224275
 20
242.8349851189029
 30
0.0
 11
446.8831832537776
 21
242.8349851189029
 31
0.0
 70
   160
 71
     5
 42
57.0
 73
     0
 74
     0
 75
     0
  3
01
100
AcDbAlignedDimension
 13
475.1178332224275
 23
253.3076780711231
 33
0.0
 14
418.1178332224275
 24
260.4326780711231
 34
0.0
100
AcDbRotatedDimension
  0
DIMENSION
  5
18754
102
{ACAD_XDICTIONARY
360
18755
102
}
102
{ACAD_REACTORS
330
18756
102
}
330
1F
100
AcDbEntity
  8
DIM
100
AcDbDimension
  2
*D38
 10
460.6803769504966
 20
255.5576780711231
 30
0.0
 11
460.6803769504963
 21
280.7451780711232
 31
0.0
 70
   160
  1
%%C<>
 71
     5
 42
16.5
 73
     0
 74
     0
 75
     0
  3
01
100
AcDbAlignedDimension
 13
460.5667447943702
 23
272.0576780711231
 33
0.0
 14
459.8281395420388
 24
255.5576780711231
 34
0.0
 50
90.0
100
AcDbRotatedDimension
  0
ARC
  5
188F8
330
1F
100
AcDbEntity
  8
02___PRT_ALL_AXES
  6
Continuous
 62
     7
100
AcDbCircle
 10
420.1178332224277
 20
269.0576780711231
 30
0.0
 40
2.0
100
AcDbArc
 50
90.0
 51
180.0
  0
LINE
  5
188F9
330
1F
100
AcDbEntity
  8
0
  6
Continuous
 62
     7
100
AcDbLine
 10
418.1178332224275
 20
269.0576780711231
 30
0.0
 11
418.1178332224275
 21
265.3076780711231
 31
0.0
  0
LINE
  5
188FA
330
1F
100
AcDbEntity
  8
0
  6
Continuous
 62
     7
100
AcDbLine
 10
418.1178332224275
 20
262.307678071123
 30
0.0
 11
418.1178332224275
 21
258.5576780711231
 31
0.0
  0
ARC
  5
188FB
330
1F
100
AcDbEntity
  8
02___PRT_ALL_AXES
  6
Continuous
 62
     7
100
AcDbCircle
 10
420.1178332224277
 20
258.5576780711231
 30
0.0
 40
2.0
100
AcDbArc
 50
180.0
 51
270.0
  0
LINE
  5
188FC
330
1F
100
AcDbEntity
  8
02___PRT_ALL_AXES
  6
Continuous
 62
     7
100
AcDbLine
 10
420.1178332224277
 20
256.5576780711231
 30
0.0
 11
420.1178332224277
 21
262.307678071123
 31
0.0
  0
LINE
  5
188FD
330
1F
100
AcDbEntity
  8
02___PRT_ALL_AXES
  6
Continuous
 62
     7
100
AcDbLine
 10
420.1178332224277
 20
265.3076780711231
 30
0.0
 11
420.1178332224277
 21
271.0576780711231
 31
0.0
  0
LINE
  5
18A5C
330
1F
100
AcDbEntity
  8
0
  6
Continuous
 62
     7
100
AcDbLine
 10
350.5712499779916
 20
214.9260337003676
 30
0.0
 11
350.650523066081
 21
214.9129637314096
 31
0.0
  0
LINE
  5
18A5D
330
1F
100
AcDbEntity
  8
0
  6
Continuous
 62
     7
100
AcDbLine
 10
353.5043457536799
 20
215.6999378921251
 30
0.0
 11
353.4317472233893
 21
215.7148658187058
 31
0.0
  0
LINE
  5
18A5E
330
1F
100
AcDbEntity
  8
02___PRT_ALL_AXES
  6
Continuous
 62
     7
100
AcDbLine
 10
356.0517747109666
 20
159.3374597652205
 30
0.0
 11
355.8499784324236
 21
159.5600242389997
 31
0.0
  0
LINE
  5
18A5F
330
1F
100
AcDbEntity
  8
02___PRT_ALL_AXES
  6
Continuous
 62
     7
100
AcDbLine
 10
355.8135021661734
 20
160.2964285047842
 30
0.0
 11
355.6117214219016
 21
160.5189146681155
 31
0.0
  0
LINE
  5
18A60
330
1F
100
AcDbEntity
  8
02___PRT_ALL_AXES
  6
Continuous
 62
     7
100
AcDbLine
 10
358.1307576406457
 20
164.2656322490889
 30
0.0
 11
357.9914328410455
 21
164.419253647628
 31
0.0
  0
LINE
  5
18A61
330
1F
100
AcDbEntity
  8
0
  6
Continuous
 62
     7
100
AcDbLine
 10
349.2474888802322
 20
188.7107410889626
 30
0.0
 11
348.5213125355117
 21
187.5367533068534
 31
0.0
  0
LINE
  5
18A62
330
1F
100
AcDbEntity
  8
02___PRT_ALL_AXES
  6
Continuous
 62
     7
100
AcDbLine
 10
375.8076257702747
 20
165.7953990819038
 30
0.0
 11
372.0425494292981
 21
168.0002749651563
 31
0.0
  0
LINE
  5
18A63
330
1F
100
AcDbEntity
  8
02___PRT_ALL_AXES
  6
Continuous
 62
     7
100
AcDbLine
 10
349.4079346262847
 20
183.4135966369873
 30
0.0
 11
348.4548444472388
 21
187.2494715952821
 31
0.0
  0
LINE
  5
18A64
330
1F
100
AcDbEntity
  8
02___PRT_ALL_AXES
  6
Continuous
 62
     7
100
AcDbLine
 10
355.8499939666967
 20
159.5599459285518
 30
0.0
 11
355.6117214219016
 21
160.5189146681155
 31
0.0
  0
LINE
  5
18A65
330
1F
100
AcDbEntity
  8
0
  6
Continuous
 62
     7
100
AcDbLine
 10
346.5397043772487
 20
211.1482433394491
 30
0.0
 11
346.5594130956274
 21
210.8907242552346
 31
0.0
  0
LINE
  5
18A66
330
1F
100
AcDbEntity
  8
02___PRT_ALL_AXES
  6
Continuous
 62
     7
100
AcDbLine
 10
357.9914328410455
 20
164.419253647628
 30
0.0
 11
353.3525195258194
 21
183.0893562369479
 31
0.0
  0
LINE
  5
18A67
330
1F
100
AcDbEntity
  8
02___PRT_ALL_AXES
  6
Continuous
 62
     7
100
AcDbLine
 10
351.7367785411593
 20
189.5921830614502
 30
0.0
 11
346.7716791385687
 21
209.5750775273305
 31
0.0
  0
LINE
  5
18A68
330
1F
100
AcDbEntity
  8
0
  6
Continuous
 62
     7
100
AcDbLine
 10
363.7216030572531
 20
190.6584169897147
 30
0.0
 11
357.7808974000222
 21
189.0201996369838
 31
0.0
  0
LINE
  5
18A69
330
1F
100
AcDbEntity
  8
0
  6
Continuous
 62
     7
100
AcDbLine
 10
356.6675421691221
 20
183.589803672387
 30
0.0
 11
355.7144519900726
 21
187.4256786306819
 31
0.0
  0
LINE
  5
18A6A
330
1F
100
AcDbEntity
  8
02___PRT_ALL_AXES
  6
Continuous
 62
     7
100
AcDbLine
 10
375.9920417237105
 20
165.5827614661798
 30
0.0
 11
375.8076257702747
 21
165.7953990819038
 31
0.0
  0
LINE
  5
18A6B
330
1F
100
AcDbEntity
  8
0
  6
Continuous
 62
     7
100
AcDbLine
 10
357.6619207716362
 20
194.4994979567059
 30
0.0
 11
353.7690478204645
 21
210.1670330944667
 31
0.0
  0
LINE
  5
18A6C
330
1F
100
AcDbEntity
  8
0
  6
Continuous
 62
     7
100
AcDbLine
 10
353.8464363792668
 20
212.4795876064332
 30
0.0
 11
357.7393093305259
 21
196.8120524686224
 31
0.0
  0
LINE
  5
18A6D
330
1F
100
AcDbEntity
  8
0
  6
Continuous
 62
     7
100
AcDbLine
 10
367.2176837357042
 20
186.499125558556
 30
0.0
 11
356.6675421691221
 21
183.589803672387
 31
0.0
  0
LINE
  5
18A6E
330
1F
100
AcDbEntity
  8
0
  6
Continuous
 62
     7
100
AcDbLine
 10
360.5157434592734
 20
195.2864721172833
 30
0.0
 11
356.6228705080653
 21
210.9540072551813
 31
0.0
  0
LINE
  5
18A6F
330
1F
100
AcDbEntity
  8
02___PRT_ALL_AXES
  6
Continuous
 62
     7
100
AcDbLine
 10
355.6117214219016
 20
160.5189146681155
 30
0.0
 11
355.6751682334475
 21
160.7931381200947
 31
0.0
  0
LINE
  5
18A70
330
1F
100
AcDbEntity
  8
0
  6
Continuous
 62
     7
100
AcDbLine
 10
367.2176837357042
 20
186.499125558556
 30
0.0
 11
366.2645935567057
 21
190.3350005169382
 31
0.0
  0
LINE
  5
18A71
330
1F
100
AcDbEntity
  8
02___PRT_ALL_AXES
  6
Continuous
 62
     7
100
AcDbLine
 10
372.0635587637776
 20
167.9157192939042
 30
0.0
 11
367.424880851428
 21
186.584874463973
 31
0.0
  0
LINE
  5
18A72
330
1F
100
AcDbEntity
  8
02___PRT_ALL_AXES
  6
Continuous
 62
     7
100
AcDbLine
 10
365.8089044638405
 20
193.0886487076391
 30
0.0
 11
360.8438050611626
 21
213.0715431735694
 31
0.0
  0
LINE
  5
18A73
330
1F
100
AcDbEntity
  8
0
  6
Continuous
 62
     7
100
AcDbLine
 10
360.8438050611626
 20
213.0715431735694
 30
0.0
 11
360.8438287522117
 21
213.0714477078669
 31
0.0
  0
LINE
  5
18A74
330
1F
100
AcDbEntity
  8
0
  6
Continuous
 62
     7
100
AcDbLine
 10
360.5157434592734
 20
195.2864721172833
 30
0.0
 11
357.7393093305259
 21
196.8120524686224
 31
0.0
  0
LINE
  5
18A75
330
1F
100
AcDbEntity
  8
02___PRT_ALL_AXES
  6
Continuous
 62
     7
100
AcDbLine
 10
355.6751682334475
 20
160.7931381200947
 30
0.0
 11
357.970423506617
 21
164.5038093189674
 31
0.0
  0
LINE
  5
18A76
330
1F
100
AcDbEntity
  8
0
  6
Continuous
 62
     7
100
AcDbLine
 10
368.4212579629789
 20
193.4747991478785
 30
0.0
 11
369.6124585265538
 21
192.777217171592
 31
0.0
  0
LINE
  5
18A77
330
1F
100
AcDbEntity
  8
0
  6
Continuous
 62
     7
100
AcDbLine
 10
360.3124983223538
 20
214.5703347239474
 30
0.0
 11
360.4156108161665
 21
214.3335387655266
 31
0.0
  0
LINE
  5
18A78
330
1F
100
AcDbEntity
  8
02___PRT_ALL_AXES
  6
Continuous
 62
     7
100
AcDbLine
 10
376.2303142685055
 20
164.6237927266152
 30
0.0
 11
375.9920417237105
 21
165.5827614661798
 31
0.0
  0
LINE
  5
18A79
330
1F
100
AcDbEntity
  8
02___PRT_ALL_AXES
  6
Continuous
 62
     7
100
AcDbLine
 10
370.7587463710628
 20
188.7185789967812
 30
0.0
 11
369.8056561920171
 21
192.5544539550761
 31
0.0
  0
LINE
  5
18A7A
330
1F
100
AcDbEntity
  8
0
  6
Continuous
 62
     7
100
AcDbLine
 10
352.3659825581785
 20
213.9703621160511
 30
0.0
 11
350.650523066081
 21
214.9129637314096
 31
0.0
  0
LINE
  5
18A7B
330
1F
100
AcDbEntity
  8
0
  6
Continuous
 62
     7
100
AcDbLine
 10
353.5043457536799
 20
215.6999378921251
 30
0.0
 11
355.2198052457793
 21
214.7573362767658
 31
0.0
  0
ARC
  5
18A7C
330
1F
100
AcDbEntity
  8
0
  6
Continuous
 62
     7
100
AcDbCircle
 10
307.218204675532
 20
198.5937172408726
 30
0.0
 40
47.9679334279
100
AcDbArc
 50
13.96162282773343
 51
15.53426327110247
  0
ARC
  5
18A7D
330
1F
100
AcDbEntity
  8
0
  6
Continuous
 62
     7
100
AcDbCircle
 10
310.3449052773143
 20
199.4525236854156
 30
0.0
 40
47.68578603949999
100
AcDbArc
 50
13.95697003139624
 51
15.53891606753254
  0
ARC
  5
18A7E
330
1F
100
AcDbEntity
  8
0
  6
Continuous
 62
     7
100
AcDbCircle
 10
368.8032578431343
 20
150.9721164575917
 30
0.0
 40
47.1562370231
100
AcDbArc
 50
103.5694143545852
 51
104.3390822778741
  0
ARC
  5
18A7F
330
1F
100
AcDbEntity
  8
0
  6
Continuous
 62
     7
100
AcDbCircle
 10
396.3437647285978
 20
223.0576458352139
 30
0.0
 40
43.7940433475
100
AcDbArc
 50
192.2991119494047
 51
193.97751091077
  0
ARC
  5
18A80
330
1F
100
AcDbEntity
  8
0
  6
Continuous
 62
     7
100
AcDbCircle
 10
360.4375289348431
 20
184.6893277994828
 30
0.0
 40
31.8066220499
100
AcDbArc
 50
102.6014585704525
 51
102.724373232562
  0
ARC
  5
18A81
330
1F
100
AcDbEntity
  8
0
  6
Continuous
 62
     7
100
AcDbCircle
 10
357.2062364626696
 20
195.532535774159
 30
0.0
 40
20.4591878124
100
AcDbArc
 50
108.6888600400647
 51
108.8909562766095
  0
ARC
  5
18A82
330
1F
100
AcDbEntity
  8
0
  6
Continuous
 62
     7
100
AcDbCircle
 10
354.5319654551498
 20
211.502066594529
 30
0.0
 40
7.995957139799998
100
AcDbArc
 50
184.3849099276218
 51
193.9452984255468
  0
ARC
  5
18A83
330
1F
100
AcDbEntity
  8
0
  6
Continuous
 62
     7
100
AcDbCircle
 10
353.0840755749782
 20
211.1423130467088
 30
0.0
 40
7.995957139799998
100
AcDbArc
 50
13.96184522080504
 51
23.52223371876664
  0
ARC
  5
18A84
330
1F
100
AcDbEntity
  8
02___PRT_ALL_AXES
  6
Continuous
 62
     7
100
AcDbCircle
 10
365.4536169283387
 20
190.4179932748516
 30
0.0
 40
2.6261331099
100
AcDbArc
 50
81.09534698593288
 51
81.42452568380695
  0
ARC
  5
18A85
330
1F
100
AcDbEntity
  8
02___PRT_ALL_AXES
  6
Continuous
 62
     7
100
AcDbCircle
 10
365.4920470996736
 20
190.6595161103474
 30
0.0
 40
2.3815727181
100
AcDbArc
 50
79.22500552546303
 51
81.10933704741221
  0
ARC
  5
18A86
330
1F
100
AcDbEntity
  8
02___PRT_ALL_AXES
  6
Continuous
 62
     7
100
AcDbCircle
 10
360.4490052162005
 20
187.8956361728729
 30
0.0
 40
0.9632910104
100
AcDbArc
 50
273.2247486046071
 51
285.3804496162151
  0
SPLINE
  5
18A87
330
1F
100
AcDbEntity
  8
02___PRT_ALL_AXES
  6
Continuous
 62
     7
100
AcDbSpline
210
0.0
220
0.0
230
1.0
 70
     8
 71
     3
 72
    34
 73
    30
 74
     0
 42
0.0000000001
 43
0.0000000001
 40
0.0
 40
0.0
 40
0.0
 40
0.0
 40
0.0117796423
 40
0.0270179316
 40
0.0458408494
 40
0.0682225075
 40
0.0940560303
 40
0.1231674592
 40
0.1903241481
 40
0.2675793163
 40
0.3523916641
 40
0.4419278805
 40
0.5331771709000001
 40
0.6230651383
 40
0.7085679059000001
 40
0.7868259875
 40
0.8224200051999998
 40
0.855264234
 40
0.8850990838999999
 40
0.9117020151
 40
0.9348888378999999
 40
0.9545348163999999
 40
0.9705879583999999
 40
0.9772933351999999
 40
0.983153023
 40
0.9882233195999999
 40
0.9926029276999999
 40
0.9964501772
 40
1.0
 40
1.0
 40
1.0
 40
1.0
 10
356.0517747109666
 20
159.3374597652205
 30
0.0
 10
356.1253368861549
 20
159.2970392099574
 30
0.0
 10
356.3079765863753
 20
159.2305704996184
 30
0.0
 10
356.6286444073053
 20
159.1664006400238
 30
0.0
 10
357.0293815903065
 20
159.1263143504653
 30
0.0
 10
357.5070245072461
 20
159.1109468458749
 30
0.0
 10
358.0581180887607
 20
159.1206706211874
 30
0.0
 10
358.9269275797928
 20
159.1697386681513
 30
0.0
 10
360.1572885126775
 20
159.298719475954
 30
0.0
 10
361.773162753922
 20
159.539235073034
 30
0.0
 10
363.5363738415949
 20
159.8654579099498
 30
0.0
 10
365.3862019894991
 20
160.2663977127909
 30
0.0
 10
367.2589662866672
 20
160.7285192158857
 30
0.0
 10
369.0901964703448
 20
161.2358841831724
 30
0.0
 10
370.8168507551059
 20
161.770933088083
 30
0.0
 10
372.1588739778131
 20
162.2377799507499
 30
0.0
 10
373.1342556231034
 20
162.6138570353619
 30
0.0
 10
373.7811444752774
 20
162.8821820239787
 30
0.0
 10
374.3613439159894
 20
163.1434111680142
 30
0.0
 10
374.8699368190868
 20
163.3952101585506
 30
0.0
 10
375.3028109258344
 20
163.6353690069141
 30
0.0
 10
375.6564428604838
 20
163.8617159277078
 30
0.0
 10
375.8961867242456
 20
164.0469088935466
 30
0.0
 10
376.0428973650401
 20
164.1888525448126
 30
0.0
 10
376.1248452408913
 20
164.2844256693584
 30
0.0
 10
376.1853779747257
 20
164.3756066744832
 30
0.0
 10
376.2243067384412
 20
164.4626262395146
 30
0.0
 10
376.2410561341098
 20
164.545722653606
 30
0.0
 10
376.2364309617518
 20
164.5991670214903
 30
0.0
 10
376.2303263956387
 20
164.6237135696233
 30
0.0
  0
SPLINE
  5
18A88
330
1F
100
AcDbEntity
  8
0
  6
Continuous
 62
     7
100
AcDbSpline
210
0.0
220
0.0
230
1.0
 70
     8
 71
     3
 72
     9
 73
     5
 74
     0
 42
0.0000000001
 43
0.0000000001
 40
0.0
 40
0.0
 40
0.0
 40
0.0
 40
0.5251428726000002
 40
1.0
 40
1.0
 40
1.0
 40
1.0
 10
356.6675421691221
 20
183.589803672387
 30
0.0
 10
356.1027513271879
 20
183.484027954109
 30
0.0
 10
355.0242584802295
 20
183.2981736047809
 30
0.0
 10
353.9397739600286
 20
183.1501208927716
 30
0.0
 10
353.4234356744278
 20
183.0921005958149
 30
0.0
  0
SPLINE
  5
18A89
330
1F
100
AcDbEntity
  8
0
  6
Continuous
 62
     7
100
AcDbSpline
210
0.0
220
0.0
230
1.0
 70
     8
 71
     3
 72
    19
 73
    15
 74
     0
 42
0.0000000001
 43
0.0000000001
 40
0.0
 40
0.0
 40
0.0
 40
0.0
 40
0.2069670794
 40
0.3924894234
 40
0.5547114268
 40
0.6921859256000002
 40
0.7513541256999999
 40
0.8040685912
 40
0.8503761468
 40
0.8904182842
 40
0.9245215896999999
 40
0.9533071975
 40
0.9778667597
 40
1.0
 40
1.0
 40
1.0
 40
1.0
 10
353.4234356744278
 20
183.0921005958149
 30
0.0
 10
353.1380823162622
 20
183.0600357905609
 30
0.0
 10
352.5960890052925
 20
183.0064099992019
 30
0.0
 10
351.8278988695024
 20
182.9565413543374
 30
0.0
 10
351.1546436296308
 20
182.9417442912168
 30
0.0
 10
350.6565736103917
 20
182.9589962165696
 30
0.0
 10
350.3122075963588
 20
182.9934409128632
 30
0.0
 10
350.0951473013597
 20
183.0267478336223
 30
0.0
 10
349.9066235881551
 20
183.0686318859194
 30
0.0
 10
349.746997667557
 20
183.11904763124
 30
0.0
 10
349.6164364182846
 20
183.1779941303999
 30
0.0
 10
349.5149036654189
 20
183.2458016374044
 30
0.0
 10
349.4427793709551
 20
183.3234678591312
 30
0.0
 10
349.4153527198182
 20
183.3838145808791
 30
0.0
 10
349.4079488287393
 20
183.4136166467601
 30
0.0
  0
SPLINE
  5
18A8A
330
1F
100
AcDbEntity
  8
0
  6
Continuous
 62
     7
100
AcDbSpline
210
0.0
220
0.0
230
1.0
 70
     8
 71
     3
 72
    17
 73
    13
 74
     0
 42
0.0000000001
 43
0.0000000001
 40
0.0
 40
0.0
 40
0.0
 40
0.0
 40
0.0732416697
 40
0.1457787094
 40
0.2172158703
 40
0.2866176123
 40
0.4144026233
 40
0.5259157123
 40
0.6317000083
 40
0.7433329396
 40
0.8658760157999999
 40
1.0
 40
1.0
 40
1.0
 40
1.0
 10
346.5397043772487
 20
211.1482433394491
 30
0.0
 10
346.5285354649719
 20
211.2941791637173
 30
0.0
 10
346.5307157412103
 20
211.5871218965426
 30
0.0
 10
346.6064988942858
 20
212.0164209304244
 30
0.0
 10
346.7478948387111
 20
212.4206860013542
 30
0.0
 10
347.0024881518572
 20
212.8953700429889
 30
0.0
 10
347.4066211216127
 20
213.3715181786207
 30
0.0
 10
347.9584635743745
 20
213.7901417611788
 30
0.0
 10
348.5315578535087
 20
214.1143059779647
 30
0.0
 10
349.1484795247493
 20
214.3998865490416
 30
0.0
 10
349.8326334292983
 20
214.6719295809149
 30
0.0
 10
350.316847277089
 20
214.8415003588194
 30
0.0
 10
350.5712162854075
 20
214.9259681232984
 30
0.0
  0
SPLINE
  5
18A8B
330
1F
100
AcDbEntity
  8
0
  6
Continuous
 62
     7
100
AcDbSpline
210
0.0
220
0.0
230
1.0
 70
     8
 71
     3
 72
    18
 73
    14
 74
     0
 42
0.0000000001
 43
0.0000000001
 40
0.0
 40
0.0
 40
0.0
 40
0.0
 40
0.0182194326
 40
0.039389992
 40
0.0657630096
 40
0.0985303787
 40
0.138230118
 40
0.1850659131
 40
0.3000687242
 40
0.4422730071000001
 40
0.6089238073
 40
0.7963813465000002
 40
1.0
 40
1.0
 40
1.0
 40
1.0
 10
353.4317651117058
 20
215.7148006259782
 30
0.0
 10
353.421125085199
 20
215.7124149680772
 30
0.0
 10
353.3992132922108
 20
215.7014700555333
 30
0.0
 10
353.3735125484058
 20
215.6707589768726
 30
0.0
 10
353.3528573368426
 20
215.6270212108053
 30
0.0
 10
353.3367277862603
 20
215.5699221470919
 30
0.0
 10
353.3250211727432
 20
215.4993872910987
 30
0.0
 10
353.3148079471616
 20
215.3791086034831
 30
0.0
 10
353.3161257021625
 20
215.1968313398943
 30
0.0
 10
353.3357029948497
 20
214.9438111405039
 30
0.0
 10
353.3737214154539
 20
214.6491012768134
 30
0.0
 10
353.4294474807107
 20
214.319926828945
 30
0.0
 10
353.4760600229024
 20
214.0905140168885
 30
0.0
 10
353.5019977661345
 20
213.9714420373999
 30
0.0
  0
SPLINE
  5
18A8C
330
1F
100
AcDbEntity
  8
0
  6
Continuous
 62
     7
100
AcDbSpline
210
0.0
220
0.0
230
1.0
 70
     8
 71
     3
 72
    18
 73
    14
 74
     0
 42
0.0000000001
 43
0.0000000001
 40
0.0
 40
0.0
 40
0.0
 40
0.0
 40
0.1435891508
 40
0.2777381455
 40
0.3988957542
 40
0.507135445
 40
0.6102039797
 40
0.6652868279000002
 40
0.7254662263
 40
0.7905440313
 40
0.8588912565000001
 40
0.9290067169
 40
1.0
 40
1.0
 40
1.0
 40
1.0
 10
353.4983391087631
 20
215.729766758745
 30
0.0
 10
353.8490120948886
 20
215.8081604943559
 30
0.0
 10
354.5299306591119
 20
215.9484151202101
 30
0.0
 10
355.5148331103743
 20
216.1125167680935
 30
0.0
 10
356.4187260388248
 20
216.2200444383748
 30
0.0
 10
357.2500984066924
 20
216.264897460927
 30
0.0
 10
357.9184992136147
 20
216.2307280627397
 30
0.0
 10
358.4557351707413
 20
216.125287890935
 30
0.0
 10
358.8853036532205
 20
215.981934697717
 30
0.0
 10
359.3170322904011
 20
215.756862372197
 30
0.0
 10
359.7212685996387
 20
215.4418892600602
 30
0.0
 10
360.0669243036942
 20
215.043468255411
 30
0.0
 10
360.2415697472902
 20
214.7332209006295
 30
0.0
 10
360.3124983223538
 20
214.5703347239474
 30
0.0
  0
SPLINE
  5
18A8D
330
1F
100
AcDbEntity
  8
02___PRT_ALL_AXES
  6
Continuous
 62
     7
100
AcDbSpline
210
0.0
220
0.0
230
1.0
 70
     8
 71
     3
 72
    15
 73
    11
 74
     0
 42
0.0000000001
 43
0.0000000001
 40
0.0
 40
0.0
 40
0.0
 40
0.0
 40
0.1243734698
 40
0.2488415762
 40
0.3736997785
 40
0.4991846692000001
 40
0.6252021823
 40
0.7512430812000001
 40
0.8764468301999999
 40
1.0
 40
1.0
 40
1.0
 40
1.0
 10
360.7044961308461
 20
186.9668445045121
 30
0.0
 10
360.7767021769637
 20
186.9867561454016
 30
0.0
 10
360.9170112721881
 20
187.0439241206955
 30
0.0
 10
361.1014413024845
 20
187.1762876214093
 30
0.0
 10
361.2511792455739
 20
187.3478303350599
 30
0.0
 10
361.3593743685456
 20
187.5490952133791
 30
0.0
 10
361.4216015846547
 20
187.7696251660931
 30
0.0
 10
361.4353208030739
 20
187.9981862800346
 30
0.0
 10
361.4001164165679
 20
188.2228582881566
 30
0.0
 10
361.3445264372481
 20
188.3635728683844
 30
0.0
 10
361.3094682056549
 20
188.4292032536446
 30
0.0
  0
SPLINE
  5
18A8E
330
1F
100
AcDbEntity
  8
02___PRT_ALL_AXES
  6
Continuous
 62
     7
100
AcDbSpline
210
0.0
220
0.0
230
1.0
 70
     8
 71
     3
 72
    15
 73
    11
 74
     0
 42
0.0000000001
 43
0.0000000001
 40
0.0
 40
0.0
 40
0.0
 40
0.0
 40
0.1231343341
 40
0.2467966752
 40
0.3713326424
 40
0.4967801294
 40
0.6228649925000001
 40
0.7491026172000002
 40
0.8749443712999999
 40
1.0
 40
1.0
 40
1.0
 40
1.0
 10
360.8651400123386
 20
186.5656232983825
 30
0.0
 10
360.7805999776668
 20
186.6120856846579
 30
0.0
 10
360.6244876916212
 20
186.7321119397407
 30
0.0
 10
360.4553752387951
 20
186.9740623304538
 30
0.0
 10
360.3648043245216
 20
187.2570650826433
 30
0.0
 10
360.3607474982605
 20
187.5559186026426
 30
0.0
 10
360.4431618013518
 20
187.8445256084674
 30
0.0
 10
360.604872456694
 20
188.097784406847
 30
0.0
 10
360.831482899272
 20
188.2935898983147
 30
0.0
 10
361.0142126982652
 20
188.3748105462269
 30
0.0
 10
361.1086590457203
 20
188.4008552040091
 30
0.0
  0
SPLINE
  5
18A8F
330
1F
100
AcDbEntity
  8
0
  6
Continuous
 62
     7
100
AcDbSpline
210
0.0
220
0.0
230
1.0
 70
     8
 71
     3
 72
    14
 73
    10
 74
     0
 42
0.0000000001
 43
0.0000000001
 40
0.0
 40
0.0
 40
0.0
 40
0.0
 40
0.3489494943
 40
0.4998181034000001
 40
0.6340319194
 40
0.7511315451
 40
0.8509190048999998
 40
0.9335882838999999
 40
1.0
 40
1.0
 40
1.0
 40
1.0
 10
351.5979877323922
 20
190.1384852782399
 30
0.0
 10
351.3010746476926
 20
190.0115447241065
 30
0.0
 10
350.8793385903778
 20
189.8208026600519
 30
0.0
 10
350.357814562351
 20
189.5517532675408
 30
0.0
 10
350.0342826948366
 20
189.3675174851419
 30
0.0
 10
349.7606672217157
 20
189.1919903687599
 30
0.0
 10
349.5381798285894
 20
189.026031939819
 30
0.0
 10
349.3677223704149
 20
188.8706368525323
 30
0.0
 10
349.2797992700584
 20
188.7629564417561
 30
0.0
 10
349.24747280364
 20
188.7106894062931
 30
0.0
  0
SPLINE
  5
18A90
330
1F
100
AcDbEntity
  8
0
  6
Continuous
 62
     7
100
AcDbSpline
210
0.0
220
0.0
230
1.0
 70
     8
 71
     3
 72
    11
 73
     7
 74
     0
 42
0.0000000001
 43
0.0000000001
 40
0.0
 40
0.0
 40
0.0
 40
0.0
 40
0.2899011722
 40
0.5472460214
 40
0.7802263435
 40
1.0
 40
1.0
 40
1.0
 40
1.0
 10
369.6124405995438
 20
192.7772122452994
 30
0.0
 10
369.6376629838054
 20
192.7624427211308
 30
0.0
 10
369.683736758187
 20
192.7317058254535
 30
0.0
 10
369.7416355986756
 20
192.6778241244779
 30
0.0
 10
369.7834227929456
 20
192.6189849362604
 30
0.0
 10
369.8002944004552
 20
192.5759534056702
 30
0.0
 10
369.8056381716491
 20
192.5544493110834
 30
0.0
  0
SPLINE
  5
18A91
330
1F
100
AcDbEntity
  8
0
  6
Continuous
 62
     7
100
AcDbSpline
210
0.0
220
0.0
230
1.0
 70
     8
 71
     3
 72
    14
 73
    10
 74
     0
 42
0.0000000001
 43
0.0000000001
 40
0.0
 40
0.0
 40
0.0
 40
0.0
 40
0.066427823
 40
0.1491086896
 40
0.2489004645
 40
0.3660024404
 40
0.5002119492000002
 40
0.6510700142000001
 40
1.0
 40
1.0
 40
1.0
 40
1.0
 10
368.4212763115397
 20
193.4747720503151
 30
0.0
 10
368.3682797688712
 20
193.5058097839851
 30
0.0
 10
368.2402767622266
 20
193.5597858283568
 30
0.0
 10
368.0170859866489
 20
193.6173057854754
 30
0.0
 10
367.7430295704476
 20
193.6598329858776
 30
0.0
 10
367.4193678661219
 20
193.6868959133176
 30
0.0
 10
367.0475739341314
 20
193.6983175603641
 30
0.0
 10
366.4613249958171
 20
193.6920595747202
 30
0.0
 10
365.999792840867
 20
193.6633129766219
 30
0.0
 10
365.6782960874048
 20
193.6365816081566
 30
0.0
  0
SPLINE
  5
18A92
330
1F
100
AcDbEntity
  8
02___PRT_ALL_AXES
  6
Continuous
 62
     7
100
AcDbSpline
210
0.0
220
0.0
230
1.0
 70
     8
 71
     3
 72
     9
 73
     5
 74
     0
 42
0.0000000001
 43
0.0000000001
 40
0.0
 40
0.0
 40
0.0
 40
0.0
 40
0.5017134228
 40
1.0
 40
1.0
 40
1.0
 40
1.0
 10
361.1086590457203
 20
188.4008552040091
 30
0.0
 10
361.2277270156815
 20
188.4336895549355
 30
0.0
 10
361.479962134083
 20
188.4543357244607
 30
0.0
 10
361.721220375272
 20
188.3772321271486
 30
0.0
 10
361.8287231686923
 20
188.3181496305065
 30
0.0
  0
LINE
  5
18A93
330
1F
100
AcDbEntity
  8
0
  6
Continuous
 62
     7
100
AcDbLine
 10
353.5019977661345
 20
213.9714420373999
 30
0.0
 11
353.554843893377
 21
213.7288470661648
 31
0.0
  0
LINE
  5
18A94
330
1F
100
AcDbEntity
  8
0
  6
Continuous
 62
     7
100
AcDbLine
 10
353.3638344442047
 20
211.6922817210749
 30
0.0
 11
353.4338920653722
 21
211.440229468994
 31
0.0
  0
SPLINE
  5
18A95
330
1F
100
AcDbEntity
  8
0
  6
Continuous
 62
     7
100
AcDbSpline
210
0.0
220
0.0
230
1.0
 70
     8
 71
     3
 72
    16
 73
    12
 74
     0
 42
0.0000000001
 43
0.0000000001
 40
0.0
 40
0.0
 40
0.0
 40
0.0
 40
0.0224774135
 40
0.0506753283
 40
0.0850024121
 40
0.125589024
 40
0.2252993787
 40
0.3482897182
 40
0.4916390201
 40
0.6513545693000001
 40
1.0
 40
1.0
 40
1.0
 40
1.0
 10
352.3659825581785
 20
213.9703621160511
 30
0.0
 10
352.3824795680234
 20
213.9612974262769
 30
0.0
 10
352.4167460353023
 20
213.9356383323962
 30
0.0
 10
352.4664833044267
 20
213.8845380023491
 30
0.0
 10
352.5199664620182
 20
213.8165802994468
 30
0.0
 10
352.6015435335799
 20
213.6951050011235
 30
0.0
 10
352.7082982850411
 20
213.5017875520048
 30
0.0
 10
352.8382909318539
 20
213.2240486540982
 30
0.0
 10
352.9734052914469
 20
212.893683672141
 30
0.0
 10
353.160170213489
 20
212.3807816401909
 30
0.0
 10
353.2856452431665
 20
211.973585530473
 30
0.0
 10
353.3638344442047
 20
211.6922817210749
 30
0.0
  0
SPLINE
  5
18A96
330
1F
100
AcDbEntity
  8
0
  6
Continuous
 62
     7
100
AcDbSpline
210
0.0
220
0.0
230
1.0
 70
     8
 71
     3
 72
    11
 73
     7
 74
     0
 42
0.0000000001
 43
0.0000000001
 40
0.0
 40
0.0
 40
0.0
 40
0.0
 40
0.2197712278
 40
0.4527536737000001
 40
0.7101046977
 40
1.0
 40
1.0
 40
1.0
 40
1.0
 10
348.4548624676066
 20
187.2494762392749
 30
0.0
 10
348.4495187330399
 20
187.2709801865044
 30
0.0
 10
348.4442846061506
 20
187.3169041871993
 30
0.0
 10
348.4536777216385
 20
187.3884597072634
 30
0.0
 10
348.4796290762756
 20
187.4631729414218
 30
0.0
 10
348.5059566240784
 20
187.5119009556534
 30
0.0
 10
348.5213321554588
 20
187.5367580094012
 30
0.0
  0
SPLINE
  5
18A97
330
1F
100
AcDbEntity
  8
0
  6
Continuous
 62
     7
100
AcDbSpline
210
0.0
220
0.0
230
1.0
 70
     8
 71
     3
 72
    19
 73
    15
 74
     0
 42
0.0000000001
 43
0.0000000001
 40
0.0
 40
0.0
 40
0.0
 40
0.0
 40
0.0218097303
 40
0.0461055298
 40
0.0747080171
 40
0.1087078635
 40
0.1487177111
 40
0.1950470807
 40
0.2478303113
 40
0.3071064902
 40
0.4448438879000002
 40
0.6073229762
 40
0.7930790537000001
 40
1.0
 40
1.0
 40
1.0
 40
1.0
 10
370.7587321686083
 20
188.7185589870074
 30
0.0
 10
370.7662968358932
 20
188.6881097660884
 30
0.0
 10
370.7701125407807
 20
188.6202884456202
 30
0.0
 10
370.7409612036467
 20
188.5154604573923
 30
0.0
 10
370.6800111197448
 20
188.4054164803524
 30
0.0
 10
370.5880365813723
 20
188.2893765892881
 30
0.0
 10
370.4651540285417
 20
188.1670345248172
 30
0.0
 10
370.3115380146523
 20
188.0384642097093
 30
0.0
 10
370.1274948179348
 20
187.9039160702055
 30
0.0
 10
369.8266812751322
 20
187.7071099204636
 30
0.0
 10
369.3762491377497
 20
187.4520494913554
 30
0.0
 10
368.7494295306064
 20
187.1419610948074
 30
0.0
 10
368.0190703300909
 20
186.8183916073345
 30
0.0
 10
367.4951603902468
 20
186.6068950593367
 30
0.0
 10
367.2176837357042
 20
186.499125558556
 30
0.0
  0
SPLINE
  5
18A98
330
1F
100
AcDbEntity
  8
02___PRT_ALL_AXES
  6
Continuous
 62
     7
100
AcDbSpline
210
0.0
220
0.0
230
1.0
 70
     8
 71
     3
 72
    17
 73
    13
 74
     0
 42
0.0000000001
 43
0.0000000001
 40
0.0
 40
0.0
 40
0.0
 40
0.0
 40
0.2254699802
 40
0.4301958961
 40
0.610140655
 40
0.7606451409
 40
0.8771639132
 40
0.9208890156
 40
0.9541735962
 40
0.9900606826
 40
0.9929705661999999
 40
1.0
 40
1.0
 40
1.0
 40
1.0
 10
365.8089044638405
 20
193.0886487076391
 30
0.0
 10
365.8122887853247
 20
193.0750279253958
 30
0.0
 10
365.8205148224683
 20
193.0494417870746
 30
0.0
 10
365.8366599970582
 20
193.0149732277628
 30
0.0
 10
365.8543279785667
 20
192.9866160286005
 30
0.0
 10
365.8716548838715
 20
192.9648428305286
 30
0.0
 10
365.885317495839
 20
192.9509322476174
 30
0.0
 10
365.8941444392299
 20
192.943003782048
 30
0.0
 10
365.9000028706127
 20
192.9384382978556
 30
0.0
 10
365.9025955569091
 20
192.9361584674485
 30
0.0
 10
365.9060446035187
 20
192.9342977458141
 30
0.0
 10
365.9048176331658
 20
192.9350166338213
 30
0.0
 10
365.9044341472987
 20
192.9352273496184
 30
0.0
  0
SPLINE
  5
18A99
330
1F
100
AcDbEntity
  8
02___PRT_ALL_AXES
  6
Continuous
 62
     7
100
AcDbSpline
210
0.0
220
0.0
230
1.0
 70
     8
 71
     3
 72
    34
 73
    30
 74
     0
 42
0.0000000001
 43
0.0000000001
 40
0.0
 40
0.0
 40
0.0
 40
0.0
 40
0.0117798215
 40
0.0270183956
 40
0.0458417047
 40
0.0682238556
 40
0.094057963
 40
0.1231700572
 40
0.1903282619
 40
0.2675850863
 40
0.3523990875
 40
0.4419368035000001
 40
0.5331872879999999
 40
0.6230760021
 40
0.7085789453000002
 40
0.7868365348000001
 40
0.8224300351
 40
0.8552735626
 40
0.885107524
 40
0.9117093885999999
 40
0.9348949743000002
 40
0.9545395709999999
 40
0.9705912266
 40
0.9772958503999999
 40
0.9831548009
 40
0.9882244112
 40
0.9926034396
 40
0.9964502944999999
 40
1.0
 40
1.0
 40
1.0
 40
1.0
 10
355.8135021661734
 20
160.2964285047842
 30
0.0
 10
355.8870657330595
 20
160.2560071848198
 30
0.0
 10
356.0697094589929
 20
160.1895375332192
 30
0.0
 10
356.3903846599937
 20
160.1253673346805
 30
0.0
 10
356.7911317758921
 20
160.0852814902031
 30
0.0
 10
357.2687869777769
 20
160.069915253966
 30
0.0
 10
357.8198949889434
 20
160.0796411185652
 30
0.0
 10
358.6887272200261
 20
160.1287132502535
 30
0.0
 10
359.919119525734
 20
160.2577011193821
 30
0.0
 10
361.5350330635924
 20
160.4982274351928
 30
0.0
 10
363.2982834164145
 20
160.8244629835431
 30
0.0
 10
365.1481474349643
 20
161.2254166845637
 30
0.0
 10
367.0209408661327
 20
161.6875523334316
 30
0.0
 10
368.8521903242113
 20
162.1949306557549
 30
0.0
 10
370.5788512843251
 20
162.7299910705174
 30
0.0
 10
371.9208708953162
 20
163.1968463935105
 30
0.0
 10
372.896241533203
 20
163.5729289449386
 30
0.0
 10
373.5431160931171
 20
163.8412560074335
 30
0.0
 10
374.1232969606159
 20
164.1024860945213
 30
0.0
 10
374.6318670439728
 20
164.3542847087051
 30
0.0
 10
375.0647142222157
 20
164.5944418919358
 30
0.0
 10
375.4183153259878
 20
164.8207857062812
 30
0.0
 10
375.6580305360444
 20
165.0059758758439
 30
0.0
 10
375.804715436971
 20
165.1479168475521
 30
0.0
 10
375.8866436122194
 20
165.2434871906558
 30
0.0
 10
375.9471558194587
 20
165.3346653884715
 30
0.0
 10
375.9860630671142
 20
165.4216823265929
 30
0.0
 10
376.002789158822
 20
165.5047762594409
 30
0.0
 10
375.9981468906449
 20
165.5582158350985
 30
0.0
 10
375.9920345925099
 20
165.5827596941768
 30
0.0
  0
SPLINE
  5
18A9A
330
1F
100
AcDbEntity
  8
0
  6
Continuous
 62
     7
100
AcDbSpline
210
0.0
220
0.0
230
1.0
 70
     8
 71
     3
 72
    24
 73
    20
 74
     0
 42
0.0000000001
 43
0.0000000001
 40
0.0
 40
0.0
 40
0.0
 40
0.0
 40
0.0108893018
 40
0.0203048235
 40
0.0288149194
 40
0.0371829843
 40
0.0462089092
 40
0.0565377895
 40
0.0685940079
 40
0.0826339294
 40
0.117170523
 40
0.1606759672
 40
0.2131344403
 40
0.2742591898
 40
0.3436001343
 40
0.4205842163000001
 40
0.5946857216
 40
0.790239142
 40
1.0
 40
1.0
 40
1.0
 40
1.0
 10
349.24747280364
 20
188.7106894062931
 30
0.0
 10
349.2301392977573
 20
188.6826637334293
 30
0.0
 10
349.2014695358453
 20
188.6278732743545
 30
0.0
 10
349.1782911858104
 20
188.5428886098621
 30
0.0
 10
349.1799732251134
 20
188.4620113597899
 30
0.0
 10
349.2075697428413
 20
188.3871425488056
 30
0.0
 10
349.2597867839618
 20
188.3201240740496
 30
0.0
 10
349.3348802307778
 20
188.2607911720539
 30
0.0
 10
349.432268234043
 20
188.2083120441526
 30
0.0
 10
349.6039541054129
 20
188.1425563277076
 30
0.0
 10
349.8772074803387
 20
188.0820652454209
 30
0.0
 10
350.2700538956274
 20
188.0386795956696
 30
0.0
 10
350.7454889700643
 20
188.0216214090929
 30
0.0
 10
351.299135023572
 20
188.0311566357837
 30
0.0
 10
351.9260054038282
 20
188.0674796061435
 30
0.0
 10
352.8918295252593
 20
188.1551321346401
 30
0.0
 10
354.2322557888115
 20
188.3329411523105
 30
0.0
 10
355.9602762688196
 20
188.6321006992044
 30
0.0
 10
357.1614090986263
 20
188.8817493498705
 30
0.0
 10
357.7808974000222
 20
189.0201996369838
 30
0.0
  0
SPLINE
  5
18A9B
330
1F
100
AcDbEntity
  8
02___PRT_ALL_AXES
  6
Continuous
 62
     7
100
AcDbSpline
210
0.0
220
0.0
230
1.0
 70
     8
 71
     3
 72
    34
 73
    30
 74
     0
 42
0.0000000001
 43
0.0000000001
 40
0.0
 40
0.0
 40
0.0
 40
0.0
 40
0.012350435
 40
0.0285122772
 40
0.0486129396
 40
0.0726053272
 40
0.1003512046
 40
0.1316348017
 40
0.2037199419
 40
0.2863063388
 40
0.376353765
 40
0.4705040972
 40
0.5652283888000002
 40
0.6569740052000002
 40
0.7423118179000002
 40
0.8180831343000001
 40
0.8515089477
 40
0.8815598395999998
 40
0.9079897979
 40
0.9306092443
 40
0.9493019192
 40
0.9640762911999999
 40
0.9700632650999999
 40
0.9751974590999999
 40
0.9834221541999999
 40
0.9870791163999999
 40
0.9908641189
 40
0.9950950938
 40
1.0
 40
1.0
 40
1.0
 40
1.0
 10
351.5196024984966
 20
188.8279149329678
 30
0.0
 10
351.5773454825708
 20
188.7961866233632
 30
0.0
 10
351.7222030596863
 20
188.7448555351935
 30
0.0
 10
351.9773145420937
 20
188.6967415191143
 30
0.0
 10
352.2979648150254
 20
188.6684067648926
 30
0.0
 10
352.6812791618509
 20
188.6603829652645
 30
0.0
 10
353.1241475177089
 20
188.6729746720726
 30
0.0
 10
353.8221694958052
 20
188.719645747739
 30
0.0
 10
354.8082354823204
 20
188.8328003468
 30
0.0
 10
356.0978844112001
 20
189.037374496344
 30
0.0
 10
357.4950215915163
 20
189.3099797553928
 30
0.0
 10
358.946076007142
 20
189.6403418522046
 30
0.0
 10
360.395432624759
 20
190.0159799368035
 30
0.0
 10
361.7875871239272
 20
190.4223981785513
 30
0.0
 10
363.0692210530474
 20
190.8438851446904
 30
0.0
 10
364.0417383014797
 20
191.2073789690135
 30
0.0
 10
364.726105392067
 20
191.4965425993346
 30
0.0
 10
365.161559363602
 20
191.6978608311897
 30
0.0
 10
365.5369992850434
 20
191.8908027797175
 30
0.0
 10
365.8491778558568
 20
192.0734123862035
 30
0.0
 10
366.0953190169371
 20
192.2440539086279
 30
0.0
 10
366.2544793764324
 20
192.3831335720247
 30
0.0
 10
366.3433621872032
 20
192.4895532752021
 30
0.0
 10
366.3983001359088
 20
192.5766823086209
 30
0.0
 10
366.4265014106554
 20
192.6679677091201
 30
0.0
 10
366.4099129289612
 20
192.7515043232075
 30
0.0
 10
366.3782640355571
 20
192.8062417870247
 30
0.0
 10
366.3285313252313
 20
192.8548656981443
 30
0.0
 10
366.2872853543927
 20
192.8813473758424
 30
0.0
 10
366.264353051251
 20
192.8939480964696
 30
0.0
  0
SPLINE
  5
18A9C
330
1F
100
AcDbEntity
  8
0
  6
Continuous
 62
     7
100
AcDbSpline
210
0.0
220
0.0
230
1.0
 70
     8
 71
     3
 72
     9
 73
     5
 74
     0
 42
0.0000000001
 43
0.0000000001
 40
0.0
 40
0.0
 40
0.0
 40
0.0
 40
0.2497785822
 40
1.0
 40
1.0
 40
1.0
 40
1.0
 10
357.7808974000222
 20
189.0201996369838
 30
0.0
 10
357.5977903375136
 20
188.9028934528911
 30
0.0
 10
356.8766583490365
 20
188.414589449089
 30
0.0
 10
356.2006001272716
 20
187.8618747879196
 30
0.0
 10
355.7144519900726
 20
187.4256786306819
 30
0.0
  0
SPLINE
  5
18A9D
330
1F
100
AcDbEntity
  8
0
  6
Continuous
 62
     7
100
AcDbSpline
210
0.0
220
0.0
230
1.0
 70
     8
 71
     3
 72
    21
 73
    17
 74
     0
 42
0.0000000001
 43
0.0000000001
 40
0.0
 40
0.0
 40
0.0
 40
0.0
 40
0.2021350907
 40
0.3882083714
 40
0.5541789046
 40
0.6965845848000001
 40
0.7580611366
 40
0.8126835237999998
 40
0.8602708939999999
 40
0.9007463364999999
 40
0.9342058844
 40
0.9610298467999999
 40
0.9722512013999999
 40
0.9822627946
 40
0.9913742192
 40
1.0
 40
1.0
 40
1.0
 40
1.0
 10
355.7144519900726
 20
187.4256786306819
 30
0.0
 10
355.2213920545005
 20
187.333336891094
 30
0.0
 10
354.2721396851198
 20
187.1679931297172
 30
0.0
 10
352.9105685456402
 20
186.972450650223
 30
0.0
 10
351.6901863577955
 20
186.8419773350238
 30
0.0
 10
350.7734432734001
 20
186.7864923231632
 30
0.0
 10
350.1318009009269
 20
186.7811045133544
 30
0.0
 10
349.7256600733495
 20
186.7947914425571
 30
0.0
 10
349.3727132426252
 20
186.8257045549739
 30
0.0
 10
349.074553085899
 20
186.873627770136
 30
0.0
 10
348.8325172045884
 20
186.9381286874455
 30
0.0
 10
348.6685716783727
 20
187.0095769021705
 30
0.0
 10
348.5701697644767
 20
187.0776459419363
 30
0.0
 10
348.5155853932015
 20
187.13011710599
 30
0.0
 10
348.4760920085323
 20
187.1871655119826
 30
0.0
 10
348.4600249357995
 20
187.2287017336789
 30
0.0
 10
348.4548624676066
 20
187.2494762392749
 30
0.0
  0
SPLINE
  5
18A9E
330
1F
100
AcDbEntity
  8
02___PRT_ALL_AXES
  6
Continuous
 62
     7
100
AcDbSpline
210
0.0
220
0.0
230
1.0
 70
     8
 71
     3
 72
    33
 73
    29
 74
     0
 42
0.0000000001
 43
0.0000000001
 40
0.0
 40
0.0
 40
0.0
 40
0.0
 40
0.0117793539
 40
0.0270182994
 40
0.045842805
 40
0.0682245552
 40
0.094059297
 40
0.1231710781
 40
0.1903300436
 40
0.2675877643
 40
0.3524028708
 40
0.4419418289000001
 40
0.5331936334
 40
0.6230836703
 40
0.7085878693000001
 40
0.7868465966000002
 40
0.8224399612
 40
0.8552845972
 40
0.8851185427
 40
0.9117212714
 40
0.9349070277999999
 40
0.9545520985999999
 40
0.9706040674999998
 40
0.9831539262999999
 40
0.9882234391
 40
0.9926028237
 40
0.9964500068999999
 40
1.0
 40
1.0
 40
1.0
 40
1.0
 10
358.1307576406457
 20
164.2656322490889
 30
0.0
 10
358.1815487949157
 20
164.2377237940605
 30
0.0
 10
358.3076605955216
 20
164.1918368805459
 30
0.0
 10
358.5290782914276
 20
164.1475170541476
 30
0.0
 10
358.8057873614494
 20
164.1198417537403
 30
0.0
 10
359.1355988499968
 20
164.1092252422227
 30
0.0
 10
359.5161199626677
 20
164.1159522491203
 30
0.0
 10
360.1160252145223
 20
164.1498217788635
 30
0.0
 10
360.9655762503611
 20
164.2388899981602
 30
0.0
 10
362.081323826053
 20
164.4049643024769
 30
0.0
 10
363.2988047606527
 20
164.630221799253
 30
0.0
 10
364.5760914627504
 20
164.9070699067147
 30
0.0
 10
365.8692109786466
 20
165.2261633681106
 30
0.0
 10
367.1336460431053
 20
165.5764951964215
 30
0.0
 10
368.3258639932142
 20
165.9459436541079
 30
0.0
 10
369.2524966649622
 20
166.2682892309299
 30
0.0
 10
369.9259622690411
 20
166.52797548214
 30
0.0
 10
370.3726174138687
 20
166.7132389262438
 30
0.0
 10
370.7732124317886
 20
166.8936208825421
 30
0.0
 10
371.1243889617476
 20
167.0674747940598
 30
0.0
 10
371.4232061439002
 20
167.233300006918
 30
0.0
 10
371.667517632974
 20
167.3895905752684
 30
0.0
 10
371.8554194076282
 20
167.5350691922027
 30
0.0
 10
371.9724487304361
 20
167.6539734242802
 30
0.0
 10
372.0325689056758
 20
167.7444009115548
 30
0.0
 10
372.0594269519247
 20
167.8044903818505
 30
0.0
 10
372.0709849228683
 20
167.8618672017569
 30
0.0
 10
372.0677692578978
 20
167.8987686826445
 30
0.0
 10
372.0635454061126
 20
167.9157159747533
 30
0.0
  0
SPLINE
  5
18A9F
330
1F
100
AcDbEntity
  8
0
  6
Continuous
 62
     7
100
AcDbSpline
210
0.0
220
0.0
230
1.0
 70
     8
 71
     3
 72
     9
 73
     5
 74
     0
 42
0.0000000001
 43
0.0000000001
 40
0.0
 40
0.0
 40
0.0
 40
0.0
 40
0.249869629
 40
1.0
 40
1.0
 40
1.0
 40
1.0
 10
366.2645935567057
 20
190.3350005169382
 30
0.0
 10
366.0553626149964
 20
190.3781801147784
 30
0.0
 10
365.2154208897887
 20
190.5374261617203
 30
0.0
 10
364.3625495789423
 20
190.6352248836197
 30
0.0
 10
363.7216030572531
 20
190.6584169897147
 30
0.0
  0
SPLINE
  5
18AA0
330
1F
100
AcDbEntity
  8
0
  6
Continuous
 62
     7
100
AcDbSpline
210
0.0
220
0.0
230
1.0
 70
     8
 71
     3
 72
    24
 73
    20
 74
     0
 42
0.0000000001
 43
0.0000000001
 40
0.0
 40
0.0
 40
0.0
 40
0.0
 40
0.222001562
 40
0.4206025006000001
 40
0.5096939627000002
 40
0.5913381929
 40
0.6651053765000002
 40
0.7306535165000003
 40
0.7877380339000001
 40
0.8362403639
 40
0.8762458495999998
 40
0.9081801705
 40
0.9214700769
 40
0.9332752107999999
 40
0.9439728308000001
 40
0.9540749840999998
 40
0.9641855037999999
 40
0.9749069793999998
 40
1.0
 40
1.0
 40
1.0
 40
1.0
 10
363.7216030572531
 20
190.6584169897147
 30
0.0
 10
364.1396074596528
 20
190.7987048866612
 30
0.0
 10
364.927815845695
 20
191.0758406896407
 30
0.0
 10
365.8705798319719
 20
191.4454386120156
 30
0.0
 10
366.5434871949333
 20
191.7376481780543
 30
0.0
 10
366.9834658080113
 20
191.9433314449456
 30
0.0
 10
367.3747200866023
 20
192.1423083491468
 30
0.0
 10
367.7149682007953
 20
192.333353338106
 30
0.0
 10
368.0023063373378
 20
192.5152558987479
 30
0.0
 10
368.2353908808114
 20
192.6870325799069
 30
0.0
 10
368.4131798625772
 20
192.8476605887504
 30
0.0
 10
368.5213876400635
 20
192.9795419933339
 30
0.0
 10
368.5751024422357
 20
193.0796899702123
 30
0.0
 10
368.5982686951688
 20
193.1473109045151
 30
0.0
 10
368.6064737296151
 20
193.2120947710523
 30
0.0
 10
368.5992183996864
 20
193.2737230147873
 30
0.0
 10
368.5763687670483
 20
193.3314782627281
 30
0.0
 10
368.5229915339992
 20
193.4063200465157
 30
0.0
 10
368.4642811741728
 20
193.4495860021675
 30
0.0
 10
368.4212763115397
 20
193.4747720503151
 30
0.0
  0
SPLINE
  5
18AA1
330
1F
100
AcDbEntity
  8
02___PRT_ALL_AXES
  6
Continuous
 62
     7
100
AcDbSpline
210
0.0
220
0.0
230
1.0
 70
     8
 71
     3
 72
    33
 73
    29
 74
     0
 42
0.0000000001
 43
0.0000000001
 40
0.0
 40
0.0
 40
0.0
 40
0.0
 40
0.0117793539
 40
0.0270182994
 40
0.045842805
 40
0.0682245552
 40
0.094059297
 40
0.1231710781
 40
0.1903300436
 40
0.2675877643
 40
0.3524028708
 40
0.4419418289000001
 40
0.5331936334
 40
0.6230836703
 40
0.7085878693000001
 40
0.7868465966000002
 40
0.8224399612
 40
0.8552845972
 40
0.8851185427
 40
0.9117212714
 40
0.9349070277999999
 40
0.9545520985999999
 40
0.9706040674999998
 40
0.9831539262999999
 40
0.9882234391
 40
0.9926028237
 40
0.9964500068999999
 40
1.0
 40
1.0
 40
1.0
 40
1.0
 10
351.8761033407614
 20
189.4385616629102
 30
0.0
 10
351.9268944951186
 20
189.4106532078318
 30
0.0
 10
352.0530062956392
 20
189.3647662943681
 30
0.0
 10
352.2744239916288
 20
189.3204464679189
 30
0.0
 10
352.5511330615159
 20
189.2927711674752
 30
0.0
 10
352.880944550147
 20
189.2821546559085
 30
0.0
 10
353.2614656627816
 20
189.2888816629425
 30
0.0
 10
353.8613709145888
 20
189.3227511925984
 30
0.0
 10
354.7109219504787
 20
189.4118194119815
 30
0.0
 10
355.8266695262541
 20
189.5778937162491
 30
0.0
 10
357.0441504607193
 20
189.8031512129879
 30
0.0
 10
358.3214371628134
 20
190.0799993204496
 30
0.0
 10
359.6145566788514
 20
190.3990927818818
 30
0.0
 10
360.8789917433063
 20
190.7494246101938
 30
0.0
 10
362.0712096932807
 20
191.1188730678428
 30
0.0
 10
362.9978423650286
 20
191.4412186446648
 30
0.0
 10
363.6713079691549
 20
191.7009048959613
 30
0.0
 10
364.1179631139826
 20
191.886168340065
 30
0.0
 10
364.5185581318551
 20
192.066550296278
 30
0.0
 10
364.8697346618651
 20
192.2404042078802
 30
0.0
 10
365.1685518440522
 20
192.4062294206038
 30
0.0
 10
365.412863333177
 20
192.5625199890406
 30
0.0
 10
365.6007651077822
 20
192.7079986058875
 30
0.0
 10
365.7177944305519
 20
192.8269028381024
 30
0.0
 10
365.7779146057405
 20
192.9173303252906
 30
0.0
 10
365.8047726519912
 20
192.9774197955854
 30
0.0
 10
365.816330622984
 20
193.0347966155792
 30
0.0
 10
365.8131149579608
 20
193.0716980963803
 30
0.0
 10
365.8088911061792
 20
193.0886453884891
 30
0.0
  0
SPLINE
  5
18AA2
330
1F
100
AcDbEntity
  8
02___PRT_ALL_AXES
  6
Continuous
 62
     7
100
AcDbSpline
210
0.0
220
0.0
230
1.0
 70
     8
 71
     3
 72
     9
 73
     5
 74
     0
 42
0.0000000001
 43
0.0000000001
 40
0.0
 40
0.0
 40
0.0
 40
0.0
 40
0.5017134228
 40
1.0
 40
1.0
 40
1.0
 40
1.0
 10
361.5852041353105
 20
186.4829177248799
 30
0.0
 10
361.466136165302
 20
186.4500833738662
 30
0.0
 10
361.2139010469477
 20
186.4294372044283
 30
0.0
 10
360.9726428057078
 20
186.506540801654
 30
0.0
 10
360.8651400123386
 20
186.5656232983825
 30
0.0
  0
SPLINE
  5
18AA3
330
1F
100
AcDbEntity
  8
0
  6
Continuous
 62
     7
100
AcDbSpline
210
0.0
220
0.0
230
1.0
 70
     8
 71
     3
 72
     9
 73
     5
 74
     0
 42
0.0000000001
 43
0.0000000001
 40
0.0
 40
0.0
 40
0.0
 40
0.0
 40
0.5084808811000002
 40
1.0
 40
1.0
 40
1.0
 40
1.0
 10
357.6619207716362
 20
194.4994979567059
 30
0.0
 10
358.1497412953618
 20
194.6172354843716
 30
0.0
 10
359.1054991645111
 20
194.8639927876707
 30
0.0
 10
360.052842235033
 20
195.1414457314154
 30
0.0
 10
360.5157434592734
 20
195.2864721172833
 30
0.0
  0
SPLINE
  5
18AA4
330
1F
100
AcDbEntity
  8
0
  6
Continuous
 62
     7
100
AcDbSpline
210
0.0
220
0.0
230
1.0
 70
     8
 71
     3
 72
    16
 73
    12
 74
     0
 42
0.0000000001
 43
0.0000000001
 40
0.0
 40
0.0
 40
0.0
 40
0.0
 40
0.3486454307
 40
0.5083609799000001
 40
0.6517102818
 40
0.7747006213
 40
0.8744109759999998
 40
0.9149975878999999
 40
0.9493246716999999
 40
0.9775225864999999
 40
1.0
 40
1.0
 40
1.0
 40
1.0
 10
356.2176571318892
 20
212.4792558817394
 30
0.0
 10
356.1394679307146
 20
212.7605596911004
 30
0.0
 10
356.0139929010879
 20
213.1677558009056
 30
0.0
 10
355.8272279791313
 20
213.6806578328056
 30
0.0
 10
355.6921136194546
 20
214.0110228148119
 30
0.0
 10
355.5621209727255
 20
214.2887617126695
 30
0.0
 10
355.455366221177
 20
214.4820791618382
 30
0.0
 10
355.3737891497044
 20
214.6035544601114
 30
0.0
 10
355.3203059921111
 20
214.6715121630128
 30
0.0
 10
355.2705687229868
 20
214.7226124930599
 30
0.0
 10
355.2363022557097
 20
214.7482715869406
 30
0.0
 10
355.2198052457793
 20
214.7573362767658
 30
0.0
  0
LINE
  5
18AA5
330
1F
100
AcDbEntity
  8
0
  6
Continuous
 62
     7
100
AcDbLine
 10
356.2877147529694
 20
212.2272036297077
 30
0.0
 11
356.2176571318892
 21
212.4792558817394
 31
0.0
  0
SPLINE
  5
18AA6
330
1F
100
AcDbEntity
  8
0
  6
Continuous
 62
     7
100
AcDbSpline
210
0.0
220
0.0
230
1.0
 70
     8
 71
     3
 72
    31
 73
    27
 74
     0
 42
0.0000000001
 43
0.0000000001
 40
0.0
 40
0.0
 40
0.0
 40
0.0
 40
0.1055852068
 40
0.2060004534
 40
0.2989159184
 40
0.3822017374
 40
0.4540036672
 40
0.4851170707
 40
0.5128317387
 40
0.5370380822
 40
0.5576805291
 40
0.5747776468
 40
0.5884872123
 40
0.5992321486
 40
0.6079848280000001
 40
0.6164891035000001
 40
0.6266221708
 40
0.6395419633000002
 40
0.6557744993
 40
0.6755250678
 40
0.6988415577
 40
0.7256843499
 40
0.7559575219
 40
0.8262091595999997
 40
0.9081605906
 40
1.0
 40
1.0
 40
1.0
 40
1.0
 10
353.5043457536799
 20
215.6999378921251
 30
0.0
 10
353.7312717606297
 20
215.7501960945215
 30
0.0
 10
354.1752077042479
 20
215.8429655583737
 30
0.0
 10
354.8226628744018
 20
215.9607473047032
 30
0.0
 10
355.4248040221687
 20
216.0520737157654
 30
0.0
 10
355.9672305221689
 20
216.1148486179359
 30
0.0
 10
356.3763285708361
 20
216.1437742151034
 30
0.0
 10
356.6638822853024
 20
216.1497265942649
 30
0.0
 10
356.8466921502773
 20
216.1461713049235
 30
0.0
 10
357.0061201985814
 20
216.1349133823392
 30
0.0
 10
357.1413105468313
 20
216.1160694710011
 30
0.0
 10
357.251738262185
 20
216.0898099929569
 30
0.0
 10
357.3372192762859
 20
216.056086461264
 30
0.0
 10
357.3984491370452
 20
216.0143740478403
 30
0.0
 10
357.433769498894
 20
215.9608661007029
 30
0.0
 10
357.4358055059533
 20
215.8979233403739
 30
0.0
 10
357.4075728486573
 20
215.8329774763065
 30
0.0
 10
357.3541076846491
 20
215.7644226796052
 30
0.0
 10
357.2751276353997
 20
215.6908225443236
 30
0.0
 10
357.1707799997207
 20
215.6121470066751
 30
0.0
 10
357.0413408908958
 20
215.5287191659069
 30
0.0
 10
356.8874551453559
 20
215.4410192814708
 30
0.0
 10
356.6381237147802
 20
215.3126449981924
 30
0.0
 10
356.2716181275287
 20
215.1476389774112
 30
0.0
 10
355.7719905895033
 20
214.9499192030949
 30
0.0
 10
355.4113112226647
 20
214.8221176644843
 30
0.0
 10
355.2198052457793
 20
214.7573362767658
 30
0.0
  0
SPLINE
  5
18AA7
330
1F
100
AcDbEntity
  8
0
  6
Continuous
 62
     7
100
AcDbSpline
210
0.0
220
0.0
230
1.0
 70
     8
 71
     3
 72
    31
 73
    27
 74
     0
 42
0.0000000001
 43
0.0000000001
 40
0.0
 40
0.0
 40
0.0
 40
0.0
 40
0.1060320457
 40
0.2069270363
 40
0.3003771774
 40
0.384269959
 40
0.4567623009
 40
0.4882533601
 40
0.5163662110000002
 40
0.5409892318999999
 40
0.5620618092000002
 40
0.5795930734
 40
0.5937211629
 40
0.61345655
 40
0.6176534565000002
 40
0.6219751751000002
 40
0.6318333840000001
 40
0.6443521819
 40
0.6601213719
 40
0.6793787677
 40
0.7021904973000001
 40
0.7285290591
 40
0.7583078212000001
 40
0.8276307807
 40
0.9087807914
 40
1.0
 40
1.0
 40
1.0
 40
1.0
 10
352.3659825581785
 20
213.9703621160511
 30
0.0
 10
352.1406439677089
 20
213.9204554850499
 30
0.0
 10
351.6997051904259
 20
213.828274425569
 30
0.0
 10
351.0563928837478
 20
213.7110590184708
 30
0.0
 10
350.4575463589722
 20
213.6198970110204
 30
0.0
 10
349.9172820648823
 20
213.5568552063383
 30
0.0
 10
349.5091778498359
 20
213.5273455486955
 30
0.0
 10
349.2216592258742
 20
213.5206448686755
 30
0.0
 10
349.0383071011497
 20
213.5235327037786
 30
0.0
 10
348.877849655441
 20
213.5340934321544
 30
0.0
 10
348.7414479342501
 20
213.5519374446135
 30
0.0
 10
348.6287769802952
 20
213.5777164910247
 30
0.0
 10
348.5251036073901
 20
213.6155170907628
 30
0.0
 10
348.4511966388095
 20
213.6711054351477
 30
0.0
 10
348.4360085267767
 20
213.7316442268353
 30
0.0
 10
348.4363391425873
 20
213.7720033176206
 30
0.0
 10
348.4570724389018
 20
213.8278923532449
 30
0.0
 10
348.5065691369168
 20
213.8951406356142
 30
0.0
 10
348.5810307810722
 20
213.9674927855036
 30
0.0
 10
348.6805982400189
 20
214.0447998753812
 30
0.0
 10
348.8049584033729
 20
214.1268877633479
 30
0.0
 10
348.9535509926505
 20
214.2132632690023
 30
0.0
 10
349.195483324846
 20
214.339986601161
 30
0.0
 10
349.5526208502893
 20
214.503073997516
 30
0.0
 10
350.0410727860985
 20
214.6987986245918
 30
0.0
 10
350.3943439286709
 20
214.8254320375778
 30
0.0
 10
350.5822044766069
 20
214.8897196135409
 30
0.0
  0
SPLINE
  5
18AA8
330
1F
100
AcDbEntity
  8
02___PRT_ALL_AXES
  6
Continuous
 62
     7
100
AcDbSpline
210
0.0
220
0.0
230
1.0
 70
     8
 71
     3
 72
    25
 73
    21
 74
     0
 42
0.0000000001
 43
0.0000000001
 40
0.0
 40
0.0
 40
0.0
 40
0.0
 40
0.0149383602
 40
0.0326581034
 40
0.053125001
 40
0.0762667961
 40
0.1300842604
 40
0.1929338689
 40
0.2633309059
 40
0.3395639892
 40
0.5019049911
 40
0.6639674721
 40
0.7398602167
 40
0.8097947459999998
 40
0.8720727459
 40
0.9252260538999999
 40
0.9480076951
 40
0.9681049855999999
 40
0.9854448826
 40
1.0
 40
1.0
 40
1.0
 40
1.0
 10
353.6757389424715
 20
183.1182882163835
 30
0.0
 10
353.7439708895731
 20
183.1030524102612
 30
0.0
 10
353.8951401177296
 20
183.0787214437719
 30
0.0
 10
354.1430194194222
 20
183.0578170674476
 30
0.0
 10
354.4300463103359
 20
183.0496127856491
 30
0.0
 10
354.8860593414106
 20
183.0562690711791
 30
0.0
 10
355.5392993943156
 20
183.100431972152
 30
0.0
 10
356.4092820098672
 20
183.2000433819881
 30
0.0
 10
357.3787764353915
 20
183.3469987950516
 30
0.0
 10
358.8013888815662
 20
183.6069678737054
 30
0.0
 10
360.6315950645662
 20
184.0181114265902
 30
0.0
 10
362.4390587340281
 20
184.5139203713321
 30
0.0
 10
363.8122441089695
 20
184.9511457471404
 30
0.0
 10
364.7309826889891
 20
185.2749817952104
 30
0.0
 10
365.538124266252
 20
185.5935145003282
 30
0.0
 10
366.1282799271071
 20
185.8593855909061
 30
0.0
 10
366.5274792147578
 20
186.0660946302619
 30
0.0
 10
366.7718344153677
 20
186.2067747740116
 30
0.0
 10
366.9754663292611
 20
186.3402272393182
 30
0.0
 10
367.0937023591837
 20
186.4318238682304
 30
0.0
 10
367.1448006427822
 20
186.4768696444049
 30
0.0
  0
SPLINE
  5
18AA9
330
1F
100
AcDbEntity
  8
0
  6
Continuous
 62
     7
100
AcDbSpline
210
0.0
220
0.0
230
1.0
 70
     8
 71
     3
 72
    22
 73
    18
 74
     0
 42
0.0000000001
 43
0.0000000001
 40
0.0
 40
0.0
 40
0.0
 40
0.0
 40
0.0087666378
 40
0.0177170098
 40
0.0379296371
 40
0.063468277
 40
0.0956328173
 40
0.1143919939
 40
0.1349729351
 40
0.1816298107
 40
0.2355787628
 40
0.2966575014
 40
0.3646150515
 40
0.439132505
 40
0.6062909800999999
 40
0.7946133705
 40
1.0
 40
1.0
 40
1.0
 40
1.0
 10
360.3130931857781
 20
214.5689436616217
 30
0.0
 10
360.3185088002616
 20
214.5562034036644
 30
0.0
 10
360.3263520809965
 20
214.5289927845939
 30
0.0
 10
360.3280794990865
 20
214.4685445526889
 30
0.0
 10
360.2998478776576
 20
214.384465850993
 30
0.0
 10
360.2285431729292
 20
214.2832488109912
 30
0.0
 10
360.1429255216922
 20
214.1975062104207
 30
0.0
 10
360.0568201447427
 20
214.124435828941
 30
0.0
 10
359.9490568135702
 20
214.0417119791551
 30
0.0
 10
359.7901106430441
 20
213.9348318355338
 30
0.0
 10
359.5702269762737
 20
213.8048775115345
 30
0.0
 10
359.3150338866148
 20
213.6691668539048
 30
0.0
 10
359.0259584069869
 20
213.5284862615659
 30
0.0
 10
358.5801135332954
 20
213.3276212458355
 30
0.0
 10
357.9505788954161
 20
213.0725112867099
 30
0.0
 10
357.1178490633997
 20
212.7704730728788
 30
0.0
 10
356.5270743977785
 20
212.5764679619948
 30
0.0
 10
356.2176571318892
 20
212.4792558817394
 30
0.0
  0
SPLINE
  5
18AAA
330
1F
100
AcDbEntity
  8
0
  6
Continuous
 62
     7
100
AcDbSpline
210
0.0
220
0.0
230
1.0
 70
     8
 71
     3
 72
    22
 73
    18
 74
     0
 42
0.0000000001
 43
0.0000000001
 40
0.0
 40
0.0
 40
0.0
 40
0.0
 40
0.1934994439
 40
0.3781711544
 40
0.5473321629
 40
0.6241802389
 40
0.6949547178000001
 40
0.7590531526000001
 40
0.8159536784999998
 40
0.8652339156
 40
0.906602282
 40
0.939965323
 40
0.9655887986999999
 40
0.975809265
 40
0.9846238198999998
 40
0.9924775160999999
 40
1.0
 40
1.0
 40
1.0
 40
1.0
 10
353.3638344442047
 20
211.6922817210749
 30
0.0
 10
352.9238627753443
 20
211.5864170707196
 30
0.0
 10
352.0609051200995
 20
211.3920541390531
 30
0.0
 10
350.8038563821707
 20
211.1495856303723
 30
0.0
 10
349.8085055177948
 20
210.9934927341124
 30
0.0
 10
349.0730618645289
 20
210.9036338785541
 30
0.0
 10
348.5801204817949
 20
210.8562932573055
 30
0.0
 10
348.1324934557274
 20
210.8271595847169
 30
0.0
 10
347.7342812752927
 20
210.8164286382094
 30
0.0
 10
347.3891525332898
 20
210.8240737771089
 30
0.0
 10
347.0998818343002
 20
210.849803069918
 30
0.0
 10
346.8689561069191
 20
210.8932100267189
 30
0.0
 10
346.7147201506092
 20
210.9470750710376
 30
0.0
 10
346.6257421077957
 20
211.0026640087249
 30
0.0
 10
346.5795679461848
 20
211.0461601636185
 30
0.0
 10
346.5494840720062
 20
211.0950011814517
 30
0.0
 10
346.5410504104752
 20
211.1307027211865
 30
0.0
 10
346.539706313521
 20
211.1482438123717
 30
0.0
  0
SPLINE
  5
18AAB
330
1F
100
AcDbEntity
  8
02___PRT_ALL_AXES
  6
Continuous
 62
     7
100
AcDbSpline
210
0.0
220
0.0
230
1.0
 70
     8
 71
     3
 72
    15
 73
    11
 74
     0
 42
0.0000000001
 43
0.0000000001
 40
0.0
 40
0.0
 40
0.0
 40
0.0
 40
0.115597237
 40
0.2120533217
 40
0.3001891196
 40
0.3940068005
 40
0.5053434451
 40
0.6413330946000002
 40
0.8056673810999999
 40
1.0
 40
1.0
 40
1.0
 40
1.0
 10
351.5196024984966
 20
188.8279149329678
 30
0.0
 10
351.4906272766534
 20
188.8438360847745
 30
0.0
 10
351.4396247976988
 20
188.87773187611
 30
0.0
 10
351.3833277512499
 20
188.9448565435492
 30
0.0
 10
351.3599780008703
 20
189.0235864655483
 30
0.0
 10
351.3719955176644
 20
189.1086307350147
 30
0.0
 10
351.4149559469883
 20
189.197307629715
 30
0.0
 10
351.4869240438244
 20
189.2911490475604
 30
0.0
 10
351.587793903062
 20
189.3907622903157
 30
0.0
 10
351.6674699352884
 20
189.4555801506745
 30
0.0
 10
351.7117105399179
 20
189.4892237474519
 30
0.0
  0
SPLINE
  5
18AAC
330
1F
100
AcDbEntity
  8
02___PRT_ALL_AXES
  6
Continuous
 62
     7
100
AcDbSpline
210
0.0
220
0.0
230
1.0
 70
     8
 71
     3
 72
     9
 73
     5
 74
     0
 42
0.0000000001
 43
0.0000000001
 40
0.0
 40
0.0
 40
0.0
 40
0.0
 40
0.555590127
 40
1.0
 40
1.0
 40
1.0
 40
1.0
 10
365.9372883075125
 20
192.9990991669479
 30
0.0
 10
365.9999590649427
 20
192.9871189601668
 30
0.0
 10
366.1119079096065
 20
192.960713452971
 30
0.0
 10
366.2196234395565
 20
192.9185258872081
 30
0.0
 10
366.264353051251
 20
192.8939480964696
 30
0.0
  0
SPLINE
  5
18AAD
330
1F
100
AcDbEntity
  8
02___PRT_ALL_AXES
  6
Continuous
 62
     7
100
AcDbSpline
210
0.0
220
0.0
230
1.0
 70
     8
 71
     3
 72
    15
 73
    11
 74
     0
 42
0.0000000001
 43
0.0000000001
 40
0.0
 40
0.0
 40
0.0
 40
0.0
 40
0.1231343341
 40
0.2467966752
 40
0.3713326424
 40
0.4967801294
 40
0.6228649925000001
 40
0.7491026172000002
 40
0.8749443712999999
 40
1.0
 40
1.0
 40
1.0
 40
1.0
 10
361.8287231686923
 20
188.3181496305065
 30
0.0
 10
361.9132632033147
 20
188.2716872441456
 30
0.0
 10
362.0693754894097
 20
188.1516609891483
 30
0.0
 10
362.2384879422357
 20
187.9097105984351
 30
0.0
 10
362.3290588565474
 20
187.62670784611
 30
0.0
 10
362.3331156828576
 20
187.3278543261963
 30
0.0
 10
362.250701379679
 20
187.0392473204215
 30
0.0
 10
362.0889907243368
 20
186.7859885220428
 30
0.0
 10
361.8623802817097
 20
186.5901830304879
 30
0.0
 10
361.6796504828057
 20
186.5089623825246
 30
0.0
 10
361.5852041353105
 20
186.4829177248799
 30
0.0
  0
SPLINE
  5
18AAE
330
1F
100
AcDbEntity
  8
0
  6
Continuous
 62
     7
100
AcDbSpline
210
0.0
220
0.0
230
1.0
 70
     8
 71
     3
 72
    19
 73
    15
 74
     0
 42
0.0000000001
 43
0.0000000001
 40
0.0
 40
0.0
 40
0.0
 40
0.0
 40
0.0218096662
 40
0.0461050896
 40
0.0747070642
 40
0.1087063805
 40
0.1487157478
 40
0.1950447251
 40
0.2478276689999999
 40
0.3071036767
 40
0.4448410958000001
 40
0.6073206828000001
 40
0.7930777067000001
 40
1.0
 40
1.0
 40
1.0
 40
1.0
 10
369.8056381716491
 20
192.5544493110834
 30
0.0
 10
369.8132046990472
 20
192.524000529575
 30
0.0
 10
369.8170244517573
 20
192.4561797371394
 30
0.0
 10
369.7878778373347
 20
192.3513512796931
 30
0.0
 10
369.7269315245435
 20
192.2413069280051
 30
0.0
 10
369.6349600893486
 20
192.1252666320011
 30
0.0
 10
369.512079980756
 20
192.0029240440804
 30
0.0
 10
369.3584657370162
 20
191.8743530561574
 30
0.0
 10
369.1744236309937
 20
191.7398040775957
 30
0.0
 10
368.8736103232736
 20
191.5429963120319
 30
0.0
 10
368.4231766772831
 20
191.2879336549326
 30
0.0
 10
367.7963532693433
 20
190.9778424282127
 30
0.0
 10
367.0659879085257
 20
190.6542697333857
 30
0.0
 10
366.5420730275059
 20
190.4427711114172
 30
0.0
 10
366.2645935567057
 20
190.3350005169382
 30
0.0
  0
SPLINE
  5
18AAF
330
1F
100
AcDbEntity
  8
02___PRT_ALL_AXES
  6
Continuous
 62
     7
100
AcDbSpline
210
0.0
220
0.0
230
1.0
 70
     8
 71
     3
 72
     9
 73
     5
 74
     0
 42
0.0000000001
 43
0.0000000001
 40
0.0
 40
0.0
 40
0.0
 40
0.0
 40
0.271835498
 40
1.0
 40
1.0
 40
1.0
 40
1.0
 10
351.8761033407614
 20
189.4385616629102
 30
0.0
 10
351.8678101274387
 20
189.4431185738781
 30
0.0
 10
351.8377826409128
 20
189.4606952631935
 30
0.0
 10
351.8096753903851
 20
189.4818906938185
 30
0.0
 10
351.7917319450248
 20
189.4997943013937
 30
0.0
  0
SPLINE
  5
18AB0
330
1F
100
AcDbEntity
  8
02___PRT_ALL_AXES
  6
Continuous
 62
     7
100
AcDbSpline
210
0.0
220
0.0
230
1.0
 70
     8
 71
     3
 72
     9
 73
     5
 74
     0
 42
0.0000000001
 43
0.0000000001
 40
0.0
 40
0.0
 40
0.0
 40
0.0
 40
0.5198435512
 40
1.0
 40
1.0
 40
1.0
 40
1.0
 10
351.7917319450248
 20
189.4997943013937
 30
0.0
 10
351.778421230189
 20
189.5130754640109
 30
0.0
 10
351.7553229403315
 20
189.5414552754123
 30
0.0
 10
351.740992063917
 20
189.5753341259402
 30
0.0
 10
351.7367918988243
 20
189.5921863806002
 30
0.0
  0
ENDSEC
  0
SECTION
  2
OBJECTS
  0
DICTIONARY
  5
C
330
0
100
AcDbDictionary
281
     1
  3
ACAD_COLOR
350
4FFE
  3
ACAD_GROUP
350
D
  3
ACAD_LAYOUT
350
1A
  3
ACAD_MATERIAL
350
4FE5
  3
ACAD_MLEADERSTYLE
350
5022
  3
ACAD_MLINESTYLE
350
17
  3
ACAD_PLOTSETTINGS
350
19
  3
ACAD_PLOTSTYLENAME
350
E
  3
ACAD_RENDER_PLOT_SETTINGS
350
6537
  3
ACAD_SCALELIST
350
5000
  3
ACAD_TABLESTYLE
350
4FE3
  3
ACAD_VISUALSTYLE
350
2A
  3
ACDB_RECOMPOSE_DATA
350
50EC
  3
AcDbVariableDictionary
350
5108
  3
ASE_INDEX_DICTIONARY
350
13AB8
  0
DICTIONARY
  5
50EE
330
8
100
AcDbDictionary
280
     1
281
     1
  0
DICTIONARY
  5
50B8
330
2
100
AcDbDictionary
280
     1
281
     1
  3
ACAD_LAYERFILTERS
360
17549
  3
ACAD_LAYERSTATES
360
50B9
  3
ACLYDICTIONARY
360
17548
  0
DICTIONARY
  5
50D0
330
10
100
AcDbDictionary
280
     1
281
     1
  3
ADSK_XREC_LAYER_RECONCILED
360
50D1
  0
DICTIONARY
  5
50D2
330
3B
100
AcDbDictionary
280
     1
281
     1
  3
ADSK_XREC_LAYER_RECONCILED
360
50D3
  0
DICTIONARY
  5
50AF
330
50AE
100
AcDbDictionary
280
     1
281
     1
  3
ADSK_XREC_LAYER_RECONCILED
360
50D4
  0
DICTIONARY
  5
188EB
330
188EA
100
AcDbDictionary
280
     1
281
     1
  0
DICTIONARY
  5
67C0
330
1F
100
AcDbDictionary
280
     1
281
     1
  3
ACAD_SORTENTS
360
67C1
  0
DICTIONARY
  5
18B87
330
10FE8
100
AcDbDictionary
280
     1
281
     1
  0
DICTIONARY
  5
18BF2
330
18AF2
100
AcDbDictionary
280
     1
281
     1
  3
ACAD_MTEXT_2008_RT
360
18BF3
  0
DICTIONARY
  5
18BF4
330
18B36
100
AcDbDictionary
280
     1
281
     1
  3
ACAD_MTEXT_2008_RT
360
18BF5
  0
DICTIONARY
  5
18BF6
330
18B37
100
AcDbDictionary
280
     1
281
     1
  3
ACAD_MTEXT_2008_RT
360
18BF7
  0
DICTIONARY
  5
18BF8
330
18B5C
100
AcDbDictionary
280
     1
281
     1
  3
ACAD_MTEXT_2008_RT
360
18BF9
  0
DICTIONARY
  5
18BFA
330
18B5F
100
AcDbDictionary
280
     1
281
     1
  3
ACAD_MTEXT_2008_RT
360
18BFB
  0
DICTIONARY
  5
18BFC
330
18B60
100
AcDbDictionary
280
     1
281
     1
  3
ACAD_MTEXT_2008_RT
360
18BFD
  0
DICTIONARY
  5
18BFE
330
18B6A
100
AcDbDictionary
280
     1
281
     1
  3
ACAD_MTEXT_2008_RT
360
18BFF
  0
DICTIONARY
  5
18C00
330
18B6B
100
AcDbDictionary
280
     1
281
     1
  3
ACAD_MTEXT_2008_RT
360
18C01
  0
DICTIONARY
  5
18C02
330
18B6C
100
AcDbDictionary
280
     1
281
     1
  3
ACAD_MTEXT_2008_RT
360
18C03
  0
DICTIONARY
  5
18C04
330
18B7A
100
AcDbDictionary
280
     1
281
     1
  3
ACAD_MTEXT_2008_RT
360
18C05
  0
DICTIONARY
  5
18C06
330
18B7B
100
AcDbDictionary
280
     1
281
     1
  3
ACAD_MTEXT_2008_RT
360
18C07
  0
DICTIONARY
  5
18C08
330
18B7C
100
AcDbDictionary
280
     1
281
     1
  3
ACAD_MTEXT_2008_RT
360
18C09
  0
DICTIONARY
  5
18BF0
330
1338B
100
AcDbDictionary
280
     1
281
     1
  3
ACAD_MTEXT_2008_RT
360
18BF1
  0
DICTIONARY
  5
18755
330
18754
100
AcDbDictionary
280
     1
281
     1
  3
ACAD_DIMASSOC
360
18756
  0
DICTIONARY
  5
4FFE
102
{ACAD_REACTORS
330
C
102
}
330
C
100
AcDbDictionary
281
     1
  0
DICTIONARY
  5
D
102
{ACAD_REACTORS
330
C
102
}
330
C
100
AcDbDictionary
281
     1
  0
DICTIONARY
  5
1A
102
{ACAD_REACTORS
330
C
102
}
330
C
100
AcDbDictionary
281
     1
  3
Layout1
350
1E
  3
Layout2
350
26
  3
Model
350
22
  0
DICTIONARY
  5
4FE5
102
{ACAD_REACTORS
330
C
102
}
330
C
100
AcDbDictionary
281
     1
  3
ByBlock
350
4FEE
  3
ByLayer
350
4FE6
  3
Global
350
4FF6
  0
DICTIONARY
  5
5022
102
{ACAD_REACTORS
330
C
102
}
330
C
100
AcDbDictionary
281
     1
  3
Standard
350
5023
  0
DICTIONARY
  5
17
102
{ACAD_REACTORS
330
C
102
}
330
C
100
AcDbDictionary
281
     1
  3
Standard
350
18
  0
DICTIONARY
  5
19
102
{ACAD_REACTORS
330
C
102
}
330
C
100
AcDbDictionary
281
     1
  0
ACDBDICTIONARYWDFLT
  5
E
102
{ACAD_REACTORS
330
C
102
}
330
C
100
AcDbDictionary
281
     1
  3
Normal
350
F
100
AcDbDictionaryWithDefault
340
F
  0
DICTIONARY
  5
6537
102
{ACAD_REACTORS
330
C
102
}
330
C
100
AcDbDictionary
281
     1
  3
{1DC63513-1B1A-422F-9880-65CFD2B8D533}
350
6538
  0
DICTIONARY
  5
5000
102
{ACAD_REACTORS
330
C
102
}
330
C
100
AcDbDictionary
281
     1
  3
A0
350
5001
  3
A1
350
5002
  3
A2
350
5003
  3
A3
350
5004
  3
A4
350
5005
  3
A5
350
5006
  3
A6
350
5007
  3
A7
350
5008
  3
A8
350
5009
  3
A9
350
500A
  3
B0
350
500B
  3
B1
350
500C
  3
B2
350
500D
  3
B3
350
500E
  3
B4
350
500F
  3
B5
350
5010
  3
B6
350
5011
  3
B7
350
5012
  3
B8
350
5013
  3
B9
350
5014
  3
C0
350
5015
  3
C1
350
5016
  3
C2
350
5017
  3
C3
350
5018
  3
C4
350
5019
  3
C5
350
501A
  3
C6
350
501B
  3
C7
350
501C
  3
C8
350
501D
  3
C9
350
501E
  3
D0
350
501F
  3
D1
350
5020
  3
D2
350
5021
  0
DICTIONARY
  5
4FE3
102
{ACAD_REACTORS
330
C
102
}
330
C
100
AcDbDictionary
281
     1
  3
Standard
350
4FFF
  0
DICTIONARY
  5
2A
102
{ACAD_REACTORS
330
C
102
}
330
C
100
AcDbDictionary
281
     1
  3
2dWireframe
350
2F
  3
3D Hidden
350
31
  3
3dWireframe
350
30
  3
Basic
350
32
  3
Brighten
350
36
  3
ColorChange
350
3A
  3
Conceptual
350
34
  3
Dim
350
35
  3
Facepattern
350
39
  3
Flat
350
2B
  3
FlatWithEdges
350
2C
  3
Gouraud
350
2D
  3
GouraudWithEdges
350
2E
  3
Linepattern
350
38
  3
Realistic
350
33
  3
Thicken
350
37
  0
XRECORD
  5
50EC
102
{ACAD_REACTORS
330
C
102
}
330
C
100
AcDbXrecord
280
     1
 90
        1
330
4FFF
330
1338B
330
18AF2
330
18B36
330
18B37
330
18B5C
330
18B5F
330
18B60
330
18B6A
330
18B6B
330
18B6C
330
18B7A
330
18B7B
330
18B7C
  0
DICTIONARY
  5
5108
102
{ACAD_REACTORS
330
C
102
}
330
C
100
AcDbDictionary
281
     1
  3
CANNOSCALE
350
510B
  3
CMLEADERSTYLE
350
510A
  3
CTABLESTYLE
350
5109
  3
DIMASSOC
350
510E
  3
INDEXCTL
350
510D
  3
LIGHTINGUNITS
350
18BE1
  3
MSLTSCALE
350
18BE0
  3
SORTENTS
350
510C
  0
DICTIONARY
  5
13AB8
102
{ACAD_REACTORS
330
C
102
}
330
C
100
AcDbDictionary
281
     1
  3
ASEBlockHierarchyIndexRecord
350
13AB9
1001
DCO15
1040
1903428683.781
  0
DICTIONARY
  5
17549
102
{ACAD_REACTORS
330
50B8
102
}
330
50B8
100
AcDbDictionary
281
     1
  0
DICTIONARY
  5
50B9
102
{ACAD_REACTORS
330
50B8
102
}
330
50B8
100
AcDbDictionary
281
     1
  0
DICTIONARY
  5
17548
102
{ACAD_REACTORS
330
50B8
102
}
330
50B8
100
AcDbDictionary
281
     1
1001
ACAD
1000
<All
  0
XRECORD
  5
50D1
102
{ACAD_REACTORS
330
50D0
102
}
330
50D0
100
AcDbXrecord
280
     1
290
     1
  0
XRECORD
  5
50D3
102
{ACAD_REACTORS
330
50D2
102
}
330
50D2
100
AcDbXrecord
280
     1
290
     1
  0
XRECORD
  5
50D4
102
{ACAD_REACTORS
330
50AF
102
}
330
50AF
100
AcDbXrecord
280
     1
290
     1
  0
SORTENTSTABLE
  5
67C1
102
{ACAD_REACTORS
330
67C0
102
}
330
67C0
100
AcDbSortentsTable
330
1F
331
1861A
  5
1861A
331
18752
  5
18753
331
18697
  5
18698
331
1862B
  5
1868E
331
186AC
  5
186AD
331
3807
  5
3895
331
18690
  5
18691
331
18624
  5
18624
331
188FA
  5
188FB
331
186A1
  5
186A2
331
1869A
  5
1869B
331
1382B
  5
1382B
331
1874E
  5
1874F
331
18693
  5
18694
331
18627
  5
18627
331
188FD
  5
188FE
331
186A4
  5
186A5
331
186A8
  5
186A9
331
18620
  5
18620
331
1869D
  5
1869E
331
18619
  5
18619
331
18751
  5
18752
331
18696
  5
18697
331
3895
  5
3943
331
1862A
  5
1862B
331
186A7
  5
186A8
331
1338B
  5
1338B
331
186AB
  5
186AC
331
1868F
  5
18690
331
188F9
  5
188FA
331
186A0
  5
186A1
331
18623
  5
18623
331
18754
  5
188F8
331
18699
  5
1869A
331
1382A
  5
1382A
331
18692
  5
18693
331
188FC
  5
188FD
331
186A3
  5
186A4
331
4842
  5
4E94
331
18626
  5
18626
331
2FDE
  5
35C8
331
1869C
  5
1869D
331
3943
  5
4842
331
2F93
  5
2FDE
331
1382D
  5
1382D
331
35D8
  5
3807
331
18750
  5
18751
331
18695
  5
18696
331
186A6
  5
186A7
331
18629
  5
1862A
331
186AA
  5
186AB
331
1868E
  5
1868F
331
188F8
  5
188F9
331
1869F
  5
186A0
331
2C65
  5
2EE7
331
1861B
  5
1861B
331
18753
  5
18754
331
18698
  5
18699
331
28AE
  5
2A38
331
2EE7
  5
2F93
331
186AD
  5
1874E
331
13829
  5
13829
331
18691
  5
18692
331
18625
  5
18625
331
186A2
  5
186A3
331
188FB
  5
188FC
331
1869B
  5
1869C
331
18694
  5
18695
331
1382C
  5
1382C
331
1874F
  5
18750
331
186A5
  5
186A6
331
18628
  5
18629
331
186A9
  5
186AA
331
35C8
  5
35D8
331
1869E
  5
1869F
  0
XRECORD
  5
18BF3
102
{ACAD_REACTORS
330
18BF2
102
}
330
18BF2
100
AcDbXrecord
280
     1
 40
1527.0
  1
\pxqc;BQ LUO
  0
XRECORD
  5
18BF5
102
{ACAD_REACTORS
330
18BF4
102
}
330
18BF4
100
AcDbXrecord
280
     1
 40
1262561.0
  1
\pxqc;档案员{\H0.7x;\P\Fromans|c134;Filing Clerk\fFangSong_GB2312|b0|i0|c134|p49; }
  0
XRECORD
  5
18BF7
102
{ACAD_REACTORS
330
18BF6
102
}
330
18BF6
100
AcDbXrecord
280
     1
 40
650528.0
  1
\pxqc;日期{\Fromans|c134;/Date}
  0
XRECORD
  5
18BF9
102
{ACAD_REACTORS
330
18BF8
102
}
330
18BF8
100
AcDbXrecord
280
     1
 40
1836818.0
  1
\pxsm0.7;{\fFangSong_GB2312|b0|i0|c134|p49;标准化}\PStand.
  0
XRECORD
  5
18BFB
102
{ACAD_REACTORS
330
18BFA
102
}
330
18BFA
100
AcDbXrecord
280
     1
 40
118135.0
  1
\pxsm0.7;签名\P{\Fromans|c134;Signature} 
  0
XRECORD
  5
18BFD
102
{ACAD_REACTORS
330
18BFC
102
}
330
18BFC
100
AcDbXrecord
280
     1
 40
108939.0
  1
\pxsm0.7,qc;处数\P{\Fromans|c134;Number }
  0
XRECORD
  5
18BFF
102
{ACAD_REACTORS
330
18BFE
102
}
330
18BFE
100
AcDbXrecord
280
     1
 40
125762.0
  1
\pxsm0.7;标记\P{\Fromans|c134;Mark}
  0
XRECORD
  5
18C01
102
{ACAD_REACTORS
330
18C00
102
}
330
18C00
100
AcDbXrecord
280
     1
 40
111973.0
  1
\pxsm0.7;审核\P{\Fromans|c134;Checked}
  0
XRECORD
  5
18C03
102
{ACAD_REACTORS
330
18C02
102
}
330
18C02
100
AcDbXrecord
280
     1
 40
137968.0
  1
\pxsm0.7;绘图\P{\Fromans|c134;Drawn\Ftxt|c134; }
  0
XRECORD
  5
18C05
102
{ACAD_REACTORS
330
18C04
102
}
330
18C04
100
AcDbXrecord
280
     1
 40
106320.0
  1
\pxsm0.7;批准\P{\Fromans|c134;Approved}
  0
XRECORD
  5
18C07
102
{ACAD_REACTORS
330
18C06
102
}
330
18C06
100
AcDbXrecord
280
     1
 40
127283.0
  1
\pxsm0.7;工艺\P{\Fromans|c134;Process}
  0
XRECORD
  5
18C09
102
{ACAD_REACTORS
330
18C08
102
}
330
18C08
100
AcDbXrecord
280
     1
 40
106220.0
  1
\pxsm0.7;日期\P{\Fromans|c134;Date}
  0
XRECORD
  5
18BF1
102
{ACAD_REACTORS
330
18BF0
102
}
330
18BF0
100
AcDbXrecord
280
     1
 40
727415549.0
  1
\A1;\pxql;{\f仿宋_GB2312|b0|i0|c134|p49;技术参数}:\P\pq*;- {\f仿宋_GB2312|b0|i0|c134|p49;材料}: {\f仿宋_GB2312|b0|i0|c134|p49;铜合金}\P- {\f仿宋_GB2312|b0|i0|c134|p49;表面处理}: {\f仿宋_GB2312|b0|i0|c134|p49;镀银}\P\pql;- {\f仿宋_GB2312|b0|i0|c134|p49;额定电流}: 350A\P- {\f仿宋_GB23
  1
12|b0|i0|c134|p49;接触电阻}: ≤0.3mΩ\P- {\f仿宋_GB2312|b0|i0|c134|p49;线径范围}: 70mm{\H0.7x;\S2^ ;}\P- {\f仿宋_GB2312|b0|i0|c134|p49;剥线长度}: 28mm\P- {\f仿宋_GB2312|b0|i0|c134|p49;最大电缆直径}: 22mm\P- {\f仿宋_GB2312|b0|i0|c134|p49;冷压模具}: {\f仿宋_GB2312|b0|i0|c134|p49;按照} DIN
  1
 46 235\P- {\f仿宋_GB2312|b0|i0|c134|p49;压力要求}: 130kN\P\pq*;- {\f仿宋_GB2312|b0|i0|c134|p49;可插拔次数}: {\f仿宋_GB2312|b0|i0|c134|p49;≥}500\P\P\pql;Technical specification:\P- Material: copper alloy\P- Surface: hard-silver plated\P- Rated current: 350A\P- Cont
  1
act resistance: ≤0.3mΩ\P- Wire gauge: 70mm{\H0.7x;\S2^ ;}\P- Stripping length: 28mm\P- Max. insulation diameter: 22mm\P- Crimp dies: acc. to DIN 46 235\P- Pressing force: 130kN\P- Mating cycles: {\f仿宋_GB2312|b0|i0|c134|p49;≥}500
  0
DIMASSOC
  5
18756
102
{ACAD_REACTORS
330
18755
102
}
330
18755
100
AcDbDimAssoc
330
18754
 90
        3
 70
     0
 71
     0
  1
AcDbOsnapPointRef
 72
    10
331
186A6
 73
     2
 91
        0
 40
0.5446307676172281
 10
0.0
 20
0.0
 30
0.0
 75
     0
  1
AcDbOsnapPointRef
 72
    10
331
186A5
 73
     2
 91
        0
 40
0.4197737985354669
 10
0.0
 20
0.0
 30
0.0
 75
     0
  0
LAYOUT
  5
1E
102
{ACAD_REACTORS
330
1A
102
}
330
1A
100
AcDbPlotSettings
  1

  2
none_device
  4

  6

 40
0.0
 41
0.0
 42
0.0
 43
0.0
 44
0.0
 45
0.0
 46
0.0
 47
0.0
 48
0.0
 49
0.0
140
0.0
141
0.0
142
1.0
143
1.0
 70
   688
 72
     0
 73
     0
 74
     5
  7

 75
    16
147
1.0
 76
     0
 77
     2
 78
   300
148
0.0
149
0.0
100
AcDbLayout
  1
Layout1
 70
     1
 71
     1
 10
0.0
 20
0.0
 11
12.0
 21
9.0
 12
0.0
 22
0.0
 32
0.0
 14
1.000000000000000E+20
 24
1.000000000000000E+20
 34
1.000000000000000E+20
 15
-1.000000000000000E+20
 25
-1.000000000000000E+20
 35
-1.000000000000000E+20
146
0.0
 13
0.0
 23
0.0
 33
0.0
 16
1.0
 26
0.0
 36
0.0
 17
0.0
 27
1.0
 37
0.0
 76
     0
330
1B
  0
LAYOUT
  5
26
102
{ACAD_REACTORS
330
1A
102
}
330
1A
100
AcDbPlotSettings
  1

  2
none_device
  4

  6

 40
0.0
 41
0.0
 42
0.0
 43
0.0
 44
0.0
 45
0.0
 46
0.0
 47
0.0
 48
0.0
 49
0.0
140
0.0
141
0.0
142
1.0
143
1.0
 70
   688
 72
     0
 73
     0
 74
     5
  7

 75
    16
147
1.0
 76
     0
 77
     2
 78
   300
148
0.0
149
0.0
100
AcDbLayout
  1
Layout2
 70
     1
 71
     2
 10
0.0
 20
0.0
 11
0.0
 21
0.0
 12
0.0
 22
0.0
 32
0.0
 14
0.0
 24
0.0
 34
0.0
 15
0.0
 25
0.0
 35
0.0
146
0.0
 13
0.0
 23
0.0
 33
0.0
 16
1.0
 26
0.0
 36
0.0
 17
0.0
 27
1.0
 37
0.0
 76
     0
330
23
  0
LAYOUT
  5
22
102
{ACAD_REACTORS
330
1A
102
}
330
1A
100
AcDbPlotSettings
  1

  2
Adobe PDF Converter.pc3
  4
A4
  6

 40
3.174999952316281
 41
3.174999952316281
 42
3.17498779296875
 43
3.175003051757812
 44
297.0318298339844
 45
209.9733276367186
 46
0.0000000000000076
 47
1.630241740247063
 48
246.9897427644609
 49
39.36804549891383
140
544.952097801264
141
244.7492402188181
142
1.0
143
1.025046328645055
 70
  3764
 72
     1
 73
     0
 74
     4
  7
monochrome.ctb
 75
     0
147
0.9755656618192436
 76
     1
 77
     2
 78
   300
148
-246.9897427644609
149
-39.36804549891383
100
AcDbLayout
  1
Model
 70
     1
 71
     0
 10
0.0
 20
0.0
 11
12.0
 21
9.0
 12
0.0
 22
0.0
 32
0.0
 14
1.000000000000000E+20
 24
1.000000000000000E+20
 34
1.000000000000000E+20
 15
-1.000000000000000E+20
 25
-1.000000000000000E+20
 35
-1.000000000000000E+20
146
0.0
 13
0.0
 23
0.0
 33
0.0
 16
1.0
 26
0.0
 36
0.0
 17
0.0
 27
1.0
 37
0.0
 76
     0
330
1F
331
29
1001
ACAD_PSEXT
1000
Adobe PDF Converter.pc3
1000
Adobe PDF Converter
1000
桌面\*.pdf
1000

1070
     0
  0
MATERIAL
  5
4FEE
102
{ACAD_XDICTIONARY
360
4FEF
102
}
102
{ACAD_REACTORS
330
4FE5
102
}
330
4FE5
100
AcDbMaterial
  1
ByBlock
 72
     0
 43
0.0208333333333333
 43
0.0
 43
0.0
 43
0.0
 43
0.0
 43
0.0208333333333333
 43
0.0
 43
0.0
 43
0.0
 43
0.0
 43
1.0
 43
0.0
 43
0.0
 43
0.0
 43
0.0
 43
1.0
 77
     0
 47
0.0208333333333333
 47
0.0
 47
0.0
 47
0.0
 47
0.0
 47
0.0208333333333333
 47
0.0
 47
0.0
 47
0.0
 47
0.0
 47
1.0
 47
0.0
 47
0.0
 47
0.0
 47
0.0
 47
1.0
171
     0
 49
0.0208333333333333
 49
0.0
 49
0.0
 49
0.0
 49
0.0
 49
0.0208333333333333
 49
0.0
 49
0.0
 49
0.0
 49
0.0
 49
1.0
 49
0.0
 49
0.0
 49
0.0
 49
0.0
 49
1.0
175
     0
142
0.0208333333333333
142
0.0
142
0.0
142
0.0
142
0.0
142
0.0208333333333333
142
0.0
142
0.0
142
0.0
142
0.0
142
1.0
142
0.0
142
0.0
142
0.0
142
0.0
142
1.0
179
     0
144
0.0208333333333333
144
0.0
144
0.0
144
0.0
144
0.0
144
0.0208333333333333
144
0.0
144
0.0
144
0.0
144
0.0
144
1.0
144
0.0
144
0.0
144
0.0
144
0.0
144
1.0
147
0.0208333333333333
147
0.0
147
0.0
147
0.0
147
0.0
147
0.0208333333333333
147
0.0
147
0.0
147
0.0
147
0.0
147
1.0
147
0.0
147
0.0
147
0.0
147
0.0
147
1.0
  0
MATERIAL
  5
4FE6
102
{ACAD_XDICTIONARY
360
4FE7
102
}
102
{ACAD_REACTORS
330
4FE5
102
}
330
4FE5
100
AcDbMaterial
  1
ByLayer
 72
     0
 43
0.0208333333333333
 43
0.0
 43
0.0
 43
0.0
 43
0.0
 43
0.0208333333333333
 43
0.0
 43
0.0
 43
0.0
 43
0.0
 43
1.0
 43
0.0
 43
0.0
 43
0.0
 43
0.0
 43
1.0
 77
     0
 47
0.0208333333333333
 47
0.0
 47
0.0
 47
0.0
 47
0.0
 47
0.0208333333333333
 47
0.0
 47
0.0
 47
0.0
 47
0.0
 47
1.0
 47
0.0
 47
0.0
 47
0.0
 47
0.0
 47
1.0
171
     0
 49
0.0208333333333333
 49
0.0
 49
0.0
 49
0.0
 49
0.0
 49
0.0208333333333333
 49
0.0
 49
0.0
 49
0.0
 49
0.0
 49
1.0
 49
0.0
 49
0.0
 49
0.0
 49
0.0
 49
1.0
175
     0
142
0.0208333333333333
142
0.0
142
0.0
142
0.0
142
0.0
142
0.0208333333333333
142
0.0
142
0.0
142
0.0
142
0.0
142
1.0
142
0.0
142
0.0
142
0.0
142
0.0
142
1.0
179
     0
144
0.0208333333333333
144
0.0
144
0.0
144
0.0
144
0.0
144
0.0208333333333333
144
0.0
144
0.0
144
0.0
144
0.0
144
1.0
144
0.0
144
0.0
144
0.0
144
0.0
144
1.0
147
0.0208333333333333
147
0.0
147
0.0
147
0.0
147
0.0
147
0.0208333333333333
147
0.0
147
0.0
147
0.0
147
0.0
147
1.0
147
0.0
147
0.0
147
0.0
147
0.0
147
1.0
  0
MATERIAL
  5
4FF6
102
{ACAD_XDICTIONARY
360
4FF7
102
}
102
{ACAD_REACTORS
330
4FE5
102
}
330
4FE5
100
AcDbMaterial
  1
Global
 72
     0
 43
0.0208333333333333
 43
0.0
 43
0.0
 43
0.0
 43
0.0
 43
0.0208333333333333
 43
0.0
 43
0.0
 43
0.0
 43
0.0
 43
1.0
 43
0.0
 43
0.0
 43
0.0
 43
0.0
 43
1.0
 77
     0
 47
0.0208333333333333
 47
0.0
 47
0.0
 47
0.0
 47
0.0
 47
0.0208333333333333
 47
0.0
 47
0.0
 47
0.0
 47
0.0
 47
1.0
 47
0.0
 47
0.0
 47
0.0
 47
0.0
 47
1.0
171
     0
 49
0.0208333333333333
 49
0.0
 49
0.0
 49
0.0
 49
0.0
 49
0.0208333333333333
 49
0.0
 49
0.0
 49
0.0
 49
0.0
 49
1.0
 49
0.0
 49
0.0
 49
0.0
 49
0.0
 49
1.0
175
     0
142
0.0208333333333333
142
0.0
142
0.0
142
0.0
142
0.0
142
0.0208333333333333
142
0.0
142
0.0
142
0.0
142
0.0
142
1.0
142
0.0
142
0.0
142
0.0
142
0.0
142
1.0
179
     0
144
0.0208333333333333
144
0.0
144
0.0
144
0.0
144
0.0
144
0.0208333333333333
144
0.0
144
0.0
144
0.0
144
0.0
144
1.0
144
0.0
144
0.0
144
0.0
144
0.0
144
1.0
147
0.0208333333333333
147
0.0
147
0.0
147
0.0
147
0.0
147
0.0208333333333333
147
0.0
147
0.0
147
0.0
147
0.0
147
1.0
147
0.0
147
0.0
147
0.0
147
0.0
147
1.0
  0
MLEADERSTYLE
  5
5023
102
{ACAD_REACTORS
330
5022
102
}
330
5022
100
AcDbMLeaderStyle
170
     2
171
     1
172
     0
 90
        2
 40
0.0
 41
0.0
173
     1
 91
-1056964608
340
14
 92
       -2
290
     1
 42
0.09
291
     1
 43
0.36
  3
Standard
 44
0.18
300

342
11
174
     1
178
     6
175
     1
176
     0
 93
-1056964608
 45
0.18
292
     0
297
     0
 46
0.18
 94
-1056964608
 47
1.0
 49
1.0
140
1.0
293
     1
141
0.0
294
     1
177
     0
142
1.0
295
     0
296
     0
143
0.125
1001
ACAD_MLEADERVER
1070
     2
  0
MLINESTYLE
  5
18
102
{ACAD_REACTORS
330
17
102
}
330
17
100
AcDbMlineStyle
  2
STANDARD
 70
     0
  3

 62
   256
 51
90.0
 52
90.0
 71
     2
 49
0.5
 62
   256
  6
BYLAYER
 49
-0.5
 62
   256
  6
BYLAYER
  0
ACDBPLACEHOLDER
  5
F
102
{ACAD_REACTORS
330
E
102
}
330
E
  0
MENTALRAYRENDERSETTINGS
  5
6538
102
{ACAD_REACTORS
330
6537
102
}
330
6537
100
AcDbRenderSettings
 90
        2
  1
中
290
     1
290
     1
290
     1
290
     1
  1

  1
渲染质量好于“低级”。包括纹理过滤并且强制双面处于激活状态。处理中等级反锯齿和 5 反射/折射的光线跟踪深度。
 90
        0
100
AcDbMentalRayRenderSettings
 90
        2
 90
        0
 90
        1
 70
     2
 40
3.0
 40
3.0
 40
0.0500000007450581
 40
0.0500000007450581
 40
0.0500000007450581
 40
0.0500000007450581
 70
     0
290
     0
290
     1
 90
        5
 90
        5
 90
        5
290
     0
 90
      500
290
     0
 40
1.0
 90
    10000
 90
        5
 90
        5
 90
        5
290
     0
 90
      200
290
     0
290
     0
290
     0
 40
0.1
 40
1.0
 40
1500.0
 70
     0
 70
     0
 40
10.0
 70
     0
 70
     0
290
     0
  1

 90
       32
 70
     0
 90
     1048
290
     0
 40
1.0
  0
SCALE
  5
5001
102
{ACAD_REACTORS
330
5000
102
}
330
5000
100
AcDbScale
 70
     0
300
1:1
140
1.0
141
1.0
290
     1
  0
SCALE
  5
5002
102
{ACAD_REACTORS
330
5000
102
}
330
5000
100
AcDbScale
 70
     0
300
1:2
140
1.0
141
2.0
290
     0
  0
SCALE
  5
5003
102
{ACAD_REACTORS
330
5000
102
}
330
5000
100
AcDbScale
 70
     0
300
1:4
140
1.0
141
4.0
290
     0
  0
SCALE
  5
5004
102
{ACAD_REACTORS
330
5000
102
}
330
5000
100
AcDbScale
 70
     0
300
1:5
140
1.0
141
5.0
290
     0
  0
SCALE
  5
5005
102
{ACAD_REACTORS
330
5000
102
}
330
5000
100
AcDbScale
 70
     0
300
1:8
140
1.0
141
8.0
290
     0
  0
SCALE
  5
5006
102
{ACAD_REACTORS
330
5000
102
}
330
5000
100
AcDbScale
 70
     0
300
1:10
140
1.0
141
10.0
290
     0
  0
SCALE
  5
5007
102
{ACAD_REACTORS
330
5000
102
}
330
5000
100
AcDbScale
 70
     0
300
1:16
140
1.0
141
16.0
290
     0
  0
SCALE
  5
5008
102
{ACAD_REACTORS
330
5000
102
}
330
5000
100
AcDbScale
 70
     0
300
1:20
140
1.0
141
20.0
290
     0
  0
SCALE
  5
5009
102
{ACAD_REACTORS
330
5000
102
}
330
5000
100
AcDbScale
 70
     0
300
1:30
140
1.0
141
30.0
290
     0
  0
SCALE
  5
500A
102
{ACAD_REACTORS
330
5000
102
}
330
5000
100
AcDbScale
 70
     0
300
1:40
140
1.0
141
40.0
290
     0
  0
SCALE
  5
500B
102
{ACAD_REACTORS
330
5000
102
}
330
5000
100
AcDbScale
 70
     0
300
1:50
140
1.0
141
50.0
290
     0
  0
SCALE
  5
500C
102
{ACAD_REACTORS
330
5000
102
}
330
5000
100
AcDbScale
 70
     0
300
1:100
140
1.0
141
100.0
290
     0
  0
SCALE
  5
500D
102
{ACAD_REACTORS
330
5000
102
}
330
5000
100
AcDbScale
 70
     0
300
2:1
140
2.0
141
1.0
290
     0
  0
SCALE
  5
500E
102
{ACAD_REACTORS
330
5000
102
}
330
5000
100
AcDbScale
 70
     0
300
4:1
140
4.0
141
1.0
290
     0
  0
SCALE
  5
500F
102
{ACAD_REACTORS
330
5000
102
}
330
5000
100
AcDbScale
 70
     0
300
8:1
140
8.0
141
1.0
290
     0
  0
SCALE
  5
5010
102
{ACAD_REACTORS
330
5000
102
}
330
5000
100
AcDbScale
 70
     0
300
10:1
140
10.0
141
1.0
290
     0
  0
SCALE
  5
5011
102
{ACAD_REACTORS
330
5000
102
}
330
5000
100
AcDbScale
 70
     0
300
100:1
140
100.0
141
1.0
290
     0
  0
SCALE
  5
5012
102
{ACAD_REACTORS
330
5000
102
}
330
5000
100
AcDbScale
 70
     0
300
1/128" = 1'-0"
140
0.0078125
141
12.0
290
     0
  0
SCALE
  5
5013
102
{ACAD_REACTORS
330
5000
102
}
330
5000
100
AcDbScale
 70
     0
300
1/64" = 1'-0"
140
0.015625
141
12.0
290
     0
  0
SCALE
  5
5014
102
{ACAD_REACTORS
330
5000
102
}
330
5000
100
AcDbScale
 70
     0
300
1/32" = 1'-0"
140
0.03125
141
12.0
290
     0
  0
SCALE
  5
5015
102
{ACAD_REACTORS
330
5000
102
}
330
5000
100
AcDbScale
 70
     0
300
1/16" = 1'-0"
140
0.0625
141
12.0
290
     0
  0
SCALE
  5
5016
102
{ACAD_REACTORS
330
5000
102
}
330
5000
100
AcDbScale
 70
     0
300
3/32" = 1'-0"
140
0.09375
141
12.0
290
     0
  0
SCALE
  5
5017
102
{ACAD_REACTORS
330
5000
102
}
330
5000
100
AcDbScale
 70
     0
300
1/8" = 1'-0"
140
0.125
141
12.0
290
     0
  0
SCALE
  5
5018
102
{ACAD_REACTORS
330
5000
102
}
330
5000
100
AcDbScale
 70
     0
300
3/16" = 1'-0"
140
0.1875
141
12.0
290
     0
  0
SCALE
  5
5019
102
{ACAD_REACTORS
330
5000
102
}
330
5000
100
AcDbScale
 70
     0
300
1/4" = 1'-0"
140
0.25
141
12.0
290
     0
  0
SCALE
  5
501A
102
{ACAD_REACTORS
330
5000
102
}
330
5000
100
AcDbScale
 70
     0
300
3/8" = 1'-0"
140
0.375
141
12.0
290
     0
  0
SCALE
  5
501B
102
{ACAD_REACTORS
330
5000
102
}
330
5000
100
AcDbScale
 70
     0
300
1/2" = 1'-0"
140
0.5
141
12.0
290
     0
  0
SCALE
  5
501C
102
{ACAD_REACTORS
330
5000
102
}
330
5000
100
AcDbScale
 70
     0
300
3/4" = 1'-0"
140
0.75
141
12.0
290
     0
  0
SCALE
  5
501D
102
{ACAD_REACTORS
330
5000
102
}
330
5000
100
AcDbScale
 70
     0
300
1" = 1'-0"
140
1.0
141
12.0
290
     0
  0
SCALE
  5
501E
102
{ACAD_REACTORS
330
5000
102
}
330
5000
100
AcDbScale
 70
     0
300
1-1/2" = 1'-0"
140
1.5
141
12.0
290
     0
  0
SCALE
  5
501F
102
{ACAD_REACTORS
330
5000
102
}
330
5000
100
AcDbScale
 70
     0
300
3" = 1'-0"
140
3.0
141
12.0
290
     0
  0
SCALE
  5
5020
102
{ACAD_REACTORS
330
5000
102
}
330
5000
100
AcDbScale
 70
     0
300
6" = 1'-0"
140
6.0
141
12.0
290
     0
  0
SCALE
  5
5021
102
{ACAD_REACTORS
330
5000
102
}
330
5000
100
AcDbScale
 70
     0
300
1'-0" = 1'-0"
140
12.0
141
12.0
290
     0
  0
TABLESTYLE
  5
4FFF
102
{ACAD_XDICTIONARY
360
50D6
102
}
102
{ACAD_REACTORS
330
4FE3
102
}
330
4FE3
100
AcDbTableStyle
  3
Standard
 70
     0
 71
     0
 40
0.06
 41
0.06
280
     0
281
     0
  7
Standard
140
0.18
170
     2
 62
     0
 63
     7
283
     0
 90
      512
 91
        0
  1

274
    -2
284
     1
 64
     0
275
    -2
285
     1
 65
     0
276
    -2
286
     1
 66
     0
277
    -2
287
     1
 67
     0
278
    -2
288
     1
 68
     0
279
    -2
289
     1
 69
     0
  7
Standard
140
0.25
170
     5
 62
     0
 63
     7
283
     0
 90
      512
 91
        0
  1

274
    -2
284
     1
 64
     0
275
    -2
285
     1
 65
     0
276
    -2
286
     1
 66
     0
277
    -2
287
     1
 67
     0
278
    -2
288
     1
 68
     0
279
    -2
289
     1
 69
     0
  7
Standard
140
0.18
170
     5
 62
     0
 63
     7
283
     0
 90
      512
 91
        0
  1

274
    -2
284
     1
 64
     0
275
    -2
285
     1
 65
     0
276
    -2
286
     1
 66
     0
277
    -2
287
     1
 67
     0
278
    -2
288
     1
 68
     0
279
    -2
289
     1
 69
     0
  0
VISUALSTYLE
  5
2F
102
{ACAD_REACTORS
330
2A
102
}
330
2A
100
AcDbVisualStyle
  2
2dWireframe
 70
     4
 71
     0
 72
     2
 73
     0
 90
        0
 40
-0.6
 41
-30.0
 62
     5
 63
     7
 74
     1
 91
        4
 64
     7
 65
   257
 75
     1
175
     1
 42
1.0
 92
        0
 66
   257
 43
1.0
 76
     1
 77
     6
 78
     2
 67
     7
 79
     5
170
     0
171
     0
290
     0
174
     0
 93
        1
 44
0.0
173
     0
291
     0
 45
0.0
1001
ACAD
1000
AcDbSavedByObjectVersion
1070
     0
1000
AcDbSavedByObjectVersion
1070
     0
1000
AcDbSavedByObjectVersion
1070
     0
1000
AcDbSavedByObjectVersion
1070
     0
1000
AcDbSavedByObjectVersion
1070
     0
1000
AcDbSavedByObjectVersion
1070
     0
1000
AcDbSavedByObjectVersion
1070
     0
1000
AcDbSavedByObjectVersion
1070
     0
1000
AcDbSavedByObjectVersion
1070
     0
1000
AcDbSavedByObjectVersion
1070
     0
1000
AcDbSavedByObjectVersion
1070
     0
1000
AcDbSavedByObjectVersion
1070
     0
1000
AcDbSavedByObjectVersion
1070
     0
1000
AcDbSavedByObjectVersion
1070
     0
1000
AcDbSavedByObjectVersion
1070
     0
1000
AcDbSavedByObjectVersion
1070
     0
1000
AcDbSavedByObjectVersion
1070
     0
1000
AcDbSavedByObjectVersion
1070
     0
1000
AcDbSavedByObjectVersion
1070
     0
1000
AcDbSavedByObjectVersion
1070
     0
1000
AcDbSavedByObjectVersion
1070
     0
1000
AcDbSavedByObjectVersion
1070
     0
1000
AcDbSavedByObjectVersion
1070
     0
1000
AcDbSavedByObjectVersion
1070
     0
1000
AcDbSavedByObjectVersion
1070
     0
1000
AcDbSavedByObjectVersion
1070
     0
1000
AcDbSavedByObjectVersion
1070
     0
1000
AcDbSavedByObjectVersion
1070
     0
1000
AcDbSavedByObjectVersion
1070
     0
1000
AcDbSavedByObjectVersion
1070
     0
1000
AcDbSavedByObjectVersion
1070
     0
1000
AcDbSavedByObjectVersion
1070
     0
1000
AcDbSavedByObjectVersion
1070
     0
1000
AcDbSavedByObjectVersion
1070
     0
1000
AcDbSavedByObjectVersion
1070
     0
1000
AcDbSavedByObjectVersion
1070
     0
1000
AcDbSavedByObjectVersion
1070
     0
1000
AcDbSavedByObjectVersion
1070
     0
1000
AcDbSavedByObjectVersion
1070
     0
1000
AcDbSavedByObjectVersion
1070
     0
1000
AcDbSavedByObjectVersion
1070
     0
1000
AcDbSavedByObjectVersion
1070
     0
1000
AcDbSavedByObjectVersion
1070
     0
1000
AcDbSavedByObjectVersion
1070
     0
1000
AcDbSavedByObjectVersion
1070
     0
1000
AcDbSavedByObjectVersion
1070
     0
1000
AcDbSavedByObjectVersion
1070
     0
1000
AcDbSavedByObjectVersion
1070
     0
1000
AcDbSavedByObjectVersion
1070
     0
1000
AcDbSavedByObjectVersion
1070
     0
1000
AcDbSavedByObjectVersion
1070
     0
1000
AcDbSavedByObjectVersion
1070
     0
1000
AcDbSavedByObjectVersion
1070
     0
  0
VISUALSTYLE
  5
31
102
{ACAD_REACTORS
330
2A
102
}
330
2A
100
AcDbVisualStyle
  2
3D Hidden
 70
     6
 71
     1
 72
     2
 73
     2
 90
        0
 40
-0.6
 41
-30.0
 62
     5
 63
     7
 74
     2
 91
        2
 64
     7
 65
   257
 75
     2
175
     1
 42
40.0
 92
        0
 66
   257
 43
1.0
 76
     1
 77
     6
 78
     2
 67
     7
 79
     3
170
     0
171
     0
290
     0
174
     0
 93
        1
 44
0.0
173
     0
291
     0
 45
0.0
1001
ACAD
1000
AcDbSavedByObjectVersion
1070
     0
1000
AcDbSavedByObjectVersion
1070
     0
1000
AcDbSavedByObjectVersion
1070
     0
1000
AcDbSavedByObjectVersion
1070
     0
1000
AcDbSavedByObjectVersion
1070
     0
1000
AcDbSavedByObjectVersion
1070
     0
1000
AcDbSavedByObjectVersion
1070
     0
1000
AcDbSavedByObjectVersion
1070
     0
1000
AcDbSavedByObjectVersion
1070
     0
1000
AcDbSavedByObjectVersion
1070
     0
1000
AcDbSavedByObjectVersion
1070
     0
1000
AcDbSavedByObjectVersion
1070
     0
1000
AcDbSavedByObjectVersion
1070
     0
1000
AcDbSavedByObjectVersion
1070
     0
1000
AcDbSavedByObjectVersion
1070
     0
1000
AcDbSavedByObjectVersion
1070
     0
1000
AcDbSavedByObjectVersion
1070
     0
1000
AcDbSavedByObjectVersion
1070
     0
1000
AcDbSavedByObjectVersion
1070
     0
1000
AcDbSavedByObjectVersion
1070
     0
1000
AcDbSavedByObjectVersion
1070
     0
1000
AcDbSavedByObjectVersion
1070
     0
1000
AcDbSavedByObjectVersion
1070
     0
1000
AcDbSavedByObjectVersion
1070
     0
1000
AcDbSavedByObjectVersion
1070
     0
1000
AcDbSavedByObjectVersion
1070
     0
1000
AcDbSavedByObjectVersion
1070
     0
1000
AcDbSavedByObjectVersion
1070
     0
1000
AcDbSavedByObjectVersion
1070
     0
1000
AcDbSavedByObjectVersion
1070
     0
1000
AcDbSavedByObjectVersion
1070
     0
1000
AcDbSavedByObjectVersion
1070
     0
1000
AcDbSavedByObjectVersion
1070
     0
1000
AcDbSavedByObjectVersion
1070
     0
1000
AcDbSavedByObjectVersion
1070
     0
1000
AcDbSavedByObjectVersion
1070
     0
1000
AcDbSavedByObjectVersion
1070
     0
1000
AcDbSavedByObjectVersion
1070
     0
1000
AcDbSavedByObjectVersion
1070
     0
1000
AcDbSavedByObjectVersion
1070
     0
1000
AcDbSavedByObjectVersion
1070
     0
1000
AcDbSavedByObjectVersion
1070
     0
1000
AcDbSavedByObjectVersion
1070
     0
1000
AcDbSavedByObjectVersion
1070
     0
1000
AcDbSavedByObjectVersion
1070
     0
1000
AcDbSavedByObjectVersion
1070
     0
1000
AcDbSavedByObjectVersion
1070
     0
1000
AcDbSavedByObjectVersion
1070
     0
1000
AcDbSavedByObjectVersion
1070
     0
1000
AcDbSavedByObjectVersion
1070
     0
1000
AcDbSavedByObjectVersion
1070
     0
1000
AcDbSavedByObjectVersion
1070
     0
1000
AcDbSavedByObjectVersion
1070
     0
  0
VISUALSTYLE
  5
30
102
{ACAD_REACTORS
330
2A
102
}
330
2A
100
AcDbVisualStyle
  2
3dWireframe
 70
     5
 71
     0
 72
     2
 73
     0
 90
        0
 40
-0.6
 41
-30.0
 62
     5
 63
     7
 74
     1
 91
        4
 64
     7
 65
   257
 75
     1
175
     1
 42
1.0
 92
        0
 66
   257
 43
1.0
 76
     1
 77
     6
 78
     2
 67
     7
 79
     5
170
     0
171
     0
290
     0
174
     0
 93
        1
 44
0.0
173
     0
291
     0
 45
0.0
1001
ACAD
1000
AcDbSavedByObjectVersion
1070
     0
1000
AcDbSavedByObjectVersion
1070
     0
1000
AcDbSavedByObjectVersion
1070
     0
1000
AcDbSavedByObjectVersion
1070
     0
1000
AcDbSavedByObjectVersion
1070
     0
1000
AcDbSavedByObjectVersion
1070
     0
1000
AcDbSavedByObjectVersion
1070
     0
1000
AcDbSavedByObjectVersion
1070
     0
1000
AcDbSavedByObjectVersion
1070
     0
1000
AcDbSavedByObjectVersion
1070
     0
1000
AcDbSavedByObjectVersion
1070
     0
1000
AcDbSavedByObjectVersion
1070
     0
1000
AcDbSavedByObjectVersion
1070
     0
1000
AcDbSavedByObjectVersion
1070
     0
1000
AcDbSavedByObjectVersion
1070
     0
1000
AcDbSavedByObjectVersion
1070
     0
1000
AcDbSavedByObjectVersion
1070
     0
1000
AcDbSavedByObjectVersion
1070
     0
1000
AcDbSavedByObjectVersion
1070
     0
1000
AcDbSavedByObjectVersion
1070
     0
1000
AcDbSavedByObjectVersion
1070
     0
1000
AcDbSavedByObjectVersion
1070
     0
1000
AcDbSavedByObjectVersion
1070
     0
1000
AcDbSavedByObjectVersion
1070
     0
1000
AcDbSavedByObjectVersion
1070
     0
1000
AcDbSavedByObjectVersion
1070
     0
1000
AcDbSavedByObjectVersion
1070
     0
1000
AcDbSavedByObjectVersion
1070
     0
1000
AcDbSavedByObjectVersion
1070
     0
1000
AcDbSavedByObjectVersion
1070
     0
1000
AcDbSavedByObjectVersion
1070
     0
1000
AcDbSavedByObjectVersion
1070
     0
1000
AcDbSavedByObjectVersion
1070
     0
1000
AcDbSavedByObjectVersion
1070
     0
1000
AcDbSavedByObjectVersion
1070
     0
1000
AcDbSavedByObjectVersion
1070
     0
1000
AcDbSavedByObjectVersion
1070
     0
1000
AcDbSavedByObjectVersion
1070
     0
1000
AcDbSavedByObjectVersion
1070
     0
1000
AcDbSavedByObjectVersion
1070
     0
1000
AcDbSavedByObjectVersion
1070
     0
1000
AcDbSavedByObjectVersion
1070
     0
1000
AcDbSavedByObjectVersion
1070
     0
1000
AcDbSavedByObjectVersion
1070
     0
1000
AcDbSavedByObjectVersion
1070
     0
1000
AcDbSavedByObjectVersion
1070
     0
1000
AcDbSavedByObjectVersion
1070
     0
1000
AcDbSavedByObjectVersion
1070
     0
1000
AcDbSavedByObjectVersion
1070
     0
1000
AcDbSavedByObjectVersion
1070
     0
1000
AcDbSavedByObjectVersion
1070
     0
1000
AcDbSavedByObjectVersion
1070
     0
1000
AcDbSavedByObjectVersion
1070
     0
  0
VISUALSTYLE
  5
32
102
{ACAD_REACTORS
330
2A
102
}
330
2A
100
AcDbVisualStyle
  2
Basic
 70
     7
 71
     1
 72
     0
 73
     1
 90
        0
 40
-0.6
 41
-30.0
 62
     5
 63
     7
 74
     0
 91
        4
 64
     7
 65
   257
 75
     1
175
     1
 42
1.0
 92
        8
 66
     7
 43
1.0
 76
     1
 77
     6
 78
     2
 67
     7
 79
     5
170
     0
171
     0
290
     0
174
     0
 93
        1
 44
0.0
173
     0
291
     1
 45
0.0
1001
ACAD
1000
AcDbSavedByObjectVersion
1070
     0
1000
AcDbSavedByObjectVersion
1070
     0
1000
AcDbSavedByObjectVersion
1070
     0
1000
AcDbSavedByObjectVersion
1070
     0
1000
AcDbSavedByObjectVersion
1070
     0
1000
AcDbSavedByObjectVersion
1070
     0
1000
AcDbSavedByObjectVersion
1070
     0
1000
AcDbSavedByObjectVersion
1070
     0
1000
AcDbSavedByObjectVersion
1070
     0
1000
AcDbSavedByObjectVersion
1070
     0
1000
AcDbSavedByObjectVersion
1070
     0
1000
AcDbSavedByObjectVersion
1070
     0
1000
AcDbSavedByObjectVersion
1070
     0
1000
AcDbSavedByObjectVersion
1070
     0
1000
AcDbSavedByObjectVersion
1070
     0
1000
AcDbSavedByObjectVersion
1070
     0
1000
AcDbSavedByObjectVersion
1070
     0
1000
AcDbSavedByObjectVersion
1070
     0
1000
AcDbSavedByObjectVersion
1070
     0
1000
AcDbSavedByObjectVersion
1070
     0
1000
AcDbSavedByObjectVersion
1070
     0
1000
AcDbSavedByObjectVersion
1070
     0
1000
AcDbSavedByObjectVersion
1070
     0
1000
AcDbSavedByObjectVersion
1070
     0
1000
AcDbSavedByObjectVersion
1070
     0
1000
AcDbSavedByObjectVersion
1070
     0
1000
AcDbSavedByObjectVersion
1070
     0
1000
AcDbSavedByObjectVersion
1070
     0
1000
AcDbSavedByObjectVersion
1070
     0
1000
AcDbSavedByObjectVersion
1070
     0
1000
AcDbSavedByObjectVersion
1070
     0
1000
AcDbSavedByObjectVersion
1070
     0
1000
AcDbSavedByObjectVersion
1070
     0
1000
AcDbSavedByObjectVersion
1070
     0
1000
AcDbSavedByObjectVersion
1070
     0
1000
AcDbSavedByObjectVersion
1070
     0
1000
AcDbSavedByObjectVersion
1070
     0
1000
AcDbSavedByObjectVersion
1070
     0
1000
AcDbSavedByObjectVersion
1070
     0
1000
AcDbSavedByObjectVersion
1070
     0
1000
AcDbSavedByObjectVersion
1070
     0
1000
AcDbSavedByObjectVersion
1070
     0
1000
AcDbSavedByObjectVersion
1070
     0
1000
AcDbSavedByObjectVersion
1070
     0
1000
AcDbSavedByObjectVersion
1070
     0
1000
AcDbSavedByObjectVersion
1070
     0
1000
AcDbSavedByObjectVersion
1070
     0
1000
AcDbSavedByObjectVersion
1070
     0
1000
AcDbSavedByObjectVersion
1070
     0
1000
AcDbSavedByObjectVersion
1070
     0
1000
AcDbSavedByObjectVersion
1070
     0
1000
AcDbSavedByObjectVersion
1070
     0
1000
AcDbSavedByObjectVersion
1070
     0
  0
VISUALSTYLE
  5
36
102
{ACAD_REACTORS
330
2A
102
}
330
2A
100
AcDbVisualStyle
  2
Brighten
 70
    12
 71
     2
 72
     2
 73
     0
 90
        0
 40
-0.6
 41
-30.0
 62
     5
 63
     7
 74
     1
 91
        4
 64
     7
 65
   257
 75
     1
175
     1
 42
1.0
 92
        8
 66
     7
 43
1.0
 76
     1
 77
     6
 78
     2
 67
     7
 79
     5
170
     0
171
     0
290
     0
174
     0
 93
        1
 44
50.0
173
     0
291
     1
 45
0.0
1001
ACAD
1000
AcDbSavedByObjectVersion
1070
     0
1000
AcDbSavedByObjectVersion
1070
     0
1000
AcDbSavedByObjectVersion
1070
     0
1000
AcDbSavedByObjectVersion
1070
     0
1000
AcDbSavedByObjectVersion
1070
     0
1000
AcDbSavedByObjectVersion
1070
     0
1000
AcDbSavedByObjectVersion
1070
     0
1000
AcDbSavedByObjectVersion
1070
     0
1000
AcDbSavedByObjectVersion
1070
     0
1000
AcDbSavedByObjectVersion
1070
     0
1000
AcDbSavedByObjectVersion
1070
     0
1000
AcDbSavedByObjectVersion
1070
     0
1000
AcDbSavedByObjectVersion
1070
     0
1000
AcDbSavedByObjectVersion
1070
     0
1000
AcDbSavedByObjectVersion
1070
     0
1000
AcDbSavedByObjectVersion
1070
     0
1000
AcDbSavedByObjectVersion
1070
     0
1000
AcDbSavedByObjectVersion
1070
     0
1000
AcDbSavedByObjectVersion
1070
     0
1000
AcDbSavedByObjectVersion
1070
     0
1000
AcDbSavedByObjectVersion
1070
     0
1000
AcDbSavedByObjectVersion
1070
     0
1000
AcDbSavedByObjectVersion
1070
     0
1000
AcDbSavedByObjectVersion
1070
     0
1000
AcDbSavedByObjectVersion
1070
     0
1000
AcDbSavedByObjectVersion
1070
     0
1000
AcDbSavedByObjectVersion
1070
     0
1000
AcDbSavedByObjectVersion
1070
     0
1000
AcDbSavedByObjectVersion
1070
     0
1000
AcDbSavedByObjectVersion
1070
     0
1000
AcDbSavedByObjectVersion
1070
     0
1000
AcDbSavedByObjectVersion
1070
     0
1000
AcDbSavedByObjectVersion
1070
     0
1000
AcDbSavedByObjectVersion
1070
     0
1000
AcDbSavedByObjectVersion
1070
     0
1000
AcDbSavedByObjectVersion
1070
     0
1000
AcDbSavedByObjectVersion
1070
     0
1000
AcDbSavedByObjectVersion
1070
     0
1000
AcDbSavedByObjectVersion
1070
     0
1000
AcDbSavedByObjectVersion
1070
     0
1000
AcDbSavedByObjectVersion
1070
     0
1000
AcDbSavedByObjectVersion
1070
     0
1000
AcDbSavedByObjectVersion
1070
     0
1000
AcDbSavedByObjectVersion
1070
     0
1000
AcDbSavedByObjectVersion
1070
     0
1000
AcDbSavedByObjectVersion
1070
     0
1000
AcDbSavedByObjectVersion
1070
     0
1000
AcDbSavedByObjectVersion
1070
     0
1000
AcDbSavedByObjectVersion
1070
     0
1000
AcDbSavedByObjectVersion
1070
     0
1000
AcDbSavedByObjectVersion
1070
     0
1000
AcDbSavedByObjectVersion
1070
     0
1000
AcDbSavedByObjectVersion
1070
     0
  0
VISUALSTYLE
  5
3A
102
{ACAD_REACTORS
330
2A
102
}
330
2A
100
AcDbVisualStyle
  2
ColorChange
 70
    16
 71
     2
 72
     2
 73
     3
 90
        0
 40
-0.6
 41
-30.0
 62
     5
 63
     8
 74
     1
 91
        4
 64
     7
 65
   257
 75
     1
175
     1
 42
1.0
 92
        8
 66
     8
 43
1.0
 76
     1
 77
     6
 78
     2
 67
     7
 79
     5
170
     0
171
     0
290
     0
174
     0
 93
        1
 44
0.0
173
     0
291
     1
 45
0.0
1001
ACAD
1000
AcDbSavedByObjectVersion
1070
     0
1000
AcDbSavedByObjectVersion
1070
     0
1000
AcDbSavedByObjectVersion
1070
     0
1000
AcDbSavedByObjectVersion
1070
     0
1000
AcDbSavedByObjectVersion
1070
     0
1000
AcDbSavedByObjectVersion
1070
     0
1000
AcDbSavedByObjectVersion
1070
     0
1000
AcDbSavedByObjectVersion
1070
     0
1000
AcDbSavedByObjectVersion
1070
     0
1000
AcDbSavedByObjectVersion
1070
     0
1000
AcDbSavedByObjectVersion
1070
     0
1000
AcDbSavedByObjectVersion
1070
     0
1000
AcDbSavedByObjectVersion
1070
     0
1000
AcDbSavedByObjectVersion
1070
     0
1000
AcDbSavedByObjectVersion
1070
     0
1000
AcDbSavedByObjectVersion
1070
     0
1000
AcDbSavedByObjectVersion
1070
     0
1000
AcDbSavedByObjectVersion
1070
     0
1000
AcDbSavedByObjectVersion
1070
     0
1000
AcDbSavedByObjectVersion
1070
     0
1000
AcDbSavedByObjectVersion
1070
     0
1000
AcDbSavedByObjectVersion
1070
     0
1000
AcDbSavedByObjectVersion
1070
     0
1000
AcDbSavedByObjectVersion
1070
     0
1000
AcDbSavedByObjectVersion
1070
     0
1000
AcDbSavedByObjectVersion
1070
     0
1000
AcDbSavedByObjectVersion
1070
     0
1000
AcDbSavedByObjectVersion
1070
     0
1000
AcDbSavedByObjectVersion
1070
     0
1000
AcDbSavedByObjectVersion
1070
     0
1000
AcDbSavedByObjectVersion
1070
     0
1000
AcDbSavedByObjectVersion
1070
     0
1000
AcDbSavedByObjectVersion
1070
     0
1000
AcDbSavedByObjectVersion
1070
     0
1000
AcDbSavedByObjectVersion
1070
     0
1000
AcDbSavedByObjectVersion
1070
     0
1000
AcDbSavedByObjectVersion
1070
     0
1000
AcDbSavedByObjectVersion
1070
     0
1000
AcDbSavedByObjectVersion
1070
     0
1000
AcDbSavedByObjectVersion
1070
     0
1000
AcDbSavedByObjectVersion
1070
     0
1000
AcDbSavedByObjectVersion
1070
     0
1000
AcDbSavedByObjectVersion
1070
     0
1000
AcDbSavedByObjectVersion
1070
     0
1000
AcDbSavedByObjectVersion
1070
     0
1000
AcDbSavedByObjectVersion
1070
     0
1000
AcDbSavedByObjectVersion
1070
     0
1000
AcDbSavedByObjectVersion
1070
     0
1000
AcDbSavedByObjectVersion
1070
     0
1000
AcDbSavedByObjectVersion
1070
     0
1000
AcDbSavedByObjectVersion
1070
     0
1000
AcDbSavedByObjectVersion
1070
     0
1000
AcDbSavedByObjectVersion
1070
     0
  0
VISUALSTYLE
  5
34
102
{ACAD_REACTORS
330
2A
102
}
330
2A
100
AcDbVisualStyle
  2
Conceptual
 70
     9
 71
     3
 72
     2
 73
     0
 90
        0
 40
-0.6
 41
-30.0
 62
     5
 63
     7
 74
     2
 91
        2
 64
     7
 65
   257
 75
     1
175
     1
 42
40.0
 92
        8
 66
     7
 43
1.0
 76
     1
 77
     6
 78
     2
 67
     7
 79
     3
170
     0
171
     0
290
     0
174
     0
 93
        1
 44
0.0
173
     0
291
     0
 45
0.0
1001
ACAD
1000
AcDbSavedByObjectVersion
1070
     0
1000
AcDbSavedByObjectVersion
1070
     0
1000
AcDbSavedByObjectVersion
1070
     0
1000
AcDbSavedByObjectVersion
1070
     0
1000
AcDbSavedByObjectVersion
1070
     0
1000
AcDbSavedByObjectVersion
1070
     0
1000
AcDbSavedByObjectVersion
1070
     0
1000
AcDbSavedByObjectVersion
1070
     0
1000
AcDbSavedByObjectVersion
1070
     0
1000
AcDbSavedByObjectVersion
1070
     0
1000
AcDbSavedByObjectVersion
1070
     0
1000
AcDbSavedByObjectVersion
1070
     0
1000
AcDbSavedByObjectVersion
1070
     0
1000
AcDbSavedByObjectVersion
1070
     0
1000
AcDbSavedByObjectVersion
1070
     0
1000
AcDbSavedByObjectVersion
1070
     0
1000
AcDbSavedByObjectVersion
1070
     0
1000
AcDbSavedByObjectVersion
1070
     0
1000
AcDbSavedByObjectVersion
1070
     0
1000
AcDbSavedByObjectVersion
1070
     0
1000
AcDbSavedByObjectVersion
1070
     0
1000
AcDbSavedByObjectVersion
1070
     0
1000
AcDbSavedByObjectVersion
1070
     0
1000
AcDbSavedByObjectVersion
1070
     0
1000
AcDbSavedByObjectVersion
1070
     0
1000
AcDbSavedByObjectVersion
1070
     0
1000
AcDbSavedByObjectVersion
1070
     0
1000
AcDbSavedByObjectVersion
1070
     0
1000
AcDbSavedByObjectVersion
1070
     0
1000
AcDbSavedByObjectVersion
1070
     0
1000
AcDbSavedByObjectVersion
1070
     0
1000
AcDbSavedByObjectVersion
1070
     0
1000
AcDbSavedByObjectVersion
1070
     0
1000
AcDbSavedByObjectVersion
1070
     0
1000
AcDbSavedByObjectVersion
1070
     0
1000
AcDbSavedByObjectVersion
1070
     0
1000
AcDbSavedByObjectVersion
1070
     0
1000
AcDbSavedByObjectVersion
1070
     0
1000
AcDbSavedByObjectVersion
1070
     0
1000
AcDbSavedByObjectVersion
1070
     0
1000
AcDbSavedByObjectVersion
1070
     0
1000
AcDbSavedByObjectVersion
1070
     0
1000
AcDbSavedByObjectVersion
1070
     0
1000
AcDbSavedByObjectVersion
1070
     0
1000
AcDbSavedByObjectVersion
1070
     0
1000
AcDbSavedByObjectVersion
1070
     0
1000
AcDbSavedByObjectVersion
1070
     0
1000
AcDbSavedByObjectVersion
1070
     0
1000
AcDbSavedByObjectVersion
1070
     0
1000
AcDbSavedByObjectVersion
1070
     0
1000
AcDbSavedByObjectVersion
1070
     0
1000
AcDbSavedByObjectVersion
1070
     0
1000
AcDbSavedByObjectVersion
1070
     0
  0
VISUALSTYLE
  5
35
102
{ACAD_REACTORS
330
2A
102
}
330
2A
100
AcDbVisualStyle
  2
Dim
 70
    11
 71
     2
 72
     2
 73
     0
 90
        0
 40
-0.6
 41
-30.0
 62
     5
 63
     7
 74
     1
 91
        4
 64
     7
 65
   257
 75
     1
175
     1
 42
1.0
 92
        8
 66
     7
 43
1.0
 76
     1
 77
     6
 78
     2
 67
     7
 79
     5
170
     0
171
     0
290
     0
174
     0
 93
        1
 44
-50.0
173
     0
291
     1
 45
0.0
1001
ACAD
1000
AcDbSavedByObjectVersion
1070
     0
1000
AcDbSavedByObjectVersion
1070
     0
1000
AcDbSavedByObjectVersion
1070
     0
1000
AcDbSavedByObjectVersion
1070
     0
1000
AcDbSavedByObjectVersion
1070
     0
1000
AcDbSavedByObjectVersion
1070
     0
1000
AcDbSavedByObjectVersion
1070
     0
1000
AcDbSavedByObjectVersion
1070
     0
1000
AcDbSavedByObjectVersion
1070
     0
1000
AcDbSavedByObjectVersion
1070
     0
1000
AcDbSavedByObjectVersion
1070
     0
1000
AcDbSavedByObjectVersion
1070
     0
1000
AcDbSavedByObjectVersion
1070
     0
1000
AcDbSavedByObjectVersion
1070
     0
1000
AcDbSavedByObjectVersion
1070
     0
1000
AcDbSavedByObjectVersion
1070
     0
1000
AcDbSavedByObjectVersion
1070
     0
1000
AcDbSavedByObjectVersion
1070
     0
1000
AcDbSavedByObjectVersion
1070
     0
1000
AcDbSavedByObjectVersion
1070
     0
1000
AcDbSavedByObjectVersion
1070
     0
1000
AcDbSavedByObjectVersion
1070
     0
1000
AcDbSavedByObjectVersion
1070
     0
1000
AcDbSavedByObjectVersion
1070
     0
1000
AcDbSavedByObjectVersion
1070
     0
1000
AcDbSavedByObjectVersion
1070
     0
1000
AcDbSavedByObjectVersion
1070
     0
1000
AcDbSavedByObjectVersion
1070
     0
1000
AcDbSavedByObjectVersion
1070
     0
1000
AcDbSavedByObjectVersion
1070
     0
1000
AcDbSavedByObjectVersion
1070
     0
1000
AcDbSavedByObjectVersion
1070
     0
1000
AcDbSavedByObjectVersion
1070
     0
1000
AcDbSavedByObjectVersion
1070
     0
1000
AcDbSavedByObjectVersion
1070
     0
1000
AcDbSavedByObjectVersion
1070
     0
1000
AcDbSavedByObjectVersion
1070
     0
1000
AcDbSavedByObjectVersion
1070
     0
1000
AcDbSavedByObjectVersion
1070
     0
1000
AcDbSavedByObjectVersion
1070
     0
1000
AcDbSavedByObjectVersion
1070
     0
1000
AcDbSavedByObjectVersion
1070
     0
1000
AcDbSavedByObjectVersion
1070
     0
1000
AcDbSavedByObjectVersion
1070
     0
1000
AcDbSavedByObjectVersion
1070
     0
1000
AcDbSavedByObjectVersion
1070
     0
1000
AcDbSavedByObjectVersion
1070
     0
1000
AcDbSavedByObjectVersion
1070
     0
1000
AcDbSavedByObjectVersion
1070
     0
1000
AcDbSavedByObjectVersion
1070
     0
1000
AcDbSavedByObjectVersion
1070
     0
1000
AcDbSavedByObjectVersion
1070
     0
1000
AcDbSavedByObjectVersion
1070
     0
  0
VISUALSTYLE
  5
39
102
{ACAD_REACTORS
330
2A
102
}
330
2A
100
AcDbVisualStyle
  2
Facepattern
 70
    15
 71
     2
 72
     2
 73
     0
 90
        0
 40
-0.6
 41
-30.0
 62
     5
 63
     7
 74
     1
 91
        4
 64
     7
 65
   257
 75
     1
175
     1
 42
1.0
 92
        8
 66
     7
 43
1.0
 76
     1
 77
     6
 78
     2
 67
     7
 79
     5
170
     0
171
     0
290
     0
174
     0
 93
        1
 44
0.0
173
     0
291
     1
 45
0.0
1001
ACAD
1000
AcDbSavedByObjectVersion
1070
     0
1000
AcDbSavedByObjectVersion
1070
     0
1000
AcDbSavedByObjectVersion
1070
     0
1000
AcDbSavedByObjectVersion
1070
     0
1000
AcDbSavedByObjectVersion
1070
     0
1000
AcDbSavedByObjectVersion
1070
     0
1000
AcDbSavedByObjectVersion
1070
     0
1000
AcDbSavedByObjectVersion
1070
     0
1000
AcDbSavedByObjectVersion
1070
     0
1000
AcDbSavedByObjectVersion
1070
     0
1000
AcDbSavedByObjectVersion
1070
     0
1000
AcDbSavedByObjectVersion
1070
     0
1000
AcDbSavedByObjectVersion
1070
     0
1000
AcDbSavedByObjectVersion
1070
     0
1000
AcDbSavedByObjectVersion
1070
     0
1000
AcDbSavedByObjectVersion
1070
     0
1000
AcDbSavedByObjectVersion
1070
     0
1000
AcDbSavedByObjectVersion
1070
     0
1000
AcDbSavedByObjectVersion
1070
     0
1000
AcDbSavedByObjectVersion
1070
     0
1000
AcDbSavedByObjectVersion
1070
     0
1000
AcDbSavedByObjectVersion
1070
     0
1000
AcDbSavedByObjectVersion
1070
     0
1000
AcDbSavedByObjectVersion
1070
     0
1000
AcDbSavedByObjectVersion
1070
     0
1000
AcDbSavedByObjectVersion
1070
     0
1000
AcDbSavedByObjectVersion
1070
     0
1000
AcDbSavedByObjectVersion
1070
     0
1000
AcDbSavedByObjectVersion
1070
     0
1000
AcDbSavedByObjectVersion
1070
     0
1000
AcDbSavedByObjectVersion
1070
     0
1000
AcDbSavedByObjectVersion
1070
     0
1000
AcDbSavedByObjectVersion
1070
     0
1000
AcDbSavedByObjectVersion
1070
     0
1000
AcDbSavedByObjectVersion
1070
     0
1000
AcDbSavedByObjectVersion
1070
     0
1000
AcDbSavedByObjectVersion
1070
     0
1000
AcDbSavedByObjectVersion
1070
     0
1000
AcDbSavedByObjectVersion
1070
     0
1000
AcDbSavedByObjectVersion
1070
     0
1000
AcDbSavedByObjectVersion
1070
     0
1000
AcDbSavedByObjectVersion
1070
     0
1000
AcDbSavedByObjectVersion
1070
     0
1000
AcDbSavedByObjectVersion
1070
     0
1000
AcDbSavedByObjectVersion
1070
     0
1000
AcDbSavedByObjectVersion
1070
     0
1000
AcDbSavedByObjectVersion
1070
     0
1000
AcDbSavedByObjectVersion
1070
     0
1000
AcDbSavedByObjectVersion
1070
     0
1000
AcDbSavedByObjectVersion
1070
     0
1000
AcDbSavedByObjectVersion
1070
     0
1000
AcDbSavedByObjectVersion
1070
     0
1000
AcDbSavedByObjectVersion
1070
     0
  0
VISUALSTYLE
  5
2B
102
{ACAD_REACTORS
330
2A
102
}
330
2A
100
AcDbVisualStyle
  2
Flat
 70
     0
 71
     2
 72
     1
 73
     1
 90
        2
 40
-0.6
 41
30.0
 62
     5
 63
     7
 74
     0
 91
        4
 64
     7
 65
   257
 75
     1
175
     1
 42
1.0
 92
        8
 66
     7
 43
1.0
 76
     1
 77
     6
 78
     2
 67
     7
 79
     5
170
     0
171
     0
290
     0
174
     0
 93
       13
 44
0.0
173
     0
291
     1
 45
0.0
1001
ACAD
1000
AcDbSavedByObjectVersion
1070
     0
1000
AcDbSavedByObjectVersion
1070
     0
1000
AcDbSavedByObjectVersion
1070
     0
1000
AcDbSavedByObjectVersion
1070
     0
1000
AcDbSavedByObjectVersion
1070
     0
1000
AcDbSavedByObjectVersion
1070
     0
1000
AcDbSavedByObjectVersion
1070
     0
1000
AcDbSavedByObjectVersion
1070
     0
1000
AcDbSavedByObjectVersion
1070
     0
1000
AcDbSavedByObjectVersion
1070
     0
1000
AcDbSavedByObjectVersion
1070
     0
1000
AcDbSavedByObjectVersion
1070
     0
1000
AcDbSavedByObjectVersion
1070
     0
1000
AcDbSavedByObjectVersion
1070
     0
1000
AcDbSavedByObjectVersion
1070
     0
1000
AcDbSavedByObjectVersion
1070
     0
1000
AcDbSavedByObjectVersion
1070
     0
1000
AcDbSavedByObjectVersion
1070
     0
1000
AcDbSavedByObjectVersion
1070
     0
1000
AcDbSavedByObjectVersion
1070
     0
1000
AcDbSavedByObjectVersion
1070
     0
1000
AcDbSavedByObjectVersion
1070
     0
1000
AcDbSavedByObjectVersion
1070
     0
1000
AcDbSavedByObjectVersion
1070
     0
1000
AcDbSavedByObjectVersion
1070
     0
1000
AcDbSavedByObjectVersion
1070
     0
1000
AcDbSavedByObjectVersion
1070
     0
1000
AcDbSavedByObjectVersion
1070
     0
1000
AcDbSavedByObjectVersion
1070
     0
1000
AcDbSavedByObjectVersion
1070
     0
1000
AcDbSavedByObjectVersion
1070
     0
1000
AcDbSavedByObjectVersion
1070
     0
1000
AcDbSavedByObjectVersion
1070
     0
1000
AcDbSavedByObjectVersion
1070
     0
1000
AcDbSavedByObjectVersion
1070
     0
1000
AcDbSavedByObjectVersion
1070
     0
1000
AcDbSavedByObjectVersion
1070
     0
1000
AcDbSavedByObjectVersion
1070
     0
1000
AcDbSavedByObjectVersion
1070
     0
1000
AcDbSavedByObjectVersion
1070
     0
1000
AcDbSavedByObjectVersion
1070
     0
1000
AcDbSavedByObjectVersion
1070
     0
1000
AcDbSavedByObjectVersion
1070
     0
1000
AcDbSavedByObjectVersion
1070
     0
1000
AcDbSavedByObjectVersion
1070
     0
1000
AcDbSavedByObjectVersion
1070
     0
1000
AcDbSavedByObjectVersion
1070
     0
1000
AcDbSavedByObjectVersion
1070
     0
1000
AcDbSavedByObjectVersion
1070
     0
1000
AcDbSavedByObjectVersion
1070
     0
1000
AcDbSavedByObjectVersion
1070
     0
1000
AcDbSavedByObjectVersion
1070
     0
1000
AcDbSavedByObjectVersion
1070
     0
  0
VISUALSTYLE
  5
2C
102
{ACAD_REACTORS
330
2A
102
}
330
2A
100
AcDbVisualStyle
  2
FlatWithEdges
 70
     1
 71
     2
 72
     1
 73
     1
 90
        2
 40
-0.6
 41
30.0
 62
     5
 63
     7
 74
     1
 91
        4
 64
     7
 65
   257
 75
     1
175
     1
 42
1.0
 92
        0
 66
   257
 43
1.0
 76
     1
 77
     6
 78
     2
 67
     7
 79
     5
170
     0
171
     0
290
     0
174
     0
 93
       13
 44
0.0
173
     0
291
     1
 45
0.0
1001
ACAD
1000
AcDbSavedByObjectVersion
1070
     0
1000
AcDbSavedByObjectVersion
1070
     0
1000
AcDbSavedByObjectVersion
1070
     0
1000
AcDbSavedByObjectVersion
1070
     0
1000
AcDbSavedByObjectVersion
1070
     0
1000
AcDbSavedByObjectVersion
1070
     0
1000
AcDbSavedByObjectVersion
1070
     0
1000
AcDbSavedByObjectVersion
1070
     0
1000
AcDbSavedByObjectVersion
1070
     0
1000
AcDbSavedByObjectVersion
1070
     0
1000
AcDbSavedByObjectVersion
1070
     0
1000
AcDbSavedByObjectVersion
1070
     0
1000
AcDbSavedByObjectVersion
1070
     0
1000
AcDbSavedByObjectVersion
1070
     0
1000
AcDbSavedByObjectVersion
1070
     0
1000
AcDbSavedByObjectVersion
1070
     0
1000
AcDbSavedByObjectVersion
1070
     0
1000
AcDbSavedByObjectVersion
1070
     0
1000
AcDbSavedByObjectVersion
1070
     0
1000
AcDbSavedByObjectVersion
1070
     0
1000
AcDbSavedByObjectVersion
1070
     0
1000
AcDbSavedByObjectVersion
1070
     0
1000
AcDbSavedByObjectVersion
1070
     0
1000
AcDbSavedByObjectVersion
1070
     0
1000
AcDbSavedByObjectVersion
1070
     0
1000
AcDbSavedByObjectVersion
1070
     0
1000
AcDbSavedByObjectVersion
1070
     0
1000
AcDbSavedByObjectVersion
1070
     0
1000
AcDbSavedByObjectVersion
1070
     0
1000
AcDbSavedByObjectVersion
1070
     0
1000
AcDbSavedByObjectVersion
1070
     0
1000
AcDbSavedByObjectVersion
1070
     0
1000
AcDbSavedByObjectVersion
1070
     0
1000
AcDbSavedByObjectVersion
1070
     0
1000
AcDbSavedByObjectVersion
1070
     0
1000
AcDbSavedByObjectVersion
1070
     0
1000
AcDbSavedByObjectVersion
1070
     0
1000
AcDbSavedByObjectVersion
1070
     0
1000
AcDbSavedByObjectVersion
1070
     0
1000
AcDbSavedByObjectVersion
1070
     0
1000
AcDbSavedByObjectVersion
1070
     0
1000
AcDbSavedByObjectVersion
1070
     0
1000
AcDbSavedByObjectVersion
1070
     0
1000
AcDbSavedByObjectVersion
1070
     0
1000
AcDbSavedByObjectVersion
1070
     0
1000
AcDbSavedByObjectVersion
1070
     0
1000
AcDbSavedByObjectVersion
1070
     0
1000
AcDbSavedByObjectVersion
1070
     0
1000
AcDbSavedByObjectVersion
1070
     0
1000
AcDbSavedByObjectVersion
1070
     0
1000
AcDbSavedByObjectVersion
1070
     0
1000
AcDbSavedByObjectVersion
1070
     0
1000
AcDbSavedByObjectVersion
1070
     0
  0
VISUALSTYLE
  5
2D
102
{ACAD_REACTORS
330
2A
102
}
330
2A
100
AcDbVisualStyle
  2
Gouraud
 70
     2
 71
     2
 72
     2
 73
     1
 90
        2
 40
-0.6
 41
30.0
 62
     5
 63
     7
 74
     0
 91
        4
 64
     7
 65
   257
 75
     1
175
     1
 42
1.0
 92
        0
 66
     7
 43
1.0
 76
     1
 77
     6
 78
     2
 67
     7
 79
     5
170
     0
171
     0
290
     0
174
     0
 93
       13
 44
0.0
173
     0
291
     1
 45
0.0
1001
ACAD
1000
AcDbSavedByObjectVersion
1070
     0
1000
AcDbSavedByObjectVersion
1070
     0
1000
AcDbSavedByObjectVersion
1070
     0
1000
AcDbSavedByObjectVersion
1070
     0
1000
AcDbSavedByObjectVersion
1070
     0
1000
AcDbSavedByObjectVersion
1070
     0
1000
AcDbSavedByObjectVersion
1070
     0
1000
AcDbSavedByObjectVersion
1070
     0
1000
AcDbSavedByObjectVersion
1070
     0
1000
AcDbSavedByObjectVersion
1070
     0
1000
AcDbSavedByObjectVersion
1070
     0
1000
AcDbSavedByObjectVersion
1070
     0
1000
AcDbSavedByObjectVersion
1070
     0
1000
AcDbSavedByObjectVersion
1070
     0
1000
AcDbSavedByObjectVersion
1070
     0
1000
AcDbSavedByObjectVersion
1070
     0
1000
AcDbSavedByObjectVersion
1070
     0
1000
AcDbSavedByObjectVersion
1070
     0
1000
AcDbSavedByObjectVersion
1070
     0
1000
AcDbSavedByObjectVersion
1070
     0
1000
AcDbSavedByObjectVersion
1070
     0
1000
AcDbSavedByObjectVersion
1070
     0
1000
AcDbSavedByObjectVersion
1070
     0
1000
AcDbSavedByObjectVersion
1070
     0
1000
AcDbSavedByObjectVersion
1070
     0
1000
AcDbSavedByObjectVersion
1070
     0
1000
AcDbSavedByObjectVersion
1070
     0
1000
AcDbSavedByObjectVersion
1070
     0
1000
AcDbSavedByObjectVersion
1070
     0
1000
AcDbSavedByObjectVersion
1070
     0
1000
AcDbSavedByObjectVersion
1070
     0
1000
AcDbSavedByObjectVersion
1070
     0
1000
AcDbSavedByObjectVersion
1070
     0
1000
AcDbSavedByObjectVersion
1070
     0
1000
AcDbSavedByObjectVersion
1070
     0
1000
AcDbSavedByObjectVersion
1070
     0
1000
AcDbSavedByObjectVersion
1070
     0
1000
AcDbSavedByObjectVersion
1070
     0
1000
AcDbSavedByObjectVersion
1070
     0
1000
AcDbSavedByObjectVersion
1070
     0
1000
AcDbSavedByObjectVersion
1070
     0
1000
AcDbSavedByObjectVersion
1070
     0
1000
AcDbSavedByObjectVersion
1070
     0
1000
AcDbSavedByObjectVersion
1070
     0
1000
AcDbSavedByObjectVersion
1070
     0
1000
AcDbSavedByObjectVersion
1070
     0
1000
AcDbSavedByObjectVersion
1070
     0
1000
AcDbSavedByObjectVersion
1070
     0
1000
AcDbSavedByObjectVersion
1070
     0
1000
AcDbSavedByObjectVersion
1070
     0
1000
AcDbSavedByObjectVersion
1070
     0
1000
AcDbSavedByObjectVersion
1070
     0
1000
AcDbSavedByObjectVersion
1070
     0
  0
VISUALSTYLE
  5
2E
102
{ACAD_REACTORS
330
2A
102
}
330
2A
100
AcDbVisualStyle
  2
GouraudWithEdges
 70
     3
 71
     2
 72
     2
 73
     1
 90
        2
 40
-0.6
 41
30.0
 62
     5
 63
     7
 74
     1
 91
        4
 64
     7
 65
   257
 75
     1
175
     1
 42
1.0
 92
        0
 66
   257
 43
1.0
 76
     1
 77
     6
 78
     2
 67
     7
 79
     5
170
     0
171
     0
290
     0
174
     0
 93
       13
 44
0.0
173
     0
291
     1
 45
0.0
1001
ACAD
1000
AcDbSavedByObjectVersion
1070
     0
1000
AcDbSavedByObjectVersion
1070
     0
1000
AcDbSavedByObjectVersion
1070
     0
1000
AcDbSavedByObjectVersion
1070
     0
1000
AcDbSavedByObjectVersion
1070
     0
1000
AcDbSavedByObjectVersion
1070
     0
1000
AcDbSavedByObjectVersion
1070
     0
1000
AcDbSavedByObjectVersion
1070
     0
1000
AcDbSavedByObjectVersion
1070
     0
1000
AcDbSavedByObjectVersion
1070
     0
1000
AcDbSavedByObjectVersion
1070
     0
1000
AcDbSavedByObjectVersion
1070
     0
1000
AcDbSavedByObjectVersion
1070
     0
1000
AcDbSavedByObjectVersion
1070
     0
1000
AcDbSavedByObjectVersion
1070
     0
1000
AcDbSavedByObjectVersion
1070
     0
1000
AcDbSavedByObjectVersion
1070
     0
1000
AcDbSavedByObjectVersion
1070
     0
1000
AcDbSavedByObjectVersion
1070
     0
1000
AcDbSavedByObjectVersion
1070
     0
1000
AcDbSavedByObjectVersion
1070
     0
1000
AcDbSavedByObjectVersion
1070
     0
1000
AcDbSavedByObjectVersion
1070
     0
1000
AcDbSavedByObjectVersion
1070
     0
1000
AcDbSavedByObjectVersion
1070
     0
1000
AcDbSavedByObjectVersion
1070
     0
1000
AcDbSavedByObjectVersion
1070
     0
1000
AcDbSavedByObjectVersion
1070
     0
1000
AcDbSavedByObjectVersion
1070
     0
1000
AcDbSavedByObjectVersion
1070
     0
1000
AcDbSavedByObjectVersion
1070
     0
1000
AcDbSavedByObjectVersion
1070
     0
1000
AcDbSavedByObjectVersion
1070
     0
1000
AcDbSavedByObjectVersion
1070
     0
1000
AcDbSavedByObjectVersion
1070
     0
1000
AcDbSavedByObjectVersion
1070
     0
1000
AcDbSavedByObjectVersion
1070
     0
1000
AcDbSavedByObjectVersion
1070
     0
1000
AcDbSavedByObjectVersion
1070
     0
1000
AcDbSavedByObjectVersion
1070
     0
1000
AcDbSavedByObjectVersion
1070
     0
1000
AcDbSavedByObjectVersion
1070
     0
1000
AcDbSavedByObjectVersion
1070
     0
1000
AcDbSavedByObjectVersion
1070
     0
1000
AcDbSavedByObjectVersion
1070
     0
1000
AcDbSavedByObjectVersion
1070
     0
1000
AcDbSavedByObjectVersion
1070
     0
1000
AcDbSavedByObjectVersion
1070
     0
1000
AcDbSavedByObjectVersion
1070
     0
1000
AcDbSavedByObjectVersion
1070
     0
1000
AcDbSavedByObjectVersion
1070
     0
1000
AcDbSavedByObjectVersion
1070
     0
1000
AcDbSavedByObjectVersion
1070
     0
  0
VISUALSTYLE
  5
38
102
{ACAD_REACTORS
330
2A
102
}
330
2A
100
AcDbVisualStyle
  2
Linepattern
 70
    14
 71
     2
 72
     2
 73
     0
 90
        0
 40
-0.6
 41
-30.0
 62
     5
 63
     7
 74
     1
 91
        4
 64
     7
 65
   257
 75
     7
175
     7
 42
1.0
 92
        8
 66
     7
 43
1.0
 76
     1
 77
     6
 78
     2
 67
     7
 79
     5
170
     0
171
     0
290
     0
174
     0
 93
        1
 44
0.0
173
     0
291
     1
 45
0.0
1001
ACAD
1000
AcDbSavedByObjectVersion
1070
     0
1000
AcDbSavedByObjectVersion
1070
     0
1000
AcDbSavedByObjectVersion
1070
     0
1000
AcDbSavedByObjectVersion
1070
     0
1000
AcDbSavedByObjectVersion
1070
     0
1000
AcDbSavedByObjectVersion
1070
     0
1000
AcDbSavedByObjectVersion
1070
     0
1000
AcDbSavedByObjectVersion
1070
     0
1000
AcDbSavedByObjectVersion
1070
     0
1000
AcDbSavedByObjectVersion
1070
     0
1000
AcDbSavedByObjectVersion
1070
     0
1000
AcDbSavedByObjectVersion
1070
     0
1000
AcDbSavedByObjectVersion
1070
     0
1000
AcDbSavedByObjectVersion
1070
     0
1000
AcDbSavedByObjectVersion
1070
     0
1000
AcDbSavedByObjectVersion
1070
     0
1000
AcDbSavedByObjectVersion
1070
     0
1000
AcDbSavedByObjectVersion
1070
     0
1000
AcDbSavedByObjectVersion
1070
     0
1000
AcDbSavedByObjectVersion
1070
     0
1000
AcDbSavedByObjectVersion
1070
     0
1000
AcDbSavedByObjectVersion
1070
     0
1000
AcDbSavedByObjectVersion
1070
     0
1000
AcDbSavedByObjectVersion
1070
     0
1000
AcDbSavedByObjectVersion
1070
     0
1000
AcDbSavedByObjectVersion
1070
     0
1000
AcDbSavedByObjectVersion
1070
     0
1000
AcDbSavedByObjectVersion
1070
     0
1000
AcDbSavedByObjectVersion
1070
     0
1000
AcDbSavedByObjectVersion
1070
     0
1000
AcDbSavedByObjectVersion
1070
     0
1000
AcDbSavedByObjectVersion
1070
     0
1000
AcDbSavedByObjectVersion
1070
     0
1000
AcDbSavedByObjectVersion
1070
     0
1000
AcDbSavedByObjectVersion
1070
     0
1000
AcDbSavedByObjectVersion
1070
     0
1000
AcDbSavedByObjectVersion
1070
     0
1000
AcDbSavedByObjectVersion
1070
     0
1000
AcDbSavedByObjectVersion
1070
     0
1000
AcDbSavedByObjectVersion
1070
     0
1000
AcDbSavedByObjectVersion
1070
     0
1000
AcDbSavedByObjectVersion
1070
     0
1000
AcDbSavedByObjectVersion
1070
     0
1000
AcDbSavedByObjectVersion
1070
     0
1000
AcDbSavedByObjectVersion
1070
     0
1000
AcDbSavedByObjectVersion
1070
     0
1000
AcDbSavedByObjectVersion
1070
     0
1000
AcDbSavedByObjectVersion
1070
     0
1000
AcDbSavedByObjectVersion
1070
     0
1000
AcDbSavedByObjectVersion
1070
     0
1000
AcDbSavedByObjectVersion
1070
     0
1000
AcDbSavedByObjectVersion
1070
     0
1000
AcDbSavedByObjectVersion
1070
     0
  0
VISUALSTYLE
  5
33
102
{ACAD_REACTORS
330
2A
102
}
330
2A
100
AcDbVisualStyle
  2
Realistic
 70
     8
 71
     2
 72
     2
 73
     0
 90
        0
 40
-0.6
 41
-30.0
 62
     5
 63
     7
 74
     1
 91
        0
 64
     7
 65
   257
 75
     1
175
     1
 42
1.0
 92
        8
 66
     8
 43
1.0
 76
     1
 77
     6
 78
     2
 67
     7
 79
     5
170
     0
171
     0
290
     0
174
     0
 93
       13
 44
0.0
173
     0
291
     0
 45
0.0
1001
ACAD
1000
AcDbSavedByObjectVersion
1070
     0
1000
AcDbSavedByObjectVersion
1070
     0
1000
AcDbSavedByObjectVersion
1070
     0
1000
AcDbSavedByObjectVersion
1070
     0
1000
AcDbSavedByObjectVersion
1070
     0
1000
AcDbSavedByObjectVersion
1070
     0
1000
AcDbSavedByObjectVersion
1070
     0
1000
AcDbSavedByObjectVersion
1070
     0
1000
AcDbSavedByObjectVersion
1070
     0
1000
AcDbSavedByObjectVersion
1070
     0
1000
AcDbSavedByObjectVersion
1070
     0
1000
AcDbSavedByObjectVersion
1070
     0
1000
AcDbSavedByObjectVersion
1070
     0
1000
AcDbSavedByObjectVersion
1070
     0
1000
AcDbSavedByObjectVersion
1070
     0
1000
AcDbSavedByObjectVersion
1070
     0
1000
AcDbSavedByObjectVersion
1070
     0
1000
AcDbSavedByObjectVersion
1070
     0
1000
AcDbSavedByObjectVersion
1070
     0
1000
AcDbSavedByObjectVersion
1070
     0
1000
AcDbSavedByObjectVersion
1070
     0
1000
AcDbSavedByObjectVersion
1070
     0
1000
AcDbSavedByObjectVersion
1070
     0
1000
AcDbSavedByObjectVersion
1070
     0
1000
AcDbSavedByObjectVersion
1070
     0
1000
AcDbSavedByObjectVersion
1070
     0
1000
AcDbSavedByObjectVersion
1070
     0
1000
AcDbSavedByObjectVersion
1070
     0
1000
AcDbSavedByObjectVersion
1070
     0
1000
AcDbSavedByObjectVersion
1070
     0
1000
AcDbSavedByObjectVersion
1070
     0
1000
AcDbSavedByObjectVersion
1070
     0
1000
AcDbSavedByObjectVersion
1070
     0
1000
AcDbSavedByObjectVersion
1070
     0
1000
AcDbSavedByObjectVersion
1070
     0
1000
AcDbSavedByObjectVersion
1070
     0
1000
AcDbSavedByObjectVersion
1070
     0
1000
AcDbSavedByObjectVersion
1070
     0
1000
AcDbSavedByObjectVersion
1070
     0
1000
AcDbSavedByObjectVersion
1070
     0
1000
AcDbSavedByObjectVersion
1070
     0
1000
AcDbSavedByObjectVersion
1070
     0
1000
AcDbSavedByObjectVersion
1070
     0
1000
AcDbSavedByObjectVersion
1070
     0
1000
AcDbSavedByObjectVersion
1070
     0
1000
AcDbSavedByObjectVersion
1070
     0
1000
AcDbSavedByObjectVersion
1070
     0
1000
AcDbSavedByObjectVersion
1070
     0
1000
AcDbSavedByObjectVersion
1070
     0
1000
AcDbSavedByObjectVersion
1070
     0
1000
AcDbSavedByObjectVersion
1070
     0
1000
AcDbSavedByObjectVersion
1070
     0
1000
AcDbSavedByObjectVersion
1070
     0
  0
VISUALSTYLE
  5
37
102
{ACAD_REACTORS
330
2A
102
}
330
2A
100
AcDbVisualStyle
  2
Thicken
 70
    13
 71
     2
 72
     2
 73
     0
 90
        0
 40
-0.6
 41
-30.0
 62
     5
 63
     7
 74
     1
 91
        4
 64
     7
 65
   257
 75
     1
175
     1
 42
1.0
 92
       12
 66
     7
 43
1.0
 76
     1
 77
     6
 78
     2
 67
     7
 79
     5
170
     0
171
     0
290
     0
174
     0
 93
        1
 44
0.0
173
     0
291
     1
 45
0.0
1001
ACAD
1000
AcDbSavedByObjectVersion
1070
     0
1000
AcDbSavedByObjectVersion
1070
     0
1000
AcDbSavedByObjectVersion
1070
     0
1000
AcDbSavedByObjectVersion
1070
     0
1000
AcDbSavedByObjectVersion
1070
     0
1000
AcDbSavedByObjectVersion
1070
     0
1000
AcDbSavedByObjectVersion
1070
     0
1000
AcDbSavedByObjectVersion
1070
     0
1000
AcDbSavedByObjectVersion
1070
     0
1000
AcDbSavedByObjectVersion
1070
     0
1000
AcDbSavedByObjectVersion
1070
     0
1000
AcDbSavedByObjectVersion
1070
     0
1000
AcDbSavedByObjectVersion
1070
     0
1000
AcDbSavedByObjectVersion
1070
     0
1000
AcDbSavedByObjectVersion
1070
     0
1000
AcDbSavedByObjectVersion
1070
     0
1000
AcDbSavedByObjectVersion
1070
     0
1000
AcDbSavedByObjectVersion
1070
     0
1000
AcDbSavedByObjectVersion
1070
     0
1000
AcDbSavedByObjectVersion
1070
     0
1000
AcDbSavedByObjectVersion
1070
     0
1000
AcDbSavedByObjectVersion
1070
     0
1000
AcDbSavedByObjectVersion
1070
     0
1000
AcDbSavedByObjectVersion
1070
     0
1000
AcDbSavedByObjectVersion
1070
     0
1000
AcDbSavedByObjectVersion
1070
     0
1000
AcDbSavedByObjectVersion
1070
     0
1000
AcDbSavedByObjectVersion
1070
     0
1000
AcDbSavedByObjectVersion
1070
     0
1000
AcDbSavedByObjectVersion
1070
     0
1000
AcDbSavedByObjectVersion
1070
     0
1000
AcDbSavedByObjectVersion
1070
     0
1000
AcDbSavedByObjectVersion
1070
     0
1000
AcDbSavedByObjectVersion
1070
     0
1000
AcDbSavedByObjectVersion
1070
     0
1000
AcDbSavedByObjectVersion
1070
     0
1000
AcDbSavedByObjectVersion
1070
     0
1000
AcDbSavedByObjectVersion
1070
     0
1000
AcDbSavedByObjectVersion
1070
     0
1000
AcDbSavedByObjectVersion
1070
     0
1000
AcDbSavedByObjectVersion
1070
     0
1000
AcDbSavedByObjectVersion
1070
     0
1000
AcDbSavedByObjectVersion
1070
     0
1000
AcDbSavedByObjectVersion
1070
     0
1000
AcDbSavedByObjectVersion
1070
     0
1000
AcDbSavedByObjectVersion
1070
     0
1000
AcDbSavedByObjectVersion
1070
     0
1000
AcDbSavedByObjectVersion
1070
     0
1000
AcDbSavedByObjectVersion
1070
     0
1000
AcDbSavedByObjectVersion
1070
     0
1000
AcDbSavedByObjectVersion
1070
     0
1000
AcDbSavedByObjectVersion
1070
     0
1000
AcDbSavedByObjectVersion
1070
     0
  0
DICTIONARYVAR
  5
510B
102
{ACAD_REACTORS
330
5108
102
}
330
5108
100
DictionaryVariables
280
     0
  1
1:1
  0
DICTIONARYVAR
  5
510A
102
{ACAD_REACTORS
330
5108
102
}
330
5108
100
DictionaryVariables
280
     0
  1
STANDARD
  0
DICTIONARYVAR
  5
5109
102
{ACAD_REACTORS
330
5108
102
}
330
5108
100
DictionaryVariables
280
     0
  1
STANDARD
  0
DICTIONARYVAR
  5
510E
102
{ACAD_REACTORS
330
5108
102
}
330
5108
100
DictionaryVariables
280
     0
  1
1
  0
DICTIONARYVAR
  5
510D
102
{ACAD_REACTORS
330
5108
102
}
330
5108
100
DictionaryVariables
280
     0
  1
0
  0
DICTIONARYVAR
  5
18BE1
102
{ACAD_REACTORS
330
5108
102
}
330
5108
100
DictionaryVariables
280
     0
  1
0
  0
DICTIONARYVAR
  5
18BE0
102
{ACAD_REACTORS
330
5108
102
}
330
5108
100
DictionaryVariables
280
     0
  1
0
  0
DICTIONARYVAR
  5
510C
102
{ACAD_REACTORS
330
5108
102
}
330
5108
100
DictionaryVariables
280
     0
  1
127
  0
XRECORD
  5
13AB9
102
{ACAD_REACTORS
330
13AB8
102
}
330
13AB8
100
AcDbXrecord
280
     1
330
1382D
  0
DICTIONARY
  5
4FEF
330
4FEE
100
AcDbDictionary
280
     1
281
     1
  3
ACAD_XREC_ROUNDTRIP
360
7C2C
  3
BUMPTILE
360
4FF1
  3
DIFFUSETILE
360
4FF0
  3
OPACITYTILE
360
4FF4
  3
REFLECTIONTILE
360
4FF3
  3
REFRACTIONTILE
360
4FF5
  3
SPECULARTILE
360
4FF2
  0
DICTIONARY
  5
4FE7
330
4FE6
100
AcDbDictionary
280
     1
281
     1
  3
ACAD_XREC_ROUNDTRIP
360
7C2B
  3
BUMPTILE
360
4FE9
  3
DIFFUSETILE
360
4FE8
  3
OPACITYTILE
360
4FEC
  3
REFLECTIONTILE
360
4FEB
  3
REFRACTIONTILE
360
4FED
  3
SPECULARTILE
360
4FEA
  0
DICTIONARY
  5
4FF7
330
4FF6
100
AcDbDictionary
280
     1
281
     1
  3
ACAD_XREC_ROUNDTRIP
360
7C2D
  3
BUMPTILE
360
4FF9
  3
DIFFUSETILE
360
4FF8
  3
OPACITYTILE
360
4FFC
  3
REFLECTIONTILE
360
4FFB
  3
REFRACTIONTILE
360
4FFD
  3
SPECULARTILE
360
4FFA
  0
DICTIONARY
  5
50D6
330
4FFF
100
AcDbDictionary
280
     1
281
     1
  3
ACAD_ROUNDTRIP_2008_TABLESTYLE_CELLSTYLEMAP
360
18BEF
  0
XRECORD
  5
7C2C
102
{ACAD_REACTORS
330
4FEF
102
}
330
4FEF
100
AcDbXrecord
280
     1
102
MATERIAL
148
0.0
149
0.0
149
0.0
 93
        0
 94
      127
282
     0
 72
     0
 77
     0
171
     0
175
     0
179
     0
273
     0
  0
XRECORD
  5
4FF1
102
{ACAD_REACTORS
330
4FEF
102
}
330
4FEF
100
AcDbXrecord
280
     1
270
     1
271
     1
  0
XRECORD
  5
4FF0
102
{ACAD_REACTORS
330
4FEF
102
}
330
4FEF
100
AcDbXrecord
280
     1
270
     1
271
     1
  0
XRECORD
  5
4FF4
102
{ACAD_REACTORS
330
4FEF
102
}
330
4FEF
100
AcDbXrecord
280
     1
270
     1
271
     1
  0
XRECORD
  5
4FF3
102
{ACAD_REACTORS
330
4FEF
102
}
330
4FEF
100
AcDbXrecord
280
     1
270
     1
271
     1
  0
XRECORD
  5
4FF5
102
{ACAD_REACTORS
330
4FEF
102
}
330
4FEF
100
AcDbXrecord
280
     1
270
     1
271
     1
  0
XRECORD
  5
4FF2
102
{ACAD_REACTORS
330
4FEF
102
}
330
4FEF
100
AcDbXrecord
280
     1
270
     1
271
     1
  0
XRECORD
  5
7C2B
102
{ACAD_REACTORS
330
4FE7
102
}
330
4FE7
100
AcDbXrecord
280
     1
102
MATERIAL
148
0.0
149
0.0
149
0.0
 93
        0
 94
      127
282
     0
 72
     0
 77
     0
171
     0
175
     0
179
     0
273
     0
  0
XRECORD
  5
4FE9
102
{ACAD_REACTORS
330
4FE7
102
}
330
4FE7
100
AcDbXrecord
280
     1
270
     1
271
     1
  0
XRECORD
  5
4FE8
102
{ACAD_REACTORS
330
4FE7
102
}
330
4FE7
100
AcDbXrecord
280
     1
270
     1
271
     1
  0
XRECORD
  5
4FEC
102
{ACAD_REACTORS
330
4FE7
102
}
330
4FE7
100
AcDbXrecord
280
     1
270
     1
271
     1
  0
XRECORD
  5
4FEB
102
{ACAD_REACTORS
330
4FE7
102
}
330
4FE7
100
AcDbXrecord
280
     1
270
     1
271
     1
  0
XRECORD
  5
4FED
102
{ACAD_REACTORS
330
4FE7
102
}
330
4FE7
100
AcDbXrecord
280
     1
270
     1
271
     1
  0
XRECORD
  5
4FEA
102
{ACAD_REACTORS
330
4FE7
102
}
330
4FE7
100
AcDbXrecord
280
     1
270
     1
271
     1
  0
XRECORD
  5
7C2D
102
{ACAD_REACTORS
330
4FF7
102
}
330
4FF7
100
AcDbXrecord
280
     1
102
MATERIAL
148
0.0
149
0.0
149
0.0
 93
        0
 94
      127
282
     0
 72
     0
 77
     0
171
     0
175
     0
179
     0
273
     0
  0
XRECORD
  5
4FF9
102
{ACAD_REACTORS
330
4FF7
102
}
330
4FF7
100
AcDbXrecord
280
     1
270
     1
271
     1
  0
XRECORD
  5
4FF8
102
{ACAD_REACTORS
330
4FF7
102
}
330
4FF7
100
AcDbXrecord
280
     1
270
     1
271
     1
  0
XRECORD
  5
4FFC
102
{ACAD_REACTORS
330
4FF7
102
}
330
4FF7
100
AcDbXrecord
280
     1
270
     1
271
     1
  0
XRECORD
  5
4FFB
102
{ACAD_REACTORS
330
4FF7
102
}
330
4FF7
100
AcDbXrecord
280
     1
270
     1
271
     1
  0
XRECORD
  5
4FFD
102
{ACAD_REACTORS
330
4FF7
102
}
330
4FF7
100
AcDbXrecord
280
     1
270
     1
271
     1
  0
XRECORD
  5
4FFA
102
{ACAD_REACTORS
330
4FF7
102
}
330
4FF7
100
AcDbXrecord
280
     1
270
     1
271
     1
  0
CELLSTYLEMAP
  5
18BEF
102
{ACAD_REACTORS
330
50D6
102
}
330
50D6
100
AcDbCellStyleMap
 90
        3
300
CELLSTYLE
  1
TABLEFORMAT_BEGIN
 90
        5
170
     1
 91
        0
 92
    32768
 62
   257
 93
        1
300
CONTENTFORMAT
  1
CONTENTFORMAT_BEGIN
 90
        0
 91
        0
 92
      512
 93
        0
300

 40
0.0
140
1.0
 94
        5
 62
     0
340
11
144
0.25
309
CONTENTFORMAT_END
171
     1
301
MARGIN
  1
CELLMARGIN_BEGIN
 40
0.06
 40
0.06
 40
0.06
 40
0.06
 40
0.18
 40
0.18
309
CELLMARGIN_END
 94
        6
 95
        1
302
GRIDFORMAT
  1
GRIDFORMAT_BEGIN
 90
        0
 91
        1
 62
     0
 92
       -2
340
0
 93
        0
 40
0.045
309
GRIDFORMAT_END
 95
        2
302
GRIDFORMAT
  1
GRIDFORMAT_BEGIN
 90
        0
 91
        1
 62
     0
 92
       -2
340
0
 93
        0
 40
0.045
309
GRIDFORMAT_END
 95
        4
302
GRIDFORMAT
  1
GRIDFORMAT_BEGIN
 90
        0
 91
        1
 62
     0
 92
       -2
340
0
 93
        0
 40
0.045
309
GRIDFORMAT_END
 95
        8
302
GRIDFORMAT
  1
GRIDFORMAT_BEGIN
 90
        0
 91
        1
 62
     0
 92
       -2
340
0
 93
        0
 40
0.045
309
GRIDFORMAT_END
 95
       16
302
GRIDFORMAT
  1
GRIDFORMAT_BEGIN
 90
        0
 91
        1
 62
     0
 92
       -2
340
0
 93
        0
 40
0.045
309
GRIDFORMAT_END
 95
       32
302
GRIDFORMAT
  1
GRIDFORMAT_BEGIN
 90
        0
 91
        1
 62
     0
 92
       -2
340
0
 93
        0
 40
0.045
309
GRIDFORMAT_END
309
TABLEFORMAT_END
  1
CELLSTYLE_BEGIN
 90
        1
 91
        1
300
_TITLE
309
CELLSTYLE_END
300
CELLSTYLE
  1
TABLEFORMAT_BEGIN
 90
        5
170
     1
 91
        0
 92
        0
 62
   257
 93
        1
300
CONTENTFORMAT
  1
CONTENTFORMAT_BEGIN
 90
        0
 91
        0
 92
      512
 93
        0
300

 40
0.0
140
1.0
 94
        5
 62
     0
340
11
144
0.18
309
CONTENTFORMAT_END
171
     1
301
MARGIN
  1
CELLMARGIN_BEGIN
 40
0.06
 40
0.06
 40
0.06
 40
0.06
 40
0.18
 40
0.18
309
CELLMARGIN_END
 94
        6
 95
        1
302
GRIDFORMAT
  1
GRIDFORMAT_BEGIN
 90
        0
 91
        1
 62
     0
 92
       -2
340
0
 93
        0
 40
0.045
309
GRIDFORMAT_END
 95
        2
302
GRIDFORMAT
  1
GRIDFORMAT_BEGIN
 90
        0
 91
        1
 62
     0
 92
       -2
340
0
 93
        0
 40
0.045
309
GRIDFORMAT_END
 95
        4
302
GRIDFORMAT
  1
GRIDFORMAT_BEGIN
 90
        0
 91
        1
 62
     0
 92
       -2
340
0
 93
        0
 40
0.045
309
GRIDFORMAT_END
 95
        8
302
GRIDFORMAT
  1
GRIDFORMAT_BEGIN
 90
        0
 91
        1
 62
     0
 92
       -2
340
0
 93
        0
 40
0.045
309
GRIDFORMAT_END
 95
       16
302
GRIDFORMAT
  1
GRIDFORMAT_BEGIN
 90
        0
 91
        1
 62
     0
 92
       -2
340
0
 93
        0
 40
0.045
309
GRIDFORMAT_END
 95
       32
302
GRIDFORMAT
  1
GRIDFORMAT_BEGIN
 90
        0
 91
        1
 62
     0
 92
       -2
340
0
 93
        0
 40
0.045
309
GRIDFORMAT_END
309
TABLEFORMAT_END
  1
CELLSTYLE_BEGIN
 90
        2
 91
        1
300
_HEADER
309
CELLSTYLE_END
300
CELLSTYLE
  1
TABLEFORMAT_BEGIN
 90
        5
170
     1
 91
        0
 92
        0
 62
   257
 93
        1
300
CONTENTFORMAT
  1
CONTENTFORMAT_BEGIN
 90
        0
 91
        0
 92
      512
 93
        0
300

 40
0.0
140
1.0
 94
        2
 62
     0
340
11
144
0.18
309
CONTENTFORMAT_END
171
     1
301
MARGIN
  1
CELLMARGIN_BEGIN
 40
0.06
 40
0.06
 40
0.06
 40
0.06
 40
0.18
 40
0.18
309
CELLMARGIN_END
 94
        6
 95
        1
302
GRIDFORMAT
  1
GRIDFORMAT_BEGIN
 90
        0
 91
        1
 62
     0
 92
       -2
340
0
 93
        0
 40
0.045
309
GRIDFORMAT_END
 95
        2
302
GRIDFORMAT
  1
GRIDFORMAT_BEGIN
 90
        0
 91
        1
 62
     0
 92
       -2
340
0
 93
        0
 40
0.045
309
GRIDFORMAT_END
 95
        4
302
GRIDFORMAT
  1
GRIDFORMAT_BEGIN
 90
        0
 91
        1
 62
     0
 92
       -2
340
0
 93
        0
 40
0.045
309
GRIDFORMAT_END
 95
        8
302
GRIDFORMAT
  1
GRIDFORMAT_BEGIN
 90
        0
 91
        1
 62
     0
 92
       -2
340
0
 93
        0
 40
0.045
309
GRIDFORMAT_END
 95
       16
302
GRIDFORMAT
  1
GRIDFORMAT_BEGIN
 90
        0
 91
        1
 62
     0
 92
       -2
340
0
 93
        0
 40
0.045
309
GRIDFORMAT_END
 95
       32
302
GRIDFORMAT
  1
GRIDFORMAT_BEGIN
 90
        0
 91
        1
 62
     0
 92
       -2
340
0
 93
        0
 40
0.045
309
GRIDFORMAT_END
309
TABLEFORMAT_END
  1
CELLSTYLE_BEGIN
 90
        3
 91
        2
300
_DATA
309
CELLSTYLE_END
  0
ENDSEC
  0
EOF
