  0
SECTION
  2
HEADER
  9
$ACADVER
  1
AC1021
  9
$ACADMAINTVER
 70
    25
  9
$DWGCODEPAGE
  3
ANSI_936
  9
$LASTSAVEDBY
  1
14609
  9
$INSBASE
 10
0.0
 20
0.0
 30
0.0
  9
$EXTMIN
 10
322.6820467089912
 20
146.3945072874961
 30
0.0
  9
$EXTMAX
 10
619.6807966446957
 20
356.3945072875001
 30
0.0
  9
$LIMMIN
 10
0.0
 20
0.0
  9
$LIMMAX
 10
12.0
 20
9.0
  9
$ORTHOMODE
 70
     0
  9
$REGENMODE
 70
     1
  9
$FILLMODE
 70
     1
  9
$QTEXTMODE
 70
     0
  9
$MIRRTEXT
 70
     1
  9
$LTSCALE
 40
1.0
  9
$ATTMODE
 70
     1
  9
$TEXTSIZE
 40
0.2
  9
$TRACEWID
 40
0.05
  9
$TEXTSTYLE
  7
Standard
  9
$CLAYER
  8
0
  9
$CELTYPE
  6
ByLayer
  9
$CECOLOR
 62
   256
  9
$CELTSCALE
 40
1.0
  9
$DISPSILH
 70
     0
  9
$DIMSCALE
 40
1.0
  9
$DIMASZ
 40
3.0
  9
$DIMEXO
 40
0.2
  9
$DIMDLI
 40
0.2
  9
$DIMRND
 40
0.0
  9
$DIMDLE
 40
0.0
  9
$DIMEXE
 40
0.5
  9
$DIMTP
 40
0.0
  9
$DIMTM
 40
0.0
  9
$DIMTXT
 40
3.5
  9
$DIMCEN
 40
0.0
  9
$DIMTSZ
 40
0.0
  9
$DIMTOL
 70
     0
  9
$DIMLIM
 70
     0
  9
$DIMTIH
 70
     0
  9
$DIMTOH
 70
     0
  9
$DIMSE1
 70
     0
  9
$DIMSE2
 70
     0
  9
$DIMTAD
 70
     1
  9
$DIMZIN
 70
     8
  9
$DIMBLK
  1

  9
$DIMASO
 70
     1
  9
$DIMSHO
 70
     1
  9
$DIMPOST
  1

  9
$DIMAPOST
  1

  9
$DIMALT
 70
     0
  9
$DIMALTD
 70
     2
  9
$DIMALTF
 40
25.4
  9
$DIMLFAC
 40
1.0
  9
$DIMTOFL
 70
     0
  9
$DIMTVP
 40
0.0
  9
$DIMTIX
 70
     0
  9
$DIMSOXD
 70
     0
  9
$DIMSAH
 70
     0
  9
$DIMBLK1
  1

  9
$DIMBLK2
  1

  9
$DIMSTYLE
  2
01
  9
$DIMCLRD
 70
     1
  9
$DIMCLRE
 70
     6
  9
$DIMCLRT
 70
     4
  9
$DIMTFAC
 40
1.0
  9
$DIMGAP
 40
0.5
  9
$DIMJUST
 70
     0
  9
$DIMSD1
 70
     0
  9
$DIMSD2
 70
     0
  9
$DIMTOLJ
 70
     1
  9
$DIMTZIN
 70
     0
  9
$DIMALTZ
 70
     0
  9
$DIMALTTZ
 70
     0
  9
$DIMUPT
 70
     0
  9
$DIMDEC
 70
     1
  9
$DIMTDEC
 70
     1
  9
$DIMALTU
 70
     2
  9
$DIMALTTD
 70
     2
  9
$DIMTXSTY
  7
Romans字体
  9
$DIMAUNIT
 70
     0
  9
$DIMADEC
 70
     2
  9
$DIMALTRND
 40
0.0
  9
$DIMAZIN
 70
     2
  9
$DIMDSEP
 70
    46
  9
$DIMATFIT
 70
     3
  9
$DIMFRAC
 70
     0
  9
$DIMLDRBLK
  1

  9
$DIMLUNIT
 70
     2
  9
$DIMLWD
 70
    -2
  9
$DIMLWE
 70
    -2
  9
$DIMTMOVE
 70
     0
  9
$DIMFXL
 40
1.0
  9
$DIMFXLON
 70
     0
  9
$DIMJOGANG
 40
0.7853981633974483
  9
$DIMTFILL
 70
     0
  9
$DIMTFILLCLR
 70
     0
  9
$DIMARCSYM
 70
     0
  9
$DIMLTYPE
  6

  9
$DIMLTEX1
  6

  9
$DIMLTEX2
  6

  9
$LUNITS
 70
     2
  9
$LUPREC
 70
     4
  9
$SKETCHINC
 40
0.1
  9
$FILLETRAD
 40
0.5
  9
$AUNITS
 70
     0
  9
$AUPREC
 70
     0
  9
$MENU
  1
.
  9
$ELEVATION
 40
0.0
  9
$PELEVATION
 40
0.0
  9
$THICKNESS
 40
0.0
  9
$LIMCHECK
 70
     0
  9
$CHAMFERA
 40
0.5
  9
$CHAMFERB
 40
0.5
  9
$CHAMFERC
 40
1.0
  9
$CHAMFERD
 40
0.0
  9
$SKPOLY
 70
     0
  9
$TDCREATE
 40
2456524.383632987
  9
$TDUCREATE
 40
2456524.050299653
  9
$TDUPDATE
 40
2460346.549707292
  9
$TDUUPDATE
 40
2460346.216373958
  9
$TDINDWG
 40
1.1246570602
  9
$TDUSRTIMER
 40
1.1246360069
  9
$USRTIMER
 70
     1
  9
$ANGBASE
 50
0.0
  9
$ANGDIR
 70
     0
  9
$PDMODE
 70
     0
  9
$PDSIZE
 40
0.0
  9
$PLINEWID
 40
0.0
  9
$SPLFRAME
 70
     0
  9
$SPLINETYPE
 70
     6
  9
$SPLINESEGS
 70
     8
  9
$HANDSEED
  5
18A78
  9
$SURFTAB1
 70
     6
  9
$SURFTAB2
 70
     6
  9
$SURFTYPE
 70
     6
  9
$SURFU
 70
     6
  9
$SURFV
 70
     6
  9
$UCSBASE
  2

  9
$UCSNAME
  2

  9
$UCSORG
 10
0.0
 20
0.0
 30
0.0
  9
$UCSXDIR
 10
1.0
 20
0.0
 30
0.0
  9
$UCSYDIR
 10
0.0
 20
1.0
 30
0.0
  9
$UCSORTHOREF
  2

  9
$UCSORTHOVIEW
 70
     0
  9
$UCSORGTOP
 10
0.0
 20
0.0
 30
0.0
  9
$UCSORGBOTTOM
 10
0.0
 20
0.0
 30
0.0
  9
$UCSORGLEFT
 10
0.0
 20
0.0
 30
0.0
  9
$UCSORGRIGHT
 10
0.0
 20
0.0
 30
0.0
  9
$UCSORGFRONT
 10
0.0
 20
0.0
 30
0.0
  9
$UCSORGBACK
 10
0.0
 20
0.0
 30
0.0
  9
$PUCSBASE
  2

  9
$PUCSNAME
  2

  9
$PUCSORG
 10
0.0
 20
0.0
 30
0.0
  9
$PUCSXDIR
 10
1.0
 20
0.0
 30
0.0
  9
$PUCSYDIR
 10
0.0
 20
1.0
 30
0.0
  9
$PUCSORTHOREF
  2

  9
$PUCSORTHOVIEW
 70
     0
  9
$PUCSORGTOP
 10
0.0
 20
0.0
 30
0.0
  9
$PUCSORGBOTTOM
 10
0.0
 20
0.0
 30
0.0
  9
$PUCSORGLEFT
 10
0.0
 20
0.0
 30
0.0
  9
$PUCSORGRIGHT
 10
0.0
 20
0.0
 30
0.0
  9
$PUCSORGFRONT
 10
0.0
 20
0.0
 30
0.0
  9
$PUCSORGBACK
 10
0.0
 20
0.0
 30
0.0
  9
$USERI1
 70
     0
  9
$USERI2
 70
     0
  9
$USERI3
 70
     0
  9
$USERI4
 70
     0
  9
$USERI5
 70
     0
  9
$USERR1
 40
0.0
  9
$USERR2
 40
0.0
  9
$USERR3
 40
0.0
  9
$USERR4
 40
0.0
  9
$USERR5
 40
0.0
  9
$WORLDVIEW
 70
     1
  9
$SHADEDGE
 70
     3
  9
$SHADEDIF
 70
    70
  9
$TILEMODE
 70
     1
  9
$MAXACTVP
 70
    64
  9
$PINSBASE
 10
0.0
 20
0.0
 30
0.0
  9
$PLIMCHECK
 70
     0
  9
$PEXTMIN
 10
1.000000000000000E+20
 20
1.000000000000000E+20
 30
1.000000000000000E+20
  9
$PEXTMAX
 10
-1.000000000000000E+20
 20
-1.000000000000000E+20
 30
-1.000000000000000E+20
  9
$PLIMMIN
 10
0.0
 20
0.0
  9
$PLIMMAX
 10
12.0
 20
9.0
  9
$UNITMODE
 70
     0
  9
$VISRETAIN
 70
     1
  9
$PLINEGEN
 70
     0
  9
$PSLTSCALE
 70
     1
  9
$TREEDEPTH
 70
  3020
  9
$CMLSTYLE
  2
Standard
  9
$CMLJUST
 70
     0
  9
$CMLSCALE
 40
1.0
  9
$PROXYGRAPHICS
 70
     1
  9
$MEASUREMENT
 70
     0
  9
$CELWEIGHT
370
    -1
  9
$ENDCAPS
280
     0
  9
$JOINSTYLE
280
     0
  9
$LWDISPLAY
290
     0
  9
$INSUNITS
 70
     4
  9
$HYPERLINKBASE
  1

  9
$STYLESHEET
  1
MONOCHROME.CTB
  9
$XEDIT
290
     1
  9
$CEPSNTYPE
380
     0
  9
$PSTYLEMODE
290
     1
  9
$FINGERPRINTGUID
  2
{4A02065B-8BB3-4A96-9036-502DC906C165}
  9
$VERSIONGUID
  2
{7BC105C5-E923-4A2D-95B8-7F2D17291BD3}
  9
$EXTNAMES
290
     1
  9
$PSVPSCALE
 40
0.0
  9
$OLESTARTUP
290
     0
  9
$SORTENTS
280
   127
  9
$INDEXCTL
280
     0
  9
$HIDETEXT
280
     0
  9
$XCLIPFRAME
290
     0
  9
$HALOGAP
280
     0
  9
$OBSCOLOR
 70
   257
  9
$OBSLTYPE
280
     0
  9
$INTERSECTIONDISPLAY
280
     0
  9
$INTERSECTIONCOLOR
 70
   257
  9
$DIMASSOC
280
     1
  9
$PROJECTNAME
  1

  9
$CAMERADISPLAY
290
     0
  9
$LENSLENGTH
 40
50.0
  9
$CAMERAHEIGHT
 40
0.0
  9
$STEPSPERSEC
 40
2.0
  9
$STEPSIZE
 40
6.0
  9
$3DDWFPREC
 40
2.0
  9
$PSOLWIDTH
 40
0.25
  9
$PSOLHEIGHT
 40
4.0
  9
$LOFTANG1
 40
1.570796326794896
  9
$LOFTANG2
 40
1.570796326794896
  9
$LOFTMAG1
 40
0.0
  9
$LOFTMAG2
 40
0.0
  9
$LOFTPARAM
 70
     7
  9
$LOFTNORMALS
280
     1
  9
$LATITUDE
 40
37.795
  9
$LONGITUDE
 40
-122.394
  9
$NORTHDIRECTION
 40
0.0
  9
$TIMEZONE
 70
 -8000
  9
$LIGHTGLYPHDISPLAY
280
     1
  9
$TILEMODELIGHTSYNCH
280
     1
  9
$CMATERIAL
347
4FE6
  9
$SOLIDHIST
280
     1
  9
$SHOWHIST
280
     1
  9
$DWFFRAME
280
     2
  9
$DGNFRAME
280
     0
  9
$REALWORLDSCALE
290
     1
  9
$INTERFERECOLOR
 62
     1
  9
$INTERFEREOBJVS
345
33
  9
$INTERFEREVPVS
346
30
  9
$CSHADOW
280
     0
  9
$SHADOWPLANELOCATION
 40
0.0
  0
ENDSEC
  0
SECTION
  2
CLASSES
  0
CLASS
  1
ACDBDICTIONARYWDFLT
  2
AcDbDictionaryWithDefault
  3
ObjectDBX Classes
 90
        0
 91
        1
280
     0
281
     0
  0
CLASS
  1
VISUALSTYLE
  2
AcDbVisualStyle
  3
ObjectDBX Classes
 90
     4095
 91
       16
280
     0
281
     0
  0
CLASS
  1
MATERIAL
  2
AcDbMaterial
  3
ObjectDBX Classes
 90
     1153
 91
        3
280
     0
281
     0
  0
CLASS
  1
TABLESTYLE
  2
AcDbTableStyle
  3
ObjectDBX Classes
 90
     4095
 91
        1
280
     0
281
     0
  0
CLASS
  1
SCALE
  2
AcDbScale
  3
ObjectDBX Classes
 90
     1153
 91
       33
280
     0
281
     0
  0
CLASS
  1
MLEADERSTYLE
  2
AcDbMLeaderStyle
  3
ACDB_MLEADERSTYLE_CLASS
 90
     4095
 91
        1
280
     0
281
     0
  0
CLASS
  1
CELLSTYLEMAP
  2
AcDbCellStyleMap
  3
ObjectDBX Classes
 90
     1152
 91
        2
280
     0
281
     0
  0
CLASS
  1
DICTIONARYVAR
  2
AcDbDictionaryVar
  3
ObjectDBX Classes
 90
        0
 91
        8
280
     0
281
     0
  0
CLASS
  1
SORTENTSTABLE
  2
AcDbSortentsTable
  3
ObjectDBX Classes
 90
        0
 91
        2
280
     0
281
     0
  0
CLASS
  1
ACAD_EVALUATION_GRAPH
  2
AcDbEvalGraph
  3
ObjectDBX Classes
 90
     1153
 91
        0
280
     0
281
     0
  0
CLASS
  1
ACAECUSTOBJ
  2
AcAeEditorObj
  3
AcAeEditorObj
 90
     1024
 91
        0
280
     0
281
     0
  0
CLASS
  1
ACDB_DYNAMICBLOCKPURGEPREVENTER_VERSION
  2
AcDbDynamicBlockPurgePreventer
  3
ObjectDBX Classes
 90
     1153
 91
        0
280
     0
281
     0
  0
CLASS
  1
MENTALRAYRENDERSETTINGS
  2
AcDbMentalRayRenderSettings
  3
SCENEOE
 90
     1024
 91
        1
280
     0
281
     0
  0
CLASS
  1
ACDB_BLOCKREPRESENTATION_DATA
  2
AcDbBlockRepresentationData
  3
ObjectDBX Classes
 90
     1153
 91
        0
280
     0
281
     0
  0
CLASS
  1
DIMASSOC
  2
AcDbDimAssoc
  3
"AcDbDimAssoc|Product Desc:     AcDim ARX App For Dimension|Company:          Autodesk, Inc.|WEB Address:      www.autodesk.com"
 90
        0
 91
        1
280
     0
281
     0
  0
ENDSEC
  0
SECTION
  2
TABLES
  0
TABLE
  2
VPORT
  5
8
102
{ACAD_XDICTIONARY
360
50EE
102
}
330
0
100
AcDbSymbolTable
 70
     1
  0
VPORT
  5
29
330
8
100
AcDbSymbolTableRecord
100
AcDbViewportTableRecord
  2
*Active
 70
     0
 10
0.0
 20
0.0
 11
1.0
 21
1.0
 12
414.201301701348
 22
104.1099679404001
 13
0.0
 23
0.0
 14
0.5
 24
0.5
 15
0.5
 25
0.5
 16
0.0
 26
0.0
 36
1.0
 17
104.9654968719086
 27
148.5022307685978
 37
0.0
 40
258.3107762714023
 41
1.967136150234741
 42
50.0
 43
0.0
 44
0.0
 50
0.0
 51
0.0
 71
     0
 72
   100
 73
     1
 74
     3
 75
     0
 76
     0
 77
     0
 78
     0
281
     0
 65
     1
110
0.0
120
0.0
130
0.0
111
1.0
121
0.0
131
0.0
112
0.0
122
1.0
132
0.0
 79
     0
146
0.0
348
2F
 60
     3
 61
     5
292
     1
282
     1
141
0.0
142
0.0
 63
   250
421
  3355443
  0
ENDTAB
  0
TABLE
  2
LTYPE
  5
5
330
0
100
AcDbSymbolTable
 70
     2
  0
LTYPE
  5
14
330
5
100
AcDbSymbolTableRecord
100
AcDbLinetypeTableRecord
  2
ByBlock
 70
     0
  3

 72
    65
 73
     0
 40
0.0
  0
LTYPE
  5
15
330
5
100
AcDbSymbolTableRecord
100
AcDbLinetypeTableRecord
  2
ByLayer
 70
     0
  3

 72
    65
 73
     0
 40
0.0
  0
LTYPE
  5
16
330
5
100
AcDbSymbolTableRecord
100
AcDbLinetypeTableRecord
  2
Continuous
 70
     0
  3
Solid line
 72
    65
 73
     0
 40
0.0
  0
LTYPE
  5
67BA
330
5
100
AcDbSymbolTableRecord
100
AcDbLinetypeTableRecord
  2
CENTER
 70
     0
  3
Center ____ _ ____ _ ____ _ ____ _ ____ _ ____
 72
    65
 73
     4
 40
2.0
 49
1.25
 74
     0
 49
-0.25
 74
     0
 49
0.25
 74
     0
 49
-0.25
 74
     0
  0
ENDTAB
  0
TABLE
  2
LAYER
  5
2
102
{ACAD_XDICTIONARY
360
50B8
102
}
330
0
100
AcDbSymbolTable
 70
    12
  0
LAYER
  5
10
102
{ACAD_XDICTIONARY
360
50D0
102
}
330
2
100
AcDbSymbolTableRecord
100
AcDbLayerTableRecord
  2
0
 70
     0
 62
     7
  6
Continuous
370
    30
390
F
347
4FF6
  0
LAYER
  5
3B
102
{ACAD_XDICTIONARY
360
50D2
102
}
330
2
100
AcDbSymbolTableRecord
100
AcDbLayerTableRecord
  2
图层 1
 70
     0
 62
     7
  6
Continuous
370
    -3
390
F
347
4FF6
  0
LAYER
  5
50AE
102
{ACAD_XDICTIONARY
360
50AF
102
}
330
2
100
AcDbSymbolTableRecord
100
AcDbLayerTableRecord
  2
图框
 70
     0
 62
     7
  6
Continuous
370
    20
390
F
347
4FF6
  0
LAYER
  5
5141
330
2
100
AcDbSymbolTableRecord
100
AcDbLayerTableRecord
  2
Defpoints
 70
     0
 62
     7
  6
Continuous
290
     0
370
    -3
390
F
347
4FF6
  0
LAYER
  5
5144
330
2
100
AcDbSymbolTableRecord
100
AcDbLayerTableRecord
  2
DIM
 70
     0
 62
     3
  6
Continuous
370
    15
390
F
347
4FF6
1001
AcAecLayerStandard
1000

1000

  0
LAYER
  5
52F3
330
2
100
AcDbSymbolTableRecord
100
AcDbLayerTableRecord
  2
打标文字
 70
     0
 62
     3
  6
Continuous
370
    20
390
F
347
4FF6
  0
LAYER
  5
67B7
330
2
100
AcDbSymbolTableRecord
100
AcDbLayerTableRecord
  2
CEN
 70
     0
 62
     1
  6
CENTER
370
    15
390
F
347
4FF6
1001
AcAecLayerStandard
1000

1000

  0
LAYER
  5
11B6B
330
2
100
AcDbSymbolTableRecord
100
AcDbLayerTableRecord
  2
hat
 70
     0
 62
     6
  6
Continuous
370
    15
390
F
347
4FF6
1001
AcAecLayerStandard
1000

1000

  0
LAYER
  5
17660
330
2
100
AcDbSymbolTableRecord
100
AcDbLayerTableRecord
  2
5
 70
     0
 62
     7
  6
Continuous
370
    -3
390
F
347
4FF6
  0
LAYER
  5
18517
102
{ACAD_XDICTIONARY
360
18518
102
}
330
2
100
AcDbSymbolTableRecord
100
AcDbLayerTableRecord
  2
hatch
 70
     0
 62
    56
  6
Continuous
370
     0
390
F
347
4FF6
  0
LAYER
  5
18519
102
{ACAD_XDICTIONARY
360
1851A
102
}
330
2
100
AcDbSymbolTableRecord
100
AcDbLayerTableRecord
  2
02___PRT_ALL_AXES
 70
     0
 62
     7
  6
Continuous
370
    -3
390
F
347
4FF6
  0
LAYER
  5
1851B
102
{ACAD_XDICTIONARY
360
1851C
102
}
330
2
100
AcDbSymbolTableRecord
100
AcDbLayerTableRecord
  2
CHSM650-240_DXF_CONTINUOUS_LINE
 70
     0
 62
     7
  6
Continuous
370
    -3
390
F
347
4FF6
  0
ENDTAB
  0
TABLE
  2
STYLE
  5
3
330
0
100
AcDbSymbolTable
 70
     4
  0
STYLE
  5
11
330
3
100
AcDbSymbolTableRecord
100
AcDbTextStyleTableRecord
  2
Standard
 70
     0
 40
0.0
 41
0.75
 50
0.0
 71
     0
 42
0.2
  3

  4

1001
ACAD
1000
仿宋_GB2312
1071
    34353
  0
STYLE
  5
FD48
330
3
100
AcDbSymbolTableRecord
100
AcDbTextStyleTableRecord
  2
Romans字体
 70
     0
 40
0.0
 41
0.75
 50
0.0
 71
     0
 42
0.2
  3
romans.shx
  4

  0
STYLE
  5
11080
330
3
100
AcDbSymbolTableRecord
100
AcDbTextStyleTableRecord
  2
工程字
 70
     0
 40
0.0
 41
1.0
 50
0.0
 71
     0
 42
3.5
  3
gbenor.shx
  4
gbcbig.shx
  0
STYLE
  5
11081
330
3
100
AcDbSymbolTableRecord
100
AcDbTextStyleTableRecord
  2
Chinese
 70
     0
 40
0.0
 41
1.0
 50
0.0
 71
     0
 42
2.5
  3

  4

1001
ACAD
1000
PMingLiU
1071
    34834
  0
ENDTAB
  0
TABLE
  2
VIEW
  5
6
330
0
100
AcDbSymbolTable
 70
     0
  0
ENDTAB
  0
TABLE
  2
UCS
  5
7
330
0
100
AcDbSymbolTable
 70
     0
  0
ENDTAB
  0
TABLE
  2
APPID
  5
9
330
0
100
AcDbSymbolTable
 70
    18
  0
APPID
  5
12
330
9
100
AcDbSymbolTableRecord
100
AcDbRegAppTableRecord
  2
ACAD
 70
     0
  0
APPID
  5
5024
330
9
100
AcDbSymbolTableRecord
100
AcDbRegAppTableRecord
  2
ACAD_MLEADERVER
 70
     0
  0
APPID
  5
50B5
330
9
100
AcDbSymbolTableRecord
100
AcDbRegAppTableRecord
  2
AcDbDynamicBlockGUID
 70
     0
  0
APPID
  5
50B6
330
9
100
AcDbSymbolTableRecord
100
AcDbRegAppTableRecord
  2
AcDbBlockRepETag
 70
     0
  0
APPID
  5
50B7
330
9
100
AcDbSymbolTableRecord
100
AcDbRegAppTableRecord
  2
ACAD_PSEXT
 70
     0
  0
APPID
  5
50CF
330
9
100
AcDbSymbolTableRecord
100
AcDbRegAppTableRecord
  2
AcadAnnoPO
 70
     0
  0
APPID
  5
5146
330
9
100
AcDbSymbolTableRecord
100
AcDbRegAppTableRecord
  2
AcAecLayerStandard
 70
     0
  0
APPID
  5
5147
330
9
100
AcDbSymbolTableRecord
100
AcDbRegAppTableRecord
  2
ACAD_DSTYLE_DIMJAG
 70
     0
  0
APPID
  5
5148
330
9
100
AcDbSymbolTableRecord
100
AcDbRegAppTableRecord
  2
ACAD_DSTYLE_DIMTALN
 70
     0
  0
APPID
  5
52AD
330
9
100
AcDbSymbolTableRecord
100
AcDbRegAppTableRecord
  2
ACAUTHENVIRON
 70
     0
  0
APPID
  5
52B0
330
9
100
AcDbSymbolTableRecord
100
AcDbRegAppTableRecord
  2
AcDbDynamicBlockTrueName
 70
     0
  0
APPID
  5
67C6
330
9
100
AcDbSymbolTableRecord
100
AcDbRegAppTableRecord
  2
ACAD_EXEMPT_FROM_CAD_STANDARDS
 70
     0
  0
APPID
  5
6838
330
9
100
AcDbSymbolTableRecord
100
AcDbRegAppTableRecord
  2
ACAD_NAV_VCDISPLAY
 70
     0
  0
APPID
  5
70A9
330
9
100
AcDbSymbolTableRecord
100
AcDbRegAppTableRecord
  2
DCO15
 70
     0
  0
APPID
  5
8725
330
9
100
AcDbSymbolTableRecord
100
AcDbRegAppTableRecord
  2
AcDbBlockRepBTag
 70
     0
  0
APPID
  5
FE64
330
9
100
AcDbSymbolTableRecord
100
AcDbRegAppTableRecord
  2
ACAD_DSTYLE_DIMRADIAL_EXTENSION
 70
     0
  0
APPID
  5
FF93
330
9
100
AcDbSymbolTableRecord
100
AcDbRegAppTableRecord
  2
ACAD_DSTYLE_DIMBREAK
 70
     0
  0
APPID
  5
18520
330
9
100
AcDbSymbolTableRecord
100
AcDbRegAppTableRecord
  2
ACAD_DSTYLE_DIMINSPECT
 70
     0
  0
ENDTAB
  0
TABLE
  2
DIMSTYLE
  5
A
330
0
100
AcDbSymbolTable
 70
     5
100
AcDbDimStyleTable
 71
     2
340
5145
340
27
  0
DIMSTYLE
105
27
330
A
100
AcDbSymbolTableRecord
100
AcDbDimStyleTableRecord
  2
Standard
 70
     0
340
11
  0
DIMSTYLE
105
5145
102
{ACAD_REACTORS
330
182A7
330
182A8
330
182A9
330
182AA
330
182AB
330
182AC
330
182AD
102
}
330
A
100
AcDbSymbolTableRecord
100
AcDbDimStyleTableRecord
  2
01
 70
     0
 41
3.0
 42
0.2
 43
0.2
 44
0.5
 73
     0
 74
     0
 77
     1
 78
     8
 79
     2
140
3.5
141
0.0
147
0.5
176
     1
177
     6
178
     4
179
     2
271
     1
272
     1
340
FD48
1001
ACAD_DSTYLE_DIMJAG
1070
   388
1040
1.5
1001
ACAD_DSTYLE_DIMTALN
1070
   392
1070
     0
  0
DIMSTYLE
105
1851D
330
A
100
AcDbSymbolTableRecord
100
AcDbDimStyleTableRecord
  2
02
 70
     0
 40
0.65
 41
3.5
 42
1.0
 43
0.1
 44
1.0
 47
0.01
 48
0.000000001
 73
     0
 74
     0
 77
     1
 78
     8
 79
     2
140
4.5
141
0.0
146
0.7
147
1.5
176
     1
177
     6
178
     4
179
     2
271
     2
272
     2
284
     8
340
11
1001
ACAD_DSTYLE_DIMJAG
1070
   388
1040
1.5
1001
ACAD_DSTYLE_DIMTALN
1070
   392
1070
     0
  0
DIMSTYLE
105
1851E
330
A
100
AcDbSymbolTableRecord
100
AcDbDimStyleTableRecord
  2
lin01-1-1
 70
     0
 41
1.5
 42
0.5
 44
0.8
 47
0.01
 48
0.01
 73
     0
 74
     0
 77
     1
 78
     8
 79
     2
140
1.5
147
0.3
176
     1
177
     6
178
     4
179
     1
271
     1
272
     1
284
     8
340
11
1001
ACAD_DSTYLE_DIMBREAK
1070
   391
1040
3.75
1001
ACAD_DSTYLE_DIMJAG
1070
   388
1040
1.5
1001
ACAD_DSTYLE_DIMTALN
1070
   392
1070
     0
  0
DIMSTYLE
105
1851F
330
A
100
AcDbSymbolTableRecord
100
AcDbDimStyleTableRecord
  2
02-1
 70
     0
 40
0.65
 41
2.5
 42
0.0
 43
0.1
 44
2.0
 47
0.01
 48
0.000000001
 73
     0
 74
     0
 77
     1
 78
     8
 79
     2
140
3.5
141
0.0
146
0.7
147
1.5
176
     6
177
     6
178
     2
179
     2
271
     2
272
     2
284
     8
340
11
371
     0
372
     0
1001
ACAD_DSTYLE_DIMBREAK
1070
   391
1040
3.75
1001
ACAD_DSTYLE_DIMJAG
1070
   388
1040
1.5
1001
ACAD_DSTYLE_DIMTALN
1070
   392
1070
     0
  0
ENDTAB
  0
TABLE
  2
BLOCK_RECORD
  5
1
330
0
100
AcDbSymbolTable
 70
    43
  0
BLOCK_RECORD
  5
1F
102
{ACAD_XDICTIONARY
360
67C0
102
}
330
1
100
AcDbSymbolTableRecord
100
AcDbBlockTableRecord
  2
*Model_Space
340
22
 70
     0
280
     1
281
     0
  0
BLOCK_RECORD
  5
1B
330
1
100
AcDbSymbolTableRecord
100
AcDbBlockTableRecord
  2
*Paper_Space
340
1E
 70
     0
280
     1
281
     0
  0
BLOCK_RECORD
  5
23
330
1
100
AcDbSymbolTableRecord
100
AcDbBlockTableRecord
  2
*Paper_Space0
340
26
 70
     0
280
     1
281
     0
  0
BLOCK_RECORD
  5
10FE8
102
{ACAD_XDICTIONARY
360
18A2F
102
}
330
1
100
AcDbSymbolTableRecord
100
AcDbBlockTableRecord
  2
A4图框-NEW
340
0
310
2800000020000000200000000100080000000000000400000000000000000000000000000000000000000000000080000080000000808000800000008000800080800000C0C0C000C0DCC000F0CAA6000020400000206000002080000020A0000020C0000020E00000400000004020000040400000406000004080000040A0
310
000040C0000040E00000600000006020000060400000606000006080000060A0000060C0000060E00000800000008020000080400000806000008080000080A0000080C0000080E00000A0000000A0200000A0400000A0600000A0800000A0A00000A0C00000A0E00000C0000000C0200000C0400000C0600000C0800000C0
310
A00000C0C00000C0E00000E0000000E0200000E0400000E0600000E0800000E0A00000E0C00000E0E00040000000400020004000400040006000400080004000A0004000C0004000E00040200000402020004020400040206000402080004020A0004020C0004020E000404000004040200040404000404060004040800040
310
40A0004040C0004040E00040600000406020004060400040606000406080004060A0004060C0004060E00040800000408020004080400040806000408080004080A0004080C0004080E00040A0000040A0200040A0400040A0600040A0800040A0A00040A0C00040A0E00040C0000040C0200040C0400040C0600040C08000
310
40C0A00040C0C00040C0E00040E0000040E0200040E0400040E0600040E0800040E0A00040E0C00040E0E00080000000800020008000400080006000800080008000A0008000C0008000E00080200000802020008020400080206000802080008020A0008020C0008020E00080400000804020008040400080406000804080
310
008040A0008040C0008040E00080600000806020008060400080606000806080008060A0008060C0008060E00080800000808020008080400080806000808080008080A0008080C0008080E00080A0000080A0200080A0400080A0600080A0800080A0A00080A0C00080A0E00080C0000080C0200080C0400080C0600080C0
310
800080C0A00080C0C00080C0E00080E0000080E0200080E0400080E0600080E0800080E0A00080E0C00080E0E000C0000000C0002000C0004000C0006000C0008000C000A000C000C000C000E000C0200000C0202000C0204000C0206000C0208000C020A000C020C000C020E000C0400000C0402000C0404000C0406000C0
310
408000C040A000C040C000C040E000C0600000C0602000C0604000C0606000C0608000C060A000C060C000C060E000C0800000C0802000C0804000C0806000C0808000C080A000C080C000C080E000C0A00000C0A02000C0A04000C0A06000C0A08000C0A0A000C0A0C000C0A0E000C0C00000C0C02000C0C04000C0C06000
310
C0C08000C0C0A000F0FBFF00A4A0A000808080000000FF0000FF000000FFFF00FF000000FF00FF00FFFF0000FFFFFF0000000000000000000000000000000000000000000000000000000000000000000000000000000000000000000000000000000000000000000000000000000000000000000000000000000000000000
310
000000000000000000000000000000000000000000000000000000000000000000000000000000000000000000000000000000000000000000000000000000000000000000000000000000000000000000000000000000000000000000000000000000000000000000000000000000000000F9F9F9F9F9F9F9F9F9F9F9F9F9
310
F9F9F9F9F9F9F9F9F9F9F9F9F9F9FF00000000F9FF000000000000000000FFFFFFFFFFFFFFFFFFFFFFFFF9FAFAFAFF00000000F9FF000000000000000000FFFFFFFFFFFFFFFFFFFFFFFFFFFFFFFFFF00000000F9FD000000000000000000FFFFFFFFFFFFFFFFFFFFFFFFFFFFFFFFFF00000000F9FF000000000000000000FF
310
FFFFFFFFFFFFFFFFFFFFFFFFFFFFFFFF00000000F9FD000000000000000000FFFFFFFFFFFFFFFFFFFFFFFFFFFFFFFFFF00000000F9FF00000000000000000000000000000000000000000000000000FF00000000F9FD00000000000000000000000000000000000000000000000000FF00000000F9FF000000000000000000
310
00000000000000000000000000000000FF00000000F9FD00000000000000000000000000000000000000000000000000FF00000000F9FF00000000000000000000000000000000000000000000000000FF00000000F9FD00000000000000000000000000000000000000000000000000FF00000000F9FD0000000000000000
310
0000000000000000000000000000000000FF00000000F9FF00000000000000000000000000000000000000000000000000FF00000000F9FD00000000000000000000000000000000000000000000000000FF00000000F9FF00000000000000000000000000000000000000000000000000FF00000000F9FD00000000000000
310
000000000000000000000000000000000000FF00000000F9FF00000000000000000000000000000000000000000000000000FF00000000F9FFFFFFFFFFFFFFFFFFFFFFFFFFFFFFFFFFFFFFFFFFFFFFFFFFFFFF00000000F9FFFFFFF9F9F9F9F9F9F9F9F9F9F9F9F9F9F9F9F9F9F9F9F9F9F9F9000000000000000000000000
310
00000000000000000000000000000000000000000000000000000000000000000000000000000000000000000000000000000000000000000000000000000000000000000000000000000000000000000000000000000000000000000000000000000000000000000000000000000000000000000000000000000000000000
310
0000000000000000000000000000000000000000000000000000000000000000000000000000000000000000000000000000000000000000
102
{BLKREFS
331
1382D
102
}
 70
     4
280
     1
281
     0
1001
AcDbDynamicBlockGUID
1000
{A53B2C71-C424-418B-ACAA-5C5DC62D2559}
1001
AcDbBlockRepETag
1070
     1
1071
      149
  0
BLOCK_RECORD
  5
175DA
330
1
100
AcDbSymbolTableRecord
100
AcDbBlockTableRecord
  2
*X9
340
0
102
{BLKREFS
331
1815E
102
}
 70
     0
280
     1
281
     0
  0
BLOCK_RECORD
  5
182B0
330
1
100
AcDbSymbolTableRecord
100
AcDbBlockTableRecord
  2
*D17
340
0
 70
     0
280
     1
281
     0
  0
BLOCK_RECORD
  5
182BC
330
1
100
AcDbSymbolTableRecord
100
AcDbBlockTableRecord
  2
*D18
340
0
 70
     0
280
     1
281
     0
  0
BLOCK_RECORD
  5
182C8
330
1
100
AcDbSymbolTableRecord
100
AcDbBlockTableRecord
  2
*D19
340
0
 70
     0
280
     1
281
     0
  0
BLOCK_RECORD
  5
182D4
330
1
100
AcDbSymbolTableRecord
100
AcDbBlockTableRecord
  2
*D20
340
0
 70
     0
280
     1
281
     0
  0
BLOCK_RECORD
  5
182E0
330
1
100
AcDbSymbolTableRecord
100
AcDbBlockTableRecord
  2
*D21
340
0
 70
     0
280
     1
281
     0
  0
BLOCK_RECORD
  5
182EC
330
1
100
AcDbSymbolTableRecord
100
AcDbBlockTableRecord
  2
*D22
340
0
 70
     0
280
     1
281
     0
  0
BLOCK_RECORD
  5
1832E
330
1
100
AcDbSymbolTableRecord
100
AcDbBlockTableRecord
  2
*D23
340
0
 70
     0
280
     1
281
     0
  0
BLOCK_RECORD
  5
1849E
330
1
100
AcDbSymbolTableRecord
100
AcDbBlockTableRecord
  2
SF0_BL1
340
0
 70
     0
280
     1
281
     0
  0
BLOCK_RECORD
  5
184A6
102
{ACAD_XDICTIONARY
360
184A7
102
}
330
1
100
AcDbSymbolTableRecord
100
AcDbBlockTableRecord
  2
A$C072E188C
340
0
 70
     1
280
     1
281
     0
  0
ENDTAB
  0
ENDSEC
  0
SECTION
  2
BLOCKS
  0
BLOCK
  5
20
330
1F
100
AcDbEntity
  8
0
100
AcDbBlockBegin
  2
*Model_Space
 70
     0
 10
0.0
 20
0.0
 30
0.0
  3
*Model_Space
  1

  0
ENDBLK
  5
21
330
1F
100
AcDbEntity
  8
0
100
AcDbBlockEnd
  0
BLOCK
  5
1C
330
1B
100
AcDbEntity
 67
     1
  8
0
100
AcDbBlockBegin
  2
*Paper_Space
 70
     0
 10
0.0
 20
0.0
 30
0.0
  3
*Paper_Space
  1

  0
ENDBLK
  5
1D
330
1B
100
AcDbEntity
 67
     1
  8
0
100
AcDbBlockEnd
  0
BLOCK
  5
24
330
23
100
AcDbEntity
 67
     1
  8
0
100
AcDbBlockBegin
  2
*Paper_Space0
 70
     0
 10
0.0
 20
0.0
 30
0.0
  3
*Paper_Space0
  1

  0
ENDBLK
  5
25
330
23
100
AcDbEntity
 67
     1
  8
0
100
AcDbBlockEnd
  0
BLOCK
  5
10FEA
330
10FE8
100
AcDbEntity
  8
0
100
AcDbBlockBegin
  2
A4图框-NEW
 70
     0
 10
0.0
 20
0.0
 30
0.0
  3
A4图框-NEW
  1

  0
MTEXT
  5
1899A
102
{ACAD_XDICTIONARY
360
18A60
102
}
330
10FE8
100
AcDbEntity
  8
图框
 62
     3
100
AcDbMText
 10
967.6594956750133
 20
499.7664151964293
 30
0.0
 40
2.985513575034151
 41
15.50176341157864
 46
6.292658374511018
 71
     5
 72
     5
  1
BQ LUO
  7
Romans字体
 73
     1
 44
1.0
1001
AcDbBlockRepETag
1070
     1
1071
        0
1005
1899A
1001
ACAD
1000
ACAD_MTEXT_DEFINED_HEIGHT_BEGIN
1070
    46
1040
6.292658374511018
1000
ACAD_MTEXT_DEFINED_HEIGHT_END
  0
MTEXT
  5
1899B
330
10FE8
100
AcDbEntity
  8
图框
 62
     3
100
AcDbMText
 10
983.041569333247
 20
499.7664151964293
 30
0.0
 40
2.487927979195124
 41
15.26238390489051
 46
6.292658374511042
 71
     5
 72
     5
  1
{\W0.7;18.10.2010}
  7
Romans字体
 73
     1
 44
1.0
1001
AcDbBlockRepETag
1070
     1
1071
        1
1005
1899B
1001
ACAD
1000
ACAD_MTEXT_DEFINED_HEIGHT_BEGIN
1070
    46
1040
6.292658374511042
1000
ACAD_MTEXT_DEFINED_HEIGHT_END
  0
MTEXT
  5
1899C
330
10FE8
100
AcDbEntity
  8
图框
 62
     3
100
AcDbMText
 10
1012.477254728976
 20
487.1810984474071
 30
0.0
 40
2.985513575034151
 41
17.64876416884615
 46
6.292658374511455
 71
     5
 72
     5
  1
YY LIN
  7
Romans字体
 73
     1
 44
1.0
1001
AcDbBlockRepETag
1070
     1
1071
        2
1005
1899C
1001
ACAD
1000
ACAD_MTEXT_DEFINED_HEIGHT_BEGIN
1070
    46
1040
6.292658374511455
1000
ACAD_MTEXT_DEFINED_HEIGHT_END
  0
MTEXT
  5
1899D
330
10FE8
100
AcDbEntity
  8
图框
 62
     3
100
AcDbMText
 10
1028.977802139886
 20
487.1810984474071
 30
0.0
 40
2.487927979195124
 41
15.35233065297276
 46
6.292658374511495
 71
     5
 72
     5
  1
{\W0.7;18.10.2010}
  7
Romans字体
 73
     1
 44
1.0
1001
AcDbBlockRepETag
1070
     1
1071
        3
1005
1899D
1001
ACAD
1000
ACAD_MTEXT_DEFINED_HEIGHT_BEGIN
1070
    46
1040
6.292658374511495
1000
ACAD_MTEXT_DEFINED_HEIGHT_END
  0
MTEXT
  5
1899E
330
10FE8
100
AcDbEntity
  8
图框
 62
     3
100
AcDbMText
 10
1063.722665487208
 20
525.4145966538831
 30
0.0
 40
2.985513575034151
 41
32.4973914334545
 46
11.82914190181707
 71
     5
 72
     5
  1
-
  7
Romans字体
 73
     1
 44
1.0
1001
AcDbBlockRepETag
1070
     1
1071
        4
1005
1899E
1001
ACAD
1000
ACAD_MTEXT_DEFINED_HEIGHT_BEGIN
1070
    46
1040
11.82914190181707
1000
ACAD_MTEXT_DEFINED_HEIGHT_END
  0
MTEXT
  5
1899F
330
10FE8
100
AcDbEntity
  8
图框
 62
     3
100
AcDbMText
 10
1063.727338552349
 20
513.5854547520641
 30
0.0
 40
2.985513575034151
 41
32.48804530317308
 46
11.82914190182139
 71
     5
 72
     5
  1
-
  7
Romans字体
 73
     1
 44
1.0
1001
AcDbBlockRepETag
1070
     1
1071
        5
1005
1899F
1001
ACAD
1000
ACAD_MTEXT_DEFINED_HEIGHT_BEGIN
1070
    46
1040
11.82914190182139
1000
ACAD_MTEXT_DEFINED_HEIGHT_END
  0
MTEXT
  5
189A0
330
10FE8
100
AcDbEntity
  8
图框
 62
     3
100
AcDbMText
 10
1110.122306614152
 20
526.8006839312707
 30
0.0
 40
2.985513575034151
 41
33.61239199242139
 46
9.05696734704178
 71
     5
 72
     5
  1
-
  7
Romans字体
 73
     1
 44
1.0
1001
AcDbBlockRepETag
1070
     1
1071
        6
1005
189A0
1001
ACAD
1000
ACAD_MTEXT_DEFINED_HEIGHT_BEGIN
1070
    46
1040
9.05696734704178
1000
ACAD_MTEXT_DEFINED_HEIGHT_END
  0
MTEXT
  5
189A1
330
10FE8
100
AcDbEntity
  8
图框
 62
     3
100
AcDbMText
 10
1110.122306614152
 20
500.2775205517162
 30
0.0
 40
2.985513575034151
 41
33.61239199242139
 46
8.871557304763419
 71
     5
 72
     5
  1
-
  7
Romans字体
 73
     1
 44
1.0
1001
AcDbBlockRepETag
1070
     1
1071
        7
1005
189A1
1001
ACAD
1000
ACAD_MTEXT_DEFINED_HEIGHT_BEGIN
1070
    46
1040
8.871557304763419
1000
ACAD_MTEXT_DEFINED_HEIGHT_END
  0
MTEXT
  5
189A2
330
10FE8
100
AcDbEntity
  8
图框
 62
     3
100
AcDbMText
 10
967.6594956750133
 20
493.4737568219182
 30
0.0
 40
2.985513575034151
 41
15.50176341157864
 46
6.292658374510335
 71
     5
 72
     5
  1
P RAO
  7
Romans字体
 73
     1
 44
1.0
1001
AcDbBlockRepETag
1070
     1
1071
        8
1005
189A2
1001
ACAD
1000
ACAD_MTEXT_DEFINED_HEIGHT_BEGIN
1070
    46
1040
6.292658374510335
1000
ACAD_MTEXT_DEFINED_HEIGHT_END
  0
MTEXT
  5
189A3
330
10FE8
100
AcDbEntity
  8
图框
 62
     3
100
AcDbMText
 10
983.041569333247
 20
493.2441970450405
 30
0.0
 40
2.487927979195124
 41
15.26238390489051
 46
6.751777928266487
 71
     5
 72
     5
  1
{\W0.7;18.10.2010}
  7
Romans字体
 73
     1
 44
1.0
1001
AcDbBlockRepETag
1070
     1
1071
        9
1005
189A3
1001
ACAD
1000
ACAD_MTEXT_DEFINED_HEIGHT_BEGIN
1070
    46
1040
6.751777928266487
1000
ACAD_MTEXT_DEFINED_HEIGHT_END
  0
MTEXT
  5
189A4
330
10FE8
100
AcDbEntity
  8
图框
 62
     3
100
AcDbMText
 10
1012.477254728976
 20
499.7664151964291
 30
0.0
 40
2.985513575034151
 41
17.64876416884615
 46
6.292658374511397
 71
     5
 72
     5
  1
-
  7
Romans字体
 73
     1
 44
1.0
1001
AcDbBlockRepETag
1070
     1
1071
       10
1005
189A4
1001
ACAD
1000
ACAD_MTEXT_DEFINED_HEIGHT_BEGIN
1070
    46
1040
6.292658374511397
1000
ACAD_MTEXT_DEFINED_HEIGHT_END
  0
MTEXT
  5
189A5
330
10FE8
100
AcDbEntity
  8
图框
 62
     3
100
AcDbMText
 10
1028.977802139886
 20
499.7664151964289
 30
0.0
 40
2.487927979195124
 41
15.35233065297265
 46
6.292658374511382
 71
     5
 72
     5
  1
-
  7
Romans字体
 73
     1
 44
1.0
1001
AcDbBlockRepETag
1070
     1
1071
       11
1005
189A5
1001
ACAD
1000
ACAD_MTEXT_DEFINED_HEIGHT_BEGIN
1070
    46
1040
6.292658374511382
1000
ACAD_MTEXT_DEFINED_HEIGHT_END
  0
MTEXT
  5
189A6
330
10FE8
100
AcDbEntity
  8
图框
 62
     3
100
AcDbMText
 10
967.6594956750133
 20
487.1810984474071
 30
0.0
 40
2.985513575034151
 41
15.50176341157863
 46
6.292658374511478
 71
     5
 72
     5
  1
-
  7
Romans字体
 73
     1
 44
1.0
1001
AcDbBlockRepETag
1070
     1
1071
       12
1005
189A6
1001
ACAD
1000
ACAD_MTEXT_DEFINED_HEIGHT_BEGIN
1070
    46
1040
6.292658374511478
1000
ACAD_MTEXT_DEFINED_HEIGHT_END
  0
MTEXT
  5
189A7
330
10FE8
100
AcDbEntity
  8
图框
 62
     3
100
AcDbMText
 10
983.041569333247
 20
487.1810984474071
 30
0.0
 40
2.487927979195124
 41
15.26238390489062
 46
6.292658374511495
 71
     5
 72
     5
  1
-
  7
Romans字体
 73
     1
 44
1.0
1001
AcDbBlockRepETag
1070
     1
1071
       13
1005
189A7
1001
ACAD
1000
ACAD_MTEXT_DEFINED_HEIGHT_BEGIN
1070
    46
1040
6.292658374511495
1000
ACAD_MTEXT_DEFINED_HEIGHT_END
  0
MTEXT
  5
189A8
330
10FE8
100
AcDbEntity
  8
图框
 62
     3
100
AcDbMText
 10
1074.556686986741
 20
495.8417418993361
 30
0.0
 40
2.985513575034151
 41
10.82934843438978
 46
7.886094601210427
 71
     5
 72
     5
  1
-
  7
Romans字体
 73
     1
 44
1.0
1001
AcDbBlockRepETag
1070
     1
1071
       14
1005
189A8
1001
ACAD
1000
ACAD_MTEXT_DEFINED_HEIGHT_BEGIN
1070
    46
1040
7.886094601210427
1000
ACAD_MTEXT_DEFINED_HEIGHT_END
  0
LINE
  5
189A9
330
10FE8
100
AcDbEntity
  8
图框
370
    -3
100
AcDbLine
 10
1036.653967466372
 20
499.7847891999413
 30
0.0
 11
1079.971361203936
 21
499.7847891999413
 31
0.0
1001
AcDbBlockRepETag
1070
     1
1071
       15
1005
189A9
  0
MTEXT
  5
189AA
330
10FE8
100
AcDbEntity
  8
图框
 62
     1
370
    20
100
AcDbMText
 10
1108.26336443907
 20
491.5162596080882
 30
0.0
 40
2.699054613030988
 41
82.30831305643079
 46
0.0
 71
     5
 72
     5
  1
{\fSimHei|b0|i0|c134|p2;厦门唯恩电气有限公司}
 73
     1
 44
1.0
1001
AcDbBlockRepETag
1070
     1
1071
       16
1005
189AA
  0
MTEXT
  5
189AB
330
10FE8
100
AcDbEntity
  8
图框
 62
     3
370
    20
100
AcDbMText
 10
1108.435451459908
 20
487.298967726064
 30
0.0
 40
1.652482416141417
 41
68.08558693693567
 46
0.0
 71
     5
 72
     5
  1
{\fArial Narrow|b0|i0|c0|p34;XIAMEN WAIN ELECTRICAL CO.LTD}
  7
工程字
 73
     1
 44
1.0
1001
AcDbBlockRepETag
1070
     1
1071
       17
1005
189AB
  0
MTEXT
  5
189AC
330
10FE8
100
AcDbEntity
  8
图框
 62
     1
370
    20
100
AcDbMText
 10
1085.711816899387
 20
491.0944802995856
 30
0.0
 40
2.005930044038334
 41
5.047240019334847
 46
0.0
 71
     1
 72
     5
  1
{\fArial|b0|i0|c0|p34;A}
  7
Chinese
 73
     1
 44
1.0
1001
AcDbBlockRepETag
1070
     1
1071
       18
1005
189AC
  0
MTEXT
  5
189AD
330
10FE8
100
AcDbEntity
  8
图框
 62
     1
370
    20
100
AcDbMText
 10
1088.213485935716
 20
491.0944802995856
 30
0.0
 40
2.005930044038334
 41
5.047240019334847
 46
0.0
 71
     1
 72
     5
  1
{\fArial|b0|i0|c0|p34;I}
  7
Chinese
 73
     1
 44
1.0
1001
AcDbBlockRepETag
1070
     1
1071
       19
1005
189AD
  0
MTEXT
  5
189AE
330
10FE8
100
AcDbEntity
  8
图框
 62
     1
370
    20
100
AcDbMText
 10
1089.142375222864
 20
491.0822866326808
 30
0.0
 40
2.005930044038334
 41
5.047240019334847
 46
0.0
 71
     1
 72
     5
  1
{\fArial|b0|i0|c0|p34;N}
  7
Chinese
 73
     1
 44
1.0
1001
AcDbBlockRepETag
1070
     1
1071
       20
1005
189AE
  0
MTEXT
  5
189AF
330
10FE8
100
AcDbEntity
  8
图框
100
AcDbMText
 10
1069.142012769545
 20
487.9667319294409
 30
0.0
 40
2.252848170144607
 41
21.65869686878327
 46
7.863925338579296
 71
     5
 72
     5
  1
{\W0.5;\C1;All Dimensions in mm\POriginal Size DIN A 4}
  7
Romans字体
 73
     1
 44
1.0
1001
AcDbBlockRepETag
1070
     1
1071
       21
1005
189AF
1001
ACAD
1000
ACAD_MTEXT_DEFINED_HEIGHT_BEGIN
1070
    46
1040
7.863925338579296
1000
ACAD_MTEXT_DEFINED_HEIGHT_END
  0
MTEXT
  5
189B0
330
10FE8
100
AcDbEntity
  8
图框
  6
ByBlock
 62
     6
370
    18
100
AcDbMText
 10
1127.40434942308
 20
508.7896535755975
 30
0.0
 40
2.651776162684904
 41
2.557913877927211
 46
0.0
 71
     1
 72
     5
  1
A
  7
Romans字体
 11
0.0000000000000001
 21
1.0
 31
0.0
 73
     1
 44
1.0
1001
AcDbBlockRepETag
1070
     1
1071
       22
1005
189B0
  0
MTEXT
  5
189B1
330
10FE8
100
AcDbEntity
  8
图框
 62
     6
100
AcDbMText
 10
1127.40434942308
 20
556.3746573232886
 30
0.0
 40
2.651776162684904
 41
2.557913877927211
 46
0.0
 71
     1
 72
     5
  1
B
  7
Romans字体
 11
0.0000000000000001
 21
1.0
 31
0.0
 73
     1
 44
1.0
1001
AcDbBlockRepETag
1070
     1
1071
       23
1005
189B1
  0
MTEXT
  5
189B2
330
10FE8
100
AcDbEntity
  8
图框
 62
     6
100
AcDbMText
 10
1127.40434942308
 20
607.5539372630998
 30
0.0
 40
2.651776162684904
 41
2.557913877927211
 46
0.0
 71
     1
 72
     5
  1
C
  7
Romans字体
 11
0.0000000000000001
 21
1.0
 31
0.0
 73
     1
 44
1.0
1001
AcDbBlockRepETag
1070
     1
1071
       24
1005
189B2
  0
MTEXT
  5
189B3
330
10FE8
100
AcDbEntity
  8
图框
 62
     6
100
AcDbMText
 10
1127.40434942308
 20
658.7332172029115
 30
0.0
 40
2.651776162684904
 41
2.557913877927211
 46
0.0
 71
     1
 72
     5
  1
D
  7
Romans字体
 11
0.0000000000000001
 21
1.0
 31
0.0
 73
     1
 44
1.0
1001
AcDbBlockRepETag
1070
     1
1071
       25
1005
189B3
  0
LINE
  5
189B4
330
10FE8
100
AcDbEntity
  8
图框
 62
     6
100
AcDbLine
 10
1130.411601781241
 20
634.0726090796082
 30
0.0
 11
1126.928502610363
 21
634.0726090796082
 31
0.0
1001
AcDbBlockRepETag
1070
     1
1071
       26
1005
189B4
  0
LINE
  5
189B5
330
10FE8
100
AcDbEntity
  8
图框
 62
     6
100
AcDbLine
 10
1130.411601781241
 20
582.89332913979
 30
0.0
 11
1126.928502610363
 21
582.89332913979
 31
0.0
1001
AcDbBlockRepETag
1070
     1
1071
       27
1005
189B5
  0
MTEXT
  5
189B6
330
10FE8
100
AcDbEntity
  8
图框
 62
     6
100
AcDbMText
 10
1105.329704038389
 20
483.6164543011163
 30
0.0
 40
2.651776162684904
 41
2.557913877927211
 46
0.0
 71
     1
 72
     5
  1
6
  7
Romans字体
 73
     1
 44
1.0
1001
AcDbBlockRepETag
1070
     1
1071
       28
1005
189B6
  0
LINE
  5
189B7
330
10FE8
100
AcDbEntity
  8
图框
 62
     6
100
AcDbLine
 10
1081.088565155284
 20
484.0347692601515
 30
0.0
 11
1081.088565155284
 21
480.5347692601475
 31
0.0
1001
AcDbBlockRepETag
1070
     1
1071
       29
1005
189B7
  0
MTEXT
  5
189B8
330
10FE8
100
AcDbEntity
  8
图框
 62
     6
100
AcDbMText
 10
1055.900596365941
 20
483.520053108993
 30
0.0
 40
2.651776162684904
 41
2.557913877927211
 46
0.0
 71
     1
 72
     5
  1
5
  7
Romans字体
 73
     1
 44
1.0
1001
AcDbBlockRepETag
1070
     1
1071
       30
1005
189B8
  0
LINE
  5
189B9
330
10FE8
100
AcDbEntity
  8
图框
 62
     6
100
AcDbLine
 10
1031.553386436349
 20
484.0347692601515
 30
0.0
 11
1031.553386436349
 21
480.5347692601475
 31
0.0
1001
AcDbBlockRepETag
1070
     1
1071
       31
1005
189B9
  0
MTEXT
  5
189BA
330
10FE8
100
AcDbEntity
  8
图框
 62
     6
100
AcDbMText
 10
1006.383180575197
 20
483.5687958215896
 30
0.0
 40
2.651776162684904
 41
2.557913877927211
 46
0.0
 71
     1
 72
     5
  1
4
  7
Romans字体
 73
     1
 44
1.0
1001
AcDbBlockRepETag
1070
     1
1071
       32
1005
189BA
  0
LINE
  5
189BB
330
10FE8
100
AcDbEntity
  8
图框
 62
     6
100
AcDbLine
 10
982.0182077173887
 20
484.0347692601515
 30
0.0
 11
982.0182077173887
 21
480.5347692601475
 31
0.0
1001
AcDbBlockRepETag
1070
     1
1071
       33
1005
189BB
  0
MTEXT
  5
189BC
330
10FE8
100
AcDbEntity
  8
图框
 62
     6
100
AcDbMText
 10
956.8302389280352
 20
483.5989680297948
 30
0.0
 40
2.651776162684904
 41
2.557913877927211
 46
0.0
 71
     1
 72
     5
  1
3
  7
Romans字体
 73
     1
 44
1.0
1001
AcDbBlockRepETag
1070
     1
1071
       34
1005
189BC
  0
LINE
  5
189BD
330
10FE8
100
AcDbEntity
  8
图框
 62
     6
100
AcDbLine
 10
932.4830289984245
 20
484.0347692601515
 30
0.0
 11
932.4830289984245
 21
480.5347692601475
 31
0.0
1001
AcDbBlockRepETag
1070
     1
1071
       35
1005
189BD
  0
MTEXT
  5
189BE
330
10FE8
100
AcDbEntity
  8
图框
 62
     6
100
AcDbMText
 10
906.0252349826365
 20
483.6475250013156
 30
0.0
 40
2.651776162684904
 41
2.557913877927211
 46
0.0
 71
     1
 72
     5
  1
2
  7
Romans字体
 73
     1
 44
1.0
1001
AcDbBlockRepETag
1070
     1
1071
       36
1005
189BE
  0
LINE
  5
189BF
330
10FE8
100
AcDbEntity
  8
图框
 62
     6
100
AcDbLine
 10
882.9478502794648
 20
484.0347692601515
 30
0.0
 11
882.9478502794648
 21
480.5347692601475
 31
0.0
1001
AcDbBlockRepETag
1070
     1
1071
       37
1005
189BF
  0
MTEXT
  5
189C0
330
10FE8
100
AcDbEntity
  8
图框
 62
     6
100
AcDbMText
 10
857.7598814901191
 20
483.651829494754
 30
0.0
 40
2.651776162684904
 41
2.557913877927211
 46
0.0
 71
     1
 72
     5
  1
1
  7
Romans字体
 73
     1
 44
1.0
1001
AcDbBlockRepETag
1070
     1
1071
       38
1005
189C0
  0
LINE
  5
189C1
330
10FE8
100
AcDbEntity
  8
图框
370
    50
100
AcDbLine
 10
836.8548209370597
 20
484.0347692601515
 30
0.0
 11
1126.928502610363
 21
484.0347692601515
 31
0.0
1001
AcDbBlockRepETag
1070
     1
1071
       39
1005
189C1
  0
LINE
  5
189C2
330
10FE8
100
AcDbEntity
  8
图框
370
    50
100
AcDbLine
 10
836.9128518455362
 20
484.0178684310246
 30
0.0
 11
836.9128518455394
 21
675.0207195125422
 31
0.0
1001
AcDbBlockRepETag
1070
     1
1071
       40
1005
189C2
  0
MTEXT
  5
189C3
330
10FE8
100
AcDbEntity
  8
图框
 62
     6
100
AcDbMText
 10
833.8475685789031
 20
658.7332172029115
 30
0.0
 40
2.651776162684904
 41
2.557913877927211
 46
0.0
 71
     1
 72
     5
  1
D
  7
Romans字体
 11
0.0000000000000001
 21
1.0
 31
0.0
 73
     1
 44
1.0
1001
AcDbBlockRepETag
1070
     1
1071
       41
1005
189C3
  0
LINE
  5
189C4
330
10FE8
100
AcDbEntity
  8
图框
 62
     6
100
AcDbLine
 10
836.9128518455386
 20
634.0726090796082
 30
0.0
 11
833.4128518455365
 21
634.0726090796082
 31
0.0
1001
AcDbBlockRepETag
1070
     1
1071
       42
1005
189C4
  0
MTEXT
  5
189C5
330
10FE8
100
AcDbEntity
  8
图框
 62
     6
100
AcDbMText
 10
833.9039177480142
 20
607.5539372630998
 30
0.0
 40
2.651776162684904
 41
2.557913877927211
 46
0.0
 71
     1
 72
     5
  1
C
  7
Romans字体
 11
0.0000000000000001
 21
1.0
 31
0.0
 73
     1
 44
1.0
1001
AcDbBlockRepETag
1070
     1
1071
       43
1005
189C5
  0
LINE
  5
189C6
330
10FE8
100
AcDbEntity
  8
图框
 62
     6
100
AcDbLine
 10
836.9128518455378
 20
582.89332913979
 30
0.0
 11
833.4128518455365
 21
582.89332913979
 31
0.0
1001
AcDbBlockRepETag
1070
     1
1071
       44
1005
189C6
  0
MTEXT
  5
189C7
330
10FE8
100
AcDbEntity
  8
图框
 62
     6
100
AcDbMText
 10
833.9039177480142
 20
556.3746573232886
 30
0.0
 40
2.651776162684904
 41
2.557913877927211
 46
0.0
 71
     1
 72
     5
  1
B
  7
Romans字体
 11
0.0000000000000001
 21
1.0
 31
0.0
 73
     1
 44
1.0
1001
AcDbBlockRepETag
1070
     1
1071
       45
1005
189C7
  0
LINE
  5
189C8
330
10FE8
100
AcDbEntity
  8
图框
 62
     6
100
AcDbLine
 10
836.9128518455367
 20
531.714049199969
 30
0.0
 11
833.4128518455365
 21
531.714049199969
 31
0.0
1001
AcDbBlockRepETag
1070
     1
1071
       46
1005
189C8
  0
MTEXT
  5
189C9
330
10FE8
100
AcDbEntity
  8
图框
 62
     6
100
AcDbMText
 10
833.9039177480142
 20
508.7896535755975
 30
0.0
 40
2.651776162684904
 41
2.557913877927211
 46
0.0
 71
     1
 72
     5
  1
A
  7
Romans字体
 11
0.0000000000000001
 21
1.0
 31
0.0
 73
     1
 44
1.0
1001
AcDbBlockRepETag
1070
     1
1071
       47
1005
189C9
  0
LINE
  5
189CA
330
10FE8
100
AcDbEntity
  8
图框
370
    -3
100
AcDbLine
 10
836.9128518455394
 20
675.0207195125422
 30
0.0
 11
836.9128518455394
 21
684.5021384922564
 31
0.0
1001
AcDbBlockRepETag
1070
     1
1071
       48
1005
189CA
  0
LINE
  5
189CB
330
10FE8
100
AcDbEntity
  8
图框
370
    -3
100
AcDbLine
 10
842.6237321475781
 20
675.5347692601515
 30
0.0
 11
842.6237321475781
 21
685.0161882398658
 31
0.0
1001
AcDbBlockRepETag
1070
     1
1071
       49
1005
189CB
  0
LINE
  5
189CC
330
10FE8
100
AcDbEntity
  8
图框
370
    -3
100
AcDbLine
 10
848.3346124496179
 20
675.5347692601515
 30
0.0
 11
848.3346124496179
 21
685.0161882398658
 31
0.0
1001
AcDbBlockRepETag
1070
     1
1071
       50
1005
189CC
  0
LINE
  5
189CD
330
10FE8
100
AcDbEntity
  8
图框
370
    -3
100
AcDbLine
 10
854.0454927516588
 20
675.5347692601515
 30
0.0
 11
854.0454927516588
 21
685.0161882398658
 31
0.0
1001
AcDbBlockRepETag
1070
     1
1071
       51
1005
189CD
  0
LINE
  5
189CE
330
10FE8
100
AcDbEntity
  8
图框
370
    -3
100
AcDbLine
 10
861.5351874539182
 20
675.5347692601515
 30
0.0
 11
861.5351874539182
 21
686.7901958362482
 31
0.0
1001
AcDbBlockRepETag
1070
     1
1071
       52
1005
189CE
  0
MTEXT
  5
189CF
330
10FE8
100
AcDbEntity
  8
图框
 62
     6
100
AcDbMText
 10
1105.329704038389
 20
678.859919059449
 30
0.0
 40
2.651776162684904
 41
2.557913877927211
 46
0.0
 71
     1
 72
     5
  1
6
  7
Romans字体
 73
     1
 44
1.0
1001
AcDbBlockRepETag
1070
     1
1071
       53
1005
189CF
  0
LINE
  5
189D0
330
10FE8
100
AcDbEntity
  8
图框
 62
     6
100
AcDbLine
 10
1081.088565155284
 20
679.0347692601516
 30
0.0
 11
1081.088565155284
 21
675.5347692601515
 31
0.0
1001
AcDbBlockRepETag
1070
     1
1071
       54
1005
189D0
  0
MTEXT
  5
189D1
330
10FE8
100
AcDbEntity
  8
图框
 62
     6
100
AcDbMText
 10
1055.900596365941
 20
678.859919059449
 30
0.0
 40
2.651776162684904
 41
2.557913877927211
 46
0.0
 71
     1
 72
     5
  1
5
  7
Romans字体
 73
     1
 44
1.0
1001
AcDbBlockRepETag
1070
     1
1071
       55
1005
189D1
  0
LINE
  5
189D2
330
10FE8
100
AcDbEntity
  8
图框
 62
     6
100
AcDbLine
 10
1031.553386436349
 20
679.0347692601516
 30
0.0
 11
1031.553386436349
 21
675.5347692601515
 31
0.0
1001
AcDbBlockRepETag
1070
     1
1071
       56
1005
189D2
  0
MTEXT
  5
189D3
330
10FE8
100
AcDbEntity
  8
图框
 62
     6
100
AcDbMText
 10
1006.36541764698
 20
678.7312083656147
 30
0.0
 40
2.651776162684904
 41
2.557913877927211
 46
0.0
 71
     1
 72
     5
  1
4
  7
Romans字体
 73
     1
 44
1.0
1001
AcDbBlockRepETag
1070
     1
1071
       57
1005
189D3
  0
LINE
  5
189D4
330
10FE8
100
AcDbEntity
  8
图框
 62
     6
100
AcDbLine
 10
982.0182077173887
 20
679.0347692601516
 30
0.0
 11
982.0182077173887
 21
675.5347692601515
 31
0.0
1001
AcDbBlockRepETag
1070
     1
1071
       58
1005
189D4
  0
MTEXT
  5
189D5
330
10FE8
100
AcDbEntity
  8
图框
 62
     6
100
AcDbMText
 10
956.8302389280352
 20
678.859919059449
 30
0.0
 40
2.651776162684904
 41
2.557913877927211
 46
0.0
 71
     1
 72
     5
  1
3
  7
Romans字体
 73
     1
 44
1.0
1001
AcDbBlockRepETag
1070
     1
1071
       59
1005
189D5
  0
LINE
  5
189D6
330
10FE8
100
AcDbEntity
  8
图框
 62
     6
100
AcDbLine
 10
932.4830289984245
 20
679.0347692601516
 30
0.0
 11
932.4830289984245
 21
675.5347692601515
 31
0.0
1001
AcDbBlockRepETag
1070
     1
1071
       60
1005
189D6
  0
MTEXT
  5
189D7
330
10FE8
100
AcDbEntity
  8
图框
 62
     6
100
AcDbMText
 10
907.295060209082
 20
678.859919059449
 30
0.0
 40
2.651776162684904
 41
2.557913877927211
 46
0.0
 71
     1
 72
     5
  1
2
  7
Romans字体
 73
     1
 44
1.0
1001
AcDbBlockRepETag
1070
     1
1071
       61
1005
189D7
  0
LINE
  5
189D8
330
10FE8
100
AcDbEntity
  8
图框
 62
     6
100
AcDbLine
 10
882.9478502794648
 20
678.7962435131815
 30
0.0
 11
882.9478502794648
 21
675.5347692601515
 31
0.0
1001
AcDbBlockRepETag
1070
     1
1071
       62
1005
189D8
  0
MTEXT
  5
189D9
330
10FE8
100
AcDbEntity
  8
图框
 62
     6
100
AcDbMText
 10
862.6286629643733
 20
678.859919059449
 30
0.0
 40
2.651776162684904
 41
2.557913877927211
 46
0.0
 71
     1
 72
     5
  1
1
  7
Romans字体
 73
     1
 44
1.0
1001
AcDbBlockRepETag
1070
     1
1071
       63
1005
189D9
  0
LINE
  5
189DA
330
10FE8
100
AcDbEntity
  8
图框
370
    -3
100
AcDbLine
 10
836.9128518455394
 20
675.0207195125422
 30
0.0
 11
836.9128518455394
 21
686.7901958362482
 31
0.0
1001
AcDbBlockRepETag
1070
     1
1071
       64
1005
189DA
  0
LINE
  5
189DB
330
10FE8
100
AcDbEntity
  8
图框
370
    50
100
AcDbLine
 10
836.9128518455394
 20
675.5347692601515
 30
0.0
 11
1126.928502610363
 21
675.5347692601515
 31
0.0
1001
AcDbBlockRepETag
1070
     1
1071
       65
1005
189DB
  0
LINE
  5
189DC
330
10FE8
100
AcDbEntity
  8
图框
370
    -3
100
AcDbLine
 10
842.6237321475781
 20
675.5347692601515
 30
0.0
 11
842.6237321475781
 21
686.7901958362482
 31
0.0
1001
AcDbBlockRepETag
1070
     1
1071
       66
1005
189DC
  0
LINE
  5
189DD
330
10FE8
100
AcDbEntity
  8
图框
370
    -3
100
AcDbLine
 10
848.3346124496179
 20
675.5347692601515
 30
0.0
 11
848.3346124496179
 21
686.7901958362482
 31
0.0
1001
AcDbBlockRepETag
1070
     1
1071
       67
1005
189DD
  0
MTEXT
  5
189DE
102
{ACAD_XDICTIONARY
360
18A62
102
}
330
10FE8
100
AcDbEntity
  8
图框
100
AcDbMText
 10
857.7903401027889
 20
686.7901958362482
 30
0.0
 40
1.958998408821398
 41
11.25542657609672
 46
7.489694702258906
 71
     4
 72
     5
  1
\pi2.8203;档案员{\H0.7x;\P\pi1.4159;\Fromans|c134;Filing Clerk\fFangSong_GB2312|b0|i0|c134|p49; }
 11
-0.0000000000000002
 21
-1.0
 31
0.0
 73
     1
 44
1.0
1001
AcDbBlockRepETag
1070
     1
1071
       68
1005
189DE
1001
ACAD
1000
ACAD_MTEXT_DEFINED_HEIGHT_BEGIN
1070
    46
1040
7.489694702258906
1000
ACAD_MTEXT_DEFINED_HEIGHT_END
  0
MTEXT
  5
189DF
102
{ACAD_XDICTIONARY
360
18A64
102
}
330
10FE8
100
AcDbEntity
  8
图框
100
AcDbMText
 10
845.479172298598
 20
686.7901958362482
 30
0.0
 40
1.958998408821398
 41
11.25542657609672
 46
5.710880302039671
 71
     4
 72
     5
  1
\pi0.7115;日期{\Fromans|c134;/Date}
 11
-0.0000000000000002
 21
-1.0
 31
0.0
 73
     1
 44
1.0
1001
AcDbBlockRepETag
1070
     1
1071
       69
1005
189DF
1001
ACAD
1000
ACAD_MTEXT_DEFINED_HEIGHT_BEGIN
1070
    46
1040
5.710880302039671
1000
ACAD_MTEXT_DEFINED_HEIGHT_END
  0
LINE
  5
189E0
330
10FE8
100
AcDbEntity
  8
图框
370
    -3
100
AcDbLine
 10
854.0454927516588
 20
675.5347692601515
 30
0.0
 11
854.0454927516588
 21
686.7901958362482
 31
0.0
1001
AcDbBlockRepETag
1070
     1
1071
       70
1005
189E0
  0
LINE
  5
189E1
330
10FE8
100
AcDbEntity
  8
图框
370
    -3
100
AcDbLine
 10
1036.653967466372
 20
531.3291676047914
 30
0.0
 11
1036.653967466372
 21
484.0126019753161
 31
0.0
1001
AcDbBlockRepETag
1070
     1
1071
       71
1005
189E1
  0
LINE
  5
189E2
330
10FE8
100
AcDbEntity
  8
图框
370
    -3
100
AcDbLine
 10
1047.483315900763
 20
507.6708838011533
 30
0.0
 11
1047.483315900763
 21
491.8986945987308
 31
0.0
1001
AcDbBlockRepETag
1070
     1
1071
       72
1005
189E2
  0
LINE
  5
189E3
330
10FE8
100
AcDbEntity
  8
图框
370
    -3
100
AcDbLine
 10
1058.312664335153
 20
507.6708838011533
 30
0.0
 11
1058.312664335153
 21
484.0347692601515
 31
0.0
1001
AcDbBlockRepETag
1070
     1
1071
       73
1005
189E3
  0
LINE
  5
189E4
330
10FE8
100
AcDbEntity
  8
图框
370
    25
100
AcDbLine
 10
1048.474135214456
 20
488.1095628329926
 30
0.0
 11
1054.946420288459
 21
488.1095628329926
 31
0.0
1001
AcDbBlockRepETag
1070
     1
1071
       74
1005
189E4
  0
LINE
  5
189E5
330
10FE8
100
AcDbEntity
  8
图框
370
    25
100
AcDbLine
 10
1054.232527365989
 20
487.0761716842634
 30
0.0
 11
1049.156490914508
 21
486.4576273751
 31
0.0
1001
AcDbBlockRepETag
1070
     1
1071
       75
1005
189E5
  0
LINE
  5
189E6
330
10FE8
100
AcDbEntity
  8
图框
370
    25
100
AcDbLine
 10
1054.232527365989
 20
489.1429539817209
 30
0.0
 11
1049.156490914508
 21
489.7614982908846
 31
0.0
1001
AcDbBlockRepETag
1070
     1
1071
       76
1005
189E6
  0
LINE
  5
189E7
330
10FE8
100
AcDbEntity
  8
图框
370
    25
100
AcDbLine
 10
1049.156490914508
 20
489.7614982908846
 30
0.0
 11
1049.156490914508
 21
486.4576273751
 31
0.0
1001
AcDbBlockRepETag
1070
     1
1071
       77
1005
189E7
  0
LINE
  5
189E8
330
10FE8
100
AcDbEntity
  8
图框
370
    25
100
AcDbLine
 10
1054.232527365989
 20
489.1429539817209
 30
0.0
 11
1054.232527365989
 21
487.0761716842634
 31
0.0
1001
AcDbBlockRepETag
1070
     1
1071
       78
1005
189E8
  0
CIRCLE
  5
189E9
330
10FE8
100
AcDbEntity
  8
图框
370
    25
100
AcDbCircle
 10
1042.502700458579
 20
488.1095628329926
 30
0.0
 40
1.651935457891863
1001
AcDbBlockRepETag
1070
     1
1071
       79
1005
189E9
  0
CIRCLE
  5
189EA
330
10FE8
100
AcDbEntity
  8
图框
370
    25
100
AcDbCircle
 10
1042.502700458579
 20
488.1095628329926
 30
0.0
 40
1.033391148728775
1001
AcDbBlockRepETag
1070
     1
1071
       80
1005
189EA
  0
LINE
  5
189EB
330
10FE8
100
AcDbEntity
  8
图框
370
    25
100
AcDbLine
 10
1040.136872078216
 20
488.1095628329926
 30
0.0
 11
1044.868528838943
 21
488.1095628329926
 31
0.0
1001
AcDbBlockRepETag
1070
     1
1071
       81
1005
189EB
  0
LINE
  5
189EC
330
10FE8
100
AcDbEntity
  8
图框
370
    25
100
AcDbLine
 10
1042.502700458579
 20
490.475391213355
 30
0.0
 11
1042.502700458579
 21
485.743734452629
 31
0.0
1001
AcDbBlockRepETag
1070
     1
1071
       82
1005
189EC
  0
LINE
  5
189ED
330
10FE8
100
AcDbEntity
  8
图框
370
    -3
100
AcDbLine
 10
1069.142012769546
 20
507.6708838011533
 30
0.0
 11
1069.142012769546
 21
491.8986945987308
 31
0.0
1001
AcDbBlockRepETag
1070
     1
1071
       83
1005
189ED
  0
MTEXT
  5
189EE
330
10FE8
100
AcDbEntity
  8
图框
100
AcDbMText
 10
1086.643735910939
 20
526.8006839312707
 30
0.0
 40
2.154898249703542
 41
13.34474941400573
 46
9.056967347041775
 71
     5
 72
     5
  1
图号{\Ftxt|c134;\P\Fromans|c134;\W0.65;Drawing No.}
 73
     1
 44
1.0
1001
AcDbBlockRepETag
1070
     1
1071
       84
1005
189EE
1001
ACAD
1000
ACAD_MTEXT_DEFINED_HEIGHT_BEGIN
1070
    46
1040
9.056967347041775
1000
ACAD_MTEXT_DEFINED_HEIGHT_END
  0
LINE
  5
189EF
330
10FE8
100
AcDbEntity
  8
图框
370
    -3
100
AcDbLine
 10
1093.316110617942
 20
531.3291676047914
 30
0.0
 11
1093.316110617942
 21
495.8417418993347
 31
0.0
1001
AcDbBlockRepETag
1070
     1
1071
       85
1005
189EF
  0
LINE
  5
189F0
330
10FE8
100
AcDbEntity
  8
图框
370
    -3
100
AcDbLine
 10
1047.473969770481
 20
531.3291676047914
 30
0.0
 11
1047.473969770481
 21
507.6708838011533
 31
0.0
1001
AcDbBlockRepETag
1070
     1
1071
       86
1005
189F0
  0
MTEXT
  5
189F1
330
10FE8
100
AcDbEntity
  8
图框
100
AcDbMText
 10
1063.72733855235
 20
503.7278365005473
 30
0.0
 40
2.252848170144607
 41
10.82934843439208
 46
7.886094601212128
 71
     5
 72
     5
  1
重量\P{\Fromans|c134;Weight}
 73
     1
 44
1.0
1001
AcDbBlockRepETag
1070
     1
1071
       87
1005
189F1
1001
ACAD
1000
ACAD_MTEXT_DEFINED_HEIGHT_BEGIN
1070
    46
1040
7.886094601212128
1000
ACAD_MTEXT_DEFINED_HEIGHT_END
  0
LINE
  5
189F2
330
10FE8
100
AcDbEntity
  8
图框
370
    -3
100
AcDbLine
 10
1036.653967466372
 20
519.5000257029746
 30
0.0
 11
1079.971361203936
 21
519.5000257029746
 31
0.0
1001
AcDbBlockRepETag
1070
     1
1071
       88
1005
189F2
  0
MTEXT
  5
189F3
330
10FE8
100
AcDbEntity
  8
图框
100
AcDbMText
 10
1074.556686986741
 20
503.7278365005473
 30
0.0
 40
2.252848170144607
 41
10.82934843438984
 46
7.886094601212141
 71
     5
 72
     5
  1
数量\P{\Fromans|c134;Qty.}
 73
     1
 44
1.0
1001
AcDbBlockRepETag
1070
     1
1071
       89
1005
189F3
1001
ACAD
1000
ACAD_MTEXT_DEFINED_HEIGHT_BEGIN
1070
    46
1040
7.886094601212141
1000
ACAD_MTEXT_DEFINED_HEIGHT_END
  0
LINE
  5
189F4
330
10FE8
100
AcDbEntity
  8
图框
370
    -3
100
AcDbLine
 10
1079.971361203936
 20
495.8417418993347
 30
0.0
 11
1126.928502610363
 21
495.8417418993342
 31
0.0
1001
AcDbBlockRepETag
1070
     1
1071
       90
1005
189F4
  0
LINE
  5
189F5
330
10FE8
100
AcDbEntity
  8
图框
370
    -3
100
AcDbLine
 10
1079.971361203936
 20
504.7132992040975
 30
0.0
 11
1126.928502610363
 21
504.7132992040975
 31
0.0
1001
AcDbBlockRepETag
1070
     1
1071
       91
1005
189F5
  0
MTEXT
  5
189F6
330
10FE8
100
AcDbEntity
  8
图框
100
AcDbMText
 10
1052.893317052817
 20
503.7278365005473
 30
0.0
 40
2.252848170144607
 41
10.83869456467139
 46
7.886094601212101
 71
     5
 72
     5
  1
版本\P{\Fromans|c134;REV.}
 73
     1
 44
1.0
1001
AcDbBlockRepETag
1070
     1
1071
       92
1005
189F6
1001
ACAD
1000
ACAD_MTEXT_DEFINED_HEIGHT_BEGIN
1070
    46
1040
7.886094601212101
1000
ACAD_MTEXT_DEFINED_HEIGHT_END
  0
MTEXT
  5
189F7
330
10FE8
100
AcDbEntity
  8
图框
100
AcDbMText
 10
1042.068641683568
 20
503.7278365005473
 30
0.0
 40
2.252848170144607
 41
10.8293484343908
 46
7.886094601212136
 71
     5
 72
     5
  1
比例\P{\Fromans|c134;Scale}
 73
     1
 44
1.0
1001
AcDbBlockRepETag
1070
     1
1071
       93
1005
189F7
1001
ACAD
1000
ACAD_MTEXT_DEFINED_HEIGHT_BEGIN
1070
    46
1040
7.886094601212136
1000
ACAD_MTEXT_DEFINED_HEIGHT_END
  0
LINE
  5
189F8
330
10FE8
100
AcDbEntity
  8
图框
370
    -3
100
AcDbLine
 10
1036.653967466372
 20
507.6708838011533
 30
0.0
 11
1079.971361203936
 21
507.6708838011533
 31
0.0
1001
AcDbBlockRepETag
1070
     1
1071
       94
1005
189F8
  0
LINE
  5
189F9
330
10FE8
100
AcDbEntity
  8
图框
370
    -3
100
AcDbLine
 10
1036.653967466372
 20
491.8986945987308
 30
0.0
 11
1079.971361203936
 21
491.8986945987308
 31
0.0
1001
AcDbBlockRepETag
1070
     1
1071
       95
1005
189F9
  0
LINE
  5
189FA
330
10FE8
100
AcDbEntity
  8
图框
370
    -3
100
AcDbLine
 10
1079.971361203936
 20
531.3291676047914
 30
0.0
 11
1079.971361203936
 21
484.0125999975168
 31
0.0
1001
AcDbBlockRepETag
1070
     1
1071
       96
1005
189FA
  0
MTEXT
  5
189FB
330
10FE8
100
AcDbEntity
  8
图框
100
AcDbMText
 10
1042.063968618426
 20
525.4145966538832
 30
0.0
 40
2.252848170144607
 41
10.82000230410933
 46
11.82914190181708
 71
     5
 72
     5
  1
表面处理\P{\Fromans|c134;Finish}
 73
     1
 44
1.0
1001
AcDbBlockRepETag
1070
     1
1071
       97
1005
189FB
1001
ACAD
1000
ACAD_MTEXT_DEFINED_HEIGHT_BEGIN
1070
    46
1040
11.82914190181708
1000
ACAD_MTEXT_DEFINED_HEIGHT_END
  0
MTEXT
  5
189FC
330
10FE8
100
AcDbEntity
  8
图框
100
AcDbMText
 10
1042.063968618426
 20
513.5854547520639
 30
0.0
 40
2.252848170144607
 41
10.82000230410933
 46
11.8291419018212
 71
     5
 72
     5
  1
材料\P{\Fromans|c134;Material}
 73
     1
 44
1.0
1001
AcDbBlockRepETag
1070
     1
1071
       98
1005
189FC
1001
ACAD
1000
ACAD_MTEXT_DEFINED_HEIGHT_BEGIN
1070
    46
1040
11.8291419018212
1000
ACAD_MTEXT_DEFINED_HEIGHT_END
  0
LINE
  5
189FD
330
10FE8
100
AcDbEntity
  8
图框
370
    -3
100
AcDbLine
 10
1079.971361203936
 20
522.27220025775
 30
0.0
 11
1126.928502610363
 21
522.27220025775
 31
0.0
1001
AcDbBlockRepETag
1070
     1
1071
       99
1005
189FD
  0
LINE
  5
189FE
330
10FE8
100
AcDbEntity
  8
图框
370
    -3
100
AcDbLine
 10
1079.971361203936
 20
513.5854547520641
 30
0.0
 11
1126.928502610363
 21
513.5854547520639
 31
0.0
1001
AcDbBlockRepETag
1070
     1
1071
      100
1005
189FE
  0
MTEXT
  5
189FF
330
10FE8
100
AcDbEntity
  8
图框
100
AcDbMText
 10
1086.643735910939
 20
517.9288275049072
 30
0.0
 40
1.958998408821398
 41
13.34474941400573
 46
8.686745505685811
 71
     5
 72
     5
  1
产品代号\P{\Fromans|c134;Part Code}
 73
     1
 44
1.0
1001
AcDbBlockRepETag
1070
     1
1071
      101
1005
189FF
1001
ACAD
1000
ACAD_MTEXT_DEFINED_HEIGHT_BEGIN
1070
    46
1040
8.686745505685811
1000
ACAD_MTEXT_DEFINED_HEIGHT_END
  0
LINE
  5
18A00
330
10FE8
100
AcDbEntity
  8
图框
370
    -3
100
AcDbLine
 10
946.9285026103634
 20
525.7982263931411
 30
0.0
 11
1036.653967466372
 21
525.7982263931411
 31
0.0
1001
AcDbBlockRepETag
1070
     1
1071
      102
1005
18A00
  0
LINE
  5
18A01
330
10FE8
100
AcDbEntity
  8
图框
370
    -3
100
AcDbLine
 10
946.9285026103634
 20
520.2672851814959
 30
0.0
 11
1036.653967466372
 21
520.2672851814959
 31
0.0
1001
AcDbBlockRepETag
1070
     1
1071
      103
1005
18A01
  0
LINE
  5
18A02
330
10FE8
100
AcDbEntity
  8
图框
370
    35
100
AcDbLine
 10
946.9285026103634
 20
531.3291676047914
 30
0.0
 11
1126.928502610363
 21
531.3291676047914
 31
0.0
1001
AcDbBlockRepETag
1070
     1
1071
      104
1005
18A02
  0
LINE
  5
18A03
330
10FE8
100
AcDbEntity
  8
图框
370
    -3
100
AcDbLine
 10
990.6727612856927
 20
509.2054027581959
 30
0.0
 11
990.6727612856927
 21
484.0347692601515
 31
0.0
1001
AcDbBlockRepETag
1070
     1
1071
      105
1005
18A03
  0
MTEXT
  5
18A04
102
{ACAD_XDICTIONARY
360
18A66
102
}
330
10FE8
100
AcDbEntity
  8
图框
100
AcDbMText
 10
997.1628169651232
 20
499.816589978722
 30
0.0
 40
2.252848170144607
 41
12.98011135886052
 46
6.19230880992475
 71
     5
 72
     5
  1
{\fSimSun|b0|i0|c134|p2;标准化}\PStand.
  7
Romans字体
 73
     1
 44
1.0
1001
AcDbBlockRepETag
1070
     1
1071
      106
1005
18A04
1001
ACAD
1000
ACAD_MTEXT_DEFINED_HEIGHT_BEGIN
1070
    46
1040
6.19230880992475
1000
ACAD_MTEXT_DEFINED_HEIGHT_END
  0
LINE
  5
18A05
330
10FE8
100
AcDbEntity
  8
图框
370
    -3
100
AcDbLine
 10
975.4103773808022
 20
509.2054027581959
 30
0.0
 11
975.4103773808022
 21
484.0347692601515
 31
0.0
1001
AcDbBlockRepETag
1070
     1
1071
      107
1005
18A05
  0
MTEXT
  5
18A06
330
10FE8
100
AcDbEntity
  8
图框
100
AcDbMText
 10
984.5089229802068
 20
511.9708733640202
 30
0.0
 40
2.448748011026752
 41
38.287899328693
 46
5.530941211648832
 71
     5
 72
     5
  1
  变更描述{\Fromans|c134;/Description}
 73
     1
 44
1.0
1001
AcDbBlockRepETag
1070
     1
1071
      108
1005
18A06
1001
ACAD
1000
ACAD_MTEXT_DEFINED_HEIGHT_BEGIN
1070
    46
1040
5.530941211648832
1000
ACAD_MTEXT_DEFINED_HEIGHT_END
  0
MTEXT
  5
18A07
102
{ACAD_XDICTIONARY
360
18A68
102
}
330
10FE8
100
AcDbEntity
  8
图框
100
AcDbMText
 10
1012.477254728976
 20
511.9708733640202
 30
0.0
 40
1.958998408821398
 41
17.64876416884548
 46
5.530941211648825
 71
     5
 72
     5
  1
签名\P{\Fromans|c134;Signature} 
 73
     1
 44
1.0
1001
AcDbBlockRepETag
1070
     1
1071
      109
1005
18A07
1001
ACAD
1000
ACAD_MTEXT_DEFINED_HEIGHT_BEGIN
1070
    46
1040
5.530941211648825
1000
ACAD_MTEXT_DEFINED_HEIGHT_END
  0
MTEXT
  5
18A08
102
{ACAD_XDICTIONARY
360
18A6A
102
}
330
10FE8
100
AcDbEntity
  8
图框
100
AcDbMText
 10
960.7558556394856
 20
511.9708733640202
 30
0.0
 40
1.958998408821398
 41
9.218235352749283
 46
5.530941211648841
 71
     5
 72
     5
  1
处数\P{\Fromans|c134;Number }
 73
     1
 44
1.0
1001
AcDbBlockRepETag
1070
     1
1071
      110
1005
18A08
1001
ACAD
1000
ACAD_MTEXT_DEFINED_HEIGHT_BEGIN
1070
    46
1040
5.530941211648841
1000
ACAD_MTEXT_DEFINED_HEIGHT_END
  0
LINE
  5
18A09
330
10FE8
100
AcDbEntity
  8
图框
370
    -3
100
AcDbLine
 10
946.9285026103634
 20
514.7363439698449
 30
0.0
 11
1036.653967466372
 21
514.7363439698449
 31
0.0
1001
AcDbBlockRepETag
1070
     1
1071
      111
1005
18A09
  0
LINE
  5
18A0A
330
10FE8
100
AcDbEntity
  8
图框
370
    -3
100
AcDbLine
 10
946.9285026103634
 20
509.2054027581959
 30
0.0
 11
1036.653967466372
 21
509.2054027581959
 31
0.0
1001
AcDbBlockRepETag
1070
     1
1071
      112
1005
18A0A
  0
LINE
  5
18A0B
330
10FE8
100
AcDbEntity
  8
图框
370
    -3
100
AcDbLine
 10
946.9285026103634
 20
502.9127443836848
 30
0.0
 11
1036.653967466372
 21
502.9127443836848
 31
0.0
1001
AcDbBlockRepETag
1070
     1
1071
      113
1005
18A0B
  0
LINE
  5
18A0C
330
10FE8
100
AcDbEntity
  8
图框
370
    -3
100
AcDbLine
 10
946.9285026103634
 20
496.620086009173
 30
0.0
 11
1036.653967466372
 21
496.620086009173
 31
0.0
1001
AcDbBlockRepETag
1070
     1
1071
      114
1005
18A0C
  0
LINE
  5
18A0D
330
10FE8
100
AcDbEntity
  8
图框
370
    35
380
     1
100
AcDbLine
 10
946.9285026103634
 20
531.3291676047914
 30
0.0
 11
946.9285026103634
 21
484.0347692601515
 31
0.0
1001
AcDbBlockRepETag
1070
     1
1071
      115
1005
18A0D
  0
LINE
  5
18A0E
330
10FE8
100
AcDbEntity
  8
图框
370
    -3
100
AcDbLine
 10
1021.301636813399
 20
531.3291676047914
 30
0.0
 11
1021.301636813399
 21
484.0347692601515
 31
0.0
1001
AcDbBlockRepETag
1070
     1
1071
      116
1005
18A0E
  0
LINE
  5
18A0F
330
10FE8
100
AcDbEntity
  8
图框
370
    -3
100
AcDbLine
 10
1003.652872644553
 20
531.3291676047914
 30
0.0
 11
1003.652872644553
 21
484.0347692601515
 31
0.0
1001
AcDbBlockRepETag
1070
     1
1071
      117
1005
18A0F
  0
LINE
  5
18A10
330
10FE8
100
AcDbEntity
  8
图框
370
    -3
100
AcDbLine
 10
965.3649733158603
 20
531.3291676047914
 30
0.0
 11
965.3649733158603
 21
509.2054027581959
 31
0.0
1001
AcDbBlockRepETag
1070
     1
1071
      118
1005
18A10
  0
LINE
  5
18A11
330
10FE8
100
AcDbEntity
  8
图框
370
    -3
100
AcDbLine
 10
956.1467379631109
 20
531.3291676047914
 30
0.0
 11
956.1467379631109
 21
509.2054027581959
 31
0.0
1001
AcDbBlockRepETag
1070
     1
1071
      119
1005
18A11
  0
MTEXT
  5
18A12
102
{ACAD_XDICTIONARY
360
18A6C
102
}
330
10FE8
100
AcDbEntity
  8
图框
100
AcDbMText
 10
951.537620286737
 20
511.9708733640202
 30
0.0
 40
1.958998408821398
 41
9.218235352747692
 46
5.530941211648832
 71
     5
 72
     5
  1
标记\P{\Fromans|c134;Mark}
 73
     1
 44
1.0
1001
AcDbBlockRepETag
1070
     1
1071
      120
1005
18A12
1001
ACAD
1000
ACAD_MTEXT_DEFINED_HEIGHT_BEGIN
1070
    46
1040
5.530941211648832
1000
ACAD_MTEXT_DEFINED_HEIGHT_END
  0
MTEXT
  5
18A13
102
{ACAD_XDICTIONARY
360
18A6E
102
}
330
10FE8
100
AcDbEntity
  8
图框
100
AcDbMText
 10
953.4185582897936
 20
493.4737568219182
 30
0.0
 40
2.252848170144607
 41
12.98011135886041
 46
6.292658374510382
 71
     5
 72
     5
  1
审核\P{\Fromans|c134;Checked}
 73
     1
 44
1.0
1001
AcDbBlockRepETag
1070
     1
1071
      121
1005
18A13
1001
ACAD
1000
ACAD_MTEXT_DEFINED_HEIGHT_BEGIN
1070
    46
1040
6.292658374510382
1000
ACAD_MTEXT_DEFINED_HEIGHT_END
  0
MTEXT
  5
18A14
102
{ACAD_XDICTIONARY
360
18A70
102
}
330
10FE8
100
AcDbEntity
  8
图框
100
AcDbMText
 10
953.4185582897936
 20
499.8775635376777
 30
0.0
 40
2.252848170144607
 41
12.98011135886041
 46
6.070361692014189
 71
     5
 72
     5
  1
绘图\P{\Fromans|c134;Drawn\Ftxt|c134; }
 73
     1
 44
1.0
1001
AcDbBlockRepETag
1070
     1
1071
      122
1005
18A14
1001
ACAD
1000
ACAD_MTEXT_DEFINED_HEIGHT_BEGIN
1070
    46
1040
6.070361692014189
1000
ACAD_MTEXT_DEFINED_HEIGHT_END
  0
ARC
  5
18A15
330
10FE8
100
AcDbEntity
  8
图框
 62
     4
370
    35
100
AcDbCircle
 10
1086.900627017421
 20
490.0179944151195
 30
0.0
 40
4.063310408393665
100
AcDbArc
 50
18.95237904564806
 51
161.0476209543519
1001
AcDbBlockRepETag
1070
     1
1071
      123
1005
18A15
  0
ARC
  5
18A16
330
10FE8
100
AcDbEntity
  8
图框
 62
     4
370
    35
100
AcDbCircle
 10
1086.900627017421
 20
490.0179944151195
 30
0.0
 40
4.063310408393665
100
AcDbArc
 50
198.952379045648
 51
341.0476209543519
1001
AcDbBlockRepETag
1070
     1
1071
      124
1005
18A16
  0
LINE
  5
18A17
330
10FE8
100
AcDbEntity
  8
图框
 62
     4
370
    35
100
AcDbLine
 10
1083.057593369548
 20
488.6983035966752
 30
0.0
 11
1090.74366066529
 21
488.6983035966752
 31
0.0
1001
AcDbBlockRepETag
1070
     1
1071
      125
1005
18A17
  0
LINE
  5
18A18
330
10FE8
100
AcDbEntity
  8
图框
 62
     4
370
    35
100
AcDbLine
 10
1083.057593369548
 20
491.3376852335652
 30
0.0
 11
1090.74366066529
 21
491.3376852335652
 31
0.0
1001
AcDbBlockRepETag
1070
     1
1071
      126
1005
18A18
  0
MTEXT
  5
18A19
330
10FE8
100
AcDbEntity
  8
图框
 62
     1
370
    20
100
AcDbMText
 10
1083.034582879669
 20
491.0506288081688
 30
0.0
 40
2.005930044038334
 41
5.047240019334847
 46
0.0
 71
     1
 72
     5
  1
{\fArial|b0|i0|c0|p34;W}
  7
Chinese
 73
     1
 44
1.0
1001
AcDbBlockRepETag
1070
     1
1071
      127
1005
18A19
  0
LINE
  5
18A1A
330
10FE8
100
AcDbEntity
  8
图框
370
    -3
100
AcDbLine
 10
946.9285026103634
 20
490.327427634663
 30
0.0
 11
1036.653967466372
 21
490.327427634663
 31
0.0
1001
AcDbBlockRepETag
1070
     1
1071
      128
1005
18A1A
  0
LINE
  5
18A1B
330
10FE8
100
AcDbEntity
  8
图框
370
    -3
100
AcDbLine
 10
959.9086139692238
 20
509.2054027581959
 30
0.0
 11
959.9086139692238
 21
484.0347692601515
 31
0.0
1001
AcDbBlockRepETag
1070
     1
1071
      129
1005
18A1B
  0
MTEXT
  5
18A1C
330
10FE8
100
AcDbEntity
  8
图框
100
AcDbMText
 10
967.6594956750129
 20
506.0590735709403
 30
0.0
 40
2.252848170144607
 41
15.50176341157869
 46
6.292658374511246
 71
     5
 72
     5
  1
姓名{\Fromans|c134;/Name\Ftxt|c134; }
 73
     1
 44
1.0
1001
AcDbBlockRepETag
1070
     1
1071
      130
1005
18A1C
1001
ACAD
1000
ACAD_MTEXT_DEFINED_HEIGHT_BEGIN
1070
    46
1040
6.292658374511246
1000
ACAD_MTEXT_DEFINED_HEIGHT_END
  0
MTEXT
  5
18A1D
330
10FE8
100
AcDbEntity
  8
图框
100
AcDbMText
 10
983.0415693332477
 20
506.0590735709403
 30
0.0
 40
2.252848170144607
 41
15.26238390489042
 46
6.2926583745112
 71
     5
 72
     5
  1
日期{\Fromans|c134;/Date}
 73
     1
 44
1.0
1001
AcDbBlockRepETag
1070
     1
1071
      131
1005
18A1D
1001
ACAD
1000
ACAD_MTEXT_DEFINED_HEIGHT_BEGIN
1070
    46
1040
6.2926583745112
1000
ACAD_MTEXT_DEFINED_HEIGHT_END
  0
LINE
  5
18A1E
330
10FE8
100
AcDbEntity
  8
图框
370
    -3
100
AcDbLine
 10
946.9285026103634
 20
509.2054027581959
 30
0.0
 11
959.9086139692238
 21
502.9127443836848
 31
0.0
1001
AcDbBlockRepETag
1070
     1
1071
      132
1005
18A1E
  0
MTEXT
  5
18A1F
330
10FE8
100
AcDbEntity
  8
图框
100
AcDbMText
 10
1012.931405110086
 20
506.0185715840725
 30
0.0
 40
2.252848170144607
 41
16.93492221063566
 46
0.0
 71
     5
 72
     5
  1
姓名{\Fromans|c134;/Name}
 73
     1
 44
1.0
1001
AcDbBlockRepETag
1070
     1
1071
      133
1005
18A1F
  0
MTEXT
  5
18A20
330
10FE8
100
AcDbEntity
  8
图框
100
AcDbMText
 10
1028.977802139886
 20
506.0590735709403
 30
0.0
 40
2.252848170144607
 41
15.35233065297283
 46
6.292658374511256
 71
     5
 72
     5
  1
日期{\Fromans|c134;/Date}
 73
     1
 44
1.0
1001
AcDbBlockRepETag
1070
     1
1071
      134
1005
18A20
1001
ACAD
1000
ACAD_MTEXT_DEFINED_HEIGHT_BEGIN
1070
    46
1040
6.292658374511256
1000
ACAD_MTEXT_DEFINED_HEIGHT_END
  0
LINE
  5
18A21
330
10FE8
100
AcDbEntity
  8
图框
370
    -3
100
AcDbLine
 10
1003.652872644553
 20
502.9127443836848
 30
0.0
 11
990.6727612856927
 21
509.2054027581959
 31
0.0
1001
AcDbBlockRepETag
1070
     1
1071
      135
1005
18A21
  0
MTEXT
  5
18A22
102
{ACAD_XDICTIONARY
360
18A72
102
}
330
10FE8
100
AcDbEntity
  8
图框
100
AcDbMText
 10
997.1628169651232
 20
487.1810984474071
 30
0.0
 40
2.252848170144607
 41
12.98011135886052
 46
6.292658374511517
 71
     5
 72
     5
  1
批准\P{\Fromans|c134;Approved}
 73
     1
 44
1.0
1001
AcDbBlockRepETag
1070
     1
1071
      136
1005
18A22
1001
ACAD
1000
ACAD_MTEXT_DEFINED_HEIGHT_BEGIN
1070
    46
1040
6.292658374511517
1000
ACAD_MTEXT_DEFINED_HEIGHT_END
  0
MTEXT
  5
18A23
102
{ACAD_XDICTIONARY
360
18A74
102
}
330
10FE8
100
AcDbEntity
  8
图框
100
AcDbMText
 10
953.4185582897936
 20
487.1810984474071
 30
0.0
 40
2.252848170144607
 41
12.98011135886041
 46
6.292658374511495
 71
     5
 72
     5
  1
工艺\P{\Fromans|c134;Process}
 73
     1
 44
1.0
1001
AcDbBlockRepETag
1070
     1
1071
      137
1005
18A23
1001
ACAD
1000
ACAD_MTEXT_DEFINED_HEIGHT_BEGIN
1070
    46
1040
6.292658374511495
1000
ACAD_MTEXT_DEFINED_HEIGHT_END
  0
MTEXT
  5
18A24
102
{ACAD_XDICTIONARY
360
18A76
102
}
330
10FE8
100
AcDbEntity
  8
图框
100
AcDbMText
 10
1028.977802139886
 20
511.9708733640202
 30
0.0
 40
1.958998408821398
 41
15.3523306529728
 46
5.530941211648912
 71
     5
 72
     5
  1
日期\P{\Fromans|c134;Date}
 73
     1
 44
1.0
1001
AcDbBlockRepETag
1070
     1
1071
      138
1005
18A24
1001
ACAD
1000
ACAD_MTEXT_DEFINED_HEIGHT_BEGIN
1070
    46
1040
5.530941211648912
1000
ACAD_MTEXT_DEFINED_HEIGHT_END
  0
MTEXT
  5
18A25
330
10FE8
100
AcDbEntity
  8
图框
100
AcDbMText
 10
1086.643735910939
 20
509.1493769780809
 30
0.0
 40
2.154898249703542
 41
13.34474941400573
 46
8.87215554796615
 71
     5
 72
     5
  1
产品料号\P{\Fromans|c134;Part No.}
 73
     1
 44
1.0
1001
AcDbBlockRepETag
1070
     1
1071
      139
1005
18A25
1001
ACAD
1000
ACAD_MTEXT_DEFINED_HEIGHT_BEGIN
1070
    46
1040
8.87215554796615
1000
ACAD_MTEXT_DEFINED_HEIGHT_END
  0
MTEXT
  5
18A26
330
10FE8
100
AcDbEntity
  8
图框
100
AcDbMText
 10
1086.643735910939
 20
500.2775205517163
 30
0.0
 40
1.958998408821398
 41
13.34474941400573
 46
8.871557304763321
 71
     5
 72
     5
  1
产品名称\P{\Fromans|c134;Part Name}
 73
     1
 44
1.0
1001
AcDbBlockRepETag
1070
     1
1071
      140
1005
18A26
1001
ACAD
1000
ACAD_MTEXT_DEFINED_HEIGHT_BEGIN
1070
    46
1040
8.871557304763321
1000
ACAD_MTEXT_DEFINED_HEIGHT_END
  0
LINE
  5
18A27
330
10FE8
100
AcDbEntity
  8
图框
 62
     1
370
    18
100
AcDbLine
 10
833.4128518455365
 20
690.5347692601515
 30
0.0
 11
833.4128518455365
 21
480.5347692601515
 31
0.0
1001
AcDbBlockRepETag
1070
     1
1071
      141
1005
18A27
  0
LINE
  5
18A28
330
10FE8
100
AcDbEntity
  8
图框
 62
     1
370
    18
100
AcDbLine
 10
833.4128518455365
 20
480.5347692601515
 30
0.0
 11
1130.411601781236
 21
480.5347692601515
 31
0.0
1001
AcDbBlockRepETag
1070
     1
1071
      142
1005
18A28
  0
LINE
  5
18A29
330
10FE8
100
AcDbEntity
  8
图框
 62
     1
370
    18
100
AcDbLine
 10
833.4128518455365
 20
690.5347692601515
 30
0.0
 11
1130.411601781236
 21
690.5347692601515
 31
0.0
1001
AcDbBlockRepETag
1070
     1
1071
      143
1005
18A29
  0
LINE
  5
18A2A
330
10FE8
100
AcDbEntity
  8
图框
 62
     1
370
    18
100
AcDbLine
 10
1130.411601781236
 20
480.5347692601515
 30
0.0
 11
1130.411601781236
 21
690.5347692601515
 31
0.0
1001
AcDbBlockRepETag
1070
     1
1071
      144
1005
18A2A
  0
LINE
  5
18A2B
330
10FE8
100
AcDbEntity
  8
图框
370
    18
100
AcDbLine
 10
836.9128518455394
 20
686.7901958362482
 30
0.0
 11
861.5351874539182
 21
686.7901958362482
 31
0.0
1001
AcDbBlockRepETag
1070
     1
1071
      145
1005
18A2B
  0
LINE
  5
18A2C
330
10FE8
100
AcDbEntity
  8
图框
370
    50
100
AcDbLine
 10
1126.928502610363
 20
484.3410054693078
 30
0.0
 11
1126.928502610363
 21
675.5347692601515
 31
0.0
1001
AcDbBlockRepETag
1070
     1
1071
      146
1005
18A2C
  0
MTEXT
  5
18A2D
330
10FE8
100
AcDbEntity
  8
图框
 62
     3
100
AcDbMText
 10
1052.897990117958
 20
495.8417418993364
 30
0.0
 40
2.985513575034151
 41
10.82934843439114
 46
7.886094601211307
 71
     5
 72
     5
  1
V1.1
  7
Romans字体
 73
     1
 44
1.0
1001
AcDbBlockRepETag
1070
     1
1071
      147
1005
18A2D
1001
ACAD
1000
ACAD_MTEXT_DEFINED_HEIGHT_BEGIN
1070
    46
1040
7.886094601211307
1000
ACAD_MTEXT_DEFINED_HEIGHT_END
  0
LINE
  5
18A2E
330
10FE8
100
AcDbEntity
  8
图框
 62
     6
100
AcDbLine
 10
1126.911601781236
 20
531.714049199969
 30
0.0
 11
1130.411601781236
 21
531.714049199969
 31
0.0
1001
AcDbBlockRepETag
1070
     1
1071
      148
1005
18A2E
  0
ENDBLK
  5
1107F
330
10FE8
100
AcDbEntity
  8
0
100
AcDbBlockEnd
  0
BLOCK
  5
175DB
330
175DA
100
AcDbEntity
  8
0
100
AcDbBlockBegin
  2
*X9
 70
     1
 10
0.0
 20
0.0
 30
0.0
  3
*X9
  1

  0
LINE
  5
175DC
330
175DA
100
AcDbEntity
  8
5
  6
Continuous
 62
     1
100
AcDbLine
 10
-0.26392899
 20
-0.26392899
 30
0.0
 11
0.26392899
 21
0.26392899
 31
0.0
  0
LINE
  5
175DD
330
175DA
100
AcDbEntity
  8
5
  6
Continuous
 62
     1
100
AcDbLine
 10
-1.560660199999999
 20
0.5606601700000004
 30
0.0
 11
0.26392899
 21
2.385249299999999
 31
0.0
  0
LINE
  5
175DE
330
175DA
100
AcDbEntity
  8
5
  6
Continuous
 62
     1
100
AcDbLine
 10
-2.621320299999998
 20
1.6213203
 30
0.0
 11
0.092439706
 21
4.335080399999998
 31
0.0
  0
LINE
  5
175DF
330
175DA
100
AcDbEntity
  8
5
  6
Continuous
 62
     1
100
AcDbLine
 10
-3.681980499999998
 20
2.681980499999998
 30
0.0
 11
-1.252423499999999
 21
5.111537499999998
 31
0.0
  0
LINE
  5
175E0
330
175DA
100
AcDbEntity
  8
5
  6
Continuous
 62
     1
100
AcDbLine
 10
-5.499210399999999
 20
2.986070999999998
 30
0.0
 11
-3.249210399999998
 21
5.236070999999999
 31
0.0
  0
LINE
  5
175E1
330
175DA
100
AcDbEntity
  8
5
  6
Continuous
 62
     1
100
AcDbLine
 10
-7.620530699999997
 20
2.986070999999998
 30
0.0
 11
-5.370530699999997
 21
5.236070999999999
 31
0.0
  0
LINE
  5
175E2
330
175DA
100
AcDbEntity
  8
5
  6
Continuous
 62
     1
100
AcDbLine
 10
-9.741851099999999
 20
2.986070999999998
 30
0.0
 11
-7.491851099999997
 21
5.236070999999999
 31
0.0
  0
LINE
  5
175E3
330
175DA
100
AcDbEntity
  8
5
  6
Continuous
 62
     1
100
AcDbLine
 10
-11.863171
 20
2.986070999999998
 30
0.0
 11
-9.6131714
 21
5.236070999999999
 31
0.0
  0
LINE
  5
175E4
330
175DA
100
AcDbEntity
  8
5
  6
Continuous
 62
     1
100
AcDbLine
 10
-13.984492
 20
2.986070999999998
 30
0.0
 11
-11.734492
 21
5.236070999999999
 31
0.0
  0
LINE
  5
175E5
330
175DA
100
AcDbEntity
  8
5
  6
Continuous
 62
     1
100
AcDbLine
 10
-1.734491699999999
 20
15.236071
 30
0.0
 11
0.26392899
 21
17.234492
 31
0.0
  0
LINE
  5
175E6
330
175DA
100
AcDbEntity
  8
5
  6
Continuous
 62
     1
100
AcDbLine
 10
-16.105812
 20
2.986070999999998
 30
0.0
 11
-13.855812
 21
5.236070999999999
 31
0.0
  0
LINE
  5
175E7
330
175DA
100
AcDbEntity
  8
5
  6
Continuous
 62
     1
100
AcDbLine
 10
-3.855812099999998
 20
15.236071
 30
0.0
 11
0.26392899
 21
19.355812
 31
0.0
  0
LINE
  5
175E8
330
175DA
100
AcDbEntity
  8
5
  6
Continuous
 62
     1
100
AcDbLine
 10
-18.227132
 20
2.986070999999998
 30
0.0
 11
-15.977132
 21
5.236070999999999
 31
0.0
  0
LINE
  5
175E9
330
175DA
100
AcDbEntity
  8
5
  6
Continuous
 62
     1
100
AcDbLine
 10
-5.9771324
 20
15.236071
 30
0.0
 11
-0.47713243
 21
20.736071
 31
0.0
  0
LINE
  5
175EA
330
175DA
100
AcDbEntity
  8
5
  6
Continuous
 62
     1
100
AcDbLine
 10
-20.348453
 20
2.986070999999998
 30
0.0
 11
-18.098453
 21
5.236070999999999
 31
0.0
  0
LINE
  5
175EB
330
175DA
100
AcDbEntity
  8
5
  6
Continuous
 62
     1
100
AcDbLine
 10
-8.098452799999996
 20
15.236071
 30
0.0
 11
-5.848452799999997
 21
17.486071
 31
0.0
  0
LINE
  5
175EC
330
175DA
100
AcDbEntity
  8
5
  6
Continuous
 62
     1
100
AcDbLine
 10
-26.219773
 20
-0.7639289900000003
 30
0.0
 11
-24.736071
 21
0.7197731200000002
 31
0.0
  0
LINE
  5
175ED
330
175DA
100
AcDbEntity
  8
5
  6
Continuous
 62
     1
100
AcDbLine
 10
-22.469773
 20
2.986070999999998
 30
0.0
 11
-20.219773
 21
5.236070999999999
 31
0.0
  0
LINE
  5
175EE
330
175DA
100
AcDbEntity
  8
5
  6
Continuous
 62
     1
100
AcDbLine
 10
-10.219773
 20
15.236071
 30
0.0
 11
-7.9697731
 21
17.486071
 31
0.0
  0
LINE
  5
175EF
330
175DA
100
AcDbEntity
  8
5
  6
Continuous
 62
     1
100
AcDbLine
 10
-28.341093
 20
-0.7639289900000003
 30
0.0
 11
-22.341093
 21
5.236070999999999
 31
0.0
  0
LINE
  5
175F0
330
175DA
100
AcDbEntity
  8
5
  6
Continuous
 62
     1
100
AcDbLine
 10
-12.341093
 20
15.236071
 30
0.0
 11
-10.091093
 21
17.486071
 31
0.0
  0
LINE
  5
175F1
330
175DA
100
AcDbEntity
  8
5
  6
Continuous
 62
     1
100
AcDbLine
 10
-29.599242
 20
0.099242405
 30
0.0
 11
-24.462414
 21
5.236070999999999
 31
0.0
  0
LINE
  5
175F2
330
175DA
100
AcDbEntity
  8
5
  6
Continuous
 62
     1
100
AcDbLine
 10
-14.462414
 20
15.236071
 30
0.0
 11
-12.212414
 21
17.486071
 31
0.0
  0
LINE
  5
175F3
330
175DA
100
AcDbEntity
  8
5
  6
Continuous
 62
     1
100
AcDbLine
 10
-29.736071
 20
2.0837341
 30
0.0
 11
-26.583734
 21
5.236070999999999
 31
0.0
  0
LINE
  5
175F4
330
175DA
100
AcDbEntity
  8
5
  6
Continuous
 62
     1
100
AcDbLine
 10
-16.583734
 20
15.236071
 30
0.0
 11
-14.333734
 21
17.486071
 31
0.0
  0
LINE
  5
175F5
330
175DA
100
AcDbEntity
  8
5
  6
Continuous
 62
     1
100
AcDbLine
 10
-30.955054
 20
2.986070999999998
 30
0.0
 11
-28.407731
 21
5.533394599999997
 31
0.0
  0
LINE
  5
175F6
330
175DA
100
AcDbEntity
  8
5
  6
Continuous
 62
     1
100
AcDbLine
 10
-18.705054
 20
15.236071
 30
0.0
 11
-16.455054
 21
17.486071
 31
0.0
  0
LINE
  5
175F7
330
175DA
100
AcDbEntity
  8
5
  6
Continuous
 62
     1
100
AcDbLine
 10
-33.076375
 20
2.986070999999998
 30
0.0
 11
-29.184188
 21
6.878257799999999
 31
0.0
  0
LINE
  5
175F8
330
175DA
100
AcDbEntity
  8
5
  6
Continuous
 62
     1
100
AcDbLine
 10
-20.826375
 20
15.236071
 30
0.0
 11
-18.576375
 21
17.486071
 31
0.0
  0
LINE
  5
175F9
330
175DA
100
AcDbEntity
  8
5
  6
Continuous
 62
     1
100
AcDbLine
 10
-33.643977
 20
4.5397892
 30
0.0
 11
-29.960645
 21
8.223121
 31
0.0
  0
LINE
  5
175FA
330
175DA
100
AcDbEntity
  8
5
  6
Continuous
 62
     1
100
AcDbLine
 10
-22.947695
 20
15.236071
 30
0.0
 11
-20.697695
 21
17.486071
 31
0.0
  0
LINE
  5
175FB
330
175DA
100
AcDbEntity
  8
5
  6
Continuous
 62
     1
100
AcDbLine
 10
-33.643977
 20
6.6611095
 30
0.0
 11
-30.737102
 21
9.567984199999999
 31
0.0
  0
LINE
  5
175FC
330
175DA
100
AcDbEntity
  8
5
  6
Continuous
 62
     1
100
AcDbLine
 10
-25.069016
 20
15.236071
 30
0.0
 11
-22.819016
 21
17.486071
 31
0.0
  0
LINE
  5
175FD
330
175DA
100
AcDbEntity
  8
5
  6
Continuous
 62
     1
100
AcDbLine
 10
-33.643977
 20
8.7824299
 30
0.0
 11
-29.664572
 21
12.761835
 31
0.0
  0
LINE
  5
175FE
330
175DA
100
AcDbEntity
  8
5
  6
Continuous
 62
     1
100
AcDbLine
 10
-27.190336
 20
15.236071
 30
0.0
 11
-24.537895
 21
17.888511
 31
0.0
  0
LINE
  5
175FF
330
175DA
100
AcDbEntity
  8
5
  6
Continuous
 62
     1
100
AcDbLine
 10
-33.643977
 20
10.90375
 30
0.0
 11
-24.736071
 21
19.811656
 31
0.0
  0
LINE
  5
17600
330
175DA
100
AcDbEntity
  8
5
  6
Continuous
 62
     1
100
AcDbLine
 10
-33.643977
 20
13.025071
 30
0.0
 11
-25.432977
 21
21.236071
 31
0.0
  0
LINE
  5
17601
330
175DA
100
AcDbEntity
  8
5
  6
Continuous
 62
     1
100
AcDbLine
 10
-33.643977
 20
15.146391
 30
0.0
 11
-31.304297
 21
17.486071
 31
0.0
  0
LINE
  5
17602
330
175DA
100
AcDbEntity
  8
5
  6
Continuous
 62
     1
100
AcDbLine
 10
-29.736071
 20
19.054297
 30
0.0
 11
-27.554297
 21
21.236071
 31
0.0
  0
LINE
  5
17603
330
175DA
100
AcDbEntity
  8
5
  6
Continuous
 62
     1
100
AcDbLine
 10
-33.643977
 20
17.267711
 30
0.0
 11
-33.425617
 21
17.486071
 31
0.0
  0
ENDBLK
  5
17604
330
175DA
100
AcDbEntity
  8
0
100
AcDbBlockEnd
  0
BLOCK
  5
182B1
330
182B0
100
AcDbEntity
  8
0
100
AcDbBlockBegin
  2
*D17
 70
     1
 10
0.0
 20
0.0
 30
0.0
  3
*D17
  1

  0
LINE
  5
186D9
330
182B0
100
AcDbEntity
  8
DIM
 62
     6
370
    -2
100
AcDbLine
 10
477.5698786819948
 20
267.44817941447
 30
0.0
 11
487.8647066412503
 21
267.44817941447
 31
0.0
  0
LINE
  5
186DA
330
182B0
100
AcDbEntity
  8
DIM
 62
     6
370
    -2
100
AcDbLine
 10
477.5698786819948
 20
257.44817941447
 30
0.0
 11
487.8647066412503
 21
257.44817941447
 31
0.0
  0
LINE
  5
186DB
330
182B0
100
AcDbEntity
  8
DIM
 62
     1
370
    -2
100
AcDbLine
 10
487.3647066412504
 20
264.44817941447
 30
0.0
 11
487.3647066412504
 21
260.44817941447
 31
0.0
  0
SOLID
  5
186DC
330
182B0
100
AcDbEntity
  8
DIM
 62
     1
100
AcDbTrace
 10
486.8647066412504
 20
264.44817941447
 30
0.0
 11
487.8647066412503
 21
264.44817941447
 31
0.0
 12
487.3647066412504
 22
267.44817941447
 32
0.0
 13
487.3647066412504
 23
267.44817941447
 33
0.0
  0
SOLID
  5
186DD
330
182B0
100
AcDbEntity
  8
DIM
 62
     1
100
AcDbTrace
 10
486.8647066412504
 20
260.44817941447
 30
0.0
 11
487.8647066412503
 21
260.44817941447
 31
0.0
 12
487.3647066412504
 22
257.44817941447
 32
0.0
 13
487.3647066412504
 23
257.44817941447
 33
0.0
  0
MTEXT
  5
186DE
330
182B0
100
AcDbEntity
  8
DIM
 62
     4
100
AcDbMText
 10
485.1147066412504
 20
262.5213636604332
 30
0.0
 40
3.5
 41
0.0
 46
0.0
 71
     5
 72
     1
  1
\A1;%%C10
  7
Romans字体
 11
0.0000000000000001
 21
1.0
 31
0.0
 73
     1
 44
1.0
  0
POINT
  5
186DF
330
182B0
100
AcDbEntity
  8
Defpoints
 62
     0
100
AcDbPoint
 10
477.3698786819948
 20
267.44817941447
 30
0.0
  0
POINT
  5
186E0
330
182B0
100
AcDbEntity
  8
Defpoints
 62
     0
100
AcDbPoint
 10
477.3698786819948
 20
257.44817941447
 30
0.0
  0
POINT
  5
186E1
330
182B0
100
AcDbEntity
  8
Defpoints
 62
     0
100
AcDbPoint
 10
487.3647066412504
 20
257.44817941447
 30
0.0
  0
ENDBLK
  5
182B2
330
182B0
100
AcDbEntity
  8
0
100
AcDbBlockEnd
  0
BLOCK
  5
182BD
330
182BC
100
AcDbEntity
  8
0
100
AcDbBlockBegin
  2
*D18
 70
     1
 10
0.0
 20
0.0
 30
0.0
  3
*D18
  1

  0
LINE
  5
186E2
330
182BC
100
AcDbEntity
  8
DIM
 62
     6
370
    -2
100
AcDbLine
 10
479.3019286819951
 20
272.94817941447
 30
0.0
 11
493.9127848019531
 21
272.94817941447
 31
0.0
  0
LINE
  5
186E3
330
182BC
100
AcDbEntity
  8
DIM
 62
     6
370
    -2
100
AcDbLine
 10
478.3019286819953
 20
251.9481794144701
 30
0.0
 11
493.9127848019531
 21
251.9481794144701
 31
0.0
  0
LINE
  5
186E4
330
182BC
100
AcDbEntity
  8
DIM
 62
     1
370
    -2
100
AcDbLine
 10
493.4127848019531
 20
269.94817941447
 30
0.0
 11
493.4127848019531
 21
254.9481794144701
 31
0.0
  0
SOLID
  5
186E5
330
182BC
100
AcDbEntity
  8
DIM
 62
     1
100
AcDbTrace
 10
492.9127848019531
 20
269.94817941447
 30
0.0
 11
493.9127848019531
 21
269.94817941447
 31
0.0
 12
493.4127848019531
 22
272.94817941447
 32
0.0
 13
493.4127848019531
 23
272.94817941447
 33
0.0
  0
SOLID
  5
186E6
330
182BC
100
AcDbEntity
  8
DIM
 62
     1
100
AcDbTrace
 10
492.9127848019531
 20
254.9481794144701
 30
0.0
 11
493.9127848019531
 21
254.9481794144701
 31
0.0
 12
493.4127848019531
 22
251.9481794144701
 32
0.0
 13
493.4127848019531
 23
251.9481794144701
 33
0.0
  0
MTEXT
  5
186E7
330
182BC
100
AcDbEntity
  8
DIM
 62
     4
100
AcDbMText
 10
491.1627848019531
 20
262.1438610328894
 30
0.0
 40
3.5
 41
0.0
 46
0.0
 71
     5
 72
     1
  1
\A1;%%C21
  7
Romans字体
 11
0.0000000000000001
 21
1.0
 31
0.0
 73
     1
 44
1.0
  0
POINT
  5
186E8
330
182BC
100
AcDbEntity
  8
Defpoints
 62
     0
100
AcDbPoint
 10
479.1019286819953
 20
272.94817941447
 30
0.0
  0
POINT
  5
186E9
330
182BC
100
AcDbEntity
  8
Defpoints
 62
     0
100
AcDbPoint
 10
478.1019286819953
 20
251.9481794144701
 30
0.0
  0
POINT
  5
186EA
330
182BC
100
AcDbEntity
  8
Defpoints
 62
     0
100
AcDbPoint
 10
493.4127848019531
 20
251.9481794144701
 30
0.0
  0
ENDBLK
  5
182BE
330
182BC
100
AcDbEntity
  8
0
100
AcDbBlockEnd
  0
BLOCK
  5
182C9
330
182C8
100
AcDbEntity
  8
0
100
AcDbBlockBegin
  2
*D19
 70
     1
 10
0.0
 20
0.0
 30
0.0
  3
*D19
  1

  0
LINE
  5
18714
330
182C8
100
AcDbEntity
  8
DIM
 62
     6
370
    -2
100
AcDbLine
 10
479.1019286819953
 20
251.7481794144701
 30
0.0
 11
479.1019286819953
 21
239.2532661876736
 31
0.0
  0
LINE
  5
18715
330
182C8
100
AcDbEntity
  8
DIM
 62
     6
370
    -2
100
AcDbLine
 10
422.1019286819951
 20
256.9981794144701
 30
0.0
 11
422.1019286819951
 21
239.2532661876736
 31
0.0
  0
LINE
  5
18716
330
182C8
100
AcDbEntity
  8
DIM
 62
     1
370
    -2
100
AcDbLine
 10
476.1019286819951
 20
239.7532661876736
 30
0.0
 11
425.1019286819953
 21
239.7532661876736
 31
0.0
  0
SOLID
  5
18717
330
182C8
100
AcDbEntity
  8
DIM
 62
     1
100
AcDbTrace
 10
476.1019286819951
 20
240.2532661876736
 30
0.0
 11
476.1019286819951
 21
239.2532661876736
 31
0.0
 12
479.1019286819953
 22
239.7532661876736
 32
0.0
 13
479.1019286819953
 23
239.7532661876736
 33
0.0
  0
SOLID
  5
18718
330
182C8
100
AcDbEntity
  8
DIM
 62
     1
100
AcDbTrace
 10
425.1019286819953
 20
240.2532661876736
 30
0.0
 11
425.1019286819953
 21
239.2532661876736
 31
0.0
 12
422.1019286819951
 22
239.7532661876736
 32
0.0
 13
422.1019286819951
 23
239.7532661876736
 33
0.0
  0
MTEXT
  5
18719
330
182C8
100
AcDbEntity
  8
DIM
 62
     4
100
AcDbMText
 10
451.3057308959888
 20
242.0032661876736
 30
0.0
 40
3.5
 41
0.0
 46
0.0
 71
     5
 72
     1
  1
\A1;57
  7
Romans字体
 73
     1
 44
1.0
  0
POINT
  5
1871A
330
182C8
100
AcDbEntity
  8
Defpoints
 62
     0
100
AcDbPoint
 10
479.1019286819953
 20
251.9481794144701
 30
0.0
  0
POINT
  5
1871B
330
182C8
100
AcDbEntity
  8
Defpoints
 62
     0
100
AcDbPoint
 10
422.1019286819951
 20
257.1981794144701
 30
0.0
  0
POINT
  5
1871C
330
182C8
100
AcDbEntity
  8
Defpoints
 62
     0
100
AcDbPoint
 10
422.1019286819951
 20
239.7532661876736
 30
0.0
  0
ENDBLK
  5
182CA
330
182C8
100
AcDbEntity
  8
0
100
AcDbBlockEnd
  0
BLOCK
  5
182D5
330
182D4
100
AcDbEntity
  8
0
100
AcDbBlockBegin
  2
*D20
 70
     1
 10
0.0
 20
0.0
 30
0.0
  3
*D20
  1

  0
LINE
  5
186D0
330
182D4
100
AcDbEntity
  8
DIM
 62
     6
370
    -2
100
AcDbLine
 10
479.1019286819953
 20
251.7481794144701
 30
0.0
 11
479.1019286819953
 21
245.8218694144702
 31
0.0
  0
LINE
  5
186D1
330
182D4
100
AcDbEntity
  8
DIM
 62
     6
370
    -2
100
AcDbLine
 10
450.6019286819952
 20
257.2481794144701
 30
0.0
 11
450.6019286819952
 21
245.8218694144702
 31
0.0
  0
LINE
  5
186D2
330
182D4
100
AcDbEntity
  8
DIM
 62
     1
370
    -2
100
AcDbLine
 10
476.1019286819951
 20
246.3218694144702
 30
0.0
 11
453.6019286819951
 21
246.3218694144702
 31
0.0
  0
SOLID
  5
186D3
330
182D4
100
AcDbEntity
  8
DIM
 62
     1
100
AcDbTrace
 10
476.1019286819951
 20
246.8218694144702
 30
0.0
 11
476.1019286819951
 21
245.8218694144702
 31
0.0
 12
479.1019286819953
 22
246.3218694144702
 32
0.0
 13
479.1019286819953
 23
246.3218694144702
 33
0.0
  0
SOLID
  5
186D4
330
182D4
100
AcDbEntity
  8
DIM
 62
     1
100
AcDbTrace
 10
453.6019286819951
 20
246.8218694144702
 30
0.0
 11
453.6019286819951
 21
245.8218694144702
 31
0.0
 12
450.6019286819952
 22
246.3218694144702
 32
0.0
 13
450.6019286819952
 23
246.3218694144702
 33
0.0
  0
MTEXT
  5
186D5
330
182D4
100
AcDbEntity
  8
DIM
 62
     4
100
AcDbMText
 10
464.8519286819952
 20
248.5718694144702
 30
0.0
 40
3.5
 41
0.0
 46
0.0
 71
     5
 72
     1
  1
\A1;28.5
  7
Romans字体
 73
     1
 44
1.0
  0
POINT
  5
186D6
330
182D4
100
AcDbEntity
  8
Defpoints
 62
     0
100
AcDbPoint
 10
479.1019286819953
 20
251.9481794144701
 30
0.0
  0
POINT
  5
186D7
330
182D4
100
AcDbEntity
  8
Defpoints
 62
     0
100
AcDbPoint
 10
450.6019286819952
 20
257.4481794144701
 30
0.0
  0
POINT
  5
186D8
330
182D4
100
AcDbEntity
  8
Defpoints
 62
     0
100
AcDbPoint
 10
450.6019286819952
 20
246.3218694144702
 30
0.0
  0
ENDBLK
  5
182D6
330
182D4
100
AcDbEntity
  8
0
100
AcDbBlockEnd
  0
BLOCK
  5
182E1
330
182E0
100
AcDbEntity
  8
0
100
AcDbBlockBegin
  2
*D21
 70
     1
 10
0.0
 20
0.0
 30
0.0
  3
*D21
  1

  0
LINE
  5
1835F
330
182E0
100
AcDbEntity
  8
DIM
 62
     6
370
    -2
100
AcDbLine
 10
449.9019286819953
 20
273.4481794144701
 30
0.0
 11
409.6523523612312
 21
273.4481794144701
 31
0.0
  0
LINE
  5
18360
330
182E0
100
AcDbEntity
  8
DIM
 62
     6
370
    -2
100
AcDbLine
 10
449.9019286819953
 20
251.4481794144701
 30
0.0
 11
409.6523523612312
 21
251.4481794144701
 31
0.0
  0
LINE
  5
18361
330
182E0
100
AcDbEntity
  8
DIM
 62
     1
370
    -2
100
AcDbLine
 10
410.1523523612311
 20
270.4481794144701
 30
0.0
 11
410.1523523612311
 21
254.4481794144701
 31
0.0
  0
SOLID
  5
18362
330
182E0
100
AcDbEntity
  8
DIM
 62
     1
100
AcDbTrace
 10
409.6523523612312
 20
270.4481794144701
 30
0.0
 11
410.652352361231
 21
270.4481794144701
 31
0.0
 12
410.1523523612311
 22
273.4481794144701
 32
0.0
 13
410.1523523612311
 23
273.4481794144701
 33
0.0
  0
SOLID
  5
18363
330
182E0
100
AcDbEntity
  8
DIM
 62
     1
100
AcDbTrace
 10
409.6523523612312
 20
254.4481794144701
 30
0.0
 11
410.652352361231
 21
254.4481794144701
 31
0.0
 12
410.1523523612311
 22
251.4481794144701
 32
0.0
 13
410.1523523612311
 23
251.4481794144701
 33
0.0
  0
MTEXT
  5
18364
330
182E0
100
AcDbEntity
  8
DIM
 62
     4
100
AcDbMText
 10
407.9023523612312
 20
262.4481794144701
 30
0.0
 40
3.5
 41
0.0
 46
0.0
 71
     5
 72
     1
  1
\A1;%%C22
  7
Romans字体
 11
0.0000000000000001
 21
1.0
 31
0.0
 73
     1
 44
1.0
  0
POINT
  5
18365
330
182E0
100
AcDbEntity
  8
Defpoints
 62
     0
100
AcDbPoint
 10
450.1019286819953
 20
273.4481794144701
 30
0.0
  0
POINT
  5
18366
330
182E0
100
AcDbEntity
  8
Defpoints
 62
     0
100
AcDbPoint
 10
450.1019286819953
 20
251.4481794144701
 30
0.0
  0
POINT
  5
18367
330
182E0
100
AcDbEntity
  8
Defpoints
 62
     0
100
AcDbPoint
 10
410.1523523612311
 20
251.4481794144701
 30
0.0
  0
ENDBLK
  5
182E2
330
182E0
100
AcDbEntity
  8
0
100
AcDbBlockEnd
  0
BLOCK
  5
182ED
330
182EC
100
AcDbEntity
  8
0
100
AcDbBlockBegin
  2
*D22
 70
     1
 10
0.0
 20
0.0
 30
0.0
  3
*D22
  1

  0
LINE
  5
18368
330
182EC
100
AcDbEntity
  8
DIM
 62
     6
370
    -2
100
AcDbLine
 10
427.9019486819946
 20
269.6981794144701
 30
0.0
 11
415.9250243185367
 21
269.6981794144701
 31
0.0
  0
LINE
  5
18369
330
182EC
100
AcDbEntity
  8
DIM
 62
     6
370
    -2
100
AcDbLine
 10
427.9019486819946
 20
255.1981794144701
 30
0.0
 11
415.9250243185367
 21
255.1981794144701
 31
0.0
  0
LINE
  5
1836A
330
182EC
100
AcDbEntity
  8
DIM
 62
     1
370
    -2
100
AcDbLine
 10
416.4250243185368
 20
266.6981794144701
 30
0.0
 11
416.4250243185368
 21
258.19817941447
 31
0.0
  0
SOLID
  5
1836B
330
182EC
100
AcDbEntity
  8
DIM
 62
     1
100
AcDbTrace
 10
415.9250243185367
 20
266.6981794144701
 30
0.0
 11
416.9250243185368
 21
266.6981794144701
 31
0.0
 12
416.4250243185368
 22
269.6981794144701
 32
0.0
 13
416.4250243185368
 23
269.6981794144701
 33
0.0
  0
SOLID
  5
1836C
330
182EC
100
AcDbEntity
  8
DIM
 62
     1
100
AcDbTrace
 10
415.9250243185367
 20
258.19817941447
 30
0.0
 11
416.9250243185368
 21
258.19817941447
 31
0.0
 12
416.4250243185368
 22
255.1981794144701
 32
0.0
 13
416.4250243185368
 23
255.1981794144701
 33
0.0
  0
MTEXT
  5
1836D
330
182EC
100
AcDbEntity
  8
DIM
 62
     4
100
AcDbMText
 10
414.1750243185366
 20
262.4481794144701
 30
0.0
 40
3.5
 41
0.0
 46
0.0
 71
     5
 72
     1
  1
\A1;%%C14.5
  7
Romans字体
 11
0.0000000000000001
 21
1.0
 31
0.0
 73
     1
 44
1.0
  0
POINT
  5
1836E
330
182EC
100
AcDbEntity
  8
Defpoints
 62
     0
100
AcDbPoint
 10
428.1019486819947
 20
269.6981794144701
 30
0.0
  0
POINT
  5
1836F
330
182EC
100
AcDbEntity
  8
Defpoints
 62
     0
100
AcDbPoint
 10
428.1019486819947
 20
255.1981794144701
 30
0.0
  0
POINT
  5
18370
330
182EC
100
AcDbEntity
  8
Defpoints
 62
     0
100
AcDbPoint
 10
416.4250243185368
 20
255.1981794144701
 30
0.0
  0
ENDBLK
  5
182EE
330
182EC
100
AcDbEntity
  8
0
100
AcDbBlockEnd
  0
BLOCK
  5
1832F
330
1832E
100
AcDbEntity
  8
0
100
AcDbBlockBegin
  2
*D23
 70
     1
 10
0.0
 20
0.0
 30
0.0
  3
*D23
  1

  0
LINE
  5
18371
330
1832E
100
AcDbEntity
  8
DIM
 62
     6
370
    -2
100
AcDbLine
 10
465.2274224426149
 20
269.6981794144701
 30
0.0
 11
463.9927966222811
 21
269.6981794144701
 31
0.0
  0
LINE
  5
18372
330
1832E
100
AcDbEntity
  8
DIM
 62
     6
370
    -2
100
AcDbLine
 10
464.4052197537439
 20
255.1981794144701
 30
0.0
 11
464.9927966222811
 21
255.1981794144701
 31
0.0
  0
LINE
  5
18373
330
1832E
100
AcDbEntity
  8
DIM
 62
     1
370
    -2
100
AcDbLine
 10
464.4927966222811
 20
258.1981794144701
 30
0.0
 11
464.4927966222811
 21
266.6981794144701
 31
0.0
  0
LINE
  5
18374
330
1832E
100
AcDbEntity
  8
DIM
 62
     1
370
    -2
100
AcDbLine
 10
464.4927966222811
 20
269.6981794144701
 30
0.0
 11
464.4927966222811
 21
284.0731794144701
 31
0.0
  0
SOLID
  5
18375
330
1832E
100
AcDbEntity
  8
DIM
 62
     1
100
AcDbTrace
 10
463.9927966222811
 20
258.1981794144701
 30
0.0
 11
464.9927966222811
 21
258.1981794144701
 31
0.0
 12
464.4927966222811
 22
255.1981794144701
 32
0.0
 13
464.4927966222811
 23
255.1981794144701
 33
0.0
  0
SOLID
  5
18376
330
1832E
100
AcDbEntity
  8
DIM
 62
     1
100
AcDbTrace
 10
463.9927966222811
 20
266.6981794144701
 30
0.0
 11
464.9927966222811
 21
266.6981794144701
 31
0.0
 12
464.4927966222811
 22
269.6981794144701
 32
0.0
 13
464.4927966222811
 23
269.6981794144701
 33
0.0
  0
MTEXT
  5
18377
330
1832E
100
AcDbEntity
  8
DIM
 62
     4
100
AcDbMText
 10
462.242796622281
 20
278.3856794144702
 30
0.0
 40
3.5
 41
0.0
 46
0.0
 71
     5
 72
     1
  1
\A1;%%C14.5
  7
Romans字体
 11
0.0000000000000001
 21
1.0
 31
0.0
 73
     1
 44
1.0
  0
POINT
  5
18378
330
1832E
100
AcDbEntity
  8
Defpoints
 62
     0
100
AcDbPoint
 10
465.4274224426151
 20
269.6981794144701
 30
0.0
  0
POINT
  5
18379
330
1832E
100
AcDbEntity
  8
Defpoints
 62
     0
100
AcDbPoint
 10
464.2052197537439
 20
255.1981794144701
 30
0.0
  0
POINT
  5
1837A
330
1832E
100
AcDbEntity
  8
Defpoints
 62
     0
100
AcDbPoint
 10
464.4927966222811
 20
255.1981794144701
 30
0.0
  0
ENDBLK
  5
18330
330
1832E
100
AcDbEntity
  8
0
100
AcDbBlockEnd
  0
BLOCK
  5
1849F
330
1849E
100
AcDbEntity
  8
CHSM650-240_DXF_CONTINUOUS_LINE
  6
Continuous
 62
     2
100
AcDbBlockBegin
  2
SF0_BL1
 70
     0
 10
68.31934377979999
 20
165.1734619998
 30
0.0
  3
SF0_BL1
  1

  0
TEXT
  5
184A0
330
1849E
100
AcDbEntity
  8
CHSM650-240_DXF_CONTINUOUS_LINE
  6
Continuous
 62
     2
100
AcDbText
 10
69.2646437798
 20
168.9979981919
 30
0.0
 40
2.5
  1
0.8
 50
270.0
100
AcDbText
  0
LINE
  5
184A1
330
1849E
100
AcDbEntity
  8
CHSM650-240_DXF_CONTINUOUS_LINE
  6
Continuous
 62
     2
100
AcDbLine
 10
68.3127437798
 20
167.826795828
 30
0.0
 11
68.3127437798
 21
163.5132964968
 31
0.0
  0
LINE
  5
184A2
330
1849E
100
AcDbEntity
  8
CHSM650-240_DXF_CONTINUOUS_LINE
  6
Continuous
 62
     2
100
AcDbLine
 10
68.3127437798
 20
167.826795828
 30
0.0
 11
64.5771437798
 21
165.6700461624
 31
0.0
  0
LINE
  5
184A3
330
1849E
100
AcDbEntity
  8
CHSM650-240_DXF_CONTINUOUS_LINE
  6
Continuous
 62
     2
100
AcDbLine
 10
64.5771437798
 20
165.6700461624
 30
0.0
 11
68.3127437798
 21
163.5132964968
 31
0.0
  0
LINE
  5
184A4
330
1849E
100
AcDbEntity
  8
CHSM650-240_DXF_CONTINUOUS_LINE
  6
Continuous
 62
     2
100
AcDbLine
 10
68.3127437798
 20
163.5132964968
 30
0.0
 11
72.06154377979999
 21
161.3489258077
 31
0.0
  0
ENDBLK
  5
184A5
330
1849E
100
AcDbEntity
  8
0
  6
ByBlock
 62
     0
100
AcDbBlockEnd
  0
BLOCK
  5
184A9
330
184A6
100
AcDbEntity
  8
0
 62
     2
370
     0
100
AcDbBlockBegin
  2
A$C072E188C
 70
     0
 10
0.0
 20
0.0
 30
0.0
  3
A$C072E188C
  1

  0
MTEXT
  5
184AA
330
184A6
100
AcDbEntity
  8
DIM
 62
     2
370
     0
100
AcDbMText
 10
-0.4117831297207887
 20
2.823589715820616
 30
0.0
 40
2.5
 41
2.5
 46
0.0
 71
     1
 72
     5
  1
1
 73
     1
 44
1.0
  0
LINE
  5
184AB
330
184A6
100
AcDbEntity
  8
DIM
 62
     2
370
     0
100
AcDbLine
 10
-2.404076915157925
 20
0.0
 30
0.0
 11
2.404076915157925
 21
0.0
 31
0.0
  0
LINE
  5
184AC
330
184A6
100
AcDbEntity
  8
DIM
 62
     2
370
     0
100
AcDbLine
 10
2.404076915157925
 20
0.0
 30
0.0
 11
0.0
 21
4.208578035514618
 31
0.0
  0
LINE
  5
184AD
330
184A6
100
AcDbEntity
  8
DIM
 62
     2
370
     0
100
AcDbLine
 10
-2.404076915157925
 20
0.0
 30
0.0
 11
0.0
 21
4.208578035514618
 31
0.0
  0
ENDBLK
  5
184AE
330
184A6
100
AcDbEntity
  8
0
 62
     2
370
     0
100
AcDbBlockEnd
  0
ENDSEC
  0
SECTION
  2
ENTITIES
  0
HATCH
  5
28AE
330
1F
100
AcDbEntity
  8
图层 1
 62
     7
100
AcDbHatch
 10
0.0
 20
0.0
 30
0.0
210
0.0
220
0.0
230
1.0
  2
SOLID
 70
     1
 71
     0
 91
        1
 92
        1
 93
        2
 72
     4
 94
        3
 73
     0
 74
     0
 95
       17
 96
       13
 40
0.0
 40
0.0
 40
0.0
 40
0.0
 40
0.3527780104152769
 40
0.3527780104152769
 40
0.3527780104152769
 40
0.7055560208305538
 40
0.7055560208305538
 40
0.7055560208305538
 40
1.058334031245828
 40
1.058334031245828
 40
1.058334031245828
 40
1.411112041661104
 40
1.411112041661104
 40
1.411112041661104
 40
1.411112041661104
 10
11.07013262565829
 20
29.50312817963231
 10
11.07013262565829
 20
29.50312817963231
 10
10.9431807732774
 20
29.50312817963231
 10
10.9431807732774
 20
29.50312817963231
 10
10.9431807732774
 20
29.50312817963231
 10
10.85843136843155
 20
29.22786486877117
 10
10.85843136843155
 20
29.22786486877117
 10
10.85843136843155
 20
29.22786486877117
 10
10.90080607085448
 20
29.2068497724476
 10
10.90080607085448
 20
29.2068497724476
 10
10.94455881238059
 20
29.31571486159919
 10
11.00346998404173
 20
29.40907701083995
 10
11.07013262565829
 20
29.50312817963231
 72
     1
 10
11.07013262565829
 20
29.50312817963231
 11
11.07013262565829
 21
29.50312817963231
 97
        0
 75
     0
 76
     1
 98
        0
450
        0
451
        0
460
0.0
461
0.0
452
        0
462
0.0
453
        0
470

  0
HATCH
  5
2C65
330
1F
100
AcDbEntity
  8
图层 1
 62
     7
100
AcDbHatch
 10
0.0
 20
0.0
 30
0.0
210
0.0
220
0.0
230
1.0
  2
SOLID
 70
     1
 71
     0
 91
        1
 92
        1
 93
        2
 72
     4
 94
        3
 73
     0
 74
     0
 95
       47
 96
       43
 40
0.0
 40
0.0
 40
0.0
 40
0.0
 40
0.3527780104152769
 40
0.3527780104152769
 40
0.3527780104152769
 40
0.7055560208305538
 40
0.7055560208305538
 40
0.7055560208305538
 40
1.058334031245828
 40
1.058334031245828
 40
1.058334031245828
 40
1.411112041661104
 40
1.411112041661104
 40
1.411112041661104
 40
1.763890052076384
 40
1.763890052076384
 40
1.763890052076384
 40
2.116668062491659
 40
2.116668062491659
 40
2.116668062491659
 40
2.469446072906936
 40
2.469446072906936
 40
2.469446072906936
 40
2.822224083322215
 40
2.822224083322215
 40
2.822224083322215
 40
3.175002093737492
 40
3.175002093737492
 40
3.175002093737492
 40
3.527780104152768
 40
3.527780104152768
 40
3.527780104152768
 40
3.880558114568044
 40
3.880558114568044
 40
3.880558114568044
 40
4.233336124983321
 40
4.233336124983321
 40
4.233336124983321
 40
4.586114135398599
 40
4.586114135398599
 40
4.586114135398599
 40
4.938892145813873
 40
4.938892145813873
 40
4.938892145813873
 40
4.938892145813873
 10
162.8986914070121
 20
257.4895347631509
 10
162.8986914070121
 20
257.4895347631509
 10
162.9200510131114
 20
257.4471600607279
 10
162.9200510131114
 20
257.4471600607279
 10
162.9200510131114
 20
257.4471600607279
 10
162.9200510131114
 20
257.404785358305
 10
162.9200510131114
 20
257.404785358305
 10
162.9200510131114
 20
257.404785358305
 10
162.8986914070121
 20
257.36258291077
 10
162.8986914070121
 20
257.36258291077
 10
162.8986914070121
 20
257.36258291077
 10
162.8986914070121
 20
257.320208208347
 10
162.8986914070121
 20
257.320208208347
 10
162.8986914070121
 20
257.320208208347
 10
162.8563167045891
 20
257.2990208571356
 10
162.8563167045891
 20
257.2990208571356
 10
162.8563167045891
 20
257.2990208571356
 10
162.8139420021662
 20
257.2563016449369
 10
162.8139420021662
 20
257.2563016449369
 10
162.8139420021662
 20
257.2563016449369
 10
162.7295371070961
 20
257.2563016449369
 10
162.7295371070961
 20
257.2563016449369
 10
162.7295371070961
 20
257.2563016449369
 10
162.6658027985738
 20
257.2778335059241
 10
162.6658027985738
 20
257.2778335059241
 10
162.6658027985738
 20
257.2778335059241
 10
162.6237726059267
 20
257.2990208571356
 10
162.6237726059267
 20
257.2990208571356
 10
162.6237726059267
 20
257.2990208571356
 10
162.5813979035038
 20
257.3413955595585
 10
162.5813979035038
 20
257.3413955595585
 10
162.5813979035038
 20
257.3413955595585
 10
162.5813979035038
 20
257.4895347631509
 10
162.5813979035038
 20
257.4895347631509
 10
162.5813979035038
 20
257.4895347631509
 10
162.6447877022503
 20
257.5525800521216
 10
162.6447877022503
 20
257.5525800521216
 10
162.6447877022503
 20
257.5525800521216
 10
162.7081775009967
 20
257.5525800521216
 10
162.7081775009967
 20
257.5525800521216
 10
162.8749202324821
 20
257.5424170137356
 10
162.7918933765152
 20
257.5939212252171
 10
162.8986914070121
 20
257.4895347631509
 72
     1
 10
162.8986914070121
 20
257.4895347631509
 11
162.8986914070121
 21
257.4895347631509
 97
        0
 75
     0
 76
     1
 98
        0
450
        0
451
        0
460
0.0
461
0.0
452
        0
462
0.0
453
        0
470

  0
HATCH
  5
2EE7
330
1F
100
AcDbEntity
  8
图层 1
 62
     7
100
AcDbHatch
 10
0.0
 20
0.0
 30
0.0
210
0.0
220
0.0
230
1.0
  2
SOLID
 70
     1
 71
     0
 91
        1
 92
        1
 93
        2
 72
     4
 94
        3
 73
     0
 74
     0
 95
       56
 96
       52
 40
0.0
 40
0.0
 40
0.0
 40
0.0
 40
0.3527780104152769
 40
0.3527780104152769
 40
0.3527780104152769
 40
0.7055560208305538
 40
0.7055560208305538
 40
0.7055560208305538
 40
1.058334031245828
 40
1.058334031245828
 40
1.058334031245828
 40
1.411112041661104
 40
1.411112041661104
 40
1.411112041661104
 40
1.763890052076384
 40
1.763890052076384
 40
1.763890052076384
 40
2.116668062491659
 40
2.116668062491659
 40
2.116668062491659
 40
2.469446072906936
 40
2.469446072906936
 40
2.469446072906936
 40
2.822224083322215
 40
2.822224083322215
 40
2.822224083322215
 40
3.175002093737492
 40
3.175002093737492
 40
3.175002093737492
 40
3.527780104152768
 40
3.527780104152768
 40
3.527780104152768
 40
3.880558114568044
 40
3.880558114568044
 40
3.880558114568044
 40
4.233336124983321
 40
4.233336124983321
 40
4.233336124983321
 40
4.586114135398599
 40
4.586114135398599
 40
4.586114135398599
 40
4.938892145813873
 40
4.938892145813873
 40
4.938892145813873
 40
5.291670156229153
 40
5.291670156229153
 40
5.291670156229153
 40
5.64444816664443
 40
5.64444816664443
 40
5.64444816664443
 40
5.997226177059705
 40
5.997226177059705
 40
5.997226177059705
 40
5.997226177059705
 10
185.4837187788815
 20
241.4451977396596
 10
185.4837187788815
 20
241.4451977396596
 10
185.4837187788815
 20
241.4028230372367
 10
185.4837187788815
 20
241.4028230372367
 10
185.4837187788815
 20
241.4028230372367
 10
185.5047338752051
 20
241.3604483348137
 10
185.5047338752051
 20
241.3604483348137
 10
185.4520238795082
 20
241.2782827532863
 10
185.4671823096433
 20
241.1897437409066
 10
185.335579575289
 20
241.2119646214456
 10
185.335579575289
 20
241.2119646214456
 10
185.2932048728662
 20
241.2119646214456
 10
185.2932048728662
 20
241.2119646214456
 10
185.2932048728662
 20
241.2119646214456
 10
185.2294705643439
 20
241.2334964824328
 10
185.2294705643439
 20
241.2334964824328
 10
185.2294705643439
 20
241.2334964824328
 10
185.1660807655974
 20
241.2543393238685
 10
185.1660807655974
 20
241.2543393238685
 10
185.1660807655974
 20
241.2543393238685
 10
185.1450656692739
 20
241.2758711848558
 10
185.1450656692739
 20
241.2758711848558
 10
185.1450656692739
 20
241.2758711848558
 10
185.1450656692739
 20
241.2967140262914
 10
185.1450656692739
 20
241.2967140262914
 10
185.1450656692739
 20
241.2967140262914
 10
185.1237060631745
 20
241.3604483348137
 10
185.1237060631745
 20
241.3604483348137
 10
185.1237060631745
 20
241.3604483348137
 10
185.1237060631745
 20
241.4028230372367
 10
185.1237060631745
 20
241.4028230372367
 10
185.1237060631745
 20
241.4028230372367
 10
185.1660807655974
 20
241.4875724420825
 10
185.1660807655974
 20
241.4875724420825
 10
185.1660807655974
 20
241.4875724420825
 10
185.2084554680203
 20
241.5085875384061
 10
185.2084554680203
 20
241.5085875384061
 10
185.2084554680203
 20
241.5085875384061
 10
185.2718452667668
 20
241.5297748896175
 10
185.2718452667668
 20
241.5297748896175
 10
185.2718452667668
 20
241.5297748896175
 10
185.3565946716127
 20
241.5297748896175
 10
185.3565946716127
 20
241.5297748896175
 10
185.3565946716127
 20
241.5297748896175
 10
185.4199844703592
 20
241.5085875384061
 10
185.4199844703592
 20
241.5085875384061
 10
185.4199844703592
 20
241.5085875384061
 10
185.4623591727821
 20
241.4875724420825
 10
185.4623591727821
 20
241.4875724420825
 10
185.4623591727821
 20
241.4875724420825
 10
185.4837187788815
 20
241.4451977396596
 10
185.4837187788815
 20
241.4451977396596
 72
     1
 10
185.4837187788815
 20
241.4451977396596
 11
185.4837187788815
 21
241.4451977396596
 97
        0
 75
     0
 76
     1
 98
        0
450
        0
451
        0
460
0.0
461
0.0
452
        0
462
0.0
453
        0
470

  0
HATCH
  5
2F93
330
1F
100
AcDbEntity
  8
图层 1
 62
     7
100
AcDbHatch
 10
0.0
 20
0.0
 30
0.0
210
0.0
220
0.0
230
1.0
  2
SOLID
 70
     1
 71
     0
 91
        1
 92
        1
 93
        2
 72
     4
 94
        3
 73
     0
 74
     0
 95
       38
 96
       34
 40
0.0
 40
0.0
 40
0.0
 40
0.0
 40
0.3527780104152769
 40
0.3527780104152769
 40
0.3527780104152769
 40
0.7055560208305538
 40
0.7055560208305538
 40
0.7055560208305538
 40
1.058334031245828
 40
1.058334031245828
 40
1.058334031245828
 40
1.411112041661104
 40
1.411112041661104
 40
1.411112041661104
 40
1.763890052076384
 40
1.763890052076384
 40
1.763890052076384
 40
2.116668062491659
 40
2.116668062491659
 40
2.116668062491659
 40
2.469446072906936
 40
2.469446072906936
 40
2.469446072906936
 40
2.822224083322215
 40
2.822224083322215
 40
2.822224083322215
 40
3.175002093737492
 40
3.175002093737492
 40
3.175002093737492
 40
3.527780104152768
 40
3.527780104152768
 40
3.527780104152768
 40
3.880558114568044
 40
3.880558114568044
 40
3.880558114568044
 40
3.880558114568044
 10
185.907121293335
 20
220.1937677098971
 10
185.9005756075949
 20
220.0449394867532
 10
185.9329595265197
 20
220.1136691870245
 10
185.864746590912
 20
219.9817219428946
 10
185.864746590912
 20
219.9817219428946
 10
185.822371888489
 20
219.9605345916831
 10
185.822371888489
 20
219.9605345916831
 10
185.822371888489
 20
219.9605345916831
 10
185.6528730787974
 20
219.9605345916831
 10
185.6528730787974
 20
219.9605345916831
 10
185.6528730787974
 20
219.9605345916831
 10
185.5894832800509
 20
220.002909294106
 10
185.5894832800509
 20
220.002909294106
 10
185.5894832800509
 20
220.002909294106
 10
185.5681236739515
 20
220.0240966453175
 10
185.5681236739515
 20
220.0240966453175
 10
185.5681236739515
 20
220.0240966453175
 10
185.5681236739515
 20
220.045283996529
 10
185.5681236739515
 20
220.045283996529
 10
185.5681236739515
 20
220.045283996529
 10
185.547108577628
 20
220.0876586989519
 10
185.547108577628
 20
220.0876586989519
 10
185.547108577628
 20
220.0876586989519
 10
185.547108577628
 20
220.1513930074742
 10
185.547108577628
 20
220.1513930074742
 10
185.547108577628
 20
220.1513930074742
 10
185.5894832800509
 20
220.23614241232
 10
185.5894832800509
 20
220.23614241232
 10
185.5894832800509
 20
220.23614241232
 10
185.6318579824738
 20
220.2573297635315
 10
185.6318579824738
 20
220.2573297635315
 10
185.7055830744942
 20
220.2566407439799
 10
185.8416644359337
 20
220.3310548555519
 10
185.907121293335
 20
220.1937677098971
 72
     1
 10
185.907121293335
 20
220.1937677098971
 11
185.907121293335
 21
220.1937677098971
 97
        0
 75
     0
 76
     1
 98
        0
450
        0
451
        0
460
0.0
461
0.0
452
        0
462
0.0
453
        0
470

  0
HATCH
  5
2FDE
330
1F
100
AcDbEntity
  8
图层 1
 62
     7
100
AcDbHatch
 10
0.0
 20
0.0
 30
0.0
210
0.0
220
0.0
230
1.0
  2
SOLID
 70
     1
 71
     0
 91
        1
 92
        1
 93
        2
 72
     4
 94
        3
 73
     0
 74
     0
 95
       50
 96
       46
 40
0.0
 40
0.0
 40
0.0
 40
0.0
 40
0.3527780104152769
 40
0.3527780104152769
 40
0.3527780104152769
 40
0.7055560208305538
 40
0.7055560208305538
 40
0.7055560208305538
 40
1.058334031245828
 40
1.058334031245828
 40
1.058334031245828
 40
1.411112041661104
 40
1.411112041661104
 40
1.411112041661104
 40
1.763890052076384
 40
1.763890052076384
 40
1.763890052076384
 40
2.116668062491659
 40
2.116668062491659
 40
2.116668062491659
 40
2.469446072906936
 40
2.469446072906936
 40
2.469446072906936
 40
2.822224083322215
 40
2.822224083322215
 40
2.822224083322215
 40
3.175002093737492
 40
3.175002093737492
 40
3.175002093737492
 40
3.527780104152768
 40
3.527780104152768
 40
3.527780104152768
 40
3.880558114568044
 40
3.880558114568044
 40
3.880558114568044
 40
4.233336124983321
 40
4.233336124983321
 40
4.233336124983321
 40
4.586114135398599
 40
4.586114135398599
 40
4.586114135398599
 40
4.938892145813873
 40
4.938892145813873
 40
4.938892145813873
 40
5.291670156229153
 40
5.291670156229153
 40
5.291670156229153
 40
5.291670156229153
 10
180.9117295442905
 20
208.9327766684477
 10
180.9117295442905
 20
208.9327766684477
 10
180.9117295442905
 20
208.7637946234197
 10
180.9117295442905
 20
208.7637946234197
 10
181.2273004989198
 20
208.6749111012643
 10
181.3833634273555
 20
208.6776671794706
 10
181.6948002646751
 20
208.5097186637701
 10
181.9542161258496
 20
208.4294478860095
 10
182.1388733656765
 20
208.2134402565853
 10
182.3297317814676
 20
208.02292635057
 10
182.3297317814676
 20
208.02292635057
 10
182.435496282637
 20
208.065301052993
 10
182.435496282637
 20
208.065301052993
 10
182.288390608372
 20
208.2733849575739
 10
182.3752070718726
 20
208.2134402565853
 10
182.1605774815516
 20
208.3824223016133
 10
182.1605774815516
 20
208.3824223016133
 10
182.1182027791287
 20
208.4247970040363
 10
182.1182027791287
 20
208.4247970040363
 10
182.1182027791287
 20
208.4247970040363
 10
182.0968431730294
 20
208.467516216235
 10
182.0968431730294
 20
208.467516216235
 10
182.0968431730294
 20
208.467516216235
 10
182.0544684706064
 20
208.4883590576707
 10
182.0544684706064
 20
208.4883590576707
 10
182.0544684706064
 20
208.4883590576707
 10
181.9910786718599
 20
208.5305615052057
 10
181.9910786718599
 20
208.5305615052057
 10
181.9910786718599
 20
208.5305615052057
 10
181.948703969437
 20
208.552093366193
 10
181.948703969437
 20
208.552093366193
 10
181.948703969437
 20
208.552093366193
 10
181.9063292670141
 20
208.5729362076286
 10
181.9063292670141
 20
208.5729362076286
 10
181.9063292670141
 20
208.5729362076286
 10
181.8639545645911
 20
208.6156554198274
 10
181.8639545645911
 20
208.6156554198274
 10
181.8639545645911
 20
208.6156554198274
 10
181.821924371944
 20
208.6368427710388
 10
181.821924371944
 20
208.6368427710388
 10
181.6637943848536
 20
208.6742220817127
 10
181.5452830219797
 20
208.8092699138248
 10
181.3771622513911
 20
208.8061693258427
 10
181.2803550043924
 20
208.8573290275484
 10
181.0126709085988
 20
208.8971199066528
 10
180.9117295442905
 20
208.9327766684477
 72
     1
 10
180.9117295442905
 20
208.9327766684477
 11
180.9117295442905
 21
208.9327766684477
 97
        0
 75
     0
 76
     1
 98
        0
450
        0
451
        0
460
0.0
461
0.0
452
        0
462
0.0
453
        0
470

  0
HATCH
  5
35C8
330
1F
100
AcDbEntity
  8
图层 1
 62
     7
100
AcDbHatch
 10
0.0
 20
0.0
 30
0.0
210
0.0
220
0.0
230
1.0
  2
SOLID
 70
     1
 71
     0
 91
        1
 92
        1
 93
        2
 72
     4
 94
        3
 73
     0
 74
     0
 95
       38
 96
       34
 40
0.0
 40
0.0
 40
0.0
 40
0.0
 40
0.3527780104152769
 40
0.3527780104152769
 40
0.3527780104152769
 40
0.7055560208305538
 40
0.7055560208305538
 40
0.7055560208305538
 40
1.058334031245828
 40
1.058334031245828
 40
1.058334031245828
 40
1.411112041661104
 40
1.411112041661104
 40
1.411112041661104
 40
1.763890052076384
 40
1.763890052076384
 40
1.763890052076384
 40
2.116668062491659
 40
2.116668062491659
 40
2.116668062491659
 40
2.469446072906936
 40
2.469446072906936
 40
2.469446072906936
 40
2.822224083322215
 40
2.822224083322215
 40
2.822224083322215
 40
3.175002093737492
 40
3.175002093737492
 40
3.175002093737492
 40
3.527780104152768
 40
3.527780104152768
 40
3.527780104152768
 40
3.880558114568044
 40
3.880558114568044
 40
3.880558114568044
 40
3.880558114568044
 10
189.145513185819
 20
166.8326485368285
 10
189.207869455238
 20
166.740492171803
 10
189.1317327947871
 20
166.6833035490209
 10
189.103138483396
 20
166.6209472796017
 10
189.103138483396
 20
166.6209472796017
 10
189.0607637809731
 20
166.5997599283903
 10
189.0607637809731
 20
166.5997599283903
 10
189.0607637809731
 20
166.5997599283903
 10
188.9973739822266
 20
166.5785725771788
 10
188.9973739822266
 20
166.5785725771788
 10
188.9973739822266
 20
166.5785725771788
 10
188.9549992798037
 20
166.5997599283903
 10
188.9549992798037
 20
166.5997599283903
 10
188.9549992798037
 20
166.5997599283903
 10
188.8916094810572
 20
166.5997599283903
 10
188.8916094810572
 20
166.5997599283903
 10
188.8916094810572
 20
166.5997599283903
 10
188.8492347786343
 20
166.6209472796017
 10
188.8492347786343
 20
166.6209472796017
 10
188.8492347786343
 20
166.6209472796017
 10
188.8278751725349
 20
166.6633219820247
 10
188.8278751725349
 20
166.6633219820247
 10
188.8278751725349
 20
166.6633219820247
 10
188.8068600762114
 20
166.6845093332361
 10
188.8068600762114
 20
166.6845093332361
 10
188.8068600762114
 20
166.6845093332361
 10
188.8068600762114
 20
166.8326485368285
 10
188.8068600762114
 20
166.8326485368285
 10
188.8068600762114
 20
166.8326485368285
 10
188.8702498749578
 20
166.896038335575
 10
188.8702498749578
 20
166.896038335575
 10
189.0228677056355
 20
166.8819134347673
 10
189.0686875058164
 20
166.9411691162043
 10
189.145513185819
 20
166.8326485368285
 72
     1
 10
189.145513185819
 20
166.8326485368285
 11
189.145513185819
 21
166.8326485368285
 97
        0
 75
     0
 76
     1
 98
        0
450
        0
451
        0
460
0.0
461
0.0
452
        0
462
0.0
453
        0
470

  0
HATCH
  5
35D8
330
1F
100
AcDbEntity
  8
图层 1
 62
     7
100
AcDbHatch
 10
0.0
 20
0.0
 30
0.0
210
0.0
220
0.0
230
1.0
  2
SOLID
 70
     1
 71
     0
 91
        1
 92
        1
 93
        2
 72
     4
 94
        3
 73
     0
 74
     0
 95
       68
 96
       64
 40
0.0
 40
0.0
 40
0.0
 40
0.0
 40
0.3527780104152769
 40
0.3527780104152769
 40
0.3527780104152769
 40
0.7055560208305538
 40
0.7055560208305538
 40
0.7055560208305538
 40
1.058334031245828
 40
1.058334031245828
 40
1.058334031245828
 40
1.411112041661104
 40
1.411112041661104
 40
1.411112041661104
 40
1.763890052076384
 40
1.763890052076384
 40
1.763890052076384
 40
2.116668062491659
 40
2.116668062491659
 40
2.116668062491659
 40
2.469446072906936
 40
2.469446072906936
 40
2.469446072906936
 40
2.822224083322215
 40
2.822224083322215
 40
2.822224083322215
 40
3.175002093737492
 40
3.175002093737492
 40
3.175002093737492
 40
3.527780104152768
 40
3.527780104152768
 40
3.527780104152768
 40
3.880558114568044
 40
3.880558114568044
 40
3.880558114568044
 40
4.233336124983321
 40
4.233336124983321
 40
4.233336124983321
 40
4.586114135398599
 40
4.586114135398599
 40
4.586114135398599
 40
4.938892145813873
 40
4.938892145813873
 40
4.938892145813873
 40
5.291670156229153
 40
5.291670156229153
 40
5.291670156229153
 40
5.64444816664443
 40
5.64444816664443
 40
5.64444816664443
 40
5.997226177059705
 40
5.997226177059705
 40
5.997226177059705
 40
6.350004187474984
 40
6.350004187474984
 40
6.350004187474984
 40
6.702782197890257
 40
6.702782197890257
 40
6.702782197890257
 40
7.055560208305537
 40
7.055560208305537
 40
7.055560208305537
 40
7.408338218720808
 40
7.408338218720808
 40
7.408338218720808
 40
7.408338218720808
 10
174.7732543591544
 20
135.4846705078077
 10
174.7732543591544
 20
135.4846705078077
 10
174.7732543591544
 20
135.3789060066383
 10
174.7732543591544
 20
135.3789060066383
 10
174.7732543591544
 20
135.3789060066383
 10
174.8156290615773
 20
135.3789060066383
 10
174.8156290615773
 20
135.3789060066383
 10
174.8156290615773
 20
135.3789060066383
 10
174.8580037640002
 20
135.3578909103147
 10
174.8580037640002
 20
135.3578909103147
 10
174.8580037640002
 20
135.3578909103147
 10
174.9213935627468
 20
135.3578909103147
 10
174.9213935627468
 20
135.3578909103147
 10
174.9213935627468
 20
135.3578909103147
 10
174.9637682651697
 20
135.3365313042154
 10
174.9637682651697
 20
135.3365313042154
 10
174.9637682651697
 20
135.3365313042154
 10
174.9847833614933
 20
135.3365313042154
 10
174.9847833614933
 20
135.3365313042154
 10
174.9847833614933
 20
135.3365313042154
 10
175.0271580639162
 20
135.3155162078918
 10
175.0271580639162
 20
135.3155162078918
 10
175.0271580639162
 20
135.3155162078918
 10
175.0485176700155
 20
135.2941566017924
 10
175.0485176700155
 20
135.2941566017924
 10
175.0485176700155
 20
135.2941566017924
 10
175.0695327663391
 20
135.2941566017924
 10
175.0695327663391
 20
135.2941566017924
 10
175.0695327663391
 20
135.2941566017924
 10
175.0908923724385
 20
135.2731415054689
 10
175.0908923724385
 20
135.2731415054689
 10
175.0908923724385
 20
135.2731415054689
 10
175.1332670748614
 20
135.2731415054689
 10
175.1332670748614
 20
135.2731415054689
 10
175.1332670748614
 20
135.2731415054689
 10
175.154282171185
 20
135.2517818993695
 10
175.154282171185
 20
135.2517818993695
 10
175.154282171185
 20
135.2517818993695
 10
175.154282171185
 20
135.3578909103147
 10
175.154282171185
 20
135.3578909103147
 10
175.154282171185
 20
135.3578909103147
 10
175.1332670748614
 20
135.3789060066383
 10
175.1332670748614
 20
135.3789060066383
 10
175.1332670748614
 20
135.3789060066383
 10
175.0908923724385
 20
135.3789060066383
 10
175.0908923724385
 20
135.3789060066383
 10
175.0908923724385
 20
135.3789060066383
 10
175.0908923724385
 20
135.3999211029619
 10
175.0908923724385
 20
135.3999211029619
 10
175.0908923724385
 20
135.3999211029619
 10
175.0695327663391
 20
135.3999211029619
 10
175.0695327663391
 20
135.3999211029619
 10
175.0695327663391
 20
135.3999211029619
 10
175.0271580639162
 20
135.4212807090612
 10
175.0271580639162
 20
135.4212807090612
 10
175.0271580639162
 20
135.4212807090612
 10
175.0061429675926
 20
135.4212807090612
 10
175.0061429675926
 20
135.4212807090612
 10
175.0061429675926
 20
135.4212807090612
 10
174.9637682651697
 20
135.4422958053848
 10
174.9637682651697
 20
135.4422958053848
 10
174.8996894468716
 20
135.4498750204523
 10
174.8394002361073
 20
135.4860485469109
 10
174.7732543591544
 20
135.4846705078077
 72
     1
 10
174.7732543591544
 20
135.4846705078077
 11
174.7732543591544
 21
135.4846705078077
 97
        0
 75
     0
 76
     1
 98
        0
450
        0
451
        0
460
0.0
461
0.0
452
        0
462
0.0
453
        0
470

  0
HATCH
  5
3807
330
1F
100
AcDbEntity
  8
图层 1
 62
     7
100
AcDbHatch
 10
0.0
 20
0.0
 30
0.0
210
0.0
220
0.0
230
1.0
  2
SOLID
 70
     1
 71
     0
 91
        1
 92
        1
 93
        2
 72
     4
 94
        3
 73
     0
 74
     0
 95
       29
 96
       25
 40
0.0
 40
0.0
 40
0.0
 40
0.0
 40
0.3527780104152769
 40
0.3527780104152769
 40
0.3527780104152769
 40
0.7055560208305538
 40
0.7055560208305538
 40
0.7055560208305538
 40
1.058334031245828
 40
1.058334031245828
 40
1.058334031245828
 40
1.411112041661104
 40
1.411112041661104
 40
1.411112041661104
 40
1.763890052076384
 40
1.763890052076384
 40
1.763890052076384
 40
2.116668062491659
 40
2.116668062491659
 40
2.116668062491659
 40
2.469446072906936
 40
2.469446072906936
 40
2.469446072906936
 40
2.822224083322215
 40
2.822224083322215
 40
2.822224083322215
 40
2.822224083322215
 10
175.4929352807925
 20
164.0174869039101
 10
175.4929352807925
 20
164.0174869039101
 10
175.5139503771161
 20
163.9751122014871
 10
175.5139503771161
 20
163.9751122014871
 10
175.5139503771161
 20
163.9751122014871
 10
175.5139503771161
 20
163.9327374990642
 10
175.5139503771161
 20
163.9327374990642
 10
175.5139503771161
 20
163.9327374990642
 10
175.4929352807925
 20
163.8903627966413
 10
175.4929352807925
 20
163.8903627966413
 10
175.4929352807925
 20
163.8903627966413
 10
175.471920184469
 20
163.8691754454298
 10
175.471920184469
 20
163.8691754454298
 10
175.471920184469
 20
163.8691754454298
 10
175.4505605783696
 20
163.8269729978948
 10
175.4505605783696
 20
163.8269729978948
 10
175.3571984291289
 20
163.7715069239916
 10
175.272449024283
 20
163.8195660377152
 10
175.1966568736079
 20
163.8691754454298
 10
175.208370205985
 20
163.9930267098286
 10
175.1563492298397
 20
164.0216210212197
 10
175.2600466723544
 20
164.0596893514451
 10
175.3330827448232
 20
164.1094710140476
 10
175.4357466580104
 20
164.0753645462439
 10
175.4929352807925
 20
164.0174869039101
 72
     1
 10
175.4929352807925
 20
164.0174869039101
 11
175.4929352807925
 21
164.0174869039101
 97
        0
 75
     0
 76
     1
 98
        0
450
        0
451
        0
460
0.0
461
0.0
452
        0
462
0.0
453
        0
470

  0
HATCH
  5
3895
330
1F
100
AcDbEntity
  8
图层 1
 62
     7
100
AcDbHatch
 10
0.0
 20
0.0
 30
0.0
210
0.0
220
0.0
230
1.0
  2
SOLID
 70
     1
 71
     0
 91
        1
 92
        1
 93
        2
 72
     4
 94
        3
 73
     0
 74
     0
 95
       11
 96
        7
 40
0.0
 40
0.0
 40
0.0
 40
0.0
 40
0.3527780104152769
 40
0.3527780104152769
 40
0.3527780104152769
 40
0.7055560208305538
 40
0.7055560208305538
 40
0.7055560208305538
 40
0.7055560208305538
 10
174.9213935627468
 20
174.5369206529582
 10
174.9213935627468
 20
174.5369206529582
 10
174.9213935627468
 20
174.3043765542958
 10
174.9213935627468
 20
174.3043765542958
 10
174.9213935627468
 20
174.3043765542958
 10
174.9213935627468
 20
174.5369206529582
 10
174.9213935627468
 20
174.5369206529582
 72
     1
 10
174.9213935627468
 20
174.5369206529582
 11
174.9213935627468
 21
174.5369206529582
 97
        0
 75
     0
 76
     1
 98
        0
450
        0
451
        0
460
0.0
461
0.0
452
        0
462
0.0
453
        0
470

  0
HATCH
  5
3943
330
1F
100
AcDbEntity
  8
图层 1
 62
     7
100
AcDbHatch
 10
0.0
 20
0.0
 30
0.0
210
0.0
220
0.0
230
1.0
  2
SOLID
 70
     1
 71
     0
 91
        1
 92
        1
 93
        2
 72
     4
 94
        3
 73
     0
 74
     0
 95
      131
 96
      127
 40
0.0
 40
0.0
 40
0.0
 40
0.0
 40
0.3527780104152769
 40
0.3527780104152769
 40
0.3527780104152769
 40
0.7055560208305538
 40
0.7055560208305538
 40
0.7055560208305538
 40
1.058334031245828
 40
1.058334031245828
 40
1.058334031245828
 40
1.411112041661104
 40
1.411112041661104
 40
1.411112041661104
 40
1.763890052076384
 40
1.763890052076384
 40
1.763890052076384
 40
2.116668062491659
 40
2.116668062491659
 40
2.116668062491659
 40
2.469446072906936
 40
2.469446072906936
 40
2.469446072906936
 40
2.822224083322215
 40
2.822224083322215
 40
2.822224083322215
 40
3.175002093737492
 40
3.175002093737492
 40
3.175002093737492
 40
3.527780104152768
 40
3.527780104152768
 40
3.527780104152768
 40
3.880558114568044
 40
3.880558114568044
 40
3.880558114568044
 40
4.233336124983321
 40
4.233336124983321
 40
4.233336124983321
 40
4.586114135398599
 40
4.586114135398599
 40
4.586114135398599
 40
4.938892145813873
 40
4.938892145813873
 40
4.938892145813873
 40
5.291670156229153
 40
5.291670156229153
 40
5.291670156229153
 40
5.64444816664443
 40
5.64444816664443
 40
5.64444816664443
 40
5.997226177059705
 40
5.997226177059705
 40
5.997226177059705
 40
6.350004187474984
 40
6.350004187474984
 40
6.350004187474984
 40
6.702782197890257
 40
6.702782197890257
 40
6.702782197890257
 40
7.055560208305537
 40
7.055560208305537
 40
7.055560208305537
 40
7.408338218720808
 40
7.408338218720808
 40
7.408338218720808
 40
7.76111622913609
 40
7.76111622913609
 40
7.76111622913609
 40
8.113894239551369
 40
8.113894239551369
 40
8.113894239551369
 40
8.466672249966642
 40
8.466672249966642
 40
8.466672249966642
 40
8.819450260381922
 40
8.819450260381922
 40
8.819450260381922
 40
9.172228270797198
 40
9.172228270797198
 40
9.172228270797198
 40
9.525006281212476
 40
9.525006281212476
 40
9.525006281212476
 40
9.877784291627751
 40
9.877784291627751
 40
9.877784291627751
 40
10.23056230204303
 40
10.23056230204303
 40
10.23056230204303
 40
10.58334031245831
 40
10.58334031245831
 40
10.58334031245831
 40
10.93611832287358
 40
10.93611832287358
 40
10.93611832287358
 40
11.28889633328886
 40
11.28889633328886
 40
11.28889633328886
 40
11.64167434370414
 40
11.64167434370414
 40
11.64167434370414
 40
11.99445235411941
 40
11.99445235411941
 40
11.99445235411941
 40
12.34723036453469
 40
12.34723036453469
 40
12.34723036453469
 40
12.70000837494997
 40
12.70000837494997
 40
12.70000837494997
 40
13.05278638536524
 40
13.05278638536524
 40
13.05278638536524
 40
13.40556439578052
 40
13.40556439578052
 40
13.40556439578052
 40
13.7583424061958
 40
13.7583424061958
 40
13.7583424061958
 40
14.11112041661107
 40
14.11112041661107
 40
14.11112041661107
 40
14.46389842702635
 40
14.46389842702635
 40
14.46389842702635
 40
14.81667643744163
 40
14.81667643744163
 40
14.81667643744163
 40
14.81667643744163
 10
173.3972823146245
 20
126.8274843518258
 10
173.3972823146245
 20
126.8274843518258
 10
173.3972823146245
 20
126.7217198506564
 10
173.3972823146245
 20
126.7217198506564
 10
173.3972823146245
 20
126.7217198506564
 10
173.4186419207238
 20
126.7217198506564
 10
173.4186419207238
 20
126.7217198506564
 10
173.4186419207238
 20
126.7217198506564
 10
173.4820317194703
 20
126.7007047543328
 10
173.4820317194703
 20
126.7007047543328
 10
173.4820317194703
 20
126.7007047543328
 10
173.5244064218933
 20
126.6793451482334
 10
173.5244064218933
 20
126.6793451482334
 10
173.5244064218933
 20
126.6793451482334
 10
173.5877962206398
 20
126.6793451482334
 10
173.5877962206398
 20
126.6793451482334
 10
173.5877962206398
 20
126.6793451482334
 10
173.6301709230627
 20
126.6583300519099
 10
173.6301709230627
 20
126.6583300519099
 10
173.7955356154449
 20
126.5911506456296
 10
173.759706598762
 20
126.6380039751379
 10
173.9478089363468
 20
126.5525655507404
 10
173.9478089363468
 20
126.5525655507404
 10
173.9688240326703
 20
126.4464565397952
 10
173.9688240326703
 20
126.4464565397952
 10
173.9688240326703
 20
126.4464565397952
 10
174.0325583411926
 20
126.5101908483175
 10
174.0325583411926
 20
126.5101908483175
 10
174.0325583411926
 20
126.5101908483175
 10
174.0749330436156
 20
126.5101908483175
 10
174.0749330436156
 20
126.5101908483175
 10
174.0749330436156
 20
126.5101908483175
 10
174.1593379386856
 20
126.4678161458946
 10
174.1593379386856
 20
126.4678161458946
 10
174.1593379386856
 20
126.4678161458946
 10
174.180697544785
 20
126.4464565397952
 10
174.180697544785
 20
126.4464565397952
 10
174.2464989119621
 20
126.3982251711837
 10
174.3298702777047
 20
126.3716979184474
 10
174.3922265471239
 20
126.3196769423022
 10
174.608234176548
 20
126.2059887162895
 10
174.7749769080334
 20
126.0278771622029
 10
174.9637682651697
 20
125.8749148217494
 10
174.9637682651697
 20
125.8749148217494
 10
175.0061429675926
 20
125.9172895241723
 10
175.0061429675926
 20
125.9172895241723
 10
174.961356696739
 20
125.9631093243532
 10
174.782211613325
 20
126.1246844092016
 10
174.7308796567315
 20
126.1501781326105
 10
174.7308796567315
 20
126.1501781326105
 10
174.6885049543085
 20
126.1925528350335
 10
174.6885049543085
 20
126.1925528350335
 10
174.6885049543085
 20
126.1925528350335
 10
174.667489857985
 20
126.2349275374564
 10
174.667489857985
 20
126.2349275374564
 10
174.667489857985
 20
126.2349275374564
 10
174.625115155562
 20
126.2559426337799
 10
174.625115155562
 20
126.2559426337799
 10
174.625115155562
 20
126.2559426337799
 10
174.5827404531391
 20
126.2983173362029
 10
174.5827404531391
 20
126.2983173362029
 10
174.5827404531391
 20
126.2983173362029
 10
174.5403657507162
 20
126.3196769423022
 10
174.5403657507162
 20
126.3196769423022
 10
174.5403657507162
 20
126.3196769423022
 10
174.4979910482932
 20
126.3620516447252
 10
174.4979910482932
 20
126.3620516447252
 10
174.4735308542117
 20
126.3875453681341
 10
174.3247026310678
 20
126.4695386947736
 10
174.2864620459544
 20
126.4888312422181
 10
174.2864620459544
 20
126.4888312422181
 10
174.2654469496308
 20
126.5101908483175
 10
174.2654469496308
 20
126.5101908483175
 10
174.2654469496308
 20
126.5101908483175
 10
174.2230722472079
 20
126.5312059446411
 10
174.2230722472079
 20
126.5312059446411
 10
174.2230722472079
 20
126.5312059446411
 10
174.2017126411085
 20
126.5525655507404
 10
174.2017126411085
 20
126.5525655507404
 10
174.2017126411085
 20
126.5525655507404
 10
174.1383228423621
 20
126.573580647064
 10
174.1383228423621
 20
126.573580647064
 10
174.1383228423621
 20
126.573580647064
 10
174.1169632362627
 20
126.5945957433876
 10
174.1169632362627
 20
126.5945957433876
 10
174.1169632362627
 20
126.5945957433876
 10
174.0959481399391
 20
126.7007047543328
 10
174.0959481399391
 20
126.7007047543328
 10
174.0959481399391
 20
126.7007047543328
 10
174.0325583411926
 20
126.6369704458105
 10
174.0325583411926
 20
126.6369704458105
 10
174.0325583411926
 20
126.6369704458105
 10
173.9901836387697
 20
126.6369704458105
 10
173.9901836387697
 20
126.6369704458105
 10
173.9901836387697
 20
126.6369704458105
 10
173.9054342339239
 20
126.6793451482334
 10
173.9054342339239
 20
126.6793451482334
 10
173.9054342339239
 20
126.6793451482334
 10
173.8420444351773
 20
126.7007047543328
 10
173.8420444351773
 20
126.7007047543328
 10
173.8420444351773
 20
126.7007047543328
 10
173.7996697327544
 20
126.7217198506564
 10
173.7996697327544
 20
126.7217198506564
 10
173.7996697327544
 20
126.7217198506564
 10
173.7572950303315
 20
126.7217198506564
 10
173.7572950303315
 20
126.7217198506564
 10
173.7572950303315
 20
126.7217198506564
 10
173.6725456254856
 20
126.7640945530793
 10
173.6725456254856
 20
126.7640945530793
 10
173.6725456254856
 20
126.7640945530793
 10
173.6515305291621
 20
126.7640945530793
 10
173.6515305291621
 20
126.7640945530793
 10
173.6515305291621
 20
126.7640945530793
 10
173.5667811243162
 20
126.7851096494029
 10
173.5667811243162
 20
126.7851096494029
 10
173.5667811243162
 20
126.7851096494029
 10
173.5033913255697
 20
126.8064692555022
 10
173.5033913255697
 20
126.8064692555022
 10
173.5033913255697
 20
126.8064692555022
 10
173.4396570170474
 20
126.8064692555022
 10
173.4396570170474
 20
126.8064692555022
 10
173.4396570170474
 20
126.8064692555022
 10
173.4186419207238
 20
126.8274843518258
 10
173.4186419207238
 20
126.8274843518258
 10
173.4186419207238
 20
126.8274843518258
 10
173.3972823146245
 20
126.8274843518258
 10
173.3972823146245
 20
126.8274843518258
 72
     1
 10
173.3972823146245
 20
126.8274843518258
 11
173.3972823146245
 21
126.8274843518258
 97
        0
 75
     0
 76
     1
 98
        0
450
        0
451
        0
460
0.0
461
0.0
452
        0
462
0.0
453
        0
470

  0
HATCH
  5
4842
330
1F
100
AcDbEntity
  8
图层 1
 62
     7
100
AcDbHatch
 10
0.0
 20
0.0
 30
0.0
210
0.0
220
0.0
230
1.0
  2
SOLID
 70
     1
 71
     0
 91
        1
 92
        1
 93
        2
 72
     4
 94
        3
 73
     0
 74
     0
 95
       47
 96
       43
 40
0.0
 40
0.0
 40
0.0
 40
0.0
 40
0.3527780104152769
 40
0.3527780104152769
 40
0.3527780104152769
 40
0.7055560208305538
 40
0.7055560208305538
 40
0.7055560208305538
 40
1.058334031245828
 40
1.058334031245828
 40
1.058334031245828
 40
1.411112041661104
 40
1.411112041661104
 40
1.411112041661104
 40
1.763890052076384
 40
1.763890052076384
 40
1.763890052076384
 40
2.116668062491659
 40
2.116668062491659
 40
2.116668062491659
 40
2.469446072906936
 40
2.469446072906936
 40
2.469446072906936
 40
2.822224083322215
 40
2.822224083322215
 40
2.822224083322215
 40
3.175002093737492
 40
3.175002093737492
 40
3.175002093737492
 40
3.527780104152768
 40
3.527780104152768
 40
3.527780104152768
 40
3.880558114568044
 40
3.880558114568044
 40
3.880558114568044
 40
4.233336124983321
 40
4.233336124983321
 40
4.233336124983321
 40
4.586114135398599
 40
4.586114135398599
 40
4.586114135398599
 40
4.938892145813873
 40
4.938892145813873
 40
4.938892145813873
 40
4.938892145813873
 10
180.1920486226523
 20
255.6479577566324
 10
180.1920486226523
 20
255.6479577566324
 10
180.2130637189759
 20
255.6055830542095
 10
180.2130637189759
 20
255.6055830542095
 10
180.2130637189759
 20
255.6055830542095
 10
180.2130637189759
 20
255.5210059042515
 10
180.2130637189759
 20
255.5210059042515
 10
180.2130637189759
 20
255.5210059042515
 10
180.1920486226523
 20
255.4786312018286
 10
180.1920486226523
 20
255.4786312018286
 10
180.1920486226523
 20
255.4786312018286
 10
180.1496739202294
 20
255.4359119896299
 10
180.1496739202294
 20
255.4359119896299
 10
180.1496739202294
 20
255.4359119896299
 10
180.1283143141301
 20
255.4147246384184
 10
180.1283143141301
 20
255.4147246384184
 10
180.1283143141301
 20
255.4147246384184
 10
180.0225498129606
 20
255.4147246384184
 10
180.0225498129606
 20
255.4147246384184
 10
180.0225498129606
 20
255.4147246384184
 10
179.9591600142141
 20
255.4359119896299
 10
179.9591600142141
 20
255.4359119896299
 10
179.9591600142141
 20
255.4359119896299
 10
179.9167853117912
 20
255.4570993408414
 10
179.9167853117912
 20
255.4570993408414
 10
179.9167853117912
 20
255.4570993408414
 10
179.8957702154676
 20
255.4786312018286
 10
179.8957702154676
 20
255.4786312018286
 10
179.8957702154676
 20
255.4786312018286
 10
179.8744106093683
 20
255.4994740432643
 10
179.8744106093683
 20
255.4994740432643
 10
179.8744106093683
 20
255.4994740432643
 10
179.8744106093683
 20
255.6479577566324
 10
179.8744106093683
 20
255.6479577566324
 10
179.9608825630931
 20
255.7323626517025
 10
180.045631967939
 20
255.7085914771726
 10
180.1496739202294
 20
255.7115198102668
 10
180.1496739202294
 20
255.7115198102668
 10
180.170689016553
 20
255.6688005980681
 10
180.170689016553
 20
255.6688005980681
 10
180.170689016553
 20
255.6688005980681
 10
180.1920486226523
 20
255.6479577566324
 10
180.1920486226523
 20
255.6479577566324
 72
     1
 10
180.1920486226523
 20
255.6479577566324
 11
180.1920486226523
 21
255.6479577566324
 97
        0
 75
     0
 76
     1
 98
        0
450
        0
451
        0
460
0.0
461
0.0
452
        0
462
0.0
453
        0
470

  0
MTEXT
  5
1338B
102
{ACAD_XDICTIONARY
360
18A5E
102
}
330
1F
100
AcDbEntity
  8
打标文字
 62
     3
100
AcDbMText
 10
540.3427923518417
 20
323.4774954938323
 30
0.0
 40
3.0
 41
86.2548180434813
 46
107.8236110958389
 71
     1
 72
     5
  3
\A1;{\f仿宋_GB2312|b0|i0|c134|p49;技术参数}:\P- {\f仿宋_GB2312|b0|i0|c134|p49;材料}: {\f仿宋_GB2312|b0|i0|c134|p49;铜合金}\P- {\f仿宋_GB2312|b0|i0|c134|p49;表面处理}: {\f仿宋_GB2312|b0|i0|c134|p49;镀银}\P- {\f仿宋_GB2312|b0|i0|c134|p49;额定电流}: 350A\P- {\f仿宋_GB2312|b0|i0|c134|p4
  3
9;接触电阻}: ≤0.3mΩ\P- {\f仿宋_GB2312|b0|i0|c134|p49;线径范围}: 50mm{\H0.7x;\S2^ ;}\P- {\f仿宋_GB2312|b0|i0|c134|p49;剥线长度}: 28mm\P- {\f仿宋_GB2312|b0|i0|c134|p49;最大电缆直径}: 22mm\P- {\f仿宋_GB2312|b0|i0|c134|p49;冷压模具}: {\f仿宋_GB2312|b0|i0|c134|p49;按照} DIN 46 235\P- {\f仿宋
  3
_GB2312|b0|i0|c134|p49;压力要求}: 130kN\P- {\f仿宋_GB2312|b0|i0|c134|p49;可插拔次数}: {\f仿宋_GB2312|b0|i0|c134|p49;≥}500\P\PTechnical specification:\P- Material: copper alloy\P- Surface: hard-silver plated\P- Rated current: 350A\P- Contact resistance: ≤0.3mΩ\P- 
  1
Wire gauge: 50mm{\H0.7x;\S2^ ;}\P- Stripping length: 22mm\P- Max. insulation diameter: 22mm\P- Crimp dies: acc. to DIN 46 235\P- Pressing force: 130kN\P- Mating cycles: {\f仿宋_GB2312|b0|i0|c134|p49;≥}500
  7
Romans字体
 73
     1
 44
1.0
1001
ACAD
1000
ACAD_MTEXT_DEFINED_HEIGHT_BEGIN
1070
    46
1040
107.8236110958389
1000
ACAD_MTEXT_DEFINED_HEIGHT_END
  0
MTEXT
  5
13829
330
1F
100
AcDbEntity
  8
图框
 62
     3
100
AcDbMText
 10
599.3915027813324
 20
183.7885661405102
 30
0.0
 40
2.985513578540332
 41
33.6123920318957
 46
8.686745515887562
 71
     5
 72
     5
  1
CHSM350-50
  7
Romans字体
 73
     1
 44
1.0
1001
ACAD
1000
ACAD_MTEXT_DEFINED_HEIGHT_BEGIN
1070
    46
1040
8.686745515887562
1000
ACAD_MTEXT_DEFINED_HEIGHT_END
  0
MTEXT
  5
1382A
330
1F
100
AcDbEntity
  8
图框
 62
     3
100
AcDbMText
 10
599.3915027813324
 20
175.0091156033734
 30
0.0
 40
2.985513578540332
 41
33.6123920318957
 46
8.872155558385545
 71
     5
 72
     5
  1
1010291101801
  7
Romans字体
 73
     1
 44
1.0
1001
ACAD
1000
ACAD_MTEXT_DEFINED_HEIGHT_BEGIN
1070
    46
1040
8.872155558385545
1000
ACAD_MTEXT_DEFINED_HEIGHT_END
  0
MTEXT
  5
1382B
330
1F
100
AcDbEntity
  8
图框
 62
     3
100
AcDbMText
 10
531.3378377708253
 20
161.701480509
 30
0.0
 40
2.985513578540332
 41
10.82934844710844
 46
7.88609461047191
 71
     5
 72
     5
  1
1:1 
  7
Romans字体
 73
     1
 44
1.0
1001
ACAD
1000
ACAD_MTEXT_DEFINED_HEIGHT_BEGIN
1070
    46
1040
7.88609461047191
1000
ACAD_MTEXT_DEFINED_HEIGHT_END
  0
MTEXT
  5
1382C
330
1F
100
AcDbEntity
  8
图框
 62
     3
100
AcDbMText
 10
552.9965346650443
 20
161.701480509
 30
0.0
 40
2.985513578540332
 41
10.82934844711013
 46
7.886094610471809
 71
     5
 72
     5
  1
67g
  7
Romans字体
 73
     1
 44
1.0
1001
ACAD
1000
ACAD_MTEXT_DEFINED_HEIGHT_BEGIN
1070
    46
1040
7.886094610471809
1000
ACAD_MTEXT_DEFINED_HEIGHT_END
  0
INSERT
  5
1382D
330
1F
100
AcDbEntity
  8
DIM
100
AcDbBlockReference
  2
A4图框-NEW
 10
-510.7308051365452
 20
-334.1402619726514
 30
0.0
  0
INSERT
  5
1815E
330
1F
100
AcDbEntity
  8
hat
100
AcDbBlockReference
  2
*X9
 10
478.8379986819951
 20
252.2121094144702
 30
0.0
  0
LINE
  5
1815F
330
1F
100
AcDbEntity
  8
0
100
AcDbLine
 10
444.1019286819951
 20
263.9481794144701
 30
0.0
 11
444.1019286819951
 21
260.9481794144701
 31
0.0
  0
LINE
  5
18160
330
1F
100
AcDbEntity
  8
0
100
AcDbLine
 10
444.1019286819951
 20
260.9481794144701
 30
0.0
 11
422.1019286819951
 21
260.9481794144701
 31
0.0
  0
LINE
  5
18165
330
1F
100
AcDbEntity
  8
0
100
AcDbLine
 10
422.1019286819951
 20
263.9481794144701
 30
0.0
 11
444.1019286819951
 21
263.9481794144701
 31
0.0
  0
ARC
  5
18168
330
1F
100
AcDbEntity
  8
0
100
AcDbCircle
 10
451.6019286819951
 20
262.4481794144701
 30
0.0
 40
1.0
100
AcDbArc
 50
180.0
 51
270.0
  0
ARC
  5
18169
330
1F
100
AcDbEntity
  8
0
100
AcDbCircle
 10
451.6019286819951
 20
262.4481794144701
 30
0.0
 40
1.0
100
AcDbArc
 50
270.0
 51
180.0
  0
LINE
  5
1816A
330
1F
100
AcDbEntity
  8
0
100
AcDbLine
 10
479.1019286819953
 20
256.4481794144701
 30
0.0
 11
479.1019286819953
 21
251.9481794144701
 31
0.0
  0
LINE
  5
1816B
330
1F
100
AcDbEntity
  8
0
100
AcDbLine
 10
479.1019286819953
 20
272.9481794144701
 30
0.0
 11
479.1019286819953
 21
268.4481794144701
 31
0.0
  0
LINE
  5
1816C
330
1F
100
AcDbEntity
  8
0
100
AcDbLine
 10
479.1019286819953
 20
268.4481794144701
 30
0.0
 11
479.1019286819953
 21
256.4481794144701
 31
0.0
  0
LINE
  5
1816D
330
1F
100
AcDbEntity
  8
0
100
AcDbLine
 10
449.1019286819953
 20
270.1981794144701
 30
0.0
 11
449.1019286819953
 21
272.4481794144701
 31
0.0
  0
LINE
  5
1816E
330
1F
100
AcDbEntity
  8
0
100
AcDbLine
 10
449.1019286819953
 20
252.4481794144701
 30
0.0
 11
449.1019286819953
 21
254.6981794144701
 31
0.0
  0
LINE
  5
1816F
330
1F
100
AcDbEntity
  8
0
100
AcDbLine
 10
454.1019286819953
 20
251.44819941447
 30
0.0
 11
454.1019286819953
 21
254.1981794144701
 31
0.0
  0
LINE
  5
18170
330
1F
100
AcDbEntity
  8
0
100
AcDbLine
 10
454.1019286819953
 20
270.6981794144701
 30
0.0
 11
454.1019286819953
 21
273.4481794144701
 31
0.0
  0
LINE
  5
181D3
330
1F
100
AcDbEntity
  8
0
100
AcDbLine
 10
477.3698786819948
 20
257.4481794144701
 30
0.0
 11
479.1019286819953
 21
256.4481794144701
 31
0.0
  0
LINE
  5
181D4
330
1F
100
AcDbEntity
  8
0
100
AcDbLine
 10
479.1019286819953
 20
268.4481794144701
 30
0.0
 11
477.3698786819948
 21
267.4481794144701
 31
0.0
  0
LINE
  5
181D5
330
1F
100
AcDbEntity
  8
0
100
AcDbLine
 10
477.3698786819948
 20
267.4481794144701
 30
0.0
 11
477.3698786819948
 21
257.4481794144701
 31
0.0
  0
LINE
  5
181D6
330
1F
100
AcDbEntity
  8
0
100
AcDbLine
 10
478.1019286819953
 20
251.9481794144701
 30
0.0
 11
474.8519286819951
 21
255.1981794144701
 31
0.0
  0
LINE
  5
181D7
330
1F
100
AcDbEntity
  8
0
100
AcDbLine
 10
474.8519286819951
 20
269.6981794144701
 30
0.0
 11
478.1019286819953
 21
272.9481794144701
 31
0.0
  0
LINE
  5
181D8
330
1F
100
AcDbEntity
  8
0
100
AcDbLine
 10
478.1019286819953
 20
251.9481794144701
 30
0.0
 11
479.1019286819953
 21
251.9481794144701
 31
0.0
  0
LINE
  5
181D9
330
1F
100
AcDbEntity
  8
0
100
AcDbLine
 10
479.1019286819953
 20
272.9481794144701
 30
0.0
 11
478.1019286819953
 21
272.9481794144701
 31
0.0
  0
ARC
  5
181DA
330
1F
100
AcDbEntity
  8
0
100
AcDbCircle
 10
455.1019286819951
 20
254.1981794144701
 30
0.0
 40
1.0
100
AcDbArc
 50
90.0
 51
180.0
  0
ARC
  5
181DB
330
1F
100
AcDbEntity
  8
0
100
AcDbCircle
 10
455.1019286819951
 20
270.6981794144701
 30
0.0
 40
1.0
100
AcDbArc
 50
180.0
 51
270.0
  0
LINE
  5
181DC
330
1F
100
AcDbEntity
  8
0
100
AcDbLine
 10
450.6019286819952
 20
257.4481794144701
 30
0.0
 11
447.7151786819947
 21
262.4481794144701
 31
0.0
  0
LINE
  5
181DD
330
1F
100
AcDbEntity
  8
0
100
AcDbLine
 10
447.7151786819947
 20
262.4481794144701
 30
0.0
 11
450.6019286819952
 21
267.4481794144701
 31
0.0
  0
LINE
  5
181DE
330
1F
100
AcDbEntity
  8
0
100
AcDbLine
 10
450.6019286819952
 20
262.4481794144701
 30
0.0
 11
450.6019286819952
 21
267.4481794144701
 31
0.0
  0
LINE
  5
181DF
330
1F
100
AcDbEntity
  8
0
100
AcDbLine
 10
450.6019286819952
 20
257.4481794144701
 30
0.0
 11
450.6019286819952
 21
262.4481794144701
 31
0.0
  0
LINE
  5
181E0
330
1F
100
AcDbEntity
  8
0
100
AcDbLine
 10
477.3698786819948
 20
257.4481794144701
 30
0.0
 11
450.6019286819952
 21
257.4481794144701
 31
0.0
  0
LINE
  5
181E1
330
1F
100
AcDbEntity
  8
0
100
AcDbLine
 10
450.6019286819952
 20
267.4481794144701
 30
0.0
 11
477.3698786819948
 21
267.4481794144701
 31
0.0
  0
ARC
  5
181E2
330
1F
100
AcDbEntity
  8
0
100
AcDbCircle
 10
448.6019286819951
 20
254.6981794144701
 30
0.0
 40
0.5
100
AcDbArc
 50
0.0
 51
90.0
  0
ARC
  5
181E3
330
1F
100
AcDbEntity
  8
0
100
AcDbCircle
 10
448.6019286819951
 20
270.1981794144701
 30
0.0
 40
0.5
100
AcDbArc
 50
270.0
 51
0.0
  0
LINE
  5
181E4
330
1F
100
AcDbEntity
  8
0
100
AcDbLine
 10
450.1019286819953
 20
251.4481794144701
 30
0.0
 11
449.1019286819953
 21
252.4481794144701
 31
0.0
  0
LINE
  5
181E5
330
1F
100
AcDbEntity
  8
0
100
AcDbLine
 10
449.1019286819953
 20
272.4481794144701
 30
0.0
 11
450.1019286819953
 21
273.4481794144701
 31
0.0
  0
LINE
  5
181E6
330
1F
100
AcDbEntity
  8
0
100
AcDbLine
 10
424.1019286819953
 20
255.1981794144701
 30
0.0
 11
445.1940186819951
 21
255.1981794144701
 31
0.0
  0
LINE
  5
181E7
330
1F
100
AcDbEntity
  8
0
100
AcDbLine
 10
448.6019286819951
 20
255.1981794144701
 30
0.0
 11
445.1940186819951
 21
255.1981794144701
 31
0.0
  0
LINE
  5
181E8
330
1F
100
AcDbEntity
  8
0
100
AcDbLine
 10
445.1940186819951
 20
269.6981794144701
 30
0.0
 11
424.1019286819953
 21
269.6981794144701
 31
0.0
  0
LINE
  5
181E9
330
1F
100
AcDbEntity
  8
0
100
AcDbLine
 10
445.1940186819951
 20
269.6981794144701
 30
0.0
 11
448.6019286819951
 21
269.6981794144701
 31
0.0
  0
LINE
  5
181EA
102
{ACAD_REACTORS
330
182AF
102
}
330
1F
100
AcDbEntity
  8
0
100
AcDbLine
 10
455.1019286819951
 20
255.1981794144701
 30
0.0
 11
474.8519286819951
 21
255.1981794144701
 31
0.0
  0
LINE
  5
181EB
102
{ACAD_REACTORS
330
182AF
102
}
330
1F
100
AcDbEntity
  8
0
100
AcDbLine
 10
474.8519286819951
 20
269.6981794144701
 30
0.0
 11
455.1019286819951
 21
269.6981794144701
 31
0.0
  0
LINE
  5
181EC
330
1F
100
AcDbEntity
  8
0
100
AcDbLine
 10
454.1019286819953
 20
251.4481794144701
 30
0.0
 11
450.1019286819953
 21
251.4481794144701
 31
0.0
  0
LINE
  5
181ED
330
1F
100
AcDbEntity
  8
0
100
AcDbLine
 10
450.1019286819953
 20
273.4481794144701
 30
0.0
 11
454.1019286819953
 21
273.4481794144701
 31
0.0
  0
POLYLINE
  5
181EE
330
1F
100
AcDbEntity
  8
0
100
AcDb2dPolyline
 66
     1
 10
0.0
 20
0.0
 30
0.0
 70
     2
  0
VERTEX
  5
181EF
330
181EE
100
AcDbEntity
  8
0
100
AcDbVertex
100
AcDb2dVertex
 10
445.1940186819951
 20
255.1981794144701
 30
0.0
  0
VERTEX
  5
181F0
330
181EE
100
AcDbEntity
  8
0
100
AcDbVertex
100
AcDb2dVertex
 10
445.2358286819951
 20
255.27590941447
 30
0.0
 42
0.011726339
 70
     1
  0
VERTEX
  5
181F1
330
181EE
100
AcDbEntity
  8
0
100
AcDbVertex
100
AcDb2dVertex
 10
445.2731586819949
 20
255.35381941447
 30
0.0
 42
0.011973861
  0
VERTEX
  5
181F2
330
181EE
100
AcDbEntity
  8
0
100
AcDbVertex
100
AcDb2dVertex
 10
445.305848681995
 20
255.43189941447
 30
0.0
 42
0.012737844
 70
     1
  0
VERTEX
  5
181F3
330
181EE
100
AcDbEntity
  8
0
100
AcDbVertex
100
AcDb2dVertex
 10
445.3338686819948
 20
255.5102094144701
 30
0.0
 42
0.014098781
  0
VERTEX
  5
181F4
330
181EE
100
AcDbEntity
  8
0
100
AcDbVertex
100
AcDb2dVertex
 10
445.3567486819953
 20
255.5887994144702
 30
0.0
 42
0.015293825
 70
     1
  0
VERTEX
  5
181F5
330
181EE
100
AcDbEntity
  8
0
100
AcDbVertex
100
AcDb2dVertex
 10
445.3744586819945
 20
255.6677394144701
 30
0.0
 42
0.016420897
  0
VERTEX
  5
181F6
330
181EE
100
AcDbEntity
  8
0
100
AcDbVertex
100
AcDb2dVertex
 10
445.3865886819946
 20
255.7470694144701
 30
0.0
 42
0.017115402
 70
     1
  0
VERTEX
  5
181F7
330
181EE
100
AcDbEntity
  8
0
100
AcDbVertex
100
AcDb2dVertex
 10
445.3932786819946
 20
255.82680941447
 30
0.0
 42
0.01742203
  0
VERTEX
  5
181F8
330
181EE
100
AcDbEntity
  8
0
100
AcDbVertex
100
AcDb2dVertex
 10
445.394308681995
 20
255.9069594144701
 30
0.0
 42
0.016882625
 70
     1
  0
VERTEX
  5
181F9
330
181EE
100
AcDbEntity
  8
0
100
AcDbVertex
100
AcDb2dVertex
 10
445.3901986819952
 20
255.9874394144701
 30
0.0
 42
0.015453102
  0
VERTEX
  5
181FA
330
181EE
100
AcDbEntity
  8
0
100
AcDbVertex
100
AcDb2dVertex
 10
445.3811486819946
 20
256.0681694144701
 30
0.0
 42
0.014217647
 70
     1
  0
VERTEX
  5
181FB
330
181EE
100
AcDbEntity
  8
0
100
AcDbVertex
100
AcDb2dVertex
 10
445.3676486819944
 20
256.1490694144701
 30
0.0
 42
0.012970079
  0
VERTEX
  5
181FC
330
181EE
100
AcDbEntity
  8
0
100
AcDbVertex
100
AcDb2dVertex
 10
445.3498686819946
 20
256.2300594144701
 30
0.0
 42
0.011827909
 70
     1
  0
VERTEX
  5
181FD
330
181EE
100
AcDbEntity
  8
0
100
AcDbVertex
100
AcDb2dVertex
 10
445.3282886819946
 20
256.3110694144702
 30
0.0
 42
0.010613128
  0
VERTEX
  5
181FE
330
181EE
100
AcDbEntity
  8
0
100
AcDbVertex
100
AcDb2dVertex
 10
445.3031086819954
 20
256.3919994144701
 30
0.0
 42
0.009554535
 70
     1
  0
VERTEX
  5
181FF
330
181EE
100
AcDbEntity
  8
0
100
AcDbVertex
100
AcDb2dVertex
 10
445.274788681995
 20
256.47279941447
 30
0.0
 42
0.0084606718
  0
VERTEX
  5
18200
330
181EE
100
AcDbEntity
  8
0
100
AcDbVertex
100
AcDb2dVertex
 10
445.2435386819947
 20
256.5533694144701
 30
0.0
 42
0.0075556626
 70
     1
  0
VERTEX
  5
18201
330
181EE
100
AcDbEntity
  8
0
100
AcDbVertex
100
AcDb2dVertex
 10
445.2097986819951
 20
256.63363941447
 30
0.0
 42
0.006653648
  0
VERTEX
  5
18202
330
181EE
100
AcDbEntity
  8
0
100
AcDbVertex
100
AcDb2dVertex
 10
445.1737986819948
 20
256.7135294144702
 30
0.0
 42
0.0057649641
 70
     1
  0
VERTEX
  5
18203
330
181EE
100
AcDbEntity
  8
0
100
AcDbVertex
100
AcDb2dVertex
 10
445.1360086819946
 20
256.7929794144701
 30
0.0
 42
0.0046855537
  0
VERTEX
  5
18204
330
181EE
100
AcDbEntity
  8
0
100
AcDbVertex
100
AcDb2dVertex
 10
445.0968086819946
 20
256.8719394144702
 30
0.0
 42
0.0033227917
 70
     1
  0
VERTEX
  5
18205
330
181EE
100
AcDbEntity
  8
0
100
AcDbVertex
100
AcDb2dVertex
 10
445.0569286819951
 20
256.9504694144701
 30
0.0
 42
0.0013216219
  0
VERTEX
  5
18206
330
181EE
100
AcDbEntity
  8
0
100
AcDbVertex
100
AcDb2dVertex
 10
445.0170586819947
 20
257.0286094144701
 30
0.0
 42
-0.0004024043
 70
     1
  0
VERTEX
  5
18207
330
181EE
100
AcDbEntity
  8
0
100
AcDbVertex
100
AcDb2dVertex
 10
444.9778886819947
 20
257.10642941447
 30
0.0
 42
-0.0023239407
  0
VERTEX
  5
18208
330
181EE
100
AcDbEntity
  8
0
100
AcDbVertex
100
AcDb2dVertex
 10
444.9401286819955
 20
257.1839494144701
 30
0.0
 42
-0.0041088841
 70
     1
  0
VERTEX
  5
18209
330
181EE
100
AcDbEntity
  8
0
100
AcDbVertex
100
AcDb2dVertex
 10
444.9044186819953
 20
257.26122941447
 30
0.0
 42
-0.006225176
  0
VERTEX
  5
1820A
330
181EE
100
AcDbEntity
  8
0
100
AcDbVertex
100
AcDb2dVertex
 10
444.8715286819948
 20
257.3383094144701
 30
0.0
 42
-0.0082661644
 70
     1
  0
VERTEX
  5
1820B
330
181EE
100
AcDbEntity
  8
0
100
AcDbVertex
100
AcDb2dVertex
 10
444.8420486819947
 20
257.41523941447
 30
0.0
 42
-0.010701936
  0
VERTEX
  5
1820C
330
181EE
100
AcDbEntity
  8
0
100
AcDbVertex
100
AcDb2dVertex
 10
444.8168186819946
 20
257.4920694144702
 30
0.0
 42
-0.013020381
 70
     1
  0
VERTEX
  5
1820D
330
181EE
100
AcDbEntity
  8
0
100
AcDbVertex
100
AcDb2dVertex
 10
444.796318681995
 20
257.5688494144701
 30
0.0
 42
-0.015637555
  0
VERTEX
  5
1820E
330
181EE
100
AcDbEntity
  8
0
100
AcDbVertex
100
AcDb2dVertex
 10
444.7814486819948
 20
257.6456194144701
 30
0.0
 42
-0.018359111
 70
     1
  0
VERTEX
  5
1820F
330
181EE
100
AcDbEntity
  8
0
100
AcDbVertex
100
AcDb2dVertex
 10
444.7727586819953
 20
257.72242941447
 30
0.0
 42
-0.021609992
  0
VERTEX
  5
18210
330
181EE
100
AcDbEntity
  8
0
100
AcDbVertex
100
AcDb2dVertex
 10
444.7711786819951
 20
257.79932941447
 30
0.0
 42
-0.022600419
 70
     1
  0
VERTEX
  5
18211
330
181EE
100
AcDbEntity
  8
0
100
AcDbVertex
100
AcDb2dVertex
 10
444.7762786819946
 20
257.8763494144701
 30
0.0
 42
-0.021348617
  0
VERTEX
  5
18212
330
181EE
100
AcDbEntity
  8
0
100
AcDbVertex
100
AcDb2dVertex
 10
444.7879386819947
 20
257.95350941447
 30
0.0
 42
-0.019201794
 70
     1
  0
VERTEX
  5
18213
330
181EE
100
AcDbEntity
  8
0
100
AcDbVertex
100
AcDb2dVertex
 10
444.8051586819953
 20
258.0308394144701
 30
0.0
 42
-0.015990891
  0
VERTEX
  5
18214
330
181EE
100
AcDbEntity
  8
0
100
AcDbVertex
100
AcDb2dVertex
 10
444.8273786819951
 20
258.1083494144702
 30
0.0
 42
-0.013321751
 70
     1
  0
VERTEX
  5
18215
330
181EE
100
AcDbEntity
  8
0
100
AcDbVertex
100
AcDb2dVertex
 10
444.8536886819954
 20
258.1860594144702
 30
0.0
 42
-0.010727121
  0
VERTEX
  5
18216
330
181EE
100
AcDbEntity
  8
0
100
AcDbVertex
100
AcDb2dVertex
 10
444.8835486819951
 20
258.2639994144701
 30
0.0
 42
-0.0084881329
 70
     1
  0
VERTEX
  5
18217
330
181EE
100
AcDbEntity
  8
0
100
AcDbVertex
100
AcDb2dVertex
 10
444.9161086819946
 20
258.3421794144701
 30
0.0
 42
-0.006140581
  0
VERTEX
  5
18218
330
181EE
100
AcDbEntity
  8
0
100
AcDbVertex
100
AcDb2dVertex
 10
444.9507286819947
 20
258.4206194144701
 30
0.0
 42
-0.0041651492
 70
     1
  0
VERTEX
  5
18219
330
181EE
100
AcDbEntity
  8
0
100
AcDbVertex
100
AcDb2dVertex
 10
444.9866386819945
 20
258.4993394144701
 30
0.0
 42
-0.0020659469
  0
VERTEX
  5
1821A
330
181EE
100
AcDbEntity
  8
0
100
AcDbVertex
100
AcDb2dVertex
 10
445.0231486819943
 20
258.5783694144701
 30
0.0
 42
-0.0002800824
 70
     1
  0
VERTEX
  5
1821B
330
181EE
100
AcDbEntity
  8
0
100
AcDbVertex
100
AcDb2dVertex
 10
445.0595386819948
 20
258.6577194144701
 30
0.0
 42
0.0016814656
  0
VERTEX
  5
1821C
330
181EE
100
AcDbEntity
  8
0
100
AcDbVertex
100
AcDb2dVertex
 10
445.0950686819949
 20
258.7374094144702
 30
0.0
 42
0.0035171951
 70
     1
  0
VERTEX
  5
1821D
330
181EE
100
AcDbEntity
  8
0
100
AcDbVertex
100
AcDb2dVertex
 10
445.1290186819949
 20
258.8174594144702
 30
0.0
 42
0.0057323196
  0
VERTEX
  5
1821E
330
181EE
100
AcDbEntity
  8
0
100
AcDbVertex
100
AcDb2dVertex
 10
445.1606486819953
 20
258.8978994144702
 30
0.0
 42
0.0069262216
 70
     1
  0
VERTEX
  5
1821F
330
181EE
100
AcDbEntity
  8
0
100
AcDbVertex
100
AcDb2dVertex
 10
445.1898286819949
 20
258.9786894144701
 30
0.0
 42
0.0073318676
  0
VERTEX
  5
18220
330
181EE
100
AcDbEntity
  8
0
100
AcDbVertex
100
AcDb2dVertex
 10
445.2163486819951
 20
259.0598194144702
 30
0.0
 42
0.0075025663
 70
     1
  0
VERTEX
  5
18221
330
181EE
100
AcDbEntity
  8
0
100
AcDbVertex
100
AcDb2dVertex
 10
445.2403386819947
 20
259.1412294144701
 30
0.0
 42
0.007435496
  0
VERTEX
  5
18222
330
181EE
100
AcDbEntity
  8
0
100
AcDbVertex
100
AcDb2dVertex
 10
445.2617286819948
 20
259.2228994144702
 30
0.0
 42
0.0074354788
 70
     1
  0
VERTEX
  5
18223
330
181EE
100
AcDbEntity
  8
0
100
AcDbVertex
100
AcDb2dVertex
 10
445.2806086819953
 20
259.3047794144701
 30
0.0
 42
0.007478923
  0
VERTEX
  5
18224
330
181EE
100
AcDbEntity
  8
0
100
AcDbVertex
100
AcDb2dVertex
 10
445.2968986819946
 20
259.3868294144701
 30
0.0
 42
0.0075110323
 70
     1
  0
VERTEX
  5
18225
330
181EE
100
AcDbEntity
  8
0
100
AcDbVertex
100
AcDb2dVertex
 10
445.3106986819951
 20
259.46900941447
 30
0.0
 42
0.0075170526
  0
VERTEX
  5
18226
330
181EE
100
AcDbEntity
  8
0
100
AcDbVertex
100
AcDb2dVertex
 10
445.3219086819951
 20
259.5512994144701
 30
0.0
 42
0.0075318746
 70
     1
  0
VERTEX
  5
18227
330
181EE
100
AcDbEntity
  8
0
100
AcDbVertex
100
AcDb2dVertex
 10
445.3306586819951
 20
259.63362941447
 30
0.0
 42
0.0075418071
  0
VERTEX
  5
18228
330
181EE
100
AcDbEntity
  8
0
100
AcDbVertex
100
AcDb2dVertex
 10
445.3368286819948
 20
259.7159794144701
 30
0.0
 42
0.0075484912
 70
     1
  0
VERTEX
  5
18229
330
181EE
100
AcDbEntity
  8
0
100
AcDbVertex
100
AcDb2dVertex
 10
445.3405486819954
 20
259.7983194144701
 30
0.0
 42
0.0075402756
  0
VERTEX
  5
1822A
330
181EE
100
AcDbEntity
  8
0
100
AcDbVertex
100
AcDb2dVertex
 10
445.3417086819952
 20
259.8805894144702
 30
0.0
 42
0.0075517068
 70
     1
  0
VERTEX
  5
1822B
330
181EE
100
AcDbEntity
  8
0
100
AcDbVertex
100
AcDb2dVertex
 10
445.3404286819948
 20
259.9627594144701
 30
0.0
 42
0.0075783828
  0
VERTEX
  5
1822C
330
181EE
100
AcDbEntity
  8
0
100
AcDbVertex
100
AcDb2dVertex
 10
445.3365886819954
 20
260.0447894144701
 30
0.0
 42
0.0075269263
 70
     1
  0
VERTEX
  5
1822D
330
181EE
100
AcDbEntity
  8
0
100
AcDbVertex
100
AcDb2dVertex
 10
445.3303586819954
 20
260.1266494144701
 30
0.0
 42
0.007377263
  0
VERTEX
  5
1822E
330
181EE
100
AcDbEntity
  8
0
100
AcDbVertex
100
AcDb2dVertex
 10
445.3216986819946
 20
260.2083294144701
 30
0.0
 42
0.0069785462
 70
     1
  0
VERTEX
  5
1822F
330
181EE
100
AcDbEntity
  8
0
100
AcDbVertex
100
AcDb2dVertex
 10
445.310898681995
 20
260.2898494144701
 30
0.0
 42
0.0062270157
  0
VERTEX
  5
18230
330
181EE
100
AcDbEntity
  8
0
100
AcDbVertex
100
AcDb2dVertex
 10
445.2981086819952
 20
260.3712394144702
 30
0.0
 42
0.0055835487
 70
     1
  0
VERTEX
  5
18231
330
181EE
100
AcDbEntity
  8
0
100
AcDbVertex
100
AcDb2dVertex
 10
445.2835986819953
 20
260.4525394144701
 30
0.0
 42
0.00489647
  0
VERTEX
  5
18232
330
181EE
100
AcDbEntity
  8
0
100
AcDbVertex
100
AcDb2dVertex
 10
445.2675286819943
 20
260.5337694144702
 30
0.0
 42
0.0042783276
 70
     1
  0
VERTEX
  5
18233
330
181EE
100
AcDbEntity
  8
0
100
AcDbVertex
100
AcDb2dVertex
 10
445.2501486819953
 20
260.6149494144701
 30
0.0
 42
0.0035816063
  0
VERTEX
  5
18234
330
181EE
100
AcDbEntity
  8
0
100
AcDbVertex
100
AcDb2dVertex
 10
445.2316386819955
 20
260.69612941447
 30
0.0
 42
0.0029670506
 70
     1
  0
VERTEX
  5
18235
330
181EE
100
AcDbEntity
  8
0
100
AcDbVertex
100
AcDb2dVertex
 10
445.2122286819947
 20
260.7773294144701
 30
0.0
 42
0.0022845717
  0
VERTEX
  5
18236
330
181EE
100
AcDbEntity
  8
0
100
AcDbVertex
100
AcDb2dVertex
 10
445.1921086819955
 20
260.8585694144701
 30
0.0
 42
0.0016878432
 70
     1
  0
VERTEX
  5
18237
330
181EE
100
AcDbEntity
  8
0
100
AcDbVertex
100
AcDb2dVertex
 10
445.1715086819944
 20
260.9398894144701
 30
0.0
 42
0.0010271781
  0
VERTEX
  5
18238
330
181EE
100
AcDbEntity
  8
0
100
AcDbVertex
100
AcDb2dVertex
 10
445.1506286819947
 20
261.0213194144701
 30
0.0
 42
0.0003907173
 70
     1
  0
VERTEX
  5
18239
330
181EE
100
AcDbEntity
  8
0
100
AcDbVertex
100
AcDb2dVertex
 10
445.1297286819952
 20
261.10283941447
 30
0.0
 42
-0.0003837537
  0
VERTEX
  5
1823A
330
181EE
100
AcDbEntity
  8
0
100
AcDbVertex
100
AcDb2dVertex
 10
445.1090586819953
 20
261.1844594144701
 30
0.0
 42
-0.0010798338
 70
     1
  0
VERTEX
  5
1823B
330
181EE
100
AcDbEntity
  8
0
100
AcDbVertex
100
AcDb2dVertex
 10
445.0888686819951
 20
261.2661394144701
 30
0.0
 42
-0.001879523
  0
VERTEX
  5
1823C
330
181EE
100
AcDbEntity
  8
0
100
AcDbVertex
100
AcDb2dVertex
 10
445.0694686819947
 20
261.3478894144701
 30
0.0
 42
-0.002594033
 70
     1
  0
VERTEX
  5
1823D
330
181EE
100
AcDbEntity
  8
0
100
AcDbVertex
100
AcDb2dVertex
 10
445.0510686819947
 20
261.4296794144702
 30
0.0
 42
-0.0034068788
  0
VERTEX
  5
1823E
330
181EE
100
AcDbEntity
  8
0
100
AcDbVertex
100
AcDb2dVertex
 10
445.0339886819953
 20
261.51149941447
 30
0.0
 42
-0.004142687
 70
     1
  0
VERTEX
  5
1823F
330
181EE
100
AcDbEntity
  8
0
100
AcDbVertex
100
AcDb2dVertex
 10
445.0184386819953
 20
261.5933394144701
 30
0.0
 42
-0.0049837139
  0
VERTEX
  5
18240
330
181EE
100
AcDbEntity
  8
0
100
AcDbVertex
100
AcDb2dVertex
 10
445.0047486819946
 20
261.6751694144702
 30
0.0
 42
-0.0057550241
 70
     1
  0
VERTEX
  5
18241
330
181EE
100
AcDbEntity
  8
0
100
AcDbVertex
100
AcDb2dVertex
 10
444.9931086819947
 20
261.75698941447
 30
0.0
 42
-0.0066388908
  0
VERTEX
  5
18242
330
181EE
100
AcDbEntity
  8
0
100
AcDbVertex
100
AcDb2dVertex
 10
444.9838686819943
 20
261.8387694144701
 30
0.0
 42
-0.0074245847
 70
     1
  0
VERTEX
  5
18243
330
181EE
100
AcDbEntity
  8
0
100
AcDbVertex
100
AcDb2dVertex
 10
444.977188681995
 20
261.9205194144701
 30
0.0
 42
-0.0082880016
  0
VERTEX
  5
18244
330
181EE
100
AcDbEntity
  8
0
100
AcDbVertex
100
AcDb2dVertex
 10
444.9734386819953
 20
262.0021894144701
 30
0.0
 42
-0.009137822
 70
     1
  0
VERTEX
  5
18245
330
181EE
100
AcDbEntity
  8
0
100
AcDbVertex
100
AcDb2dVertex
 10
444.972798681995
 20
262.0837894144701
 30
0.0
 42
-0.010165091
  0
VERTEX
  5
18246
330
181EE
100
AcDbEntity
  8
0
100
AcDbVertex
100
AcDb2dVertex
 10
444.9756186819946
 20
262.1652994144701
 30
0.0
 42
-0.010290767
 70
     1
  0
VERTEX
  5
18247
330
181EE
100
AcDbEntity
  8
0
100
AcDbVertex
100
AcDb2dVertex
 10
444.9816386819954
 20
262.24672941447
 30
0.0
 42
-0.0095323884
  0
VERTEX
  5
18248
330
181EE
100
AcDbEntity
  8
0
100
AcDbVertex
100
AcDb2dVertex
 10
444.9907186819952
 20
262.3280894144702
 30
0.0
 42
-0.0086658034
 70
     1
  0
VERTEX
  5
18249
330
181EE
100
AcDbEntity
  8
0
100
AcDbVertex
100
AcDb2dVertex
 10
445.0024286819948
 20
262.4093994144701
 30
0.0
 42
-0.0075023413
  0
VERTEX
  5
1824A
330
181EE
100
AcDbEntity
  8
0
100
AcDbVertex
100
AcDb2dVertex
 10
445.0165286819951
 20
262.4906794144701
 30
0.0
 42
-0.0065086309
 70
     1
  0
VERTEX
  5
1824B
330
181EE
100
AcDbEntity
  8
0
100
AcDbVertex
100
AcDb2dVertex
 10
445.0326086819948
 20
262.57194941447
 30
0.0
 42
-0.0054564071
  0
VERTEX
  5
1824C
330
181EE
100
AcDbEntity
  8
0
100
AcDbVertex
100
AcDb2dVertex
 10
445.0504186819951
 20
262.6532294144701
 30
0.0
 42
-0.0045213263
 70
     1
  0
VERTEX
  5
1824D
330
181EE
100
AcDbEntity
  8
0
100
AcDbVertex
100
AcDb2dVertex
 10
445.0695886819945
 20
262.7345294144701
 30
0.0
 42
-0.0034806274
  0
VERTEX
  5
1824E
330
181EE
100
AcDbEntity
  8
0
100
AcDbVertex
100
AcDb2dVertex
 10
445.0898286819954
 20
262.8158694144701
 30
0.0
 42
-0.0025709888
 70
     1
  0
VERTEX
  5
1824F
330
181EE
100
AcDbEntity
  8
0
100
AcDbVertex
100
AcDb2dVertex
 10
445.1107986819947
 20
262.8972794144701
 30
0.0
 42
-0.001564877
  0
VERTEX
  5
18250
330
181EE
100
AcDbEntity
  8
0
100
AcDbVertex
100
AcDb2dVertex
 10
445.1321886819949
 20
262.9787694144702
 30
0.0
 42
-0.0006839712
 70
     1
  0
VERTEX
  5
18251
330
181EE
100
AcDbEntity
  8
0
100
AcDbVertex
100
AcDb2dVertex
 10
445.1536686819951
 20
263.0603494144702
 30
0.0
 42
0.0002989624
  0
VERTEX
  5
18252
330
181EE
100
AcDbEntity
  8
0
100
AcDbVertex
100
AcDb2dVertex
 10
445.1749386819954
 20
263.1420494144701
 30
0.0
 42
0.0009774749
 70
     1
  0
VERTEX
  5
18253
330
181EE
100
AcDbEntity
  8
0
100
AcDbVertex
100
AcDb2dVertex
 10
445.1957986819946
 20
263.2238494144701
 30
0.0
 42
0.0015289011
  0
VERTEX
  5
18254
330
181EE
100
AcDbEntity
  8
0
100
AcDbVertex
100
AcDb2dVertex
 10
445.2160486819946
 20
263.30572941447
 30
0.0
 42
0.0020196766
 70
     1
  0
VERTEX
  5
18255
330
181EE
100
AcDbEntity
  8
0
100
AcDbVertex
100
AcDb2dVertex
 10
445.2355286819954
 20
263.3876694144701
 30
0.0
 42
0.0025761208
  0
VERTEX
  5
18256
330
181EE
100
AcDbEntity
  8
0
100
AcDbVertex
100
AcDb2dVertex
 10
445.2540186819947
 20
263.4696594144702
 30
0.0
 42
0.0030790577
 70
     1
  0
VERTEX
  5
18257
330
181EE
100
AcDbEntity
  8
0
100
AcDbVertex
100
AcDb2dVertex
 10
445.2713786819948
 20
263.55166941447
 30
0.0
 42
0.003654369
  0
VERTEX
  5
18258
330
181EE
100
AcDbEntity
  8
0
100
AcDbVertex
100
AcDb2dVertex
 10
445.2873686819946
 20
263.6336994144701
 30
0.0
 42
0.0041767287
 70
     1
  0
VERTEX
  5
18259
330
181EE
100
AcDbEntity
  8
0
100
AcDbVertex
100
AcDb2dVertex
 10
445.301858681995
 20
263.7157094144702
 30
0.0
 42
0.0047718683
  0
VERTEX
  5
1825A
330
181EE
100
AcDbEntity
  8
0
100
AcDbVertex
100
AcDb2dVertex
 10
445.3145986819952
 20
263.79769941447
 30
0.0
 42
0.0053181916
 70
     1
  0
VERTEX
  5
1825B
330
181EE
100
AcDbEntity
  8
0
100
AcDbVertex
100
AcDb2dVertex
 10
445.3254786819949
 20
263.8796494144701
 30
0.0
 42
0.005941958
  0
VERTEX
  5
1825C
330
181EE
100
AcDbEntity
  8
0
100
AcDbVertex
100
AcDb2dVertex
 10
445.334228681995
 20
263.96152941447
 30
0.0
 42
0.0064991193
 70
     1
  0
VERTEX
  5
1825D
330
181EE
100
AcDbEntity
  8
0
100
AcDbVertex
100
AcDb2dVertex
 10
445.3407686819953
 20
264.0433294144702
 30
0.0
 42
0.0071128923
  0
VERTEX
  5
1825E
330
181EE
100
AcDbEntity
  8
0
100
AcDbVertex
100
AcDb2dVertex
 10
445.3447986819953
 20
264.1250294144701
 30
0.0
 42
0.0077125647
 70
     1
  0
VERTEX
  5
1825F
330
181EE
100
AcDbEntity
  8
0
100
AcDbVertex
100
AcDb2dVertex
 10
445.3462286819947
 20
264.2066094144702
 30
0.0
 42
0.0084322622
  0
VERTEX
  5
18260
330
181EE
100
AcDbEntity
  8
0
100
AcDbVertex
100
AcDb2dVertex
 10
445.3447486819946
 20
264.2880594144701
 30
0.0
 42
0.008831537
 70
     1
  0
VERTEX
  5
18261
330
181EE
100
AcDbEntity
  8
0
100
AcDbVertex
100
AcDb2dVertex
 10
445.340418681995
 20
264.3693694144701
 30
0.0
 42
0.0089902857
  0
VERTEX
  5
18262
330
181EE
100
AcDbEntity
  8
0
100
AcDbVertex
100
AcDb2dVertex
 10
445.3330986819953
 20
264.4505294144701
 30
0.0
 42
0.0088785151
 70
     1
  0
VERTEX
  5
18263
330
181EE
100
AcDbEntity
  8
0
100
AcDbVertex
100
AcDb2dVertex
 10
445.3229786819953
 20
264.5315794144701
 30
0.0
 42
0.0084738503
  0
VERTEX
  5
18264
330
181EE
100
AcDbEntity
  8
0
100
AcDbVertex
100
AcDb2dVertex
 10
445.3100586819953
 20
264.6125294144701
 30
0.0
 42
0.0081353746
 70
     1
  0
VERTEX
  5
18265
330
181EE
100
AcDbEntity
  8
0
100
AcDbVertex
100
AcDb2dVertex
 10
445.2945386819954
 20
264.6933794144701
 30
0.0
 42
0.007800338
  0
VERTEX
  5
18266
330
181EE
100
AcDbEntity
  8
0
100
AcDbVertex
100
AcDb2dVertex
 10
445.2763886819946
 20
264.7741694144701
 30
0.0
 42
0.0074732657
 70
     1
  0
VERTEX
  5
18267
330
181EE
100
AcDbEntity
  8
0
100
AcDbVertex
100
AcDb2dVertex
 10
445.2557986819953
 20
264.85489941447
 30
0.0
 42
0.0071033104
  0
VERTEX
  5
18268
330
181EE
100
AcDbEntity
  8
0
100
AcDbVertex
100
AcDb2dVertex
 10
445.232768681995
 20
264.93559941447
 30
0.0
 42
0.0067486539
 70
     1
  0
VERTEX
  5
18269
330
181EE
100
AcDbEntity
  8
0
100
AcDbVertex
100
AcDb2dVertex
 10
445.2074586819951
 20
265.0162694144701
 30
0.0
 42
0.0063559284
  0
VERTEX
  5
1826A
330
181EE
100
AcDbEntity
  8
0
100
AcDbVertex
100
AcDb2dVertex
 10
445.1798986819945
 20
265.0969294144701
 30
0.0
 42
0.006040886
 70
     1
  0
VERTEX
  5
1826B
330
181EE
100
AcDbEntity
  8
0
100
AcDbVertex
100
AcDb2dVertex
 10
445.1502086819953
 20
265.1776094144702
 30
0.0
 42
0.005755138
  0
VERTEX
  5
1826C
330
181EE
100
AcDbEntity
  8
0
100
AcDbVertex
100
AcDb2dVertex
 10
445.1184686819948
 20
265.2583194144701
 30
0.0
 42
0.0048587239
 70
     1
  0
VERTEX
  5
1826D
330
181EE
100
AcDbEntity
  8
0
100
AcDbVertex
100
AcDb2dVertex
 10
445.0852286819951
 20
265.3390194144701
 30
0.0
 42
0.003205421
  0
VERTEX
  5
1826E
330
181EE
100
AcDbEntity
  8
0
100
AcDbVertex
100
AcDb2dVertex
 10
445.0510486819942
 20
265.4197094144701
 30
0.0
 42
0.0016938639
 70
     1
  0
VERTEX
  5
1826F
330
181EE
100
AcDbEntity
  8
0
100
AcDbVertex
100
AcDb2dVertex
 10
445.0165886819948
 20
265.5003294144701
 30
0.0
 42
-0.000079671
  0
VERTEX
  5
18270
330
181EE
100
AcDbEntity
  8
0
100
AcDbVertex
100
AcDb2dVertex
 10
444.9825086819951
 20
265.58085941447
 30
0.0
 42
-0.0016367436
 70
     1
  0
VERTEX
  5
18271
330
181EE
100
AcDbEntity
  8
0
100
AcDbVertex
100
AcDb2dVertex
 10
444.9494086819948
 20
265.66126941447
 30
0.0
 42
-0.0034048936
  0
VERTEX
  5
18272
330
181EE
100
AcDbEntity
  8
0
100
AcDbVertex
100
AcDb2dVertex
 10
444.9179886819954
 20
265.74151941447
 30
0.0
 42
-0.0050468104
 70
     1
  0
VERTEX
  5
18273
330
181EE
100
AcDbEntity
  8
0
100
AcDbVertex
100
AcDb2dVertex
 10
444.8888086819946
 20
265.82158941447
 30
0.0
 42
-0.0069856079
  0
VERTEX
  5
18274
330
181EE
100
AcDbEntity
  8
0
100
AcDbVertex
100
AcDb2dVertex
 10
444.8626186819954
 20
265.9014294144701
 30
0.0
 42
-0.008859413
 70
     1
  0
VERTEX
  5
18275
330
181EE
100
AcDbEntity
  8
0
100
AcDbVertex
100
AcDb2dVertex
 10
444.8399186819948
 20
265.9810094144702
 30
0.0
 42
-0.011091192
  0
VERTEX
  5
18276
330
181EE
100
AcDbEntity
  8
0
100
AcDbVertex
100
AcDb2dVertex
 10
444.8215286819947
 20
266.0602994144701
 30
0.0
 42
-0.013201559
 70
     1
  0
VERTEX
  5
18277
330
181EE
100
AcDbEntity
  8
0
100
AcDbVertex
100
AcDb2dVertex
 10
444.8078586819954
 20
266.1392794144701
 30
0.0
 42
-0.01556479
  0
VERTEX
  5
18278
330
181EE
100
AcDbEntity
  8
0
100
AcDbVertex
100
AcDb2dVertex
 10
444.7997586819954
 20
266.2178994144701
 30
0.0
 42
-0.018028265
 70
     1
  0
VERTEX
  5
18279
330
181EE
100
AcDbEntity
  8
0
100
AcDbVertex
100
AcDb2dVertex
 10
444.7977486819952
 20
266.2961394144701
 30
0.0
 42
-0.020989802
  0
VERTEX
  5
1827A
330
181EE
100
AcDbEntity
  8
0
100
AcDbVertex
100
AcDb2dVertex
 10
444.8027386819947
 20
266.3739394144702
 30
0.0
 42
-0.022331663
 70
     1
  0
VERTEX
  5
1827B
330
181EE
100
AcDbEntity
  8
0
100
AcDbVertex
100
AcDb2dVertex
 10
444.8145786819948
 20
266.4513294144701
 30
0.0
 42
-0.022176297
  0
VERTEX
  5
1827C
330
181EE
100
AcDbEntity
  8
0
100
AcDbVertex
100
AcDb2dVertex
 10
444.8333686819948
 20
266.5283194144701
 30
0.0
 42
-0.019862935
 70
     1
  0
VERTEX
  5
1827D
330
181EE
100
AcDbEntity
  8
0
100
AcDbVertex
100
AcDb2dVertex
 10
444.8578386819952
 20
266.6050294144702
 30
0.0
 42
-0.015325653
  0
VERTEX
  5
1827E
330
181EE
100
AcDbEntity
  8
0
100
AcDbVertex
100
AcDb2dVertex
 10
444.8869786819948
 20
266.6815694144702
 30
0.0
 42
-0.011735805
 70
     1
  0
VERTEX
  5
1827F
330
181EE
100
AcDbEntity
  8
0
100
AcDbVertex
100
AcDb2dVertex
 10
444.9196086819953
 20
266.7580294144702
 30
0.0
 42
-0.0083301663
  0
VERTEX
  5
18280
330
181EE
100
AcDbEntity
  8
0
100
AcDbVertex
100
AcDb2dVertex
 10
444.954828681995
 20
266.8345194144701
 30
0.0
 42
-0.0053839369
 70
     1
  0
VERTEX
  5
18281
330
181EE
100
AcDbEntity
  8
0
100
AcDbVertex
100
AcDb2dVertex
 10
444.9914886819946
 20
266.9111294144702
 30
0.0
 42
-0.0021587792
  0
VERTEX
  5
18282
330
181EE
100
AcDbEntity
  8
0
100
AcDbVertex
100
AcDb2dVertex
 10
445.028558681995
 20
266.9879794144701
 30
0.0
 42
0.0005581771
 70
     1
  0
VERTEX
  5
18283
330
181EE
100
AcDbEntity
  8
0
100
AcDbVertex
100
AcDb2dVertex
 10
445.0650286819953
 20
267.0651594144701
 30
0.0
 42
0.0035333558
  0
VERTEX
  5
18284
330
181EE
100
AcDbEntity
  8
0
100
AcDbVertex
100
AcDb2dVertex
 10
445.0997986819951
 20
267.1427694144701
 30
0.0
 42
0.0064229239
 70
     1
  0
VERTEX
  5
18285
330
181EE
100
AcDbEntity
  8
0
100
AcDbVertex
100
AcDb2dVertex
 10
445.1318186819952
 20
267.22090941447
 30
0.0
 42
0.010025176
  0
VERTEX
  5
18286
330
181EE
100
AcDbEntity
  8
0
100
AcDbVertex
100
AcDb2dVertex
 10
445.1598786819947
 20
267.2997194144702
 30
0.0
 42
0.012476009
 70
     1
  0
VERTEX
  5
18287
330
181EE
100
AcDbEntity
  8
0
100
AcDbVertex
100
AcDb2dVertex
 10
445.1835586819948
 20
267.3791994144701
 30
0.0
 42
0.01422834
  0
VERTEX
  5
18288
330
181EE
100
AcDbEntity
  8
0
100
AcDbVertex
100
AcDb2dVertex
 10
445.2023186819949
 20
267.4594194144701
 30
0.0
 42
0.014390185
 70
     1
  0
VERTEX
  5
18289
330
181EE
100
AcDbEntity
  8
0
100
AcDbVertex
100
AcDb2dVertex
 10
445.2167086819951
 20
267.5402894144701
 30
0.0
 42
0.012836178
  0
VERTEX
  5
1828A
330
181EE
100
AcDbEntity
  8
0
100
AcDbVertex
100
AcDb2dVertex
 10
445.2270286819945
 20
267.6217494144702
 30
0.0
 42
0.011638498
 70
     1
  0
VERTEX
  5
1828B
330
181EE
100
AcDbEntity
  8
0
100
AcDbVertex
100
AcDb2dVertex
 10
445.2337986819953
 20
267.7037294144702
 30
0.0
 42
0.010529043
  0
VERTEX
  5
1828C
330
181EE
100
AcDbEntity
  8
0
100
AcDbVertex
100
AcDb2dVertex
 10
445.2372086819948
 20
267.78619941447
 30
0.0
 42
0.0094555957
 70
     1
  0
VERTEX
  5
1828D
330
181EE
100
AcDbEntity
  8
0
100
AcDbVertex
100
AcDb2dVertex
 10
445.2377486819948
 20
267.8690694144702
 30
0.0
 42
0.0081863878
  0
VERTEX
  5
1828E
330
181EE
100
AcDbEntity
  8
0
100
AcDbVertex
100
AcDb2dVertex
 10
445.2356986819948
 20
267.9522994144701
 30
0.0
 42
0.007079651
 70
     1
  0
VERTEX
  5
1828F
330
181EE
100
AcDbEntity
  8
0
100
AcDbVertex
100
AcDb2dVertex
 10
445.2314986819954
 20
268.03581941447
 30
0.0
 42
0.0058829937
  0
VERTEX
  5
18290
330
181EE
100
AcDbEntity
  8
0
100
AcDbVertex
100
AcDb2dVertex
 10
445.2254386819947
 20
268.1195694144701
 30
0.0
 42
0.0048332321
 70
     1
  0
VERTEX
  5
18291
330
181EE
100
AcDbEntity
  8
0
100
AcDbVertex
100
AcDb2dVertex
 10
445.2179486819948
 20
268.2034994144701
 30
0.0
 42
0.0036772851
  0
VERTEX
  5
18292
330
181EE
100
AcDbEntity
  8
0
100
AcDbVertex
100
AcDb2dVertex
 10
445.2093486819943
 20
268.28754941447
 30
0.0
 42
0.0026664279
 70
     1
  0
VERTEX
  5
18293
330
181EE
100
AcDbEntity
  8
0
100
AcDbVertex
100
AcDb2dVertex
 10
445.2000386819952
 20
268.3716594144702
 30
0.0
 42
0.0015422592
  0
VERTEX
  5
18294
330
181EE
100
AcDbEntity
  8
0
100
AcDbVertex
100
AcDb2dVertex
 10
445.1903586819951
 20
268.45576941447
 30
0.0
 42
0.0005631988
 70
     1
  0
VERTEX
  5
18295
330
181EE
100
AcDbEntity
  8
0
100
AcDbVertex
100
AcDb2dVertex
 10
445.1806886819944
 20
268.53979941447
 30
0.0
 42
-0.0005271287
  0
VERTEX
  5
18296
330
181EE
100
AcDbEntity
  8
0
100
AcDbVertex
100
AcDb2dVertex
 10
445.1713886819947
 20
268.6236694144702
 30
0.0
 42
-0.0015426143
 70
     1
  0
VERTEX
  5
18297
330
181EE
100
AcDbEntity
  8
0
100
AcDbVertex
100
AcDb2dVertex
 10
445.1628086819951
 20
268.70745941447
 30
0.0
 42
-0.0027392027
  0
VERTEX
  5
18298
330
181EE
100
AcDbEntity
  8
0
100
AcDbVertex
100
AcDb2dVertex
 10
445.1553286819951
 20
268.79113941447
 30
0.0
 42
-0.0033246871
 70
     1
  0
VERTEX
  5
18299
330
181EE
100
AcDbEntity
  8
0
100
AcDbVertex
100
AcDb2dVertex
 10
445.1490086819947
 20
268.8742894144702
 30
0.0
 42
-0.0034935814
  0
VERTEX
  5
1829A
330
181EE
100
AcDbEntity
  8
0
100
AcDbVertex
100
AcDb2dVertex
 10
445.1440786819945
 20
268.9567394144701
 30
0.0
 42
-0.0046435163
 70
     1
  0
VERTEX
  5
1829B
330
181EE
100
AcDbEntity
  8
0
100
AcDbVertex
100
AcDb2dVertex
 10
445.1409586819948
 20
269.0403194144701
 30
0.0
 42
-0.0066679562
  0
VERTEX
  5
1829C
330
181EE
100
AcDbEntity
  8
0
100
AcDbVertex
100
AcDb2dVertex
 10
445.1400186819951
 20
269.1256394144702
 30
0.0
 42
-0.0052339181
 70
     1
  0
VERTEX
  5
1829D
330
181EE
100
AcDbEntity
  8
0
100
AcDbVertex
100
AcDb2dVertex
 10
445.1401586819954
 20
269.2056394144701
 30
0.0
 42
-0.0013029483
  0
VERTEX
  5
1829E
330
181EE
100
AcDbEntity
  8
0
100
AcDbVertex
100
AcDb2dVertex
 10
445.1412286819944
 20
269.2778894144701
 30
0.0
 42
-0.0090869789
 70
     1
  0
VERTEX
  5
1829F
330
181EE
100
AcDbEntity
  8
0
100
AcDbVertex
100
AcDb2dVertex
 10
445.1481186819953
 20
269.3703594144701
 30
0.0
 42
-0.016988581
  0
VERTEX
  5
182A0
330
181EE
100
AcDbEntity
  8
0
100
AcDbVertex
100
AcDb2dVertex
 10
445.1660886819952
 20
269.51239941447
 30
0.0
 42
-0.008347836
 70
     1
  0
VERTEX
  5
182A1
330
181EE
100
AcDbEntity
  8
0
100
AcDbVertex
100
AcDb2dVertex
 10
445.1940186819951
 20
269.6981794144701
 30
0.0
 42
-0.0043367189
  0
SEQEND
  5
182A2
330
181EE
100
AcDbEntity
  8
0
  0
LINE
  5
182A3
330
1F
100
AcDbEntity
  8
0
100
AcDbLine
 10
451.6019286819951
 20
262.4481794144701
 30
0.0
 11
451.6019286819951
 21
262.4481794144701
 31
0.0
  0
LINE
  5
182A4
330
1F
100
AcDbEntity
  8
0
100
AcDbLine
 10
451.6019286819951
 20
262.4481794144701
 30
0.0
 11
451.6019286819951
 21
262.4481794144701
 31
0.0
  0
LINE
  5
182A5
330
1F
100
AcDbEntity
  8
CEN
100
AcDbLine
 10
421.2252669936392
 20
262.4481794144701
 30
0.0
 11
480.9638786819948
 21
262.4481794144701
 31
0.0
  0
LINE
  5
182A6
330
1F
100
AcDbEntity
  8
CEN
100
AcDbLine
 10
451.6019286819951
 20
260.1459264753652
 30
0.0
 11
451.6019286819951
 21
264.9481794144701
 31
0.0
  0
DIMENSION
  5
182A7
330
1F
100
AcDbEntity
  8
DIM
100
AcDbDimension
  2
*D17
 10
487.3647066412504
 20
257.44817941447
 30
0.0
 11
487.3647066412504
 21
262.5213636604332
 31
0.0
 70
   160
  1
%%C<>
 71
     5
 42
10.0
 73
     0
 74
     0
 75
     0
  3
01
100
AcDbAlignedDimension
 13
477.3698786819948
 23
267.4481794144701
 33
0.0
 14
477.3698786819948
 24
257.4481794144701
 34
0.0
 50
90.0
100
AcDbRotatedDimension
  0
DIMENSION
  5
182A8
330
1F
100
AcDbEntity
  8
DIM
100
AcDbDimension
  2
*D18
 10
493.4127848019531
 20
251.9481794144701
 30
0.0
 11
493.4127848019531
 21
262.1438610328894
 31
0.0
 70
   160
  1
%%C<>
 71
     5
 42
20.99999999999994
 73
     0
 74
     0
 75
     0
  3
01
100
AcDbAlignedDimension
 13
479.1019286819953
 23
272.9481794144701
 33
0.0
 14
478.1019286819953
 24
251.9481794144701
 34
0.0
 50
90.0
100
AcDbRotatedDimension
  0
DIMENSION
  5
182A9
330
1F
100
AcDbEntity
  8
DIM
100
AcDbDimension
  2
*D19
 10
422.1019286819951
 20
239.7532661876736
 30
0.0
 11
451.3057308959888
 21
239.7532661876736
 31
0.0
 70
   160
 71
     5
 42
57.0
 73
     0
 74
     0
 75
     0
  3
01
100
AcDbAlignedDimension
 13
479.1019286819953
 23
251.9481794144701
 33
0.0
 14
422.1019286819951
 24
257.1981794144701
 34
0.0
 50
180.0
100
AcDbRotatedDimension
  0
DIMENSION
  5
182AA
330
1F
100
AcDbEntity
  8
DIM
100
AcDbDimension
  2
*D20
 10
450.6019286819952
 20
246.3218694144702
 30
0.0
 11
464.8519286819952
 21
246.3218694144702
 31
0.0
 70
   160
 71
     5
 42
28.50000000000006
 73
     0
 74
     0
 75
     0
  3
01
100
AcDbAlignedDimension
 13
479.1019286819953
 23
251.9481794144701
 33
0.0
 14
450.6019286819952
 24
257.4481794144701
 34
0.0
 50
180.0
100
AcDbRotatedDimension
  0
DIMENSION
  5
182AB
330
1F
100
AcDbEntity
  8
DIM
100
AcDbDimension
  2
*D21
 10
410.1523523612311
 20
251.4481794144701
 30
0.0
 11
410.1523523612311
 21
262.4481794144701
 31
0.0
 70
   160
  1
%%C<>
 71
     5
 42
22.0
 73
     0
 74
     0
 75
     0
  3
01
100
AcDbAlignedDimension
 13
450.1019286819953
 23
273.4481794144701
 33
0.0
 14
450.1019286819953
 24
251.4481794144701
 34
0.0
 50
90.0
100
AcDbRotatedDimension
  0
DIMENSION
  5
182AC
330
1F
100
AcDbEntity
  8
DIM
100
AcDbDimension
  2
*D22
 10
416.4250243185368
 20
255.1981794144701
 30
0.0
 11
416.4250243185366
 21
262.4481794144701
 31
0.0
 70
   160
  1
%%C<>
 71
     5
 42
14.50000000000003
 73
     0
 74
     0
 75
     0
  3
01
100
AcDbAlignedDimension
 13
428.1019486819947
 23
269.6981794144701
 33
0.0
 14
428.1019486819947
 24
255.1981794144701
 34
0.0
 50
90.0
100
AcDbRotatedDimension
  0
DIMENSION
  5
182AD
102
{ACAD_XDICTIONARY
360
182AE
102
}
102
{ACAD_REACTORS
330
182AF
102
}
330
1F
100
AcDbEntity
  8
DIM
100
AcDbDimension
  2
*D23
 10
464.4927966222811
 20
255.1981794144701
 30
0.0
 11
464.492796622281
 21
278.3856794144702
 31
0.0
 70
   160
  1
%%C<>
 71
     5
 42
14.5
 73
     0
 74
     0
 75
     0
  3
01
100
AcDbAlignedDimension
 13
465.4274224426151
 23
269.6981794144701
 33
0.0
 14
464.2052197537439
 24
255.1981794144701
 34
0.0
 50
90.0
100
AcDbRotatedDimension
  0
ARC
  5
186C1
330
1F
100
AcDbEntity
  8
02___PRT_ALL_AXES
  6
Continuous
 62
     7
100
AcDbCircle
 10
424.1019286819953
 20
267.6981794144701
 30
0.0
 40
2.0
100
AcDbArc
 50
90.0
 51
180.0
  0
LINE
  5
186C2
330
1F
100
AcDbEntity
  8
0
  6
Continuous
 62
     7
100
AcDbLine
 10
422.1019286819951
 20
267.6981794144701
 30
0.0
 11
422.1019286819951
 21
263.9481794144701
 31
0.0
  0
LINE
  5
186C3
330
1F
100
AcDbEntity
  8
0
  6
Continuous
 62
     7
100
AcDbLine
 10
422.1019286819951
 20
260.9481794144701
 30
0.0
 11
422.1019286819951
 21
257.1981794144701
 31
0.0
  0
ARC
  5
186C4
330
1F
100
AcDbEntity
  8
02___PRT_ALL_AXES
  6
Continuous
 62
     7
100
AcDbCircle
 10
424.1019286819953
 20
257.1981794144701
 30
0.0
 40
2.0
100
AcDbArc
 50
180.0
 51
270.0
  0
LINE
  5
186C5
330
1F
100
AcDbEntity
  8
02___PRT_ALL_AXES
  6
Continuous
 62
     7
100
AcDbLine
 10
424.1019286819953
 20
255.1981794144701
 30
0.0
 11
424.1019286819953
 21
260.9481794144701
 31
0.0
  0
LINE
  5
186C6
330
1F
100
AcDbEntity
  8
02___PRT_ALL_AXES
  6
Continuous
 62
     7
100
AcDbLine
 10
424.1019286819953
 20
263.9481794144701
 30
0.0
 11
424.1019286819953
 21
269.6981794144701
 31
0.0
  0
LINE
  5
188CD
330
1F
100
AcDbEntity
  8
0
  6
Continuous
 62
     7
100
AcDbLine
 10
350.8796644642646
 20
215.8833934631037
 30
0.0
 11
350.958937552354
 21
215.8703234941456
 31
0.0
  0
LINE
  5
188CE
330
1F
100
AcDbEntity
  8
0
  6
Continuous
 62
     7
100
AcDbLine
 10
353.8127602399529
 20
216.6572976548612
 30
0.0
 11
353.7401617096624
 21
216.6722255814418
 31
0.0
  0
LINE
  5
188CF
330
1F
100
AcDbEntity
  8
02___PRT_ALL_AXES
  6
Continuous
 62
     7
100
AcDbLine
 10
356.3601891972396
 20
160.2948195279566
 30
0.0
 11
356.1583929186966
 21
160.5173840017356
 31
0.0
  0
LINE
  5
188D0
330
1F
100
AcDbEntity
  8
02___PRT_ALL_AXES
  6
Continuous
 62
     7
100
AcDbLine
 10
356.1219166524463
 20
161.2537882675203
 30
0.0
 11
355.9201359081746
 21
161.4762744308516
 31
0.0
  0
LINE
  5
188D1
330
1F
100
AcDbEntity
  8
02___PRT_ALL_AXES
  6
Continuous
 62
     7
100
AcDbLine
 10
358.4391721269187
 20
165.222992011825
 30
0.0
 11
358.2998473273185
 21
165.3766134103641
 31
0.0
  0
LINE
  5
188D2
330
1F
100
AcDbEntity
  8
0
  6
Continuous
 62
     7
100
AcDbLine
 10
349.5559033665052
 20
189.6681008516987
 30
0.0
 11
348.8297270217846
 21
188.4941130695895
 31
0.0
  0
LINE
  5
188D3
330
1F
100
AcDbEntity
  8
02___PRT_ALL_AXES
  6
Continuous
 62
     7
100
AcDbLine
 10
376.1160402565476
 20
166.7527588446398
 30
0.0
 11
372.3509639155711
 21
168.9576347278923
 31
0.0
  0
LINE
  5
188D4
330
1F
100
AcDbEntity
  8
02___PRT_ALL_AXES
  6
Continuous
 62
     7
100
AcDbLine
 10
349.7163491125578
 20
184.3709563997233
 30
0.0
 11
348.7632589335119
 21
188.2068313580182
 31
0.0
  0
LINE
  5
188D5
330
1F
100
AcDbEntity
  8
02___PRT_ALL_AXES
  6
Continuous
 62
     7
100
AcDbLine
 10
356.1584084529698
 20
160.5173056912879
 30
0.0
 11
355.9201359081746
 21
161.4762744308516
 31
0.0
  0
LINE
  5
188D6
330
1F
100
AcDbEntity
  8
0
  6
Continuous
 62
     7
100
AcDbLine
 10
346.8481188635217
 20
212.1056031021851
 30
0.0
 11
346.8678275819004
 21
211.8480840179707
 31
0.0
  0
LINE
  5
188D7
330
1F
100
AcDbEntity
  8
02___PRT_ALL_AXES
  6
Continuous
 62
     7
100
AcDbLine
 10
358.2998473273185
 20
165.3766134103641
 30
0.0
 11
353.6609340120924
 21
184.046715999684
 31
0.0
  0
LINE
  5
188D8
330
1F
100
AcDbEntity
  8
02___PRT_ALL_AXES
  6
Continuous
 62
     7
100
AcDbLine
 10
352.0451930274323
 20
190.5495428241863
 30
0.0
 11
347.0800936248418
 21
210.5324372900666
 31
0.0
  0
LINE
  5
188D9
330
1F
100
AcDbEntity
  8
0
  6
Continuous
 62
     7
100
AcDbLine
 10
364.0300175435261
 20
191.6157767524506
 30
0.0
 11
358.0893118862953
 21
189.9775593997199
 31
0.0
  0
LINE
  5
188DA
330
1F
100
AcDbEntity
  8
0
  6
Continuous
 62
     7
100
AcDbLine
 10
356.9759566553951
 20
184.5471634351231
 30
0.0
 11
356.0228664763456
 21
188.383038393418
 31
0.0
  0
LINE
  5
188DB
330
1F
100
AcDbEntity
  8
02___PRT_ALL_AXES
  6
Continuous
 62
     7
100
AcDbLine
 10
376.3004562099834
 20
166.5401212289159
 30
0.0
 11
376.1160402565476
 21
166.7527588446398
 31
0.0
  0
LINE
  5
188DC
330
1F
100
AcDbEntity
  8
0
  6
Continuous
 62
     7
100
AcDbLine
 10
357.9703352579092
 20
195.456857719442
 30
0.0
 11
354.0774623067375
 21
211.1243928572028
 31
0.0
  0
LINE
  5
188DD
330
1F
100
AcDbEntity
  8
0
  6
Continuous
 62
     7
100
AcDbLine
 10
354.1548508655399
 20
213.4369473691693
 30
0.0
 11
358.0477238167989
 21
197.7694122313585
 31
0.0
  0
LINE
  5
188DE
330
1F
100
AcDbEntity
  8
0
  6
Continuous
 62
     7
100
AcDbLine
 10
367.5260982219772
 20
187.456485321292
 30
0.0
 11
356.9759566553951
 21
184.5471634351231
 31
0.0
  0
LINE
  5
188DF
330
1F
100
AcDbEntity
  8
0
  6
Continuous
 62
     7
100
AcDbLine
 10
360.8241579455464
 20
196.2438318800193
 30
0.0
 11
356.9312849943383
 21
211.9113670179174
 31
0.0
  0
LINE
  5
188E0
330
1F
100
AcDbEntity
  8
02___PRT_ALL_AXES
  6
Continuous
 62
     7
100
AcDbLine
 10
355.9201359081746
 20
161.4762744308516
 30
0.0
 11
355.9835827197205
 21
161.7504978828308
 31
0.0
  0
LINE
  5
188E1
330
1F
100
AcDbEntity
  8
0
  6
Continuous
 62
     7
100
AcDbLine
 10
367.5260982219772
 20
187.456485321292
 30
0.0
 11
366.5730080429786
 21
191.2923602796743
 31
0.0
  0
LINE
  5
188E2
330
1F
100
AcDbEntity
  8
02___PRT_ALL_AXES
  6
Continuous
 62
     7
100
AcDbLine
 10
372.3719732500506
 20
168.8730790566403
 30
0.0
 11
367.7332953377011
 21
187.5422342267091
 31
0.0
  0
LINE
  5
188E3
330
1F
100
AcDbEntity
  8
02___PRT_ALL_AXES
  6
Continuous
 62
     7
100
AcDbLine
 10
366.1173189501135
 20
194.0460084703751
 30
0.0
 11
361.1522195474356
 21
214.0289029363055
 31
0.0
  0
LINE
  5
188E4
330
1F
100
AcDbEntity
  8
0
  6
Continuous
 62
     7
100
AcDbLine
 10
361.1522195474356
 20
214.0289029363055
 30
0.0
 11
361.1522432384846
 21
214.0288074706029
 31
0.0
  0
LINE
  5
188E5
330
1F
100
AcDbEntity
  8
0
  6
Continuous
 62
     7
100
AcDbLine
 10
360.8241579455464
 20
196.2438318800193
 30
0.0
 11
358.0477238167989
 21
197.7694122313585
 31
0.0
  0
LINE
  5
188E6
330
1F
100
AcDbEntity
  8
02___PRT_ALL_AXES
  6
Continuous
 62
     7
100
AcDbLine
 10
355.9835827197205
 20
161.7504978828308
 30
0.0
 11
358.27883799289
 21
165.4611690817034
 31
0.0
  0
LINE
  5
188E7
330
1F
100
AcDbEntity
  8
0
  6
Continuous
 62
     7
100
AcDbLine
 10
368.7296724492518
 20
194.4321589106145
 30
0.0
 11
369.9208730128269
 21
193.734576934328
 31
0.0
  0
LINE
  5
188E8
330
1F
100
AcDbEntity
  8
0
  6
Continuous
 62
     7
100
AcDbLine
 10
360.6209128086268
 20
215.5276944866835
 30
0.0
 11
360.7240253024395
 21
215.2908985282627
 31
0.0
  0
LINE
  5
188E9
330
1F
100
AcDbEntity
  8
02___PRT_ALL_AXES
  6
Continuous
 62
     7
100
AcDbLine
 10
376.5387287547785
 20
165.5811524893513
 30
0.0
 11
376.3004562099834
 21
166.5401212289159
 31
0.0
  0
LINE
  5
188EA
330
1F
100
AcDbEntity
  8
02___PRT_ALL_AXES
  6
Continuous
 62
     7
100
AcDbLine
 10
371.0671608573359
 20
189.6759387595173
 30
0.0
 11
370.1140706782901
 21
193.5118137178122
 31
0.0
  0
LINE
  5
188EB
330
1F
100
AcDbEntity
  8
0
  6
Continuous
 62
     7
100
AcDbLine
 10
352.6743970444516
 20
214.9277218787872
 30
0.0
 11
350.958937552354
 21
215.8703234941456
 31
0.0
  0
LINE
  5
188EC
330
1F
100
AcDbEntity
  8
0
  6
Continuous
 62
     7
100
AcDbLine
 10
353.8127602399529
 20
216.6572976548612
 30
0.0
 11
355.5282197320523
 21
215.7146960395019
 31
0.0
  0
ARC
  5
188ED
330
1F
100
AcDbEntity
  8
0
  6
Continuous
 62
     7
100
AcDbCircle
 10
307.526619161805
 20
199.5510770036087
 30
0.0
 40
47.9679334279
100
AcDbArc
 50
13.96162282773343
 51
15.53426327110247
  0
ARC
  5
188EE
330
1F
100
AcDbEntity
  8
0
  6
Continuous
 62
     7
100
AcDbCircle
 10
310.6533197635874
 20
200.4098834481517
 30
0.0
 40
47.68578603949999
100
AcDbArc
 50
13.95697003139624
 51
15.53891606753254
  0
ARC
  5
188EF
330
1F
100
AcDbEntity
  8
0
  6
Continuous
 62
     7
100
AcDbCircle
 10
369.1116723294073
 20
151.9294762203278
 30
0.0
 40
47.1562370231
100
AcDbArc
 50
103.5694143545852
 51
104.3390822778741
  0
ARC
  5
188F0
330
1F
100
AcDbEntity
  8
0
  6
Continuous
 62
     7
100
AcDbCircle
 10
396.6521792148709
 20
224.01500559795
 30
0.0
 40
43.7940433475
100
AcDbArc
 50
192.2991119494047
 51
193.97751091077
  0
ARC
  5
188F1
330
1F
100
AcDbEntity
  8
0
  6
Continuous
 62
     7
100
AcDbCircle
 10
360.7459434211162
 20
185.6466875622188
 30
0.0
 40
31.8066220499
100
AcDbArc
 50
102.6014585704525
 51
102.724373232562
  0
ARC
  5
188F2
330
1F
100
AcDbEntity
  8
0
  6
Continuous
 62
     7
100
AcDbCircle
 10
357.5146509489425
 20
196.4898955368951
 30
0.0
 40
20.4591878124
100
AcDbArc
 50
108.6888600400647
 51
108.8909562766095
  0
ARC
  5
188F3
330
1F
100
AcDbEntity
  8
0
  6
Continuous
 62
     7
100
AcDbCircle
 10
354.8403799414229
 20
212.4594263572651
 30
0.0
 40
7.995957139799996
100
AcDbArc
 50
184.3849099276218
 51
193.9452984255468
  0
ARC
  5
188F4
330
1F
100
AcDbEntity
  8
0
  6
Continuous
 62
     7
100
AcDbCircle
 10
353.3924900612512
 20
212.0996728094449
 30
0.0
 40
7.995957139799996
100
AcDbArc
 50
13.96184522080504
 51
23.52223371876664
  0
ARC
  5
188F5
330
1F
100
AcDbEntity
  8
02___PRT_ALL_AXES
  6
Continuous
 62
     7
100
AcDbCircle
 10
365.7620314146118
 20
191.3753530375877
 30
0.0
 40
2.6261331099
100
AcDbArc
 50
81.09534698593288
 51
81.42452568380695
  0
ARC
  5
188F6
330
1F
100
AcDbEntity
  8
02___PRT_ALL_AXES
  6
Continuous
 62
     7
100
AcDbCircle
 10
365.8004615859467
 20
191.6168758730835
 30
0.0
 40
2.3815727181
100
AcDbArc
 50
79.22500552546303
 51
81.10933704741221
  0
ARC
  5
188F7
330
1F
100
AcDbEntity
  8
02___PRT_ALL_AXES
  6
Continuous
 62
     7
100
AcDbCircle
 10
360.7574197024735
 20
188.8529959356089
 30
0.0
 40
0.9632910104
100
AcDbArc
 50
273.2247486046071
 51
285.3804496162151
  0
SPLINE
  5
188F8
330
1F
100
AcDbEntity
  8
02___PRT_ALL_AXES
  6
Continuous
 62
     7
100
AcDbSpline
210
0.0
220
0.0
230
1.0
 70
     8
 71
     3
 72
    34
 73
    30
 74
     0
 42
0.0000000001
 43
0.0000000001
 40
0.0
 40
0.0
 40
0.0
 40
0.0
 40
0.0117796423
 40
0.0270179316
 40
0.0458408494
 40
0.0682225075
 40
0.0940560303
 40
0.1231674592
 40
0.1903241481
 40
0.2675793163
 40
0.3523916641
 40
0.4419278805
 40
0.5331771709000001
 40
0.6230651383
 40
0.7085679059000001
 40
0.7868259875
 40
0.8224200051999998
 40
0.855264234
 40
0.8850990838999999
 40
0.9117020151
 40
0.9348888378999999
 40
0.9545348163999999
 40
0.9705879583999999
 40
0.9772933351999999
 40
0.983153023
 40
0.9882233195999999
 40
0.9926029276999999
 40
0.9964501772
 40
1.0
 40
1.0
 40
1.0
 40
1.0
 10
356.3601891972396
 20
160.2948195279566
 30
0.0
 10
356.4337513724279
 20
160.2543989726935
 30
0.0
 10
356.6163910726484
 20
160.1879302623545
 30
0.0
 10
356.9370588935783
 20
160.1237604027599
 30
0.0
 10
357.3377960765796
 20
160.0836741132013
 30
0.0
 10
357.8154389935191
 20
160.0683066086109
 30
0.0
 10
358.3665325750337
 20
160.0780303839235
 30
0.0
 10
359.2353420660659
 20
160.1270984308873
 30
0.0
 10
360.4657029989505
 20
160.25607923869
 30
0.0
 10
362.081577240195
 20
160.49659483577
 30
0.0
 10
363.844788327868
 20
160.8228176726859
 30
0.0
 10
365.6946164757721
 20
161.223757475527
 30
0.0
 10
367.5673807729402
 20
161.6858789786217
 30
0.0
 10
369.3986109566179
 20
162.1932439459085
 30
0.0
 10
371.1252652413789
 20
162.7282928508191
 30
0.0
 10
372.4672884640861
 20
163.195139713486
 30
0.0
 10
373.4426701093763
 20
163.571216798098
 30
0.0
 10
374.0895589615504
 20
163.8395417867148
 30
0.0
 10
374.6697584022625
 20
164.1007709307503
 30
0.0
 10
375.1783513053599
 20
164.3525699212866
 30
0.0
 10
375.6112254121074
 20
164.5927287696502
 30
0.0
 10
375.9648573467568
 20
164.8190756904439
 30
0.0
 10
376.2046012105187
 20
165.0042686562826
 30
0.0
 10
376.3513118513131
 20
165.1462123075487
 30
0.0
 10
376.4332597271643
 20
165.2417854320945
 30
0.0
 10
376.4937924609987
 20
165.3329664372193
 30
0.0
 10
376.5327212247141
 20
165.4199860022506
 30
0.0
 10
376.5494706203829
 20
165.503082416342
 30
0.0
 10
376.544845448025
 20
165.5565267842264
 30
0.0
 10
376.5387408819117
 20
165.5810733323594
 30
0.0
  0
SPLINE
  5
188F9
330
1F
100
AcDbEntity
  8
0
  6
Continuous
 62
     7
100
AcDbSpline
210
0.0
220
0.0
230
1.0
 70
     8
 71
     3
 72
     9
 73
     5
 74
     0
 42
0.0000000001
 43
0.0000000001
 40
0.0
 40
0.0
 40
0.0
 40
0.0
 40
0.5251428726000002
 40
1.0
 40
1.0
 40
1.0
 40
1.0
 10
356.9759566553951
 20
184.5471634351231
 30
0.0
 10
356.4111658134609
 20
184.4413877168451
 30
0.0
 10
355.3326729665025
 20
184.255533367517
 30
0.0
 10
354.2481884463017
 20
184.1074806555077
 30
0.0
 10
353.7318501607008
 20
184.0494603585509
 30
0.0
  0
SPLINE
  5
188FA
330
1F
100
AcDbEntity
  8
0
  6
Continuous
 62
     7
100
AcDbSpline
210
0.0
220
0.0
230
1.0
 70
     8
 71
     3
 72
    19
 73
    15
 74
     0
 42
0.0000000001
 43
0.0000000001
 40
0.0
 40
0.0
 40
0.0
 40
0.0
 40
0.2069670794
 40
0.3924894234
 40
0.5547114268
 40
0.6921859256000003
 40
0.7513541256999999
 40
0.8040685912
 40
0.8503761468
 40
0.8904182842
 40
0.9245215896999999
 40
0.9533071975
 40
0.9778667597
 40
1.0
 40
1.0
 40
1.0
 40
1.0
 10
353.7318501607008
 20
184.0494603585509
 30
0.0
 10
353.4464968025352
 20
184.0173955532971
 30
0.0
 10
352.9045034915655
 20
183.963769761938
 30
0.0
 10
352.1363133557754
 20
183.9139011170734
 30
0.0
 10
351.4630581159038
 20
183.8991040539529
 30
0.0
 10
350.9649880966647
 20
183.9163559793057
 30
0.0
 10
350.6206220826318
 20
183.9508006755993
 30
0.0
 10
350.4035617876327
 20
183.9841075963584
 30
0.0
 10
350.2150380744281
 20
184.0259916486554
 30
0.0
 10
350.05541215383
 20
184.0764073939761
 30
0.0
 10
349.9248509045577
 20
184.1353538931359
 30
0.0
 10
349.8233181516919
 20
184.2031614001404
 30
0.0
 10
349.7511938572281
 20
184.2808276218672
 30
0.0
 10
349.7237672060912
 20
184.3411743436152
 30
0.0
 10
349.7163633150123
 20
184.3709764094963
 30
0.0
  0
SPLINE
  5
188FB
330
1F
100
AcDbEntity
  8
0
  6
Continuous
 62
     7
100
AcDbSpline
210
0.0
220
0.0
230
1.0
 70
     8
 71
     3
 72
    17
 73
    13
 74
     0
 42
0.0000000001
 43
0.0000000001
 40
0.0
 40
0.0
 40
0.0
 40
0.0
 40
0.0732416697
 40
0.1457787094
 40
0.2172158703
 40
0.2866176123
 40
0.4144026233
 40
0.5259157123
 40
0.6317000083
 40
0.7433329396
 40
0.8658760157999999
 40
1.0
 40
1.0
 40
1.0
 40
1.0
 10
346.8481188635217
 20
212.1056031021851
 30
0.0
 10
346.8369499512448
 20
212.2515389264533
 30
0.0
 10
346.8391302274834
 20
212.5444816592787
 30
0.0
 10
346.9149133805588
 20
212.9737806931605
 30
0.0
 10
347.0563093249841
 20
213.3780457640903
 30
0.0
 10
347.3109026381302
 20
213.8527298057249
 30
0.0
 10
347.7150356078857
 20
214.3288779413567
 30
0.0
 10
348.2668780606475
 20
214.7475015239149
 30
0.0
 10
348.8399723397817
 20
215.0716657407008
 30
0.0
 10
349.4568940110223
 20
215.3572463117778
 30
0.0
 10
350.1410479155713
 20
215.629289343651
 30
0.0
 10
350.625261763362
 20
215.7988601215554
 30
0.0
 10
350.8796307716805
 20
215.8833278860345
 30
0.0
  0
SPLINE
  5
188FC
330
1F
100
AcDbEntity
  8
0
  6
Continuous
 62
     7
100
AcDbSpline
210
0.0
220
0.0
230
1.0
 70
     8
 71
     3
 72
    18
 73
    14
 74
     0
 42
0.0000000001
 43
0.0000000001
 40
0.0
 40
0.0
 40
0.0
 40
0.0
 40
0.0182194326
 40
0.039389992
 40
0.0657630096
 40
0.0985303787
 40
0.138230118
 40
0.1850659131
 40
0.3000687242
 40
0.4422730071000001
 40
0.6089238073
 40
0.7963813465000003
 40
1.0
 40
1.0
 40
1.0
 40
1.0
 10
353.7401795979788
 20
216.6721603887142
 30
0.0
 10
353.7295395714721
 20
216.6697747308133
 30
0.0
 10
353.7076277784838
 20
216.6588298182694
 30
0.0
 10
353.6819270346789
 20
216.6281187396087
 30
0.0
 10
353.6612718231156
 20
216.5843809735413
 30
0.0
 10
353.6451422725333
 20
216.5272819098279
 30
0.0
 10
353.6334356590162
 20
216.4567470538348
 30
0.0
 10
353.6232224334347
 20
216.3364683662191
 30
0.0
 10
353.6245401884355
 20
216.1541911026304
 30
0.0
 10
353.6441174811228
 20
215.90117090324
 30
0.0
 10
353.6821359017269
 20
215.6064610395495
 30
0.0
 10
353.7378619669837
 20
215.2772865916811
 30
0.0
 10
353.7844745091753
 20
215.0478737796245
 30
0.0
 10
353.8104122524075
 20
214.9288018001359
 30
0.0
  0
SPLINE
  5
188FD
330
1F
100
AcDbEntity
  8
0
  6
Continuous
 62
     7
100
AcDbSpline
210
0.0
220
0.0
230
1.0
 70
     8
 71
     3
 72
    18
 73
    14
 74
     0
 42
0.0000000001
 43
0.0000000001
 40
0.0
 40
0.0
 40
0.0
 40
0.0
 40
0.1435891508
 40
0.2777381455
 40
0.3988957542
 40
0.507135445
 40
0.6102039797
 40
0.6652868279000002
 40
0.7254662263
 40
0.7905440313
 40
0.8588912565000001
 40
0.9290067169
 40
1.0
 40
1.0
 40
1.0
 40
1.0
 10
353.8067535950361
 20
216.6871265214811
 30
0.0
 10
354.1574265811616
 20
216.765520257092
 30
0.0
 10
354.8383451453849
 20
216.9057748829462
 30
0.0
 10
355.8232475966472
 20
217.0698765308296
 30
0.0
 10
356.7271405250979
 20
217.1774042011109
 30
0.0
 10
357.5585128929654
 20
217.2222572236631
 30
0.0
 10
358.2269136998879
 20
217.1880878254758
 30
0.0
 10
358.7641496570143
 20
217.0826476536711
 30
0.0
 10
359.1937181394935
 20
216.9392944604531
 30
0.0
 10
359.6254467766741
 20
216.7142221349329
 30
0.0
 10
360.0296830859118
 20
216.3992490227963
 30
0.0
 10
360.3753387899672
 20
216.0008280181471
 30
0.0
 10
360.5499842335632
 20
215.6905806633656
 30
0.0
 10
360.6209128086268
 20
215.5276944866835
 30
0.0
  0
SPLINE
  5
188FE
330
1F
100
AcDbEntity
  8
02___PRT_ALL_AXES
  6
Continuous
 62
     7
100
AcDbSpline
210
0.0
220
0.0
230
1.0
 70
     8
 71
     3
 72
    15
 73
    11
 74
     0
 42
0.0000000001
 43
0.0000000001
 40
0.0
 40
0.0
 40
0.0
 40
0.0
 40
0.1243734698
 40
0.2488415762
 40
0.3736997785
 40
0.4991846692000001
 40
0.6252021823
 40
0.7512430812000001
 40
0.8764468301999999
 40
1.0
 40
1.0
 40
1.0
 40
1.0
 10
361.0129106171191
 20
187.9242042672483
 30
0.0
 10
361.0851166632367
 20
187.9441159081377
 30
0.0
 10
361.2254257584611
 20
188.0012838834316
 30
0.0
 10
361.4098557887576
 20
188.1336473841454
 30
0.0
 10
361.5595937318468
 20
188.3051900977959
 30
0.0
 10
361.6677888548186
 20
188.5064549761152
 30
0.0
 10
361.7300160709277
 20
188.7269849288293
 30
0.0
 10
361.7437352893468
 20
188.9555460427707
 30
0.0
 10
361.7085309028409
 20
189.1802180508928
 30
0.0
 10
361.6529409235211
 20
189.3209326311205
 30
0.0
 10
361.6178826919279
 20
189.3865630163807
 30
0.0
  0
SPLINE
  5
188FF
330
1F
100
AcDbEntity
  8
02___PRT_ALL_AXES
  6
Continuous
 62
     7
100
AcDbSpline
210
0.0
220
0.0
230
1.0
 70
     8
 71
     3
 72
    15
 73
    11
 74
     0
 42
0.0000000001
 43
0.0000000001
 40
0.0
 40
0.0
 40
0.0
 40
0.0
 40
0.1231343341
 40
0.2467966752
 40
0.3713326424
 40
0.4967801294
 40
0.6228649925000001
 40
0.7491026172000002
 40
0.8749443712999999
 40
1.0
 40
1.0
 40
1.0
 40
1.0
 10
361.1735544986116
 20
187.5229830611185
 30
0.0
 10
361.08901446394
 20
187.5694454473939
 30
0.0
 10
360.9329021778942
 20
187.6894717024768
 30
0.0
 10
360.7637897250681
 20
187.9314220931899
 30
0.0
 10
360.6732188107947
 20
188.2144248453794
 30
0.0
 10
360.6691619845335
 20
188.5132783653786
 30
0.0
 10
360.7515762876249
 20
188.8018853712035
 30
0.0
 10
360.913286942967
 20
189.0551441695832
 30
0.0
 10
361.1398973855451
 20
189.2509496610506
 30
0.0
 10
361.3226271845381
 20
189.332170308963
 30
0.0
 10
361.4170735319933
 20
189.3582149667452
 30
0.0
  0
SPLINE
  5
18900
330
1F
100
AcDbEntity
  8
0
  6
Continuous
 62
     7
100
AcDbSpline
210
0.0
220
0.0
230
1.0
 70
     8
 71
     3
 72
    14
 73
    10
 74
     0
 42
0.0000000001
 43
0.0000000001
 40
0.0
 40
0.0
 40
0.0
 40
0.0
 40
0.3489494943
 40
0.4998181034000001
 40
0.6340319194
 40
0.7511315451
 40
0.8509190048999998
 40
0.9335882838999999
 40
1.0
 40
1.0
 40
1.0
 40
1.0
 10
351.9064022186652
 20
191.095845040976
 30
0.0
 10
351.6094891339656
 20
190.9689044868425
 30
0.0
 10
351.1877530766508
 20
190.778162422788
 30
0.0
 10
350.666229048624
 20
190.5091130302769
 30
0.0
 10
350.3426971811098
 20
190.324877247878
 30
0.0
 10
350.0690817079887
 20
190.149350131496
 30
0.0
 10
349.8465943148624
 20
189.9833917025551
 30
0.0
 10
349.6761368566879
 20
189.8279966152683
 30
0.0
 10
349.5882137563315
 20
189.7203162044923
 30
0.0
 10
349.555887289913
 20
189.6680491690292
 30
0.0
  0
SPLINE
  5
18901
330
1F
100
AcDbEntity
  8
0
  6
Continuous
 62
     7
100
AcDbSpline
210
0.0
220
0.0
230
1.0
 70
     8
 71
     3
 72
    11
 73
     7
 74
     0
 42
0.0000000001
 43
0.0000000001
 40
0.0
 40
0.0
 40
0.0
 40
0.0
 40
0.2899011722
 40
0.5472460214
 40
0.7802263435
 40
1.0
 40
1.0
 40
1.0
 40
1.0
 10
369.9208550858168
 20
193.7345720080354
 30
0.0
 10
369.9460774700785
 20
193.7198024838669
 30
0.0
 10
369.99215124446
 20
193.6890655881896
 30
0.0
 10
370.0500500849487
 20
193.635183887214
 30
0.0
 10
370.0918372792187
 20
193.5763446989965
 30
0.0
 10
370.1087088867282
 20
193.5333131684062
 30
0.0
 10
370.1140526579222
 20
193.5118090738194
 30
0.0
  0
SPLINE
  5
18902
330
1F
100
AcDbEntity
  8
0
  6
Continuous
 62
     7
100
AcDbSpline
210
0.0
220
0.0
230
1.0
 70
     8
 71
     3
 72
    14
 73
    10
 74
     0
 42
0.0000000001
 43
0.0000000001
 40
0.0
 40
0.0
 40
0.0
 40
0.0
 40
0.066427823
 40
0.1491086896
 40
0.2489004645
 40
0.3660024404
 40
0.5002119492000002
 40
0.6510700142000001
 40
1.0
 40
1.0
 40
1.0
 40
1.0
 10
368.7296907978127
 20
194.4321318130512
 30
0.0
 10
368.6766942551442
 20
194.4631695467212
 30
0.0
 10
368.5486912484996
 20
194.5171455910929
 30
0.0
 10
368.3255004729219
 20
194.5746655482114
 30
0.0
 10
368.0514440567206
 20
194.6171927486135
 30
0.0
 10
367.7277823523948
 20
194.6442556760537
 30
0.0
 10
367.3559884204043
 20
194.6556773231002
 30
0.0
 10
366.76973948209
 20
194.6494193374562
 30
0.0
 10
366.3082073271401
 20
194.620672739358
 30
0.0
 10
365.9867105736779
 20
194.5939413708926
 30
0.0
  0
SPLINE
  5
18903
330
1F
100
AcDbEntity
  8
02___PRT_ALL_AXES
  6
Continuous
 62
     7
100
AcDbSpline
210
0.0
220
0.0
230
1.0
 70
     8
 71
     3
 72
     9
 73
     5
 74
     0
 42
0.0000000001
 43
0.0000000001
 40
0.0
 40
0.0
 40
0.0
 40
0.0
 40
0.5017134228
 40
1.0
 40
1.0
 40
1.0
 40
1.0
 10
361.4170735319933
 20
189.3582149667452
 30
0.0
 10
361.5361415019545
 20
189.3910493176715
 30
0.0
 10
361.7883766203561
 20
189.4116954871965
 30
0.0
 10
362.029634861545
 20
189.3345918898847
 30
0.0
 10
362.1371376549653
 20
189.2755093932426
 30
0.0
  0
LINE
  5
18904
330
1F
100
AcDbEntity
  8
0
  6
Continuous
 62
     7
100
AcDbLine
 10
353.8104122524075
 20
214.9288018001359
 30
0.0
 11
353.8632583796499
 21
214.6862068289008
 31
0.0
  0
LINE
  5
18905
330
1F
100
AcDbEntity
  8
0
  6
Continuous
 62
     7
100
AcDbLine
 10
353.6722489304777
 20
212.6496414838109
 30
0.0
 11
353.7423065516453
 21
212.3975892317301
 31
0.0
  0
SPLINE
  5
18906
330
1F
100
AcDbEntity
  8
0
  6
Continuous
 62
     7
100
AcDbSpline
210
0.0
220
0.0
230
1.0
 70
     8
 71
     3
 72
    16
 73
    12
 74
     0
 42
0.0000000001
 43
0.0000000001
 40
0.0
 40
0.0
 40
0.0
 40
0.0
 40
0.0224774135
 40
0.0506753283
 40
0.0850024121
 40
0.125589024
 40
0.2252993787
 40
0.3482897182
 40
0.4916390201
 40
0.6513545693000001
 40
1.0
 40
1.0
 40
1.0
 40
1.0
 10
352.6743970444516
 20
214.9277218787872
 30
0.0
 10
352.6908940542963
 20
214.918657189013
 30
0.0
 10
352.7251605215754
 20
214.8929980951323
 30
0.0
 10
352.7748977906997
 20
214.8418977650852
 30
0.0
 10
352.8283809482912
 20
214.7739400621829
 30
0.0
 10
352.9099580198529
 20
214.6524647638596
 30
0.0
 10
353.0167127713141
 20
214.4591473147409
 30
0.0
 10
353.1467054181269
 20
214.1814084168343
 30
0.0
 10
353.2818197777199
 20
213.851043434877
 30
0.0
 10
353.468584699762
 20
213.338141402927
 30
0.0
 10
353.5940597294395
 20
212.9309452932091
 30
0.0
 10
353.6722489304777
 20
212.6496414838109
 30
0.0
  0
SPLINE
  5
18907
330
1F
100
AcDbEntity
  8
0
  6
Continuous
 62
     7
100
AcDbSpline
210
0.0
220
0.0
230
1.0
 70
     8
 71
     3
 72
    11
 73
     7
 74
     0
 42
0.0000000001
 43
0.0000000001
 40
0.0
 40
0.0
 40
0.0
 40
0.0
 40
0.2197712278
 40
0.4527536737000001
 40
0.7101046977
 40
1.0
 40
1.0
 40
1.0
 40
1.0
 10
348.7632769538798
 20
188.2068360020109
 30
0.0
 10
348.7579332193129
 20
188.2283399492405
 30
0.0
 10
348.7526990924237
 20
188.2742639499354
 30
0.0
 10
348.7620922079116
 20
188.3458194699994
 30
0.0
 10
348.7880435625486
 20
188.4205327041579
 30
0.0
 10
348.8143711103514
 20
188.4692607183895
 30
0.0
 10
348.8297466417318
 20
188.4941177721373
 30
0.0
  0
SPLINE
  5
18908
330
1F
100
AcDbEntity
  8
0
  6
Continuous
 62
     7
100
AcDbSpline
210
0.0
220
0.0
230
1.0
 70
     8
 71
     3
 72
    19
 73
    15
 74
     0
 42
0.0000000001
 43
0.0000000001
 40
0.0
 40
0.0
 40
0.0
 40
0.0
 40
0.0218097303
 40
0.0461055298
 40
0.0747080171
 40
0.1087078635
 40
0.1487177111
 40
0.1950470807
 40
0.2478303113
 40
0.3071064902
 40
0.4448438879000002
 40
0.6073229762
 40
0.7930790537000001
 40
1.0
 40
1.0
 40
1.0
 40
1.0
 10
371.0671466548813
 20
189.6759187497434
 30
0.0
 10
371.0747113221662
 20
189.6454695288245
 30
0.0
 10
371.0785270270537
 20
189.5776482083563
 30
0.0
 10
371.0493756899198
 20
189.4728202201283
 30
0.0
 10
370.9884256060178
 20
189.3627762430885
 30
0.0
 10
370.8964510676453
 20
189.2467363520243
 30
0.0
 10
370.7735685148147
 20
189.1243942875533
 30
0.0
 10
370.6199525009254
 20
188.9958239724453
 30
0.0
 10
370.4359093042078
 20
188.8612758329416
 30
0.0
 10
370.1350957614052
 20
188.6644696831997
 30
0.0
 10
369.6846636240227
 20
188.4094092540914
 30
0.0
 10
369.0578440168795
 20
188.0993208575435
 30
0.0
 10
368.327484816364
 20
187.7757513700705
 30
0.0
 10
367.8035748765199
 20
187.5642548220728
 30
0.0
 10
367.5260982219772
 20
187.456485321292
 30
0.0
  0
SPLINE
  5
18909
330
1F
100
AcDbEntity
  8
02___PRT_ALL_AXES
  6
Continuous
 62
     7
100
AcDbSpline
210
0.0
220
0.0
230
1.0
 70
     8
 71
     3
 72
    17
 73
    13
 74
     0
 42
0.0000000001
 43
0.0000000001
 40
0.0
 40
0.0
 40
0.0
 40
0.0
 40
0.2254699802
 40
0.4301958961
 40
0.610140655
 40
0.7606451409
 40
0.8771639132
 40
0.9208890156
 40
0.9541735962
 40
0.9900606826
 40
0.9929705661999999
 40
1.0
 40
1.0
 40
1.0
 40
1.0
 10
366.1173189501135
 20
194.0460084703751
 30
0.0
 10
366.1207032715977
 20
194.0323876881318
 30
0.0
 10
366.1289293087414
 20
194.0068015498107
 30
0.0
 10
366.1450744833312
 20
193.9723329904989
 30
0.0
 10
366.1627424648397
 20
193.9439757913366
 30
0.0
 10
366.1800693701447
 20
193.9222025932647
 30
0.0
 10
366.193731982112
 20
193.9082920103535
 30
0.0
 10
366.2025589255029
 20
193.9003635447841
 30
0.0
 10
366.2084173568858
 20
193.8957980605917
 30
0.0
 10
366.2110100431822
 20
193.8935182301845
 30
0.0
 10
366.2144590897917
 20
193.8916575085502
 30
0.0
 10
366.2132321194388
 20
193.8923763965574
 30
0.0
 10
366.2128486335717
 20
193.8925871123545
 30
0.0
  0
SPLINE
  5
1890A
330
1F
100
AcDbEntity
  8
02___PRT_ALL_AXES
  6
Continuous
 62
     7
100
AcDbSpline
210
0.0
220
0.0
230
1.0
 70
     8
 71
     3
 72
    34
 73
    30
 74
     0
 42
0.0000000001
 43
0.0000000001
 40
0.0
 40
0.0
 40
0.0
 40
0.0
 40
0.0117798215
 40
0.0270183956
 40
0.0458417047
 40
0.0682238556
 40
0.094057963
 40
0.1231700572
 40
0.1903282619
 40
0.2675850863
 40
0.3523990875
 40
0.4419368035000001
 40
0.5331872879999999
 40
0.6230760021
 40
0.7085789453000002
 40
0.7868365348000001
 40
0.8224300351
 40
0.8552735626
 40
0.885107524
 40
0.9117093885999999
 40
0.9348949743000002
 40
0.9545395709999999
 40
0.9705912266
 40
0.9772958503999999
 40
0.9831548009
 40
0.9882244112
 40
0.9926034396
 40
0.9964502944999999
 40
1.0
 40
1.0
 40
1.0
 40
1.0
 10
356.1219166524463
 20
161.2537882675203
 30
0.0
 10
356.1954802193325
 20
161.2133669475559
 30
0.0
 10
356.3781239452658
 20
161.1468972959553
 30
0.0
 10
356.6987991462668
 20
161.0827270974166
 30
0.0
 10
357.0995462621652
 20
161.0426412529393
 30
0.0
 10
357.57720146405
 20
161.0272750167021
 30
0.0
 10
358.1283094752164
 20
161.0370008813013
 30
0.0
 10
358.9971417062991
 20
161.0860730129896
 30
0.0
 10
360.227534012007
 20
161.2150608821182
 30
0.0
 10
361.8434475498655
 20
161.4555871979289
 30
0.0
 10
363.6066979026875
 20
161.7818227462791
 30
0.0
 10
365.4565619212374
 20
162.1827764472998
 30
0.0
 10
367.3293553524056
 20
162.6449120961676
 30
0.0
 10
369.1606048104843
 20
163.152290418491
 30
0.0
 10
370.8872657705982
 20
163.6873508332535
 30
0.0
 10
372.2292853815891
 20
164.1542061562466
 30
0.0
 10
373.204656019476
 20
164.5302887076748
 30
0.0
 10
373.8515305793901
 20
164.7986157701696
 30
0.0
 10
374.4317114468888
 20
165.0598458572574
 30
0.0
 10
374.9402815302458
 20
165.3116444714411
 30
0.0
 10
375.3731287084886
 20
165.5518016546718
 30
0.0
 10
375.7267298122608
 20
165.7781454690173
 30
0.0
 10
375.9664450223174
 20
165.96333563858
 30
0.0
 10
376.1131299232441
 20
166.1052766102882
 30
0.0
 10
376.1950580984924
 20
166.2008469533919
 30
0.0
 10
376.2555703057317
 20
166.2920251512075
 30
0.0
 10
376.2944775533872
 20
166.379042089329
 30
0.0
 10
376.311203645095
 20
166.462136022177
 30
0.0
 10
376.3065613769179
 20
166.5155755978346
 30
0.0
 10
376.3004490787829
 20
166.5401194569128
 30
0.0
  0
SPLINE
  5
1890B
330
1F
100
AcDbEntity
  8
0
  6
Continuous
 62
     7
100
AcDbSpline
210
0.0
220
0.0
230
1.0
 70
     8
 71
     3
 72
    24
 73
    20
 74
     0
 42
0.0000000001
 43
0.0000000001
 40
0.0
 40
0.0
 40
0.0
 40
0.0
 40
0.0108893018
 40
0.0203048235
 40
0.0288149194
 40
0.0371829843
 40
0.0462089092
 40
0.0565377895
 40
0.0685940079
 40
0.0826339294
 40
0.117170523
 40
0.1606759672
 40
0.2131344403
 40
0.2742591898
 40
0.3436001343
 40
0.4205842163000001
 40
0.5946857216
 40
0.790239142
 40
1.0
 40
1.0
 40
1.0
 40
1.0
 10
349.555887289913
 20
189.6680491690292
 30
0.0
 10
349.5385537840304
 20
189.6400234961653
 30
0.0
 10
349.5098840221183
 20
189.5852330370906
 30
0.0
 10
349.4867056720833
 20
189.500248372598
 30
0.0
 10
349.4883877113863
 20
189.4193711225259
 30
0.0
 10
349.5159842291144
 20
189.3445023115416
 30
0.0
 10
349.5682012702348
 20
189.2774838367857
 30
0.0
 10
349.6432947170508
 20
189.2181509347899
 30
0.0
 10
349.740682720316
 20
189.1656718068887
 30
0.0
 10
349.9123685916859
 20
189.0999160904437
 30
0.0
 10
350.1856219666117
 20
189.039425008157
 30
0.0
 10
350.5784683819004
 20
188.9960393584058
 30
0.0
 10
351.0539034563374
 20
188.978981171829
 30
0.0
 10
351.607549509845
 20
188.9885163985198
 30
0.0
 10
352.2344198901012
 20
189.0248393688796
 30
0.0
 10
353.2002440115323
 20
189.1124918973762
 30
0.0
 10
354.5406702750846
 20
189.2903009150465
 30
0.0
 10
356.2686907550926
 20
189.5894604619405
 30
0.0
 10
357.4698235848994
 20
189.8391091126066
 30
0.0
 10
358.0893118862953
 20
189.9775593997199
 30
0.0
  0
SPLINE
  5
1890C
330
1F
100
AcDbEntity
  8
02___PRT_ALL_AXES
  6
Continuous
 62
     7
100
AcDbSpline
210
0.0
220
0.0
230
1.0
 70
     8
 71
     3
 72
    34
 73
    30
 74
     0
 42
0.0000000001
 43
0.0000000001
 40
0.0
 40
0.0
 40
0.0
 40
0.0
 40
0.012350435
 40
0.0285122772
 40
0.0486129396
 40
0.0726053272
 40
0.1003512046
 40
0.1316348017
 40
0.2037199419
 40
0.2863063388
 40
0.376353765
 40
0.4705040972
 40
0.5652283888000002
 40
0.6569740052000002
 40
0.7423118179000002
 40
0.8180831343000001
 40
0.8515089477
 40
0.8815598395999998
 40
0.9079897979000001
 40
0.9306092443
 40
0.9493019192
 40
0.9640762911999999
 40
0.9700632650999999
 40
0.9751974590999999
 40
0.9834221541999999
 40
0.9870791163999999
 40
0.9908641189
 40
0.9950950938
 40
1.0
 40
1.0
 40
1.0
 40
1.0
 10
351.8280169847697
 20
189.7852746957039
 30
0.0
 10
351.8857599688439
 20
189.7535463860993
 30
0.0
 10
352.0306175459593
 20
189.7022152979294
 30
0.0
 10
352.2857290283667
 20
189.6541012818504
 30
0.0
 10
352.6063793012984
 20
189.6257665276286
 30
0.0
 10
352.9896936481239
 20
189.6177427280006
 30
0.0
 10
353.4325620039818
 20
189.6303344348087
 30
0.0
 10
354.1305839820782
 20
189.677005510475
 30
0.0
 10
355.1166499685936
 20
189.7901601095361
 30
0.0
 10
356.4062988974732
 20
189.9947342590801
 30
0.0
 10
357.8034360777895
 20
190.2673395181288
 30
0.0
 10
359.254490493415
 20
190.5977016149406
 30
0.0
 10
360.703847111032
 20
190.9733396995395
 30
0.0
 10
362.0960016102001
 20
191.3797579412874
 30
0.0
 10
363.3776355393203
 20
191.8012449074265
 30
0.0
 10
364.3501527877527
 20
192.1647387317496
 30
0.0
 10
365.03451987834
 20
192.4539023620707
 30
0.0
 10
365.469973849875
 20
192.6552205939258
 30
0.0
 10
365.8454137713163
 20
192.8481625424535
 30
0.0
 10
366.1575923421299
 20
193.0307721489396
 30
0.0
 10
366.4037335032102
 20
193.201413671364
 30
0.0
 10
366.5628938627053
 20
193.3404933347608
 30
0.0
 10
366.6517766734762
 20
193.4469130379382
 30
0.0
 10
366.7067146221818
 20
193.5340420713571
 30
0.0
 10
366.7349158969285
 20
193.6253274718563
 30
0.0
 10
366.7183274152342
 20
193.7088640859435
 30
0.0
 10
366.6866785218301
 20
193.7636015497607
 30
0.0
 10
366.6369458115044
 20
193.8122254608804
 30
0.0
 10
366.5956998406656
 20
193.8387071385784
 30
0.0
 10
366.5727675375241
 20
193.8513078592057
 30
0.0
  0
SPLINE
  5
1890D
330
1F
100
AcDbEntity
  8
0
  6
Continuous
 62
     7
100
AcDbSpline
210
0.0
220
0.0
230
1.0
 70
     8
 71
     3
 72
     9
 73
     5
 74
     0
 42
0.0000000001
 43
0.0000000001
 40
0.0
 40
0.0
 40
0.0
 40
0.0
 40
0.2497785822
 40
1.0
 40
1.0
 40
1.0
 40
1.0
 10
358.0893118862953
 20
189.9775593997199
 30
0.0
 10
357.9062048237868
 20
189.8602532156271
 30
0.0
 10
357.1850728353096
 20
189.371949211825
 30
0.0
 10
356.5090146135446
 20
188.8192345506556
 30
0.0
 10
356.0228664763456
 20
188.383038393418
 30
0.0
  0
SPLINE
  5
1890E
330
1F
100
AcDbEntity
  8
0
  6
Continuous
 62
     7
100
AcDbSpline
210
0.0
220
0.0
230
1.0
 70
     8
 71
     3
 72
    21
 73
    17
 74
     0
 42
0.0000000001
 43
0.0000000001
 40
0.0
 40
0.0
 40
0.0
 40
0.0
 40
0.2021350907
 40
0.3882083714
 40
0.5541789046
 40
0.6965845848000001
 40
0.7580611366
 40
0.8126835237999998
 40
0.8602708939999999
 40
0.9007463364999999
 40
0.9342058844
 40
0.9610298467999999
 40
0.9722512013999999
 40
0.9822627946
 40
0.9913742192
 40
1.0
 40
1.0
 40
1.0
 40
1.0
 10
356.0228664763456
 20
188.383038393418
 30
0.0
 10
355.5298065407734
 20
188.2906966538301
 30
0.0
 10
354.5805541713928
 20
188.1253528924533
 30
0.0
 10
353.2189830319132
 20
187.9298104129589
 30
0.0
 10
351.9986008440685
 20
187.7993370977599
 30
0.0
 10
351.0818577596731
 20
187.7438520858993
 30
0.0
 10
350.4402153871999
 20
187.7384642760905
 30
0.0
 10
350.0340745596225
 20
187.7521512052933
 30
0.0
 10
349.6811277288982
 20
187.7830643177101
 30
0.0
 10
349.382967572172
 20
187.8309875328721
 30
0.0
 10
349.1409316908614
 20
187.8954884501816
 30
0.0
 10
348.9769861646457
 20
187.9669366649066
 30
0.0
 10
348.8785842507498
 20
188.0350057046723
 30
0.0
 10
348.8239998794745
 20
188.087476868726
 30
0.0
 10
348.7845064948053
 20
188.1445252747187
 30
0.0
 10
348.7684394220726
 20
188.186061496415
 30
0.0
 10
348.7632769538798
 20
188.2068360020109
 30
0.0
  0
SPLINE
  5
1890F
330
1F
100
AcDbEntity
  8
02___PRT_ALL_AXES
  6
Continuous
 62
     7
100
AcDbSpline
210
0.0
220
0.0
230
1.0
 70
     8
 71
     3
 72
    33
 73
    29
 74
     0
 42
0.0000000001
 43
0.0000000001
 40
0.0
 40
0.0
 40
0.0
 40
0.0
 40
0.0117793539
 40
0.0270182994
 40
0.045842805
 40
0.0682245552
 40
0.094059297
 40
0.1231710781
 40
0.1903300436
 40
0.2675877643
 40
0.3524028708
 40
0.4419418289000001
 40
0.5331936334
 40
0.6230836703
 40
0.7085878693000001
 40
0.7868465966000003
 40
0.8224399612
 40
0.8552845972
 40
0.8851185427
 40
0.9117212714
 40
0.9349070277999999
 40
0.9545520985999999
 40
0.9706040674999998
 40
0.9831539262999999
 40
0.9882234391
 40
0.9926028237
 40
0.9964500068999999
 40
1.0
 40
1.0
 40
1.0
 40
1.0
 10
358.4391721269187
 20
165.222992011825
 30
0.0
 10
358.4899632811886
 20
165.1950835567966
 30
0.0
 10
358.6160750817947
 20
165.149196643282
 30
0.0
 10
358.8374927777007
 20
165.1048768168837
 30
0.0
 10
359.1142018477224
 20
165.0772015164764
 30
0.0
 10
359.4440133362699
 20
165.0665850049588
 30
0.0
 10
359.8245344489408
 20
165.0733120118564
 30
0.0
 10
360.4244397007954
 20
165.1071815415996
 30
0.0
 10
361.2739907366342
 20
165.1962497608963
 30
0.0
 10
362.389738312326
 20
165.362324065213
 30
0.0
 10
363.6072192469256
 20
165.587581561989
 30
0.0
 10
364.8845059490234
 20
165.8644296694508
 30
0.0
 10
366.1776254649197
 20
166.1835231308466
 30
0.0
 10
367.4420605293783
 20
166.5338549591577
 30
0.0
 10
368.6342784794871
 20
166.903303416844
 30
0.0
 10
369.5609111512351
 20
167.225648993666
 30
0.0
 10
370.2343767553141
 20
167.485335244876
 30
0.0
 10
370.6810319001418
 20
167.6705986889799
 30
0.0
 10
371.0816269180616
 20
167.8509806452782
 30
0.0
 10
371.4328034480207
 20
168.0248345567959
 30
0.0
 10
371.7316206301732
 20
168.1906597696541
 30
0.0
 10
371.9759321192471
 20
168.3469503380045
 30
0.0
 10
372.1638338939012
 20
168.4924289549386
 30
0.0
 10
372.2808632167091
 20
168.6113331870162
 30
0.0
 10
372.3409833919488
 20
168.7017606742909
 30
0.0
 10
372.3678414381977
 20
168.7618501445865
 30
0.0
 10
372.3793994091413
 20
168.819226964493
 30
0.0
 10
372.3761837441708
 20
168.8561284453806
 30
0.0
 10
372.3719598923856
 20
168.8730757374894
 30
0.0
  0
SPLINE
  5
18910
330
1F
100
AcDbEntity
  8
0
  6
Continuous
 62
     7
100
AcDbSpline
210
0.0
220
0.0
230
1.0
 70
     8
 71
     3
 72
     9
 73
     5
 74
     0
 42
0.0000000001
 43
0.0000000001
 40
0.0
 40
0.0
 40
0.0
 40
0.0
 40
0.249869629
 40
1.0
 40
1.0
 40
1.0
 40
1.0
 10
366.5730080429786
 20
191.2923602796743
 30
0.0
 10
366.3637771012693
 20
191.3355398775145
 30
0.0
 10
365.5238353760617
 20
191.4947859244564
 30
0.0
 10
364.6709640652155
 20
191.5925846463558
 30
0.0
 10
364.0300175435261
 20
191.6157767524506
 30
0.0
  0
SPLINE
  5
18911
330
1F
100
AcDbEntity
  8
0
  6
Continuous
 62
     7
100
AcDbSpline
210
0.0
220
0.0
230
1.0
 70
     8
 71
     3
 72
    24
 73
    20
 74
     0
 42
0.0000000001
 43
0.0000000001
 40
0.0
 40
0.0
 40
0.0
 40
0.0
 40
0.222001562
 40
0.4206025006000001
 40
0.5096939627000002
 40
0.5913381929
 40
0.6651053765000003
 40
0.7306535165000004
 40
0.7877380339000001
 40
0.8362403639
 40
0.8762458495999998
 40
0.9081801705
 40
0.9214700769
 40
0.9332752107999999
 40
0.9439728308000001
 40
0.9540749840999998
 40
0.9641855037999999
 40
0.9749069793999998
 40
1.0
 40
1.0
 40
1.0
 40
1.0
 10
364.0300175435261
 20
191.6157767524506
 30
0.0
 10
364.4480219459258
 20
191.7560646493973
 30
0.0
 10
365.2362303319681
 20
192.0332004523768
 30
0.0
 10
366.178994318245
 20
192.4027983747517
 30
0.0
 10
366.8519016812063
 20
192.6950079407904
 30
0.0
 10
367.2918802942843
 20
192.9006912076818
 30
0.0
 10
367.6831345728754
 20
193.0996681118829
 30
0.0
 10
368.0233826870683
 20
193.2907131008421
 30
0.0
 10
368.3107208236108
 20
193.472615661484
 30
0.0
 10
368.5438053670844
 20
193.6443923426429
 30
0.0
 10
368.7215943488502
 20
193.8050203514865
 30
0.0
 10
368.8298021263365
 20
193.9369017560699
 30
0.0
 10
368.8835169285087
 20
194.0370497329484
 30
0.0
 10
368.9066831814419
 20
194.1046706672512
 30
0.0
 10
368.9148882158881
 20
194.1694545337884
 30
0.0
 10
368.9076328859594
 20
194.2310827775234
 30
0.0
 10
368.8847832533213
 20
194.2888380254641
 30
0.0
 10
368.8314060202722
 20
194.3636798092518
 30
0.0
 10
368.7726956604458
 20
194.4069457649036
 30
0.0
 10
368.7296907978127
 20
194.4321318130512
 30
0.0
  0
SPLINE
  5
18912
330
1F
100
AcDbEntity
  8
02___PRT_ALL_AXES
  6
Continuous
 62
     7
100
AcDbSpline
210
0.0
220
0.0
230
1.0
 70
     8
 71
     3
 72
    33
 73
    29
 74
     0
 42
0.0000000001
 43
0.0000000001
 40
0.0
 40
0.0
 40
0.0
 40
0.0
 40
0.0117793539
 40
0.0270182994
 40
0.045842805
 40
0.0682245552
 40
0.094059297
 40
0.1231710781
 40
0.1903300436
 40
0.2675877643
 40
0.3524028708
 40
0.4419418289000001
 40
0.5331936334
 40
0.6230836703
 40
0.7085878693000001
 40
0.7868465966000003
 40
0.8224399612
 40
0.8552845972
 40
0.8851185427
 40
0.9117212714
 40
0.9349070277999999
 40
0.9545520985999999
 40
0.9706040674999998
 40
0.9831539262999999
 40
0.9882234391
 40
0.9926028237
 40
0.9964500068999999
 40
1.0
 40
1.0
 40
1.0
 40
1.0
 10
352.1845178270344
 20
190.3959214256463
 30
0.0
 10
352.2353089813917
 20
190.3680129705678
 30
0.0
 10
352.3614207819122
 20
190.3221260571042
 30
0.0
 10
352.5828384779018
 20
190.2778062306549
 30
0.0
 10
352.8595475477889
 20
190.2501309302113
 30
0.0
 10
353.18935903642
 20
190.2395144186446
 30
0.0
 10
353.5698801490547
 20
190.2462414256786
 30
0.0
 10
354.1697854008619
 20
190.2801109553345
 30
0.0
 10
355.0193364367517
 20
190.3691791747176
 30
0.0
 10
356.1350840125272
 20
190.5352534789851
 30
0.0
 10
357.3525649469924
 20
190.7605109757239
 30
0.0
 10
358.6298516490863
 20
191.0373590831857
 30
0.0
 10
359.9229711651243
 20
191.3564525446179
 30
0.0
 10
361.1874062295794
 20
191.7067843729298
 30
0.0
 10
362.3796241795537
 20
192.0762328305789
 30
0.0
 10
363.3062568513017
 20
192.3985784074009
 30
0.0
 10
363.9797224554279
 20
192.6582646586973
 30
0.0
 10
364.4263776002556
 20
192.8435281028012
 30
0.0
 10
364.8269726181281
 20
193.023910059014
 30
0.0
 10
365.1781491481381
 20
193.1977639706163
 30
0.0
 10
365.4769663303252
 20
193.3635891833398
 30
0.0
 10
365.7212778194502
 20
193.5198797517766
 30
0.0
 10
365.9091795940551
 20
193.6653583686235
 30
0.0
 10
366.0262089168248
 20
193.7842626008384
 30
0.0
 10
366.0863290920135
 20
193.8746900880267
 30
0.0
 10
366.1131871382643
 20
193.9347795583214
 30
0.0
 10
366.124745109257
 20
193.9921563783152
 30
0.0
 10
366.1215294442338
 20
194.0290578591164
 30
0.0
 10
366.1173055924521
 20
194.0460051512252
 30
0.0
  0
SPLINE
  5
18913
330
1F
100
AcDbEntity
  8
02___PRT_ALL_AXES
  6
Continuous
 62
     7
100
AcDbSpline
210
0.0
220
0.0
230
1.0
 70
     8
 71
     3
 72
     9
 73
     5
 74
     0
 42
0.0000000001
 43
0.0000000001
 40
0.0
 40
0.0
 40
0.0
 40
0.0
 40
0.5017134228
 40
1.0
 40
1.0
 40
1.0
 40
1.0
 10
361.8936186215835
 20
187.4402774876159
 30
0.0
 10
361.774550651575
 20
187.4074431366023
 30
0.0
 10
361.5223155332208
 20
187.3867969671644
 30
0.0
 10
361.2810572919809
 20
187.4639005643901
 30
0.0
 10
361.1735544986116
 20
187.5229830611185
 30
0.0
  0
SPLINE
  5
18914
330
1F
100
AcDbEntity
  8
0
  6
Continuous
 62
     7
100
AcDbSpline
210
0.0
220
0.0
230
1.0
 70
     8
 71
     3
 72
     9
 73
     5
 74
     0
 42
0.0000000001
 43
0.0000000001
 40
0.0
 40
0.0
 40
0.0
 40
0.0
 40
0.5084808811000002
 40
1.0
 40
1.0
 40
1.0
 40
1.0
 10
357.9703352579092
 20
195.456857719442
 30
0.0
 10
358.4581557816349
 20
195.5745952471077
 30
0.0
 10
359.413913650784
 20
195.8213525504068
 30
0.0
 10
360.3612567213062
 20
196.0988054941515
 30
0.0
 10
360.8241579455464
 20
196.2438318800193
 30
0.0
  0
SPLINE
  5
18915
330
1F
100
AcDbEntity
  8
0
  6
Continuous
 62
     7
100
AcDbSpline
210
0.0
220
0.0
230
1.0
 70
     8
 71
     3
 72
    16
 73
    12
 74
     0
 42
0.0000000001
 43
0.0000000001
 40
0.0
 40
0.0
 40
0.0
 40
0.0
 40
0.3486454307
 40
0.5083609799000001
 40
0.6517102818
 40
0.7747006213
 40
0.8744109759999998
 40
0.9149975878999999
 40
0.9493246716999999
 40
0.9775225864999999
 40
1.0
 40
1.0
 40
1.0
 40
1.0
 10
356.5260716181622
 20
213.4366156444755
 30
0.0
 10
356.4478824169876
 20
213.7179194538364
 30
0.0
 10
356.3224073873608
 20
214.1251155636417
 30
0.0
 10
356.1356424654043
 20
214.6380175955417
 30
0.0
 10
356.0005281057276
 20
214.968382577548
 30
0.0
 10
355.8705354589986
 20
215.2461214754055
 30
0.0
 10
355.7637807074501
 20
215.4394389245742
 30
0.0
 10
355.6822036359774
 20
215.5609142228475
 30
0.0
 10
355.6287204783842
 20
215.6288719257489
 30
0.0
 10
355.5789832092598
 20
215.679972255796
 30
0.0
 10
355.5447167419826
 20
215.7056313496767
 30
0.0
 10
355.5282197320523
 20
215.7146960395019
 30
0.0
  0
LINE
  5
18916
330
1F
100
AcDbEntity
  8
0
  6
Continuous
 62
     7
100
AcDbLine
 10
356.5961292392424
 20
213.1845633924438
 30
0.0
 11
356.5260716181622
 21
213.4366156444755
 31
0.0
  0
SPLINE
  5
18917
330
1F
100
AcDbEntity
  8
0
  6
Continuous
 62
     7
100
AcDbSpline
210
0.0
220
0.0
230
1.0
 70
     8
 71
     3
 72
    31
 73
    27
 74
     0
 42
0.0000000001
 43
0.0000000001
 40
0.0
 40
0.0
 40
0.0
 40
0.0
 40
0.1055852068
 40
0.2060004534
 40
0.2989159184
 40
0.3822017374
 40
0.4540036672
 40
0.4851170707
 40
0.5128317387
 40
0.5370380822
 40
0.5576805291
 40
0.5747776468
 40
0.5884872123
 40
0.5992321486
 40
0.6079848280000001
 40
0.6164891035000001
 40
0.6266221708
 40
0.6395419633000003
 40
0.6557744993
 40
0.6755250678
 40
0.6988415577
 40
0.7256843499
 40
0.7559575219
 40
0.8262091595999997
 40
0.9081605906
 40
1.0
 40
1.0
 40
1.0
 40
1.0
 10
353.8127602399529
 20
216.6572976548612
 30
0.0
 10
354.0396862469027
 20
216.7075558572576
 30
0.0
 10
354.4836221905208
 20
216.8003253211097
 30
0.0
 10
355.1310773606749
 20
216.9181070674392
 30
0.0
 10
355.7332185084417
 20
217.0094334785015
 30
0.0
 10
356.2756450084419
 20
217.072208380672
 30
0.0
 10
356.684743057109
 20
217.1011339778395
 30
0.0
 10
356.9722967715754
 20
217.107086357001
 30
0.0
 10
357.1551066365503
 20
217.1035310676596
 30
0.0
 10
357.3145346848544
 20
217.0922731450753
 30
0.0
 10
357.4497250331044
 20
217.0734292337372
 30
0.0
 10
357.560152748458
 20
217.047169755693
 30
0.0
 10
357.6456337625589
 20
217.013446224
 30
0.0
 10
357.7068636233182
 20
216.9717338105763
 30
0.0
 10
357.742183985167
 20
216.9182258634389
 30
0.0
 10
357.7442199922264
 20
216.8552831031099
 30
0.0
 10
357.7159873349303
 20
216.7903372390426
 30
0.0
 10
357.6625221709221
 20
216.7217824423413
 30
0.0
 10
357.5835421216727
 20
216.6481823070597
 30
0.0
 10
357.4791944859937
 20
216.5695067694112
 30
0.0
 10
357.3497553771688
 20
216.4860789286429
 30
0.0
 10
357.195869631629
 20
216.398379044207
 30
0.0
 10
356.9465382010533
 20
216.2700047609285
 30
0.0
 10
356.5800326138017
 20
216.1049987401473
 30
0.0
 10
356.0804050757763
 20
215.907278965831
 30
0.0
 10
355.7197257089376
 20
215.7794774272204
 30
0.0
 10
355.5282197320523
 20
215.7146960395019
 30
0.0
  0
SPLINE
  5
18918
330
1F
100
AcDbEntity
  8
0
  6
Continuous
 62
     7
100
AcDbSpline
210
0.0
220
0.0
230
1.0
 70
     8
 71
     3
 72
    31
 73
    27
 74
     0
 42
0.0000000001
 43
0.0000000001
 40
0.0
 40
0.0
 40
0.0
 40
0.0
 40
0.1060320457
 40
0.2069270363
 40
0.3003771774
 40
0.384269959
 40
0.4567623009
 40
0.4882533601
 40
0.5163662110000003
 40
0.5409892318999999
 40
0.5620618092000002
 40
0.5795930734
 40
0.5937211629
 40
0.61345655
 40
0.6176534565000003
 40
0.6219751751000003
 40
0.6318333840000001
 40
0.6443521819
 40
0.6601213719
 40
0.6793787677
 40
0.7021904973000001
 40
0.7285290591
 40
0.7583078212000001
 40
0.8276307807
 40
0.9087807914
 40
1.0
 40
1.0
 40
1.0
 40
1.0
 10
352.6743970444516
 20
214.9277218787872
 30
0.0
 10
352.4490584539819
 20
214.877815247786
 30
0.0
 10
352.0081196766988
 20
214.785634188305
 30
0.0
 10
351.3648073700208
 20
214.6684187812068
 30
0.0
 10
350.7659608452452
 20
214.5772567737565
 30
0.0
 10
350.2256965511553
 20
214.5142149690744
 30
0.0
 10
349.8175923361089
 20
214.4847053114315
 30
0.0
 10
349.5300737121472
 20
214.4780046314115
 30
0.0
 10
349.3467215874227
 20
214.4808924665146
 30
0.0
 10
349.186264141714
 20
214.4914531948905
 30
0.0
 10
349.0498624205232
 20
214.5092972073496
 30
0.0
 10
348.9371914665682
 20
214.5350762537607
 30
0.0
 10
348.8335180936631
 20
214.5728768534989
 30
0.0
 10
348.7596111250825
 20
214.6284651978838
 30
0.0
 10
348.7444230130499
 20
214.6890039895713
 30
0.0
 10
348.7447536288603
 20
214.7293630803567
 30
0.0
 10
348.7654869251749
 20
214.7852521159809
 30
0.0
 10
348.8149836231898
 20
214.8525003983502
 30
0.0
 10
348.8894452673451
 20
214.9248525482396
 30
0.0
 10
348.9890127262918
 20
215.0021596381173
 30
0.0
 10
349.1133728896459
 20
215.084247526084
 30
0.0
 10
349.2619654789235
 20
215.1706230317384
 30
0.0
 10
349.503897811119
 20
215.2973463638971
 30
0.0
 10
349.8610353365624
 20
215.4604337602521
 30
0.0
 10
350.3494872723716
 20
215.6561583873279
 30
0.0
 10
350.7027584149438
 20
215.7827918003138
 30
0.0
 10
350.8906189628798
 20
215.847079376277
 30
0.0
  0
SPLINE
  5
18919
330
1F
100
AcDbEntity
  8
02___PRT_ALL_AXES
  6
Continuous
 62
     7
100
AcDbSpline
210
0.0
220
0.0
230
1.0
 70
     8
 71
     3
 72
    25
 73
    21
 74
     0
 42
0.0000000001
 43
0.0000000001
 40
0.0
 40
0.0
 40
0.0
 40
0.0
 40
0.0149383602
 40
0.0326581034
 40
0.053125001
 40
0.0762667961
 40
0.1300842604
 40
0.1929338689
 40
0.2633309059
 40
0.3395639892
 40
0.5019049911
 40
0.6639674721
 40
0.7398602167
 40
0.8097947459999998
 40
0.8720727459
 40
0.9252260538999999
 40
0.9480076951
 40
0.9681049855999999
 40
0.9854448826
 40
1.0
 40
1.0
 40
1.0
 40
1.0
 10
353.9841534287445
 20
184.0756479791196
 30
0.0
 10
354.0523853758462
 20
184.0604121729973
 30
0.0
 10
354.2035546040026
 20
184.036081206508
 30
0.0
 10
354.4514339056954
 20
184.0151768301837
 30
0.0
 10
354.738460796609
 20
184.0069725483852
 30
0.0
 10
355.1944738276836
 20
184.0136288339151
 30
0.0
 10
355.8477138805886
 20
184.057791734888
 30
0.0
 10
356.7176964961402
 20
184.1574031447242
 30
0.0
 10
357.6871909216645
 20
184.3043585577877
 30
0.0
 10
359.1098033678393
 20
184.5643276364415
 30
0.0
 10
360.9400095508393
 20
184.9754711893263
 30
0.0
 10
362.7474732203011
 20
185.4712801340681
 30
0.0
 10
364.1206585952425
 20
185.9085055098764
 30
0.0
 10
365.0393971752621
 20
186.2323415579465
 30
0.0
 10
365.846538752525
 20
186.5508742630643
 30
0.0
 10
366.4366944133801
 20
186.8167453536423
 30
0.0
 10
366.835893701031
 20
187.023454392998
 30
0.0
 10
367.0802489016407
 20
187.1641345367477
 30
0.0
 10
367.2838808155341
 20
187.2975870020543
 30
0.0
 10
367.4021168454567
 20
187.3891836309665
 30
0.0
 10
367.4532151290553
 20
187.4342294071409
 30
0.0
  0
SPLINE
  5
1891A
330
1F
100
AcDbEntity
  8
0
  6
Continuous
 62
     7
100
AcDbSpline
210
0.0
220
0.0
230
1.0
 70
     8
 71
     3
 72
    22
 73
    18
 74
     0
 42
0.0000000001
 43
0.0000000001
 40
0.0
 40
0.0
 40
0.0
 40
0.0
 40
0.0087666378
 40
0.0177170098
 40
0.0379296371
 40
0.063468277
 40
0.0956328173
 40
0.1143919939
 40
0.1349729351
 40
0.1816298107
 40
0.2355787628
 40
0.2966575014
 40
0.3646150515
 40
0.439132505
 40
0.6062909800999999
 40
0.7946133705
 40
1.0
 40
1.0
 40
1.0
 40
1.0
 10
360.6215076720512
 20
215.5263034243578
 30
0.0
 10
360.6269232865345
 20
215.5135631664005
 30
0.0
 10
360.6347665672696
 20
215.4863525473299
 30
0.0
 10
360.6364939853595
 20
215.425904315425
 30
0.0
 10
360.6082623639306
 20
215.341825613729
 30
0.0
 10
360.5369576592023
 20
215.2406085737273
 30
0.0
 10
360.4513400079651
 20
215.1548659731568
 30
0.0
 10
360.3652346310157
 20
215.0817955916771
 30
0.0
 10
360.2574712998432
 20
214.9990717418912
 30
0.0
 10
360.0985251293171
 20
214.8921915982699
 30
0.0
 10
359.8786414625467
 20
214.7622372742706
 30
0.0
 10
359.6234483728879
 20
214.6265266166409
 30
0.0
 10
359.3343728932598
 20
214.485846024302
 30
0.0
 10
358.8885280195684
 20
214.2849810085715
 30
0.0
 10
358.2589933816891
 20
214.029871049446
 30
0.0
 10
357.4262635496727
 20
213.7278328356149
 30
0.0
 10
356.8354888840515
 20
213.5338277247308
 30
0.0
 10
356.5260716181622
 20
213.4366156444755
 30
0.0
  0
SPLINE
  5
1891B
330
1F
100
AcDbEntity
  8
0
  6
Continuous
 62
     7
100
AcDbSpline
210
0.0
220
0.0
230
1.0
 70
     8
 71
     3
 72
    22
 73
    18
 74
     0
 42
0.0000000001
 43
0.0000000001
 40
0.0
 40
0.0
 40
0.0
 40
0.0
 40
0.1934994439
 40
0.3781711544
 40
0.5473321629
 40
0.6241802389
 40
0.6949547178000001
 40
0.7590531526000001
 40
0.8159536784999998
 40
0.8652339156
 40
0.906602282
 40
0.939965323
 40
0.9655887986999999
 40
0.975809265
 40
0.9846238198999998
 40
0.9924775160999999
 40
1.0
 40
1.0
 40
1.0
 40
1.0
 10
353.6722489304777
 20
212.6496414838109
 30
0.0
 10
353.2322772616173
 20
212.5437768334557
 30
0.0
 10
352.3693196063725
 20
212.3494139017891
 30
0.0
 10
351.1122708684436
 20
212.1069453931084
 30
0.0
 10
350.1169200040678
 20
211.9508524968485
 30
0.0
 10
349.3814763508019
 20
211.8609936412902
 30
0.0
 10
348.8885349680679
 20
211.8136530200416
 30
0.0
 10
348.4409079420004
 20
211.7845193474529
 30
0.0
 10
348.0426957615657
 20
211.7737884009455
 30
0.0
 10
347.6975670195626
 20
211.781433539845
 30
0.0
 10
347.4082963205731
 20
211.8071628326541
 30
0.0
 10
347.1773705931922
 20
211.850569789455
 30
0.0
 10
347.0231346368821
 20
211.9044348337736
 30
0.0
 10
346.9341565940688
 20
211.960023771461
 30
0.0
 10
346.8879824324579
 20
212.0035199263546
 30
0.0
 10
346.8578985582792
 20
212.0523609441877
 30
0.0
 10
346.8494648967483
 20
212.0880624839226
 30
0.0
 10
346.8481207997942
 20
212.1056035751078
 30
0.0
  0
SPLINE
  5
1891C
330
1F
100
AcDbEntity
  8
02___PRT_ALL_AXES
  6
Continuous
 62
     7
100
AcDbSpline
210
0.0
220
0.0
230
1.0
 70
     8
 71
     3
 72
    15
 73
    11
 74
     0
 42
0.0000000001
 43
0.0000000001
 40
0.0
 40
0.0
 40
0.0
 40
0.0
 40
0.115597237
 40
0.2120533217
 40
0.3001891196
 40
0.3940068005
 40
0.5053434451
 40
0.6413330946000002
 40
0.8056673810999999
 40
1.0
 40
1.0
 40
1.0
 40
1.0
 10
351.8280169847697
 20
189.7852746957039
 30
0.0
 10
351.7990417629264
 20
189.8011958475106
 30
0.0
 10
351.7480392839718
 20
189.835091638846
 30
0.0
 10
351.6917422375229
 20
189.902216306285
 30
0.0
 10
351.6683924871434
 20
189.9809462282844
 30
0.0
 10
351.6804100039374
 20
190.0659904977508
 30
0.0
 10
351.7233704332613
 20
190.154667392451
 30
0.0
 10
351.7953385300973
 20
190.2485088102964
 30
0.0
 10
351.896208389335
 20
190.3481220530518
 30
0.0
 10
351.9758844215614
 20
190.4129399134106
 30
0.0
 10
352.0201250261909
 20
190.446583510188
 30
0.0
  0
SPLINE
  5
1891D
330
1F
100
AcDbEntity
  8
02___PRT_ALL_AXES
  6
Continuous
 62
     7
100
AcDbSpline
210
0.0
220
0.0
230
1.0
 70
     8
 71
     3
 72
     9
 73
     5
 74
     0
 42
0.0000000001
 43
0.0000000001
 40
0.0
 40
0.0
 40
0.0
 40
0.0
 40
0.555590127
 40
1.0
 40
1.0
 40
1.0
 40
1.0
 10
366.2457027937855
 20
193.956458929684
 30
0.0
 10
366.3083735512156
 20
193.9444787229028
 30
0.0
 10
366.4203223958796
 20
193.9180732157072
 30
0.0
 10
366.5280379258295
 20
193.8758856499442
 30
0.0
 10
366.5727675375241
 20
193.8513078592057
 30
0.0
  0
SPLINE
  5
1891E
330
1F
100
AcDbEntity
  8
02___PRT_ALL_AXES
  6
Continuous
 62
     7
100
AcDbSpline
210
0.0
220
0.0
230
1.0
 70
     8
 71
     3
 72
    15
 73
    11
 74
     0
 42
0.0000000001
 43
0.0000000001
 40
0.0
 40
0.0
 40
0.0
 40
0.0
 40
0.1231343341
 40
0.2467966752
 40
0.3713326424
 40
0.4967801294
 40
0.6228649925000001
 40
0.7491026172000002
 40
0.8749443712999999
 40
1.0
 40
1.0
 40
1.0
 40
1.0
 10
362.1371376549653
 20
189.2755093932426
 30
0.0
 10
362.2216776895878
 20
189.2290470068816
 30
0.0
 10
362.3777899756826
 20
189.1090207518844
 30
0.0
 10
362.5469024285087
 20
188.8670703611713
 30
0.0
 10
362.6374733428204
 20
188.5840676088461
 30
0.0
 10
362.6415301691306
 20
188.2852140889324
 30
0.0
 10
362.559115865952
 20
187.9966070831576
 30
0.0
 10
362.3974052106098
 20
187.7433482847789
 30
0.0
 10
362.1707947679827
 20
187.547542793224
 30
0.0
 10
361.9880649690788
 20
187.4663221452608
 30
0.0
 10
361.8936186215835
 20
187.4402774876159
 30
0.0
  0
SPLINE
  5
1891F
330
1F
100
AcDbEntity
  8
0
  6
Continuous
 62
     7
100
AcDbSpline
210
0.0
220
0.0
230
1.0
 70
     8
 71
     3
 72
    19
 73
    15
 74
     0
 42
0.0000000001
 43
0.0000000001
 40
0.0
 40
0.0
 40
0.0
 40
0.0
 40
0.0218096662
 40
0.0461050896
 40
0.0747070642
 40
0.1087063805
 40
0.1487157478
 40
0.1950447251
 40
0.2478276689999999
 40
0.3071036767
 40
0.4448410958000001
 40
0.6073206828000001
 40
0.7930777067000001
 40
1.0
 40
1.0
 40
1.0
 40
1.0
 10
370.1140526579222
 20
193.5118090738194
 30
0.0
 10
370.1216191853202
 20
193.4813602923111
 30
0.0
 10
370.1254389380304
 20
193.4135394998754
 30
0.0
 10
370.0962923236077
 20
193.3087110424292
 30
0.0
 10
370.0353460108165
 20
193.1986666907412
 30
0.0
 10
369.9433745756217
 20
193.0826263947372
 30
0.0
 10
369.820494467029
 20
192.9602838068165
 30
0.0
 10
369.6668802232891
 20
192.8317128188935
 30
0.0
 10
369.4828381172667
 20
192.6971638403317
 30
0.0
 10
369.1820248095467
 20
192.5003560747679
 30
0.0
 10
368.7315911635562
 20
192.2452934176688
 30
0.0
 10
368.1047677556164
 20
191.9352021909487
 30
0.0
 10
367.3744023947987
 20
191.6116294961218
 30
0.0
 10
366.8504875137788
 20
191.4001308741533
 30
0.0
 10
366.5730080429786
 20
191.2923602796743
 30
0.0
  0
SPLINE
  5
18920
330
1F
100
AcDbEntity
  8
02___PRT_ALL_AXES
  6
Continuous
 62
     7
100
AcDbSpline
210
0.0
220
0.0
230
1.0
 70
     8
 71
     3
 72
     9
 73
     5
 74
     0
 42
0.0000000001
 43
0.0000000001
 40
0.0
 40
0.0
 40
0.0
 40
0.0
 40
0.271835498
 40
1.0
 40
1.0
 40
1.0
 40
1.0
 10
352.1845178270344
 20
190.3959214256463
 30
0.0
 10
352.1762246137116
 20
190.4004783366142
 30
0.0
 10
352.1461971271858
 20
190.4180550259295
 30
0.0
 10
352.1180898766581
 20
190.4392504565546
 30
0.0
 10
352.1001464312978
 20
190.4571540641296
 30
0.0
  0
SPLINE
  5
18921
330
1F
100
AcDbEntity
  8
02___PRT_ALL_AXES
  6
Continuous
 62
     7
100
AcDbSpline
210
0.0
220
0.0
230
1.0
 70
     8
 71
     3
 72
     9
 73
     5
 74
     0
 42
0.0000000001
 43
0.0000000001
 40
0.0
 40
0.0
 40
0.0
 40
0.0
 40
0.5198435512
 40
1.0
 40
1.0
 40
1.0
 40
1.0
 10
352.1001464312978
 20
190.4571540641296
 30
0.0
 10
352.086835716462
 20
190.470435226747
 30
0.0
 10
352.0637374266046
 20
190.4988150381484
 30
0.0
 10
352.0494065501901
 20
190.5326938886762
 30
0.0
 10
352.0452063850973
 20
190.5495461433363
 30
0.0
  0
ENDSEC
  0
SECTION
  2
OBJECTS
  0
DICTIONARY
  5
C
330
0
100
AcDbDictionary
281
     1
  3
ACAD_COLOR
350
4FFE
  3
ACAD_GROUP
350
D
  3
ACAD_LAYOUT
350
1A
  3
ACAD_MATERIAL
350
4FE5
  3
ACAD_MLEADERSTYLE
350
5022
  3
ACAD_MLINESTYLE
350
17
  3
ACAD_PLOTSETTINGS
350
19
  3
ACAD_PLOTSTYLENAME
350
E
  3
ACAD_RENDER_PLOT_SETTINGS
350
6537
  3
ACAD_SCALELIST
350
5000
  3
ACAD_TABLESTYLE
350
4FE3
  3
ACAD_VISUALSTYLE
350
2A
  3
ACDB_RECOMPOSE_DATA
350
50EC
  3
AcDbVariableDictionary
350
5108
  3
ASE_INDEX_DICTIONARY
350
13AB8
  0
DICTIONARY
  5
50EE
330
8
100
AcDbDictionary
280
     1
281
     1
  0
DICTIONARY
  5
50B8
330
2
100
AcDbDictionary
280
     1
281
     1
  3
ACAD_LAYERFILTERS
360
17549
  3
ACAD_LAYERSTATES
360
50B9
  3
ACLYDICTIONARY
360
17548
  0
DICTIONARY
  5
50D0
330
10
100
AcDbDictionary
280
     1
281
     1
  3
ADSK_XREC_LAYER_RECONCILED
360
50D1
  0
DICTIONARY
  5
50D2
330
3B
100
AcDbDictionary
280
     1
281
     1
  3
ADSK_XREC_LAYER_RECONCILED
360
50D3
  0
DICTIONARY
  5
50AF
330
50AE
100
AcDbDictionary
280
     1
281
     1
  3
ADSK_XREC_LAYER_RECONCILED
360
50D4
  0
DICTIONARY
  5
18518
330
18517
100
AcDbDictionary
280
     1
281
     1
  0
DICTIONARY
  5
1851A
330
18519
100
AcDbDictionary
280
     1
281
     1
  0
DICTIONARY
  5
1851C
330
1851B
100
AcDbDictionary
280
     1
281
     1
  0
DICTIONARY
  5
67C0
330
1F
100
AcDbDictionary
280
     1
281
     1
  3
ACAD_SORTENTS
360
67C1
  0
DICTIONARY
  5
18A2F
330
10FE8
100
AcDbDictionary
280
     1
281
     1
  0
DICTIONARY
  5
184A7
330
184A6
100
AcDbDictionary
280
     1
281
     1
  3
ACAD_SORTENTS
360
184A8
  0
DICTIONARY
  5
18A60
330
1899A
100
AcDbDictionary
280
     1
281
     1
  3
ACAD_MTEXT_2008_RT
360
18A61
  0
DICTIONARY
  5
18A62
330
189DE
100
AcDbDictionary
280
     1
281
     1
  3
ACAD_MTEXT_2008_RT
360
18A63
  0
DICTIONARY
  5
18A64
330
189DF
100
AcDbDictionary
280
     1
281
     1
  3
ACAD_MTEXT_2008_RT
360
18A65
  0
DICTIONARY
  5
18A66
330
18A04
100
AcDbDictionary
280
     1
281
     1
  3
ACAD_MTEXT_2008_RT
360
18A67
  0
DICTIONARY
  5
18A68
330
18A07
100
AcDbDictionary
280
     1
281
     1
  3
ACAD_MTEXT_2008_RT
360
18A69
  0
DICTIONARY
  5
18A6A
330
18A08
100
AcDbDictionary
280
     1
281
     1
  3
ACAD_MTEXT_2008_RT
360
18A6B
  0
DICTIONARY
  5
18A6C
330
18A12
100
AcDbDictionary
280
     1
281
     1
  3
ACAD_MTEXT_2008_RT
360
18A6D
  0
DICTIONARY
  5
18A6E
330
18A13
100
AcDbDictionary
280
     1
281
     1
  3
ACAD_MTEXT_2008_RT
360
18A6F
  0
DICTIONARY
  5
18A70
330
18A14
100
AcDbDictionary
280
     1
281
     1
  3
ACAD_MTEXT_2008_RT
360
18A71
  0
DICTIONARY
  5
18A72
330
18A22
100
AcDbDictionary
280
     1
281
     1
  3
ACAD_MTEXT_2008_RT
360
18A73
  0
DICTIONARY
  5
18A74
330
18A23
100
AcDbDictionary
280
     1
281
     1
  3
ACAD_MTEXT_2008_RT
360
18A75
  0
DICTIONARY
  5
18A76
330
18A24
100
AcDbDictionary
280
     1
281
     1
  3
ACAD_MTEXT_2008_RT
360
18A77
  0
DICTIONARY
  5
18A5E
330
1338B
100
AcDbDictionary
280
     1
281
     1
  3
ACAD_MTEXT_2008_RT
360
18A5F
  0
DICTIONARY
  5
182AE
330
182AD
100
AcDbDictionary
280
     1
281
     1
  3
ACAD_DIMASSOC
360
182AF
  0
DICTIONARY
  5
4FFE
102
{ACAD_REACTORS
330
C
102
}
330
C
100
AcDbDictionary
281
     1
  0
DICTIONARY
  5
D
102
{ACAD_REACTORS
330
C
102
}
330
C
100
AcDbDictionary
281
     1
  0
DICTIONARY
  5
1A
102
{ACAD_REACTORS
330
C
102
}
330
C
100
AcDbDictionary
281
     1
  3
Layout1
350
1E
  3
Layout2
350
26
  3
Model
350
22
  0
DICTIONARY
  5
4FE5
102
{ACAD_REACTORS
330
C
102
}
330
C
100
AcDbDictionary
281
     1
  3
ByBlock
350
4FEE
  3
ByLayer
350
4FE6
  3
Global
350
4FF6
  0
DICTIONARY
  5
5022
102
{ACAD_REACTORS
330
C
102
}
330
C
100
AcDbDictionary
281
     1
  3
Standard
350
5023
  0
DICTIONARY
  5
17
102
{ACAD_REACTORS
330
C
102
}
330
C
100
AcDbDictionary
281
     1
  3
Standard
350
18
  0
DICTIONARY
  5
19
102
{ACAD_REACTORS
330
C
102
}
330
C
100
AcDbDictionary
281
     1
  0
ACDBDICTIONARYWDFLT
  5
E
102
{ACAD_REACTORS
330
C
102
}
330
C
100
AcDbDictionary
281
     1
  3
Normal
350
F
100
AcDbDictionaryWithDefault
340
F
  0
DICTIONARY
  5
6537
102
{ACAD_REACTORS
330
C
102
}
330
C
100
AcDbDictionary
281
     1
  3
{1DC63513-1B1A-422F-9880-65CFD2B8D533}
350
6538
  0
DICTIONARY
  5
5000
102
{ACAD_REACTORS
330
C
102
}
330
C
100
AcDbDictionary
281
     1
  3
A0
350
5001
  3
A1
350
5002
  3
A2
350
5003
  3
A3
350
5004
  3
A4
350
5005
  3
A5
350
5006
  3
A6
350
5007
  3
A7
350
5008
  3
A8
350
5009
  3
A9
350
500A
  3
B0
350
500B
  3
B1
350
500C
  3
B2
350
500D
  3
B3
350
500E
  3
B4
350
500F
  3
B5
350
5010
  3
B6
350
5011
  3
B7
350
5012
  3
B8
350
5013
  3
B9
350
5014
  3
C0
350
5015
  3
C1
350
5016
  3
C2
350
5017
  3
C3
350
5018
  3
C4
350
5019
  3
C5
350
501A
  3
C6
350
501B
  3
C7
350
501C
  3
C8
350
501D
  3
C9
350
501E
  3
D0
350
501F
  3
D1
350
5020
  3
D2
350
5021
  0
DICTIONARY
  5
4FE3
102
{ACAD_REACTORS
330
C
102
}
330
C
100
AcDbDictionary
281
     1
  3
Standard
350
4FFF
  0
DICTIONARY
  5
2A
102
{ACAD_REACTORS
330
C
102
}
330
C
100
AcDbDictionary
281
     1
  3
2dWireframe
350
2F
  3
3D Hidden
350
31
  3
3dWireframe
350
30
  3
Basic
350
32
  3
Brighten
350
36
  3
ColorChange
350
3A
  3
Conceptual
350
34
  3
Dim
350
35
  3
Facepattern
350
39
  3
Flat
350
2B
  3
FlatWithEdges
350
2C
  3
Gouraud
350
2D
  3
GouraudWithEdges
350
2E
  3
Linepattern
350
38
  3
Realistic
350
33
  3
Thicken
350
37
  0
XRECORD
  5
50EC
102
{ACAD_REACTORS
330
C
102
}
330
C
100
AcDbXrecord
280
     1
 90
        1
330
4FFF
330
1338B
330
1899A
330
189DE
330
189DF
330
18A04
330
18A07
330
18A08
330
18A12
330
18A13
330
18A14
330
18A22
330
18A23
330
18A24
  0
DICTIONARY
  5
5108
102
{ACAD_REACTORS
330
C
102
}
330
C
100
AcDbDictionary
281
     1
  3
CANNOSCALE
350
510B
  3
CMLEADERSTYLE
350
510A
  3
CTABLESTYLE
350
5109
  3
DIMASSOC
350
510E
  3
INDEXCTL
350
510D
  3
LIGHTINGUNITS
350
18A4F
  3
MSLTSCALE
350
18A4E
  3
SORTENTS
350
510C
  0
DICTIONARY
  5
13AB8
102
{ACAD_REACTORS
330
C
102
}
330
C
100
AcDbDictionary
281
     1
  3
ASEBlockHierarchyIndexRecord
350
13AB9
1001
DCO15
1040
1903428683.781
  0
DICTIONARY
  5
17549
102
{ACAD_REACTORS
330
50B8
102
}
330
50B8
100
AcDbDictionary
281
     1
  0
DICTIONARY
  5
50B9
102
{ACAD_REACTORS
330
50B8
102
}
330
50B8
100
AcDbDictionary
281
     1
  0
DICTIONARY
  5
17548
102
{ACAD_REACTORS
330
50B8
102
}
330
50B8
100
AcDbDictionary
281
     1
1001
ACAD
1000
<All
  0
XRECORD
  5
50D1
102
{ACAD_REACTORS
330
50D0
102
}
330
50D0
100
AcDbXrecord
280
     1
290
     1
  0
XRECORD
  5
50D3
102
{ACAD_REACTORS
330
50D2
102
}
330
50D2
100
AcDbXrecord
280
     1
290
     1
  0
XRECORD
  5
50D4
102
{ACAD_REACTORS
330
50AF
102
}
330
50AF
100
AcDbXrecord
280
     1
290
     1
  0
SORTENTSTABLE
  5
67C1
102
{ACAD_REACTORS
330
67C0
102
}
330
67C0
100
AcDbSortentsTable
330
1F
331
35D8
  5
3807
331
1382C
  5
1382C
331
1382A
  5
1382A
331
2F93
  5
2FDE
331
28AE
  5
2A38
331
2EE7
  5
2F93
331
35C8
  5
35D8
331
2FDE
  5
35C8
331
3943
  5
4842
331
1382D
  5
1382D
331
2C65
  5
2EE7
331
1382B
  5
1382B
331
3895
  5
3943
331
13829
  5
13829
331
4842
  5
4E94
331
3807
  5
3895
331
1338B
  5
1338B
  0
SORTENTSTABLE
  5
184A8
102
{ACAD_REACTORS
330
184A7
102
}
330
184A7
100
AcDbSortentsTable
330
184A6
  0
XRECORD
  5
18A61
102
{ACAD_REACTORS
330
18A60
102
}
330
18A60
100
AcDbXrecord
280
     1
 40
1527.0
  1
\pxqc;BQ LUO
  0
XRECORD
  5
18A63
102
{ACAD_REACTORS
330
18A62
102
}
330
18A62
100
AcDbXrecord
280
     1
 40
1262561.0
  1
\pxqc;档案员{\H0.7x;\P\Fromans|c134;Filing Clerk\fFangSong_GB2312|b0|i0|c134|p49; }
  0
XRECORD
  5
18A65
102
{ACAD_REACTORS
330
18A64
102
}
330
18A64
100
AcDbXrecord
280
     1
 40
650528.0
  1
\pxqc;日期{\Fromans|c134;/Date}
  0
XRECORD
  5
18A67
102
{ACAD_REACTORS
330
18A66
102
}
330
18A66
100
AcDbXrecord
280
     1
 40
1836818.0
  1
\pxsm0.7;{\fFangSong_GB2312|b0|i0|c134|p49;标准化}\PStand.
  0
XRECORD
  5
18A69
102
{ACAD_REACTORS
330
18A68
102
}
330
18A68
100
AcDbXrecord
280
     1
 40
118135.0
  1
\pxsm0.7;签名\P{\Fromans|c134;Signature} 
  0
XRECORD
  5
18A6B
102
{ACAD_REACTORS
330
18A6A
102
}
330
18A6A
100
AcDbXrecord
280
     1
 40
108939.0
  1
\pxsm0.7,qc;处数\P{\Fromans|c134;Number }
  0
XRECORD
  5
18A6D
102
{ACAD_REACTORS
330
18A6C
102
}
330
18A6C
100
AcDbXrecord
280
     1
 40
125762.0
  1
\pxsm0.7;标记\P{\Fromans|c134;Mark}
  0
XRECORD
  5
18A6F
102
{ACAD_REACTORS
330
18A6E
102
}
330
18A6E
100
AcDbXrecord
280
     1
 40
111973.0
  1
\pxsm0.7;审核\P{\Fromans|c134;Checked}
  0
XRECORD
  5
18A71
102
{ACAD_REACTORS
330
18A70
102
}
330
18A70
100
AcDbXrecord
280
     1
 40
137968.0
  1
\pxsm0.7;绘图\P{\Fromans|c134;Drawn\Ftxt|c134; }
  0
XRECORD
  5
18A73
102
{ACAD_REACTORS
330
18A72
102
}
330
18A72
100
AcDbXrecord
280
     1
 40
106320.0
  1
\pxsm0.7;批准\P{\Fromans|c134;Approved}
  0
XRECORD
  5
18A75
102
{ACAD_REACTORS
330
18A74
102
}
330
18A74
100
AcDbXrecord
280
     1
 40
127283.0
  1
\pxsm0.7;工艺\P{\Fromans|c134;Process}
  0
XRECORD
  5
18A77
102
{ACAD_REACTORS
330
18A76
102
}
330
18A76
100
AcDbXrecord
280
     1
 40
106220.0
  1
\pxsm0.7;日期\P{\Fromans|c134;Date}
  0
XRECORD
  5
18A5F
102
{ACAD_REACTORS
330
18A5E
102
}
330
18A5E
100
AcDbXrecord
280
     1
 40
727408589.0
  1
\A1;\pxql;{\f仿宋_GB2312|b0|i0|c134|p49;技术参数}:\P\pq*;- {\f仿宋_GB2312|b0|i0|c134|p49;材料}: {\f仿宋_GB2312|b0|i0|c134|p49;铜合金}\P- {\f仿宋_GB2312|b0|i0|c134|p49;表面处理}: {\f仿宋_GB2312|b0|i0|c134|p49;镀银}\P\pql;- {\f仿宋_GB2312|b0|i0|c134|p49;额定电流}: 350A\P- {\f仿宋_GB23
  1
12|b0|i0|c134|p49;接触电阻}: ≤0.3mΩ\P- {\f仿宋_GB2312|b0|i0|c134|p49;线径范围}: 50mm{\H0.7x;\S2^ ;}\P- {\f仿宋_GB2312|b0|i0|c134|p49;剥线长度}: 28mm\P- {\f仿宋_GB2312|b0|i0|c134|p49;最大电缆直径}: 22mm\P- {\f仿宋_GB2312|b0|i0|c134|p49;冷压模具}: {\f仿宋_GB2312|b0|i0|c134|p49;按照} DIN
  1
 46 235\P- {\f仿宋_GB2312|b0|i0|c134|p49;压力要求}: 130kN\P\pq*;- {\f仿宋_GB2312|b0|i0|c134|p49;可插拔次数}: {\f仿宋_GB2312|b0|i0|c134|p49;≥}500\P\P\pql;Technical specification:\P- Material: copper alloy\P- Surface: hard-silver plated\P- Rated current: 350A\P- Cont
  1
act resistance: ≤0.3mΩ\P- Wire gauge: 50mm{\H0.7x;\S2^ ;}\P- Stripping length: 22mm\P- Max. insulation diameter: 22mm\P- Crimp dies: acc. to DIN 46 235\P- Pressing force: 130kN\P- Mating cycles: {\f仿宋_GB2312|b0|i0|c134|p49;≥}500
  0
DIMASSOC
  5
182AF
102
{ACAD_REACTORS
330
182AE
102
}
330
182AE
100
AcDbDimAssoc
330
182AD
 90
        3
 70
     0
 71
     0
  1
AcDbOsnapPointRef
 72
    10
331
181EB
 73
     2
 91
        0
 40
0.4771901893357068
 10
0.0
 20
0.0
 30
0.0
 75
     0
  1
AcDbOsnapPointRef
 72
    10
331
181EA
 73
     2
 91
        0
 40
0.4609261302151177
 10
0.0
 20
0.0
 30
0.0
 75
     0
  0
LAYOUT
  5
1E
102
{ACAD_REACTORS
330
1A
102
}
330
1A
100
AcDbPlotSettings
  1

  2
none_device
  4

  6

 40
0.0
 41
0.0
 42
0.0
 43
0.0
 44
0.0
 45
0.0
 46
0.0
 47
0.0
 48
0.0
 49
0.0
140
0.0
141
0.0
142
1.0
143
1.0
 70
   688
 72
     0
 73
     0
 74
     5
  7

 75
    16
147
1.0
 76
     0
 77
     2
 78
   300
148
0.0
149
0.0
100
AcDbLayout
  1
Layout1
 70
     1
 71
     1
 10
0.0
 20
0.0
 11
12.0
 21
9.0
 12
0.0
 22
0.0
 32
0.0
 14
1.000000000000000E+20
 24
1.000000000000000E+20
 34
1.000000000000000E+20
 15
-1.000000000000000E+20
 25
-1.000000000000000E+20
 35
-1.000000000000000E+20
146
0.0
 13
0.0
 23
0.0
 33
0.0
 16
1.0
 26
0.0
 36
0.0
 17
0.0
 27
1.0
 37
0.0
 76
     0
330
1B
  0
LAYOUT
  5
26
102
{ACAD_REACTORS
330
1A
102
}
330
1A
100
AcDbPlotSettings
  1

  2
none_device
  4

  6

 40
0.0
 41
0.0
 42
0.0
 43
0.0
 44
0.0
 45
0.0
 46
0.0
 47
0.0
 48
0.0
 49
0.0
140
0.0
141
0.0
142
1.0
143
1.0
 70
   688
 72
     0
 73
     0
 74
     5
  7

 75
    16
147
1.0
 76
     0
 77
     2
 78
   300
148
0.0
149
0.0
100
AcDbLayout
  1
Layout2
 70
     1
 71
     2
 10
0.0
 20
0.0
 11
0.0
 21
0.0
 12
0.0
 22
0.0
 32
0.0
 14
0.0
 24
0.0
 34
0.0
 15
0.0
 25
0.0
 35
0.0
146
0.0
 13
0.0
 23
0.0
 33
0.0
 16
1.0
 26
0.0
 36
0.0
 17
0.0
 27
1.0
 37
0.0
 76
     0
330
23
  0
LAYOUT
  5
22
102
{ACAD_REACTORS
330
1A
102
}
330
1A
100
AcDbPlotSettings
  1

  2
Adobe PDF Converter.pc3
  4
A4
  6

 40
3.174999952316281
 41
3.174999952316281
 42
3.17498779296875
 43
3.175003051757812
 44
297.0318298339844
 45
209.9733276367186
 46
0.0000000000000076
 47
1.630241740247063
 48
246.9897427644609
 49
39.36804549891383
140
544.952097801264
141
244.7492402188181
142
1.0
143
1.025046328645055
 70
  3764
 72
     1
 73
     0
 74
     4
  7
monochrome.ctb
 75
     0
147
0.9755656618192436
 76
     1
 77
     2
 78
   300
148
-246.9897427644609
149
-39.36804549891383
100
AcDbLayout
  1
Model
 70
     1
 71
     0
 10
0.0
 20
0.0
 11
12.0
 21
9.0
 12
0.0
 22
0.0
 32
0.0
 14
1.000000000000000E+20
 24
1.000000000000000E+20
 34
1.000000000000000E+20
 15
-1.000000000000000E+20
 25
-1.000000000000000E+20
 35
-1.000000000000000E+20
146
0.0
 13
0.0
 23
0.0
 33
0.0
 16
1.0
 26
0.0
 36
0.0
 17
0.0
 27
1.0
 37
0.0
 76
     0
330
1F
331
29
1001
ACAD_PSEXT
1000
Adobe PDF Converter.pc3
1000
Adobe PDF Converter
1000
桌面\*.pdf
1000

1070
     0
  0
MATERIAL
  5
4FEE
102
{ACAD_XDICTIONARY
360
4FEF
102
}
102
{ACAD_REACTORS
330
4FE5
102
}
330
4FE5
100
AcDbMaterial
  1
ByBlock
 72
     0
 43
0.0208333333333333
 43
0.0
 43
0.0
 43
0.0
 43
0.0
 43
0.0208333333333333
 43
0.0
 43
0.0
 43
0.0
 43
0.0
 43
1.0
 43
0.0
 43
0.0
 43
0.0
 43
0.0
 43
1.0
 77
     0
 47
0.0208333333333333
 47
0.0
 47
0.0
 47
0.0
 47
0.0
 47
0.0208333333333333
 47
0.0
 47
0.0
 47
0.0
 47
0.0
 47
1.0
 47
0.0
 47
0.0
 47
0.0
 47
0.0
 47
1.0
171
     0
 49
0.0208333333333333
 49
0.0
 49
0.0
 49
0.0
 49
0.0
 49
0.0208333333333333
 49
0.0
 49
0.0
 49
0.0
 49
0.0
 49
1.0
 49
0.0
 49
0.0
 49
0.0
 49
0.0
 49
1.0
175
     0
142
0.0208333333333333
142
0.0
142
0.0
142
0.0
142
0.0
142
0.0208333333333333
142
0.0
142
0.0
142
0.0
142
0.0
142
1.0
142
0.0
142
0.0
142
0.0
142
0.0
142
1.0
179
     0
144
0.0208333333333333
144
0.0
144
0.0
144
0.0
144
0.0
144
0.0208333333333333
144
0.0
144
0.0
144
0.0
144
0.0
144
1.0
144
0.0
144
0.0
144
0.0
144
0.0
144
1.0
147
0.0208333333333333
147
0.0
147
0.0
147
0.0
147
0.0
147
0.0208333333333333
147
0.0
147
0.0
147
0.0
147
0.0
147
1.0
147
0.0
147
0.0
147
0.0
147
0.0
147
1.0
  0
MATERIAL
  5
4FE6
102
{ACAD_XDICTIONARY
360
4FE7
102
}
102
{ACAD_REACTORS
330
4FE5
102
}
330
4FE5
100
AcDbMaterial
  1
ByLayer
 72
     0
 43
0.0208333333333333
 43
0.0
 43
0.0
 43
0.0
 43
0.0
 43
0.0208333333333333
 43
0.0
 43
0.0
 43
0.0
 43
0.0
 43
1.0
 43
0.0
 43
0.0
 43
0.0
 43
0.0
 43
1.0
 77
     0
 47
0.0208333333333333
 47
0.0
 47
0.0
 47
0.0
 47
0.0
 47
0.0208333333333333
 47
0.0
 47
0.0
 47
0.0
 47
0.0
 47
1.0
 47
0.0
 47
0.0
 47
0.0
 47
0.0
 47
1.0
171
     0
 49
0.0208333333333333
 49
0.0
 49
0.0
 49
0.0
 49
0.0
 49
0.0208333333333333
 49
0.0
 49
0.0
 49
0.0
 49
0.0
 49
1.0
 49
0.0
 49
0.0
 49
0.0
 49
0.0
 49
1.0
175
     0
142
0.0208333333333333
142
0.0
142
0.0
142
0.0
142
0.0
142
0.0208333333333333
142
0.0
142
0.0
142
0.0
142
0.0
142
1.0
142
0.0
142
0.0
142
0.0
142
0.0
142
1.0
179
     0
144
0.0208333333333333
144
0.0
144
0.0
144
0.0
144
0.0
144
0.0208333333333333
144
0.0
144
0.0
144
0.0
144
0.0
144
1.0
144
0.0
144
0.0
144
0.0
144
0.0
144
1.0
147
0.0208333333333333
147
0.0
147
0.0
147
0.0
147
0.0
147
0.0208333333333333
147
0.0
147
0.0
147
0.0
147
0.0
147
1.0
147
0.0
147
0.0
147
0.0
147
0.0
147
1.0
  0
MATERIAL
  5
4FF6
102
{ACAD_XDICTIONARY
360
4FF7
102
}
102
{ACAD_REACTORS
330
4FE5
102
}
330
4FE5
100
AcDbMaterial
  1
Global
 72
     0
 43
0.0208333333333333
 43
0.0
 43
0.0
 43
0.0
 43
0.0
 43
0.0208333333333333
 43
0.0
 43
0.0
 43
0.0
 43
0.0
 43
1.0
 43
0.0
 43
0.0
 43
0.0
 43
0.0
 43
1.0
 77
     0
 47
0.0208333333333333
 47
0.0
 47
0.0
 47
0.0
 47
0.0
 47
0.0208333333333333
 47
0.0
 47
0.0
 47
0.0
 47
0.0
 47
1.0
 47
0.0
 47
0.0
 47
0.0
 47
0.0
 47
1.0
171
     0
 49
0.0208333333333333
 49
0.0
 49
0.0
 49
0.0
 49
0.0
 49
0.0208333333333333
 49
0.0
 49
0.0
 49
0.0
 49
0.0
 49
1.0
 49
0.0
 49
0.0
 49
0.0
 49
0.0
 49
1.0
175
     0
142
0.0208333333333333
142
0.0
142
0.0
142
0.0
142
0.0
142
0.0208333333333333
142
0.0
142
0.0
142
0.0
142
0.0
142
1.0
142
0.0
142
0.0
142
0.0
142
0.0
142
1.0
179
     0
144
0.0208333333333333
144
0.0
144
0.0
144
0.0
144
0.0
144
0.0208333333333333
144
0.0
144
0.0
144
0.0
144
0.0
144
1.0
144
0.0
144
0.0
144
0.0
144
0.0
144
1.0
147
0.0208333333333333
147
0.0
147
0.0
147
0.0
147
0.0
147
0.0208333333333333
147
0.0
147
0.0
147
0.0
147
0.0
147
1.0
147
0.0
147
0.0
147
0.0
147
0.0
147
1.0
  0
MLEADERSTYLE
  5
5023
102
{ACAD_REACTORS
330
5022
102
}
330
5022
100
AcDbMLeaderStyle
170
     2
171
     1
172
     0
 90
        2
 40
0.0
 41
0.0
173
     1
 91
-1056964608
340
14
 92
       -2
290
     1
 42
0.09
291
     1
 43
0.36
  3
Standard
 44
0.18
300

342
11
174
     1
178
     6
175
     1
176
     0
 93
-1056964608
 45
0.18
292
     0
297
     0
 46
0.18
 94
-1056964608
 47
1.0
 49
1.0
140
1.0
293
     1
141
0.0
294
     1
177
     0
142
1.0
295
     0
296
     0
143
0.125
1001
ACAD_MLEADERVER
1070
     2
  0
MLINESTYLE
  5
18
102
{ACAD_REACTORS
330
17
102
}
330
17
100
AcDbMlineStyle
  2
STANDARD
 70
     0
  3

 62
   256
 51
90.0
 52
90.0
 71
     2
 49
0.5
 62
   256
  6
BYLAYER
 49
-0.5
 62
   256
  6
BYLAYER
  0
ACDBPLACEHOLDER
  5
F
102
{ACAD_REACTORS
330
E
102
}
330
E
  0
MENTALRAYRENDERSETTINGS
  5
6538
102
{ACAD_REACTORS
330
6537
102
}
330
6537
100
AcDbRenderSettings
 90
        2
  1
中
290
     1
290
     1
290
     1
290
     1
  1

  1
渲染质量好于“低级”。包括纹理过滤并且强制双面处于激活状态。处理中等级反锯齿和 5 反射/折射的光线跟踪深度。
 90
        0
100
AcDbMentalRayRenderSettings
 90
        2
 90
        0
 90
        1
 70
     2
 40
3.0
 40
3.0
 40
0.0500000007450581
 40
0.0500000007450581
 40
0.0500000007450581
 40
0.0500000007450581
 70
     0
290
     0
290
     1
 90
        5
 90
        5
 90
        5
290
     0
 90
      500
290
     0
 40
1.0
 90
    10000
 90
        5
 90
        5
 90
        5
290
     0
 90
      200
290
     0
290
     0
290
     0
 40
0.1
 40
1.0
 40
1500.0
 70
     0
 70
     0
 40
10.0
 70
     0
 70
     0
290
     0
  1

 90
       32
 70
     0
 90
     1048
290
     0
 40
1.0
  0
SCALE
  5
5001
102
{ACAD_REACTORS
330
5000
102
}
330
5000
100
AcDbScale
 70
     0
300
1:1
140
1.0
141
1.0
290
     1
  0
SCALE
  5
5002
102
{ACAD_REACTORS
330
5000
102
}
330
5000
100
AcDbScale
 70
     0
300
1:2
140
1.0
141
2.0
290
     0
  0
SCALE
  5
5003
102
{ACAD_REACTORS
330
5000
102
}
330
5000
100
AcDbScale
 70
     0
300
1:4
140
1.0
141
4.0
290
     0
  0
SCALE
  5
5004
102
{ACAD_REACTORS
330
5000
102
}
330
5000
100
AcDbScale
 70
     0
300
1:5
140
1.0
141
5.0
290
     0
  0
SCALE
  5
5005
102
{ACAD_REACTORS
330
5000
102
}
330
5000
100
AcDbScale
 70
     0
300
1:8
140
1.0
141
8.0
290
     0
  0
SCALE
  5
5006
102
{ACAD_REACTORS
330
5000
102
}
330
5000
100
AcDbScale
 70
     0
300
1:10
140
1.0
141
10.0
290
     0
  0
SCALE
  5
5007
102
{ACAD_REACTORS
330
5000
102
}
330
5000
100
AcDbScale
 70
     0
300
1:16
140
1.0
141
16.0
290
     0
  0
SCALE
  5
5008
102
{ACAD_REACTORS
330
5000
102
}
330
5000
100
AcDbScale
 70
     0
300
1:20
140
1.0
141
20.0
290
     0
  0
SCALE
  5
5009
102
{ACAD_REACTORS
330
5000
102
}
330
5000
100
AcDbScale
 70
     0
300
1:30
140
1.0
141
30.0
290
     0
  0
SCALE
  5
500A
102
{ACAD_REACTORS
330
5000
102
}
330
5000
100
AcDbScale
 70
     0
300
1:40
140
1.0
141
40.0
290
     0
  0
SCALE
  5
500B
102
{ACAD_REACTORS
330
5000
102
}
330
5000
100
AcDbScale
 70
     0
300
1:50
140
1.0
141
50.0
290
     0
  0
SCALE
  5
500C
102
{ACAD_REACTORS
330
5000
102
}
330
5000
100
AcDbScale
 70
     0
300
1:100
140
1.0
141
100.0
290
     0
  0
SCALE
  5
500D
102
{ACAD_REACTORS
330
5000
102
}
330
5000
100
AcDbScale
 70
     0
300
2:1
140
2.0
141
1.0
290
     0
  0
SCALE
  5
500E
102
{ACAD_REACTORS
330
5000
102
}
330
5000
100
AcDbScale
 70
     0
300
4:1
140
4.0
141
1.0
290
     0
  0
SCALE
  5
500F
102
{ACAD_REACTORS
330
5000
102
}
330
5000
100
AcDbScale
 70
     0
300
8:1
140
8.0
141
1.0
290
     0
  0
SCALE
  5
5010
102
{ACAD_REACTORS
330
5000
102
}
330
5000
100
AcDbScale
 70
     0
300
10:1
140
10.0
141
1.0
290
     0
  0
SCALE
  5
5011
102
{ACAD_REACTORS
330
5000
102
}
330
5000
100
AcDbScale
 70
     0
300
100:1
140
100.0
141
1.0
290
     0
  0
SCALE
  5
5012
102
{ACAD_REACTORS
330
5000
102
}
330
5000
100
AcDbScale
 70
     0
300
1/128" = 1'-0"
140
0.0078125
141
12.0
290
     0
  0
SCALE
  5
5013
102
{ACAD_REACTORS
330
5000
102
}
330
5000
100
AcDbScale
 70
     0
300
1/64" = 1'-0"
140
0.015625
141
12.0
290
     0
  0
SCALE
  5
5014
102
{ACAD_REACTORS
330
5000
102
}
330
5000
100
AcDbScale
 70
     0
300
1/32" = 1'-0"
140
0.03125
141
12.0
290
     0
  0
SCALE
  5
5015
102
{ACAD_REACTORS
330
5000
102
}
330
5000
100
AcDbScale
 70
     0
300
1/16" = 1'-0"
140
0.0625
141
12.0
290
     0
  0
SCALE
  5
5016
102
{ACAD_REACTORS
330
5000
102
}
330
5000
100
AcDbScale
 70
     0
300
3/32" = 1'-0"
140
0.09375
141
12.0
290
     0
  0
SCALE
  5
5017
102
{ACAD_REACTORS
330
5000
102
}
330
5000
100
AcDbScale
 70
     0
300
1/8" = 1'-0"
140
0.125
141
12.0
290
     0
  0
SCALE
  5
5018
102
{ACAD_REACTORS
330
5000
102
}
330
5000
100
AcDbScale
 70
     0
300
3/16" = 1'-0"
140
0.1875
141
12.0
290
     0
  0
SCALE
  5
5019
102
{ACAD_REACTORS
330
5000
102
}
330
5000
100
AcDbScale
 70
     0
300
1/4" = 1'-0"
140
0.25
141
12.0
290
     0
  0
SCALE
  5
501A
102
{ACAD_REACTORS
330
5000
102
}
330
5000
100
AcDbScale
 70
     0
300
3/8" = 1'-0"
140
0.375
141
12.0
290
     0
  0
SCALE
  5
501B
102
{ACAD_REACTORS
330
5000
102
}
330
5000
100
AcDbScale
 70
     0
300
1/2" = 1'-0"
140
0.5
141
12.0
290
     0
  0
SCALE
  5
501C
102
{ACAD_REACTORS
330
5000
102
}
330
5000
100
AcDbScale
 70
     0
300
3/4" = 1'-0"
140
0.75
141
12.0
290
     0
  0
SCALE
  5
501D
102
{ACAD_REACTORS
330
5000
102
}
330
5000
100
AcDbScale
 70
     0
300
1" = 1'-0"
140
1.0
141
12.0
290
     0
  0
SCALE
  5
501E
102
{ACAD_REACTORS
330
5000
102
}
330
5000
100
AcDbScale
 70
     0
300
1-1/2" = 1'-0"
140
1.5
141
12.0
290
     0
  0
SCALE
  5
501F
102
{ACAD_REACTORS
330
5000
102
}
330
5000
100
AcDbScale
 70
     0
300
3" = 1'-0"
140
3.0
141
12.0
290
     0
  0
SCALE
  5
5020
102
{ACAD_REACTORS
330
5000
102
}
330
5000
100
AcDbScale
 70
     0
300
6" = 1'-0"
140
6.0
141
12.0
290
     0
  0
SCALE
  5
5021
102
{ACAD_REACTORS
330
5000
102
}
330
5000
100
AcDbScale
 70
     0
300
1'-0" = 1'-0"
140
12.0
141
12.0
290
     0
  0
TABLESTYLE
  5
4FFF
102
{ACAD_XDICTIONARY
360
50D6
102
}
102
{ACAD_REACTORS
330
4FE3
102
}
330
4FE3
100
AcDbTableStyle
  3
Standard
 70
     0
 71
     0
 40
0.06
 41
0.06
280
     0
281
     0
  7
Standard
140
0.18
170
     2
 62
     0
 63
     7
283
     0
 90
      512
 91
        0
  1

274
    -2
284
     1
 64
     0
275
    -2
285
     1
 65
     0
276
    -2
286
     1
 66
     0
277
    -2
287
     1
 67
     0
278
    -2
288
     1
 68
     0
279
    -2
289
     1
 69
     0
  7
Standard
140
0.25
170
     5
 62
     0
 63
     7
283
     0
 90
      512
 91
        0
  1

274
    -2
284
     1
 64
     0
275
    -2
285
     1
 65
     0
276
    -2
286
     1
 66
     0
277
    -2
287
     1
 67
     0
278
    -2
288
     1
 68
     0
279
    -2
289
     1
 69
     0
  7
Standard
140
0.18
170
     5
 62
     0
 63
     7
283
     0
 90
      512
 91
        0
  1

274
    -2
284
     1
 64
     0
275
    -2
285
     1
 65
     0
276
    -2
286
     1
 66
     0
277
    -2
287
     1
 67
     0
278
    -2
288
     1
 68
     0
279
    -2
289
     1
 69
     0
  0
VISUALSTYLE
  5
2F
102
{ACAD_REACTORS
330
2A
102
}
330
2A
100
AcDbVisualStyle
  2
2dWireframe
 70
     4
 71
     0
 72
     2
 73
     0
 90
        0
 40
-0.6
 41
-30.0
 62
     5
 63
     7
 74
     1
 91
        4
 64
     7
 65
   257
 75
     1
175
     1
 42
1.0
 92
        0
 66
   257
 43
1.0
 76
     1
 77
     6
 78
     2
 67
     7
 79
     5
170
     0
171
     0
290
     0
174
     0
 93
        1
 44
0.0
173
     0
291
     0
 45
0.0
1001
ACAD
1000
AcDbSavedByObjectVersion
1070
     0
1000
AcDbSavedByObjectVersion
1070
     0
1000
AcDbSavedByObjectVersion
1070
     0
1000
AcDbSavedByObjectVersion
1070
     0
1000
AcDbSavedByObjectVersion
1070
     0
1000
AcDbSavedByObjectVersion
1070
     0
1000
AcDbSavedByObjectVersion
1070
     0
1000
AcDbSavedByObjectVersion
1070
     0
1000
AcDbSavedByObjectVersion
1070
     0
1000
AcDbSavedByObjectVersion
1070
     0
1000
AcDbSavedByObjectVersion
1070
     0
1000
AcDbSavedByObjectVersion
1070
     0
1000
AcDbSavedByObjectVersion
1070
     0
1000
AcDbSavedByObjectVersion
1070
     0
1000
AcDbSavedByObjectVersion
1070
     0
1000
AcDbSavedByObjectVersion
1070
     0
1000
AcDbSavedByObjectVersion
1070
     0
1000
AcDbSavedByObjectVersion
1070
     0
1000
AcDbSavedByObjectVersion
1070
     0
1000
AcDbSavedByObjectVersion
1070
     0
1000
AcDbSavedByObjectVersion
1070
     0
1000
AcDbSavedByObjectVersion
1070
     0
1000
AcDbSavedByObjectVersion
1070
     0
1000
AcDbSavedByObjectVersion
1070
     0
1000
AcDbSavedByObjectVersion
1070
     0
1000
AcDbSavedByObjectVersion
1070
     0
1000
AcDbSavedByObjectVersion
1070
     0
1000
AcDbSavedByObjectVersion
1070
     0
1000
AcDbSavedByObjectVersion
1070
     0
1000
AcDbSavedByObjectVersion
1070
     0
1000
AcDbSavedByObjectVersion
1070
     0
1000
AcDbSavedByObjectVersion
1070
     0
1000
AcDbSavedByObjectVersion
1070
     0
1000
AcDbSavedByObjectVersion
1070
     0
1000
AcDbSavedByObjectVersion
1070
     0
1000
AcDbSavedByObjectVersion
1070
     0
1000
AcDbSavedByObjectVersion
1070
     0
1000
AcDbSavedByObjectVersion
1070
     0
1000
AcDbSavedByObjectVersion
1070
     0
1000
AcDbSavedByObjectVersion
1070
     0
1000
AcDbSavedByObjectVersion
1070
     0
1000
AcDbSavedByObjectVersion
1070
     0
1000
AcDbSavedByObjectVersion
1070
     0
1000
AcDbSavedByObjectVersion
1070
     0
1000
AcDbSavedByObjectVersion
1070
     0
1000
AcDbSavedByObjectVersion
1070
     0
1000
AcDbSavedByObjectVersion
1070
     0
1000
AcDbSavedByObjectVersion
1070
     0
1000
AcDbSavedByObjectVersion
1070
     0
1000
AcDbSavedByObjectVersion
1070
     0
1000
AcDbSavedByObjectVersion
1070
     0
1000
AcDbSavedByObjectVersion
1070
     0
1000
AcDbSavedByObjectVersion
1070
     0
  0
VISUALSTYLE
  5
31
102
{ACAD_REACTORS
330
2A
102
}
330
2A
100
AcDbVisualStyle
  2
3D Hidden
 70
     6
 71
     1
 72
     2
 73
     2
 90
        0
 40
-0.6
 41
-30.0
 62
     5
 63
     7
 74
     2
 91
        2
 64
     7
 65
   257
 75
     2
175
     1
 42
40.0
 92
        0
 66
   257
 43
1.0
 76
     1
 77
     6
 78
     2
 67
     7
 79
     3
170
     0
171
     0
290
     0
174
     0
 93
        1
 44
0.0
173
     0
291
     0
 45
0.0
1001
ACAD
1000
AcDbSavedByObjectVersion
1070
     0
1000
AcDbSavedByObjectVersion
1070
     0
1000
AcDbSavedByObjectVersion
1070
     0
1000
AcDbSavedByObjectVersion
1070
     0
1000
AcDbSavedByObjectVersion
1070
     0
1000
AcDbSavedByObjectVersion
1070
     0
1000
AcDbSavedByObjectVersion
1070
     0
1000
AcDbSavedByObjectVersion
1070
     0
1000
AcDbSavedByObjectVersion
1070
     0
1000
AcDbSavedByObjectVersion
1070
     0
1000
AcDbSavedByObjectVersion
1070
     0
1000
AcDbSavedByObjectVersion
1070
     0
1000
AcDbSavedByObjectVersion
1070
     0
1000
AcDbSavedByObjectVersion
1070
     0
1000
AcDbSavedByObjectVersion
1070
     0
1000
AcDbSavedByObjectVersion
1070
     0
1000
AcDbSavedByObjectVersion
1070
     0
1000
AcDbSavedByObjectVersion
1070
     0
1000
AcDbSavedByObjectVersion
1070
     0
1000
AcDbSavedByObjectVersion
1070
     0
1000
AcDbSavedByObjectVersion
1070
     0
1000
AcDbSavedByObjectVersion
1070
     0
1000
AcDbSavedByObjectVersion
1070
     0
1000
AcDbSavedByObjectVersion
1070
     0
1000
AcDbSavedByObjectVersion
1070
     0
1000
AcDbSavedByObjectVersion
1070
     0
1000
AcDbSavedByObjectVersion
1070
     0
1000
AcDbSavedByObjectVersion
1070
     0
1000
AcDbSavedByObjectVersion
1070
     0
1000
AcDbSavedByObjectVersion
1070
     0
1000
AcDbSavedByObjectVersion
1070
     0
1000
AcDbSavedByObjectVersion
1070
     0
1000
AcDbSavedByObjectVersion
1070
     0
1000
AcDbSavedByObjectVersion
1070
     0
1000
AcDbSavedByObjectVersion
1070
     0
1000
AcDbSavedByObjectVersion
1070
     0
1000
AcDbSavedByObjectVersion
1070
     0
1000
AcDbSavedByObjectVersion
1070
     0
1000
AcDbSavedByObjectVersion
1070
     0
1000
AcDbSavedByObjectVersion
1070
     0
1000
AcDbSavedByObjectVersion
1070
     0
1000
AcDbSavedByObjectVersion
1070
     0
1000
AcDbSavedByObjectVersion
1070
     0
1000
AcDbSavedByObjectVersion
1070
     0
1000
AcDbSavedByObjectVersion
1070
     0
1000
AcDbSavedByObjectVersion
1070
     0
1000
AcDbSavedByObjectVersion
1070
     0
1000
AcDbSavedByObjectVersion
1070
     0
1000
AcDbSavedByObjectVersion
1070
     0
1000
AcDbSavedByObjectVersion
1070
     0
1000
AcDbSavedByObjectVersion
1070
     0
1000
AcDbSavedByObjectVersion
1070
     0
1000
AcDbSavedByObjectVersion
1070
     0
  0
VISUALSTYLE
  5
30
102
{ACAD_REACTORS
330
2A
102
}
330
2A
100
AcDbVisualStyle
  2
3dWireframe
 70
     5
 71
     0
 72
     2
 73
     0
 90
        0
 40
-0.6
 41
-30.0
 62
     5
 63
     7
 74
     1
 91
        4
 64
     7
 65
   257
 75
     1
175
     1
 42
1.0
 92
        0
 66
   257
 43
1.0
 76
     1
 77
     6
 78
     2
 67
     7
 79
     5
170
     0
171
     0
290
     0
174
     0
 93
        1
 44
0.0
173
     0
291
     0
 45
0.0
1001
ACAD
1000
AcDbSavedByObjectVersion
1070
     0
1000
AcDbSavedByObjectVersion
1070
     0
1000
AcDbSavedByObjectVersion
1070
     0
1000
AcDbSavedByObjectVersion
1070
     0
1000
AcDbSavedByObjectVersion
1070
     0
1000
AcDbSavedByObjectVersion
1070
     0
1000
AcDbSavedByObjectVersion
1070
     0
1000
AcDbSavedByObjectVersion
1070
     0
1000
AcDbSavedByObjectVersion
1070
     0
1000
AcDbSavedByObjectVersion
1070
     0
1000
AcDbSavedByObjectVersion
1070
     0
1000
AcDbSavedByObjectVersion
1070
     0
1000
AcDbSavedByObjectVersion
1070
     0
1000
AcDbSavedByObjectVersion
1070
     0
1000
AcDbSavedByObjectVersion
1070
     0
1000
AcDbSavedByObjectVersion
1070
     0
1000
AcDbSavedByObjectVersion
1070
     0
1000
AcDbSavedByObjectVersion
1070
     0
1000
AcDbSavedByObjectVersion
1070
     0
1000
AcDbSavedByObjectVersion
1070
     0
1000
AcDbSavedByObjectVersion
1070
     0
1000
AcDbSavedByObjectVersion
1070
     0
1000
AcDbSavedByObjectVersion
1070
     0
1000
AcDbSavedByObjectVersion
1070
     0
1000
AcDbSavedByObjectVersion
1070
     0
1000
AcDbSavedByObjectVersion
1070
     0
1000
AcDbSavedByObjectVersion
1070
     0
1000
AcDbSavedByObjectVersion
1070
     0
1000
AcDbSavedByObjectVersion
1070
     0
1000
AcDbSavedByObjectVersion
1070
     0
1000
AcDbSavedByObjectVersion
1070
     0
1000
AcDbSavedByObjectVersion
1070
     0
1000
AcDbSavedByObjectVersion
1070
     0
1000
AcDbSavedByObjectVersion
1070
     0
1000
AcDbSavedByObjectVersion
1070
     0
1000
AcDbSavedByObjectVersion
1070
     0
1000
AcDbSavedByObjectVersion
1070
     0
1000
AcDbSavedByObjectVersion
1070
     0
1000
AcDbSavedByObjectVersion
1070
     0
1000
AcDbSavedByObjectVersion
1070
     0
1000
AcDbSavedByObjectVersion
1070
     0
1000
AcDbSavedByObjectVersion
1070
     0
1000
AcDbSavedByObjectVersion
1070
     0
1000
AcDbSavedByObjectVersion
1070
     0
1000
AcDbSavedByObjectVersion
1070
     0
1000
AcDbSavedByObjectVersion
1070
     0
1000
AcDbSavedByObjectVersion
1070
     0
1000
AcDbSavedByObjectVersion
1070
     0
1000
AcDbSavedByObjectVersion
1070
     0
1000
AcDbSavedByObjectVersion
1070
     0
1000
AcDbSavedByObjectVersion
1070
     0
1000
AcDbSavedByObjectVersion
1070
     0
1000
AcDbSavedByObjectVersion
1070
     0
  0
VISUALSTYLE
  5
32
102
{ACAD_REACTORS
330
2A
102
}
330
2A
100
AcDbVisualStyle
  2
Basic
 70
     7
 71
     1
 72
     0
 73
     1
 90
        0
 40
-0.6
 41
-30.0
 62
     5
 63
     7
 74
     0
 91
        4
 64
     7
 65
   257
 75
     1
175
     1
 42
1.0
 92
        8
 66
     7
 43
1.0
 76
     1
 77
     6
 78
     2
 67
     7
 79
     5
170
     0
171
     0
290
     0
174
     0
 93
        1
 44
0.0
173
     0
291
     1
 45
0.0
1001
ACAD
1000
AcDbSavedByObjectVersion
1070
     0
1000
AcDbSavedByObjectVersion
1070
     0
1000
AcDbSavedByObjectVersion
1070
     0
1000
AcDbSavedByObjectVersion
1070
     0
1000
AcDbSavedByObjectVersion
1070
     0
1000
AcDbSavedByObjectVersion
1070
     0
1000
AcDbSavedByObjectVersion
1070
     0
1000
AcDbSavedByObjectVersion
1070
     0
1000
AcDbSavedByObjectVersion
1070
     0
1000
AcDbSavedByObjectVersion
1070
     0
1000
AcDbSavedByObjectVersion
1070
     0
1000
AcDbSavedByObjectVersion
1070
     0
1000
AcDbSavedByObjectVersion
1070
     0
1000
AcDbSavedByObjectVersion
1070
     0
1000
AcDbSavedByObjectVersion
1070
     0
1000
AcDbSavedByObjectVersion
1070
     0
1000
AcDbSavedByObjectVersion
1070
     0
1000
AcDbSavedByObjectVersion
1070
     0
1000
AcDbSavedByObjectVersion
1070
     0
1000
AcDbSavedByObjectVersion
1070
     0
1000
AcDbSavedByObjectVersion
1070
     0
1000
AcDbSavedByObjectVersion
1070
     0
1000
AcDbSavedByObjectVersion
1070
     0
1000
AcDbSavedByObjectVersion
1070
     0
1000
AcDbSavedByObjectVersion
1070
     0
1000
AcDbSavedByObjectVersion
1070
     0
1000
AcDbSavedByObjectVersion
1070
     0
1000
AcDbSavedByObjectVersion
1070
     0
1000
AcDbSavedByObjectVersion
1070
     0
1000
AcDbSavedByObjectVersion
1070
     0
1000
AcDbSavedByObjectVersion
1070
     0
1000
AcDbSavedByObjectVersion
1070
     0
1000
AcDbSavedByObjectVersion
1070
     0
1000
AcDbSavedByObjectVersion
1070
     0
1000
AcDbSavedByObjectVersion
1070
     0
1000
AcDbSavedByObjectVersion
1070
     0
1000
AcDbSavedByObjectVersion
1070
     0
1000
AcDbSavedByObjectVersion
1070
     0
1000
AcDbSavedByObjectVersion
1070
     0
1000
AcDbSavedByObjectVersion
1070
     0
1000
AcDbSavedByObjectVersion
1070
     0
1000
AcDbSavedByObjectVersion
1070
     0
1000
AcDbSavedByObjectVersion
1070
     0
1000
AcDbSavedByObjectVersion
1070
     0
1000
AcDbSavedByObjectVersion
1070
     0
1000
AcDbSavedByObjectVersion
1070
     0
1000
AcDbSavedByObjectVersion
1070
     0
1000
AcDbSavedByObjectVersion
1070
     0
1000
AcDbSavedByObjectVersion
1070
     0
1000
AcDbSavedByObjectVersion
1070
     0
1000
AcDbSavedByObjectVersion
1070
     0
1000
AcDbSavedByObjectVersion
1070
     0
1000
AcDbSavedByObjectVersion
1070
     0
  0
VISUALSTYLE
  5
36
102
{ACAD_REACTORS
330
2A
102
}
330
2A
100
AcDbVisualStyle
  2
Brighten
 70
    12
 71
     2
 72
     2
 73
     0
 90
        0
 40
-0.6
 41
-30.0
 62
     5
 63
     7
 74
     1
 91
        4
 64
     7
 65
   257
 75
     1
175
     1
 42
1.0
 92
        8
 66
     7
 43
1.0
 76
     1
 77
     6
 78
     2
 67
     7
 79
     5
170
     0
171
     0
290
     0
174
     0
 93
        1
 44
50.0
173
     0
291
     1
 45
0.0
1001
ACAD
1000
AcDbSavedByObjectVersion
1070
     0
1000
AcDbSavedByObjectVersion
1070
     0
1000
AcDbSavedByObjectVersion
1070
     0
1000
AcDbSavedByObjectVersion
1070
     0
1000
AcDbSavedByObjectVersion
1070
     0
1000
AcDbSavedByObjectVersion
1070
     0
1000
AcDbSavedByObjectVersion
1070
     0
1000
AcDbSavedByObjectVersion
1070
     0
1000
AcDbSavedByObjectVersion
1070
     0
1000
AcDbSavedByObjectVersion
1070
     0
1000
AcDbSavedByObjectVersion
1070
     0
1000
AcDbSavedByObjectVersion
1070
     0
1000
AcDbSavedByObjectVersion
1070
     0
1000
AcDbSavedByObjectVersion
1070
     0
1000
AcDbSavedByObjectVersion
1070
     0
1000
AcDbSavedByObjectVersion
1070
     0
1000
AcDbSavedByObjectVersion
1070
     0
1000
AcDbSavedByObjectVersion
1070
     0
1000
AcDbSavedByObjectVersion
1070
     0
1000
AcDbSavedByObjectVersion
1070
     0
1000
AcDbSavedByObjectVersion
1070
     0
1000
AcDbSavedByObjectVersion
1070
     0
1000
AcDbSavedByObjectVersion
1070
     0
1000
AcDbSavedByObjectVersion
1070
     0
1000
AcDbSavedByObjectVersion
1070
     0
1000
AcDbSavedByObjectVersion
1070
     0
1000
AcDbSavedByObjectVersion
1070
     0
1000
AcDbSavedByObjectVersion
1070
     0
1000
AcDbSavedByObjectVersion
1070
     0
1000
AcDbSavedByObjectVersion
1070
     0
1000
AcDbSavedByObjectVersion
1070
     0
1000
AcDbSavedByObjectVersion
1070
     0
1000
AcDbSavedByObjectVersion
1070
     0
1000
AcDbSavedByObjectVersion
1070
     0
1000
AcDbSavedByObjectVersion
1070
     0
1000
AcDbSavedByObjectVersion
1070
     0
1000
AcDbSavedByObjectVersion
1070
     0
1000
AcDbSavedByObjectVersion
1070
     0
1000
AcDbSavedByObjectVersion
1070
     0
1000
AcDbSavedByObjectVersion
1070
     0
1000
AcDbSavedByObjectVersion
1070
     0
1000
AcDbSavedByObjectVersion
1070
     0
1000
AcDbSavedByObjectVersion
1070
     0
1000
AcDbSavedByObjectVersion
1070
     0
1000
AcDbSavedByObjectVersion
1070
     0
1000
AcDbSavedByObjectVersion
1070
     0
1000
AcDbSavedByObjectVersion
1070
     0
1000
AcDbSavedByObjectVersion
1070
     0
1000
AcDbSavedByObjectVersion
1070
     0
1000
AcDbSavedByObjectVersion
1070
     0
1000
AcDbSavedByObjectVersion
1070
     0
1000
AcDbSavedByObjectVersion
1070
     0
1000
AcDbSavedByObjectVersion
1070
     0
  0
VISUALSTYLE
  5
3A
102
{ACAD_REACTORS
330
2A
102
}
330
2A
100
AcDbVisualStyle
  2
ColorChange
 70
    16
 71
     2
 72
     2
 73
     3
 90
        0
 40
-0.6
 41
-30.0
 62
     5
 63
     8
 74
     1
 91
        4
 64
     7
 65
   257
 75
     1
175
     1
 42
1.0
 92
        8
 66
     8
 43
1.0
 76
     1
 77
     6
 78
     2
 67
     7
 79
     5
170
     0
171
     0
290
     0
174
     0
 93
        1
 44
0.0
173
     0
291
     1
 45
0.0
1001
ACAD
1000
AcDbSavedByObjectVersion
1070
     0
1000
AcDbSavedByObjectVersion
1070
     0
1000
AcDbSavedByObjectVersion
1070
     0
1000
AcDbSavedByObjectVersion
1070
     0
1000
AcDbSavedByObjectVersion
1070
     0
1000
AcDbSavedByObjectVersion
1070
     0
1000
AcDbSavedByObjectVersion
1070
     0
1000
AcDbSavedByObjectVersion
1070
     0
1000
AcDbSavedByObjectVersion
1070
     0
1000
AcDbSavedByObjectVersion
1070
     0
1000
AcDbSavedByObjectVersion
1070
     0
1000
AcDbSavedByObjectVersion
1070
     0
1000
AcDbSavedByObjectVersion
1070
     0
1000
AcDbSavedByObjectVersion
1070
     0
1000
AcDbSavedByObjectVersion
1070
     0
1000
AcDbSavedByObjectVersion
1070
     0
1000
AcDbSavedByObjectVersion
1070
     0
1000
AcDbSavedByObjectVersion
1070
     0
1000
AcDbSavedByObjectVersion
1070
     0
1000
AcDbSavedByObjectVersion
1070
     0
1000
AcDbSavedByObjectVersion
1070
     0
1000
AcDbSavedByObjectVersion
1070
     0
1000
AcDbSavedByObjectVersion
1070
     0
1000
AcDbSavedByObjectVersion
1070
     0
1000
AcDbSavedByObjectVersion
1070
     0
1000
AcDbSavedByObjectVersion
1070
     0
1000
AcDbSavedByObjectVersion
1070
     0
1000
AcDbSavedByObjectVersion
1070
     0
1000
AcDbSavedByObjectVersion
1070
     0
1000
AcDbSavedByObjectVersion
1070
     0
1000
AcDbSavedByObjectVersion
1070
     0
1000
AcDbSavedByObjectVersion
1070
     0
1000
AcDbSavedByObjectVersion
1070
     0
1000
AcDbSavedByObjectVersion
1070
     0
1000
AcDbSavedByObjectVersion
1070
     0
1000
AcDbSavedByObjectVersion
1070
     0
1000
AcDbSavedByObjectVersion
1070
     0
1000
AcDbSavedByObjectVersion
1070
     0
1000
AcDbSavedByObjectVersion
1070
     0
1000
AcDbSavedByObjectVersion
1070
     0
1000
AcDbSavedByObjectVersion
1070
     0
1000
AcDbSavedByObjectVersion
1070
     0
1000
AcDbSavedByObjectVersion
1070
     0
1000
AcDbSavedByObjectVersion
1070
     0
1000
AcDbSavedByObjectVersion
1070
     0
1000
AcDbSavedByObjectVersion
1070
     0
1000
AcDbSavedByObjectVersion
1070
     0
1000
AcDbSavedByObjectVersion
1070
     0
1000
AcDbSavedByObjectVersion
1070
     0
1000
AcDbSavedByObjectVersion
1070
     0
1000
AcDbSavedByObjectVersion
1070
     0
1000
AcDbSavedByObjectVersion
1070
     0
1000
AcDbSavedByObjectVersion
1070
     0
  0
VISUALSTYLE
  5
34
102
{ACAD_REACTORS
330
2A
102
}
330
2A
100
AcDbVisualStyle
  2
Conceptual
 70
     9
 71
     3
 72
     2
 73
     0
 90
        0
 40
-0.6
 41
-30.0
 62
     5
 63
     7
 74
     2
 91
        2
 64
     7
 65
   257
 75
     1
175
     1
 42
40.0
 92
        8
 66
     7
 43
1.0
 76
     1
 77
     6
 78
     2
 67
     7
 79
     3
170
     0
171
     0
290
     0
174
     0
 93
        1
 44
0.0
173
     0
291
     0
 45
0.0
1001
ACAD
1000
AcDbSavedByObjectVersion
1070
     0
1000
AcDbSavedByObjectVersion
1070
     0
1000
AcDbSavedByObjectVersion
1070
     0
1000
AcDbSavedByObjectVersion
1070
     0
1000
AcDbSavedByObjectVersion
1070
     0
1000
AcDbSavedByObjectVersion
1070
     0
1000
AcDbSavedByObjectVersion
1070
     0
1000
AcDbSavedByObjectVersion
1070
     0
1000
AcDbSavedByObjectVersion
1070
     0
1000
AcDbSavedByObjectVersion
1070
     0
1000
AcDbSavedByObjectVersion
1070
     0
1000
AcDbSavedByObjectVersion
1070
     0
1000
AcDbSavedByObjectVersion
1070
     0
1000
AcDbSavedByObjectVersion
1070
     0
1000
AcDbSavedByObjectVersion
1070
     0
1000
AcDbSavedByObjectVersion
1070
     0
1000
AcDbSavedByObjectVersion
1070
     0
1000
AcDbSavedByObjectVersion
1070
     0
1000
AcDbSavedByObjectVersion
1070
     0
1000
AcDbSavedByObjectVersion
1070
     0
1000
AcDbSavedByObjectVersion
1070
     0
1000
AcDbSavedByObjectVersion
1070
     0
1000
AcDbSavedByObjectVersion
1070
     0
1000
AcDbSavedByObjectVersion
1070
     0
1000
AcDbSavedByObjectVersion
1070
     0
1000
AcDbSavedByObjectVersion
1070
     0
1000
AcDbSavedByObjectVersion
1070
     0
1000
AcDbSavedByObjectVersion
1070
     0
1000
AcDbSavedByObjectVersion
1070
     0
1000
AcDbSavedByObjectVersion
1070
     0
1000
AcDbSavedByObjectVersion
1070
     0
1000
AcDbSavedByObjectVersion
1070
     0
1000
AcDbSavedByObjectVersion
1070
     0
1000
AcDbSavedByObjectVersion
1070
     0
1000
AcDbSavedByObjectVersion
1070
     0
1000
AcDbSavedByObjectVersion
1070
     0
1000
AcDbSavedByObjectVersion
1070
     0
1000
AcDbSavedByObjectVersion
1070
     0
1000
AcDbSavedByObjectVersion
1070
     0
1000
AcDbSavedByObjectVersion
1070
     0
1000
AcDbSavedByObjectVersion
1070
     0
1000
AcDbSavedByObjectVersion
1070
     0
1000
AcDbSavedByObjectVersion
1070
     0
1000
AcDbSavedByObjectVersion
1070
     0
1000
AcDbSavedByObjectVersion
1070
     0
1000
AcDbSavedByObjectVersion
1070
     0
1000
AcDbSavedByObjectVersion
1070
     0
1000
AcDbSavedByObjectVersion
1070
     0
1000
AcDbSavedByObjectVersion
1070
     0
1000
AcDbSavedByObjectVersion
1070
     0
1000
AcDbSavedByObjectVersion
1070
     0
1000
AcDbSavedByObjectVersion
1070
     0
1000
AcDbSavedByObjectVersion
1070
     0
  0
VISUALSTYLE
  5
35
102
{ACAD_REACTORS
330
2A
102
}
330
2A
100
AcDbVisualStyle
  2
Dim
 70
    11
 71
     2
 72
     2
 73
     0
 90
        0
 40
-0.6
 41
-30.0
 62
     5
 63
     7
 74
     1
 91
        4
 64
     7
 65
   257
 75
     1
175
     1
 42
1.0
 92
        8
 66
     7
 43
1.0
 76
     1
 77
     6
 78
     2
 67
     7
 79
     5
170
     0
171
     0
290
     0
174
     0
 93
        1
 44
-50.0
173
     0
291
     1
 45
0.0
1001
ACAD
1000
AcDbSavedByObjectVersion
1070
     0
1000
AcDbSavedByObjectVersion
1070
     0
1000
AcDbSavedByObjectVersion
1070
     0
1000
AcDbSavedByObjectVersion
1070
     0
1000
AcDbSavedByObjectVersion
1070
     0
1000
AcDbSavedByObjectVersion
1070
     0
1000
AcDbSavedByObjectVersion
1070
     0
1000
AcDbSavedByObjectVersion
1070
     0
1000
AcDbSavedByObjectVersion
1070
     0
1000
AcDbSavedByObjectVersion
1070
     0
1000
AcDbSavedByObjectVersion
1070
     0
1000
AcDbSavedByObjectVersion
1070
     0
1000
AcDbSavedByObjectVersion
1070
     0
1000
AcDbSavedByObjectVersion
1070
     0
1000
AcDbSavedByObjectVersion
1070
     0
1000
AcDbSavedByObjectVersion
1070
     0
1000
AcDbSavedByObjectVersion
1070
     0
1000
AcDbSavedByObjectVersion
1070
     0
1000
AcDbSavedByObjectVersion
1070
     0
1000
AcDbSavedByObjectVersion
1070
     0
1000
AcDbSavedByObjectVersion
1070
     0
1000
AcDbSavedByObjectVersion
1070
     0
1000
AcDbSavedByObjectVersion
1070
     0
1000
AcDbSavedByObjectVersion
1070
     0
1000
AcDbSavedByObjectVersion
1070
     0
1000
AcDbSavedByObjectVersion
1070
     0
1000
AcDbSavedByObjectVersion
1070
     0
1000
AcDbSavedByObjectVersion
1070
     0
1000
AcDbSavedByObjectVersion
1070
     0
1000
AcDbSavedByObjectVersion
1070
     0
1000
AcDbSavedByObjectVersion
1070
     0
1000
AcDbSavedByObjectVersion
1070
     0
1000
AcDbSavedByObjectVersion
1070
     0
1000
AcDbSavedByObjectVersion
1070
     0
1000
AcDbSavedByObjectVersion
1070
     0
1000
AcDbSavedByObjectVersion
1070
     0
1000
AcDbSavedByObjectVersion
1070
     0
1000
AcDbSavedByObjectVersion
1070
     0
1000
AcDbSavedByObjectVersion
1070
     0
1000
AcDbSavedByObjectVersion
1070
     0
1000
AcDbSavedByObjectVersion
1070
     0
1000
AcDbSavedByObjectVersion
1070
     0
1000
AcDbSavedByObjectVersion
1070
     0
1000
AcDbSavedByObjectVersion
1070
     0
1000
AcDbSavedByObjectVersion
1070
     0
1000
AcDbSavedByObjectVersion
1070
     0
1000
AcDbSavedByObjectVersion
1070
     0
1000
AcDbSavedByObjectVersion
1070
     0
1000
AcDbSavedByObjectVersion
1070
     0
1000
AcDbSavedByObjectVersion
1070
     0
1000
AcDbSavedByObjectVersion
1070
     0
1000
AcDbSavedByObjectVersion
1070
     0
1000
AcDbSavedByObjectVersion
1070
     0
  0
VISUALSTYLE
  5
39
102
{ACAD_REACTORS
330
2A
102
}
330
2A
100
AcDbVisualStyle
  2
Facepattern
 70
    15
 71
     2
 72
     2
 73
     0
 90
        0
 40
-0.6
 41
-30.0
 62
     5
 63
     7
 74
     1
 91
        4
 64
     7
 65
   257
 75
     1
175
     1
 42
1.0
 92
        8
 66
     7
 43
1.0
 76
     1
 77
     6
 78
     2
 67
     7
 79
     5
170
     0
171
     0
290
     0
174
     0
 93
        1
 44
0.0
173
     0
291
     1
 45
0.0
1001
ACAD
1000
AcDbSavedByObjectVersion
1070
     0
1000
AcDbSavedByObjectVersion
1070
     0
1000
AcDbSavedByObjectVersion
1070
     0
1000
AcDbSavedByObjectVersion
1070
     0
1000
AcDbSavedByObjectVersion
1070
     0
1000
AcDbSavedByObjectVersion
1070
     0
1000
AcDbSavedByObjectVersion
1070
     0
1000
AcDbSavedByObjectVersion
1070
     0
1000
AcDbSavedByObjectVersion
1070
     0
1000
AcDbSavedByObjectVersion
1070
     0
1000
AcDbSavedByObjectVersion
1070
     0
1000
AcDbSavedByObjectVersion
1070
     0
1000
AcDbSavedByObjectVersion
1070
     0
1000
AcDbSavedByObjectVersion
1070
     0
1000
AcDbSavedByObjectVersion
1070
     0
1000
AcDbSavedByObjectVersion
1070
     0
1000
AcDbSavedByObjectVersion
1070
     0
1000
AcDbSavedByObjectVersion
1070
     0
1000
AcDbSavedByObjectVersion
1070
     0
1000
AcDbSavedByObjectVersion
1070
     0
1000
AcDbSavedByObjectVersion
1070
     0
1000
AcDbSavedByObjectVersion
1070
     0
1000
AcDbSavedByObjectVersion
1070
     0
1000
AcDbSavedByObjectVersion
1070
     0
1000
AcDbSavedByObjectVersion
1070
     0
1000
AcDbSavedByObjectVersion
1070
     0
1000
AcDbSavedByObjectVersion
1070
     0
1000
AcDbSavedByObjectVersion
1070
     0
1000
AcDbSavedByObjectVersion
1070
     0
1000
AcDbSavedByObjectVersion
1070
     0
1000
AcDbSavedByObjectVersion
1070
     0
1000
AcDbSavedByObjectVersion
1070
     0
1000
AcDbSavedByObjectVersion
1070
     0
1000
AcDbSavedByObjectVersion
1070
     0
1000
AcDbSavedByObjectVersion
1070
     0
1000
AcDbSavedByObjectVersion
1070
     0
1000
AcDbSavedByObjectVersion
1070
     0
1000
AcDbSavedByObjectVersion
1070
     0
1000
AcDbSavedByObjectVersion
1070
     0
1000
AcDbSavedByObjectVersion
1070
     0
1000
AcDbSavedByObjectVersion
1070
     0
1000
AcDbSavedByObjectVersion
1070
     0
1000
AcDbSavedByObjectVersion
1070
     0
1000
AcDbSavedByObjectVersion
1070
     0
1000
AcDbSavedByObjectVersion
1070
     0
1000
AcDbSavedByObjectVersion
1070
     0
1000
AcDbSavedByObjectVersion
1070
     0
1000
AcDbSavedByObjectVersion
1070
     0
1000
AcDbSavedByObjectVersion
1070
     0
1000
AcDbSavedByObjectVersion
1070
     0
1000
AcDbSavedByObjectVersion
1070
     0
1000
AcDbSavedByObjectVersion
1070
     0
1000
AcDbSavedByObjectVersion
1070
     0
  0
VISUALSTYLE
  5
2B
102
{ACAD_REACTORS
330
2A
102
}
330
2A
100
AcDbVisualStyle
  2
Flat
 70
     0
 71
     2
 72
     1
 73
     1
 90
        2
 40
-0.6
 41
30.0
 62
     5
 63
     7
 74
     0
 91
        4
 64
     7
 65
   257
 75
     1
175
     1
 42
1.0
 92
        8
 66
     7
 43
1.0
 76
     1
 77
     6
 78
     2
 67
     7
 79
     5
170
     0
171
     0
290
     0
174
     0
 93
       13
 44
0.0
173
     0
291
     1
 45
0.0
1001
ACAD
1000
AcDbSavedByObjectVersion
1070
     0
1000
AcDbSavedByObjectVersion
1070
     0
1000
AcDbSavedByObjectVersion
1070
     0
1000
AcDbSavedByObjectVersion
1070
     0
1000
AcDbSavedByObjectVersion
1070
     0
1000
AcDbSavedByObjectVersion
1070
     0
1000
AcDbSavedByObjectVersion
1070
     0
1000
AcDbSavedByObjectVersion
1070
     0
1000
AcDbSavedByObjectVersion
1070
     0
1000
AcDbSavedByObjectVersion
1070
     0
1000
AcDbSavedByObjectVersion
1070
     0
1000
AcDbSavedByObjectVersion
1070
     0
1000
AcDbSavedByObjectVersion
1070
     0
1000
AcDbSavedByObjectVersion
1070
     0
1000
AcDbSavedByObjectVersion
1070
     0
1000
AcDbSavedByObjectVersion
1070
     0
1000
AcDbSavedByObjectVersion
1070
     0
1000
AcDbSavedByObjectVersion
1070
     0
1000
AcDbSavedByObjectVersion
1070
     0
1000
AcDbSavedByObjectVersion
1070
     0
1000
AcDbSavedByObjectVersion
1070
     0
1000
AcDbSavedByObjectVersion
1070
     0
1000
AcDbSavedByObjectVersion
1070
     0
1000
AcDbSavedByObjectVersion
1070
     0
1000
AcDbSavedByObjectVersion
1070
     0
1000
AcDbSavedByObjectVersion
1070
     0
1000
AcDbSavedByObjectVersion
1070
     0
1000
AcDbSavedByObjectVersion
1070
     0
1000
AcDbSavedByObjectVersion
1070
     0
1000
AcDbSavedByObjectVersion
1070
     0
1000
AcDbSavedByObjectVersion
1070
     0
1000
AcDbSavedByObjectVersion
1070
     0
1000
AcDbSavedByObjectVersion
1070
     0
1000
AcDbSavedByObjectVersion
1070
     0
1000
AcDbSavedByObjectVersion
1070
     0
1000
AcDbSavedByObjectVersion
1070
     0
1000
AcDbSavedByObjectVersion
1070
     0
1000
AcDbSavedByObjectVersion
1070
     0
1000
AcDbSavedByObjectVersion
1070
     0
1000
AcDbSavedByObjectVersion
1070
     0
1000
AcDbSavedByObjectVersion
1070
     0
1000
AcDbSavedByObjectVersion
1070
     0
1000
AcDbSavedByObjectVersion
1070
     0
1000
AcDbSavedByObjectVersion
1070
     0
1000
AcDbSavedByObjectVersion
1070
     0
1000
AcDbSavedByObjectVersion
1070
     0
1000
AcDbSavedByObjectVersion
1070
     0
1000
AcDbSavedByObjectVersion
1070
     0
1000
AcDbSavedByObjectVersion
1070
     0
1000
AcDbSavedByObjectVersion
1070
     0
1000
AcDbSavedByObjectVersion
1070
     0
1000
AcDbSavedByObjectVersion
1070
     0
1000
AcDbSavedByObjectVersion
1070
     0
  0
VISUALSTYLE
  5
2C
102
{ACAD_REACTORS
330
2A
102
}
330
2A
100
AcDbVisualStyle
  2
FlatWithEdges
 70
     1
 71
     2
 72
     1
 73
     1
 90
        2
 40
-0.6
 41
30.0
 62
     5
 63
     7
 74
     1
 91
        4
 64
     7
 65
   257
 75
     1
175
     1
 42
1.0
 92
        0
 66
   257
 43
1.0
 76
     1
 77
     6
 78
     2
 67
     7
 79
     5
170
     0
171
     0
290
     0
174
     0
 93
       13
 44
0.0
173
     0
291
     1
 45
0.0
1001
ACAD
1000
AcDbSavedByObjectVersion
1070
     0
1000
AcDbSavedByObjectVersion
1070
     0
1000
AcDbSavedByObjectVersion
1070
     0
1000
AcDbSavedByObjectVersion
1070
     0
1000
AcDbSavedByObjectVersion
1070
     0
1000
AcDbSavedByObjectVersion
1070
     0
1000
AcDbSavedByObjectVersion
1070
     0
1000
AcDbSavedByObjectVersion
1070
     0
1000
AcDbSavedByObjectVersion
1070
     0
1000
AcDbSavedByObjectVersion
1070
     0
1000
AcDbSavedByObjectVersion
1070
     0
1000
AcDbSavedByObjectVersion
1070
     0
1000
AcDbSavedByObjectVersion
1070
     0
1000
AcDbSavedByObjectVersion
1070
     0
1000
AcDbSavedByObjectVersion
1070
     0
1000
AcDbSavedByObjectVersion
1070
     0
1000
AcDbSavedByObjectVersion
1070
     0
1000
AcDbSavedByObjectVersion
1070
     0
1000
AcDbSavedByObjectVersion
1070
     0
1000
AcDbSavedByObjectVersion
1070
     0
1000
AcDbSavedByObjectVersion
1070
     0
1000
AcDbSavedByObjectVersion
1070
     0
1000
AcDbSavedByObjectVersion
1070
     0
1000
AcDbSavedByObjectVersion
1070
     0
1000
AcDbSavedByObjectVersion
1070
     0
1000
AcDbSavedByObjectVersion
1070
     0
1000
AcDbSavedByObjectVersion
1070
     0
1000
AcDbSavedByObjectVersion
1070
     0
1000
AcDbSavedByObjectVersion
1070
     0
1000
AcDbSavedByObjectVersion
1070
     0
1000
AcDbSavedByObjectVersion
1070
     0
1000
AcDbSavedByObjectVersion
1070
     0
1000
AcDbSavedByObjectVersion
1070
     0
1000
AcDbSavedByObjectVersion
1070
     0
1000
AcDbSavedByObjectVersion
1070
     0
1000
AcDbSavedByObjectVersion
1070
     0
1000
AcDbSavedByObjectVersion
1070
     0
1000
AcDbSavedByObjectVersion
1070
     0
1000
AcDbSavedByObjectVersion
1070
     0
1000
AcDbSavedByObjectVersion
1070
     0
1000
AcDbSavedByObjectVersion
1070
     0
1000
AcDbSavedByObjectVersion
1070
     0
1000
AcDbSavedByObjectVersion
1070
     0
1000
AcDbSavedByObjectVersion
1070
     0
1000
AcDbSavedByObjectVersion
1070
     0
1000
AcDbSavedByObjectVersion
1070
     0
1000
AcDbSavedByObjectVersion
1070
     0
1000
AcDbSavedByObjectVersion
1070
     0
1000
AcDbSavedByObjectVersion
1070
     0
1000
AcDbSavedByObjectVersion
1070
     0
1000
AcDbSavedByObjectVersion
1070
     0
1000
AcDbSavedByObjectVersion
1070
     0
1000
AcDbSavedByObjectVersion
1070
     0
  0
VISUALSTYLE
  5
2D
102
{ACAD_REACTORS
330
2A
102
}
330
2A
100
AcDbVisualStyle
  2
Gouraud
 70
     2
 71
     2
 72
     2
 73
     1
 90
        2
 40
-0.6
 41
30.0
 62
     5
 63
     7
 74
     0
 91
        4
 64
     7
 65
   257
 75
     1
175
     1
 42
1.0
 92
        0
 66
     7
 43
1.0
 76
     1
 77
     6
 78
     2
 67
     7
 79
     5
170
     0
171
     0
290
     0
174
     0
 93
       13
 44
0.0
173
     0
291
     1
 45
0.0
1001
ACAD
1000
AcDbSavedByObjectVersion
1070
     0
1000
AcDbSavedByObjectVersion
1070
     0
1000
AcDbSavedByObjectVersion
1070
     0
1000
AcDbSavedByObjectVersion
1070
     0
1000
AcDbSavedByObjectVersion
1070
     0
1000
AcDbSavedByObjectVersion
1070
     0
1000
AcDbSavedByObjectVersion
1070
     0
1000
AcDbSavedByObjectVersion
1070
     0
1000
AcDbSavedByObjectVersion
1070
     0
1000
AcDbSavedByObjectVersion
1070
     0
1000
AcDbSavedByObjectVersion
1070
     0
1000
AcDbSavedByObjectVersion
1070
     0
1000
AcDbSavedByObjectVersion
1070
     0
1000
AcDbSavedByObjectVersion
1070
     0
1000
AcDbSavedByObjectVersion
1070
     0
1000
AcDbSavedByObjectVersion
1070
     0
1000
AcDbSavedByObjectVersion
1070
     0
1000
AcDbSavedByObjectVersion
1070
     0
1000
AcDbSavedByObjectVersion
1070
     0
1000
AcDbSavedByObjectVersion
1070
     0
1000
AcDbSavedByObjectVersion
1070
     0
1000
AcDbSavedByObjectVersion
1070
     0
1000
AcDbSavedByObjectVersion
1070
     0
1000
AcDbSavedByObjectVersion
1070
     0
1000
AcDbSavedByObjectVersion
1070
     0
1000
AcDbSavedByObjectVersion
1070
     0
1000
AcDbSavedByObjectVersion
1070
     0
1000
AcDbSavedByObjectVersion
1070
     0
1000
AcDbSavedByObjectVersion
1070
     0
1000
AcDbSavedByObjectVersion
1070
     0
1000
AcDbSavedByObjectVersion
1070
     0
1000
AcDbSavedByObjectVersion
1070
     0
1000
AcDbSavedByObjectVersion
1070
     0
1000
AcDbSavedByObjectVersion
1070
     0
1000
AcDbSavedByObjectVersion
1070
     0
1000
AcDbSavedByObjectVersion
1070
     0
1000
AcDbSavedByObjectVersion
1070
     0
1000
AcDbSavedByObjectVersion
1070
     0
1000
AcDbSavedByObjectVersion
1070
     0
1000
AcDbSavedByObjectVersion
1070
     0
1000
AcDbSavedByObjectVersion
1070
     0
1000
AcDbSavedByObjectVersion
1070
     0
1000
AcDbSavedByObjectVersion
1070
     0
1000
AcDbSavedByObjectVersion
1070
     0
1000
AcDbSavedByObjectVersion
1070
     0
1000
AcDbSavedByObjectVersion
1070
     0
1000
AcDbSavedByObjectVersion
1070
     0
1000
AcDbSavedByObjectVersion
1070
     0
1000
AcDbSavedByObjectVersion
1070
     0
1000
AcDbSavedByObjectVersion
1070
     0
1000
AcDbSavedByObjectVersion
1070
     0
1000
AcDbSavedByObjectVersion
1070
     0
1000
AcDbSavedByObjectVersion
1070
     0
  0
VISUALSTYLE
  5
2E
102
{ACAD_REACTORS
330
2A
102
}
330
2A
100
AcDbVisualStyle
  2
GouraudWithEdges
 70
     3
 71
     2
 72
     2
 73
     1
 90
        2
 40
-0.6
 41
30.0
 62
     5
 63
     7
 74
     1
 91
        4
 64
     7
 65
   257
 75
     1
175
     1
 42
1.0
 92
        0
 66
   257
 43
1.0
 76
     1
 77
     6
 78
     2
 67
     7
 79
     5
170
     0
171
     0
290
     0
174
     0
 93
       13
 44
0.0
173
     0
291
     1
 45
0.0
1001
ACAD
1000
AcDbSavedByObjectVersion
1070
     0
1000
AcDbSavedByObjectVersion
1070
     0
1000
AcDbSavedByObjectVersion
1070
     0
1000
AcDbSavedByObjectVersion
1070
     0
1000
AcDbSavedByObjectVersion
1070
     0
1000
AcDbSavedByObjectVersion
1070
     0
1000
AcDbSavedByObjectVersion
1070
     0
1000
AcDbSavedByObjectVersion
1070
     0
1000
AcDbSavedByObjectVersion
1070
     0
1000
AcDbSavedByObjectVersion
1070
     0
1000
AcDbSavedByObjectVersion
1070
     0
1000
AcDbSavedByObjectVersion
1070
     0
1000
AcDbSavedByObjectVersion
1070
     0
1000
AcDbSavedByObjectVersion
1070
     0
1000
AcDbSavedByObjectVersion
1070
     0
1000
AcDbSavedByObjectVersion
1070
     0
1000
AcDbSavedByObjectVersion
1070
     0
1000
AcDbSavedByObjectVersion
1070
     0
1000
AcDbSavedByObjectVersion
1070
     0
1000
AcDbSavedByObjectVersion
1070
     0
1000
AcDbSavedByObjectVersion
1070
     0
1000
AcDbSavedByObjectVersion
1070
     0
1000
AcDbSavedByObjectVersion
1070
     0
1000
AcDbSavedByObjectVersion
1070
     0
1000
AcDbSavedByObjectVersion
1070
     0
1000
AcDbSavedByObjectVersion
1070
     0
1000
AcDbSavedByObjectVersion
1070
     0
1000
AcDbSavedByObjectVersion
1070
     0
1000
AcDbSavedByObjectVersion
1070
     0
1000
AcDbSavedByObjectVersion
1070
     0
1000
AcDbSavedByObjectVersion
1070
     0
1000
AcDbSavedByObjectVersion
1070
     0
1000
AcDbSavedByObjectVersion
1070
     0
1000
AcDbSavedByObjectVersion
1070
     0
1000
AcDbSavedByObjectVersion
1070
     0
1000
AcDbSavedByObjectVersion
1070
     0
1000
AcDbSavedByObjectVersion
1070
     0
1000
AcDbSavedByObjectVersion
1070
     0
1000
AcDbSavedByObjectVersion
1070
     0
1000
AcDbSavedByObjectVersion
1070
     0
1000
AcDbSavedByObjectVersion
1070
     0
1000
AcDbSavedByObjectVersion
1070
     0
1000
AcDbSavedByObjectVersion
1070
     0
1000
AcDbSavedByObjectVersion
1070
     0
1000
AcDbSavedByObjectVersion
1070
     0
1000
AcDbSavedByObjectVersion
1070
     0
1000
AcDbSavedByObjectVersion
1070
     0
1000
AcDbSavedByObjectVersion
1070
     0
1000
AcDbSavedByObjectVersion
1070
     0
1000
AcDbSavedByObjectVersion
1070
     0
1000
AcDbSavedByObjectVersion
1070
     0
1000
AcDbSavedByObjectVersion
1070
     0
1000
AcDbSavedByObjectVersion
1070
     0
  0
VISUALSTYLE
  5
38
102
{ACAD_REACTORS
330
2A
102
}
330
2A
100
AcDbVisualStyle
  2
Linepattern
 70
    14
 71
     2
 72
     2
 73
     0
 90
        0
 40
-0.6
 41
-30.0
 62
     5
 63
     7
 74
     1
 91
        4
 64
     7
 65
   257
 75
     7
175
     7
 42
1.0
 92
        8
 66
     7
 43
1.0
 76
     1
 77
     6
 78
     2
 67
     7
 79
     5
170
     0
171
     0
290
     0
174
     0
 93
        1
 44
0.0
173
     0
291
     1
 45
0.0
1001
ACAD
1000
AcDbSavedByObjectVersion
1070
     0
1000
AcDbSavedByObjectVersion
1070
     0
1000
AcDbSavedByObjectVersion
1070
     0
1000
AcDbSavedByObjectVersion
1070
     0
1000
AcDbSavedByObjectVersion
1070
     0
1000
AcDbSavedByObjectVersion
1070
     0
1000
AcDbSavedByObjectVersion
1070
     0
1000
AcDbSavedByObjectVersion
1070
     0
1000
AcDbSavedByObjectVersion
1070
     0
1000
AcDbSavedByObjectVersion
1070
     0
1000
AcDbSavedByObjectVersion
1070
     0
1000
AcDbSavedByObjectVersion
1070
     0
1000
AcDbSavedByObjectVersion
1070
     0
1000
AcDbSavedByObjectVersion
1070
     0
1000
AcDbSavedByObjectVersion
1070
     0
1000
AcDbSavedByObjectVersion
1070
     0
1000
AcDbSavedByObjectVersion
1070
     0
1000
AcDbSavedByObjectVersion
1070
     0
1000
AcDbSavedByObjectVersion
1070
     0
1000
AcDbSavedByObjectVersion
1070
     0
1000
AcDbSavedByObjectVersion
1070
     0
1000
AcDbSavedByObjectVersion
1070
     0
1000
AcDbSavedByObjectVersion
1070
     0
1000
AcDbSavedByObjectVersion
1070
     0
1000
AcDbSavedByObjectVersion
1070
     0
1000
AcDbSavedByObjectVersion
1070
     0
1000
AcDbSavedByObjectVersion
1070
     0
1000
AcDbSavedByObjectVersion
1070
     0
1000
AcDbSavedByObjectVersion
1070
     0
1000
AcDbSavedByObjectVersion
1070
     0
1000
AcDbSavedByObjectVersion
1070
     0
1000
AcDbSavedByObjectVersion
1070
     0
1000
AcDbSavedByObjectVersion
1070
     0
1000
AcDbSavedByObjectVersion
1070
     0
1000
AcDbSavedByObjectVersion
1070
     0
1000
AcDbSavedByObjectVersion
1070
     0
1000
AcDbSavedByObjectVersion
1070
     0
1000
AcDbSavedByObjectVersion
1070
     0
1000
AcDbSavedByObjectVersion
1070
     0
1000
AcDbSavedByObjectVersion
1070
     0
1000
AcDbSavedByObjectVersion
1070
     0
1000
AcDbSavedByObjectVersion
1070
     0
1000
AcDbSavedByObjectVersion
1070
     0
1000
AcDbSavedByObjectVersion
1070
     0
1000
AcDbSavedByObjectVersion
1070
     0
1000
AcDbSavedByObjectVersion
1070
     0
1000
AcDbSavedByObjectVersion
1070
     0
1000
AcDbSavedByObjectVersion
1070
     0
1000
AcDbSavedByObjectVersion
1070
     0
1000
AcDbSavedByObjectVersion
1070
     0
1000
AcDbSavedByObjectVersion
1070
     0
1000
AcDbSavedByObjectVersion
1070
     0
1000
AcDbSavedByObjectVersion
1070
     0
  0
VISUALSTYLE
  5
33
102
{ACAD_REACTORS
330
2A
102
}
330
2A
100
AcDbVisualStyle
  2
Realistic
 70
     8
 71
     2
 72
     2
 73
     0
 90
        0
 40
-0.6
 41
-30.0
 62
     5
 63
     7
 74
     1
 91
        0
 64
     7
 65
   257
 75
     1
175
     1
 42
1.0
 92
        8
 66
     8
 43
1.0
 76
     1
 77
     6
 78
     2
 67
     7
 79
     5
170
     0
171
     0
290
     0
174
     0
 93
       13
 44
0.0
173
     0
291
     0
 45
0.0
1001
ACAD
1000
AcDbSavedByObjectVersion
1070
     0
1000
AcDbSavedByObjectVersion
1070
     0
1000
AcDbSavedByObjectVersion
1070
     0
1000
AcDbSavedByObjectVersion
1070
     0
1000
AcDbSavedByObjectVersion
1070
     0
1000
AcDbSavedByObjectVersion
1070
     0
1000
AcDbSavedByObjectVersion
1070
     0
1000
AcDbSavedByObjectVersion
1070
     0
1000
AcDbSavedByObjectVersion
1070
     0
1000
AcDbSavedByObjectVersion
1070
     0
1000
AcDbSavedByObjectVersion
1070
     0
1000
AcDbSavedByObjectVersion
1070
     0
1000
AcDbSavedByObjectVersion
1070
     0
1000
AcDbSavedByObjectVersion
1070
     0
1000
AcDbSavedByObjectVersion
1070
     0
1000
AcDbSavedByObjectVersion
1070
     0
1000
AcDbSavedByObjectVersion
1070
     0
1000
AcDbSavedByObjectVersion
1070
     0
1000
AcDbSavedByObjectVersion
1070
     0
1000
AcDbSavedByObjectVersion
1070
     0
1000
AcDbSavedByObjectVersion
1070
     0
1000
AcDbSavedByObjectVersion
1070
     0
1000
AcDbSavedByObjectVersion
1070
     0
1000
AcDbSavedByObjectVersion
1070
     0
1000
AcDbSavedByObjectVersion
1070
     0
1000
AcDbSavedByObjectVersion
1070
     0
1000
AcDbSavedByObjectVersion
1070
     0
1000
AcDbSavedByObjectVersion
1070
     0
1000
AcDbSavedByObjectVersion
1070
     0
1000
AcDbSavedByObjectVersion
1070
     0
1000
AcDbSavedByObjectVersion
1070
     0
1000
AcDbSavedByObjectVersion
1070
     0
1000
AcDbSavedByObjectVersion
1070
     0
1000
AcDbSavedByObjectVersion
1070
     0
1000
AcDbSavedByObjectVersion
1070
     0
1000
AcDbSavedByObjectVersion
1070
     0
1000
AcDbSavedByObjectVersion
1070
     0
1000
AcDbSavedByObjectVersion
1070
     0
1000
AcDbSavedByObjectVersion
1070
     0
1000
AcDbSavedByObjectVersion
1070
     0
1000
AcDbSavedByObjectVersion
1070
     0
1000
AcDbSavedByObjectVersion
1070
     0
1000
AcDbSavedByObjectVersion
1070
     0
1000
AcDbSavedByObjectVersion
1070
     0
1000
AcDbSavedByObjectVersion
1070
     0
1000
AcDbSavedByObjectVersion
1070
     0
1000
AcDbSavedByObjectVersion
1070
     0
1000
AcDbSavedByObjectVersion
1070
     0
1000
AcDbSavedByObjectVersion
1070
     0
1000
AcDbSavedByObjectVersion
1070
     0
1000
AcDbSavedByObjectVersion
1070
     0
1000
AcDbSavedByObjectVersion
1070
     0
1000
AcDbSavedByObjectVersion
1070
     0
  0
VISUALSTYLE
  5
37
102
{ACAD_REACTORS
330
2A
102
}
330
2A
100
AcDbVisualStyle
  2
Thicken
 70
    13
 71
     2
 72
     2
 73
     0
 90
        0
 40
-0.6
 41
-30.0
 62
     5
 63
     7
 74
     1
 91
        4
 64
     7
 65
   257
 75
     1
175
     1
 42
1.0
 92
       12
 66
     7
 43
1.0
 76
     1
 77
     6
 78
     2
 67
     7
 79
     5
170
     0
171
     0
290
     0
174
     0
 93
        1
 44
0.0
173
     0
291
     1
 45
0.0
1001
ACAD
1000
AcDbSavedByObjectVersion
1070
     0
1000
AcDbSavedByObjectVersion
1070
     0
1000
AcDbSavedByObjectVersion
1070
     0
1000
AcDbSavedByObjectVersion
1070
     0
1000
AcDbSavedByObjectVersion
1070
     0
1000
AcDbSavedByObjectVersion
1070
     0
1000
AcDbSavedByObjectVersion
1070
     0
1000
AcDbSavedByObjectVersion
1070
     0
1000
AcDbSavedByObjectVersion
1070
     0
1000
AcDbSavedByObjectVersion
1070
     0
1000
AcDbSavedByObjectVersion
1070
     0
1000
AcDbSavedByObjectVersion
1070
     0
1000
AcDbSavedByObjectVersion
1070
     0
1000
AcDbSavedByObjectVersion
1070
     0
1000
AcDbSavedByObjectVersion
1070
     0
1000
AcDbSavedByObjectVersion
1070
     0
1000
AcDbSavedByObjectVersion
1070
     0
1000
AcDbSavedByObjectVersion
1070
     0
1000
AcDbSavedByObjectVersion
1070
     0
1000
AcDbSavedByObjectVersion
1070
     0
1000
AcDbSavedByObjectVersion
1070
     0
1000
AcDbSavedByObjectVersion
1070
     0
1000
AcDbSavedByObjectVersion
1070
     0
1000
AcDbSavedByObjectVersion
1070
     0
1000
AcDbSavedByObjectVersion
1070
     0
1000
AcDbSavedByObjectVersion
1070
     0
1000
AcDbSavedByObjectVersion
1070
     0
1000
AcDbSavedByObjectVersion
1070
     0
1000
AcDbSavedByObjectVersion
1070
     0
1000
AcDbSavedByObjectVersion
1070
     0
1000
AcDbSavedByObjectVersion
1070
     0
1000
AcDbSavedByObjectVersion
1070
     0
1000
AcDbSavedByObjectVersion
1070
     0
1000
AcDbSavedByObjectVersion
1070
     0
1000
AcDbSavedByObjectVersion
1070
     0
1000
AcDbSavedByObjectVersion
1070
     0
1000
AcDbSavedByObjectVersion
1070
     0
1000
AcDbSavedByObjectVersion
1070
     0
1000
AcDbSavedByObjectVersion
1070
     0
1000
AcDbSavedByObjectVersion
1070
     0
1000
AcDbSavedByObjectVersion
1070
     0
1000
AcDbSavedByObjectVersion
1070
     0
1000
AcDbSavedByObjectVersion
1070
     0
1000
AcDbSavedByObjectVersion
1070
     0
1000
AcDbSavedByObjectVersion
1070
     0
1000
AcDbSavedByObjectVersion
1070
     0
1000
AcDbSavedByObjectVersion
1070
     0
1000
AcDbSavedByObjectVersion
1070
     0
1000
AcDbSavedByObjectVersion
1070
     0
1000
AcDbSavedByObjectVersion
1070
     0
1000
AcDbSavedByObjectVersion
1070
     0
1000
AcDbSavedByObjectVersion
1070
     0
1000
AcDbSavedByObjectVersion
1070
     0
  0
DICTIONARYVAR
  5
510B
102
{ACAD_REACTORS
330
5108
102
}
330
5108
100
DictionaryVariables
280
     0
  1
1:1
  0
DICTIONARYVAR
  5
510A
102
{ACAD_REACTORS
330
5108
102
}
330
5108
100
DictionaryVariables
280
     0
  1
STANDARD
  0
DICTIONARYVAR
  5
5109
102
{ACAD_REACTORS
330
5108
102
}
330
5108
100
DictionaryVariables
280
     0
  1
STANDARD
  0
DICTIONARYVAR
  5
510E
102
{ACAD_REACTORS
330
5108
102
}
330
5108
100
DictionaryVariables
280
     0
  1
1
  0
DICTIONARYVAR
  5
510D
102
{ACAD_REACTORS
330
5108
102
}
330
5108
100
DictionaryVariables
280
     0
  1
0
  0
DICTIONARYVAR
  5
18A4F
102
{ACAD_REACTORS
330
5108
102
}
330
5108
100
DictionaryVariables
280
     0
  1
0
  0
DICTIONARYVAR
  5
18A4E
102
{ACAD_REACTORS
330
5108
102
}
330
5108
100
DictionaryVariables
280
     0
  1
0
  0
DICTIONARYVAR
  5
510C
102
{ACAD_REACTORS
330
5108
102
}
330
5108
100
DictionaryVariables
280
     0
  1
127
  0
XRECORD
  5
13AB9
102
{ACAD_REACTORS
330
13AB8
102
}
330
13AB8
100
AcDbXrecord
280
     1
330
1382D
  0
DICTIONARY
  5
4FEF
330
4FEE
100
AcDbDictionary
280
     1
281
     1
  3
ACAD_XREC_ROUNDTRIP
360
7C2C
  3
BUMPTILE
360
4FF1
  3
DIFFUSETILE
360
4FF0
  3
OPACITYTILE
360
4FF4
  3
REFLECTIONTILE
360
4FF3
  3
REFRACTIONTILE
360
4FF5
  3
SPECULARTILE
360
4FF2
  0
DICTIONARY
  5
4FE7
330
4FE6
100
AcDbDictionary
280
     1
281
     1
  3
ACAD_XREC_ROUNDTRIP
360
7C2B
  3
BUMPTILE
360
4FE9
  3
DIFFUSETILE
360
4FE8
  3
OPACITYTILE
360
4FEC
  3
REFLECTIONTILE
360
4FEB
  3
REFRACTIONTILE
360
4FED
  3
SPECULARTILE
360
4FEA
  0
DICTIONARY
  5
4FF7
330
4FF6
100
AcDbDictionary
280
     1
281
     1
  3
ACAD_XREC_ROUNDTRIP
360
7C2D
  3
BUMPTILE
360
4FF9
  3
DIFFUSETILE
360
4FF8
  3
OPACITYTILE
360
4FFC
  3
REFLECTIONTILE
360
4FFB
  3
REFRACTIONTILE
360
4FFD
  3
SPECULARTILE
360
4FFA
  0
DICTIONARY
  5
50D6
330
4FFF
100
AcDbDictionary
280
     1
281
     1
  3
ACAD_ROUNDTRIP_2008_TABLESTYLE_CELLSTYLEMAP
360
18A5D
  0
XRECORD
  5
7C2C
102
{ACAD_REACTORS
330
4FEF
102
}
330
4FEF
100
AcDbXrecord
280
     1
102
MATERIAL
148
0.0
149
0.0
149
0.0
 93
        0
 94
      127
282
     0
 72
     0
 77
     0
171
     0
175
     0
179
     0
273
     0
  0
XRECORD
  5
4FF1
102
{ACAD_REACTORS
330
4FEF
102
}
330
4FEF
100
AcDbXrecord
280
     1
270
     1
271
     1
  0
XRECORD
  5
4FF0
102
{ACAD_REACTORS
330
4FEF
102
}
330
4FEF
100
AcDbXrecord
280
     1
270
     1
271
     1
  0
XRECORD
  5
4FF4
102
{ACAD_REACTORS
330
4FEF
102
}
330
4FEF
100
AcDbXrecord
280
     1
270
     1
271
     1
  0
XRECORD
  5
4FF3
102
{ACAD_REACTORS
330
4FEF
102
}
330
4FEF
100
AcDbXrecord
280
     1
270
     1
271
     1
  0
XRECORD
  5
4FF5
102
{ACAD_REACTORS
330
4FEF
102
}
330
4FEF
100
AcDbXrecord
280
     1
270
     1
271
     1
  0
XRECORD
  5
4FF2
102
{ACAD_REACTORS
330
4FEF
102
}
330
4FEF
100
AcDbXrecord
280
     1
270
     1
271
     1
  0
XRECORD
  5
7C2B
102
{ACAD_REACTORS
330
4FE7
102
}
330
4FE7
100
AcDbXrecord
280
     1
102
MATERIAL
148
0.0
149
0.0
149
0.0
 93
        0
 94
      127
282
     0
 72
     0
 77
     0
171
     0
175
     0
179
     0
273
     0
  0
XRECORD
  5
4FE9
102
{ACAD_REACTORS
330
4FE7
102
}
330
4FE7
100
AcDbXrecord
280
     1
270
     1
271
     1
  0
XRECORD
  5
4FE8
102
{ACAD_REACTORS
330
4FE7
102
}
330
4FE7
100
AcDbXrecord
280
     1
270
     1
271
     1
  0
XRECORD
  5
4FEC
102
{ACAD_REACTORS
330
4FE7
102
}
330
4FE7
100
AcDbXrecord
280
     1
270
     1
271
     1
  0
XRECORD
  5
4FEB
102
{ACAD_REACTORS
330
4FE7
102
}
330
4FE7
100
AcDbXrecord
280
     1
270
     1
271
     1
  0
XRECORD
  5
4FED
102
{ACAD_REACTORS
330
4FE7
102
}
330
4FE7
100
AcDbXrecord
280
     1
270
     1
271
     1
  0
XRECORD
  5
4FEA
102
{ACAD_REACTORS
330
4FE7
102
}
330
4FE7
100
AcDbXrecord
280
     1
270
     1
271
     1
  0
XRECORD
  5
7C2D
102
{ACAD_REACTORS
330
4FF7
102
}
330
4FF7
100
AcDbXrecord
280
     1
102
MATERIAL
148
0.0
149
0.0
149
0.0
 93
        0
 94
      127
282
     0
 72
     0
 77
     0
171
     0
175
     0
179
     0
273
     0
  0
XRECORD
  5
4FF9
102
{ACAD_REACTORS
330
4FF7
102
}
330
4FF7
100
AcDbXrecord
280
     1
270
     1
271
     1
  0
XRECORD
  5
4FF8
102
{ACAD_REACTORS
330
4FF7
102
}
330
4FF7
100
AcDbXrecord
280
     1
270
     1
271
     1
  0
XRECORD
  5
4FFC
102
{ACAD_REACTORS
330
4FF7
102
}
330
4FF7
100
AcDbXrecord
280
     1
270
     1
271
     1
  0
XRECORD
  5
4FFB
102
{ACAD_REACTORS
330
4FF7
102
}
330
4FF7
100
AcDbXrecord
280
     1
270
     1
271
     1
  0
XRECORD
  5
4FFD
102
{ACAD_REACTORS
330
4FF7
102
}
330
4FF7
100
AcDbXrecord
280
     1
270
     1
271
     1
  0
XRECORD
  5
4FFA
102
{ACAD_REACTORS
330
4FF7
102
}
330
4FF7
100
AcDbXrecord
280
     1
270
     1
271
     1
  0
CELLSTYLEMAP
  5
18A5D
102
{ACAD_REACTORS
330
50D6
102
}
330
50D6
100
AcDbCellStyleMap
 90
        3
300
CELLSTYLE
  1
TABLEFORMAT_BEGIN
 90
        5
170
     1
 91
        0
 92
    32768
 62
   257
 93
        1
300
CONTENTFORMAT
  1
CONTENTFORMAT_BEGIN
 90
        0
 91
        0
 92
      512
 93
        0
300

 40
0.0
140
1.0
 94
        5
 62
     0
340
11
144
0.25
309
CONTENTFORMAT_END
171
     1
301
MARGIN
  1
CELLMARGIN_BEGIN
 40
0.06
 40
0.06
 40
0.06
 40
0.06
 40
0.18
 40
0.18
309
CELLMARGIN_END
 94
        6
 95
        1
302
GRIDFORMAT
  1
GRIDFORMAT_BEGIN
 90
        0
 91
        1
 62
     0
 92
       -2
340
0
 93
        0
 40
0.045
309
GRIDFORMAT_END
 95
        2
302
GRIDFORMAT
  1
GRIDFORMAT_BEGIN
 90
        0
 91
        1
 62
     0
 92
       -2
340
0
 93
        0
 40
0.045
309
GRIDFORMAT_END
 95
        4
302
GRIDFORMAT
  1
GRIDFORMAT_BEGIN
 90
        0
 91
        1
 62
     0
 92
       -2
340
0
 93
        0
 40
0.045
309
GRIDFORMAT_END
 95
        8
302
GRIDFORMAT
  1
GRIDFORMAT_BEGIN
 90
        0
 91
        1
 62
     0
 92
       -2
340
0
 93
        0
 40
0.045
309
GRIDFORMAT_END
 95
       16
302
GRIDFORMAT
  1
GRIDFORMAT_BEGIN
 90
        0
 91
        1
 62
     0
 92
       -2
340
0
 93
        0
 40
0.045
309
GRIDFORMAT_END
 95
       32
302
GRIDFORMAT
  1
GRIDFORMAT_BEGIN
 90
        0
 91
        1
 62
     0
 92
       -2
340
0
 93
        0
 40
0.045
309
GRIDFORMAT_END
309
TABLEFORMAT_END
  1
CELLSTYLE_BEGIN
 90
        1
 91
        1
300
_TITLE
309
CELLSTYLE_END
300
CELLSTYLE
  1
TABLEFORMAT_BEGIN
 90
        5
170
     1
 91
        0
 92
        0
 62
   257
 93
        1
300
CONTENTFORMAT
  1
CONTENTFORMAT_BEGIN
 90
        0
 91
        0
 92
      512
 93
        0
300

 40
0.0
140
1.0
 94
        5
 62
     0
340
11
144
0.18
309
CONTENTFORMAT_END
171
     1
301
MARGIN
  1
CELLMARGIN_BEGIN
 40
0.06
 40
0.06
 40
0.06
 40
0.06
 40
0.18
 40
0.18
309
CELLMARGIN_END
 94
        6
 95
        1
302
GRIDFORMAT
  1
GRIDFORMAT_BEGIN
 90
        0
 91
        1
 62
     0
 92
       -2
340
0
 93
        0
 40
0.045
309
GRIDFORMAT_END
 95
        2
302
GRIDFORMAT
  1
GRIDFORMAT_BEGIN
 90
        0
 91
        1
 62
     0
 92
       -2
340
0
 93
        0
 40
0.045
309
GRIDFORMAT_END
 95
        4
302
GRIDFORMAT
  1
GRIDFORMAT_BEGIN
 90
        0
 91
        1
 62
     0
 92
       -2
340
0
 93
        0
 40
0.045
309
GRIDFORMAT_END
 95
        8
302
GRIDFORMAT
  1
GRIDFORMAT_BEGIN
 90
        0
 91
        1
 62
     0
 92
       -2
340
0
 93
        0
 40
0.045
309
GRIDFORMAT_END
 95
       16
302
GRIDFORMAT
  1
GRIDFORMAT_BEGIN
 90
        0
 91
        1
 62
     0
 92
       -2
340
0
 93
        0
 40
0.045
309
GRIDFORMAT_END
 95
       32
302
GRIDFORMAT
  1
GRIDFORMAT_BEGIN
 90
        0
 91
        1
 62
     0
 92
       -2
340
0
 93
        0
 40
0.045
309
GRIDFORMAT_END
309
TABLEFORMAT_END
  1
CELLSTYLE_BEGIN
 90
        2
 91
        1
300
_HEADER
309
CELLSTYLE_END
300
CELLSTYLE
  1
TABLEFORMAT_BEGIN
 90
        5
170
     1
 91
        0
 92
        0
 62
   257
 93
        1
300
CONTENTFORMAT
  1
CONTENTFORMAT_BEGIN
 90
        0
 91
        0
 92
      512
 93
        0
300

 40
0.0
140
1.0
 94
        2
 62
     0
340
11
144
0.18
309
CONTENTFORMAT_END
171
     1
301
MARGIN
  1
CELLMARGIN_BEGIN
 40
0.06
 40
0.06
 40
0.06
 40
0.06
 40
0.18
 40
0.18
309
CELLMARGIN_END
 94
        6
 95
        1
302
GRIDFORMAT
  1
GRIDFORMAT_BEGIN
 90
        0
 91
        1
 62
     0
 92
       -2
340
0
 93
        0
 40
0.045
309
GRIDFORMAT_END
 95
        2
302
GRIDFORMAT
  1
GRIDFORMAT_BEGIN
 90
        0
 91
        1
 62
     0
 92
       -2
340
0
 93
        0
 40
0.045
309
GRIDFORMAT_END
 95
        4
302
GRIDFORMAT
  1
GRIDFORMAT_BEGIN
 90
        0
 91
        1
 62
     0
 92
       -2
340
0
 93
        0
 40
0.045
309
GRIDFORMAT_END
 95
        8
302
GRIDFORMAT
  1
GRIDFORMAT_BEGIN
 90
        0
 91
        1
 62
     0
 92
       -2
340
0
 93
        0
 40
0.045
309
GRIDFORMAT_END
 95
       16
302
GRIDFORMAT
  1
GRIDFORMAT_BEGIN
 90
        0
 91
        1
 62
     0
 92
       -2
340
0
 93
        0
 40
0.045
309
GRIDFORMAT_END
 95
       32
302
GRIDFORMAT
  1
GRIDFORMAT_BEGIN
 90
        0
 91
        1
 62
     0
 92
       -2
340
0
 93
        0
 40
0.045
309
GRIDFORMAT_END
309
TABLEFORMAT_END
  1
CELLSTYLE_BEGIN
 90
        3
 91
        2
300
_DATA
309
CELLSTYLE_END
  0
ENDSEC
  0
EOF
