  0
SECTION
  2
HEADER
  9
$ACADVER
  1
AC1021
  9
$ACADMAINTVER
 70
    25
  9
$DWGCODEPAGE
  3
ANSI_936
  9
$LASTSAVEDBY
  1
zb.ye
  9
$INSBASE
 10
0.0
 20
0.0
 30
0.0
  9
$EXTMIN
 10
774.2006426298275
 20
184.6373093401216
 30
-0.0000000000001324
  9
$EXTMAX
 10
848.5451538996549
 20
237.1635300191681
 30
0.0000000000000049
  9
$LIMMIN
 10
0.0
 20
0.0
  9
$LIMMAX
 10
12.0
 20
9.0
  9
$ORTHOMODE
 70
     0
  9
$REGENMODE
 70
     1
  9
$FILLMODE
 70
     1
  9
$QTEXTMODE
 70
     0
  9
$MIRRTEXT
 70
     1
  9
$LTSCALE
 40
1.0
  9
$ATTMODE
 70
     1
  9
$TEXTSIZE
 40
0.2
  9
$TRACEWID
 40
0.05
  9
$TEXTSTYLE
  7
Standard
  9
$CLAYER
  8
0
  9
$CELTYPE
  6
ByLayer
  9
$CECOLOR
 62
   256
  9
$CELTSCALE
 40
1.0
  9
$DISPSILH
 70
     0
  9
$DIMSCALE
 40
1.0
  9
$DIMASZ
 40
1.5
  9
$DIMEXO
 40
0.2
  9
$DIMDLI
 40
0.2
  9
$DIMRND
 40
0.0
  9
$DIMDLE
 40
0.0
  9
$DIMEXE
 40
0.5
  9
$DIMTP
 40
0.0
  9
$DIMTM
 40
0.0
  9
$DIMTXT
 40
2.0
  9
$DIMCEN
 40
0.0
  9
$DIMTSZ
 40
0.0
  9
$DIMTOL
 70
     0
  9
$DIMLIM
 70
     0
  9
$DIMTIH
 70
     0
  9
$DIMTOH
 70
     0
  9
$DIMSE1
 70
     0
  9
$DIMSE2
 70
     0
  9
$DIMTAD
 70
     1
  9
$DIMZIN
 70
     8
  9
$DIMBLK
  1

  9
$DIMASO
 70
     1
  9
$DIMSHO
 70
     1
  9
$DIMPOST
  1

  9
$DIMAPOST
  1

  9
$DIMALT
 70
     0
  9
$DIMALTD
 70
     2
  9
$DIMALTF
 40
25.4
  9
$DIMLFAC
 40
1.0
  9
$DIMTOFL
 70
     0
  9
$DIMTVP
 40
0.0
  9
$DIMTIX
 70
     0
  9
$DIMSOXD
 70
     0
  9
$DIMSAH
 70
     0
  9
$DIMBLK1
  1

  9
$DIMBLK2
  1

  9
$DIMSTYLE
  2
01
  9
$DIMCLRD
 70
     1
  9
$DIMCLRE
 70
     6
  9
$DIMCLRT
 70
     4
  9
$DIMTFAC
 40
1.0
  9
$DIMGAP
 40
0.5
  9
$DIMJUST
 70
     0
  9
$DIMSD1
 70
     0
  9
$DIMSD2
 70
     0
  9
$DIMTOLJ
 70
     1
  9
$DIMTZIN
 70
     0
  9
$DIMALTZ
 70
     0
  9
$DIMALTTZ
 70
     0
  9
$DIMUPT
 70
     0
  9
$DIMDEC
 70
     1
  9
$DIMTDEC
 70
     1
  9
$DIMALTU
 70
     2
  9
$DIMALTTD
 70
     2
  9
$DIMTXSTY
  7
Romans字体
  9
$DIMAUNIT
 70
     0
  9
$DIMADEC
 70
     2
  9
$DIMALTRND
 40
0.0
  9
$DIMAZIN
 70
     2
  9
$DIMDSEP
 70
    46
  9
$DIMATFIT
 70
     3
  9
$DIMFRAC
 70
     0
  9
$DIMLDRBLK
  1

  9
$DIMLUNIT
 70
     2
  9
$DIMLWD
 70
    -2
  9
$DIMLWE
 70
    -2
  9
$DIMTMOVE
 70
     0
  9
$DIMFXL
 40
1.0
  9
$DIMFXLON
 70
     0
  9
$DIMJOGANG
 40
0.7853981633974483
  9
$DIMTFILL
 70
     0
  9
$DIMTFILLCLR
 70
     0
  9
$DIMARCSYM
 70
     0
  9
$DIMLTYPE
  6

  9
$DIMLTEX1
  6

  9
$DIMLTEX2
  6

  9
$LUNITS
 70
     2
  9
$LUPREC
 70
     4
  9
$SKETCHINC
 40
0.1
  9
$FILLETRAD
 40
0.5
  9
$AUNITS
 70
     0
  9
$AUPREC
 70
     0
  9
$MENU
  1
.
  9
$ELEVATION
 40
0.0
  9
$PELEVATION
 40
0.0
  9
$THICKNESS
 40
0.0
  9
$LIMCHECK
 70
     0
  9
$CHAMFERA
 40
0.5
  9
$CHAMFERB
 40
0.5
  9
$CHAMFERC
 40
1.0
  9
$CHAMFERD
 40
0.0
  9
$SKPOLY
 70
     0
  9
$TDCREATE
 40
2456524.383632987
  9
$TDUCREATE
 40
2456524.050299653
  9
$TDUPDATE
 40
2460293.364999815
  9
$TDUUPDATE
 40
2460293.031666481
  9
$TDINDWG
 40
1.4241016204
  9
$TDUSRTIMER
 40
1.4240821296
  9
$USRTIMER
 70
     1
  9
$ANGBASE
 50
0.0
  9
$ANGDIR
 70
     0
  9
$PDMODE
 70
     0
  9
$PDSIZE
 40
0.0
  9
$PLINEWID
 40
0.0
  9
$SPLFRAME
 70
     0
  9
$SPLINETYPE
 70
     6
  9
$SPLINESEGS
 70
     8
  9
$HANDSEED
  5
F07
  9
$SURFTAB1
 70
     6
  9
$SURFTAB2
 70
     6
  9
$SURFTYPE
 70
     6
  9
$SURFU
 70
     6
  9
$SURFV
 70
     6
  9
$UCSBASE
  2

  9
$UCSNAME
  2

  9
$UCSORG
 10
0.0
 20
0.0
 30
0.0
  9
$UCSXDIR
 10
1.0
 20
0.0
 30
0.0
  9
$UCSYDIR
 10
0.0
 20
1.0
 30
0.0
  9
$UCSORTHOREF
  2

  9
$UCSORTHOVIEW
 70
     0
  9
$UCSORGTOP
 10
0.0
 20
0.0
 30
0.0
  9
$UCSORGBOTTOM
 10
0.0
 20
0.0
 30
0.0
  9
$UCSORGLEFT
 10
0.0
 20
0.0
 30
0.0
  9
$UCSORGRIGHT
 10
0.0
 20
0.0
 30
0.0
  9
$UCSORGFRONT
 10
0.0
 20
0.0
 30
0.0
  9
$UCSORGBACK
 10
0.0
 20
0.0
 30
0.0
  9
$PUCSBASE
  2

  9
$PUCSNAME
  2

  9
$PUCSORG
 10
0.0
 20
0.0
 30
0.0
  9
$PUCSXDIR
 10
1.0
 20
0.0
 30
0.0
  9
$PUCSYDIR
 10
0.0
 20
1.0
 30
0.0
  9
$PUCSORTHOREF
  2

  9
$PUCSORTHOVIEW
 70
     0
  9
$PUCSORGTOP
 10
0.0
 20
0.0
 30
0.0
  9
$PUCSORGBOTTOM
 10
0.0
 20
0.0
 30
0.0
  9
$PUCSORGLEFT
 10
0.0
 20
0.0
 30
0.0
  9
$PUCSORGRIGHT
 10
0.0
 20
0.0
 30
0.0
  9
$PUCSORGFRONT
 10
0.0
 20
0.0
 30
0.0
  9
$PUCSORGBACK
 10
0.0
 20
0.0
 30
0.0
  9
$USERI1
 70
     0
  9
$USERI2
 70
     0
  9
$USERI3
 70
     0
  9
$USERI4
 70
     0
  9
$USERI5
 70
     0
  9
$USERR1
 40
0.0
  9
$USERR2
 40
0.0
  9
$USERR3
 40
0.0
  9
$USERR4
 40
0.0
  9
$USERR5
 40
2.5
  9
$WORLDVIEW
 70
     1
  9
$SHADEDGE
 70
     3
  9
$SHADEDIF
 70
    70
  9
$TILEMODE
 70
     1
  9
$MAXACTVP
 70
    64
  9
$PINSBASE
 10
0.0
 20
0.0
 30
0.0
  9
$PLIMCHECK
 70
     0
  9
$PEXTMIN
 10
1.000000000000000E+20
 20
1.000000000000000E+20
 30
1.000000000000000E+20
  9
$PEXTMAX
 10
-1.000000000000000E+20
 20
-1.000000000000000E+20
 30
-1.000000000000000E+20
  9
$PLIMMIN
 10
0.0
 20
0.0
  9
$PLIMMAX
 10
12.0
 20
9.0
  9
$UNITMODE
 70
     0
  9
$VISRETAIN
 70
     1
  9
$PLINEGEN
 70
     0
  9
$PSLTSCALE
 70
     1
  9
$TREEDEPTH
 70
  3020
  9
$CMLSTYLE
  2
Standard
  9
$CMLJUST
 70
     0
  9
$CMLSCALE
 40
1.0
  9
$PROXYGRAPHICS
 70
     1
  9
$MEASUREMENT
 70
     0
  9
$CELWEIGHT
370
    -1
  9
$ENDCAPS
280
     0
  9
$JOINSTYLE
280
     0
  9
$LWDISPLAY
290
     0
  9
$INSUNITS
 70
     4
  9
$HYPERLINKBASE
  1

  9
$STYLESHEET
  1
MONOCHROME.CTB
  9
$XEDIT
290
     1
  9
$CEPSNTYPE
380
     0
  9
$PSTYLEMODE
290
     1
  9
$FINGERPRINTGUID
  2
{7BD07336-E4F1-416F-AAFB-0A59C53E3604}
  9
$VERSIONGUID
  2
{3ED2EB78-48A9-430F-A55C-A3C93DC97FED}
  9
$EXTNAMES
290
     1
  9
$PSVPSCALE
 40
0.0
  9
$OLESTARTUP
290
     0
  9
$SORTENTS
280
   127
  9
$INDEXCTL
280
     0
  9
$HIDETEXT
280
     1
  9
$XCLIPFRAME
290
     0
  9
$HALOGAP
280
     0
  9
$OBSCOLOR
 70
   257
  9
$OBSLTYPE
280
     0
  9
$INTERSECTIONDISPLAY
280
     0
  9
$INTERSECTIONCOLOR
 70
   257
  9
$DIMASSOC
280
     1
  9
$PROJECTNAME
  1

  9
$CAMERADISPLAY
290
     0
  9
$LENSLENGTH
 40
50.0
  9
$CAMERAHEIGHT
 40
0.0
  9
$STEPSPERSEC
 40
2.0
  9
$STEPSIZE
 40
6.0
  9
$3DDWFPREC
 40
2.0
  9
$PSOLWIDTH
 40
0.25
  9
$PSOLHEIGHT
 40
4.0
  9
$LOFTANG1
 40
1.570795999999999
  9
$LOFTANG2
 40
1.570795999999999
  9
$LOFTMAG1
 40
0.0
  9
$LOFTMAG2
 40
0.0
  9
$LOFTPARAM
 70
     7
  9
$LOFTNORMALS
280
     1
  9
$LATITUDE
 40
37.795
  9
$LONGITUDE
 40
-122.394
  9
$NORTHDIRECTION
 40
0.0
  9
$TIMEZONE
 70
 -8000
  9
$LIGHTGLYPHDISPLAY
280
     1
  9
$TILEMODELIGHTSYNCH
280
     1
  9
$CMATERIAL
347
24C
  9
$SOLIDHIST
280
     1
  9
$SHOWHIST
280
     1
  9
$DWFFRAME
280
     2
  9
$DGNFRAME
280
     0
  9
$REALWORLDSCALE
290
     1
  9
$INTERFERECOLOR
 62
     1
  9
$INTERFEREOBJVS
345
262
  9
$INTERFEREVPVS
346
263
  9
$CSHADOW
280
     0
  9
$SHADOWPLANELOCATION
 40
0.0
  0
ENDSEC
  0
SECTION
  2
CLASSES
  0
CLASS
  1
ACDBDICTIONARYWDFLT
  2
AcDbDictionaryWithDefault
  3
ObjectDBX Classes
 90
        0
 91
        1
280
     0
281
     0
  0
CLASS
  1
VISUALSTYLE
  2
AcDbVisualStyle
  3
ObjectDBX Classes
 90
     4095
 91
       16
280
     0
281
     0
  0
CLASS
  1
MATERIAL
  2
AcDbMaterial
  3
ObjectDBX Classes
 90
     1153
 91
        3
280
     0
281
     0
  0
CLASS
  1
TABLESTYLE
  2
AcDbTableStyle
  3
ObjectDBX Classes
 90
     4095
 91
        1
280
     0
281
     0
  0
CLASS
  1
SCALE
  2
AcDbScale
  3
ObjectDBX Classes
 90
     1153
 91
       33
280
     0
281
     0
  0
CLASS
  1
MLEADERSTYLE
  2
AcDbMLeaderStyle
  3
ACDB_MLEADERSTYLE_CLASS
 90
     4095
 91
        1
280
     0
281
     0
  0
CLASS
  1
CELLSTYLEMAP
  2
AcDbCellStyleMap
  3
ObjectDBX Classes
 90
     1152
 91
        2
280
     0
281
     0
  0
CLASS
  1
DICTIONARYVAR
  2
AcDbDictionaryVar
  3
ObjectDBX Classes
 90
        0
 91
       11
280
     0
281
     0
  0
CLASS
  1
SORTENTSTABLE
  2
AcDbSortentsTable
  3
ObjectDBX Classes
 90
        0
 91
        1
280
     0
281
     0
  0
CLASS
  1
ACAD_EVALUATION_GRAPH
  2
AcDbEvalGraph
  3
ObjectDBX Classes
 90
     1153
 91
        1
280
     0
281
     0
  0
CLASS
  1
ACAECUSTOBJ
  2
AcAeEditorObj
  3
AcAeEditorObj
 90
     1024
 91
        1
280
     1
281
     0
  0
CLASS
  1
ACDB_DYNAMICBLOCKPURGEPREVENTER_VERSION
  2
AcDbDynamicBlockPurgePreventer
  3
ObjectDBX Classes
 90
     1153
 91
        1
280
     0
281
     0
  0
CLASS
  1
MENTALRAYRENDERSETTINGS
  2
AcDbMentalRayRenderSettings
  3
SCENEOE
 90
     1024
 91
        0
280
     0
281
     0
  0
CLASS
  1
ACDB_BLOCKREPRESENTATION_DATA
  2
AcDbBlockRepresentationData
  3
ObjectDBX Classes
 90
     1153
 91
        0
280
     0
281
     0
  0
CLASS
  1
DIMASSOC
  2
AcDbDimAssoc
  3
"AcDbDimAssoc|Product Desc:     AcDim ARX App For Dimension|Company:          Autodesk, Inc.|WEB Address:      www.autodesk.com"
 90
        0
 91
        0
280
     0
281
     0
  0
CLASS
  1
SOLID_BACKGROUND
  2
AcDbSolidBackground
  3
SCENEOE
 90
     4095
 91
        0
280
     0
281
     0
  0
CLASS
  1
NPOCOLLECTION
  2
AcDbImpNonPersistentObjectsCollection
  3
ObjectDBX Classes
 90
     1153
 91
        0
280
     0
281
     0
  0
CLASS
  1
VLO-VL
  2
vlo_VL
  3
VL|AutoLISP based application
 90
      129
 91
        2
280
     0
281
     0
  0
CLASS
  1
ACDBPLACEHOLDER
  2
AcDbPlaceHolder
  3
ObjectDBX Classes
 90
        0
 91
        1
280
     0
281
     0
  0
CLASS
  1
LAYOUT
  2
AcDbLayout
  3
ObjectDBX Classes
 90
        0
 91
        3
280
     0
281
     0
  0
ENDSEC
  0
SECTION
  2
TABLES
  0
TABLE
  2
VPORT
  5
240
102
{ACAD_XDICTIONARY
360
244
102
}
330
0
100
AcDbSymbolTable
 70
     1
  0
VPORT
  5
241
330
240
100
AcDbSymbolTableRecord
100
AcDbViewportTableRecord
  2
*Active
 70
     0
 10
0.0
 20
0.0
 11
1.0
 21
1.0
 12
91.09058976918323
 22
-11.91747699288214
 13
0.0
 23
0.0
 14
0.5
 24
0.5
 15
0.5
 25
0.5
 16
0.0
 26
0.0
 36
47.52287584630495
 17
720.282308495558
 27
222.817896672527
 37
0.0
 40
53.0585810237665
 41
2.426395939086294
 42
50.0
 43
0.0
 44
0.0
 50
0.0
 51
0.0
 71
     0
 72
   100
 73
     1
 74
     3
 75
     0
 76
     0
 77
     0
 78
     0
281
     0
 65
     1
110
0.0
120
0.0
130
0.0
111
1.0
121
0.0
131
0.0
112
0.0
122
1.0
132
0.0
 79
     0
146
0.0
348
242
 60
     3
 61
     5
292
     1
282
     1
141
0.0
142
0.0
 63
   250
421
  3355443
  0
ENDTAB
  0
TABLE
  2
LTYPE
  5
23B
330
0
100
AcDbSymbolTable
 70
     2
  0
LTYPE
  5
23C
330
23B
100
AcDbSymbolTableRecord
100
AcDbLinetypeTableRecord
  2
ByBlock
 70
     0
  3

 72
    65
 73
     0
 40
0.0
  0
LTYPE
  5
23D
330
23B
100
AcDbSymbolTableRecord
100
AcDbLinetypeTableRecord
  2
ByLayer
 70
     0
  3

 72
    65
 73
     0
 40
0.0
  0
LTYPE
  5
15
330
23B
100
AcDbSymbolTableRecord
100
AcDbLinetypeTableRecord
  2
Continuous
 70
     0
  3
Solid line
 72
    65
 73
     0
 40
0.0
  0
LTYPE
  5
118
330
23B
100
AcDbSymbolTableRecord
100
AcDbLinetypeTableRecord
  2
CENTER
 70
     0
  3
Center ____ _ ____ _ ____ _ ____ _ ____ _ ____
 72
    65
 73
     4
 40
2.0
 49
1.25
 74
     0
 49
-0.25
 74
     0
 49
0.25
 74
     0
 49
-0.25
 74
     0
  0
ENDTAB
  0
TABLE
  2
LAYER
  5
234
102
{ACAD_XDICTIONARY
360
235
102
}
330
0
100
AcDbSymbolTable
 70
     8
  0
LAYER
  5
6
102
{ACAD_XDICTIONARY
360
7
102
}
330
234
100
AcDbSymbolTableRecord
100
AcDbLayerTableRecord
  2
0
 70
     0
 62
     7
  6
Continuous
370
    25
390
9
347
C
  0
LAYER
  5
17
102
{ACAD_XDICTIONARY
360
18
102
}
330
234
100
AcDbSymbolTableRecord
100
AcDbLayerTableRecord
  2
图层 1
 70
     0
 62
     7
  6
Continuous
370
    -3
390
9
347
C
  0
LAYER
  5
25
102
{ACAD_XDICTIONARY
360
26
102
}
330
234
100
AcDbSymbolTableRecord
100
AcDbLayerTableRecord
  2
图框
 70
     0
 62
     7
  6
Continuous
370
    20
390
9
347
C
  0
LAYER
  5
129
330
234
100
AcDbSymbolTableRecord
100
AcDbLayerTableRecord
  2
Defpoints
 70
     0
 62
     7
  6
Continuous
290
     0
370
    -3
390
9
347
C
  0
LAYER
  5
11F
330
234
100
AcDbSymbolTableRecord
100
AcDbLayerTableRecord
  2
DIM
 70
     0
 62
     3
  6
Continuous
370
    15
390
9
347
C
1001
AcAecLayerStandard
1000

1000

  0
LAYER
  5
F2
330
234
100
AcDbSymbolTableRecord
100
AcDbLayerTableRecord
  2
打标文字
 70
     0
 62
     3
  6
Continuous
370
    20
390
9
347
C
  0
LAYER
  5
10C
330
234
100
AcDbSymbolTableRecord
100
AcDbLayerTableRecord
  2
hat
 70
     0
 62
     6
  6
Continuous
370
    15
390
9
347
C
1001
AcAecLayerStandard
1000

1000

  0
LAYER
  5
913
330
234
100
AcDbSymbolTableRecord
100
AcDbLayerTableRecord
  2
1
 70
     0
 62
     7
  6
Continuous
370
    -3
390
9
347
C
  0
ENDTAB
  0
TABLE
  2
STYLE
  5
239
330
0
100
AcDbSymbolTable
 70
     4
  0
STYLE
  5
46
330
239
100
AcDbSymbolTableRecord
100
AcDbTextStyleTableRecord
  2
Standard
 70
     0
 40
0.0
 41
0.75
 50
0.0
 71
     0
 42
0.2
  3

  4

1001
ACAD
1000
FangSong_GB2312
1071
    34353
  0
STYLE
  5
28
330
239
100
AcDbSymbolTableRecord
100
AcDbTextStyleTableRecord
  2
Romans字体
 70
     0
 40
0.0
 41
0.75
 50
0.0
 71
     0
 42
0.2
  3
romans.shx
  4

  0
STYLE
  5
48
330
239
100
AcDbSymbolTableRecord
100
AcDbTextStyleTableRecord
  2
工程字
 70
     0
 40
0.0
 41
1.0
 50
0.0
 71
     0
 42
3.5
  3
gbenor.shx
  4
gbcbig.shx
  0
STYLE
  5
4A
330
239
100
AcDbSymbolTableRecord
100
AcDbTextStyleTableRecord
  2
Chinese
 70
     0
 40
0.0
 41
1.0
 50
0.0
 71
     0
 42
2.5
  3

  4

1001
ACAD
1000
PMingLiU
1071
    34834
  0
ENDTAB
  0
TABLE
  2
VIEW
  5
23E
330
0
100
AcDbSymbolTable
 70
     0
  0
ENDTAB
  0
TABLE
  2
UCS
  5
23F
330
0
100
AcDbSymbolTable
 70
     0
  0
ENDTAB
  0
TABLE
  2
APPID
  5
245
330
0
100
AcDbSymbolTable
 70
    10
  0
APPID
  5
29
330
245
100
AcDbSymbolTableRecord
100
AcDbRegAppTableRecord
  2
ACAD
 70
     0
  0
APPID
  5
35
330
245
100
AcDbSymbolTableRecord
100
AcDbRegAppTableRecord
  2
AcDbBlockRepETag
 70
     0
  0
APPID
  5
22B
330
245
100
AcDbSymbolTableRecord
100
AcDbRegAppTableRecord
  2
ACAD_PSEXT
 70
     0
  0
APPID
  5
10D
330
245
100
AcDbSymbolTableRecord
100
AcDbRegAppTableRecord
  2
AcAecLayerStandard
 70
     0
  0
APPID
  5
12E
330
245
100
AcDbSymbolTableRecord
100
AcDbRegAppTableRecord
  2
ACAD_DSTYLE_DIMJAG
 70
     0
  0
APPID
  5
12F
330
245
100
AcDbSymbolTableRecord
100
AcDbRegAppTableRecord
  2
ACAD_DSTYLE_DIMTALN
 70
     0
  0
APPID
  5
2C0
330
245
100
AcDbSymbolTableRecord
100
AcDbRegAppTableRecord
  2
ACAD_MLEADERVER
 70
     0
  0
APPID
  5
367
330
245
100
AcDbSymbolTableRecord
100
AcDbRegAppTableRecord
  2
AcDbDynamicBlockGUID
 70
     0
  0
APPID
  5
C9A
330
245
100
AcDbSymbolTableRecord
100
AcDbRegAppTableRecord
  2
ACAUTHENVIRON
 70
     0
  0
APPID
  5
C9D
330
245
100
AcDbSymbolTableRecord
100
AcDbRegAppTableRecord
  2
AcDbDynamicBlockTrueName
 70
     0
  0
ENDTAB
  0
TABLE
  2
DIMSTYLE
  5
246
330
0
100
AcDbSymbolTable
 70
     2
100
AcDbDimStyleTable
 71
     2
340
12D
340
247
  0
DIMSTYLE
105
247
330
246
100
AcDbSymbolTableRecord
100
AcDbDimStyleTableRecord
  2
Standard
 70
     0
340
46
  0
DIMSTYLE
105
12D
102
{ACAD_REACTORS
330
ADE
330
AEB
330
B5B
330
B73
330
BBA
102
}
330
246
100
AcDbSymbolTableRecord
100
AcDbDimStyleTableRecord
  2
01
 70
     0
 41
1.5
 42
0.2
 43
0.2
 44
0.5
 73
     0
 74
     0
 77
     1
 78
     8
 79
     2
140
2.0
141
0.0
147
0.5
176
     1
177
     6
178
     4
179
     2
271
     1
272
     1
340
28
1001
ACAD_DSTYLE_DIMJAG
1070
   388
1040
1.5
1001
ACAD_DSTYLE_DIMTALN
1070
   392
1070
     0
  0
ENDTAB
  0
TABLE
  2
BLOCK_RECORD
  5
1
330
0
100
AcDbSymbolTable
 70
     8
  0
BLOCK_RECORD
  5
2
102
{ACAD_XDICTIONARY
360
3
102
}
330
1
100
AcDbSymbolTableRecord
100
AcDbBlockTableRecord
  2
*Model_Space
340
229
 70
     0
280
     1
281
     0
  0
BLOCK_RECORD
  5
22C
330
1
100
AcDbSymbolTableRecord
100
AcDbBlockTableRecord
  2
*Paper_Space
340
22F
 70
     0
280
     1
281
     0
  0
BLOCK_RECORD
  5
230
330
1
100
AcDbSymbolTableRecord
100
AcDbBlockTableRecord
  2
*Paper_Space0
340
233
 70
     0
280
     1
281
     0
  0
BLOCK_RECORD
  5
2CE
102
{ACAD_XDICTIONARY
360
EE8
102
}
330
1
100
AcDbSymbolTableRecord
100
AcDbBlockTableRecord
  2
A4图框-NEW
340
0
310
2800000020000000200000000100080000000000000400000000000000000000000000000000000000000000000080000080000000808000800000008000800080800000C0C0C000C0DCC000F0CAA6000020400000206000002080000020A0000020C0000020E00000400000004020000040400000406000004080000040A0
310
000040C0000040E00000600000006020000060400000606000006080000060A0000060C0000060E00000800000008020000080400000806000008080000080A0000080C0000080E00000A0000000A0200000A0400000A0600000A0800000A0A00000A0C00000A0E00000C0000000C0200000C0400000C0600000C0800000C0
310
A00000C0C00000C0E00000E0000000E0200000E0400000E0600000E0800000E0A00000E0C00000E0E00040000000400020004000400040006000400080004000A0004000C0004000E00040200000402020004020400040206000402080004020A0004020C0004020E000404000004040200040404000404060004040800040
310
40A0004040C0004040E00040600000406020004060400040606000406080004060A0004060C0004060E00040800000408020004080400040806000408080004080A0004080C0004080E00040A0000040A0200040A0400040A0600040A0800040A0A00040A0C00040A0E00040C0000040C0200040C0400040C0600040C08000
310
40C0A00040C0C00040C0E00040E0000040E0200040E0400040E0600040E0800040E0A00040E0C00040E0E00080000000800020008000400080006000800080008000A0008000C0008000E00080200000802020008020400080206000802080008020A0008020C0008020E00080400000804020008040400080406000804080
310
008040A0008040C0008040E00080600000806020008060400080606000806080008060A0008060C0008060E00080800000808020008080400080806000808080008080A0008080C0008080E00080A0000080A0200080A0400080A0600080A0800080A0A00080A0C00080A0E00080C0000080C0200080C0400080C0600080C0
310
800080C0A00080C0C00080C0E00080E0000080E0200080E0400080E0600080E0800080E0A00080E0C00080E0E000C0000000C0002000C0004000C0006000C0008000C000A000C000C000C000E000C0200000C0202000C0204000C0206000C0208000C020A000C020C000C020E000C0400000C0402000C0404000C0406000C0
310
408000C040A000C040C000C040E000C0600000C0602000C0604000C0606000C0608000C060A000C060C000C060E000C0800000C0802000C0804000C0806000C0808000C080A000C080C000C080E000C0A00000C0A02000C0A04000C0A06000C0A08000C0A0A000C0A0C000C0A0E000C0C00000C0C02000C0C04000C0C06000
310
C0C08000C0C0A000F0FBFF00A4A0A000808080000000FF0000FF000000FFFF00FF000000FF00FF00FFFF0000FFFFFF0000000000000000000000000000000000000000000000000000000000000000000000000000000000000000000000000000000000000000000000000000000000000000000000000000000000000000
310
000000000000000000000000000000000000000000000000000000000000000000000000000000000000000000000000000000000000000000000000000000000000000000000000000000000000000000000000000000000000000000000000000000000000000000000000000000000000F9F9F9F9F9F9F9F9F9F9F9F9F9
310
F9F9F9F9F9F9F9F9F9F9F9F9F9F9FF00000000F9FF000000000000000000FFFFFFFFFFFFFFFFFFFFFFFFF9FAFAFAFF00000000F9FF000000000000000000FFFFFFFFFFFFFFFFFFFFFFFFFFFFFFFFFF00000000F9FD000000000000000000FFFFFFFFFFFFFFFFFFFFFFFFFFFFFFFFFF00000000F9FF000000000000000000FF
310
FFFFFFFFFFFFFFFFFFFFFFFFFFFFFFFF00000000F9FD000000000000000000FFFFFFFFFFFFFFFFFFFFFFFFFFFFFFFFFF00000000F9FF00000000000000000000000000000000000000000000000000FF00000000F9FD00000000000000000000000000000000000000000000000000FF00000000F9FF000000000000000000
310
00000000000000000000000000000000FF00000000F9FD00000000000000000000000000000000000000000000000000FF00000000F9FF00000000000000000000000000000000000000000000000000FF00000000F9FD00000000000000000000000000000000000000000000000000FF00000000F9FD0000000000000000
310
0000000000000000000000000000000000FF00000000F9FF00000000000000000000000000000000000000000000000000FF00000000F9FD00000000000000000000000000000000000000000000000000FF00000000F9FF00000000000000000000000000000000000000000000000000FF00000000F9FD00000000000000
310
000000000000000000000000000000000000FF00000000F9FF00000000000000000000000000000000000000000000000000FF00000000F9FFFFFFFFFFFFFFFFFFFFFFFFFFFFFFFFFFFFFFFFFFFFFFFFFFFFFF00000000F9FFFFFFF9F9F9F9F9F9F9F9F9F9F9F9F9F9F9F9F9F9F9F9F9F9F9F9000000000000000000000000
310
00000000000000000000000000000000000000000000000000000000000000000000000000000000000000000000000000000000000000000000000000000000000000000000000000000000000000000000000000000000000000000000000000000000000000000000000000000000000000000000000000000000000000
310
0000000000000000000000000000000000000000000000000000000000000000000000000000000000000000000000000000000000000000
102
{BLKREFS
331
374
102
}
 70
     4
280
     1
281
     0
1001
AcDbDynamicBlockGUID
1000
{43D2F4E0-6DFB-4659-A14B-957E7A25EE75}
1001
AcDbBlockRepETag
1070
     1
1071
      149
  0
BLOCK_RECORD
  5
ADF
330
1
100
AcDbSymbolTableRecord
100
AcDbBlockTableRecord
  2
*D2
340
0
 70
     0
280
     1
281
     0
  0
BLOCK_RECORD
  5
AEC
330
1
100
AcDbSymbolTableRecord
100
AcDbBlockTableRecord
  2
*D3
340
0
 70
     0
280
     1
281
     0
  0
BLOCK_RECORD
  5
B5C
330
1
100
AcDbSymbolTableRecord
100
AcDbBlockTableRecord
  2
*D4
340
0
 70
     0
280
     1
281
     0
  0
BLOCK_RECORD
  5
B74
330
1
100
AcDbSymbolTableRecord
100
AcDbBlockTableRecord
  2
*D5
340
0
 70
     0
280
     1
281
     0
  0
BLOCK_RECORD
  5
BBB
330
1
100
AcDbSymbolTableRecord
100
AcDbBlockTableRecord
  2
*D6
340
0
 70
     0
280
     1
281
     0
  0
ENDTAB
  0
ENDSEC
  0
SECTION
  2
BLOCKS
  0
BLOCK
  5
5
330
2
100
AcDbEntity
  8
0
100
AcDbBlockBegin
  2
*Model_Space
 70
     0
 10
0.0
 20
0.0
 30
0.0
  3
*Model_Space
  1

  0
ENDBLK
  5
228
330
2
100
AcDbEntity
  8
0
100
AcDbBlockEnd
  0
BLOCK
  5
22D
330
22C
100
AcDbEntity
 67
     1
  8
0
100
AcDbBlockBegin
  2
*Paper_Space
 70
     0
 10
0.0
 20
0.0
 30
0.0
  3
*Paper_Space
  1

  0
ENDBLK
  5
22E
330
22C
100
AcDbEntity
 67
     1
  8
0
100
AcDbBlockEnd
  0
BLOCK
  5
231
330
230
100
AcDbEntity
 67
     1
  8
0
100
AcDbBlockBegin
  2
*Paper_Space0
 70
     0
 10
0.0
 20
0.0
 30
0.0
  3
*Paper_Space0
  1

  0
ENDBLK
  5
232
330
230
100
AcDbEntity
 67
     1
  8
0
100
AcDbBlockEnd
  0
BLOCK
  5
2D0
330
2CE
100
AcDbEntity
  8
0
100
AcDbBlockBegin
  2
A4图框-NEW
 70
     0
 10
0.0
 20
0.0
 30
0.0
  3
A4图框-NEW
  1

  0
MTEXT
  5
E53
102
{ACAD_XDICTIONARY
360
EEF
102
}
330
2CE
100
AcDbEntity
  8
图框
 62
     3
100
AcDbMText
 10
967.6594956750133
 20
499.7664151964293
 30
0.0
 40
2.985513575034151
 41
15.50176341157864
 46
6.292658374511018
 71
     5
 72
     5
  1
GQ.WU
  7
Romans字体
 73
     1
 44
1.0
1001
AcDbBlockRepETag
1070
     1
1071
        0
1005
E53
1001
ACAD
1000
MTEXTBEGIN
1070
    73
1070
     1
1070
    44
1040
1.0
1070
    74
1070
     0
1000
MTEXTEND
1000
ACAD_MTEXT_DEFINED_HEIGHT_BEGIN
1070
    46
1040
6.292658374511018
1000
ACAD_MTEXT_DEFINED_HEIGHT_END
  0
MTEXT
  5
E54
330
2CE
100
AcDbEntity
  8
图框
 62
     3
100
AcDbMText
 10
983.041569333247
 20
499.7664151964293
 30
0.0
 40
2.487927979195124
 41
15.26238390489062
 46
6.292658374511042
 71
     5
 72
     5
  1
{\W0.7;20.3.2023}
  7
Romans字体
 73
     1
 44
1.0
1001
AcDbBlockRepETag
1070
     1
1071
        1
1005
E54
1001
ACAD
1000
MTEXTBEGIN
1070
    73
1070
     1
1070
    44
1040
1.0
1070
    74
1070
     0
1000
MTEXTEND
1000
ACAD_MTEXT_DEFINED_HEIGHT_BEGIN
1070
    46
1040
6.292658374511042
1000
ACAD_MTEXT_DEFINED_HEIGHT_END
  0
MTEXT
  5
E55
330
2CE
100
AcDbEntity
  8
图框
 62
     3
100
AcDbMText
 10
1012.477254728976
 20
487.1810984474071
 30
0.0
 40
2.985513575034151
 41
17.64876416884615
 46
6.292658374511455
 71
     5
 72
     5
  1
HQ.ZHANG
  7
Romans字体
 73
     1
 44
1.0
1001
AcDbBlockRepETag
1070
     1
1071
        2
1005
E55
1001
ACAD
1000
MTEXTBEGIN
1070
    73
1070
     1
1070
    44
1040
1.0
1070
    74
1070
     0
1000
MTEXTEND
1000
ACAD_MTEXT_DEFINED_HEIGHT_BEGIN
1070
    46
1040
6.292658374511455
1000
ACAD_MTEXT_DEFINED_HEIGHT_END
  0
MTEXT
  5
E56
330
2CE
100
AcDbEntity
  8
图框
 62
     3
100
AcDbMText
 10
1028.977802139886
 20
487.1810984474071
 30
0.0
 40
2.487927979195124
 41
15.35233065297276
 46
6.292658374511495
 71
     5
 72
     5
  1
{\W0.7;20.3.2023}
  7
Romans字体
 73
     1
 44
1.0
1001
AcDbBlockRepETag
1070
     1
1071
        3
1005
E56
1001
ACAD
1000
MTEXTBEGIN
1070
    73
1070
     1
1070
    44
1040
1.0
1070
    74
1070
     0
1000
MTEXTEND
1000
ACAD_MTEXT_DEFINED_HEIGHT_BEGIN
1070
    46
1040
6.292658374511495
1000
ACAD_MTEXT_DEFINED_HEIGHT_END
  0
MTEXT
  5
E57
330
2CE
100
AcDbEntity
  8
图框
 62
     3
100
AcDbMText
 10
1063.722665487208
 20
525.4145966538831
 30
0.0
 40
2.985513575034151
 41
32.4973914334545
 46
11.82914190181707
 71
     5
 72
     5
  1
-
  7
Romans字体
 73
     1
 44
1.0
1001
AcDbBlockRepETag
1070
     1
1071
        4
1005
E57
1001
ACAD
1000
MTEXTBEGIN
1070
    73
1070
     1
1070
    44
1040
1.0
1070
    74
1070
     0
1000
MTEXTEND
1000
ACAD_MTEXT_DEFINED_HEIGHT_BEGIN
1070
    46
1040
11.82914190181707
1000
ACAD_MTEXT_DEFINED_HEIGHT_END
  0
MTEXT
  5
E58
330
2CE
100
AcDbEntity
  8
图框
 62
     3
100
AcDbMText
 10
1063.727338552349
 20
513.5854547520641
 30
0.0
 40
2.985513575034151
 41
32.48804530317308
 46
11.82914190182139
 71
     5
 72
     5
  1
-
  7
Romans字体
 73
     1
 44
1.0
1001
AcDbBlockRepETag
1070
     1
1071
        5
1005
E58
1001
ACAD
1000
MTEXTBEGIN
1070
    73
1070
     1
1070
    44
1040
1.0
1070
    74
1070
     0
1000
MTEXTEND
1000
ACAD_MTEXT_DEFINED_HEIGHT_BEGIN
1070
    46
1040
11.82914190182139
1000
ACAD_MTEXT_DEFINED_HEIGHT_END
  0
MTEXT
  5
E59
330
2CE
100
AcDbEntity
  8
图框
 62
     3
100
AcDbMText
 10
1110.122306614152
 20
526.8006839312707
 30
0.0
 40
2.985513575034151
 41
33.61239199242139
 46
9.05696734704178
 71
     5
 72
     5
  1
-
  7
Romans字体
 73
     1
 44
1.0
1001
AcDbBlockRepETag
1070
     1
1071
        6
1005
E59
1001
ACAD
1000
MTEXTBEGIN
1070
    73
1070
     1
1070
    44
1040
1.0
1070
    74
1070
     0
1000
MTEXTEND
1000
ACAD_MTEXT_DEFINED_HEIGHT_BEGIN
1070
    46
1040
9.05696734704178
1000
ACAD_MTEXT_DEFINED_HEIGHT_END
  0
MTEXT
  5
E5A
330
2CE
100
AcDbEntity
  8
图框
 62
     3
100
AcDbMText
 10
1110.122306614152
 20
500.2775205517162
 30
0.0
 40
2.985513575034151
 41
33.61239199242139
 46
8.871557304763419
 71
     5
 72
     5
  1
-
  7
Romans字体
 73
     1
 44
1.0
1001
AcDbBlockRepETag
1070
     1
1071
        7
1005
E5A
1001
ACAD
1000
MTEXTBEGIN
1070
    73
1070
     1
1070
    44
1040
1.0
1070
    74
1070
     0
1000
MTEXTEND
1000
ACAD_MTEXT_DEFINED_HEIGHT_BEGIN
1070
    46
1040
8.871557304763419
1000
ACAD_MTEXT_DEFINED_HEIGHT_END
  0
MTEXT
  5
E5B
330
2CE
100
AcDbEntity
  8
图框
 62
     3
100
AcDbMText
 10
967.6594956750133
 20
493.4737568219182
 30
0.0
 40
2.985513575034151
 41
15.50176341157864
 46
6.292658374510335
 71
     5
 72
     5
  1
Q.GAO
  7
Romans字体
 73
     1
 44
1.0
1001
AcDbBlockRepETag
1070
     1
1071
        8
1005
E5B
1001
ACAD
1000
MTEXTBEGIN
1070
    73
1070
     1
1070
    44
1040
1.0
1070
    74
1070
     0
1000
MTEXTEND
1000
ACAD_MTEXT_DEFINED_HEIGHT_BEGIN
1070
    46
1040
6.292658374510335
1000
ACAD_MTEXT_DEFINED_HEIGHT_END
  0
MTEXT
  5
E5C
330
2CE
100
AcDbEntity
  8
图框
 62
     3
100
AcDbMText
 10
983.041569333247
 20
493.2441970450405
 30
0.0
 40
2.487927979195124
 41
15.26238390489051
 46
6.751777928266487
 71
     5
 72
     5
  1
{\W0.7;20.3.2023}
  7
Romans字体
 73
     1
 44
1.0
1001
AcDbBlockRepETag
1070
     1
1071
        9
1005
E5C
1001
ACAD
1000
MTEXTBEGIN
1070
    73
1070
     1
1070
    44
1040
1.0
1070
    74
1070
     0
1000
MTEXTEND
1000
ACAD_MTEXT_DEFINED_HEIGHT_BEGIN
1070
    46
1040
6.751777928266487
1000
ACAD_MTEXT_DEFINED_HEIGHT_END
  0
MTEXT
  5
E5D
330
2CE
100
AcDbEntity
  8
图框
 62
     3
100
AcDbMText
 10
1012.477254728976
 20
499.7664151964291
 30
0.0
 40
2.985513575034151
 41
17.64876416884615
 46
6.292658374511397
 71
     5
 72
     5
  1
-
  7
Romans字体
 73
     1
 44
1.0
1001
AcDbBlockRepETag
1070
     1
1071
       10
1005
E5D
1001
ACAD
1000
MTEXTBEGIN
1070
    73
1070
     1
1070
    44
1040
1.0
1070
    74
1070
     0
1000
MTEXTEND
1000
ACAD_MTEXT_DEFINED_HEIGHT_BEGIN
1070
    46
1040
6.292658374511397
1000
ACAD_MTEXT_DEFINED_HEIGHT_END
  0
MTEXT
  5
E5E
330
2CE
100
AcDbEntity
  8
图框
 62
     3
100
AcDbMText
 10
1028.977802139886
 20
499.7664151964289
 30
0.0
 40
2.487927979195124
 41
15.35233065297265
 46
6.292658374511382
 71
     5
 72
     5
  1
-
  7
Romans字体
 73
     1
 44
1.0
1001
AcDbBlockRepETag
1070
     1
1071
       11
1005
E5E
1001
ACAD
1000
MTEXTBEGIN
1070
    73
1070
     1
1070
    44
1040
1.0
1070
    74
1070
     0
1000
MTEXTEND
1000
ACAD_MTEXT_DEFINED_HEIGHT_BEGIN
1070
    46
1040
6.292658374511382
1000
ACAD_MTEXT_DEFINED_HEIGHT_END
  0
MTEXT
  5
E5F
330
2CE
100
AcDbEntity
  8
图框
 62
     3
100
AcDbMText
 10
967.6594956750133
 20
487.1810984474071
 30
0.0
 40
2.985513575034151
 41
15.50176341157863
 46
6.292658374511478
 71
     5
 72
     5
  1
-
  7
Romans字体
 73
     1
 44
1.0
1001
AcDbBlockRepETag
1070
     1
1071
       12
1005
E5F
1001
ACAD
1000
MTEXTBEGIN
1070
    73
1070
     1
1070
    44
1040
1.0
1070
    74
1070
     0
1000
MTEXTEND
1000
ACAD_MTEXT_DEFINED_HEIGHT_BEGIN
1070
    46
1040
6.292658374511478
1000
ACAD_MTEXT_DEFINED_HEIGHT_END
  0
MTEXT
  5
E60
330
2CE
100
AcDbEntity
  8
图框
 62
     3
100
AcDbMText
 10
983.041569333247
 20
487.1810984474071
 30
0.0
 40
2.487927979195124
 41
15.26238390489062
 46
6.292658374511495
 71
     5
 72
     5
  1
-
  7
Romans字体
 73
     1
 44
1.0
1001
AcDbBlockRepETag
1070
     1
1071
       13
1005
E60
1001
ACAD
1000
MTEXTBEGIN
1070
    73
1070
     1
1070
    44
1040
1.0
1070
    74
1070
     0
1000
MTEXTEND
1000
ACAD_MTEXT_DEFINED_HEIGHT_BEGIN
1070
    46
1040
6.292658374511495
1000
ACAD_MTEXT_DEFINED_HEIGHT_END
  0
MTEXT
  5
E61
330
2CE
100
AcDbEntity
  8
图框
 62
     3
100
AcDbMText
 10
1074.556686986741
 20
495.8417418993361
 30
0.0
 40
2.985513575034151
 41
10.82934843438978
 46
7.886094601210427
 71
     5
 72
     5
  1
-
  7
Romans字体
 73
     1
 44
1.0
1001
AcDbBlockRepETag
1070
     1
1071
       14
1005
E61
1001
ACAD
1000
MTEXTBEGIN
1070
    73
1070
     1
1070
    44
1040
1.0
1070
    74
1070
     0
1000
MTEXTEND
1000
ACAD_MTEXT_DEFINED_HEIGHT_BEGIN
1070
    46
1040
7.886094601210427
1000
ACAD_MTEXT_DEFINED_HEIGHT_END
  0
LINE
  5
E62
330
2CE
100
AcDbEntity
  8
图框
370
    -3
100
AcDbLine
 10
1036.653967466372
 20
499.7847891999413
 30
0.0
 11
1079.971361203936
 21
499.7847891999413
 31
0.0
1001
AcDbBlockRepETag
1070
     1
1071
       15
1005
E62
  0
MTEXT
  5
E63
330
2CE
100
AcDbEntity
  8
图框
 62
     1
370
    20
100
AcDbMText
 10
1108.26336443907
 20
491.5162596080882
 30
0.0
 40
2.699054613030988
 41
82.30831305643079
 46
0.0
 71
     5
 72
     5
  1
{\fSimHei|b0|i0|c134|p2;厦门唯恩电气有限公司}
 73
     1
 44
1.0
1001
AcDbBlockRepETag
1070
     1
1071
       16
1005
E63
1001
ACAD
1000
MTEXTBEGIN
1070
    73
1070
     1
1070
    44
1040
1.0
1070
    74
1070
     0
1000
MTEXTEND
  0
MTEXT
  5
E64
330
2CE
100
AcDbEntity
  8
图框
 62
     3
370
    20
100
AcDbMText
 10
1108.435451459908
 20
487.298967726064
 30
0.0
 40
1.652482416141417
 41
68.08558693693567
 46
0.0
 71
     5
 72
     5
  1
{\fArial Narrow|b0|i0|c0|p34;XIAMEN WAIN ELECTRICAL CO.LTD}
  7
工程字
 73
     1
 44
1.0
1001
AcDbBlockRepETag
1070
     1
1071
       17
1005
E64
1001
ACAD
1000
MTEXTBEGIN
1070
    73
1070
     1
1070
    44
1040
1.0
1070
    74
1070
     0
1000
MTEXTEND
  0
MTEXT
  5
E65
330
2CE
100
AcDbEntity
  8
图框
 62
     1
370
    20
100
AcDbMText
 10
1085.711816899387
 20
491.0944802995856
 30
0.0
 40
2.005930044038334
 41
5.047240019334847
 46
0.0
 71
     1
 72
     5
  1
{\fArial|b0|i0|c0|p34;A}
  7
Chinese
 73
     1
 44
1.0
1001
AcDbBlockRepETag
1070
     1
1071
       18
1005
E65
1001
ACAD
1000
MTEXTBEGIN
1070
    73
1070
     1
1070
    44
1040
1.0
1070
    74
1070
     0
1000
MTEXTEND
  0
MTEXT
  5
E66
330
2CE
100
AcDbEntity
  8
图框
 62
     1
370
    20
100
AcDbMText
 10
1088.213485935716
 20
491.0944802995856
 30
0.0
 40
2.005930044038334
 41
5.047240019334847
 46
0.0
 71
     1
 72
     5
  1
{\fArial|b0|i0|c0|p34;I}
  7
Chinese
 73
     1
 44
1.0
1001
AcDbBlockRepETag
1070
     1
1071
       19
1005
E66
1001
ACAD
1000
MTEXTBEGIN
1070
    73
1070
     1
1070
    44
1040
1.0
1070
    74
1070
     0
1000
MTEXTEND
  0
MTEXT
  5
E67
330
2CE
100
AcDbEntity
  8
图框
 62
     1
370
    20
100
AcDbMText
 10
1089.142375222864
 20
491.0822866326808
 30
0.0
 40
2.005930044038334
 41
5.047240019334847
 46
0.0
 71
     1
 72
     5
  1
{\fArial|b0|i0|c0|p34;N}
  7
Chinese
 73
     1
 44
1.0
1001
AcDbBlockRepETag
1070
     1
1071
       20
1005
E67
1001
ACAD
1000
MTEXTBEGIN
1070
    73
1070
     1
1070
    44
1040
1.0
1070
    74
1070
     0
1000
MTEXTEND
  0
MTEXT
  5
E68
330
2CE
100
AcDbEntity
  8
图框
100
AcDbMText
 10
1069.142012769545
 20
487.9667319294409
 30
0.0
 40
2.252848170144607
 41
21.65869686878327
 46
7.863925338579296
 71
     5
 72
     5
  1
{\W0.5;\C1;All Dimensions in mm\POriginal Size DIN A 4}
  7
Romans字体
 73
     1
 44
1.0
1001
AcDbBlockRepETag
1070
     1
1071
       21
1005
E68
1001
ACAD
1000
MTEXTBEGIN
1070
    73
1070
     1
1070
    44
1040
1.0
1070
    74
1070
     0
1000
MTEXTEND
1000
ACAD_MTEXT_DEFINED_HEIGHT_BEGIN
1070
    46
1040
7.863925338579296
1000
ACAD_MTEXT_DEFINED_HEIGHT_END
  0
MTEXT
  5
E69
330
2CE
100
AcDbEntity
  8
图框
  6
ByBlock
 62
     6
370
    18
100
AcDbMText
 10
1127.40434942308
 20
508.7896535755975
 30
0.0
 40
2.651776162684904
 41
2.557913877927211
 46
0.0
 71
     1
 72
     5
  1
A
  7
Romans字体
 11
0.0000000000000001
 21
1.0
 31
0.0
 73
     1
 44
1.0
1001
AcDbBlockRepETag
1070
     1
1071
       22
1005
E69
1001
ACAD
1000
MTEXTBEGIN
1070
    73
1070
     1
1070
    44
1040
1.0
1070
    74
1070
     0
1000
MTEXTEND
  0
MTEXT
  5
E6A
330
2CE
100
AcDbEntity
  8
图框
 62
     6
100
AcDbMText
 10
1127.40434942308
 20
556.3746573232886
 30
0.0
 40
2.651776162684904
 41
2.557913877927211
 46
0.0
 71
     1
 72
     5
  1
B
  7
Romans字体
 11
0.0000000000000001
 21
1.0
 31
0.0
 73
     1
 44
1.0
1001
AcDbBlockRepETag
1070
     1
1071
       23
1005
E6A
1001
ACAD
1000
MTEXTBEGIN
1070
    73
1070
     1
1070
    44
1040
1.0
1070
    74
1070
     0
1000
MTEXTEND
  0
MTEXT
  5
E6B
330
2CE
100
AcDbEntity
  8
图框
 62
     6
100
AcDbMText
 10
1127.40434942308
 20
607.5539372630998
 30
0.0
 40
2.651776162684904
 41
2.557913877927211
 46
0.0
 71
     1
 72
     5
  1
C
  7
Romans字体
 11
0.0000000000000001
 21
1.0
 31
0.0
 73
     1
 44
1.0
1001
AcDbBlockRepETag
1070
     1
1071
       24
1005
E6B
1001
ACAD
1000
MTEXTBEGIN
1070
    73
1070
     1
1070
    44
1040
1.0
1070
    74
1070
     0
1000
MTEXTEND
  0
MTEXT
  5
E6C
330
2CE
100
AcDbEntity
  8
图框
 62
     6
100
AcDbMText
 10
1127.40434942308
 20
658.7332172029115
 30
0.0
 40
2.651776162684904
 41
2.557913877927211
 46
0.0
 71
     1
 72
     5
  1
D
  7
Romans字体
 11
0.0000000000000001
 21
1.0
 31
0.0
 73
     1
 44
1.0
1001
AcDbBlockRepETag
1070
     1
1071
       25
1005
E6C
1001
ACAD
1000
MTEXTBEGIN
1070
    73
1070
     1
1070
    44
1040
1.0
1070
    74
1070
     0
1000
MTEXTEND
  0
LINE
  5
E6D
330
2CE
100
AcDbEntity
  8
图框
 62
     6
100
AcDbLine
 10
1130.411601781241
 20
634.0726090796082
 30
0.0
 11
1126.928502610363
 21
634.0726090796082
 31
0.0
1001
AcDbBlockRepETag
1070
     1
1071
       26
1005
E6D
  0
LINE
  5
E6E
330
2CE
100
AcDbEntity
  8
图框
 62
     6
100
AcDbLine
 10
1130.411601781241
 20
582.89332913979
 30
0.0
 11
1126.928502610363
 21
582.89332913979
 31
0.0
1001
AcDbBlockRepETag
1070
     1
1071
       27
1005
E6E
  0
MTEXT
  5
E6F
330
2CE
100
AcDbEntity
  8
图框
 62
     6
100
AcDbMText
 10
1105.329704038389
 20
483.6164543011163
 30
0.0
 40
2.651776162684904
 41
2.557913877927211
 46
0.0
 71
     1
 72
     5
  1
6
  7
Romans字体
 73
     1
 44
1.0
1001
AcDbBlockRepETag
1070
     1
1071
       28
1005
E6F
1001
ACAD
1000
MTEXTBEGIN
1070
    73
1070
     1
1070
    44
1040
1.0
1070
    74
1070
     0
1000
MTEXTEND
  0
LINE
  5
E70
330
2CE
100
AcDbEntity
  8
图框
 62
     6
100
AcDbLine
 10
1081.088565155284
 20
484.0347692601515
 30
0.0
 11
1081.088565155284
 21
480.5347692601475
 31
0.0
1001
AcDbBlockRepETag
1070
     1
1071
       29
1005
E70
  0
MTEXT
  5
E71
330
2CE
100
AcDbEntity
  8
图框
 62
     6
100
AcDbMText
 10
1055.900596365941
 20
483.520053108993
 30
0.0
 40
2.651776162684904
 41
2.557913877927211
 46
0.0
 71
     1
 72
     5
  1
5
  7
Romans字体
 73
     1
 44
1.0
1001
AcDbBlockRepETag
1070
     1
1071
       30
1005
E71
1001
ACAD
1000
MTEXTBEGIN
1070
    73
1070
     1
1070
    44
1040
1.0
1070
    74
1070
     0
1000
MTEXTEND
  0
LINE
  5
E72
330
2CE
100
AcDbEntity
  8
图框
 62
     6
100
AcDbLine
 10
1031.553386436349
 20
484.0347692601515
 30
0.0
 11
1031.553386436349
 21
480.5347692601475
 31
0.0
1001
AcDbBlockRepETag
1070
     1
1071
       31
1005
E72
  0
MTEXT
  5
E73
330
2CE
100
AcDbEntity
  8
图框
 62
     6
100
AcDbMText
 10
1006.383180575197
 20
483.5687958215896
 30
0.0
 40
2.651776162684904
 41
2.557913877927211
 46
0.0
 71
     1
 72
     5
  1
4
  7
Romans字体
 73
     1
 44
1.0
1001
AcDbBlockRepETag
1070
     1
1071
       32
1005
E73
1001
ACAD
1000
MTEXTBEGIN
1070
    73
1070
     1
1070
    44
1040
1.0
1070
    74
1070
     0
1000
MTEXTEND
  0
LINE
  5
E74
330
2CE
100
AcDbEntity
  8
图框
 62
     6
100
AcDbLine
 10
982.0182077173887
 20
484.0347692601515
 30
0.0
 11
982.0182077173887
 21
480.5347692601475
 31
0.0
1001
AcDbBlockRepETag
1070
     1
1071
       33
1005
E74
  0
MTEXT
  5
E75
330
2CE
100
AcDbEntity
  8
图框
 62
     6
100
AcDbMText
 10
956.8302389280352
 20
483.5989680297948
 30
0.0
 40
2.651776162684904
 41
2.557913877927211
 46
0.0
 71
     1
 72
     5
  1
3
  7
Romans字体
 73
     1
 44
1.0
1001
AcDbBlockRepETag
1070
     1
1071
       34
1005
E75
1001
ACAD
1000
MTEXTBEGIN
1070
    73
1070
     1
1070
    44
1040
1.0
1070
    74
1070
     0
1000
MTEXTEND
  0
LINE
  5
E76
330
2CE
100
AcDbEntity
  8
图框
 62
     6
100
AcDbLine
 10
932.4830289984245
 20
484.0347692601515
 30
0.0
 11
932.4830289984245
 21
480.5347692601475
 31
0.0
1001
AcDbBlockRepETag
1070
     1
1071
       35
1005
E76
  0
MTEXT
  5
E77
330
2CE
100
AcDbEntity
  8
图框
 62
     6
100
AcDbMText
 10
906.0252349826365
 20
483.6475250013156
 30
0.0
 40
2.651776162684904
 41
2.557913877927211
 46
0.0
 71
     1
 72
     5
  1
2
  7
Romans字体
 73
     1
 44
1.0
1001
AcDbBlockRepETag
1070
     1
1071
       36
1005
E77
1001
ACAD
1000
MTEXTBEGIN
1070
    73
1070
     1
1070
    44
1040
1.0
1070
    74
1070
     0
1000
MTEXTEND
  0
LINE
  5
E78
330
2CE
100
AcDbEntity
  8
图框
 62
     6
100
AcDbLine
 10
882.9478502794648
 20
484.0347692601515
 30
0.0
 11
882.9478502794648
 21
480.5347692601475
 31
0.0
1001
AcDbBlockRepETag
1070
     1
1071
       37
1005
E78
  0
MTEXT
  5
E79
330
2CE
100
AcDbEntity
  8
图框
 62
     6
100
AcDbMText
 10
857.7598814901191
 20
483.651829494754
 30
0.0
 40
2.651776162684904
 41
2.557913877927211
 46
0.0
 71
     1
 72
     5
  1
1
  7
Romans字体
 73
     1
 44
1.0
1001
AcDbBlockRepETag
1070
     1
1071
       38
1005
E79
1001
ACAD
1000
MTEXTBEGIN
1070
    73
1070
     1
1070
    44
1040
1.0
1070
    74
1070
     0
1000
MTEXTEND
  0
LINE
  5
E7A
330
2CE
100
AcDbEntity
  8
图框
370
    50
100
AcDbLine
 10
836.8548209370597
 20
484.0347692601515
 30
0.0
 11
1126.928502610363
 21
484.0347692601515
 31
0.0
1001
AcDbBlockRepETag
1070
     1
1071
       39
1005
E7A
  0
LINE
  5
E7B
330
2CE
100
AcDbEntity
  8
图框
370
    50
100
AcDbLine
 10
836.9128518455362
 20
484.0178684310246
 30
0.0
 11
836.9128518455394
 21
675.0207195125422
 31
0.0
1001
AcDbBlockRepETag
1070
     1
1071
       40
1005
E7B
  0
MTEXT
  5
E7C
330
2CE
100
AcDbEntity
  8
图框
 62
     6
100
AcDbMText
 10
833.8475685789031
 20
658.7332172029115
 30
0.0
 40
2.651776162684904
 41
2.557913877927211
 46
0.0
 71
     1
 72
     5
  1
D
  7
Romans字体
 11
0.0000000000000001
 21
1.0
 31
0.0
 73
     1
 44
1.0
1001
AcDbBlockRepETag
1070
     1
1071
       41
1005
E7C
1001
ACAD
1000
MTEXTBEGIN
1070
    73
1070
     1
1070
    44
1040
1.0
1070
    74
1070
     0
1000
MTEXTEND
  0
LINE
  5
E7D
330
2CE
100
AcDbEntity
  8
图框
 62
     6
100
AcDbLine
 10
836.9128518455386
 20
634.0726090796082
 30
0.0
 11
833.4128518455365
 21
634.0726090796082
 31
0.0
1001
AcDbBlockRepETag
1070
     1
1071
       42
1005
E7D
  0
MTEXT
  5
E7E
330
2CE
100
AcDbEntity
  8
图框
 62
     6
100
AcDbMText
 10
833.9039177480142
 20
607.5539372630998
 30
0.0
 40
2.651776162684904
 41
2.557913877927211
 46
0.0
 71
     1
 72
     5
  1
C
  7
Romans字体
 11
0.0000000000000001
 21
1.0
 31
0.0
 73
     1
 44
1.0
1001
AcDbBlockRepETag
1070
     1
1071
       43
1005
E7E
1001
ACAD
1000
MTEXTBEGIN
1070
    73
1070
     1
1070
    44
1040
1.0
1070
    74
1070
     0
1000
MTEXTEND
  0
LINE
  5
E7F
330
2CE
100
AcDbEntity
  8
图框
 62
     6
100
AcDbLine
 10
836.9128518455378
 20
582.89332913979
 30
0.0
 11
833.4128518455365
 21
582.89332913979
 31
0.0
1001
AcDbBlockRepETag
1070
     1
1071
       44
1005
E7F
  0
MTEXT
  5
E80
330
2CE
100
AcDbEntity
  8
图框
 62
     6
100
AcDbMText
 10
833.9039177480142
 20
556.3746573232886
 30
0.0
 40
2.651776162684904
 41
2.557913877927211
 46
0.0
 71
     1
 72
     5
  1
B
  7
Romans字体
 11
0.0000000000000001
 21
1.0
 31
0.0
 73
     1
 44
1.0
1001
AcDbBlockRepETag
1070
     1
1071
       45
1005
E80
1001
ACAD
1000
MTEXTBEGIN
1070
    73
1070
     1
1070
    44
1040
1.0
1070
    74
1070
     0
1000
MTEXTEND
  0
LINE
  5
E81
330
2CE
100
AcDbEntity
  8
图框
 62
     6
100
AcDbLine
 10
836.9128518455367
 20
531.714049199969
 30
0.0
 11
833.4128518455365
 21
531.714049199969
 31
0.0
1001
AcDbBlockRepETag
1070
     1
1071
       46
1005
E81
  0
MTEXT
  5
E82
330
2CE
100
AcDbEntity
  8
图框
 62
     6
100
AcDbMText
 10
833.9039177480142
 20
508.7896535755975
 30
0.0
 40
2.651776162684904
 41
2.557913877927211
 46
0.0
 71
     1
 72
     5
  1
A
  7
Romans字体
 11
0.0000000000000001
 21
1.0
 31
0.0
 73
     1
 44
1.0
1001
AcDbBlockRepETag
1070
     1
1071
       47
1005
E82
1001
ACAD
1000
MTEXTBEGIN
1070
    73
1070
     1
1070
    44
1040
1.0
1070
    74
1070
     0
1000
MTEXTEND
  0
LINE
  5
E83
330
2CE
100
AcDbEntity
  8
图框
370
    -3
100
AcDbLine
 10
836.9128518455394
 20
675.0207195125422
 30
0.0
 11
836.9128518455394
 21
684.5021384922564
 31
0.0
1001
AcDbBlockRepETag
1070
     1
1071
       48
1005
E83
  0
LINE
  5
E84
330
2CE
100
AcDbEntity
  8
图框
370
    -3
100
AcDbLine
 10
842.6237321475781
 20
675.5347692601515
 30
0.0
 11
842.6237321475781
 21
685.0161882398658
 31
0.0
1001
AcDbBlockRepETag
1070
     1
1071
       49
1005
E84
  0
LINE
  5
E85
330
2CE
100
AcDbEntity
  8
图框
370
    -3
100
AcDbLine
 10
848.3346124496179
 20
675.5347692601515
 30
0.0
 11
848.3346124496179
 21
685.0161882398658
 31
0.0
1001
AcDbBlockRepETag
1070
     1
1071
       50
1005
E85
  0
LINE
  5
E86
330
2CE
100
AcDbEntity
  8
图框
370
    -3
100
AcDbLine
 10
854.0454927516588
 20
675.5347692601515
 30
0.0
 11
854.0454927516588
 21
685.0161882398658
 31
0.0
1001
AcDbBlockRepETag
1070
     1
1071
       51
1005
E86
  0
LINE
  5
E87
330
2CE
100
AcDbEntity
  8
图框
370
    -3
100
AcDbLine
 10
861.5351874539182
 20
675.5347692601515
 30
0.0
 11
861.5351874539182
 21
686.7901958362482
 31
0.0
1001
AcDbBlockRepETag
1070
     1
1071
       52
1005
E87
  0
MTEXT
  5
E88
330
2CE
100
AcDbEntity
  8
图框
 62
     6
100
AcDbMText
 10
1105.329704038389
 20
678.859919059449
 30
0.0
 40
2.651776162684904
 41
2.557913877927211
 46
0.0
 71
     1
 72
     5
  1
6
  7
Romans字体
 73
     1
 44
1.0
1001
AcDbBlockRepETag
1070
     1
1071
       53
1005
E88
1001
ACAD
1000
MTEXTBEGIN
1070
    73
1070
     1
1070
    44
1040
1.0
1070
    74
1070
     0
1000
MTEXTEND
  0
LINE
  5
E89
330
2CE
100
AcDbEntity
  8
图框
 62
     6
100
AcDbLine
 10
1081.088565155284
 20
679.0347692601516
 30
0.0
 11
1081.088565155284
 21
675.5347692601515
 31
0.0
1001
AcDbBlockRepETag
1070
     1
1071
       54
1005
E89
  0
MTEXT
  5
E8A
330
2CE
100
AcDbEntity
  8
图框
 62
     6
100
AcDbMText
 10
1055.900596365941
 20
678.859919059449
 30
0.0
 40
2.651776162684904
 41
2.557913877927211
 46
0.0
 71
     1
 72
     5
  1
5
  7
Romans字体
 73
     1
 44
1.0
1001
AcDbBlockRepETag
1070
     1
1071
       55
1005
E8A
1001
ACAD
1000
MTEXTBEGIN
1070
    73
1070
     1
1070
    44
1040
1.0
1070
    74
1070
     0
1000
MTEXTEND
  0
LINE
  5
E8B
330
2CE
100
AcDbEntity
  8
图框
 62
     6
100
AcDbLine
 10
1031.553386436349
 20
679.0347692601516
 30
0.0
 11
1031.553386436349
 21
675.5347692601515
 31
0.0
1001
AcDbBlockRepETag
1070
     1
1071
       56
1005
E8B
  0
MTEXT
  5
E8C
330
2CE
100
AcDbEntity
  8
图框
 62
     6
100
AcDbMText
 10
1006.36541764698
 20
678.7312083656147
 30
0.0
 40
2.651776162684904
 41
2.557913877927211
 46
0.0
 71
     1
 72
     5
  1
4
  7
Romans字体
 73
     1
 44
1.0
1001
AcDbBlockRepETag
1070
     1
1071
       57
1005
E8C
1001
ACAD
1000
MTEXTBEGIN
1070
    73
1070
     1
1070
    44
1040
1.0
1070
    74
1070
     0
1000
MTEXTEND
  0
LINE
  5
E8D
330
2CE
100
AcDbEntity
  8
图框
 62
     6
100
AcDbLine
 10
982.0182077173887
 20
679.0347692601516
 30
0.0
 11
982.0182077173887
 21
675.5347692601515
 31
0.0
1001
AcDbBlockRepETag
1070
     1
1071
       58
1005
E8D
  0
MTEXT
  5
E8E
330
2CE
100
AcDbEntity
  8
图框
 62
     6
100
AcDbMText
 10
956.8302389280352
 20
678.859919059449
 30
0.0
 40
2.651776162684904
 41
2.557913877927211
 46
0.0
 71
     1
 72
     5
  1
3
  7
Romans字体
 73
     1
 44
1.0
1001
AcDbBlockRepETag
1070
     1
1071
       59
1005
E8E
1001
ACAD
1000
MTEXTBEGIN
1070
    73
1070
     1
1070
    44
1040
1.0
1070
    74
1070
     0
1000
MTEXTEND
  0
LINE
  5
E8F
330
2CE
100
AcDbEntity
  8
图框
 62
     6
100
AcDbLine
 10
932.4830289984245
 20
679.0347692601516
 30
0.0
 11
932.4830289984245
 21
675.5347692601515
 31
0.0
1001
AcDbBlockRepETag
1070
     1
1071
       60
1005
E8F
  0
MTEXT
  5
E90
330
2CE
100
AcDbEntity
  8
图框
 62
     6
100
AcDbMText
 10
907.295060209082
 20
678.859919059449
 30
0.0
 40
2.651776162684904
 41
2.557913877927211
 46
0.0
 71
     1
 72
     5
  1
2
  7
Romans字体
 73
     1
 44
1.0
1001
AcDbBlockRepETag
1070
     1
1071
       61
1005
E90
1001
ACAD
1000
MTEXTBEGIN
1070
    73
1070
     1
1070
    44
1040
1.0
1070
    74
1070
     0
1000
MTEXTEND
  0
LINE
  5
E91
330
2CE
100
AcDbEntity
  8
图框
 62
     6
100
AcDbLine
 10
882.9478502794648
 20
678.7962435131815
 30
0.0
 11
882.9478502794648
 21
675.5347692601515
 31
0.0
1001
AcDbBlockRepETag
1070
     1
1071
       62
1005
E91
  0
MTEXT
  5
E92
330
2CE
100
AcDbEntity
  8
图框
 62
     6
100
AcDbMText
 10
862.6286629643733
 20
678.859919059449
 30
0.0
 40
2.651776162684904
 41
2.557913877927211
 46
0.0
 71
     1
 72
     5
  1
1
  7
Romans字体
 73
     1
 44
1.0
1001
AcDbBlockRepETag
1070
     1
1071
       63
1005
E92
1001
ACAD
1000
MTEXTBEGIN
1070
    73
1070
     1
1070
    44
1040
1.0
1070
    74
1070
     0
1000
MTEXTEND
  0
LINE
  5
E93
330
2CE
100
AcDbEntity
  8
图框
370
    -3
100
AcDbLine
 10
836.9128518455394
 20
675.0207195125422
 30
0.0
 11
836.9128518455394
 21
686.7901958362482
 31
0.0
1001
AcDbBlockRepETag
1070
     1
1071
       64
1005
E93
  0
LINE
  5
E94
330
2CE
100
AcDbEntity
  8
图框
370
    50
100
AcDbLine
 10
836.9128518455394
 20
675.5347692601515
 30
0.0
 11
1126.928502610363
 21
675.5347692601515
 31
0.0
1001
AcDbBlockRepETag
1070
     1
1071
       65
1005
E94
  0
LINE
  5
E95
330
2CE
100
AcDbEntity
  8
图框
370
    -3
100
AcDbLine
 10
842.6237321475781
 20
675.5347692601515
 30
0.0
 11
842.6237321475781
 21
686.7901958362482
 31
0.0
1001
AcDbBlockRepETag
1070
     1
1071
       66
1005
E95
  0
LINE
  5
E96
330
2CE
100
AcDbEntity
  8
图框
370
    -3
100
AcDbLine
 10
848.3346124496179
 20
675.5347692601515
 30
0.0
 11
848.3346124496179
 21
686.7901958362482
 31
0.0
1001
AcDbBlockRepETag
1070
     1
1071
       67
1005
E96
  0
MTEXT
  5
E97
102
{ACAD_XDICTIONARY
360
EF1
102
}
330
2CE
100
AcDbEntity
  8
图框
100
AcDbMText
 10
857.7903401027889
 20
686.7901958362482
 30
0.0
 40
1.958998408821398
 41
11.25542657609672
 46
7.489694702258906
 71
     4
 72
     5
  1
\pi2.6646;{\fSimSun|b0|i0|c134|p2;档案员\fFangSong_GB2312|b0|i0|c134|p49;\H0.7x;\P\pi1.4159;\Fromans|c134;Filing Clerk\fFangSong_GB2312|b0|i0|c134|p49; }
 11
-0.0000000000000002
 21
-1.0
 31
0.0
 73
     1
 44
1.0
1001
AcDbBlockRepETag
1070
     1
1071
       68
1005
E97
1001
ACAD
1000
MTEXTBEGIN
1070
    73
1070
     1
1070
    44
1040
1.0
1070
    74
1070
     0
1000
MTEXTEND
1000
ACAD_MTEXT_DEFINED_HEIGHT_BEGIN
1070
    46
1040
7.489694702258906
1000
ACAD_MTEXT_DEFINED_HEIGHT_END
  0
MTEXT
  5
E98
102
{ACAD_XDICTIONARY
360
EF3
102
}
330
2CE
100
AcDbEntity
  8
图框
100
AcDbMText
 10
845.479172298598
 20
686.7901958362482
 30
0.0
 40
1.958998408821398
 41
11.25542657609672
 46
5.710880302039671
 71
     4
 72
     5
  1
\pi0.63465;{\fSimSun|b0|i0|c134|p2;日期\Fromans|c134;/Date}
 11
-0.0000000000000002
 21
-1.0
 31
0.0
 73
     1
 44
1.0
1001
AcDbBlockRepETag
1070
     1
1071
       69
1005
E98
1001
ACAD
1000
MTEXTBEGIN
1070
    73
1070
     1
1070
    44
1040
1.0
1070
    74
1070
     0
1000
MTEXTEND
1000
ACAD_MTEXT_DEFINED_HEIGHT_BEGIN
1070
    46
1040
5.710880302039671
1000
ACAD_MTEXT_DEFINED_HEIGHT_END
  0
LINE
  5
E99
330
2CE
100
AcDbEntity
  8
图框
370
    -3
100
AcDbLine
 10
854.0454927516588
 20
675.5347692601515
 30
0.0
 11
854.0454927516588
 21
686.7901958362482
 31
0.0
1001
AcDbBlockRepETag
1070
     1
1071
       70
1005
E99
  0
LINE
  5
E9A
330
2CE
100
AcDbEntity
  8
图框
370
    -3
100
AcDbLine
 10
1036.653967466372
 20
531.3291676047914
 30
0.0
 11
1036.653967466372
 21
484.0126019753161
 31
0.0
1001
AcDbBlockRepETag
1070
     1
1071
       71
1005
E9A
  0
LINE
  5
E9B
330
2CE
100
AcDbEntity
  8
图框
370
    -3
100
AcDbLine
 10
1047.483315900763
 20
507.6708838011533
 30
0.0
 11
1047.483315900763
 21
491.8986945987308
 31
0.0
1001
AcDbBlockRepETag
1070
     1
1071
       72
1005
E9B
  0
LINE
  5
E9C
330
2CE
100
AcDbEntity
  8
图框
370
    -3
100
AcDbLine
 10
1058.312664335153
 20
507.6708838011533
 30
0.0
 11
1058.312664335153
 21
484.0347692601515
 31
0.0
1001
AcDbBlockRepETag
1070
     1
1071
       73
1005
E9C
  0
LINE
  5
E9D
330
2CE
100
AcDbEntity
  8
图框
370
    25
100
AcDbLine
 10
1048.474135214456
 20
488.1095628329926
 30
0.0
 11
1054.946420288459
 21
488.1095628329926
 31
0.0
1001
AcDbBlockRepETag
1070
     1
1071
       74
1005
E9D
  0
LINE
  5
E9E
330
2CE
100
AcDbEntity
  8
图框
370
    25
100
AcDbLine
 10
1054.232527365989
 20
487.0761716842634
 30
0.0
 11
1049.156490914508
 21
486.4576273751
 31
0.0
1001
AcDbBlockRepETag
1070
     1
1071
       75
1005
E9E
  0
LINE
  5
E9F
330
2CE
100
AcDbEntity
  8
图框
370
    25
100
AcDbLine
 10
1054.232527365989
 20
489.1429539817209
 30
0.0
 11
1049.156490914508
 21
489.7614982908846
 31
0.0
1001
AcDbBlockRepETag
1070
     1
1071
       76
1005
E9F
  0
LINE
  5
EA0
330
2CE
100
AcDbEntity
  8
图框
370
    25
100
AcDbLine
 10
1049.156490914508
 20
489.7614982908846
 30
0.0
 11
1049.156490914508
 21
486.4576273751
 31
0.0
1001
AcDbBlockRepETag
1070
     1
1071
       77
1005
EA0
  0
LINE
  5
EA1
330
2CE
100
AcDbEntity
  8
图框
370
    25
100
AcDbLine
 10
1054.232527365989
 20
489.1429539817209
 30
0.0
 11
1054.232527365989
 21
487.0761716842634
 31
0.0
1001
AcDbBlockRepETag
1070
     1
1071
       78
1005
EA1
  0
CIRCLE
  5
EA2
330
2CE
100
AcDbEntity
  8
图框
370
    25
100
AcDbCircle
 10
1042.502700458579
 20
488.1095628329926
 30
0.0
 40
1.651935457891863
1001
AcDbBlockRepETag
1070
     1
1071
       79
1005
EA2
  0
CIRCLE
  5
EA3
330
2CE
100
AcDbEntity
  8
图框
370
    25
100
AcDbCircle
 10
1042.502700458579
 20
488.1095628329926
 30
0.0
 40
1.033391148728775
1001
AcDbBlockRepETag
1070
     1
1071
       80
1005
EA3
  0
LINE
  5
EA4
330
2CE
100
AcDbEntity
  8
图框
370
    25
100
AcDbLine
 10
1040.136872078216
 20
488.1095628329926
 30
0.0
 11
1044.868528838943
 21
488.1095628329926
 31
0.0
1001
AcDbBlockRepETag
1070
     1
1071
       81
1005
EA4
  0
LINE
  5
EA5
330
2CE
100
AcDbEntity
  8
图框
370
    25
100
AcDbLine
 10
1042.502700458579
 20
490.475391213355
 30
0.0
 11
1042.502700458579
 21
485.743734452629
 31
0.0
1001
AcDbBlockRepETag
1070
     1
1071
       82
1005
EA5
  0
LINE
  5
EA6
330
2CE
100
AcDbEntity
  8
图框
370
    -3
100
AcDbLine
 10
1069.142012769546
 20
507.6708838011533
 30
0.0
 11
1069.142012769546
 21
491.8986945987308
 31
0.0
1001
AcDbBlockRepETag
1070
     1
1071
       83
1005
EA6
  0
MTEXT
  5
EA7
330
2CE
100
AcDbEntity
  8
图框
100
AcDbMText
 10
1086.643735910939
 20
526.8006839312707
 30
0.0
 40
2.154898249703542
 41
13.34474941400573
 46
9.056967347041775
 71
     5
 72
     5
  1
图号{\Ftxt|c134;\P\Fromans|c134;\W0.65;Drawing No.}
 73
     1
 44
1.0
1001
AcDbBlockRepETag
1070
     1
1071
       84
1005
EA7
1001
ACAD
1000
MTEXTBEGIN
1070
    73
1070
     1
1070
    44
1040
1.0
1070
    74
1070
     0
1000
MTEXTEND
1000
ACAD_MTEXT_DEFINED_HEIGHT_BEGIN
1070
    46
1040
9.056967347041775
1000
ACAD_MTEXT_DEFINED_HEIGHT_END
  0
LINE
  5
EA8
330
2CE
100
AcDbEntity
  8
图框
370
    -3
100
AcDbLine
 10
1093.316110617942
 20
531.3291676047914
 30
0.0
 11
1093.316110617942
 21
495.8417418993347
 31
0.0
1001
AcDbBlockRepETag
1070
     1
1071
       85
1005
EA8
  0
LINE
  5
EA9
330
2CE
100
AcDbEntity
  8
图框
370
    -3
100
AcDbLine
 10
1047.473969770481
 20
531.3291676047914
 30
0.0
 11
1047.473969770481
 21
507.6708838011533
 31
0.0
1001
AcDbBlockRepETag
1070
     1
1071
       86
1005
EA9
  0
MTEXT
  5
EAA
330
2CE
100
AcDbEntity
  8
图框
100
AcDbMText
 10
1063.72733855235
 20
503.7278365005473
 30
0.0
 40
2.252848170144607
 41
10.82934843439208
 46
7.886094601212128
 71
     5
 72
     5
  1
重量\P{\Fromans|c134;Weight}
 73
     1
 44
1.0
1001
AcDbBlockRepETag
1070
     1
1071
       87
1005
EAA
1001
ACAD
1000
MTEXTBEGIN
1070
    73
1070
     1
1070
    44
1040
1.0
1070
    74
1070
     0
1000
MTEXTEND
1000
ACAD_MTEXT_DEFINED_HEIGHT_BEGIN
1070
    46
1040
7.886094601212128
1000
ACAD_MTEXT_DEFINED_HEIGHT_END
  0
LINE
  5
EAB
330
2CE
100
AcDbEntity
  8
图框
370
    -3
100
AcDbLine
 10
1036.653967466372
 20
519.5000257029746
 30
0.0
 11
1079.971361203936
 21
519.5000257029746
 31
0.0
1001
AcDbBlockRepETag
1070
     1
1071
       88
1005
EAB
  0
MTEXT
  5
EAC
330
2CE
100
AcDbEntity
  8
图框
100
AcDbMText
 10
1074.556686986741
 20
503.7278365005473
 30
0.0
 40
2.252848170144607
 41
10.82934843438984
 46
7.886094601212141
 71
     5
 72
     5
  1
数量\P{\Fromans|c134;Qty.}
 73
     1
 44
1.0
1001
AcDbBlockRepETag
1070
     1
1071
       89
1005
EAC
1001
ACAD
1000
MTEXTBEGIN
1070
    73
1070
     1
1070
    44
1040
1.0
1070
    74
1070
     0
1000
MTEXTEND
1000
ACAD_MTEXT_DEFINED_HEIGHT_BEGIN
1070
    46
1040
7.886094601212141
1000
ACAD_MTEXT_DEFINED_HEIGHT_END
  0
LINE
  5
EAD
330
2CE
100
AcDbEntity
  8
图框
370
    -3
100
AcDbLine
 10
1079.971361203936
 20
495.8417418993347
 30
0.0
 11
1126.928502610363
 21
495.8417418993342
 31
0.0
1001
AcDbBlockRepETag
1070
     1
1071
       90
1005
EAD
  0
LINE
  5
EAE
330
2CE
100
AcDbEntity
  8
图框
370
    -3
100
AcDbLine
 10
1079.971361203936
 20
504.7132992040975
 30
0.0
 11
1126.928502610363
 21
504.7132992040975
 31
0.0
1001
AcDbBlockRepETag
1070
     1
1071
       91
1005
EAE
  0
MTEXT
  5
EAF
330
2CE
100
AcDbEntity
  8
图框
100
AcDbMText
 10
1052.893317052817
 20
503.7278365005473
 30
0.0
 40
2.252848170144607
 41
10.83869456467139
 46
7.886094601212101
 71
     5
 72
     5
  1
版本\P{\Fromans|c134;REV.}
 73
     1
 44
1.0
1001
AcDbBlockRepETag
1070
     1
1071
       92
1005
EAF
1001
ACAD
1000
MTEXTBEGIN
1070
    73
1070
     1
1070
    44
1040
1.0
1070
    74
1070
     0
1000
MTEXTEND
1000
ACAD_MTEXT_DEFINED_HEIGHT_BEGIN
1070
    46
1040
7.886094601212101
1000
ACAD_MTEXT_DEFINED_HEIGHT_END
  0
MTEXT
  5
EB0
330
2CE
100
AcDbEntity
  8
图框
100
AcDbMText
 10
1042.068641683568
 20
503.7278365005473
 30
0.0
 40
2.252848170144607
 41
10.8293484343908
 46
7.886094601212136
 71
     5
 72
     5
  1
比例\P{\Fromans|c134;Scale}
 73
     1
 44
1.0
1001
AcDbBlockRepETag
1070
     1
1071
       93
1005
EB0
1001
ACAD
1000
MTEXTBEGIN
1070
    73
1070
     1
1070
    44
1040
1.0
1070
    74
1070
     0
1000
MTEXTEND
1000
ACAD_MTEXT_DEFINED_HEIGHT_BEGIN
1070
    46
1040
7.886094601212136
1000
ACAD_MTEXT_DEFINED_HEIGHT_END
  0
LINE
  5
EB1
330
2CE
100
AcDbEntity
  8
图框
370
    -3
100
AcDbLine
 10
1036.653967466372
 20
507.6708838011533
 30
0.0
 11
1079.971361203936
 21
507.6708838011533
 31
0.0
1001
AcDbBlockRepETag
1070
     1
1071
       94
1005
EB1
  0
LINE
  5
EB2
330
2CE
100
AcDbEntity
  8
图框
370
    -3
100
AcDbLine
 10
1036.653967466372
 20
491.8986945987308
 30
0.0
 11
1079.971361203936
 21
491.8986945987308
 31
0.0
1001
AcDbBlockRepETag
1070
     1
1071
       95
1005
EB2
  0
LINE
  5
EB3
330
2CE
100
AcDbEntity
  8
图框
370
    -3
100
AcDbLine
 10
1079.971361203936
 20
531.3291676047914
 30
0.0
 11
1079.971361203936
 21
484.0125999975168
 31
0.0
1001
AcDbBlockRepETag
1070
     1
1071
       96
1005
EB3
  0
MTEXT
  5
EB4
330
2CE
100
AcDbEntity
  8
图框
100
AcDbMText
 10
1042.063968618426
 20
525.4145966538832
 30
0.0
 40
2.252848170144607
 41
10.82000230410933
 46
11.82914190181708
 71
     5
 72
     5
  1
表面处理\P{\Fromans|c134;Finish}
 73
     1
 44
1.0
1001
AcDbBlockRepETag
1070
     1
1071
       97
1005
EB4
1001
ACAD
1000
MTEXTBEGIN
1070
    73
1070
     1
1070
    44
1040
1.0
1070
    74
1070
     0
1000
MTEXTEND
1000
ACAD_MTEXT_DEFINED_HEIGHT_BEGIN
1070
    46
1040
11.82914190181708
1000
ACAD_MTEXT_DEFINED_HEIGHT_END
  0
MTEXT
  5
EB5
330
2CE
100
AcDbEntity
  8
图框
100
AcDbMText
 10
1042.063968618426
 20
513.5854547520639
 30
0.0
 40
2.252848170144607
 41
10.82000230410933
 46
11.8291419018212
 71
     5
 72
     5
  1
材料\P{\Fromans|c134;Material}
 73
     1
 44
1.0
1001
AcDbBlockRepETag
1070
     1
1071
       98
1005
EB5
1001
ACAD
1000
MTEXTBEGIN
1070
    73
1070
     1
1070
    44
1040
1.0
1070
    74
1070
     0
1000
MTEXTEND
1000
ACAD_MTEXT_DEFINED_HEIGHT_BEGIN
1070
    46
1040
11.8291419018212
1000
ACAD_MTEXT_DEFINED_HEIGHT_END
  0
LINE
  5
EB6
330
2CE
100
AcDbEntity
  8
图框
370
    -3
100
AcDbLine
 10
1079.971361203936
 20
522.27220025775
 30
0.0
 11
1126.928502610363
 21
522.27220025775
 31
0.0
1001
AcDbBlockRepETag
1070
     1
1071
       99
1005
EB6
  0
LINE
  5
EB7
330
2CE
100
AcDbEntity
  8
图框
370
    -3
100
AcDbLine
 10
1079.971361203936
 20
513.5854547520641
 30
0.0
 11
1126.928502610363
 21
513.5854547520639
 31
0.0
1001
AcDbBlockRepETag
1070
     1
1071
      100
1005
EB7
  0
MTEXT
  5
EB8
330
2CE
100
AcDbEntity
  8
图框
100
AcDbMText
 10
1086.643735910939
 20
517.9288275049072
 30
0.0
 40
1.958998408821398
 41
13.34474941400573
 46
8.686745505685811
 71
     5
 72
     5
  1
产品代号\P{\Fromans|c134;Part Code}
 73
     1
 44
1.0
1001
AcDbBlockRepETag
1070
     1
1071
      101
1005
EB8
1001
ACAD
1000
MTEXTBEGIN
1070
    73
1070
     1
1070
    44
1040
1.0
1070
    74
1070
     0
1000
MTEXTEND
1000
ACAD_MTEXT_DEFINED_HEIGHT_BEGIN
1070
    46
1040
8.686745505685811
1000
ACAD_MTEXT_DEFINED_HEIGHT_END
  0
LINE
  5
EB9
330
2CE
100
AcDbEntity
  8
图框
370
    -3
100
AcDbLine
 10
946.9285026103634
 20
525.7982263931411
 30
0.0
 11
1036.653967466372
 21
525.7982263931411
 31
0.0
1001
AcDbBlockRepETag
1070
     1
1071
      102
1005
EB9
  0
LINE
  5
EBA
330
2CE
100
AcDbEntity
  8
图框
370
    -3
100
AcDbLine
 10
946.9285026103634
 20
520.2672851814959
 30
0.0
 11
1036.653967466372
 21
520.2672851814959
 31
0.0
1001
AcDbBlockRepETag
1070
     1
1071
      103
1005
EBA
  0
LINE
  5
EBB
330
2CE
100
AcDbEntity
  8
图框
370
    35
100
AcDbLine
 10
946.9285026103634
 20
531.3291676047914
 30
0.0
 11
1126.928502610363
 21
531.3291676047914
 31
0.0
1001
AcDbBlockRepETag
1070
     1
1071
      104
1005
EBB
  0
LINE
  5
EBC
330
2CE
100
AcDbEntity
  8
图框
370
    -3
100
AcDbLine
 10
990.6727612856927
 20
509.2054027581959
 30
0.0
 11
990.6727612856927
 21
484.0347692601515
 31
0.0
1001
AcDbBlockRepETag
1070
     1
1071
      105
1005
EBC
  0
MTEXT
  5
EBD
102
{ACAD_XDICTIONARY
360
EF5
102
}
330
2CE
100
AcDbEntity
  8
图框
100
AcDbMText
 10
997.1628169651232
 20
499.816589978722
 30
0.0
 40
2.252848170144607
 41
12.98011135886052
 46
6.19230880992475
 71
     5
 72
     5
  1
{\fSimSun|b0|i0|c134|p2;标准化}\PStand.
  7
Romans字体
 73
     1
 44
1.0
1001
AcDbBlockRepETag
1070
     1
1071
      106
1005
EBD
1001
ACAD
1000
MTEXTBEGIN
1070
    73
1070
     1
1070
    44
1040
1.0
1070
    74
1070
     0
1000
MTEXTEND
1000
ACAD_MTEXT_DEFINED_HEIGHT_BEGIN
1070
    46
1040
6.19230880992475
1000
ACAD_MTEXT_DEFINED_HEIGHT_END
  0
LINE
  5
EBE
330
2CE
100
AcDbEntity
  8
图框
370
    -3
100
AcDbLine
 10
975.4103773808022
 20
509.2054027581959
 30
0.0
 11
975.4103773808022
 21
484.0347692601515
 31
0.0
1001
AcDbBlockRepETag
1070
     1
1071
      107
1005
EBE
  0
MTEXT
  5
EBF
330
2CE
100
AcDbEntity
  8
图框
100
AcDbMText
 10
984.5089229802068
 20
511.9708733640202
 30
0.0
 40
2.448748011026752
 41
38.287899328693
 46
5.530941211648832
 71
     5
 72
     5
  1
  变更描述{\Fromans|c134;/Description}
 73
     1
 44
1.0
1001
AcDbBlockRepETag
1070
     1
1071
      108
1005
EBF
1001
ACAD
1000
MTEXTBEGIN
1070
    73
1070
     1
1070
    44
1040
1.0
1070
    74
1070
     0
1000
MTEXTEND
1000
ACAD_MTEXT_DEFINED_HEIGHT_BEGIN
1070
    46
1040
5.530941211648832
1000
ACAD_MTEXT_DEFINED_HEIGHT_END
  0
MTEXT
  5
EC0
102
{ACAD_XDICTIONARY
360
EF7
102
}
330
2CE
100
AcDbEntity
  8
图框
100
AcDbMText
 10
1012.466086049227
 20
511.9708733640202
 30
0.0
 40
1.958998408821398
 41
17.6264268093469
 46
5.530941211648825
 71
     5
 72
     5
  1
{\fSimSun|b0|i0|c134|p2;签名\P\Fromans|c134;Signature} 
 73
     1
 44
1.0
1001
AcDbBlockRepETag
1070
     1
1071
      109
1005
EC0
1001
ACAD
1000
MTEXTBEGIN
1070
    73
1070
     1
1070
    44
1040
1.0
1070
    74
1070
     0
1000
MTEXTEND
1000
ACAD_MTEXT_DEFINED_HEIGHT_BEGIN
1070
    46
1040
5.530941211648825
1000
ACAD_MTEXT_DEFINED_HEIGHT_END
  0
MTEXT
  5
EC1
102
{ACAD_XDICTIONARY
360
EF9
102
}
330
2CE
100
AcDbEntity
  8
图框
100
AcDbMText
 10
960.7558556394856
 20
511.9708733640202
 30
0.0
 40
1.958998408821398
 41
9.218235352749283
 46
5.530941211648841
 71
     5
 72
     5
  1
{\fSimSun|b0|i0|c134|p2;处数\P\Fromans|c134;Number }
 73
     1
 44
1.0
1001
AcDbBlockRepETag
1070
     1
1071
      110
1005
EC1
1001
ACAD
1000
MTEXTBEGIN
1070
    73
1070
     1
1070
    44
1040
1.0
1070
    74
1070
     0
1000
MTEXTEND
1000
ACAD_MTEXT_DEFINED_HEIGHT_BEGIN
1070
    46
1040
5.530941211648841
1000
ACAD_MTEXT_DEFINED_HEIGHT_END
  0
LINE
  5
EC2
330
2CE
100
AcDbEntity
  8
图框
370
    -3
100
AcDbLine
 10
946.9285026103634
 20
514.7363439698449
 30
0.0
 11
1036.653967466372
 21
514.7363439698449
 31
0.0
1001
AcDbBlockRepETag
1070
     1
1071
      111
1005
EC2
  0
LINE
  5
EC3
330
2CE
100
AcDbEntity
  8
图框
370
    -3
100
AcDbLine
 10
946.9285026103634
 20
509.2054027581959
 30
0.0
 11
1036.653967466372
 21
509.2054027581959
 31
0.0
1001
AcDbBlockRepETag
1070
     1
1071
      112
1005
EC3
  0
LINE
  5
EC4
330
2CE
100
AcDbEntity
  8
图框
370
    -3
100
AcDbLine
 10
946.9285026103634
 20
502.9127443836848
 30
0.0
 11
1036.653967466372
 21
502.9127443836848
 31
0.0
1001
AcDbBlockRepETag
1070
     1
1071
      113
1005
EC4
  0
LINE
  5
EC5
330
2CE
100
AcDbEntity
  8
图框
370
    -3
100
AcDbLine
 10
946.9285026103634
 20
496.620086009173
 30
0.0
 11
1036.653967466372
 21
496.620086009173
 31
0.0
1001
AcDbBlockRepETag
1070
     1
1071
      114
1005
EC5
  0
LINE
  5
EC6
330
2CE
100
AcDbEntity
  8
图框
370
    35
380
     1
100
AcDbLine
 10
946.9285026103634
 20
531.3291676047914
 30
0.0
 11
946.9285026103634
 21
484.0347692601515
 31
0.0
1001
AcDbBlockRepETag
1070
     1
1071
      115
1005
EC6
  0
LINE
  5
EC7
330
2CE
100
AcDbEntity
  8
图框
370
    -3
100
AcDbLine
 10
1021.301636813399
 20
531.3291676047914
 30
0.0
 11
1021.301636813399
 21
484.0347692601515
 31
0.0
1001
AcDbBlockRepETag
1070
     1
1071
      116
1005
EC7
  0
LINE
  5
EC8
330
2CE
100
AcDbEntity
  8
图框
370
    -3
100
AcDbLine
 10
1003.652872644553
 20
531.3291676047914
 30
0.0
 11
1003.652872644553
 21
484.0347692601515
 31
0.0
1001
AcDbBlockRepETag
1070
     1
1071
      117
1005
EC8
  0
LINE
  5
EC9
330
2CE
100
AcDbEntity
  8
图框
370
    -3
100
AcDbLine
 10
965.3649733158603
 20
531.3291676047914
 30
0.0
 11
965.3649733158603
 21
509.2054027581959
 31
0.0
1001
AcDbBlockRepETag
1070
     1
1071
      118
1005
EC9
  0
LINE
  5
ECA
330
2CE
100
AcDbEntity
  8
图框
370
    -3
100
AcDbLine
 10
956.1467379631109
 20
531.3291676047914
 30
0.0
 11
956.1467379631109
 21
509.2054027581959
 31
0.0
1001
AcDbBlockRepETag
1070
     1
1071
      119
1005
ECA
  0
MTEXT
  5
ECB
102
{ACAD_XDICTIONARY
360
EFB
102
}
330
2CE
100
AcDbEntity
  8
图框
100
AcDbMText
 10
951.537620286737
 20
511.9708733640202
 30
0.0
 40
1.958998408821398
 41
9.218235352747692
 46
5.530941211648832
 71
     5
 72
     5
  1
{\fSimSun|b0|i0|c134|p2;标记\P\Fromans|c134;Mark}
 73
     1
 44
1.0
1001
AcDbBlockRepETag
1070
     1
1071
      120
1005
ECB
1001
ACAD
1000
MTEXTBEGIN
1070
    73
1070
     1
1070
    44
1040
1.0
1070
    74
1070
     0
1000
MTEXTEND
1000
ACAD_MTEXT_DEFINED_HEIGHT_BEGIN
1070
    46
1040
5.530941211648832
1000
ACAD_MTEXT_DEFINED_HEIGHT_END
  0
MTEXT
  5
ECC
102
{ACAD_XDICTIONARY
360
EFD
102
}
330
2CE
100
AcDbEntity
  8
图框
100
AcDbMText
 10
953.4185582897936
 20
493.4737568219182
 30
0.0
 40
2.252848170144607
 41
12.98011135886041
 46
6.292658374510382
 71
     5
 72
     5
  1
{\fSimSun|b0|i0|c134|p2;审核\P\Fromans|c134;Checked}
 73
     1
 44
1.0
1001
AcDbBlockRepETag
1070
     1
1071
      121
1005
ECC
1001
ACAD
1000
MTEXTBEGIN
1070
    73
1070
     1
1070
    44
1040
1.0
1070
    74
1070
     0
1000
MTEXTEND
1000
ACAD_MTEXT_DEFINED_HEIGHT_BEGIN
1070
    46
1040
6.292658374510382
1000
ACAD_MTEXT_DEFINED_HEIGHT_END
  0
MTEXT
  5
ECD
102
{ACAD_XDICTIONARY
360
EFF
102
}
330
2CE
100
AcDbEntity
  8
图框
100
AcDbMText
 10
953.4185582897936
 20
499.8775635376777
 30
0.0
 40
2.252848170144607
 41
12.98011135886041
 46
6.070361692014189
 71
     5
 72
     5
  1
{\fSimSun|b0|i0|c134|p2;绘图\P\Fromans|c134;Drawn\Ftxt|c134; }
 73
     1
 44
1.0
1001
AcDbBlockRepETag
1070
     1
1071
      122
1005
ECD
1001
ACAD
1000
MTEXTBEGIN
1070
    73
1070
     1
1070
    44
1040
1.0
1070
    74
1070
     0
1000
MTEXTEND
1000
ACAD_MTEXT_DEFINED_HEIGHT_BEGIN
1070
    46
1040
6.070361692014189
1000
ACAD_MTEXT_DEFINED_HEIGHT_END
  0
ARC
  5
ECE
330
2CE
100
AcDbEntity
  8
图框
 62
     4
370
    35
100
AcDbCircle
 10
1086.900627017421
 20
490.0179944151195
 30
0.0
 40
4.063310408393665
100
AcDbArc
 50
18.95237904564806
 51
161.0476209543519
1001
AcDbBlockRepETag
1070
     1
1071
      123
1005
ECE
  0
ARC
  5
ECF
330
2CE
100
AcDbEntity
  8
图框
 62
     4
370
    35
100
AcDbCircle
 10
1086.900627017421
 20
490.0179944151195
 30
0.0
 40
4.063310408393665
100
AcDbArc
 50
198.952379045648
 51
341.0476209543519
1001
AcDbBlockRepETag
1070
     1
1071
      124
1005
ECF
  0
LINE
  5
ED0
330
2CE
100
AcDbEntity
  8
图框
 62
     4
370
    35
100
AcDbLine
 10
1083.057593369548
 20
488.6983035966752
 30
0.0
 11
1090.74366066529
 21
488.6983035966752
 31
0.0
1001
AcDbBlockRepETag
1070
     1
1071
      125
1005
ED0
  0
LINE
  5
ED1
330
2CE
100
AcDbEntity
  8
图框
 62
     4
370
    35
100
AcDbLine
 10
1083.057593369548
 20
491.3376852335652
 30
0.0
 11
1090.74366066529
 21
491.3376852335652
 31
0.0
1001
AcDbBlockRepETag
1070
     1
1071
      126
1005
ED1
  0
MTEXT
  5
ED2
330
2CE
100
AcDbEntity
  8
图框
 62
     1
370
    20
100
AcDbMText
 10
1083.034582879669
 20
491.0506288081688
 30
0.0
 40
2.005930044038334
 41
5.047240019334847
 46
0.0
 71
     1
 72
     5
  1
{\fArial|b0|i0|c0|p34;W}
  7
Chinese
 73
     1
 44
1.0
1001
AcDbBlockRepETag
1070
     1
1071
      127
1005
ED2
1001
ACAD
1000
MTEXTBEGIN
1070
    73
1070
     1
1070
    44
1040
1.0
1070
    74
1070
     0
1000
MTEXTEND
  0
LINE
  5
ED3
330
2CE
100
AcDbEntity
  8
图框
370
    -3
100
AcDbLine
 10
946.9285026103634
 20
490.327427634663
 30
0.0
 11
1036.653967466372
 21
490.327427634663
 31
0.0
1001
AcDbBlockRepETag
1070
     1
1071
      128
1005
ED3
  0
LINE
  5
ED4
330
2CE
100
AcDbEntity
  8
图框
370
    -3
100
AcDbLine
 10
959.9086139692238
 20
509.2054027581959
 30
0.0
 11
959.9086139692238
 21
484.0347692601515
 31
0.0
1001
AcDbBlockRepETag
1070
     1
1071
      129
1005
ED4
  0
MTEXT
  5
ED5
330
2CE
100
AcDbEntity
  8
图框
100
AcDbMText
 10
967.6594956750129
 20
506.0590735709403
 30
0.0
 40
2.252848170144607
 41
15.50176341157869
 46
6.292658374511246
 71
     5
 72
     5
  1
姓名{\Fromans|c134;/Name\Ftxt|c134; }
 73
     1
 44
1.0
1001
AcDbBlockRepETag
1070
     1
1071
      130
1005
ED5
1001
ACAD
1000
MTEXTBEGIN
1070
    73
1070
     1
1070
    44
1040
1.0
1070
    74
1070
     0
1000
MTEXTEND
1000
ACAD_MTEXT_DEFINED_HEIGHT_BEGIN
1070
    46
1040
6.292658374511246
1000
ACAD_MTEXT_DEFINED_HEIGHT_END
  0
MTEXT
  5
ED6
330
2CE
100
AcDbEntity
  8
图框
100
AcDbMText
 10
983.0415693332477
 20
506.0590735709403
 30
0.0
 40
2.252848170144607
 41
15.26238390489042
 46
6.2926583745112
 71
     5
 72
     5
  1
日期{\Fromans|c134;/Date}
 73
     1
 44
1.0
1001
AcDbBlockRepETag
1070
     1
1071
      131
1005
ED6
1001
ACAD
1000
MTEXTBEGIN
1070
    73
1070
     1
1070
    44
1040
1.0
1070
    74
1070
     0
1000
MTEXTEND
1000
ACAD_MTEXT_DEFINED_HEIGHT_BEGIN
1070
    46
1040
6.2926583745112
1000
ACAD_MTEXT_DEFINED_HEIGHT_END
  0
LINE
  5
ED7
330
2CE
100
AcDbEntity
  8
图框
370
    -3
100
AcDbLine
 10
946.9285026103634
 20
509.2054027581959
 30
0.0
 11
959.9086139692238
 21
502.9127443836848
 31
0.0
1001
AcDbBlockRepETag
1070
     1
1071
      132
1005
ED7
  0
MTEXT
  5
ED8
330
2CE
100
AcDbEntity
  8
图框
100
AcDbMText
 10
1012.931405110086
 20
506.0185715840725
 30
0.0
 40
2.252848170144607
 41
16.93492221063566
 46
0.0
 71
     5
 72
     5
  1
姓名{\Fromans|c134;/Name}
 73
     1
 44
1.0
1001
AcDbBlockRepETag
1070
     1
1071
      133
1005
ED8
1001
ACAD
1000
MTEXTBEGIN
1070
    73
1070
     1
1070
    44
1040
1.0
1070
    74
1070
     0
1000
MTEXTEND
  0
MTEXT
  5
ED9
330
2CE
100
AcDbEntity
  8
图框
100
AcDbMText
 10
1028.977802139886
 20
506.0590735709403
 30
0.0
 40
2.252848170144607
 41
15.35233065297283
 46
6.292658374511256
 71
     5
 72
     5
  1
日期{\Fromans|c134;/Date}
 73
     1
 44
1.0
1001
AcDbBlockRepETag
1070
     1
1071
      134
1005
ED9
1001
ACAD
1000
MTEXTBEGIN
1070
    73
1070
     1
1070
    44
1040
1.0
1070
    74
1070
     0
1000
MTEXTEND
1000
ACAD_MTEXT_DEFINED_HEIGHT_BEGIN
1070
    46
1040
6.292658374511256
1000
ACAD_MTEXT_DEFINED_HEIGHT_END
  0
LINE
  5
EDA
330
2CE
100
AcDbEntity
  8
图框
370
    -3
100
AcDbLine
 10
1003.652872644553
 20
502.9127443836848
 30
0.0
 11
990.6727612856927
 21
509.2054027581959
 31
0.0
1001
AcDbBlockRepETag
1070
     1
1071
      135
1005
EDA
  0
MTEXT
  5
EDB
102
{ACAD_XDICTIONARY
360
F01
102
}
330
2CE
100
AcDbEntity
  8
图框
100
AcDbMText
 10
997.1628169651232
 20
487.1810984474071
 30
0.0
 40
2.252848170144607
 41
12.98011135886052
 46
6.292658374511517
 71
     5
 72
     5
  1
{\fSimSun|b0|i0|c134|p2;批准\P\Fromans|c134;Approved}
 73
     1
 44
1.0
1001
AcDbBlockRepETag
1070
     1
1071
      136
1005
EDB
1001
ACAD
1000
MTEXTBEGIN
1070
    73
1070
     1
1070
    44
1040
1.0
1070
    74
1070
     0
1000
MTEXTEND
1000
ACAD_MTEXT_DEFINED_HEIGHT_BEGIN
1070
    46
1040
6.292658374511517
1000
ACAD_MTEXT_DEFINED_HEIGHT_END
  0
MTEXT
  5
EDC
102
{ACAD_XDICTIONARY
360
F03
102
}
330
2CE
100
AcDbEntity
  8
图框
100
AcDbMText
 10
953.4185582897936
 20
487.1810984474071
 30
0.0
 40
2.252848170144607
 41
12.98011135886041
 46
6.292658374511495
 71
     5
 72
     5
  1
{\fSimSun|b0|i0|c134|p2;工艺\P\Fromans|c134;Process}
 73
     1
 44
1.0
1001
AcDbBlockRepETag
1070
     1
1071
      137
1005
EDC
1001
ACAD
1000
MTEXTBEGIN
1070
    73
1070
     1
1070
    44
1040
1.0
1070
    74
1070
     0
1000
MTEXTEND
1000
ACAD_MTEXT_DEFINED_HEIGHT_BEGIN
1070
    46
1040
6.292658374511495
1000
ACAD_MTEXT_DEFINED_HEIGHT_END
  0
MTEXT
  5
EDD
102
{ACAD_XDICTIONARY
360
F05
102
}
330
2CE
100
AcDbEntity
  8
图框
100
AcDbMText
 10
1028.977802139886
 20
511.8287965307664
 30
0.0
 40
1.958998408821398
 41
15.3523306529728
 46
5.246787545140668
 71
     5
 72
     5
  1
{\fSimSun|b0|i0|c134|p2;日期\P\Fromans|c134;Date}
 73
     1
 44
1.0
1001
AcDbBlockRepETag
1070
     1
1071
      138
1005
EDD
1001
ACAD
1000
MTEXTBEGIN
1070
    73
1070
     1
1070
    44
1040
1.0
1070
    74
1070
     0
1000
MTEXTEND
1000
ACAD_MTEXT_DEFINED_HEIGHT_BEGIN
1070
    46
1040
5.246787545140668
1000
ACAD_MTEXT_DEFINED_HEIGHT_END
  0
MTEXT
  5
EDE
330
2CE
100
AcDbEntity
  8
图框
100
AcDbMText
 10
1086.643735910939
 20
509.1493769780809
 30
0.0
 40
2.154898249703542
 41
13.34474941400573
 46
8.87215554796615
 71
     5
 72
     5
  1
产品料号\P{\Fromans|c134;Part No.}
 73
     1
 44
1.0
1001
AcDbBlockRepETag
1070
     1
1071
      139
1005
EDE
1001
ACAD
1000
MTEXTBEGIN
1070
    73
1070
     1
1070
    44
1040
1.0
1070
    74
1070
     0
1000
MTEXTEND
1000
ACAD_MTEXT_DEFINED_HEIGHT_BEGIN
1070
    46
1040
8.87215554796615
1000
ACAD_MTEXT_DEFINED_HEIGHT_END
  0
MTEXT
  5
EDF
330
2CE
100
AcDbEntity
  8
图框
100
AcDbMText
 10
1086.643735910939
 20
500.2775205517163
 30
0.0
 40
1.958998408821398
 41
13.34474941400573
 46
8.871557304763321
 71
     5
 72
     5
  1
产品名称\P{\Fromans|c134;Part Name}
 73
     1
 44
1.0
1001
AcDbBlockRepETag
1070
     1
1071
      140
1005
EDF
1001
ACAD
1000
MTEXTBEGIN
1070
    73
1070
     1
1070
    44
1040
1.0
1070
    74
1070
     0
1000
MTEXTEND
1000
ACAD_MTEXT_DEFINED_HEIGHT_BEGIN
1070
    46
1040
8.871557304763321
1000
ACAD_MTEXT_DEFINED_HEIGHT_END
  0
LINE
  5
EE0
330
2CE
100
AcDbEntity
  8
图框
 62
     1
370
    18
100
AcDbLine
 10
833.4128518455365
 20
690.5347692601515
 30
0.0
 11
833.4128518455365
 21
480.5347692601515
 31
0.0
1001
AcDbBlockRepETag
1070
     1
1071
      141
1005
EE0
  0
LINE
  5
EE1
330
2CE
100
AcDbEntity
  8
图框
 62
     1
370
    18
100
AcDbLine
 10
833.4128518455365
 20
480.5347692601515
 30
0.0
 11
1130.411601781236
 21
480.5347692601515
 31
0.0
1001
AcDbBlockRepETag
1070
     1
1071
      142
1005
EE1
  0
LINE
  5
EE2
330
2CE
100
AcDbEntity
  8
图框
 62
     1
370
    18
100
AcDbLine
 10
833.4128518455365
 20
690.5347692601515
 30
0.0
 11
1130.411601781236
 21
690.5347692601515
 31
0.0
1001
AcDbBlockRepETag
1070
     1
1071
      143
1005
EE2
  0
LINE
  5
EE3
330
2CE
100
AcDbEntity
  8
图框
 62
     1
370
    18
100
AcDbLine
 10
1130.411601781236
 20
480.5347692601515
 30
0.0
 11
1130.411601781236
 21
690.5347692601515
 31
0.0
1001
AcDbBlockRepETag
1070
     1
1071
      144
1005
EE3
  0
LINE
  5
EE4
330
2CE
100
AcDbEntity
  8
图框
370
    18
100
AcDbLine
 10
836.9128518455394
 20
686.7901958362482
 30
0.0
 11
861.5351874539182
 21
686.7901958362482
 31
0.0
1001
AcDbBlockRepETag
1070
     1
1071
      145
1005
EE4
  0
LINE
  5
EE5
330
2CE
100
AcDbEntity
  8
图框
370
    50
100
AcDbLine
 10
1126.928502610363
 20
484.3410054693078
 30
0.0
 11
1126.928502610363
 21
675.5347692601515
 31
0.0
1001
AcDbBlockRepETag
1070
     1
1071
      146
1005
EE5
  0
MTEXT
  5
EE6
330
2CE
100
AcDbEntity
  8
图框
 62
     3
100
AcDbMText
 10
1052.897990117958
 20
495.8417418993364
 30
0.0
 40
2.985513575034151
 41
10.82934843439114
 46
7.886094601211307
 71
     5
 72
     5
  1
V1.2
  7
Romans字体
 73
     1
 44
1.0
1001
AcDbBlockRepETag
1070
     1
1071
      147
1005
EE6
1001
ACAD
1000
MTEXTBEGIN
1070
    73
1070
     1
1070
    44
1040
1.0
1070
    74
1070
     0
1000
MTEXTEND
1000
ACAD_MTEXT_DEFINED_HEIGHT_BEGIN
1070
    46
1040
7.886094601211307
1000
ACAD_MTEXT_DEFINED_HEIGHT_END
  0
LINE
  5
EE7
330
2CE
100
AcDbEntity
  8
图框
 62
     6
100
AcDbLine
 10
1126.911601781236
 20
531.714049199969
 30
0.0
 11
1130.411601781236
 21
531.714049199969
 31
0.0
1001
AcDbBlockRepETag
1070
     1
1071
      148
1005
EE7
  0
ENDBLK
  5
366
330
2CE
100
AcDbEntity
  8
0
100
AcDbBlockEnd
  0
BLOCK
  5
AE0
330
ADF
100
AcDbEntity
  8
0
100
AcDbBlockBegin
  2
*D2
 70
     1
 10
0.0
 20
0.0
 30
0.0
  3
*D2
  1

  0
LINE
  5
AF8
330
ADF
100
AcDbEntity
  8
0
 62
     6
370
    -2
100
AcDbLine
 10
793.3429800828783
 20
221.43688827469
 30
0.0
 11
793.3429800828783
 21
228.9648575219929
 31
0.0
  0
LINE
  5
AF9
330
ADF
100
AcDbEntity
  8
0
 62
     6
370
    -2
100
AcDbLine
 10
814.8429780341562
 20
221.43688827469
 30
0.0
 11
814.8429780341562
 21
228.9648575219929
 31
0.0
  0
LINE
  5
AFA
330
ADF
100
AcDbEntity
  8
0
 62
     1
370
    -2
100
AcDbLine
 10
794.8429800828782
 20
228.4648575219929
 30
0.0
 11
813.3429780341561
 21
228.4648575219929
 31
0.0
  0
SOLID
  5
AFB
330
ADF
100
AcDbEntity
  8
0
 62
     1
100
AcDbTrace
 10
794.8429800828782
 20
228.7148575219929
 30
0.0
 11
794.8429800828782
 21
228.2148575219929
 31
0.0
 12
793.3429800828783
 22
228.4648575219929
 32
0.0
 13
793.3429800828783
 23
228.4648575219929
 33
0.0
  0
SOLID
  5
AFC
330
ADF
100
AcDbEntity
  8
0
 62
     1
100
AcDbTrace
 10
813.3429780341561
 20
228.7148575219929
 30
0.0
 11
813.3429780341561
 21
228.2148575219929
 31
0.0
 12
814.8429780341562
 22
228.4648575219929
 32
0.0
 13
814.8429780341562
 23
228.4648575219929
 33
0.0
  0
MTEXT
  5
AFD
330
ADF
100
AcDbEntity
  8
0
 62
     4
100
AcDbMText
 10
803.0499632560704
 20
229.9779981264607
 30
0.0
 40
2.0
 41
0.0
 46
0.0
 71
     5
 72
     1
  1
\A1;21.5
  7
Romans字体
 73
     1
 44
1.0
1001
ACAD
1000
MTEXTBEGIN
1070
    73
1070
     1
1070
    44
1040
1.0
1070
    74
1070
     0
1000
MTEXTEND
  0
POINT
  5
AFE
330
ADF
100
AcDbEntity
  8
Defpoints
 62
     0
100
AcDbPoint
 10
793.3429800828783
 20
221.23688827469
 30
0.0
  0
POINT
  5
AFF
330
ADF
100
AcDbEntity
  8
Defpoints
 62
     0
100
AcDbPoint
 10
814.8429780341562
 20
221.23688827469
 30
0.0
  0
POINT
  5
B00
330
ADF
100
AcDbEntity
  8
Defpoints
 62
     0
100
AcDbPoint
 10
814.8429780341562
 20
228.4648575219929
 30
0.0
  0
ENDBLK
  5
AE1
330
ADF
100
AcDbEntity
  8
0
100
AcDbBlockEnd
  0
BLOCK
  5
AED
330
AEC
100
AcDbEntity
  8
0
100
AcDbBlockBegin
  2
*D3
 70
     1
 10
0.0
 20
0.0
 30
0.0
  3
*D3
  1

  0
LINE
  5
B01
330
AEC
100
AcDbEntity
  8
0
 62
     6
370
    -2
100
AcDbLine
 10
793.3429800828783
 20
221.43688827469
 30
0.0
 11
793.3429800828783
 21
225.3488584018215
 31
0.0
  0
LINE
  5
B02
330
AEC
100
AcDbEntity
  8
0
 62
     6
370
    -2
100
AcDbLine
 10
799.3641662064143
 20
221.43688827469
 30
0.0
 11
799.3641662064143
 21
225.3488584018215
 31
0.0
  0
LINE
  5
B03
330
AEC
100
AcDbEntity
  8
0
 62
     1
370
    -2
100
AcDbLine
 10
794.8429800828782
 20
224.8488584018215
 30
0.0
 11
797.8641662064143
 21
224.8488584018215
 31
0.0
  0
SOLID
  5
B04
330
AEC
100
AcDbEntity
  8
0
 62
     1
100
AcDbTrace
 10
794.8429800828782
 20
225.0988584018215
 30
0.0
 11
794.8429800828782
 21
224.5988584018215
 31
0.0
 12
793.3429800828783
 22
224.8488584018215
 32
0.0
 13
793.3429800828783
 23
224.8488584018215
 33
0.0
  0
SOLID
  5
B05
330
AEC
100
AcDbEntity
  8
0
 62
     1
100
AcDbTrace
 10
797.8641662064143
 20
225.0988584018215
 30
0.0
 11
797.8641662064143
 21
224.5988584018215
 31
0.0
 12
799.3641662064143
 22
224.8488584018215
 32
0.0
 13
799.3641662064143
 23
224.8488584018215
 33
0.0
  0
MTEXT
  5
B06
330
AEC
100
AcDbEntity
  8
0
 62
     4
100
AcDbMText
 10
796.3579704523414
 20
226.358056824949
 30
0.0
 40
2.0
 41
0.0
 46
0.0
 71
     5
 72
     1
  1
\A1;6
  7
Romans字体
 73
     1
 44
1.0
1001
ACAD
1000
MTEXTBEGIN
1070
    73
1070
     1
1070
    44
1040
1.0
1070
    74
1070
     0
1000
MTEXTEND
  0
POINT
  5
B07
330
AEC
100
AcDbEntity
  8
Defpoints
 62
     0
100
AcDbPoint
 10
793.3429800828783
 20
221.23688827469
 30
0.0
  0
POINT
  5
B08
330
AEC
100
AcDbEntity
  8
Defpoints
 62
     0
100
AcDbPoint
 10
799.3641662064143
 20
221.23688827469
 30
0.0
  0
POINT
  5
B09
330
AEC
100
AcDbEntity
  8
Defpoints
 62
     0
100
AcDbPoint
 10
799.3641662064143
 20
224.8488584018215
 30
0.0
  0
ENDBLK
  5
AEE
330
AEC
100
AcDbEntity
  8
0
100
AcDbBlockEnd
  0
BLOCK
  5
B5D
330
B5C
100
AcDbEntity
  8
0
100
AcDbBlockBegin
  2
*D4
 70
     1
 10
0.0
 20
0.0
 30
0.0
  3
*D4
  1

  0
LINE
  5
BD2
330
B5C
100
AcDbEntity
  8
0
 62
     6
370
    -2
100
AcDbLine
 10
793.6429800828782
 20
219.48688827469
 30
0.0
 11
782.2704296436479
 21
219.48688827469
 31
0.0
  0
LINE
  5
BD3
330
B5C
100
AcDbEntity
  8
0
 62
     6
370
    -2
100
AcDbLine
 10
793.6429800828782
 20
222.98688827469
 30
0.0
 11
782.2704296436479
 21
222.98688827469
 31
0.0
  0
LINE
  5
BD4
330
B5C
100
AcDbEntity
  8
0
 62
     1
370
    -2
100
AcDbLine
 10
782.7704296436479
 20
217.98688827469
 30
0.0
 11
782.7704296436479
 21
216.48688827469
 31
0.0
  0
LINE
  5
BD5
330
B5C
100
AcDbEntity
  8
0
 62
     1
370
    -2
100
AcDbLine
 10
782.7704296436479
 20
224.48688827469
 30
0.0
 11
782.7704296436479
 21
231.7537739514311
 31
0.0
  0
SOLID
  5
BD6
330
B5C
100
AcDbEntity
  8
0
 62
     1
100
AcDbTrace
 10
782.520429643648
 20
217.98688827469
 30
0.0
 11
783.0204296436479
 21
217.98688827469
 31
0.0
 12
782.7704296436479
 22
219.48688827469
 32
0.0
 13
782.7704296436479
 23
219.48688827469
 33
0.0
  0
SOLID
  5
BD7
330
B5C
100
AcDbEntity
  8
0
 62
     1
100
AcDbTrace
 10
782.520429643648
 20
224.48688827469
 30
0.0
 11
783.0204296436479
 21
224.48688827469
 31
0.0
 12
782.7704296436479
 22
222.98688827469
 32
0.0
 13
782.7704296436479
 23
222.98688827469
 33
0.0
  0
MTEXT
  5
BD8
330
B5C
100
AcDbEntity
  8
0
 62
     4
100
AcDbMText
 10
781.2572890391801
 20
228.8703311130607
 30
0.0
 40
2.0
 41
0.0
 46
0.0
 71
     5
 72
     1
  1
\A1;{\fISOCPEUR|b0|i0|c0|p34;%%C}3.5
  7
Romans字体
 11
0.0000000000000001
 21
1.0
 31
0.0
 73
     1
 44
1.0
1001
ACAD
1000
MTEXTBEGIN
1070
    73
1070
     1
1070
    44
1040
1.0
1070
    74
1070
     0
1000
MTEXTEND
  0
POINT
  5
BD9
330
B5C
100
AcDbEntity
  8
Defpoints
 62
     0
100
AcDbPoint
 10
793.8429800828783
 20
219.48688827469
 30
0.0
  0
POINT
  5
BDA
330
B5C
100
AcDbEntity
  8
Defpoints
 62
     0
100
AcDbPoint
 10
793.8429800828783
 20
222.98688827469
 30
0.0
  0
POINT
  5
BDB
330
B5C
100
AcDbEntity
  8
Defpoints
 62
     0
100
AcDbPoint
 10
782.7704296436479
 20
222.98688827469
 30
0.0
  0
ENDBLK
  5
B5E
330
B5C
100
AcDbEntity
  8
0
100
AcDbBlockEnd
  0
BLOCK
  5
B75
330
B74
100
AcDbEntity
  8
0
100
AcDbBlockBegin
  2
*D5
 70
     1
 10
0.0
 20
0.0
 30
0.0
  3
*D5
  1

  0
LINE
  5
BB0
330
B74
100
AcDbEntity
  8
0
 62
     6
370
    -2
100
AcDbLine
 10
795.2981371360707
 20
220.11188827469
 30
0.0
 11
789.4496191979467
 21
220.11188827469
 31
0.0
  0
LINE
  5
BB1
330
B74
100
AcDbEntity
  8
0
 62
     6
370
    -2
100
AcDbLine
 10
795.2981371360707
 20
222.36188827469
 30
0.0
 11
789.4496191979467
 21
222.36188827469
 31
0.0
  0
LINE
  5
BB2
330
B74
100
AcDbEntity
  8
0
 62
     1
370
    -2
100
AcDbLine
 10
789.9496191979467
 20
218.61188827469
 30
0.0
 11
789.9496191979467
 21
217.11188827469
 31
0.0
  0
LINE
  5
BB3
330
B74
100
AcDbEntity
  8
0
 62
     1
370
    -2
100
AcDbLine
 10
789.9496191979467
 20
223.86188827469
 30
0.0
 11
789.9496191979467
 21
232.5735834126663
 31
0.0
  0
SOLID
  5
BB4
330
B74
100
AcDbEntity
  8
0
 62
     1
100
AcDbTrace
 10
789.6996191979467
 20
218.61188827469
 30
0.0
 11
790.1996191979467
 21
218.61188827469
 31
0.0
 12
789.9496191979467
 22
220.11188827469
 32
0.0
 13
789.9496191979467
 23
220.11188827469
 33
0.0
  0
SOLID
  5
BB5
330
B74
100
AcDbEntity
  8
0
 62
     1
100
AcDbTrace
 10
789.6996191979467
 20
223.86188827469
 30
0.0
 11
790.1996191979467
 21
223.86188827469
 31
0.0
 12
789.9496191979467
 22
222.36188827469
 32
0.0
 13
789.9496191979467
 23
222.36188827469
 33
0.0
  0
MTEXT
  5
BB6
330
B74
100
AcDbEntity
  8
0
 62
     4
100
AcDbMText
 10
788.4364785934787
 20
228.9677358436783
 30
0.0
 40
2.0
 41
0.0
 46
0.0
 71
     5
 72
     1
  1
\A1;{\fISOCPEUR|b0|i0|c0|p34;%%C}2.25
  7
Romans字体
 11
0.0000000000000001
 21
1.0
 31
0.0
 73
     1
 44
1.0
1001
ACAD
1000
MTEXTBEGIN
1070
    73
1070
     1
1070
    44
1040
1.0
1070
    74
1070
     0
1000
MTEXTEND
  0
POINT
  5
BB7
330
B74
100
AcDbEntity
  8
Defpoints
 62
     0
100
AcDbPoint
 10
795.4981371360706
 20
220.11188827469
 30
0.0
  0
POINT
  5
BB8
330
B74
100
AcDbEntity
  8
Defpoints
 62
     0
100
AcDbPoint
 10
795.4981371360706
 20
222.36188827469
 30
0.0
  0
POINT
  5
BB9
330
B74
100
AcDbEntity
  8
Defpoints
 62
     0
100
AcDbPoint
 10
789.9496191979467
 20
222.36188827469
 30
0.0
  0
ENDBLK
  5
B76
330
B74
100
AcDbEntity
  8
0
100
AcDbBlockEnd
  0
BLOCK
  5
BBC
330
BBB
100
AcDbEntity
  8
0
100
AcDbBlockBegin
  2
*D6
 70
     1
 10
0.0
 20
0.0
 30
0.0
  3
*D6
  1

  0
LINE
  5
BDC
330
BBB
100
AcDbEntity
  8
0
 62
     6
370
    -2
100
AcDbLine
 10
796.3644657358355
 20
222.836890219433
 30
0.0
 11
786.0117636804528
 21
222.836890219433
 31
0.0
  0
LINE
  5
BDD
330
BBB
100
AcDbEntity
  8
0
 62
     6
370
    -2
100
AcDbLine
 10
796.1429790585177
 20
219.636886329947
 30
0.0
 11
786.0117636804528
 21
219.636886329947
 31
0.0
  0
LINE
  5
BDE
330
BBB
100
AcDbEntity
  8
0
 62
     1
370
    -2
100
AcDbLine
 10
786.5117636804527
 20
224.336890219433
 30
0.0
 11
786.5117636804527
 21
225.836890219433
 31
0.0
  0
LINE
  5
BDF
330
BBB
100
AcDbEntity
  8
0
 62
     1
370
    -2
100
AcDbLine
 10
786.5117636804527
 20
218.136886329947
 30
0.0
 11
786.5117636804527
 21
210.8857693785672
 31
0.0
  0
SOLID
  5
BE0
330
BBB
100
AcDbEntity
  8
0
 62
     1
100
AcDbTrace
 10
786.2617636804527
 20
224.336890219433
 30
0.0
 11
786.7617636804527
 21
224.336890219433
 31
0.0
 12
786.5117636804527
 22
222.836890219433
 32
0.0
 13
786.5117636804527
 23
222.836890219433
 33
0.0
  0
SOLID
  5
BE1
330
BBB
100
AcDbEntity
  8
0
 62
     1
100
AcDbTrace
 10
786.2617636804527
 20
218.136886329947
 30
0.0
 11
786.7617636804527
 21
218.136886329947
 31
0.0
 12
786.5117636804527
 22
219.636886329947
 32
0.0
 13
786.5117636804527
 23
219.636886329947
 33
0.0
  0
MTEXT
  5
BE2
330
BBB
100
AcDbEntity
  8
0
 62
     4
100
AcDbMText
 10
784.9986230759848
 20
213.7613278542572
 30
0.0
 40
2.0
 41
0.0
 46
0.0
 71
     5
 72
     1
  1
\A1;{\fISOCPEUR|b0|i0|c0|p34;%%C}3.2
  7
Romans字体
 11
0.0000000000000001
 21
1.0
 31
0.0
 73
     1
 44
1.0
1001
ACAD
1000
MTEXTBEGIN
1070
    73
1070
     1
1070
    44
1040
1.0
1070
    74
1070
     0
1000
MTEXTEND
  0
POINT
  5
BE3
330
BBB
100
AcDbEntity
  8
Defpoints
 62
     0
100
AcDbPoint
 10
796.5644657358357
 20
222.836890219433
 30
0.0
  0
POINT
  5
BE4
330
BBB
100
AcDbEntity
  8
Defpoints
 62
     0
100
AcDbPoint
 10
796.3429790585178
 20
219.636886329947
 30
0.0
  0
POINT
  5
BE5
330
BBB
100
AcDbEntity
  8
Defpoints
 62
     0
100
AcDbPoint
 10
786.5117636804527
 20
219.636886329947
 30
0.0
  0
ENDBLK
  5
BBD
330
BBB
100
AcDbEntity
  8
0
100
AcDbBlockEnd
  0
ENDSEC
  0
SECTION
  2
ENTITIES
  0
HATCH
  5
16
330
2
100
AcDbEntity
  8
图层 1
 62
     7
100
AcDbHatch
 10
0.0
 20
0.0
 30
0.0
210
0.0
220
0.0
230
1.0
  2
SOLID
 70
     1
 71
     0
 91
        1
 92
        1
 93
        2
 72
     4
 94
        3
 73
     0
 74
     0
 95
       17
 96
       13
 40
0.0
 40
0.0
 40
0.0
 40
0.0
 40
0.3527780104152769
 40
0.3527780104152769
 40
0.3527780104152769
 40
0.7055560208305538
 40
0.7055560208305538
 40
0.7055560208305538
 40
1.058334031245828
 40
1.058334031245828
 40
1.058334031245828
 40
1.411112041661104
 40
1.411112041661104
 40
1.411112041661104
 40
1.411112041661104
 10
11.07013262565829
 20
29.50312817963231
 10
11.07013262565829
 20
29.50312817963231
 10
10.9431807732774
 20
29.50312817963231
 10
10.9431807732774
 20
29.50312817963231
 10
10.9431807732774
 20
29.50312817963231
 10
10.85843136843155
 20
29.22786486877117
 10
10.85843136843155
 20
29.22786486877117
 10
10.85843136843155
 20
29.22786486877117
 10
10.90080607085448
 20
29.2068497724476
 10
10.90080607085448
 20
29.2068497724476
 10
10.94455881238059
 20
29.31571486159919
 10
11.00346998404173
 20
29.40907701083995
 10
11.07013262565829
 20
29.50312817963231
 72
     1
 10
11.07013262565829
 20
29.50312817963231
 11
11.07013262565829
 21
29.50312817963231
 97
        0
 75
     0
 76
     1
 98
        0
450
        0
451
        0
460
0.0
461
0.0
452
        0
462
0.0
453
        0
470

  0
HATCH
  5
1A
330
2
100
AcDbEntity
  8
图层 1
 62
     7
100
AcDbHatch
 10
0.0
 20
0.0
 30
0.0
210
0.0
220
0.0
230
1.0
  2
SOLID
 70
     1
 71
     0
 91
        1
 92
        1
 93
        2
 72
     4
 94
        3
 73
     0
 74
     0
 95
       47
 96
       43
 40
0.0
 40
0.0
 40
0.0
 40
0.0
 40
0.3527780104152769
 40
0.3527780104152769
 40
0.3527780104152769
 40
0.7055560208305538
 40
0.7055560208305538
 40
0.7055560208305538
 40
1.058334031245828
 40
1.058334031245828
 40
1.058334031245828
 40
1.411112041661104
 40
1.411112041661104
 40
1.411112041661104
 40
1.763890052076384
 40
1.763890052076384
 40
1.763890052076384
 40
2.116668062491659
 40
2.116668062491659
 40
2.116668062491659
 40
2.469446072906936
 40
2.469446072906936
 40
2.469446072906936
 40
2.822224083322215
 40
2.822224083322215
 40
2.822224083322215
 40
3.175002093737492
 40
3.175002093737492
 40
3.175002093737492
 40
3.527780104152768
 40
3.527780104152768
 40
3.527780104152768
 40
3.880558114568044
 40
3.880558114568044
 40
3.880558114568044
 40
4.233336124983321
 40
4.233336124983321
 40
4.233336124983321
 40
4.586114135398599
 40
4.586114135398599
 40
4.586114135398599
 40
4.938892145813873
 40
4.938892145813873
 40
4.938892145813873
 40
4.938892145813873
 10
162.8986914070121
 20
257.4895347631509
 10
162.8986914070121
 20
257.4895347631509
 10
162.9200510131114
 20
257.4471600607279
 10
162.9200510131114
 20
257.4471600607279
 10
162.9200510131114
 20
257.4471600607279
 10
162.9200510131114
 20
257.404785358305
 10
162.9200510131114
 20
257.404785358305
 10
162.9200510131114
 20
257.404785358305
 10
162.8986914070121
 20
257.36258291077
 10
162.8986914070121
 20
257.36258291077
 10
162.8986914070121
 20
257.36258291077
 10
162.8986914070121
 20
257.320208208347
 10
162.8986914070121
 20
257.320208208347
 10
162.8986914070121
 20
257.320208208347
 10
162.8563167045891
 20
257.2990208571356
 10
162.8563167045891
 20
257.2990208571356
 10
162.8563167045891
 20
257.2990208571356
 10
162.8139420021662
 20
257.2563016449369
 10
162.8139420021662
 20
257.2563016449369
 10
162.8139420021662
 20
257.2563016449369
 10
162.7295371070961
 20
257.2563016449369
 10
162.7295371070961
 20
257.2563016449369
 10
162.7295371070961
 20
257.2563016449369
 10
162.6658027985738
 20
257.2778335059241
 10
162.6658027985738
 20
257.2778335059241
 10
162.6658027985738
 20
257.2778335059241
 10
162.6237726059267
 20
257.2990208571356
 10
162.6237726059267
 20
257.2990208571356
 10
162.6237726059267
 20
257.2990208571356
 10
162.5813979035038
 20
257.3413955595585
 10
162.5813979035038
 20
257.3413955595585
 10
162.5813979035038
 20
257.3413955595585
 10
162.5813979035038
 20
257.4895347631509
 10
162.5813979035038
 20
257.4895347631509
 10
162.5813979035038
 20
257.4895347631509
 10
162.6447877022503
 20
257.5525800521216
 10
162.6447877022503
 20
257.5525800521216
 10
162.6447877022503
 20
257.5525800521216
 10
162.7081775009967
 20
257.5525800521216
 10
162.7081775009967
 20
257.5525800521216
 10
162.8749202324821
 20
257.5424170137356
 10
162.7918933765152
 20
257.5939212252171
 10
162.8986914070121
 20
257.4895347631509
 72
     1
 10
162.8986914070121
 20
257.4895347631509
 11
162.8986914070121
 21
257.4895347631509
 97
        0
 75
     0
 76
     1
 98
        0
450
        0
451
        0
460
0.0
461
0.0
452
        0
462
0.0
453
        0
470

  0
HATCH
  5
1B
330
2
100
AcDbEntity
  8
图层 1
 62
     7
100
AcDbHatch
 10
0.0
 20
0.0
 30
0.0
210
0.0
220
0.0
230
1.0
  2
SOLID
 70
     1
 71
     0
 91
        1
 92
        1
 93
        2
 72
     4
 94
        3
 73
     0
 74
     0
 95
       56
 96
       52
 40
0.0
 40
0.0
 40
0.0
 40
0.0
 40
0.3527780104152769
 40
0.3527780104152769
 40
0.3527780104152769
 40
0.7055560208305538
 40
0.7055560208305538
 40
0.7055560208305538
 40
1.058334031245828
 40
1.058334031245828
 40
1.058334031245828
 40
1.411112041661104
 40
1.411112041661104
 40
1.411112041661104
 40
1.763890052076384
 40
1.763890052076384
 40
1.763890052076384
 40
2.116668062491659
 40
2.116668062491659
 40
2.116668062491659
 40
2.469446072906936
 40
2.469446072906936
 40
2.469446072906936
 40
2.822224083322215
 40
2.822224083322215
 40
2.822224083322215
 40
3.175002093737492
 40
3.175002093737492
 40
3.175002093737492
 40
3.527780104152768
 40
3.527780104152768
 40
3.527780104152768
 40
3.880558114568044
 40
3.880558114568044
 40
3.880558114568044
 40
4.233336124983321
 40
4.233336124983321
 40
4.233336124983321
 40
4.586114135398599
 40
4.586114135398599
 40
4.586114135398599
 40
4.938892145813873
 40
4.938892145813873
 40
4.938892145813873
 40
5.291670156229153
 40
5.291670156229153
 40
5.291670156229153
 40
5.64444816664443
 40
5.64444816664443
 40
5.64444816664443
 40
5.997226177059705
 40
5.997226177059705
 40
5.997226177059705
 40
5.997226177059705
 10
185.4837187788815
 20
241.4451977396596
 10
185.4837187788815
 20
241.4451977396596
 10
185.4837187788815
 20
241.4028230372367
 10
185.4837187788815
 20
241.4028230372367
 10
185.4837187788815
 20
241.4028230372367
 10
185.5047338752051
 20
241.3604483348137
 10
185.5047338752051
 20
241.3604483348137
 10
185.4520238795082
 20
241.2782827532863
 10
185.4671823096433
 20
241.1897437409066
 10
185.335579575289
 20
241.2119646214456
 10
185.335579575289
 20
241.2119646214456
 10
185.2932048728662
 20
241.2119646214456
 10
185.2932048728662
 20
241.2119646214456
 10
185.2932048728662
 20
241.2119646214456
 10
185.2294705643439
 20
241.2334964824328
 10
185.2294705643439
 20
241.2334964824328
 10
185.2294705643439
 20
241.2334964824328
 10
185.1660807655974
 20
241.2543393238685
 10
185.1660807655974
 20
241.2543393238685
 10
185.1660807655974
 20
241.2543393238685
 10
185.1450656692739
 20
241.2758711848558
 10
185.1450656692739
 20
241.2758711848558
 10
185.1450656692739
 20
241.2758711848558
 10
185.1450656692739
 20
241.2967140262914
 10
185.1450656692739
 20
241.2967140262914
 10
185.1450656692739
 20
241.2967140262914
 10
185.1237060631745
 20
241.3604483348137
 10
185.1237060631745
 20
241.3604483348137
 10
185.1237060631745
 20
241.3604483348137
 10
185.1237060631745
 20
241.4028230372367
 10
185.1237060631745
 20
241.4028230372367
 10
185.1237060631745
 20
241.4028230372367
 10
185.1660807655974
 20
241.4875724420825
 10
185.1660807655974
 20
241.4875724420825
 10
185.1660807655974
 20
241.4875724420825
 10
185.2084554680203
 20
241.5085875384061
 10
185.2084554680203
 20
241.5085875384061
 10
185.2084554680203
 20
241.5085875384061
 10
185.2718452667668
 20
241.5297748896175
 10
185.2718452667668
 20
241.5297748896175
 10
185.2718452667668
 20
241.5297748896175
 10
185.3565946716127
 20
241.5297748896175
 10
185.3565946716127
 20
241.5297748896175
 10
185.3565946716127
 20
241.5297748896175
 10
185.4199844703592
 20
241.5085875384061
 10
185.4199844703592
 20
241.5085875384061
 10
185.4199844703592
 20
241.5085875384061
 10
185.4623591727821
 20
241.4875724420825
 10
185.4623591727821
 20
241.4875724420825
 10
185.4623591727821
 20
241.4875724420825
 10
185.4837187788815
 20
241.4451977396596
 10
185.4837187788815
 20
241.4451977396596
 72
     1
 10
185.4837187788815
 20
241.4451977396596
 11
185.4837187788815
 21
241.4451977396596
 97
        0
 75
     0
 76
     1
 98
        0
450
        0
451
        0
460
0.0
461
0.0
452
        0
462
0.0
453
        0
470

  0
HATCH
  5
1C
330
2
100
AcDbEntity
  8
图层 1
 62
     7
100
AcDbHatch
 10
0.0
 20
0.0
 30
0.0
210
0.0
220
0.0
230
1.0
  2
SOLID
 70
     1
 71
     0
 91
        1
 92
        1
 93
        2
 72
     4
 94
        3
 73
     0
 74
     0
 95
       38
 96
       34
 40
0.0
 40
0.0
 40
0.0
 40
0.0
 40
0.3527780104152769
 40
0.3527780104152769
 40
0.3527780104152769
 40
0.7055560208305538
 40
0.7055560208305538
 40
0.7055560208305538
 40
1.058334031245828
 40
1.058334031245828
 40
1.058334031245828
 40
1.411112041661104
 40
1.411112041661104
 40
1.411112041661104
 40
1.763890052076384
 40
1.763890052076384
 40
1.763890052076384
 40
2.116668062491659
 40
2.116668062491659
 40
2.116668062491659
 40
2.469446072906936
 40
2.469446072906936
 40
2.469446072906936
 40
2.822224083322215
 40
2.822224083322215
 40
2.822224083322215
 40
3.175002093737492
 40
3.175002093737492
 40
3.175002093737492
 40
3.527780104152768
 40
3.527780104152768
 40
3.527780104152768
 40
3.880558114568044
 40
3.880558114568044
 40
3.880558114568044
 40
3.880558114568044
 10
185.907121293335
 20
220.1937677098971
 10
185.9005756075949
 20
220.0449394867532
 10
185.9329595265197
 20
220.1136691870245
 10
185.864746590912
 20
219.9817219428946
 10
185.864746590912
 20
219.9817219428946
 10
185.822371888489
 20
219.9605345916831
 10
185.822371888489
 20
219.9605345916831
 10
185.822371888489
 20
219.9605345916831
 10
185.6528730787974
 20
219.9605345916831
 10
185.6528730787974
 20
219.9605345916831
 10
185.6528730787974
 20
219.9605345916831
 10
185.5894832800509
 20
220.002909294106
 10
185.5894832800509
 20
220.002909294106
 10
185.5894832800509
 20
220.002909294106
 10
185.5681236739515
 20
220.0240966453175
 10
185.5681236739515
 20
220.0240966453175
 10
185.5681236739515
 20
220.0240966453175
 10
185.5681236739515
 20
220.045283996529
 10
185.5681236739515
 20
220.045283996529
 10
185.5681236739515
 20
220.045283996529
 10
185.547108577628
 20
220.0876586989519
 10
185.547108577628
 20
220.0876586989519
 10
185.547108577628
 20
220.0876586989519
 10
185.547108577628
 20
220.1513930074742
 10
185.547108577628
 20
220.1513930074742
 10
185.547108577628
 20
220.1513930074742
 10
185.5894832800509
 20
220.23614241232
 10
185.5894832800509
 20
220.23614241232
 10
185.5894832800509
 20
220.23614241232
 10
185.6318579824738
 20
220.2573297635315
 10
185.6318579824738
 20
220.2573297635315
 10
185.7055830744942
 20
220.2566407439799
 10
185.8416644359337
 20
220.3310548555519
 10
185.907121293335
 20
220.1937677098971
 72
     1
 10
185.907121293335
 20
220.1937677098971
 11
185.907121293335
 21
220.1937677098971
 97
        0
 75
     0
 76
     1
 98
        0
450
        0
451
        0
460
0.0
461
0.0
452
        0
462
0.0
453
        0
470

  0
HATCH
  5
1D
330
2
100
AcDbEntity
  8
图层 1
 62
     7
100
AcDbHatch
 10
0.0
 20
0.0
 30
0.0
210
0.0
220
0.0
230
1.0
  2
SOLID
 70
     1
 71
     0
 91
        1
 92
        1
 93
        2
 72
     4
 94
        3
 73
     0
 74
     0
 95
       50
 96
       46
 40
0.0
 40
0.0
 40
0.0
 40
0.0
 40
0.3527780104152769
 40
0.3527780104152769
 40
0.3527780104152769
 40
0.7055560208305538
 40
0.7055560208305538
 40
0.7055560208305538
 40
1.058334031245828
 40
1.058334031245828
 40
1.058334031245828
 40
1.411112041661104
 40
1.411112041661104
 40
1.411112041661104
 40
1.763890052076384
 40
1.763890052076384
 40
1.763890052076384
 40
2.116668062491659
 40
2.116668062491659
 40
2.116668062491659
 40
2.469446072906936
 40
2.469446072906936
 40
2.469446072906936
 40
2.822224083322215
 40
2.822224083322215
 40
2.822224083322215
 40
3.175002093737492
 40
3.175002093737492
 40
3.175002093737492
 40
3.527780104152768
 40
3.527780104152768
 40
3.527780104152768
 40
3.880558114568044
 40
3.880558114568044
 40
3.880558114568044
 40
4.233336124983321
 40
4.233336124983321
 40
4.233336124983321
 40
4.586114135398599
 40
4.586114135398599
 40
4.586114135398599
 40
4.938892145813873
 40
4.938892145813873
 40
4.938892145813873
 40
5.291670156229153
 40
5.291670156229153
 40
5.291670156229153
 40
5.291670156229153
 10
180.9117295442905
 20
208.9327766684477
 10
180.9117295442905
 20
208.9327766684477
 10
180.9117295442905
 20
208.7637946234197
 10
180.9117295442905
 20
208.7637946234197
 10
181.2273004989198
 20
208.6749111012643
 10
181.3833634273555
 20
208.6776671794706
 10
181.6948002646751
 20
208.5097186637701
 10
181.9542161258496
 20
208.4294478860095
 10
182.1388733656765
 20
208.2134402565853
 10
182.3297317814676
 20
208.02292635057
 10
182.3297317814676
 20
208.02292635057
 10
182.435496282637
 20
208.065301052993
 10
182.435496282637
 20
208.065301052993
 10
182.288390608372
 20
208.2733849575739
 10
182.3752070718726
 20
208.2134402565853
 10
182.1605774815516
 20
208.3824223016133
 10
182.1605774815516
 20
208.3824223016133
 10
182.1182027791287
 20
208.4247970040363
 10
182.1182027791287
 20
208.4247970040363
 10
182.1182027791287
 20
208.4247970040363
 10
182.0968431730294
 20
208.467516216235
 10
182.0968431730294
 20
208.467516216235
 10
182.0968431730294
 20
208.467516216235
 10
182.0544684706064
 20
208.4883590576707
 10
182.0544684706064
 20
208.4883590576707
 10
182.0544684706064
 20
208.4883590576707
 10
181.9910786718599
 20
208.5305615052057
 10
181.9910786718599
 20
208.5305615052057
 10
181.9910786718599
 20
208.5305615052057
 10
181.948703969437
 20
208.552093366193
 10
181.948703969437
 20
208.552093366193
 10
181.948703969437
 20
208.552093366193
 10
181.9063292670141
 20
208.5729362076286
 10
181.9063292670141
 20
208.5729362076286
 10
181.9063292670141
 20
208.5729362076286
 10
181.8639545645911
 20
208.6156554198274
 10
181.8639545645911
 20
208.6156554198274
 10
181.8639545645911
 20
208.6156554198274
 10
181.821924371944
 20
208.6368427710388
 10
181.821924371944
 20
208.6368427710388
 10
181.6637943848536
 20
208.6742220817127
 10
181.5452830219797
 20
208.8092699138248
 10
181.3771622513911
 20
208.8061693258427
 10
181.2803550043924
 20
208.8573290275484
 10
181.0126709085988
 20
208.8971199066528
 10
180.9117295442905
 20
208.9327766684477
 72
     1
 10
180.9117295442905
 20
208.9327766684477
 11
180.9117295442905
 21
208.9327766684477
 97
        0
 75
     0
 76
     1
 98
        0
450
        0
451
        0
460
0.0
461
0.0
452
        0
462
0.0
453
        0
470

  0
HATCH
  5
1E
330
2
100
AcDbEntity
  8
图层 1
 62
     7
100
AcDbHatch
 10
0.0
 20
0.0
 30
0.0
210
0.0
220
0.0
230
1.0
  2
SOLID
 70
     1
 71
     0
 91
        1
 92
        1
 93
        2
 72
     4
 94
        3
 73
     0
 74
     0
 95
       38
 96
       34
 40
0.0
 40
0.0
 40
0.0
 40
0.0
 40
0.3527780104152769
 40
0.3527780104152769
 40
0.3527780104152769
 40
0.7055560208305538
 40
0.7055560208305538
 40
0.7055560208305538
 40
1.058334031245828
 40
1.058334031245828
 40
1.058334031245828
 40
1.411112041661104
 40
1.411112041661104
 40
1.411112041661104
 40
1.763890052076384
 40
1.763890052076384
 40
1.763890052076384
 40
2.116668062491659
 40
2.116668062491659
 40
2.116668062491659
 40
2.469446072906936
 40
2.469446072906936
 40
2.469446072906936
 40
2.822224083322215
 40
2.822224083322215
 40
2.822224083322215
 40
3.175002093737492
 40
3.175002093737492
 40
3.175002093737492
 40
3.527780104152768
 40
3.527780104152768
 40
3.527780104152768
 40
3.880558114568044
 40
3.880558114568044
 40
3.880558114568044
 40
3.880558114568044
 10
189.145513185819
 20
166.8326485368285
 10
189.207869455238
 20
166.740492171803
 10
189.1317327947871
 20
166.6833035490209
 10
189.103138483396
 20
166.6209472796017
 10
189.103138483396
 20
166.6209472796017
 10
189.0607637809731
 20
166.5997599283903
 10
189.0607637809731
 20
166.5997599283903
 10
189.0607637809731
 20
166.5997599283903
 10
188.9973739822266
 20
166.5785725771788
 10
188.9973739822266
 20
166.5785725771788
 10
188.9973739822266
 20
166.5785725771788
 10
188.9549992798037
 20
166.5997599283903
 10
188.9549992798037
 20
166.5997599283903
 10
188.9549992798037
 20
166.5997599283903
 10
188.8916094810572
 20
166.5997599283903
 10
188.8916094810572
 20
166.5997599283903
 10
188.8916094810572
 20
166.5997599283903
 10
188.8492347786343
 20
166.6209472796017
 10
188.8492347786343
 20
166.6209472796017
 10
188.8492347786343
 20
166.6209472796017
 10
188.8278751725349
 20
166.6633219820247
 10
188.8278751725349
 20
166.6633219820247
 10
188.8278751725349
 20
166.6633219820247
 10
188.8068600762114
 20
166.6845093332361
 10
188.8068600762114
 20
166.6845093332361
 10
188.8068600762114
 20
166.6845093332361
 10
188.8068600762114
 20
166.8326485368285
 10
188.8068600762114
 20
166.8326485368285
 10
188.8068600762114
 20
166.8326485368285
 10
188.8702498749578
 20
166.896038335575
 10
188.8702498749578
 20
166.896038335575
 10
189.0228677056355
 20
166.8819134347673
 10
189.0686875058164
 20
166.9411691162043
 10
189.145513185819
 20
166.8326485368285
 72
     1
 10
189.145513185819
 20
166.8326485368285
 11
189.145513185819
 21
166.8326485368285
 97
        0
 75
     0
 76
     1
 98
        0
450
        0
451
        0
460
0.0
461
0.0
452
        0
462
0.0
453
        0
470

  0
HATCH
  5
1F
330
2
100
AcDbEntity
  8
图层 1
 62
     7
100
AcDbHatch
 10
0.0
 20
0.0
 30
0.0
210
0.0
220
0.0
230
1.0
  2
SOLID
 70
     1
 71
     0
 91
        1
 92
        1
 93
        2
 72
     4
 94
        3
 73
     0
 74
     0
 95
       68
 96
       64
 40
0.0
 40
0.0
 40
0.0
 40
0.0
 40
0.3527780104152769
 40
0.3527780104152769
 40
0.3527780104152769
 40
0.7055560208305538
 40
0.7055560208305538
 40
0.7055560208305538
 40
1.058334031245828
 40
1.058334031245828
 40
1.058334031245828
 40
1.411112041661104
 40
1.411112041661104
 40
1.411112041661104
 40
1.763890052076384
 40
1.763890052076384
 40
1.763890052076384
 40
2.116668062491659
 40
2.116668062491659
 40
2.116668062491659
 40
2.469446072906936
 40
2.469446072906936
 40
2.469446072906936
 40
2.822224083322215
 40
2.822224083322215
 40
2.822224083322215
 40
3.175002093737492
 40
3.175002093737492
 40
3.175002093737492
 40
3.527780104152768
 40
3.527780104152768
 40
3.527780104152768
 40
3.880558114568044
 40
3.880558114568044
 40
3.880558114568044
 40
4.233336124983321
 40
4.233336124983321
 40
4.233336124983321
 40
4.586114135398599
 40
4.586114135398599
 40
4.586114135398599
 40
4.938892145813873
 40
4.938892145813873
 40
4.938892145813873
 40
5.291670156229153
 40
5.291670156229153
 40
5.291670156229153
 40
5.64444816664443
 40
5.64444816664443
 40
5.64444816664443
 40
5.997226177059705
 40
5.997226177059705
 40
5.997226177059705
 40
6.350004187474984
 40
6.350004187474984
 40
6.350004187474984
 40
6.702782197890257
 40
6.702782197890257
 40
6.702782197890257
 40
7.055560208305537
 40
7.055560208305537
 40
7.055560208305537
 40
7.408338218720808
 40
7.408338218720808
 40
7.408338218720808
 40
7.408338218720808
 10
174.7732543591544
 20
135.4846705078077
 10
174.7732543591544
 20
135.4846705078077
 10
174.7732543591544
 20
135.3789060066383
 10
174.7732543591544
 20
135.3789060066383
 10
174.7732543591544
 20
135.3789060066383
 10
174.8156290615773
 20
135.3789060066383
 10
174.8156290615773
 20
135.3789060066383
 10
174.8156290615773
 20
135.3789060066383
 10
174.8580037640002
 20
135.3578909103147
 10
174.8580037640002
 20
135.3578909103147
 10
174.8580037640002
 20
135.3578909103147
 10
174.9213935627468
 20
135.3578909103147
 10
174.9213935627468
 20
135.3578909103147
 10
174.9213935627468
 20
135.3578909103147
 10
174.9637682651697
 20
135.3365313042154
 10
174.9637682651697
 20
135.3365313042154
 10
174.9637682651697
 20
135.3365313042154
 10
174.9847833614933
 20
135.3365313042154
 10
174.9847833614933
 20
135.3365313042154
 10
174.9847833614933
 20
135.3365313042154
 10
175.0271580639162
 20
135.3155162078918
 10
175.0271580639162
 20
135.3155162078918
 10
175.0271580639162
 20
135.3155162078918
 10
175.0485176700155
 20
135.2941566017924
 10
175.0485176700155
 20
135.2941566017924
 10
175.0485176700155
 20
135.2941566017924
 10
175.0695327663391
 20
135.2941566017924
 10
175.0695327663391
 20
135.2941566017924
 10
175.0695327663391
 20
135.2941566017924
 10
175.0908923724385
 20
135.2731415054689
 10
175.0908923724385
 20
135.2731415054689
 10
175.0908923724385
 20
135.2731415054689
 10
175.1332670748614
 20
135.2731415054689
 10
175.1332670748614
 20
135.2731415054689
 10
175.1332670748614
 20
135.2731415054689
 10
175.154282171185
 20
135.2517818993695
 10
175.154282171185
 20
135.2517818993695
 10
175.154282171185
 20
135.2517818993695
 10
175.154282171185
 20
135.3578909103147
 10
175.154282171185
 20
135.3578909103147
 10
175.154282171185
 20
135.3578909103147
 10
175.1332670748614
 20
135.3789060066383
 10
175.1332670748614
 20
135.3789060066383
 10
175.1332670748614
 20
135.3789060066383
 10
175.0908923724385
 20
135.3789060066383
 10
175.0908923724385
 20
135.3789060066383
 10
175.0908923724385
 20
135.3789060066383
 10
175.0908923724385
 20
135.3999211029619
 10
175.0908923724385
 20
135.3999211029619
 10
175.0908923724385
 20
135.3999211029619
 10
175.0695327663391
 20
135.3999211029619
 10
175.0695327663391
 20
135.3999211029619
 10
175.0695327663391
 20
135.3999211029619
 10
175.0271580639162
 20
135.4212807090612
 10
175.0271580639162
 20
135.4212807090612
 10
175.0271580639162
 20
135.4212807090612
 10
175.0061429675926
 20
135.4212807090612
 10
175.0061429675926
 20
135.4212807090612
 10
175.0061429675926
 20
135.4212807090612
 10
174.9637682651697
 20
135.4422958053848
 10
174.9637682651697
 20
135.4422958053848
 10
174.8996894468716
 20
135.4498750204523
 10
174.8394002361073
 20
135.4860485469109
 10
174.7732543591544
 20
135.4846705078077
 72
     1
 10
174.7732543591544
 20
135.4846705078077
 11
174.7732543591544
 21
135.4846705078077
 97
        0
 75
     0
 76
     1
 98
        0
450
        0
451
        0
460
0.0
461
0.0
452
        0
462
0.0
453
        0
470

  0
HATCH
  5
20
330
2
100
AcDbEntity
  8
图层 1
 62
     7
100
AcDbHatch
 10
0.0
 20
0.0
 30
0.0
210
0.0
220
0.0
230
1.0
  2
SOLID
 70
     1
 71
     0
 91
        1
 92
        1
 93
        2
 72
     4
 94
        3
 73
     0
 74
     0
 95
       29
 96
       25
 40
0.0
 40
0.0
 40
0.0
 40
0.0
 40
0.3527780104152769
 40
0.3527780104152769
 40
0.3527780104152769
 40
0.7055560208305538
 40
0.7055560208305538
 40
0.7055560208305538
 40
1.058334031245828
 40
1.058334031245828
 40
1.058334031245828
 40
1.411112041661104
 40
1.411112041661104
 40
1.411112041661104
 40
1.763890052076384
 40
1.763890052076384
 40
1.763890052076384
 40
2.116668062491659
 40
2.116668062491659
 40
2.116668062491659
 40
2.469446072906936
 40
2.469446072906936
 40
2.469446072906936
 40
2.822224083322215
 40
2.822224083322215
 40
2.822224083322215
 40
2.822224083322215
 10
175.4929352807925
 20
164.0174869039101
 10
175.4929352807925
 20
164.0174869039101
 10
175.5139503771161
 20
163.9751122014871
 10
175.5139503771161
 20
163.9751122014871
 10
175.5139503771161
 20
163.9751122014871
 10
175.5139503771161
 20
163.9327374990642
 10
175.5139503771161
 20
163.9327374990642
 10
175.5139503771161
 20
163.9327374990642
 10
175.4929352807925
 20
163.8903627966413
 10
175.4929352807925
 20
163.8903627966413
 10
175.4929352807925
 20
163.8903627966413
 10
175.471920184469
 20
163.8691754454298
 10
175.471920184469
 20
163.8691754454298
 10
175.471920184469
 20
163.8691754454298
 10
175.4505605783696
 20
163.8269729978948
 10
175.4505605783696
 20
163.8269729978948
 10
175.3571984291289
 20
163.7715069239916
 10
175.272449024283
 20
163.8195660377152
 10
175.1966568736079
 20
163.8691754454298
 10
175.208370205985
 20
163.9930267098286
 10
175.1563492298397
 20
164.0216210212197
 10
175.2600466723544
 20
164.0596893514451
 10
175.3330827448232
 20
164.1094710140476
 10
175.4357466580104
 20
164.0753645462439
 10
175.4929352807925
 20
164.0174869039101
 72
     1
 10
175.4929352807925
 20
164.0174869039101
 11
175.4929352807925
 21
164.0174869039101
 97
        0
 75
     0
 76
     1
 98
        0
450
        0
451
        0
460
0.0
461
0.0
452
        0
462
0.0
453
        0
470

  0
HATCH
  5
21
330
2
100
AcDbEntity
  8
图层 1
 62
     7
100
AcDbHatch
 10
0.0
 20
0.0
 30
0.0
210
0.0
220
0.0
230
1.0
  2
SOLID
 70
     1
 71
     0
 91
        1
 92
        1
 93
        2
 72
     4
 94
        3
 73
     0
 74
     0
 95
       11
 96
        7
 40
0.0
 40
0.0
 40
0.0
 40
0.0
 40
0.3527780104152769
 40
0.3527780104152769
 40
0.3527780104152769
 40
0.7055560208305538
 40
0.7055560208305538
 40
0.7055560208305538
 40
0.7055560208305538
 10
174.9213935627468
 20
174.5369206529582
 10
174.9213935627468
 20
174.5369206529582
 10
174.9213935627468
 20
174.3043765542958
 10
174.9213935627468
 20
174.3043765542958
 10
174.9213935627468
 20
174.3043765542958
 10
174.9213935627468
 20
174.5369206529582
 10
174.9213935627468
 20
174.5369206529582
 72
     1
 10
174.9213935627468
 20
174.5369206529582
 11
174.9213935627468
 21
174.5369206529582
 97
        0
 75
     0
 76
     1
 98
        0
450
        0
451
        0
460
0.0
461
0.0
452
        0
462
0.0
453
        0
470

  0
HATCH
  5
22
330
2
100
AcDbEntity
  8
图层 1
 62
     7
100
AcDbHatch
 10
0.0
 20
0.0
 30
0.0
210
0.0
220
0.0
230
1.0
  2
SOLID
 70
     1
 71
     0
 91
        1
 92
        1
 93
        2
 72
     4
 94
        3
 73
     0
 74
     0
 95
      131
 96
      127
 40
0.0
 40
0.0
 40
0.0
 40
0.0
 40
0.3527780104152769
 40
0.3527780104152769
 40
0.3527780104152769
 40
0.7055560208305538
 40
0.7055560208305538
 40
0.7055560208305538
 40
1.058334031245828
 40
1.058334031245828
 40
1.058334031245828
 40
1.411112041661104
 40
1.411112041661104
 40
1.411112041661104
 40
1.763890052076384
 40
1.763890052076384
 40
1.763890052076384
 40
2.116668062491659
 40
2.116668062491659
 40
2.116668062491659
 40
2.469446072906936
 40
2.469446072906936
 40
2.469446072906936
 40
2.822224083322215
 40
2.822224083322215
 40
2.822224083322215
 40
3.175002093737492
 40
3.175002093737492
 40
3.175002093737492
 40
3.527780104152768
 40
3.527780104152768
 40
3.527780104152768
 40
3.880558114568044
 40
3.880558114568044
 40
3.880558114568044
 40
4.233336124983321
 40
4.233336124983321
 40
4.233336124983321
 40
4.586114135398599
 40
4.586114135398599
 40
4.586114135398599
 40
4.938892145813873
 40
4.938892145813873
 40
4.938892145813873
 40
5.291670156229153
 40
5.291670156229153
 40
5.291670156229153
 40
5.64444816664443
 40
5.64444816664443
 40
5.64444816664443
 40
5.997226177059705
 40
5.997226177059705
 40
5.997226177059705
 40
6.350004187474984
 40
6.350004187474984
 40
6.350004187474984
 40
6.702782197890257
 40
6.702782197890257
 40
6.702782197890257
 40
7.055560208305537
 40
7.055560208305537
 40
7.055560208305537
 40
7.408338218720808
 40
7.408338218720808
 40
7.408338218720808
 40
7.76111622913609
 40
7.76111622913609
 40
7.76111622913609
 40
8.113894239551369
 40
8.113894239551369
 40
8.113894239551369
 40
8.466672249966642
 40
8.466672249966642
 40
8.466672249966642
 40
8.819450260381922
 40
8.819450260381922
 40
8.819450260381922
 40
9.172228270797198
 40
9.172228270797198
 40
9.172228270797198
 40
9.525006281212476
 40
9.525006281212476
 40
9.525006281212476
 40
9.877784291627751
 40
9.877784291627751
 40
9.877784291627751
 40
10.23056230204303
 40
10.23056230204303
 40
10.23056230204303
 40
10.58334031245831
 40
10.58334031245831
 40
10.58334031245831
 40
10.93611832287358
 40
10.93611832287358
 40
10.93611832287358
 40
11.28889633328886
 40
11.28889633328886
 40
11.28889633328886
 40
11.64167434370414
 40
11.64167434370414
 40
11.64167434370414
 40
11.99445235411941
 40
11.99445235411941
 40
11.99445235411941
 40
12.34723036453469
 40
12.34723036453469
 40
12.34723036453469
 40
12.70000837494997
 40
12.70000837494997
 40
12.70000837494997
 40
13.05278638536524
 40
13.05278638536524
 40
13.05278638536524
 40
13.40556439578052
 40
13.40556439578052
 40
13.40556439578052
 40
13.7583424061958
 40
13.7583424061958
 40
13.7583424061958
 40
14.11112041661107
 40
14.11112041661107
 40
14.11112041661107
 40
14.46389842702635
 40
14.46389842702635
 40
14.46389842702635
 40
14.81667643744163
 40
14.81667643744163
 40
14.81667643744163
 40
14.81667643744163
 10
173.3972823146245
 20
126.8274843518258
 10
173.3972823146245
 20
126.8274843518258
 10
173.3972823146245
 20
126.7217198506564
 10
173.3972823146245
 20
126.7217198506564
 10
173.3972823146245
 20
126.7217198506564
 10
173.4186419207238
 20
126.7217198506564
 10
173.4186419207238
 20
126.7217198506564
 10
173.4186419207238
 20
126.7217198506564
 10
173.4820317194703
 20
126.7007047543328
 10
173.4820317194703
 20
126.7007047543328
 10
173.4820317194703
 20
126.7007047543328
 10
173.5244064218933
 20
126.6793451482334
 10
173.5244064218933
 20
126.6793451482334
 10
173.5244064218933
 20
126.6793451482334
 10
173.5877962206398
 20
126.6793451482334
 10
173.5877962206398
 20
126.6793451482334
 10
173.5877962206398
 20
126.6793451482334
 10
173.6301709230627
 20
126.6583300519099
 10
173.6301709230627
 20
126.6583300519099
 10
173.7955356154449
 20
126.5911506456296
 10
173.759706598762
 20
126.6380039751379
 10
173.9478089363468
 20
126.5525655507404
 10
173.9478089363468
 20
126.5525655507404
 10
173.9688240326703
 20
126.4464565397952
 10
173.9688240326703
 20
126.4464565397952
 10
173.9688240326703
 20
126.4464565397952
 10
174.0325583411926
 20
126.5101908483175
 10
174.0325583411926
 20
126.5101908483175
 10
174.0325583411926
 20
126.5101908483175
 10
174.0749330436156
 20
126.5101908483175
 10
174.0749330436156
 20
126.5101908483175
 10
174.0749330436156
 20
126.5101908483175
 10
174.1593379386856
 20
126.4678161458946
 10
174.1593379386856
 20
126.4678161458946
 10
174.1593379386856
 20
126.4678161458946
 10
174.180697544785
 20
126.4464565397952
 10
174.180697544785
 20
126.4464565397952
 10
174.2464989119621
 20
126.3982251711837
 10
174.3298702777047
 20
126.3716979184474
 10
174.3922265471239
 20
126.3196769423022
 10
174.608234176548
 20
126.2059887162895
 10
174.7749769080334
 20
126.0278771622029
 10
174.9637682651697
 20
125.8749148217494
 10
174.9637682651697
 20
125.8749148217494
 10
175.0061429675926
 20
125.9172895241723
 10
175.0061429675926
 20
125.9172895241723
 10
174.961356696739
 20
125.9631093243532
 10
174.782211613325
 20
126.1246844092016
 10
174.7308796567315
 20
126.1501781326105
 10
174.7308796567315
 20
126.1501781326105
 10
174.6885049543085
 20
126.1925528350335
 10
174.6885049543085
 20
126.1925528350335
 10
174.6885049543085
 20
126.1925528350335
 10
174.667489857985
 20
126.2349275374564
 10
174.667489857985
 20
126.2349275374564
 10
174.667489857985
 20
126.2349275374564
 10
174.625115155562
 20
126.2559426337799
 10
174.625115155562
 20
126.2559426337799
 10
174.625115155562
 20
126.2559426337799
 10
174.5827404531391
 20
126.2983173362029
 10
174.5827404531391
 20
126.2983173362029
 10
174.5827404531391
 20
126.2983173362029
 10
174.5403657507162
 20
126.3196769423022
 10
174.5403657507162
 20
126.3196769423022
 10
174.5403657507162
 20
126.3196769423022
 10
174.4979910482932
 20
126.3620516447252
 10
174.4979910482932
 20
126.3620516447252
 10
174.4735308542117
 20
126.3875453681341
 10
174.3247026310678
 20
126.4695386947736
 10
174.2864620459544
 20
126.4888312422181
 10
174.2864620459544
 20
126.4888312422181
 10
174.2654469496308
 20
126.5101908483175
 10
174.2654469496308
 20
126.5101908483175
 10
174.2654469496308
 20
126.5101908483175
 10
174.2230722472079
 20
126.5312059446411
 10
174.2230722472079
 20
126.5312059446411
 10
174.2230722472079
 20
126.5312059446411
 10
174.2017126411085
 20
126.5525655507404
 10
174.2017126411085
 20
126.5525655507404
 10
174.2017126411085
 20
126.5525655507404
 10
174.1383228423621
 20
126.573580647064
 10
174.1383228423621
 20
126.573580647064
 10
174.1383228423621
 20
126.573580647064
 10
174.1169632362627
 20
126.5945957433876
 10
174.1169632362627
 20
126.5945957433876
 10
174.1169632362627
 20
126.5945957433876
 10
174.0959481399391
 20
126.7007047543328
 10
174.0959481399391
 20
126.7007047543328
 10
174.0959481399391
 20
126.7007047543328
 10
174.0325583411926
 20
126.6369704458105
 10
174.0325583411926
 20
126.6369704458105
 10
174.0325583411926
 20
126.6369704458105
 10
173.9901836387697
 20
126.6369704458105
 10
173.9901836387697
 20
126.6369704458105
 10
173.9901836387697
 20
126.6369704458105
 10
173.9054342339239
 20
126.6793451482334
 10
173.9054342339239
 20
126.6793451482334
 10
173.9054342339239
 20
126.6793451482334
 10
173.8420444351773
 20
126.7007047543328
 10
173.8420444351773
 20
126.7007047543328
 10
173.8420444351773
 20
126.7007047543328
 10
173.7996697327544
 20
126.7217198506564
 10
173.7996697327544
 20
126.7217198506564
 10
173.7996697327544
 20
126.7217198506564
 10
173.7572950303315
 20
126.7217198506564
 10
173.7572950303315
 20
126.7217198506564
 10
173.7572950303315
 20
126.7217198506564
 10
173.6725456254856
 20
126.7640945530793
 10
173.6725456254856
 20
126.7640945530793
 10
173.6725456254856
 20
126.7640945530793
 10
173.6515305291621
 20
126.7640945530793
 10
173.6515305291621
 20
126.7640945530793
 10
173.6515305291621
 20
126.7640945530793
 10
173.5667811243162
 20
126.7851096494029
 10
173.5667811243162
 20
126.7851096494029
 10
173.5667811243162
 20
126.7851096494029
 10
173.5033913255697
 20
126.8064692555022
 10
173.5033913255697
 20
126.8064692555022
 10
173.5033913255697
 20
126.8064692555022
 10
173.4396570170474
 20
126.8064692555022
 10
173.4396570170474
 20
126.8064692555022
 10
173.4396570170474
 20
126.8064692555022
 10
173.4186419207238
 20
126.8274843518258
 10
173.4186419207238
 20
126.8274843518258
 10
173.4186419207238
 20
126.8274843518258
 10
173.3972823146245
 20
126.8274843518258
 10
173.3972823146245
 20
126.8274843518258
 72
     1
 10
173.3972823146245
 20
126.8274843518258
 11
173.3972823146245
 21
126.8274843518258
 97
        0
 75
     0
 76
     1
 98
        0
450
        0
451
        0
460
0.0
461
0.0
452
        0
462
0.0
453
        0
470

  0
HATCH
  5
23
330
2
100
AcDbEntity
  8
图层 1
 62
     7
100
AcDbHatch
 10
0.0
 20
0.0
 30
0.0
210
0.0
220
0.0
230
1.0
  2
SOLID
 70
     1
 71
     0
 91
        1
 92
        1
 93
        2
 72
     4
 94
        3
 73
     0
 74
     0
 95
       47
 96
       43
 40
0.0
 40
0.0
 40
0.0
 40
0.0
 40
0.3527780104152769
 40
0.3527780104152769
 40
0.3527780104152769
 40
0.7055560208305538
 40
0.7055560208305538
 40
0.7055560208305538
 40
1.058334031245828
 40
1.058334031245828
 40
1.058334031245828
 40
1.411112041661104
 40
1.411112041661104
 40
1.411112041661104
 40
1.763890052076384
 40
1.763890052076384
 40
1.763890052076384
 40
2.116668062491659
 40
2.116668062491659
 40
2.116668062491659
 40
2.469446072906936
 40
2.469446072906936
 40
2.469446072906936
 40
2.822224083322215
 40
2.822224083322215
 40
2.822224083322215
 40
3.175002093737492
 40
3.175002093737492
 40
3.175002093737492
 40
3.527780104152768
 40
3.527780104152768
 40
3.527780104152768
 40
3.880558114568044
 40
3.880558114568044
 40
3.880558114568044
 40
4.233336124983321
 40
4.233336124983321
 40
4.233336124983321
 40
4.586114135398599
 40
4.586114135398599
 40
4.586114135398599
 40
4.938892145813873
 40
4.938892145813873
 40
4.938892145813873
 40
4.938892145813873
 10
180.1920486226523
 20
255.6479577566324
 10
180.1920486226523
 20
255.6479577566324
 10
180.2130637189759
 20
255.6055830542095
 10
180.2130637189759
 20
255.6055830542095
 10
180.2130637189759
 20
255.6055830542095
 10
180.2130637189759
 20
255.5210059042515
 10
180.2130637189759
 20
255.5210059042515
 10
180.2130637189759
 20
255.5210059042515
 10
180.1920486226523
 20
255.4786312018286
 10
180.1920486226523
 20
255.4786312018286
 10
180.1920486226523
 20
255.4786312018286
 10
180.1496739202294
 20
255.4359119896299
 10
180.1496739202294
 20
255.4359119896299
 10
180.1496739202294
 20
255.4359119896299
 10
180.1283143141301
 20
255.4147246384184
 10
180.1283143141301
 20
255.4147246384184
 10
180.1283143141301
 20
255.4147246384184
 10
180.0225498129606
 20
255.4147246384184
 10
180.0225498129606
 20
255.4147246384184
 10
180.0225498129606
 20
255.4147246384184
 10
179.9591600142141
 20
255.4359119896299
 10
179.9591600142141
 20
255.4359119896299
 10
179.9591600142141
 20
255.4359119896299
 10
179.9167853117912
 20
255.4570993408414
 10
179.9167853117912
 20
255.4570993408414
 10
179.9167853117912
 20
255.4570993408414
 10
179.8957702154676
 20
255.4786312018286
 10
179.8957702154676
 20
255.4786312018286
 10
179.8957702154676
 20
255.4786312018286
 10
179.8744106093683
 20
255.4994740432643
 10
179.8744106093683
 20
255.4994740432643
 10
179.8744106093683
 20
255.4994740432643
 10
179.8744106093683
 20
255.6479577566324
 10
179.8744106093683
 20
255.6479577566324
 10
179.9608825630931
 20
255.7323626517025
 10
180.045631967939
 20
255.7085914771726
 10
180.1496739202294
 20
255.7115198102668
 10
180.1496739202294
 20
255.7115198102668
 10
180.170689016553
 20
255.6688005980681
 10
180.170689016553
 20
255.6688005980681
 10
180.170689016553
 20
255.6688005980681
 10
180.1920486226523
 20
255.6479577566324
 10
180.1920486226523
 20
255.6479577566324
 72
     1
 10
180.1920486226523
 20
255.6479577566324
 11
180.1920486226523
 21
255.6479577566324
 97
        0
 75
     0
 76
     1
 98
        0
450
        0
451
        0
460
0.0
461
0.0
452
        0
462
0.0
453
        0
470

  0
MTEXT
  5
F1
102
{ACAD_XDICTIONARY
360
EEC
102
}
330
2
100
AcDbEntity
  8
打标文字
 62
     3
100
AcDbMText
 10
826.0669881104009
 20
218.0823144331145
 30
0.0
 40
0.75
 41
21.56370451087032
 46
26.95590277395973
 71
     1
 72
     5
  3
\A1;{\f仿宋_GB2312|b0|i0|c134|p49;技术参数}:\P- {\f仿宋_GB2312|b0|i0|c134|p49;材料}: {\f仿宋_GB2312|b0|i0|c134|p49;铜合金}\P- {\f仿宋_GB2312|b0|i0|c134|p49;表面处理}: {\f仿宋_GB2312|b0|i0|c134|p49;镀金}\P- {\f仿宋_GB2312|b0|i0|c134|p49;额定电流}: 10A\P- {\f仿宋_GB2312|b0|i0|c134|p49
  3
;接触电阻}: ≤3mΩ\P- {\f仿宋_GB2312|b0|i0|c134|p49;线径范围}: 2.5mm{\H0.7x;\S2^ ;}(14 AWG)\P- {\f仿宋_GB2312|b0|i0|c134|p49;可插拔次数}: {\f仿宋_GB2312|b0|i0|c134|p49;≥}500\P\PTechnical specification:\P- Material: copper alloy\P- Surface: hard-gold plated\P- Rated curren
  1
t: 10A\P- Contact resistance: ≤3mΩ\P- Wire gauge: 2.5mm{\H0.7x;\S2^ ;}(14 AWG)\P- Mating cycles: {\f仿宋_GB2312|b0|i0|c134|p49;≥}500
  7
Romans字体
 73
     1
 44
1.0
1001
ACAD
1000
MTEXTBEGIN
1070
    73
1070
     1
1070
    44
1040
1.0
1070
    74
1070
     0
1000
MTEXTEND
1000
ACAD_MTEXT_DEFINED_HEIGHT_BEGIN
1070
    46
1040
26.95590277395973
1000
ACAD_MTEXT_DEFINED_HEIGHT_END
  0
MTEXT
  5
373
330
2
100
AcDbEntity
  8
图框
 62
     3
100
AcDbMText
 10
843.42914394815
 20
191.7942996856998
 30
0.0
 40
0.746378394635083
 41
8.403098007973925
 46
2.218038889596384
 71
     5
 72
     5
  1
1010172201001
  7
Romans字体
 73
     1
 44
1.0
1001
ACAD
1000
MTEXTBEGIN
1070
    73
1070
     1
1070
    44
1040
1.0
1070
    74
1070
     0
1000
MTEXTEND
1000
ACAD_MTEXT_DEFINED_HEIGHT_BEGIN
1070
    46
1040
2.218038889596384
1000
ACAD_MTEXT_DEFINED_HEIGHT_END
  0
INSERT
  5
374
330
2
100
AcDbEntity
  8
DIM
100
AcDbBlockReference
  2
A4图框-NEW
 10
565.8985669686805
 20
64.50695529169367
 30
0.0
 41
0.25
 42
0.25
 43
0.25
  0
MTEXT
  5
375
330
2
100
AcDbEntity
  8
图框
 62
     3
100
AcDbMText
 10
831.8470500170334
 20
188.4008643409875
 30
0.0
 40
0.746378394635083
 41
2.707336787601192
 46
1.971523801091308
 71
     5
 72
     5
  1
0.63g
  7
Romans字体
 73
     1
 44
1.0
1001
ACAD
1000
MTEXTBEGIN
1070
    73
1070
     1
1070
    44
1040
1.0
1070
    74
1070
     0
1000
MTEXTEND
1000
ACAD_MTEXT_DEFINED_HEIGHT_BEGIN
1070
    46
1040
1.971523801091308
1000
ACAD_MTEXT_DEFINED_HEIGHT_END
  0
MTEXT
  5
376
330
2
100
AcDbEntity
  8
图框
 62
     3
100
AcDbMText
 10
826.4157273895722
 20
188.4673907665274
 30
0.0
 40
0.7463783937585367
 41
2.707337108597616
 46
1.971523650302624
 71
     5
 72
     5
  1
4:1
  7
Romans字体
 73
     1
 44
1.0
1001
ACAD
1000
MTEXTBEGIN
1070
    73
1070
     1
1070
    44
1040
1.0
1070
    74
1070
     0
1000
MTEXTEND
1000
ACAD_MTEXT_DEFINED_HEIGHT_BEGIN
1070
    46
1040
1.971523650302624
1000
ACAD_MTEXT_DEFINED_HEIGHT_END
  0
MTEXT
  5
377
330
2
100
AcDbEntity
  8
图框
 62
     3
100
AcDbMText
 10
843.4291436222185
 20
193.9891621679204
 30
0.0
 40
0.7463783937585367
 41
8.403097998105339
 46
2.171686376421464
 71
     5
 72
     5
  1
CDGF-2.5
  7
Romans字体
 73
     1
 44
1.0
1001
ACAD
1000
MTEXTBEGIN
1070
    73
1070
     1
1070
    44
1040
1.0
1070
    74
1070
     0
1000
MTEXTEND
1000
ACAD_MTEXT_DEFINED_HEIGHT_BEGIN
1070
    46
1040
2.171686376421464
1000
ACAD_MTEXT_DEFINED_HEIGHT_END
  0
LINE
  5
981
330
2
100
AcDbEntity
  8
1
  6
Continuous
 62
     7
370
    50
100
AcDbLine
 10
784.8841627167691
 20
197.0340572916031
 30
0.0000000000000011
 11
784.909730757915
 21
197.0871030402575
 31
0.0000000000000009
  0
LINE
  5
982
330
2
100
AcDbEntity
  8
1
  6
Continuous
 62
     7
370
    50
100
AcDbLine
 10
788.3347589232059
 20
208.1914443258972
 30
0.0000000000000019
 11
788.1672351664907
 21
207.6850317670028
 31
0.0000000000000014
  0
LINE
  5
983
330
2
100
AcDbEntity
  8
1
  6
Continuous
 62
     7
370
    50
100
AcDbLine
 10
785.8608702246562
 20
200.7130524200669
 30
0.0000000000000009
 11
785.2423980500191
 21
198.8434544436093
 31
0.0000000000000008
  0
LINE
  5
984
330
2
100
AcDbEntity
  8
1
  6
Continuous
 62
     7
370
    50
100
AcDbLine
 10
789.0742100196757
 20
205.2255041624671
 30
0.0000000000000013
 11
787.4751264495833
 21
200.3915867617623
 31
0.000000000000001
  0
LINE
  5
985
330
2
100
AcDbEntity
  8
1
  6
Continuous
 62
     7
370
    50
100
AcDbLine
 10
784.5764556885552
 20
196.9895598376338
 30
0.0000000000000008
 11
783.714528958285
 21
194.3840158263569
 31
0.0000000000000006
  0
LINE
  5
986
330
2
100
AcDbEntity
  8
1
  6
Continuous
 62
     7
370
    50
100
AcDbLine
 10
786.6909580551517
 20
196.4562666925316
 30
0.0000000000000008
 11
786.7796604940735
 21
196.7244079398113
 31
0.0000000000000008
  0
LINE
  5
987
330
2
100
AcDbEntity
  8
1
  6
Continuous
 62
     7
370
    50
100
AcDbLine
 10
787.0321299238402
 20
196.5409421383767
 30
0.0000000000000004
 11
787.4107264688517
 21
198.1428196100051
 31
0.000000000000001
  0
LINE
  5
988
330
2
100
AcDbEntity
  8
1
  6
Continuous
 62
     7
370
    50
100
AcDbLine
 10
785.5509533707024
 20
198.7413828311117
 30
0.000000000000001
 11
784.982036279058
 21
197.0215863925178
 31
0.0000000000000008
  0
LINE
  5
989
330
2
100
AcDbEntity
  8
1
  6
Continuous
 62
     7
370
    50
100
AcDbLine
 10
787.5664881354979
 20
200.3540334501233
 30
0.0000000000000007
 11
789.1880454768684
 21
205.25588748408
 31
0.0000000000000014
  0
LINE
  5
98A
330
2
100
AcDbEntity
  8
1
  6
Continuous
 62
     7
370
    50
100
AcDbLine
 10
787.5684304674798
 20
198.073991518628
 30
0.0000000000000012
 11
790.6607913406668
 21
207.4219814009159
 31
0.0000000000000016
  0
LINE
  5
98B
330
2
100
AcDbEntity
  8
1
  6
Continuous
 62
     7
370
    50
100
AcDbLine
 10
783.1977830230214
 20
194.3343485037431
 30
0.0000000000000005
 11
782.7339275813722
 21
192.9321460593333
 31
0.0000000000000004
  0
LINE
  5
98C
330
2
100
AcDbEntity
  8
1
  6
Continuous
 62
     7
370
    50
100
AcDbLine
 10
784.7163851458418
 20
188.2584378465625
 30
0.0000000000000001
 11
785.9144231162692
 21
191.880022546866
 31
0.0000000000000004
  0
LINE
  5
98D
330
2
100
AcDbEntity
  8
1
  6
Continuous
 62
     7
370
    50
100
AcDbLine
 10
784.5106516148811
 20
187.1589201566441
 30
0.0
 11
784.8198877021997
 21
188.093719144873
 31
0.0
  0
LINE
  5
98E
330
2
100
AcDbEntity
  8
1
  6
Continuous
 62
     7
370
    50
100
AcDbLine
 10
786.8863324594395
 20
198.4634309741686
 30
0.0000000000000006
 11
786.3074913780811
 21
198.6825159136664
 31
0.0000000000000004
  0
LINE
  5
98F
330
2
100
AcDbEntity
  8
1
  6
Continuous
 62
     7
370
    50
100
AcDbLine
 10
786.4447791009191
 20
196.9127174741254
 30
0.0000000000000004
 11
785.8962149014622
 21
197.1203505054651
 31
0.0000000000000004
  0
LINE
  5
990
330
2
100
AcDbEntity
  8
1
  6
Continuous
 62
     7
370
    50
100
AcDbLine
 10
786.4203395901937
 20
196.8876010605564
 30
0.0000000000000003
 11
785.8727053551672
 21
197.0948745542861
 31
0.0000000000000004
  0
LINE
  5
991
330
2
100
AcDbEntity
  8
1
  6
Continuous
 62
     7
370
    50
100
AcDbLine
 10
782.8763362660874
 20
192.8850365683988
 30
0.0000000000000003
 11
781.6782982956599
 21
189.2634518680953
 31
-0.0000000000000001
  0
LINE
  5
992
330
2
100
AcDbEntity
  8
1
  6
Continuous
 62
     7
370
    50
100
AcDbLine
 10
786.1355017493986
 20
193.5831461604114
 30
0.0000000000000005
 11
786.9974284796689
 21
196.1886901716883
 31
0.0000000000000007
  0
LINE
  5
993
330
2
100
AcDbEntity
  8
1
  6
Continuous
 62
     7
370
    50
100
AcDbLine
 10
781.496984248684
 20
189.1929518948462
 30
0.0000000000000002
 11
781.1877481613653
 21
188.2581529066174
 31
-0.0000000000000001
  0
LINE
  5
994
330
2
100
AcDbEntity
  8
1
  6
Continuous
 62
     7
370
    50
100
AcDbLine
 10
786.0568318009842
 20
191.8329130559316
 30
0.0000000000000004
 11
786.5206872426332
 21
193.2351155003414
 31
0.0000000000000004
  0
ELLIPSE
  5
995
330
2
100
AcDbEntity
  8
1
  6
Continuous
 62
     7
370
    50
100
AcDbEllipse
 10
789.4977751319362
 20
207.8067128634065
 30
0.0000000000000015
 11
1.163016208730478
 21
-0.3847314624906394
 31
-0.0000000000000001
210
0.0000000000000001
220
0.0
230
1.0
 40
0.1747108866277669
 41
2.881153416559658
 42
3.141611082496508
  0
ELLIPSE
  5
996
330
2
100
AcDbEntity
  8
1
  6
Continuous
 62
     7
370
    50
100
AcDbEllipse
 10
787.0238864333867
 20
200.3283209575762
 30
0.0000000000000006
 11
-1.163016208730478
 21
0.3847314624906394
 31
0.0000000000000001
210
0.0000000000000001
220
0.0
230
1.0
 40
0.1747108866277669
 41
6.02274607014946
 42
6.283203735983945
  0
ELLIPSE
  5
997
330
2
100
AcDbEntity
  8
1
  6
Continuous
 62
     7
370
    50
100
AcDbEllipse
 10
942.6546191771654
 20
263.9364585062728
 30
-0.0000000000001302
 11
-177.3915665579722
 21
-462.8406961053774
 31
0.0000000000000027
210
0.0
220
0.0
230
1.0
 40
0.2535445171080911
 41
4.934931353567136
 42
4.946264655586264
  0
ELLIPSE
  5
998
330
2
100
AcDbEntity
  8
1
  6
Continuous
 62
     7
370
    50
100
AcDbEllipse
 10
785.7869420841121
 20
196.5891250046611
 30
0.0000000000000006
 11
-1.210486395556767
 21
0.40043483297274
 31
0.0000000000000001
210
0.0000000000000001
220
0.0
230
0.9999999999999998
 40
0.1747108866277669
 41
6.022746070149456
 42
6.283203735983932
  0
ELLIPSE
  5
999
330
2
100
AcDbEntity
  8
1
  6
Continuous
 62
     7
370
    50
100
AcDbEllipse
 10
789.4977751319362
 20
207.8067128634065
 30
0.0000000000000015
 11
1.163016208730478
 21
-0.3847314624906394
 31
-0.0000000000000001
210
0.0000000000000001
220
0.0
230
1.0
 40
0.1747108866277669
 41
0.0000184289065626
 42
2.881153416559658
  0
ELLIPSE
  5
99A
330
2
100
AcDbEntity
  8
1
  6
Continuous
 62
     7
370
    50
100
AcDbEllipse
 10
787.0238864333867
 20
200.3283209575762
 30
0.0000000000000008
 11
1.163016208730478
 21
-0.3847314624906394
 31
-0.0000000000000001
210
0.0000000000000001
220
0.0
230
1.0
 40
0.1747108866277669
 41
1.144023068234542
 42
1.310357089764765
  0
ELLIPSE
  5
99B
330
2
100
AcDbEntity
  8
1
  6
Continuous
 62
     7
370
    50
100
AcDbEllipse
 10
787.0238864333867
 20
200.3283209575762
 30
0.0000000000000008
 11
-1.163016208730478
 21
0.3847314624906394
 31
0.0000000000000001
210
0.0000000000000001
220
0.0
230
1.0
 40
0.1747108866277669
 41
4.451949743354558
 42
6.022746070149454
  0
ELLIPSE
  5
99C
330
2
100
AcDbEntity
  8
1
  6
Continuous
 62
     7
370
    50
100
AcDbEllipse
 10
786.4054142587495
 20
198.4587229811186
 30
0.0000000000000009
 11
-0.8544608880468816
 21
0.2826598499931229
 31
0.0
210
0.0
220
0.0
230
0.9999999999999998
 40
0.1747108866277669
 41
5.366424053303002
 42
6.283184538675366
  0
ELLIPSE
  5
99D
330
2
100
AcDbEntity
  8
1
  6
Continuous
 62
     7
370
    50
100
AcDbEllipse
 10
786.4054142587495
 20
198.4587229811186
 30
0.0000000000000008
 11
-1.163016208730478
 21
0.3847314624906394
 31
0.0000000000000001
210
0.0000000000000001
220
0.0
230
1.0
 40
0.1747108866277669
 41
2.623640993734758
 42
2.881153416559665
  0
ELLIPSE
  5
99E
330
2
100
AcDbEntity
  8
1
  6
Continuous
 62
     7
370
    50
100
AcDbEllipse
 10
786.4054142587495
 20
198.4587229811186
 30
0.0000000000000008
 11
-1.163016208730478
 21
0.3847314624906394
 31
0.0000000000000001
210
0.0000000000000001
220
0.0
230
1.0
 40
0.1747108866277669
 41
6.022746070149453
 42
7.02879203007746
  0
ELLIPSE
  5
99F
330
2
100
AcDbEntity
  8
1
  6
Continuous
 62
     7
370
    50
100
AcDbEllipse
 10
786.4054142587495
 20
198.4587229811186
 30
0.0000000000000008
 11
-1.163016208730478
 21
0.3847314624906394
 31
0.0000000000000001
210
0.0000000000000001
220
0.0
230
1.0
 40
0.1747108866277669
 41
2.881153416559667
 42
6.022746070149453
  0
ELLIPSE
  5
9A0
330
2
100
AcDbEntity
  8
1
  6
Continuous
 62
     7
370
    50
100
AcDbEllipse
 10
784.8592351328273
 20
193.7847320020422
 30
0.0000000000000005
 11
1.661452109805995
 21
-0.5496165017008402
 31
-0.0000000000000001
210
0.0000000000000001
220
0.0
230
0.9999999999999998
 40
0.174710886627767
 41
2.881153416559662
 42
3.141611082496436
  0
ELLIPSE
  5
9A1
330
2
100
AcDbEntity
  8
1
  6
Continuous
 62
     7
370
    50
100
AcDbEllipse
 10
783.1584359754421
 20
188.6433355198596
 30
0.0000000000000001
 11
1.661451726757825
 21
-0.5496163749866279
 31
-0.0000000000000001
210
0.0000000000000001
220
0.0
230
1.0
 40
0.1747108866277669
 41
0.0000184289066434
 42
2.881153416559665
  0
ELLIPSE
  5
9A2
330
2
100
AcDbEntity
  8
1
  6
Continuous
 62
     7
370
    50
100
AcDbEllipse
 10
782.8491998881233
 20
187.7085365316308
 30
0.0000000000000002
 11
1.56651162808595
 21
-0.5182097249873921
 31
-0.0000000000000001
210
0.0000000000000001
220
0.0
230
1.0
 40
0.1747108866277669
 41
6.022746070149456
 42
9.164338723739248
  0
ELLIPSE
  5
9A3
330
2
100
AcDbEntity
  8
1
  6
Continuous
 62
     7
370
    50
100
AcDbEllipse
 10
782.8491998881233
 20
187.7085365316308
 30
0.0000000000000002
 11
1.56651162808595
 21
-0.5182097249873921
 31
-0.0000000000000001
210
0.0000000000000001
220
0.0
230
1.0
 40
0.1747108866277669
 41
2.88115341655966
 42
6.022746070149456
  0
ELLIPSE
  5
9A4
330
2
100
AcDbEntity
  8
1
  6
Continuous
 62
     7
370
    50
100
AcDbEllipse
 10
782.8491998881233
 20
187.7085365316308
 30
0.0000000000000002
 11
-1.661451726757825
 21
0.5496163749866279
 31
0.0000000000000001
210
0.0000000000000001
220
0.0
230
1.0
 40
0.1747108866277669
 41
6.022746070149454
 42
9.164338723739252
  0
ELLIPSE
  5
9A5
330
2
100
AcDbEntity
  8
1
  6
Continuous
 62
     7
370
    50
100
AcDbEllipse
 10
782.8491998881233
 20
187.7085365316308
 30
0.0000000000000002
 11
-1.661451726757825
 21
0.5496163749866279
 31
0.0000000000000001
210
0.0000000000000001
220
0.0
230
1.0
 40
0.1747108866277669
 41
2.881153416559665
 42
6.022746070149457
  0
ELLIPSE
  5
9A6
330
2
100
AcDbEntity
  8
1
  6
Continuous
 62
     7
370
    50
100
AcDbEllipse
 10
784.7111679259833
 20
193.3371352278496
 30
0.0000000000000005
 11
-1.068076110058602
 21
0.3533248124914037
 31
0.0000000000000001
210
0.0000000000000001
220
0.0
230
1.0
 40
0.1747108866277669
 41
1.57287642588036
 42
2.200605907975771
  0
ELLIPSE
  5
9A7
330
2
100
AcDbEntity
  8
1
  6
Continuous
 62
     7
370
    50
100
AcDbEllipse
 10
785.7869420841121
 20
196.5891250046611
 30
0.0000000000000006
 11
-1.210486395556767
 21
0.40043483297274
 31
0.0000000000000001
210
0.0000000000000001
220
0.0
230
0.9999999999999998
 40
0.1747108866277669
 41
3.141611082496408
 42
6.022746070149456
  0
ELLIPSE
  5
9A8
330
2
100
AcDbEntity
  8
1
  6
Continuous
 62
     7
370
    50
100
AcDbEllipse
 10
783.1584359754421
 20
188.6433355198596
 30
0.0000000000000001
 11
1.661451726757825
 21
-0.5496163749866279
 31
-0.0000000000000001
210
0.0000000000000001
220
0.0
230
1.0
 40
0.1747108866277669
 41
2.881153416559665
 42
3.141611082394108
  0
ELLIPSE
  5
9A9
330
2
100
AcDbEntity
  8
1
  6
Continuous
 62
     7
370
    50
100
AcDbEllipse
 10
784.3953796911782
 20
192.3825295576324
 30
0.0000000000000005
 11
1.519043425090933
 21
-0.5025070107664014
 31
-0.0000000000000001
210
0.0000000000000001
220
0.0
230
1.0
 40
0.1747108866277669
 41
2.881153416559662
 42
3.141611082394118
  0
ELLIPSE
  5
9AA
330
2
100
AcDbEntity
  8
1
  6
Continuous
 62
     7
370
    50
100
AcDbEllipse
 10
784.3953796911782
 20
192.3825295576324
 30
0.0000000000000005
 11
-1.661452109805995
 21
0.5496165017008402
 31
0.0000000000000001
210
0.0000000000000001
220
0.0
230
0.9999999999999998
 40
0.174710886627767
 41
2.72451557034708
 42
2.881153416559662
  0
ELLIPSE
  5
9AB
330
2
100
AcDbEntity
  8
1
  6
Continuous
 62
     7
370
    50
100
AcDbEllipse
 10
784.3953796911782
 20
192.3825295576324
 30
0.0000000000000005
 11
-1.661452109805995
 21
0.5496165017008402
 31
0.0000000000000001
210
0.0000000000000001
220
0.0
230
0.9999999999999998
 40
0.174710886627767
 41
6.022746070149456
 42
6.700250161034812
  0
ELLIPSE
  5
9AC
330
2
100
AcDbEntity
  8
1
  6
Continuous
 62
     7
370
    50
100
AcDbEllipse
 10
784.8592351328273
 20
193.7847320020422
 30
0.0000000000000005
 11
1.661452109805995
 21
-0.5496165017008402
 31
-0.0000000000000001
210
0.0000000000000001
220
0.0
230
0.9999999999999998
 40
0.174710886627767
 41
0.0000184289066363
 42
2.881153416559662
  0
ELLIPSE
  5
9AD
330
2
100
AcDbEntity
  8
1
  6
Continuous
 62
     7
370
    50
100
AcDbEllipse
 10
784.3953796911782
 20
192.3825295576324
 30
0.0000000000000005
 11
-1.661452109805995
 21
0.5496165017008402
 31
0.0000000000000001
210
0.0000000000000001
220
0.0
230
0.9999999999999998
 40
0.174710886627767
 41
2.88115341655966
 42
6.022746070149456
  0
ELLIPSE
  5
9AE
330
2
100
AcDbEntity
  8
1
  6
Continuous
 62
     7
370
    50
100
AcDbEllipse
 10
784.3953796911782
 20
192.3825295576324
 30
0.0000000000000005
 11
1.519043425090933
 21
-0.5025070107664014
 31
-0.0000000000000001
210
0.0000000000000001
220
0.0
230
1.0
 40
0.1747108866277669
 41
0.0000184289066318
 42
2.881153416559662
  0
SPLINE
  5
9AF
330
2
100
AcDbEntity
  8
1
  6
Continuous
 62
     7
370
    50
100
AcDbSpline
210
0.0
220
0.0
230
1.0
 70
     8
 71
     3
 72
     8
 73
     4
 74
     0
 42
0.0000000001
 43
0.0000000001
 40
0.0
 40
0.0
 40
0.0
 40
0.0
 40
1.0
 40
1.0
 40
1.0
 40
1.0
 10
785.1064286395021
 20
197.3997491761073
 30
0.0000000000000011
 10
785.0477914790824
 20
197.275738453001
 30
0.0000000000000011
 10
784.9894017602588
 20
197.1516015568923
 30
0.0000000000000012
 10
784.9312737964311
 20
197.0273347217276
 30
0.0000000000000011
  0
SPLINE
  5
9B0
330
2
100
AcDbEntity
  8
1
  6
Continuous
 62
     7
370
    50
100
AcDbSpline
210
0.000000000000005
220
0.0000000000000014
230
1.0
 70
     8
 71
     2
 72
     8
 73
     5
 74
     0
 42
0.0000000001
 43
0.0000000001
 40
0.0
 40
0.0
 40
0.0
 40
0.5
 40
0.5
 40
1.0
 40
1.0
 40
1.0
 10
788.5111025297133
 20
206.6245039918011
 30
0.0000000000000015
 10
788.4220670155505
 20
206.8894878464165
 30
0.000000000000002
 10
788.4038655222576
 20
207.0636100398702
 30
0.000000000000002
 10
788.3830602815662
 20
207.2626406406185
 30
0.0000000000000013
 10
788.4594269842613
 20
207.2830233416303
 30
0.0000000000000009
  0
SPLINE
  5
9B1
330
2
100
AcDbEntity
  8
1
  6
Continuous
 62
     7
370
    50
100
AcDbSpline
210
-0.0000000000002504
220
0.0000000000000607
230
1.0
 70
     8
 71
     3
 72
     8
 73
     4
 74
     0
 42
0.0000000001
 43
0.0000000001
 40
0.0
 40
0.0
 40
0.0
 40
0.0
 40
1.0
 40
1.0
 40
1.0
 40
1.0
 10
784.8067461793151
 20
197.0370633325858
 30
0.000000000000001
 10
784.8155566002827
 20
197.0605209629388
 30
0.0000000000000009
 10
784.8212105348176
 20
197.0854778140433
 30
0.0000000000000007
 10
784.8236848703812
 20
197.1118741543705
 30
0.0000000000000007
  0
SPLINE
  5
9B2
330
2
100
AcDbEntity
  8
1
  6
Continuous
 62
     7
370
    50
100
AcDbSpline
210
0.0000000000008844
220
-0.0000000000030105
230
-1.0
 70
     8
 71
     3
 72
     8
 73
     4
 74
     0
 42
0.0000000001
 43
0.0000000001
 40
0.0
 40
0.0
 40
0.0
 40
0.0
 40
1.0
 40
1.0
 40
1.0
 40
1.0
 10
786.8103470738181
 20
196.4586406757866
 30
0.0000000000000007
 10
786.7850328207547
 20
196.4500371638556
 30
0.0000000000000008
 10
786.7580158959123
 20
196.4420923917579
 30
0.0000000000000009
 10
786.7293111223962
 20
196.4347900634478
 30
0.000000000000001
  0
SPLINE
  5
9B3
330
2
100
AcDbEntity
  8
1
  6
Continuous
 62
     7
370
    50
100
AcDbSpline
210
0.0000000186706917
220
-0.0000000086034196
230
0.9999999999999998
 70
     8
 71
     3
 72
     8
 73
     4
 74
     0
 42
0.0000000001
 43
0.0000000001
 40
0.0
 40
0.0
 40
0.0
 40
0.0
 40
1.0
 40
1.0
 40
1.0
 40
1.0
 10
785.4736237541526
 20
198.5075880996769
 30
0.0000000000000011
 10
785.2588218887124
 20
198.0412910033079
 30
0.0000000000000009
 10
785.0440490122132
 20
197.5752564435609
 30
0.000000000000001
 10
784.829376082911
 20
197.1094573805073
 30
0.0000000000000009
  0
SPLINE
  5
9B4
330
2
100
AcDbEntity
  8
1
  6
Continuous
 62
     7
370
    50
100
AcDbSpline
210
-0.000000000457635
220
-0.000000001004045
230
-1.0
 70
     8
 71
     3
 72
     8
 73
     4
 74
     0
 42
0.0000000001
 43
0.0000000001
 40
0.0
 40
0.0
 40
0.0
 40
0.0
 40
1.0
 40
1.0
 40
1.0
 40
1.0
 10
784.8930139222694
 20
197.0803312257535
 30
0.000000000000001
 10
784.8718138167419
 20
197.090063559235
 30
0.0000000000000007
 10
784.8505871049127
 20
197.0997385323878
 30
0.0000000000000006
 10
784.8293341043834
 20
197.109355986978
 30
0.0000000000000007
  0
SPLINE
  5
9B5
330
2
100
AcDbEntity
  8
1
  6
Continuous
 62
     7
370
    50
100
AcDbSpline
210
0.0000000003710227
220
-0.0000000001737997
230
1.0
 70
     8
 71
     3
 72
     8
 73
     4
 74
     0
 42
0.0000000001
 43
0.0000000001
 40
0.0
 40
0.0
 40
0.0
 40
0.0
 40
1.0
 40
1.0
 40
1.0
 40
1.0
 10
785.2819112774035
 20
197.9250310547668
 30
0.000000000000001
 10
785.1507776019971
 20
197.6441916960178
 30
0.0000000000000009
 10
785.0192958675713
 20
197.3635073599517
 30
0.0000000000000008
 10
784.8874666228168
 20
197.0829803289922
 30
0.0000000000000007
  0
SPLINE
  5
9B6
330
2
100
AcDbEntity
  8
1
  6
Continuous
 62
     7
370
    50
100
AcDbSpline
210
-0.0000000219270179
220
0.0000000068581516
230
0.9999999999999998
 70
     8
 71
     3
 72
     8
 73
     4
 74
     0
 42
0.0000000001
 43
0.0000000001
 40
0.0
 40
0.0
 40
0.0
 40
0.0
 40
1.0
 40
1.0
 40
1.0
 40
1.0
 10
784.8784722792677
 20
197.0338384194965
 30
0.0000000000000009
 10
784.8833369803855
 20
197.049373424645
 30
0.0000000000000009
 10
784.8881841390521
 20
197.0648710550126
 30
0.0000000000000009
 10
784.8930139222582
 20
197.0803312257585
 30
0.0000000000000008
  0
SPLINE
  5
9B7
330
2
100
AcDbEntity
  8
1
  6
Continuous
 62
     7
370
    50
100
AcDbSpline
210
-0.0000000000598742
220
0.0000000000278088
230
1.0
 70
     8
 71
     3
 72
     8
 73
     4
 74
     0
 42
0.0000000001
 43
0.0000000001
 40
0.0
 40
0.0
 40
0.0
 40
0.0
 40
1.0
 40
1.0
 40
1.0
 40
1.0
 10
785.217470743804
 20
197.7409508900889
 30
0.000000000000001
 10
785.1155251239671
 20
197.5227044417102
 30
0.000000000000001
 10
785.0140543925501
 20
197.304234705726
 30
0.0000000000000011
 10
784.913065993717
 20
197.0855422618648
 30
0.0000000000000011
  0
SPLINE
  5
9B8
330
2
100
AcDbEntity
  8
1
  6
Continuous
 62
     7
370
    50
100
AcDbSpline
210
0.000000000000007
220
0.0000000000000016
230
1.0
 70
     8
 71
     2
 72
    12
 73
     9
 74
     0
 42
0.0000000001
 43
0.0000000001
 40
0.0
 40
0.0
 40
0.0
 40
0.2880962241388622
 40
0.2880962241388622
 40
0.5761924482777246
 40
0.5761924482777246
 40
0.8642886724165867
 40
0.8642886724165867
 40
1.0
 40
1.0
 40
1.0
 10
788.2366699708569
 20
207.7633933708626
 30
0.0000000000000012
 10
788.1697197725477
 20
207.7455239876542
 30
0.0000000000000012
 10
788.1545521221214
 20
207.6255389660361
 30
0.0000000000000013
 10
788.1420373765076
 20
207.5265399793224
 30
0.0000000000000016
 10
788.1673489958355
 20
207.3657955168202
 30
0.0000000000000015
 10
788.1912302445467
 20
207.2141347938053
 30
0.0000000000000018
 10
788.2467157871352
 20
207.0205632895712
 30
0.000000000000002
 10
788.2736723642453
 20
206.9265203202353
 30
0.0000000000000019
 10
788.3071799502666
 20
206.8260603788717
 30
0.0000000000000017
  0
SPLINE
  5
9B9
330
2
100
AcDbEntity
  8
1
  6
Continuous
 62
     7
370
    50
100
AcDbSpline
210
-0.0000000008225792
220
0.000000003065388
230
-1.0
 70
     8
 71
     3
 72
     8
 73
     4
 74
     0
 42
0.0000000001
 43
0.0000000001
 40
0.0
 40
0.0
 40
0.0
 40
0.0
 40
1.0
 40
1.0
 40
1.0
 40
1.0
 10
786.7505700426102
 20
196.4813992899975
 30
0.0000000000000009
 10
786.7317983410644
 20
196.4763438942044
 30
0.0000000000000009
 10
786.713033196866
 20
196.4713083678565
 30
0.0000000000000008
 10
786.694274565198
 20
196.4662927306618
 30
0.0000000000000008
  0
SPLINE
  5
9BA
330
2
100
AcDbEntity
  8
1
  6
Continuous
 62
     7
370
    50
100
AcDbSpline
210
0.0000000906354125
220
-0.0000000297832746
230
0.9999999999999953
 70
     8
 71
     3
 72
     8
 73
     4
 74
     0
 42
0.0000000001
 43
0.0000000001
 40
0.0
 40
0.0
 40
0.0
 40
0.0
 40
1.0
 40
1.0
 40
1.0
 40
1.0
 10
786.8229029926966
 20
196.7015206287524
 30
0.0000000000000009
 10
786.7987958582399
 20
196.6281362735664
 30
0.0000000000000009
 10
786.7746806593741
 20
196.5547500069475
 30
0.0000000000000008
 10
786.7505577058643
 20
196.4813619083734
 30
0.0000000000000008
  0
SPLINE
  5
9BB
330
2
100
AcDbEntity
  8
1
  6
Continuous
 62
     7
370
    50
100
AcDbSpline
210
-0.0000003377010119
220
0.0000012498383459
230
0.999999999999162
 70
     8
 71
     3
 72
     8
 73
     4
 74
     0
 42
0.0000000001
 43
0.0000000001
 40
0.0
 40
0.0
 40
0.0
 40
0.0
 40
1.0
 40
1.0
 40
1.0
 40
1.0
 10
786.9816504633982
 20
196.5026322090398
 30
0.0000000000000007
 10
786.9257294624864
 20
196.4875194779235
 30
0.0000000000000006
 10
786.8697906650964
 20
196.4724060042375
 30
0.0000000000000008
 10
786.8138386092025
 20
196.4572898411669
 30
0.000000000000001
  0
SPLINE
  5
9BC
330
2
100
AcDbEntity
  8
1
  6
Continuous
 62
     7
370
    50
100
AcDbSpline
210
-0.000000000178116
220
0.0000000006658157
230
1.0
 70
     8
 71
     3
 72
     8
 73
     4
 74
     0
 42
0.0000000001
 43
0.0000000001
 40
0.0
 40
0.0
 40
0.0
 40
0.0
 40
1.0
 40
1.0
 40
1.0
 40
1.0
 10
786.9186116879057
 20
196.5262383426696
 30
0.0000000000000006
 10
786.8626130293137
 20
196.511340090144
 30
0.0000000000000007
 10
786.8065856311694
 20
196.4963518098086
 30
0.0000000000000007
 10
786.7505290207039
 20
196.4812736971924
 30
0.0000000000000008
  0
SPLINE
  5
9BD
330
2
100
AcDbEntity
  8
1
  6
Continuous
 62
     7
370
    50
100
AcDbSpline
210
0.0000000000000018
220
0.0000000000000004
230
1.0
 70
     8
 71
     3
 72
    16
 73
    12
 74
     0
 42
0.0000000001
 43
0.0000000001
 40
0.0
 40
0.0
 40
0.0
 40
0.0
 40
0.0627464797847868
 40
0.1287954253806228
 40
0.1984765009237816
 40
0.30751828453089
 40
0.4323086079889182
 40
0.5390380860379485
 40
0.7088674160651128
 40
0.8681077199096353
 40
1.0
 40
1.0
 40
1.0
 40
1.0
 10
788.9626058583829
 20
206.7450127610444
 30
0.0000000000000009
 10
788.978512230771
 20
206.7172150456095
 30
0.000000000000001
 10
789.0111621579859
 20
206.6601565684436
 30
0.0000000000000009
 10
789.0542568237425
 20
206.5665170580432
 30
0.0000000000000008
 10
789.0999312228717
 20
206.4471237332978
 30
0.0000000000000006
 10
789.143160978072
 20
206.2934272891818
 30
0.0000000000000009
 10
789.1730095534617
 20
206.1164439165483
 30
0.0000000000000011
 10
789.1868467442401
 20
205.905386120176
 30
0.0000000000000015
 10
789.1765656909475
 20
205.6758678937557
 30
0.0000000000000011
 10
789.1375758752022
 20
205.4363598549495
 30
0.0000000000000009
 10
789.0939664639797
 20
205.2912455417962
 30
0.0000000000000013
 10
789.0742100196757
 20
205.225504162467
 30
0.0000000000000014
  0
SPLINE
  5
9BE
330
2
100
AcDbEntity
  8
1
  6
Continuous
 62
     7
370
    50
100
AcDbSpline
210
-0.0000000000000128
220
-0.0000000000000116
230
1.0
 70
     8
 71
     2
 72
     8
 73
     5
 74
     0
 42
0.0000000001
 43
0.0000000001
 40
0.0
 40
0.0
 40
0.0
 40
0.5
 40
0.5
 40
1.0
 40
1.0
 40
1.0
 10
788.4594269842613
 20
207.2830233416303
 30
0.0000000000000009
 10
788.5350047357112
 20
207.3031954671324
 30
0.0000000000000012
 10
788.6838299383798
 20
207.1383341118331
 30
0.0000000000000013
 10
788.8116447249177
 20
206.9967470784668
 30
0.0000000000000008
 10
788.9626058583734
 20
206.745012761057
 30
0.0000000000000008
  0
SPLINE
  5
9BF
330
2
100
AcDbEntity
  8
1
  6
Continuous
 62
     7
370
    50
100
AcDbSpline
210
0.0000000000013335
220
0.0000000000037273
230
1.0
 70
     8
 71
     3
 72
     8
 73
     4
 74
     0
 42
0.0000000001
 43
0.0000000001
 40
0.0
 40
0.0
 40
0.0
 40
0.0
 40
1.0
 40
1.0
 40
1.0
 40
1.0
 10
786.9185776658804
 20
196.5261329554525
 30
0.0000000000000006
 10
786.938957731721
 20
196.5182857562464
 30
0.0000000000000008
 10
786.9600810115392
 20
196.5107096543023
 30
0.0000000000000008
 10
786.9818905342023
 20
196.5034754629883
 30
0.0000000000000007
  0
SPLINE
  5
9C0
330
2
100
AcDbEntity
  8
1
  6
Continuous
 62
     7
370
    50
100
AcDbSpline
210
0.0
220
0.0
230
1.0
 70
     8
 71
     2
 72
    13
 73
    10
 74
     0
 42
0.0000000001
 43
0.0000000001
 40
0.0
 40
0.0
 40
0.0
 40
0.158691765695922
 40
0.3690188242719414
 40
0.3690188242719414
 40
0.5793458828479611
 40
0.5793458828479611
 40
0.7896729414239805
 40
0.7896729414239805
 40
1.0
 40
1.0
 40
1.0
 10
788.1850463304604
 20
206.781101488939
 30
0.0000000000000015
 10
788.2028412899507
 20
206.8290399364056
 30
0.0000000000000013
 10
788.2846429413197
 20
206.8511588269038
 30
0.0000000000000007
 10
788.3574200881156
 20
206.7944127909951
 30
0.0000000000000015
 10
788.4373251967003
 20
206.7321089173112
 30
0.0000000000000011
 10
788.539490824201
 20
206.5927297902457
 30
0.0000000000000005
 10
788.6521506428735
 20
206.4390339967962
 30
0.000000000000001
 10
788.7754362539356
 20
206.213624622506
 30
0.0000000000000009
 10
788.9171527836547
 20
205.9545170590574
 30
0.0000000000000013
 10
789.0457342453418
 20
205.6503945979806
 30
0.0000000000000011
  0
SPLINE
  5
9C1
330
2
100
AcDbEntity
  8
1
  6
Continuous
 62
     7
370
    50
100
AcDbSpline
210
0.0
220
0.0
230
1.0
 70
     8
 71
     3
 72
    11
 73
     7
 74
     0
 42
0.0000000001
 43
0.0000000001
 40
0.0
 40
0.0
 40
0.0
 40
0.0
 40
0.0482295902901234
 40
0.3795124171898835
 40
0.7107793390311245
 40
1.0
 40
1.0
 40
1.0
 40
1.0
 10
788.1835427339383
 20
206.7786405352976
 30
0.0000000000000014
 10
788.1470735247911
 20
206.6808293261203
 30
0.0000000000000016
 10
787.8597275181492
 20
205.9113077503148
 30
0.0000000000000011
 10
787.3132809687891
 20
204.4732194003533
 30
0.0000000000000012
 10
786.5760604802427
 20
202.5496748752958
 30
0.0000000000000011
 10
786.0891652140979
 20
201.2981087598306
 30
0.0000000000000009
 10
785.8610710260571
 20
200.7151762004153
 30
0.0000000000000012
  0
SPLINE
  5
9C2
330
2
100
AcDbEntity
  8
1
  6
Continuous
 62
     7
370
    50
100
AcDbSpline
210
0.0
220
0.0
230
1.0
 70
     8
 71
     3
 72
     8
 73
     4
 74
     0
 42
0.0000000001
 43
0.0000000001
 40
0.0
 40
0.0
 40
0.0
 40
0.0
 40
1.0
 40
1.0
 40
1.0
 40
1.0
 10
786.9410770227732
 20
196.6136697020969
 30
0.0000000000000006
 10
786.9334524214341
 20
196.5845715043396
 30
0.0000000000000006
 10
786.925817612062
 20
196.5554771945176
 30
0.0000000000000006
 10
786.9181726352116
 20
196.5263868074671
 30
0.0000000000000006
  0
SPLINE
  5
9C3
330
2
100
AcDbEntity
  8
1
  6
Continuous
 62
     7
370
    50
100
AcDbSpline
210
-0.0000000000000012
220
0.0000000000000017
230
1.0
 70
     8
 71
     3
 72
     8
 73
     4
 74
     0
 42
0.0000000001
 43
0.0000000001
 40
0.0
 40
0.0
 40
0.0
 40
0.0
 40
1.0
 40
1.0
 40
1.0
 40
1.0
 10
786.9684001855009
 20
196.5748492118839
 30
0.0000000000000006
 10
786.9704808295973
 20
196.5523464391507
 30
0.0000000000000006
 10
786.9537357926454
 20
196.5348835265752
 30
0.0000000000000005
 10
786.9185776658804
 20
196.5261329554525
 30
0.0000000000000007
  0
SPLINE
  5
9C4
330
2
100
AcDbEntity
  8
1
  6
Continuous
 62
     7
370
    50
100
AcDbSpline
210
-0.0000000000000071
220
0.0000000000000072
230
1.0
 70
     8
 71
     3
 72
    10
 73
     6
 74
     0
 42
0.0000000001
 43
0.0000000001
 40
0.0
 40
0.0
 40
0.0
 40
0.0
 40
0.5
 40
0.5
 40
1.0
 40
1.0
 40
1.0
 40
1.0
 10
787.0294120637797
 20
196.5645015916038
 30
0.0000000000000005
 10
787.035164359525
 20
196.5508861574871
 30
0.0000000000000006
 10
787.0339272968237
 20
196.5384956795357
 30
0.0000000000000005
 10
787.0177011328806
 20
196.5175001569003
 30
0.0000000000000007
 10
787.002713077052
 20
196.5088973083224
 30
0.0000000000000005
 10
786.9813250372637
 20
196.5027575184099
 30
0.0000000000000007
  0
SPLINE
  5
9C5
330
2
100
AcDbEntity
  8
1
  6
Continuous
 62
     7
370
    50
100
AcDbSpline
210
-0.000000000000007
220
-0.000000000000006
230
1.0
 70
     8
 71
     3
 72
    19
 73
    15
 74
     0
 42
0.0000000001
 43
0.0000000001
 40
0.0
 40
0.0
 40
0.0
 40
0.0
 40
0.0410764124207954
 40
0.0824920225670144
 40
0.1243939112859004
 40
0.1669241146648501
 40
0.2102184852726498
 40
0.2544058280036149
 40
0.3653529195023205
 40
0.4856607904632086
 40
0.6010852712709151
 40
0.7280306007877361
 40
0.8549219085317394
 40
1.0
 40
1.0
 40
1.0
 40
1.0
 10
788.2366699708552
 20
207.7633933708617
 30
0.0000000000000012
 10
788.2442245435282
 20
207.7647892132087
 30
0.0000000000000014
 10
788.2593960724595
 20
207.7675924243853
 30
0.0000000000000013
 10
788.2854589105948
 20
207.76450072543
 30
0.0000000000000014
 10
788.3139507329627
 20
207.7560551349616
 30
0.0000000000000009
 10
788.3450462733325
 20
207.7416969442289
 30
0.0000000000000012
 10
788.3785964368423
 20
207.7215457309294
 30
0.0000000000000016
 10
788.4323082370488
 20
207.6826970254003
 30
0.0000000000000011
 10
788.511949132259
 20
207.6100598359935
 30
0.0000000000000012
 10
788.617091136188
 20
207.4916021754937
 30
0.0000000000000008
 10
788.728761937048
 20
207.3462465609896
 30
0.0000000000000012
 10
788.8422378369994
 20
207.1815736597751
 30
0.0000000000000013
 10
788.9625342811267
 20
206.9902862900579
 30
0.0000000000000013
 10
789.0411067803187
 20
206.8512949166446
 30
0.0000000000000011
 10
789.0830201288706
 20
206.7771520048179
 30
0.0000000000000009
  0
SPLINE
  5
9C6
330
2
100
AcDbEntity
  8
1
  6
Continuous
 62
     7
370
    50
100
AcDbSpline
210
0.0000000000000008
220
0.0000000000000002
230
1.0
 70
     8
 71
     3
 72
    18
 73
    14
 74
     0
 42
0.0000000001
 43
0.0000000001
 40
0.0
 40
0.0
 40
0.0
 40
0.0
 40
0.0539856342139968
 40
0.1082894951745284
 40
0.1630383627668202
 40
0.2183559623935633
 40
0.3419423252804591
 40
0.4669322609350462
 40
0.5999745483302598
 40
0.7329332951518303
 40
0.822108920016605
 40
0.9109825200239464
 40
1.0
 40
1.0
 40
1.0
 40
1.0
 10
789.0830201288776
 20
206.7771520048054
 30
0.000000000000001
 10
789.0961716245194
 20
206.7524138334229
 30
0.0000000000000008
 10
789.1225521393473
 20
206.702791667646
 30
0.000000000000001
 10
789.1573834691524
 20
206.6251757270614
 30
0.0000000000000008
 10
789.1887234526671
 20
206.545178868874
 30
0.0000000000000012
 10
789.227336081988
 20
206.4290953118618
 30
0.0000000000000011
 10
789.265420250952
 20
206.2740560840236
 30
0.0000000000000006
 10
789.2920236432338
 20
206.0753501819783
 30
0.0000000000000014
 10
789.2981054673668
 20
205.8700810793829
 30
0.0000000000000009
 10
789.28441247813
 20
205.6842781983247
 30
0.0000000000000013
 10
789.2590698586077
 20
205.5238045276528
 30
0.0000000000000009
 10
789.2289630785819
 20
205.3879067371958
 30
0.0000000000000016
 10
789.2016920297995
 20
205.2999176239245
 30
0.000000000000001
 10
789.1880454768686
 20
205.2558874840801
 30
0.0000000000000008
  0
SPLINE
  5
9C7
330
2
100
AcDbEntity
  8
1
  6
Continuous
 62
     7
370
    50
100
AcDbSpline
210
0.0000000000000041
220
0.0000000000000032
230
-1.0
 70
     8
 71
     3
 72
    10
 73
     6
 74
     0
 42
0.0000000001
 43
0.0000000001
 40
0.0
 40
0.0
 40
0.0
 40
0.0
 40
0.3332916640623045
 40
0.3332916640623045
 40
1.0
 40
1.0
 40
1.0
 40
1.0
 10
787.4107118381454
 20
198.1428230456746
 30
0.0000000000000008
 10
787.4124837849628
 20
198.1503202881669
 30
0.0000000000000008
 10
787.4114987505052
 20
198.1584691308541
 30
0.0000000000000007
 10
787.4001537133298
 20
198.1843763882528
 30
0.0000000000000008
 10
787.3814018765203
 20
198.2035850055921
 30
0.0000000000000008
 10
787.3520837593326
 20
198.2232405498646
 30
0.0000000000000008
  0
SPLINE
  5
9C8
330
2
100
AcDbEntity
  8
1
  6
Continuous
 62
     7
370
    50
100
AcDbSpline
210
0.0000000000003714
220
-0.0000000000000724
230
1.0
 70
     8
 71
     3
 72
     8
 73
     4
 74
     0
 42
0.0000000001
 43
0.0000000001
 40
0.0
 40
0.0
 40
0.0
 40
0.0
 40
1.0
 40
1.0
 40
1.0
 40
1.0
 10
787.3520837593326
 20
198.2232405498646
 30
0.0000000000000008
 10
787.2555938188191
 20
197.669351960035
 30
0.0000000000000006
 10
787.1482501215606
 20
197.1159226297698
 30
0.0000000000000006
 10
787.0294120637797
 20
196.5645015916038
 30
0.0000000000000005
  0
SPLINE
  5
9C9
330
2
100
AcDbEntity
  8
1
  6
Continuous
 62
     7
370
    50
100
AcDbSpline
210
0.0000000000000628
220
0.000000000000101
230
1.0
 70
     8
 71
     3
 72
     9
 73
     5
 74
     0
 42
0.0000000001
 43
0.0000000001
 40
0.0
 40
0.0
 40
0.0
 40
0.0
 40
0.5164850850174348
 40
1.0
 40
1.0
 40
1.0
 40
1.0
 10
787.3522977618222
 20
198.2233233959274
 30
0.0000000000000006
 10
787.3265024416679
 20
198.2440417768521
 30
0.0000000000000008
 10
787.2765584628336
 20
198.2841559670304
 30
0.0000000000000006
 10
787.1839805636112
 20
198.3336832410962
 30
0.0000000000000007
 10
787.1392177685394
 20
198.3576304168055
 30
0.0000000000000005
  0
SPLINE
  5
9CA
330
2
100
AcDbEntity
  8
1
  6
Continuous
 62
     7
370
    50
100
AcDbSpline
210
0.0000000000000068
220
0.0000000000000094
230
1.0
 70
     8
 71
     3
 72
     9
 73
     5
 74
     0
 42
0.0000000001
 43
0.0000000001
 40
0.0
 40
0.0
 40
0.0
 40
0.0
 40
0.3919260971286364
 40
1.0
 40
1.0
 40
1.0
 40
1.0
 10
786.7549472149926
 20
196.7377640802718
 30
0.0000000000000003
 10
786.8013201673074
 20
196.7125180392587
 30
0.0000000000000005
 10
786.9196408217742
 20
196.6481027293365
 30
0.0000000000000004
 10
786.9498643633812
 20
196.6020733527145
 30
0.0000000000000005
 10
786.9682425102845
 20
196.5740840900251
 30
0.0000000000000004
  0
SPLINE
  5
9CB
330
2
100
AcDbEntity
  8
1
  6
Continuous
 62
     7
370
    50
100
AcDbSpline
210
0.0
220
0.0
230
1.0
 70
    24
 71
     3
 72
     8
 73
     4
 74
     0
 42
0.0000000001
 43
0.0000000001
 40
0.0
 40
0.0
 40
0.0
 40
0.0
 40
1.0
 40
1.0
 40
1.0
 40
1.0
 10
786.9682425102845
 20
196.5740840900251
 30
0.0000000000000006
 10
786.9912074968952
 20
196.5705433337755
 30
0.0000000000000004
 10
787.0141724835052
 20
196.5670025775258
 30
0.0000000000000005
 10
787.0371374701156
 20
196.5634618212762
 30
0.0000000000000007
  0
SPLINE
  5
9CC
330
2
100
AcDbEntity
  8
1
  6
Continuous
 62
     7
370
    50
100
AcDbSpline
210
0.0000000000000178
220
0.0000000000000236
230
1.0
 70
     8
 71
     3
 72
     9
 73
     5
 74
     0
 42
0.0000000001
 43
0.0000000001
 40
0.0
 40
0.0
 40
0.0
 40
0.0
 40
0.4723090223325804
 40
1.0
 40
1.0
 40
1.0
 40
1.0
 10
786.806805310881
 20
196.7462390565447
 30
0.0000000000000004
 10
786.8659990006532
 20
196.7126452365393
 30
0.0000000000000003
 10
786.9913273068544
 20
196.641518456366
 30
0.0000000000000003
 10
787.0176017495873
 20
196.5909240978844
 30
0.0000000000000005
 10
787.0314665359606
 20
196.5642259113928
 30
0.0000000000000006
  0
SPLINE
  5
9CD
330
2
100
AcDbEntity
  8
1
  6
Continuous
 62
     7
370
    50
100
AcDbSpline
210
0.0000000006274782
220
-0.0000000001294416
230
1.0
 70
     8
 71
     3
 72
     8
 73
     4
 74
     0
 42
0.0000000001
 43
0.0000000001
 40
0.0
 40
0.0
 40
0.0
 40
0.0
 40
1.0
 40
1.0
 40
1.0
 40
1.0
 10
787.1392177685394
 20
198.3576304168055
 30
0.0000000000000005
 10
787.0286317543338
 20
197.8205476669517
 30
0.0000000000000006
 10
786.9178307781727
 20
197.2834151497559
 30
0.0000000000000004
 10
786.806805310881
 20
196.7462390565447
 30
0.0000000000000004
  0
SPLINE
  5
9CE
330
2
100
AcDbEntity
  8
1
  6
Continuous
 62
     7
370
    50
100
AcDbSpline
210
0.0000000000002298
220
0.0000000000005376
230
1.0
 70
     8
 71
     3
 72
     9
 73
     5
 74
     0
 42
0.0000000001
 43
0.0000000001
 40
0.0
 40
0.0
 40
0.0
 40
0.0
 40
0.5051679823565394
 40
1.0
 40
1.0
 40
1.0
 40
1.0
 10
787.1363824758715
 20
198.3569331070624
 30
0.0000000000000006
 10
787.0978830662538
 20
198.3749184561859
 30
0.0000000000000006
 10
787.0216719622996
 20
198.4105211660798
 30
0.0000000000000005
 10
786.9314009876005
 20
198.4461857151224
 30
0.0000000000000004
 10
786.8867320190553
 20
198.4638336758834
 30
0.0000000000000006
  0
SPLINE
  5
9CF
330
2
100
AcDbEntity
  8
1
  6
Continuous
 62
     7
370
    50
100
AcDbSpline
210
0.0
220
0.0
230
1.0
 70
    24
 71
     3
 72
     8
 73
     4
 74
     0
 42
0.0000000001
 43
0.0000000001
 40
0.0
 40
0.0
 40
0.0
 40
0.0
 40
1.0
 40
1.0
 40
1.0
 40
1.0
 10
786.7549493864462
 20
196.7377681298291
 30
0.0000000000000004
 10
786.7729173663287
 20
196.740744474971
 30
0.0000000000000003
 10
786.7908853462115
 20
196.7437208201131
 30
0.0000000000000004
 10
786.8088533260942
 20
196.7466971652551
 30
0.0000000000000005
  0
SPLINE
  5
9D0
330
2
100
AcDbEntity
  8
1
  6
Continuous
 62
     7
370
    50
100
AcDbSpline
210
-0.0000000000000732
220
-0.0000000000001605
230
-1.0
 70
     8
 71
     3
 72
    10
 73
     6
 74
     0
 42
0.0000000001
 43
0.0000000001
 40
0.0
 40
0.0
 40
0.0
 40
0.0
 40
0.3243842369683936
 40
0.6574288598933732
 40
1.0
 40
1.0
 40
1.0
 40
1.0
 10
786.4444395475985
 20
196.9123403670231
 30
0.0000000000000004
 10
786.4897810722736
 20
196.894868246208
 30
0.0000000000000001
 10
786.5816746462387
 20
196.8594575352109
 30
0.0000000000000004
 10
786.70639732629
 20
196.8024656775724
 30
0.0000000000000003
 10
786.7730397994603
 20
196.7652583795364
 30
0.0000000000000004
 10
786.8068308819996
 20
196.7463924098449
 30
0.0000000000000004
  0
SPLINE
  5
9D1
330
2
100
AcDbEntity
  8
1
  6
Continuous
 62
     7
370
    50
100
AcDbSpline
210
0.0000000000001532
220
0.0000000000003439
230
1.0
 70
     8
 71
     3
 72
     9
 73
     5
 74
     0
 42
0.0000000001
 43
0.0000000001
 40
0.0
 40
0.0
 40
0.0
 40
0.0
 40
0.4625116178727551
 40
1.0
 40
1.0
 40
1.0
 40
1.0
 10
786.420337235998
 20
196.8875917816953
 30
0.0000000000000003
 10
786.4798274607752
 20
196.8644449917568
 30
0.0
 10
786.6084517428007
 20
196.8143991355145
 30
0.0000000000000002
 10
786.7037354830541
 20
196.764557454383
 30
0.0000000000000004
 10
786.7549493864462
 20
196.7377681298291
 30
0.0000000000000004
  0
SPLINE
  5
9D2
330
2
100
AcDbEntity
  8
1
  6
Continuous
 62
     7
370
    50
100
AcDbSpline
210
-0.0000000000186349
220
-0.0000000000308098
230
1.0
 70
     8
 71
     3
 72
     8
 73
     4
 74
     0
 42
0.0000000001
 43
0.0000000001
 40
0.0
 40
0.0
 40
0.0
 40
0.0
 40
1.0
 40
1.0
 40
1.0
 40
1.0
 10
785.2458502857288
 20
197.1745086152981
 30
0.0000000000000004
 10
785.2279933236602
 20
197.1851771215499
 30
0.0000000000000005
 10
785.210392980937
 20
197.195823514015
 30
0.0000000000000006
 10
785.1930661825393
 20
197.206435287453
 30
0.0000000000000004
  0
SPLINE
  5
9D3
330
2
100
AcDbEntity
  8
1
  6
Continuous
 62
     7
370
    50
100
AcDbSpline
210
-0.0000000000002784
220
-0.0000000000110492
230
1.0
 70
     8
 71
     3
 72
     8
 73
     4
 74
     0
 42
0.0000000001
 43
0.0000000001
 40
0.0
 40
0.0
 40
0.0
 40
0.0
 40
1.0
 40
1.0
 40
1.0
 40
1.0
 10
785.2456164870787
 20
197.1745244672608
 30
0.0000000000000004
 10
785.3540306253147
 20
197.1716398439159
 30
0.0000000000000004
 10
785.4625121269299
 20
197.1689067441351
 30
0.0000000000000005
 10
785.5710620277713
 20
197.1663244500298
 30
0.0000000000000003
  0
SPLINE
  5
9D4
330
2
100
AcDbEntity
  8
1
  6
Continuous
 62
     7
370
    50
100
AcDbSpline
210
0.0000000004011465
220
0.0000000006443938
230
1.0
 70
     8
 71
     3
 72
     8
 73
     4
 74
     0
 42
0.0000000001
 43
0.0000000001
 40
0.0
 40
0.0
 40
0.0
 40
0.0
 40
1.0
 40
1.0
 40
1.0
 40
1.0
 10
785.5710620277473
 20
197.1663244500446
 30
0.0000000000000004
 10
785.5535329782979
 20
197.177159656783
 30
0.0000000000000004
 10
785.5360311517844
 20
197.1880548842725
 30
0.0000000000000003
 10
785.518556807075
 20
197.1990099495579
 30
0.0000000000000002
  0
SPLINE
  5
9D5
330
2
100
AcDbEntity
  8
1
  6
Continuous
 62
     7
370
    50
100
AcDbSpline
210
-0.0000000000000436
220
-0.0000000000003142
230
1.0
 70
     8
 71
     3
 72
     9
 73
     5
 74
     0
 42
0.0000000001
 43
0.0000000001
 40
0.0
 40
0.0
 40
0.0
 40
0.0
 40
0.4992643031914645
 40
1.0
 40
1.0
 40
1.0
 40
1.0
 10
785.5709070233212
 20
197.1659868209097
 30
0.0000000000000002
 10
785.5859519476072
 20
197.1651165379963
 30
0.0000000000000003
 10
785.6160861354307
 20
197.1633734073383
 30
0.0000000000000003
 10
785.6583370352288
 20
197.1552572387378
 30
0.0000000000000002
 10
785.67949356898
 20
197.1511931833981
 30
0.0
  0
SPLINE
  5
9D6
330
2
100
AcDbEntity
  8
1
  6
Continuous
 62
     7
370
    50
100
AcDbSpline
210
0.0000001158527985
220
-0.000000033026793
230
0.9999999999999927
 70
     8
 71
     3
 72
     8
 73
     4
 74
     0
 42
0.0000000001
 43
0.0000000001
 40
0.0
 40
0.0
 40
0.0
 40
0.0
 40
1.0
 40
1.0
 40
1.0
 40
1.0
 10
786.8867320190553
 20
198.4638336758834
 30
0.0000000000000006
 10
786.7393317530313
 20
197.9467010353589
 30
0.0000000000000004
 10
786.5919002167453
 20
197.4295368785961
 30
0.0000000000000003
 10
786.4444395475985
 20
196.9123403670231
 30
0.0000000000000004
  0
SPLINE
  5
9D7
330
2
100
AcDbEntity
  8
1
  6
Continuous
 62
     7
370
    50
100
AcDbSpline
210
0.0
220
0.0
230
1.0
 70
    24
 71
     1
 72
     4
 73
     2
 74
     0
 42
0.0000000001
 43
0.0000000001
 40
0.0
 40
0.0
 40
1.0
 40
1.0
 10
786.4203400499071
 20
196.8876029195234
 30
0.0000000000000004
 10
786.4447795606324
 20
196.9127193330918
 30
0.0000000000000004
  0
SPLINE
  5
9D8
330
2
100
AcDbEntity
  8
1
  6
Continuous
 62
     7
370
    50
100
AcDbSpline
210
0.0000000000000065
220
0.0000000000000694
230
1.0
 70
     8
 71
     3
 72
    10
 73
     6
 74
     0
 42
0.0000000001
 43
0.0000000001
 40
0.0
 40
0.0
 40
0.0
 40
0.0
 40
0.5
 40
0.5
 40
1.0
 40
1.0
 40
1.0
 40
1.0
 10
785.5201616036631
 20
197.1980420826269
 30
0.0000000000000003
 10
785.5366116096468
 20
197.2001849379206
 30
0.0000000000000004
 10
785.5564032229498
 20
197.2003539558791
 30
0.0000000000000001
 10
785.6010583470347
 20
197.1963722221449
 30
0.0000000000000004
 10
785.6259172051575
 20
197.1922209335666
 30
0.0000000000000003
 10
785.6523093844931
 20
197.1858871436511
 30
0.0000000000000005
  0
SPLINE
  5
9D9
330
2
100
AcDbEntity
  8
1
  6
Continuous
 62
     7
370
    50
100
AcDbSpline
210
-0.0000000000000685
220
-0.0000000000003457
230
1.0
 70
     8
 71
     3
 72
     9
 73
     5
 74
     0
 42
0.0000000001
 43
0.0000000001
 40
0.0
 40
0.0
 40
0.0
 40
0.0
 40
0.4791583915121951
 40
1.0
 40
1.0
 40
1.0
 40
1.0
 10
786.1688353585791
 20
198.7286359286147
 30
0.0000000000000006
 10
786.1463546581411
 20
198.7338684040294
 30
0.0000000000000004
 10
786.0994376034973
 20
198.7447885413105
 30
0.0000000000000007
 10
786.0619291442223
 20
198.7505550775832
 30
0.0000000000000004
 10
786.0423931779616
 20
198.7535585296108
 30
0.0000000000000007
  0
SPLINE
  5
9DA
330
2
100
AcDbEntity
  8
1
  6
Continuous
 62
     7
370
    50
100
AcDbSpline
210
0.0
220
0.0
230
1.0
 70
     8
 71
     3
 72
     8
 73
     4
 74
     0
 42
0.0000000001
 43
0.0000000001
 40
0.0
 40
0.0
 40
0.0
 40
0.0
 40
1.0
 40
1.0
 40
1.0
 40
1.0
 10
785.193065824006
 20
197.2064355070158
 30
0.0000000000000005
 10
785.4388879849298
 20
197.725873965094
 30
0.0000000000000004
 10
785.6859088634792
 20
198.2451606851528
 30
0.0000000000000005
 10
785.9342755448349
 20
198.764182170778
 30
0.0000000000000006
  0
SPLINE
  5
9DB
330
2
100
AcDbEntity
  8
1
  6
Continuous
 62
     7
370
    50
100
AcDbSpline
210
-0.0000000000000047
220
-0.0000000000001717
230
1.0
 70
     8
 71
     3
 72
     8
 73
     4
 74
     0
 42
0.0000000001
 43
0.0000000001
 40
0.0
 40
0.0
 40
0.0
 40
0.0
 40
1.0
 40
1.0
 40
1.0
 40
1.0
 10
785.1956054451497
 20
197.2048145826829
 30
0.0000000000000004
 10
785.2997193709041
 20
197.204922681848
 30
0.0000000000000005
 10
785.4090950193173
 20
197.2019833213766
 30
0.0000000000000005
 10
785.5234365056046
 20
197.1958648570837
 30
0.0000000000000002
  0
SPLINE
  5
9DC
330
2
100
AcDbEntity
  8
1
  6
Continuous
 62
     7
370
    50
100
AcDbSpline
210
0.0000000000173037
220
-0.0000000000058101
230
1.0
 70
     8
 71
     3
 72
     8
 73
     4
 74
     0
 42
0.0000000001
 43
0.0000000001
 40
0.0
 40
0.0
 40
0.0
 40
0.0
 40
1.0
 40
1.0
 40
1.0
 40
1.0
 10
786.0423931779616
 20
198.7535585296108
 30
0.0000000000000007
 10
785.8661022167957
 20
198.2366593712234
 30
0.0000000000000005
 10
785.6918465036398
 20
197.7181097556202
 30
0.0000000000000004
 10
785.5201615216322
 20
197.1980420719411
 30
0.0000000000000002
  0
SPLINE
  5
9DD
330
2
100
AcDbEntity
  8
1
  6
Continuous
 62
     7
370
    50
100
AcDbSpline
210
0.0000000000000689
220
0.0000000000015639
230
1.0
 70
     8
 71
     3
 72
     8
 73
     4
 74
     0
 42
0.0000000001
 43
0.0000000001
 40
0.0
 40
0.0
 40
0.0
 40
0.0
 40
1.0
 40
1.0
 40
1.0
 40
1.0
 10
786.0389400161425
 20
198.7559519171689
 30
0.0000000000000006
 10
786.0057797653743
 20
198.7576447605473
 30
0.0000000000000004
 10
785.9729952291607
 20
198.759086886637
 30
0.0000000000000006
 10
785.9405932152257
 20
198.7602808929862
 30
0.0000000000000005
  0
SPLINE
  5
9DE
330
2
100
AcDbEntity
  8
1
  6
Continuous
 62
     7
370
    50
100
AcDbSpline
210
-0.0000000000495009
220
0.0000000000167196
230
-1.0
 70
     8
 71
     3
 72
     8
 73
     4
 74
     0
 42
0.0000000001
 43
0.0000000001
 40
0.0
 40
0.0
 40
0.0
 40
0.0
 40
1.0
 40
1.0
 40
1.0
 40
1.0
 10
786.1693584716476
 20
198.7265100072539
 30
0.0000000000000005
 10
786.0711751080929
 20
198.4378408782915
 30
0.0000000000000004
 10
785.9732049600802
 20
198.1481474266466
 30
0.0000000000000004
 10
785.8758438854748
 20
197.8573854449734
 30
0.0000000000000003
  0
SPLINE
  5
9DF
330
2
100
AcDbEntity
  8
1
  6
Continuous
 62
     7
370
    50
100
AcDbSpline
210
0.0
220
0.0
230
1.0
 70
     8
 71
     3
 72
     8
 73
     4
 74
     0
 42
0.0000000001
 43
0.0000000001
 40
0.0
 40
0.0
 40
0.0
 40
0.0
 40
1.0
 40
1.0
 40
1.0
 40
1.0
 10
785.8758438854748
 20
197.8573854449734
 30
0.0000000000000003
 10
785.8010594137275
 20
197.6340652300751
 30
0.0000000000000001
 10
785.7266344712874
 20
197.4101149831168
 30
0.0000000000000002
 10
785.6527397832479
 20
197.1855308332319
 30
0.0000000000000003
  0
SPLINE
  5
9E0
330
2
100
AcDbEntity
  8
1
  6
Continuous
 62
     7
370
    50
100
AcDbSpline
210
0.0
220
0.0
230
1.0
 70
    24
 71
     1
 72
     4
 73
     2
 74
     0
 42
0.0000000001
 43
0.0000000001
 40
0.0
 40
0.0
 40
1.0
 40
1.0
 10
786.3074913780811
 20
198.6825159136664
 30
0.0000000000000007
 10
785.8962124338379
 20
197.1203479520831
 30
0.0000000000000004
  0
SPLINE
  5
9E1
330
2
100
AcDbEntity
  8
1
  6
Continuous
 62
     7
370
    50
100
AcDbSpline
210
0.000000000000012
220
0.000000000000038
230
-1.0
 70
     8
 71
     3
 72
    10
 73
     6
 74
     0
 42
0.0000000001
 43
0.0000000001
 40
0.0
 40
0.0
 40
0.0
 40
0.0
 40
0.4999999999999997
 40
0.4999999999999997
 40
1.0
 40
1.0
 40
1.0
 40
1.0
 10
786.3076779705971
 20
198.6827334160951
 30
0.0000000000000006
 10
786.2855792843697
 20
198.6922161621593
 30
0.0000000000000005
 10
786.2626385269926
 20
198.7007160678198
 30
0.0000000000000006
 10
786.2161627900982
 20
198.7154065357401
 30
0.0000000000000005
 10
786.1926295561167
 20
198.7215966401587
 30
0.0000000000000006
 10
786.1693598043333
 20
198.7265139254864
 30
0.0000000000000006
  0
SPLINE
  5
9E2
330
2
100
AcDbEntity
  8
1
  6
Continuous
 62
     7
370
    50
100
AcDbSpline
210
0.0
220
0.0
230
1.0
 70
    24
 71
     3
 72
     8
 73
     4
 74
     0
 42
0.0000000001
 43
0.0000000001
 40
0.0
 40
0.0
 40
0.0
 40
0.0
 40
1.0
 40
1.0
 40
1.0
 40
1.0
 10
785.872705517756
 20
197.0948757871972
 30
0.0000000000000003
 10
785.8805539791598
 20
197.1034143236499
 30
0.0000000000000003
 10
785.8884024405638
 20
197.1119528601026
 30
0.0000000000000005
 10
785.8962509019675
 20
197.1204913965553
 30
0.0000000000000003
  0
SPLINE
  5
9E3
330
2
100
AcDbEntity
  8
1
  6
Continuous
 62
     7
370
    50
100
AcDbSpline
210
0.0000000000000067
220
0.0000000000000249
230
1.0
 70
     8
 71
     3
 72
     9
 73
     5
 74
     0
 42
0.0000000001
 43
0.0000000001
 40
0.0
 40
0.0
 40
0.0
 40
0.0
 40
0.5146641449284407
 40
1.0
 40
1.0
 40
1.0
 40
1.0
 10
785.6527397832479
 20
197.1855308332319
 30
0.0000000000000001
 10
785.6929371080918
 20
197.1779739927604
 30
0.0000000000000002
 10
785.7710411012292
 20
197.1632909406263
 30
0.0000000000000002
 10
785.8551851166388
 20
197.1342317681598
 30
0.0000000000000003
 10
785.8960232243065
 20
197.1201283098432
 30
0.0000000000000001
  0
SPLINE
  5
9E4
330
2
100
AcDbEntity
  8
1
  6
Continuous
 62
     7
370
    50
100
AcDbSpline
210
-0.0000000000045517
220
-0.0000000000035766
230
1.0
 70
     8
 71
     3
 72
     8
 73
     4
 74
     0
 42
0.0000000001
 43
0.0000000001
 40
0.0
 40
0.0
 40
0.0
 40
0.0
 40
1.0
 40
1.0
 40
1.0
 40
1.0
 10
785.6794935683313
 20
197.1511931841743
 30
0.0000000000000003
 10
785.6699732578679
 20
197.1625914728193
 30
0.0000000000000002
 10
785.6606654895573
 20
197.1744445834885
 30
0.0000000000000002
 10
785.6515667031012
 20
197.1867427833628
 30
0.0000000000000004
  0
SPLINE
  5
9E5
330
2
100
AcDbEntity
  8
1
  6
Continuous
 62
     7
370
    50
100
AcDbSpline
210
-0.0000000000000227
220
-0.0000000000000785
230
-1.0
 70
     8
 71
     3
 72
     9
 73
     5
 74
     0
 42
0.0000000001
 43
0.0000000001
 40
0.0
 40
0.0
 40
0.0
 40
0.0
 40
0.5603025560718153
 40
1.0
 40
1.0
 40
1.0
 40
1.0
 10
785.6792874182993
 20
197.1507534575085
 30
0.0000000000000001
 10
785.7141746947514
 20
197.1429026174394
 30
0.0000000000000002
 10
785.776439762212
 20
197.1288908304433
 30
0.0000000000000001
 10
785.8433051676415
 20
197.1052644578838
 30
0.0000000000000003
 10
785.8727057154961
 20
197.0948760022601
 30
0.0000000000000001
  0
SPLINE
  5
9E6
330
2
100
AcDbEntity
  8
1
  6
Continuous
 62
     7
370
    50
100
AcDbSpline
210
0.0000000000000001
220
-0.0000000000000002
230
1.0
 70
     8
 71
     3
 72
    23
 73
    19
 74
     0
 42
0.0000000001
 43
0.0000000001
 40
0.0
 40
0.0
 40
0.0
 40
0.0
 40
0.0308594917604066
 40
0.0615612972726419
 40
0.0923983482265667
 40
0.1236597746927088
 40
0.1863713047883315
 40
0.2491604951108783
 40
0.372168853028703
 40
0.4952120741517505
 40
0.5261772437950421
 40
0.5575660181301513
 40
0.6207947045615116
 40
0.7464831830788611
 40
0.8103566593162
 40
0.8742432845722161
 40
0.9374126269734237
 40
1.0
 40
1.0
 40
1.0
 40
1.0
 10
784.9314601229752
 20
192.5682272830049
 30
0.0
 10
784.9183981039876
 20
192.5736354757382
 30
-0.0000000000000002
 10
784.8923408104933
 20
192.5844242263483
 30
0.0
 10
784.8548796806753
 20
192.6053725242486
 30
-0.0000000000000001
 10
784.8189864343822
 20
192.6297011278553
 30
0.0
 10
784.7736130201309
 20
192.6668480884058
 30
-0.0000000000000001
 10
784.722598368734
 20
192.7210596931072
 30
-0.0000000000000002
 10
784.6592927271842
 20
192.8203738298591
 30
-0.0000000000000003
 10
784.6157418690447
 20
192.9621379731002
 30
0.0000000000000001
 10
784.6289461973524
 20
193.0940991823283
 30
-0.0000000000000003
 10
784.6590649590467
 20
193.1748695418956
 30
0.0
 10
784.685109677826
 20
193.227189834333
 30
0.0000000000000002
 10
784.7441008831747
 20
193.3116658848429
 30
-0.0000000000000002
 10
784.840781995625
 20
193.3848701282636
 30
-0.0000000000000001
 10
784.951558453168
 20
193.4261906642257
 30
0.0
 10
785.039373167212
 20
193.4389882234314
 30
0.0000000000000001
 10
785.1274127664003
 20
193.4355433524111
 30
-0.0000000000000001
 10
785.182404151785
 20
193.4181852561592
 30
0.0000000000000002
 10
785.2097726015622
 20
193.4095463724108
 30
0.0000000000000001
  0
SPLINE
  5
9E7
330
2
100
AcDbEntity
  8
1
  6
Continuous
 62
     7
370
    50
100
AcDbSpline
210
0.0
220
0.0
230
1.0
 70
     8
 71
     3
 72
    24
 73
    20
 74
     0
 42
0.0000000001
 43
0.0000000001
 40
0.0
 40
0.0
 40
0.0
 40
0.0
 40
0.0299258474607747
 40
0.0597061869177281
 40
0.0896083530605921
 40
0.1198964549237073
 40
0.1808115444705341
 40
0.2417964683441694
 40
0.3604340387165259
 40
0.4797401412625454
 40
0.5107033682026652
 40
0.5425683335326325
 40
0.6079572809469941
 40
0.6734831901082427
 40
0.7398969182642473
 40
0.8053718113184839
 40
0.8708430795086925
 40
0.9356767703531827
 40
1.0
 40
1.0
 40
1.0
 40
1.0
 10
785.2097726015622
 20
193.4095463724108
 30
0.0000000000000001
 10
785.2223920019618
 20
193.4042925919945
 30
-0.0000000000000001
 10
785.2475694436381
 20
193.3938105765403
 30
-0.0000000000000001
 10
785.2830519028238
 20
193.3733932861159
 30
-0.0000000000000001
 10
785.3165466031703
 20
193.3496472067596
 30
0.0
 10
785.3582241419732
 20
193.3132887975316
 30
0.0
 10
785.4038625779152
 20
193.2600742159513
 30
-0.0000000000000001
 10
785.4583300638245
 20
193.1627222293956
 30
-0.0000000000000001
 10
785.4930668708235
 20
193.0237914348492
 30
-0.0000000000000001
 10
785.4806784819243
 20
192.893961751143
 30
0.0000000000000002
 10
785.4549600832142
 20
192.8131106634696
 30
0.0
 10
785.4318923769786
 20
192.7586317799315
 30
0.0000000000000001
 10
785.393738151636
 20
192.6950193813814
 30
0.0000000000000002
 10
785.3344259061231
 20
192.6307788217343
 30
-0.0000000000000001
 10
785.2640172421687
 20
192.5823277206592
 30
-0.0000000000000002
 10
785.1854197593145
 20
192.5502401520555
 30
-0.0000000000000002
 10
785.1016114443077
 20
192.5375344774997
 30
0.0
 10
785.0153537842065
 20
192.5413872039036
 30
-0.0000000000000001
 10
784.9593508974732
 20
192.5593041941478
 30
0.0
 10
784.9314601229752
 20
192.5682272830049
 30
0.0
  0
SPLINE
  5
9E8
330
2
100
AcDbEntity
  8
1
  6
Continuous
 62
     7
370
    50
100
AcDbSpline
210
0.000000000000001
220
0.0000000000000065
230
1.0
 70
     8
 71
     3
 72
    11
 73
     7
 74
     0
 42
0.0000000001
 43
0.0000000001
 40
0.0
 40
0.0
 40
0.0
 40
0.0
 40
0.2625713974223881
 40
0.5240643331161036
 40
0.7871406329204053
 40
1.0
 40
1.0
 40
1.0
 40
1.0
 10
785.0238375265822
 20
193.3599192586665
 30
0.0000000000000002
 10
785.0100059391238
 20
193.3647324692404
 30
0.0
 10
784.9823995748031
 20
193.3743391210476
 30
0.0
 10
784.9389526008459
 20
193.3830151160374
 30
0.0000000000000002
 10
784.8974984260014
 20
193.3870301703659
 30
0.0
 10
784.8705225507996
 20
193.3870659423697
 30
0.0000000000000001
 10
784.8584503401443
 20
193.3865954659541
 30
0.0000000000000001
  0
SPLINE
  5
9E9
330
2
100
AcDbEntity
  8
1
  6
Continuous
 62
     7
370
    50
100
AcDbSpline
210
-0.0000000000000002
220
-0.0000000000000002
230
1.0
 70
     8
 71
     3
 72
    17
 73
    13
 74
     0
 42
0.0000000001
 43
0.0000000001
 40
0.0
 40
0.0
 40
0.0
 40
0.0
 40
0.1657837012792965
 40
0.2545063214538005
 40
0.2975829821117196
 40
0.3394030962503808
 40
0.5013564359101794
 40
0.6647720702310708
 40
0.7494891299902964
 40
0.8339226211723689
 40
0.9174425222177939
 40
1.0
 40
1.0
 40
1.0
 40
1.0
 10
785.0822548465067
 20
192.5402603547867
 30
0.0
 10
785.1255935147909
 20
192.566153994705
 30
0.0000000000000001
 10
785.1851884598477
 20
192.6204007102391
 30
0.0000000000000002
 10
785.2350473472685
 20
192.7049607435979
 30
0.0000000000000001
 10
785.2578821381245
 20
192.7588552922201
 30
-0.0000000000000001
 10
785.2838280766603
 20
192.8390974597935
 30
0.0000000000000001
 10
785.2984386229421
 20
192.9692402009942
 30
0.0000000000000002
 10
785.2682554222402
 20
193.1082231444867
 30
0.0000000000000003
 10
785.2170397652381
 20
193.2070091077799
 30
0.0000000000000001
 10
785.1638821951446
 20
193.2718304213949
 30
0.0000000000000002
 10
785.0997027199589
 20
193.3254802739998
 30
0.0000000000000003
 10
785.0490280372853
 20
193.3484840329293
 30
0.0000000000000001
 10
785.0238375265822
 20
193.3599192586665
 30
0.0000000000000002
  0
LINE
  5
A7F
330
2
100
AcDbEntity
  8
1
  6
Continuous
 62
     7
370
    50
100
AcDbLine
 10
798.3429780341572
 20
222.836890219433
 30
0.0
 11
798.3429780341572
 21
222.986888678153
 31
0.0
  0
LINE
  5
A80
330
2
100
AcDbEntity
  8
1
  6
Continuous
 62
     7
370
    50
100
AcDbLine
 10
798.3429780341572
 20
222.986888678153
 30
0.0
 11
799.8429822725729
 21
222.986888678153
 31
0.0
  0
LINE
  5
A81
330
2
100
AcDbEntity
  8
1
  6
Continuous
 62
     7
370
    50
100
AcDbLine
 10
799.8429822725729
 20
222.986888678153
 30
0.0
 11
799.8429822725729
 21
222.511888419508
 31
0.0
  0
LINE
  5
A82
330
2
100
AcDbEntity
  8
1
  6
Continuous
 62
     7
370
    50
100
AcDbLine
 10
799.8429822725729
 20
222.511888419508
 30
0.0
 11
801.8015663470418
 21
222.511888419508
 31
0.0
  0
LINE
  5
A83
330
2
100
AcDbEntity
  8
1
  6
Continuous
 62
     7
370
    50
100
AcDbLine
 10
802.2697579609609
 20
219.961888129872
 30
0.0
 11
799.8429822725729
 21
219.961888129872
 31
0.0
  0
LINE
  5
A84
330
2
100
AcDbEntity
  8
1
  6
Continuous
 62
     7
370
    50
100
AcDbLine
 10
799.8429822725729
 20
219.961888129872
 30
0.0
 11
799.8429822725729
 21
219.486887871227
 31
0.0
  0
LINE
  5
A85
330
2
100
AcDbEntity
  8
1
  6
Continuous
 62
     7
370
    50
100
AcDbLine
 10
799.8429822725729
 20
219.486887871227
 30
0.0
 11
798.3429780341572
 21
219.486887871227
 31
0.0
  0
LINE
  5
A86
330
2
100
AcDbEntity
  8
1
  6
Continuous
 62
     7
370
    50
100
AcDbLine
 10
798.3429780341572
 20
219.486887871227
 30
0.0
 11
798.3429780341572
 21
219.636886329947
 31
0.0
  0
LINE
  5
A87
330
2
100
AcDbEntity
  8
1
  6
Continuous
 62
     7
370
    50
100
AcDbLine
 10
798.3429780341572
 20
219.636886329947
 30
0.0
 11
794.3429800828782
 21
219.636886329947
 31
0.0
  0
LINE
  5
A88
330
2
100
AcDbEntity
  8
1
  6
Continuous
 62
     7
370
    50
100
AcDbLine
 10
794.3429800828782
 20
219.636886329947
 30
0.0
 11
794.3429800828782
 21
219.48688827469
 31
0.0
  0
LINE
  5
A89
330
2
100
AcDbEntity
  8
1
  6
Continuous
 62
     7
370
    50
100
AcDbLine
 10
794.3429800828782
 20
219.48688827469
 30
0.0
 11
793.3429800828783
 21
219.48688827469
 31
0.0
  0
LINE
  5
A8A
330
2
100
AcDbEntity
  8
1
  6
Continuous
 62
     7
370
    50
100
AcDbLine
 10
793.3429800828783
 20
219.48688827469
 30
0.0
 11
793.3429800828783
 21
219.58688827469
 31
0.0
  0
LINE
  5
A8B
330
2
100
AcDbEntity
  8
1
  6
Continuous
 62
     7
370
    50
100
AcDbLine
 10
793.3429800828783
 20
219.58688827469
 30
0.0
 11
793.8548550828783
 21
220.11188827469
 31
0.0
  0
LINE
  5
A8C
330
2
100
AcDbEntity
  8
1
  6
Continuous
 62
     7
370
    50
100
AcDbLine
 10
793.8548550828783
 20
220.11188827469
 30
0.0
 11
795.7429780341562
 21
220.11188827469
 31
0.0
  0
LINE
  5
A8D
330
2
100
AcDbEntity
  8
1
  6
Continuous
 62
     7
370
    50
100
AcDbLine
 10
795.7429780341562
 20
220.11188827469
 30
0.0
 11
799.3641662064143
 21
220.11188827469
 31
0.0
  0
LINE
  5
A8E
330
2
100
AcDbEntity
  8
1
  6
Continuous
 62
     7
370
    50
100
AcDbLine
 10
799.3641662064143
 20
220.11188827469
 30
0.0
 11
800.0136852592527
 21
221.23688827469
 31
0.0
  0
LINE
  5
A8F
330
2
100
AcDbEntity
  8
1
  6
Continuous
 62
     7
370
    50
100
AcDbLine
 10
800.0136852592527
 20
221.23688827469
 30
0.0
 11
799.3641662064143
 21
222.36188827469
 31
0.0
  0
LINE
  5
A90
330
2
100
AcDbEntity
  8
1
  6
Continuous
 62
     7
370
    50
100
AcDbLine
 10
802.8429780341562
 20
222.511888419508
 30
0.0
 11
802.8429780341562
 21
219.961888129872
 31
0.0
  0
LINE
  5
A91
330
2
100
AcDbEntity
  8
1
  6
Continuous
 62
     7
370
    50
100
AcDbLine
 10
801.8015576304829
 20
222.511888419508
 30
0.0
 11
802.8429780341562
 21
222.511888419508
 31
0.0
  0
LINE
  5
A92
330
2
100
AcDbEntity
  8
1
  6
Continuous
 62
     7
370
    50
100
AcDbLine
 10
802.8429780341562
 20
219.961888129872
 30
0.0
 11
802.2697444690248
 21
219.961888129872
 31
0.0
  0
LINE
  5
A93
330
2
100
AcDbEntity
  8
1
  6
Continuous
 62
     7
370
    50
100
AcDbLine
 10
803.0929787164652
 20
221.0944543187838
 30
0.0
 11
803.0929787164646
 21
221.6962886100803
 31
0.0
  0
LINE
  5
A94
330
2
100
AcDbEntity
  8
1
  6
Continuous
 62
     7
370
    50
100
AcDbLine
 10
803.1134279786861
 20
221.0964384761499
 30
0.0
 11
803.1134341498612
 21
221.6992986827963
 31
0.0
  0
LINE
  5
A95
330
2
100
AcDbEntity
  8
1
  6
Continuous
 62
     7
370
    50
100
AcDbLine
 10
803.0934477583809
 20
220.1821690748433
 30
0.0
 11
803.8711181504108
 21
220.1834067608928
 31
0.0
  0
LINE
  5
A96
330
2
100
AcDbEntity
  8
1
  6
Continuous
 62
     7
370
    50
100
AcDbLine
 10
802.8429780341562
 20
220.33688827469
 30
0.0
 11
803.0928530341562
 21
220.33688827469
 31
0.0
  0
LINE
  5
A97
330
2
100
AcDbEntity
  8
1
  6
Continuous
 62
     7
370
    50
100
AcDbLine
 10
804.8429780341562
 20
222.13688827469
 30
0.0
 11
803.4856967841561
 21
222.13688827469
 31
0.0
  0
LINE
  5
A98
330
2
100
AcDbEntity
  8
1
  6
Continuous
 62
     7
370
    50
100
AcDbLine
 10
803.0952905341562
 20
222.13688827469
 30
0.0
 11
802.8429780341562
 21
222.13688827469
 31
0.0
  0
LINE
  5
A99
330
2
100
AcDbEntity
  8
1
  6
Continuous
 62
     7
370
    50
100
AcDbLine
 10
803.0922212955896
 20
220.260848765594
 30
0.0
 11
803.0937328656852
 21
220.2094919582817
 31
0.0
  0
LINE
  5
A9A
330
2
100
AcDbEntity
  8
1
  6
Continuous
 62
     7
370
    50
100
AcDbLine
 10
803.0946688730134
 20
220.1825528028838
 30
0.0
 11
803.4380963031567
 21
220.1871682336992
 31
0.0
  0
LINE
  5
A9B
330
2
100
AcDbEntity
  8
1
  6
Continuous
 62
     7
370
    50
100
AcDbLine
 10
806.8429780341562
 20
221.0340673671703
 30
0.0
 11
806.8429780341562
 21
221.23688827469
 31
0.0
  0
LINE
  5
A9C
330
2
100
AcDbEntity
  8
1
  6
Continuous
 62
     7
370
    50
100
AcDbLine
 10
804.8429780341562
 20
222.46188827469
 30
0.0
 11
806.8429780341562
 21
222.46188827469
 31
0.0
  0
LINE
  5
A9D
330
2
100
AcDbEntity
  8
1
  6
Continuous
 62
     7
370
    50
100
AcDbLine
 10
804.8429780341562
 20
222.46188827469
 30
0.0
 11
804.8429780341562
 21
220.01188827469
 31
0.0
  0
LINE
  5
A9E
330
2
100
AcDbEntity
  8
1
  6
Continuous
 62
     7
370
    50
100
AcDbLine
 10
814.8429780341562
 20
220.01188827469
 30
0.0
 11
804.8429780341562
 21
220.01188827469
 31
0.0
  0
LINE
  5
A9F
330
2
100
AcDbEntity
  8
1
  6
Continuous
 62
     7
370
    50
100
AcDbLine
 10
814.8429780341562
 20
220.01188827469
 30
0.0
 11
814.8429780341562
 21
222.46188827469
 31
0.0
  0
LINE
  5
AA0
330
2
100
AcDbEntity
  8
1
  6
Continuous
 62
     7
370
    50
100
AcDbLine
 10
814.3429780341463
 20
222.461888274689
 30
0.0
 11
814.8429780341562
 21
222.4618882746895
 31
0.0
  0
LINE
  5
AA1
330
2
100
AcDbEntity
  8
1
  6
Continuous
 62
     7
370
    50
100
AcDbLine
 10
806.8429780341562
 20
221.0340673671703
 30
0.0
 11
812.0867300018863
 21
221.0340673671701
 31
0.0
  0
LINE
  5
AA2
330
2
100
AcDbEntity
  8
1
  6
Continuous
 62
     7
370
    50
100
AcDbLine
 10
806.8429780341562
 20
222.46188827469
 30
0.0
 11
806.8429780341562
 21
221.23688827469
 31
0.0
  0
LINE
  5
AA3
330
2
100
AcDbEntity
  8
1
  6
Continuous
 62
     7
370
    50
100
AcDbLine
 10
812.4544335759535
 20
221.23688827469
 30
0.0
 11
806.842978034153
 21
221.23688827469
 31
0.0
  0
LINE
  5
AA4
330
2
100
AcDbEntity
  8
1
  6
Continuous
 62
     7
370
    50
100
AcDbLine
 10
803.0922297438634
 20
220.2607806699513
 30
0.0
 11
803.0937449949851
 21
220.2093216885553
 31
0.0
  0
LINE
  5
AA5
330
2
100
AcDbEntity
  8
1
  6
Continuous
 62
     7
370
    50
100
AcDbLine
 10
803.093805833063
 20
220.1830281294942
 30
0.0
 11
803.0946535124837
 21
220.1825631825828
 31
0.0
  0
LINE
  5
AA6
330
2
100
AcDbEntity
  8
1
  6
Continuous
 62
     7
370
    50
100
AcDbLine
 10
803.1421073079894
 20
220.1831994578415
 30
0.0
 11
803.4401810111255
 21
220.187205703634
 31
0.0
  0
LINE
  5
AA7
330
2
100
AcDbEntity
  8
1
  6
Continuous
 62
     7
370
    50
100
AcDbLine
 10
803.0929168717499
 20
220.2526398935122
 30
0.0
 11
803.0929823200272
 21
220.2349919581955
 31
0.0
  0
LINE
  5
AA8
330
2
100
AcDbEntity
  8
1
  6
Continuous
 62
     7
370
    50
100
AcDbLine
 10
803.093133307949
 20
220.1942785097334
 30
0.0
 11
803.093150174447
 21
220.1897305082887
 31
0.0
  0
LINE
  5
AA9
330
2
100
AcDbEntity
  8
1
  6
Continuous
 62
     7
370
    50
100
AcDbLine
 10
793.3429800828783
 20
222.88688827469
 30
0.0
 11
793.3429800828783
 21
219.58688827469
 31
0.0
  0
LINE
  5
AAA
330
2
100
AcDbEntity
  8
1
  6
Continuous
 62
     7
370
    50
100
AcDbLine
 10
793.8548550828783
 20
220.11188827469
 30
0.0
 11
793.8548550828783
 21
222.36188827469
 31
0.0
  0
LINE
  5
AAB
330
2
100
AcDbEntity
  8
1
  6
Continuous
 62
     7
370
    50
100
AcDbLine
 10
799.3641662064143
 20
220.11188827469
 30
0.0
 11
799.3641662064143
 21
222.36188827469
 31
0.0
  0
LINE
  5
AAC
330
2
100
AcDbEntity
  8
1
  6
Continuous
 62
     7
370
    50
100
AcDbLine
 10
799.3641662064143
 20
222.36188827469
 30
0.0
 11
793.8548550828783
 21
222.36188827469
 31
0.0
  0
LINE
  5
AAD
330
2
100
AcDbEntity
  8
1
  6
Continuous
 62
     7
370
    50
100
AcDbLine
 10
793.8548550828783
 20
222.36188827469
 30
0.0
 11
793.3429800828783
 21
222.88688827469
 31
0.0
  0
LINE
  5
AAE
330
2
100
AcDbEntity
  8
1
  6
Continuous
 62
     7
370
    50
100
AcDbLine
 10
793.3429800828783
 20
222.88688827469
 30
0.0
 11
793.3429800828783
 21
222.98688827469
 31
0.0
  0
LINE
  5
AAF
330
2
100
AcDbEntity
  8
1
  6
Continuous
 62
     7
370
    50
100
AcDbLine
 10
793.3429800828783
 20
222.98688827469
 30
0.0
 11
794.3429800828782
 21
222.98688827469
 31
0.0
  0
LINE
  5
AB0
330
2
100
AcDbEntity
  8
1
  6
Continuous
 62
     7
370
    50
100
AcDbLine
 10
794.3429800828782
 20
222.98688827469
 30
0.0
 11
794.3429800828782
 21
222.836890219433
 31
0.0
  0
LINE
  5
AB1
330
2
100
AcDbEntity
  8
1
  6
Continuous
 62
     7
370
    50
100
AcDbLine
 10
794.3429800828782
 20
222.836890219433
 30
0.0
 11
798.3429780341572
 21
222.836890219433
 31
0.0
  0
ARC
  5
AB2
330
2
100
AcDbEntity
  8
1
  6
Continuous
 62
     7
370
    50
100
AcDbCircle
 10
832.7380888182561
 20
717.4555459053898
 30
0.0
 40
495.6705335777
100
AcDbArc
 50
267.0053570139967
 51
267.7716800142907
  0
SPLINE
  5
AB3
330
2
100
AcDbEntity
  8
1
  6
Continuous
 62
     7
370
    50
100
AcDbSpline
210
0.0
220
0.0
230
1.0
 70
     8
 71
     3
 72
     8
 73
     4
 74
     0
 42
0.0000000001
 43
0.0000000001
 40
0.0
 40
0.0
 40
0.0
 40
0.0
 40
1.0
 40
1.0
 40
1.0
 40
1.0
 10
803.0929590017686
 20
222.1168129932274
 30
0.0
 10
803.095565472044
 20
222.139312353516
 30
0.0
 10
803.0981508863932
 20
222.1616879860967
 30
0.0
 10
803.1007106639851
 20
222.183917552846
 30
0.0
  0
SPLINE
  5
AB4
330
2
100
AcDbEntity
  8
1
  6
Continuous
 62
     7
370
    50
100
AcDbSpline
210
0.0
220
0.0
230
1.0
 70
     8
 71
     3
 72
     8
 73
     4
 74
     0
 42
0.0000000001
 43
0.0000000001
 40
0.0
 40
0.0
 40
0.0
 40
0.0
 40
1.0
 40
1.0
 40
1.0
 40
1.0
 10
803.0929734141686
 20
222.1169253279608
 30
0.0
 10
803.0928599461894
 20
222.0629055792703
 30
0.0
 10
803.0929157266411
 20
222.0088676105064
 30
0.0
 10
803.0931405748029
 20
221.9548099907473
 30
0.0
  0
SPLINE
  5
AB5
330
2
100
AcDbEntity
  8
1
  6
Continuous
 62
     7
370
    50
100
AcDbSpline
210
0.0
220
0.0
230
1.0
 70
     8
 71
     3
 72
     8
 73
     4
 74
     0
 42
0.0000000001
 43
0.0000000001
 40
0.0
 40
0.0
 40
0.0
 40
0.0
 40
1.0
 40
1.0
 40
1.0
 40
1.0
 10
803.1007107169342
 20
222.183918012822
 30
0.0
 10
803.6816091350742
 20
222.1136769338954
 30
0.0
 10
804.2623951994736
 20
222.0427957292037
 30
0.0
 10
804.8430277078004
 20
221.9710740841029
 30
0.0
  0
SPLINE
  5
AB6
330
2
100
AcDbEntity
  8
1
  6
Continuous
 62
     7
370
    50
100
AcDbSpline
210
0.0
220
0.0
230
1.0
 70
     8
 71
     3
 72
     8
 73
     4
 74
     0
 42
0.0000000001
 43
0.0000000001
 40
0.0
 40
0.0
 40
0.0
 40
0.0
 40
1.0
 40
1.0
 40
1.0
 40
1.0
 10
803.1003657533531
 20
222.1805043209043
 30
0.0
 10
803.1012780187481
 20
222.1320463600325
 30
0.0
 10
803.1015011260057
 20
222.0770079685301
 30
0.0
 10
803.1008803910145
 20
222.0155239401551
 30
0.0
  0
SPLINE
  5
AB7
330
2
100
AcDbEntity
  8
1
  6
Continuous
 62
     7
370
    50
100
AcDbSpline
210
0.0
220
0.0
230
1.0
 70
     8
 71
     3
 72
     8
 73
     4
 74
     0
 42
0.0000000001
 43
0.0000000001
 40
0.0
 40
0.0
 40
0.0
 40
0.0
 40
1.0
 40
1.0
 40
1.0
 40
1.0
 10
803.0931405748068
 20
221.9548099907779
 30
0.0
 10
803.0959361798345
 20
221.9771696991073
 30
0.0
 10
803.0987990739149
 20
221.9995215863262
 30
0.0
 10
803.101729208644
 20
222.0218652934941
 30
0.0
  0
SPLINE
  5
AB8
330
2
100
AcDbEntity
  8
1
  6
Continuous
 62
     7
370
    50
100
AcDbSpline
210
0.0
220
0.0
230
1.0
 70
     8
 71
     3
 72
     9
 73
     5
 74
     0
 42
0.0000000001
 43
0.0000000001
 40
0.0
 40
0.0
 40
0.0
 40
0.0
 40
0.4991997263566046
 40
1.0
 40
1.0
 40
1.0
 40
1.0
 10
803.0927620796791
 20
221.9547868505279
 30
0.0
 10
803.0928193125957
 20
221.9464068261546
 30
0.0
 10
803.0929339725702
 20
221.9295977740158
 30
0.0
 10
803.0930564601366
 20
221.8965033154108
 30
0.0
 10
803.0931178067827
 20
221.8799195329554
 30
0.0
  0
SPLINE
  5
AB9
330
2
100
AcDbEntity
  8
1
  6
Continuous
 62
     7
370
    50
100
AcDbSpline
210
0.0
220
0.0
230
1.0
 70
     8
 71
     3
 72
     8
 73
     4
 74
     0
 42
0.0000000001
 43
0.0000000001
 40
0.0
 40
0.0
 40
0.0
 40
0.0
 40
1.0
 40
1.0
 40
1.0
 40
1.0
 10
804.8428090172821
 20
221.9041638725415
 30
0.0
 10
804.26285971145
 20
221.9457506423329
 30
0.0
 10
803.682354202208
 20
221.9844092176852
 30
0.0
 10
803.1014798342917
 20
222.0198497818254
 30
0.0
  0
SPLINE
  5
ABA
330
2
100
AcDbEntity
  8
1
  6
Continuous
 62
     7
370
    50
100
AcDbSpline
210
0.0
220
0.0
230
1.0
 70
     8
 71
     3
 72
    10
 73
     6
 74
     0
 42
0.0000000001
 43
0.0000000001
 40
0.0
 40
0.0
 40
0.0
 40
0.0
 40
0.5
 40
0.5
 40
1.0
 40
1.0
 40
1.0
 40
1.0
 10
803.1014798463417
 20
222.0198497452515
 30
0.0
 10
803.1038963382512
 20
222.0125154409008
 30
0.0
 10
803.1058330383583
 20
222.0009976837953
 30
0.0
 10
803.1081985913651
 20
221.9704896355771
 30
0.0
 10
803.1086261777096
 20
221.9515023828762
 30
0.0
 10
803.1080817172332
 20
221.9295125758396
 30
0.0
  0
SPLINE
  5
ABB
330
2
100
AcDbEntity
  8
1
  6
Continuous
 62
     7
370
    50
100
AcDbSpline
210
0.0
220
0.0
230
1.0
 70
     8
 71
     3
 72
     8
 73
     4
 74
     0
 42
0.0000000001
 43
0.0000000001
 40
0.0
 40
0.0
 40
0.0
 40
0.0
 40
1.0
 40
1.0
 40
1.0
 40
1.0
 10
804.8422127699415
 20
220.4067754517379
 30
0.0
 10
804.2639383435442
 20
220.3466780683192
 30
0.0
 10
803.6835269782413
 20
220.295396743587
 30
0.0
 10
803.1017042489281
 20
220.2548073274943
 30
0.0
  0
SPLINE
  5
ABC
330
2
100
AcDbEntity
  8
1
  6
Continuous
 62
     7
370
    50
100
AcDbSpline
210
0.0
220
0.0
230
1.0
 70
     8
 71
     3
 72
     8
 73
     4
 74
     0
 42
0.0000000001
 43
0.0000000001
 40
0.0
 40
0.0
 40
0.0
 40
0.0
 40
1.0
 40
1.0
 40
1.0
 40
1.0
 10
804.8420040552077
 20
221.8015703874461
 30
0.0
 10
804.5160200912222
 20
221.8277258407637
 30
0.0
 10
804.1894699234122
 20
221.8528618729153
 30
0.0
 10
803.8624144045629
 20
221.8766349859669
 30
0.0
  0
SPLINE
  5
ABD
330
2
100
AcDbEntity
  8
1
  6
Continuous
 62
     7
370
    50
100
AcDbSpline
210
0.0
220
0.0
230
1.0
 70
     8
 71
     3
 72
     8
 73
     4
 74
     0
 42
0.0000000001
 43
0.0000000001
 40
0.0
 40
0.0
 40
0.0
 40
0.0
 40
1.0
 40
1.0
 40
1.0
 40
1.0
 10
803.8624144045629
 20
221.8766349859669
 30
0.0
 10
803.6112173550106
 20
221.8948989664101
 30
0.0
 10
803.3597224270293
 20
221.9123590223978
 30
0.0
 10
803.1079649618742
 20
221.9288796827521
 30
0.0
  0
SPLINE
  5
ABE
330
2
100
AcDbEntity
  8
1
  6
Continuous
 62
     7
370
    50
100
AcDbSpline
210
0.0
220
0.0
230
1.0
 70
     8
 71
     3
 72
     9
 73
     5
 74
     0
 42
0.0000000001
 43
0.0000000001
 40
0.0
 40
0.0
 40
0.0
 40
0.0
 40
0.3919260971286364
 40
1.0
 40
1.0
 40
1.0
 40
1.0
 10
803.0927504392529
 20
220.6875708421956
 30
0.0
 10
803.0930817423351
 20
220.623025572207
 30
0.0
 10
803.0939270626262
 20
220.4583382230833
 30
0.0
 10
803.0931576065054
 20
220.3673403985844
 30
0.0
 10
803.0926897203189
 20
220.3120069962885
 30
0.0
  0
SPLINE
  5
ABF
330
2
100
AcDbEntity
  8
1
  6
Continuous
 62
     7
370
    50
100
AcDbSpline
210
0.0
220
0.0
230
1.0
 70
    24
 71
     3
 72
     8
 73
     4
 74
     0
 42
0.0000000001
 43
0.0000000001
 40
0.0
 40
0.0
 40
0.0
 40
0.0
 40
1.0
 40
1.0
 40
1.0
 40
1.0
 10
803.0926897203189
 20
220.3120069962885
 30
0.0
 10
803.0961117839384
 20
220.2905744311327
 30
0.0
 10
803.0995338475579
 20
220.2691418659769
 30
0.0
 10
803.1029559111777
 20
220.247709300821
 30
0.0
  0
SPLINE
  5
AC0
330
2
100
AcDbEntity
  8
1
  6
Continuous
 62
     7
370
    50
100
AcDbSpline
210
0.0
220
0.0
230
1.0
 70
     8
 71
     3
 72
     9
 73
     5
 74
     0
 42
0.0000000001
 43
0.0000000001
 40
0.0
 40
0.0
 40
0.0
 40
0.0
 40
0.4723090223325804
 40
1.0
 40
1.0
 40
1.0
 40
1.0
 10
803.1093726605107
 20
220.6543107072215
 30
0.0
 10
803.108858377905
 20
220.570951235311
 30
0.0
 10
803.1077695090047
 20
220.3944577364175
 30
0.0
 10
803.1039791025742
 20
220.3018655835502
 30
0.0
 10
803.1019789392994
 20
220.2530055398794
 30
0.0
  0
SPLINE
  5
AC1
330
2
100
AcDbEntity
  8
1
  6
Continuous
 62
     7
370
    50
100
AcDbSpline
210
0.0
220
0.0
230
1.0
 70
     8
 71
     3
 72
     9
 73
     5
 74
     0
 42
0.0000000001
 43
0.0000000001
 40
0.0
 40
0.0
 40
0.0
 40
0.0
 40
0.5603025560718153
 40
1.0
 40
1.0
 40
1.0
 40
1.0
 10
803.0926114848217
 20
221.8798769643317
 30
0.0
 10
803.0928603143841
 20
221.8502918115524
 30
0.0
 10
803.0933044129518
 20
221.7974897094405
 30
0.0
 10
803.0930792958081
 20
221.727196389147
 30
0.0
 10
803.0929803123752
 20
221.6962885958889
 30
0.0
  0
SPLINE
  5
AC2
330
2
100
AcDbEntity
  8
1
  6
Continuous
 62
     7
370
    50
100
AcDbSpline
210
0.0
220
0.0
230
1.0
 70
     8
 71
     3
 72
     9
 73
     5
 74
     0
 42
0.0000000001
 43
0.0000000001
 40
0.0
 40
0.0
 40
0.0
 40
0.0
 40
0.5146641449284407
 40
1.0
 40
1.0
 40
1.0
 40
1.0
 10
803.1079649618742
 20
221.9288796827521
 30
0.0
 10
803.1096222207729
 20
221.8953378710905
 30
0.0
 10
803.1128422991768
 20
221.8301656379126
 30
0.0
 10
803.1131227409062
 20
221.7420348675735
 30
0.0
 10
803.1132588493328
 20
221.6992618447928
 30
0.0
  0
SPLINE
  5
AC3
330
2
100
AcDbEntity
  8
1
  6
Continuous
 62
     7
370
    50
100
AcDbSpline
210
0.0
220
0.0
230
1.0
 70
     8
 71
     3
 72
     8
 73
     4
 74
     0
 42
0.0000000001
 43
0.0000000001
 40
0.0
 40
0.0
 40
0.0
 40
0.0
 40
1.0
 40
1.0
 40
1.0
 40
1.0
 10
803.0931182618957
 20
221.8797965877992
 30
0.0
 10
803.0976844503536
 20
221.8969057492701
 30
0.0
 10
803.1027722097539
 20
221.9139358641071
 30
0.0
 10
803.1083760789444
 20
221.930879902815
 30
0.0
  0
SPLINE
  5
AC4
330
2
100
AcDbEntity
  8
1
  6
Continuous
 62
     7
370
    50
100
AcDbSpline
210
0.0
220
0.0
230
1.0
 70
    24
 71
     3
 72
     8
 73
     4
 74
     0
 42
0.0000000001
 43
0.0000000001
 40
0.0
 40
0.0
 40
0.0
 40
0.0
 40
1.0
 40
1.0
 40
1.0
 40
1.0
 10
803.0929801393655
 20
221.6962885706275
 30
0.0
 10
803.0998499304486
 20
221.6972913014199
 30
0.0
 10
803.1067197215314
 20
221.6982940322122
 30
0.0
 10
803.1135895126141
 20
221.6992967630046
 30
0.0
  0
SPLINE
  5
AC5
330
2
100
AcDbEntity
  8
1
  6
Continuous
 62
     7
370
    50
100
AcDbSpline
210
0.0
220
0.0
230
1.0
 70
    24
 71
     1
 72
     4
 73
     2
 74
     0
 42
0.0000000001
 43
0.0000000001
 40
0.0
 40
0.0
 40
1.0
 40
1.0
 10
804.8429780341562
 20
221.6624650114688
 30
0.0
 10
803.1134320754182
 20
221.6992984669001
 30
0.0
  0
SPLINE
  5
AC6
330
2
100
AcDbEntity
  8
1
  6
Continuous
 62
     7
370
    50
100
AcDbSpline
210
0.0
220
0.0
230
1.0
 70
     8
 71
     3
 72
     8
 73
     4
 74
     0
 42
0.0000000001
 43
0.0000000001
 40
0.0
 40
0.0
 40
0.0
 40
0.0
 40
1.0
 40
1.0
 40
1.0
 40
1.0
 10
804.8433071027652
 20
221.0263618634331
 30
0.0
 10
804.2666062945066
 20
221.0497064033519
 30
0.0
 10
803.6898797326989
 20
221.0730488637303
 30
0.0
 10
803.1131273803167
 20
221.0963868989733
 30
0.0
  0
SPLINE
  5
AC7
330
2
100
AcDbEntity
  8
1
  6
Continuous
 62
     7
370
    50
100
AcDbSpline
210
0.0
220
0.0
230
1.0
 70
     8
 71
     3
 72
     8
 73
     4
 74
     0
 42
0.0000000001
 43
0.0000000001
 40
0.0
 40
0.0
 40
0.0
 40
0.0
 40
1.0
 40
1.0
 40
1.0
 40
1.0
 10
804.8436661972331
 20
220.7302481294153
 30
0.0
 10
804.2656439966739
 20
220.7048079662655
 30
0.0
 10
803.687545712119
 20
220.679491171464
 30
0.0
 10
803.1093726605107
 20
220.6543107072215
 30
0.0
  0
SPLINE
  5
AC8
330
2
100
AcDbEntity
  8
1
  6
Continuous
 62
     7
370
    50
100
AcDbSpline
210
0.0
220
0.0
230
1.0
 70
    24
 71
     3
 72
     8
 73
     4
 74
     0
 42
0.0000000001
 43
0.0000000001
 40
0.0
 40
0.0
 40
0.0
 40
0.0
 40
1.0
 40
1.0
 40
1.0
 40
1.0
 10
803.0927554464861
 20
220.6875694842356
 30
0.0
 10
803.09854253746
 20
220.6760730508159
 30
0.0
 10
803.1043296284336
 20
220.6645766173963
 30
0.0
 10
803.1101167194075
 20
220.6530801839767
 30
0.0
  0
SPLINE
  5
AC9
330
2
100
AcDbEntity
  8
1
  6
Continuous
 62
     7
370
    50
100
AcDbSpline
210
0.0
220
0.0
230
1.0
 70
     8
 71
     3
 72
    10
 73
     6
 74
     0
 42
0.0000000001
 43
0.0000000001
 40
0.0
 40
0.0
 40
0.0
 40
0.0
 40
0.3243842369683936
 40
0.6574288598933732
 40
1.0
 40
1.0
 40
1.0
 40
1.0
 10
803.1131273803167
 20
221.0963868989733
 30
0.0
 10
803.1131345118062
 20
221.0460181944567
 30
0.0
 10
803.1131489651812
 20
220.9439360455391
 30
0.0
 10
803.1118666210867
 20
220.7920673727613
 30
0.0
 10
803.1102741111247
 20
220.7007343017012
 30
0.0
 10
803.1094666285536
 20
220.654423845382
 30
0.0
  0
SPLINE
  5
ACA
330
2
100
AcDbEntity
  8
1
  6
Continuous
 62
     7
370
    50
100
AcDbSpline
210
0.0
220
0.0
230
1.0
 70
    24
 71
     1
 72
     4
 73
     2
 74
     0
 42
0.0000000001
 43
0.0000000001
 40
0.0
 40
0.0
 40
1.0
 40
1.0
 10
803.0929807633922
 20
221.094454304733
 30
0.0
 10
803.1134300256129
 20
221.0964384620992
 30
0.0
  0
SPLINE
  5
ACB
330
2
100
AcDbEntity
  8
1
  6
Continuous
 62
     7
370
    50
100
AcDbSpline
210
0.0
220
0.0
230
1.0
 70
     8
 71
     3
 72
     9
 73
     5
 74
     0
 42
0.0000000001
 43
0.0000000001
 40
0.0
 40
0.0
 40
0.0
 40
0.0
 40
0.4625116178727551
 40
1.0
 40
1.0
 40
1.0
 40
1.0
 10
803.0929684720414
 20
221.0944544557251
 30
0.0
 10
803.0930465871659
 20
221.0278896089053
 30
0.0
 10
803.0932154804906
 20
220.8839692310217
 30
0.0
 10
803.0929162691212
 20
220.7562285930635
 30
0.0
 10
803.0927554464861
 20
220.6875694842356
 30
0.0
  0
SPLINE
  5
ACC
330
2
100
AcDbEntity
  8
1
  6
Continuous
 62
     7
370
    50
100
AcDbSpline
210
0.0
220
0.0
230
1.0
 70
     8
 71
     3
 72
     8
 73
     4
 74
     0
 42
0.0000000001
 43
0.0000000001
 40
0.0
 40
0.0
 40
0.0
 40
0.0
 40
1.0
 40
1.0
 40
1.0
 40
1.0
 10
803.0931865041486
 20
220.1864711506519
 30
0.0
 10
803.0932647590386
 20
220.1836034077704
 30
0.0
 10
803.0933565588606
 20
220.1821696627284
 30
0.0
 10
803.0934460776979
 20
220.1821697227752
 30
0.0
  0
SPLINE
  5
ACD
330
2
100
AcDbEntity
  8
1
  6
Continuous
 62
     7
370
    50
100
AcDbSpline
210
0.0
220
0.0
230
1.0
 70
     8
 71
     3
 72
     8
 73
     4
 74
     0
 42
0.0000000001
 43
0.0000000001
 40
0.0
 40
0.0
 40
0.0
 40
0.0
 40
1.0
 40
1.0
 40
1.0
 40
1.0
 10
804.8429067745134
 20
220.1916666508631
 30
0.0
 10
804.2760201612157
 20
220.1829327149062
 30
0.0
 10
803.7090281334794
 20
220.181051281809
 30
0.0
 10
803.1420960978154
 20
220.1860250518769
 30
0.0
  0
SPLINE
  5
ACE
330
2
100
AcDbEntity
  8
1
  6
Continuous
 62
     7
370
    50
100
AcDbSpline
210
0.0
220
0.0
230
1.0
 70
    24
 71
     1
 72
     4
 73
     2
 74
     0
 42
0.0000000001
 43
0.0000000001
 40
0.0
 40
0.0
 40
1.0
 40
1.0
 10
803.1421034502713
 20
220.1834018006947
 30
0.0
 10
803.1421025257191
 20
220.1827571500542
 30
0.0
  0
SPLINE
  5
ACF
330
2
100
AcDbEntity
  8
1
  6
Continuous
 62
     7
370
    50
100
AcDbSpline
210
0.0
220
0.0
230
1.0
 70
     8
 71
     3
 72
     8
 73
     4
 74
     0
 42
0.0000000001
 43
0.0000000001
 40
0.0
 40
0.0
 40
0.0
 40
0.0
 40
1.0
 40
1.0
 40
1.0
 40
1.0
 10
803.1420328921189
 20
220.2527572465211
 30
0.0
 10
803.1256995026991
 20
220.2527170214911
 30
0.0
 10
803.1093661125906
 20
220.2526768150751
 30
0.0
 10
803.0930327218481
 20
220.2526366271444
 30
0.0
  0
SPLINE
  5
AD0
330
2
100
AcDbEntity
  8
1
  6
Continuous
 62
     7
370
    50
100
AcDbSpline
210
0.0
220
0.0
230
1.0
 70
     8
 71
     3
 72
     8
 73
     4
 74
     0
 42
0.0000000001
 43
0.0000000001
 40
0.0
 40
0.0
 40
0.0
 40
0.0
 40
1.0
 40
1.0
 40
1.0
 40
1.0
 10
803.0937900988343
 20
220.182648859846
 30
0.0
 10
803.0935767882105
 20
220.182639824934
 30
0.0
 10
803.0933635463076
 20
220.1826375140701
 30
0.0
 10
803.0931502665442
 20
220.1826367044731
 30
0.0
  0
SPLINE
  5
AD1
330
2
100
AcDbEntity
  8
1
  6
Continuous
 62
     7
370
    50
100
AcDbSpline
210
0.0
220
0.0
230
1.0
 70
     8
 71
     3
 72
     8
 73
     4
 74
     0
 42
0.0000000001
 43
0.0000000001
 40
0.0
 40
0.0
 40
0.0
 40
0.0
 40
1.0
 40
1.0
 40
1.0
 40
1.0
 10
803.0937327188533
 20
220.2094990577035
 30
0.0
 10
803.0939928782915
 20
220.2006078106439
 30
0.0
 10
803.0943076240466
 20
220.1916683185436
 30
0.0
 10
803.0946790961376
 20
220.18268550211
 30
0.0
  0
SPLINE
  5
AD2
330
2
100
AcDbEntity
  8
1
  6
Continuous
 62
     7
370
    50
100
AcDbSpline
210
0.0
220
0.0
230
1.0
 70
     8
 71
     3
 72
     8
 73
     4
 74
     0
 42
0.0000000001
 43
0.0000000001
 40
0.0
 40
0.0
 40
0.0
 40
0.0
 40
1.0
 40
1.0
 40
1.0
 40
1.0
 10
803.0934800059755
 20
220.3120912961571
 30
0.0
 10
803.0929271722728
 20
220.2838486933345
 30
0.0
 10
803.0921746865661
 20
220.2652741476931
 30
0.0
 10
803.0923325981916
 20
220.2572123068918
 30
0.0
  0
SPLINE
  5
AD3
330
2
100
AcDbEntity
  8
1
  6
Continuous
 62
     7
370
    50
100
AcDbSpline
210
0.0
220
0.0
230
1.0
 70
     8
 71
     3
 72
    10
 73
     6
 74
     0
 42
0.0000000001
 43
0.0000000001
 40
0.0
 40
0.0
 40
0.0
 40
0.0
 40
0.539792854492085
 40
0.539792854492085
 40
1.0
 40
1.0
 40
1.0
 40
1.0
 10
803.1017042489281
 20
220.2548073274943
 30
0.0
 10
803.1015608126317
 20
220.2292169350013
 30
0.0
 10
803.1005612840477
 20
220.2101313192794
 30
0.0
 10
803.0978622294236
 20
220.1877636964617
 30
0.0
 10
803.0962886977308
 20
220.1825673575807
 30
0.0
 10
803.0946457111205
 20
220.1825540053213
 30
0.0
  0
SPLINE
  5
AD4
330
2
100
AcDbEntity
  8
1
  6
Continuous
 62
     7
370
    50
100
AcDbSpline
210
0.0
220
0.0
230
1.0
 70
     8
 71
     3
 72
     8
 73
     4
 74
     0
 42
0.0000000001
 43
0.0000000001
 40
0.0
 40
0.0
 40
0.0
 40
0.0
 40
1.0
 40
1.0
 40
1.0
 40
1.0
 10
803.6257142888775
 20
220.1908698598548
 30
0.0
 10
803.5631686290471
 20
220.1899032079416
 30
0.0
 10
803.5006227266016
 20
220.188936544439
 30
0.0
 10
803.4380769245844
 20
220.1879698813068
 30
0.0
  0
SPLINE
  5
AD5
330
2
100
AcDbEntity
  8
1
  6
Continuous
 62
     7
370
    50
100
AcDbSpline
210
0.0
220
0.0
230
1.0
 70
     8
 71
     3
 72
     9
 73
     5
 74
     0
 42
0.0000000001
 43
0.0000000001
 40
0.0
 40
0.0
 40
0.0
 40
0.0
 40
0.6879111070161658
 40
1.0
 40
1.0
 40
1.0
 40
1.0
 10
804.7224041238211
 20
220.2078189533373
 30
0.0
 10
804.4709154643127
 20
220.203931813769
 30
0.0
 10
804.1053753867659
 20
220.1982830801563
 30
0.0
 10
803.7398056431996
 20
220.1926332053342
 30
0.0
 10
803.62571457933
 20
220.1908699035927
 30
0.0
  0
SPLINE
  5
AD6
330
2
100
AcDbEntity
  8
1
  6
Continuous
 62
     7
370
    50
100
AcDbSpline
210
0.0
220
0.0
230
1.0
 70
     8
 71
     3
 72
     8
 73
     4
 74
     0
 42
0.0000000001
 43
0.0000000001
 40
0.0
 40
0.0
 40
0.0
 40
0.0
 40
1.0
 40
1.0
 40
1.0
 40
1.0
 10
804.8429397619267
 20
220.2096819850932
 30
0.0
 10
804.8027717259785
 20
220.2090610808539
 30
0.0
 10
804.7626046223328
 20
220.2084402176578
 30
0.0
 10
804.7224382732835
 20
220.2078193879557
 30
0.0
  0
SPLINE
  5
AD7
330
2
100
AcDbEntity
  8
1
  6
Continuous
 62
     7
370
    50
100
AcDbSpline
210
0.0
220
0.0
230
1.0
 70
     8
 71
     3
 72
    18
 73
    14
 74
     0
 42
0.0000000001
 43
0.0000000001
 40
0.0
 40
0.0
 40
0.0
 40
0.0
 40
0.0539856342139968
 40
0.1082894951745284
 40
0.1630383627668202
 40
0.2183559623935633
 40
0.3419423252804591
 40
0.4669322609350462
 40
0.5999745483302598
 40
0.7329332951518303
 40
0.822108920016605
 40
0.9109825200239464
 40
1.0
 40
1.0
 40
1.0
 40
1.0
 10
813.5009435642563
 20
221.6198538047928
 30
0.0
 10
813.4811313664464
 20
221.6005046746538
 30
0.0
 10
813.4413901847345
 20
221.5616923579083
 30
0.0
 10
813.3778609264048
 20
221.5058935755376
 30
0.0
 10
813.3113199430638
 20
221.4519980380232
 30
0.0
 10
813.2130891133479
 20
221.3793381778058
 30
0.0
 10
813.0784127396463
 20
221.2934757970034
 30
0.0
 10
812.8993565259753
 20
221.2028811366269
 30
0.0
 10
812.7075452017871
 20
221.1289479666585
 30
0.0
 10
812.527204601197
 20
221.080502439137
 30
0.0
 10
812.3663864164708
 20
221.052150421292
 30
0.0
 10
812.2268665161096
 20
221.0369026313559
 30
0.0
 10
812.1334673539992
 20
221.0350129646921
 30
0.0
 10
812.0867300018863
 20
221.0340673671701
 30
0.0
  0
SPLINE
  5
AD8
330
2
100
AcDbEntity
  8
1
  6
Continuous
 62
     7
370
    50
100
AcDbSpline
210
0.0
220
0.0
230
1.0
 70
     8
 71
     3
 72
    19
 73
    15
 74
     0
 42
0.0000000001
 43
0.0000000001
 40
0.0
 40
0.0
 40
0.0
 40
0.0
 40
0.0410764124207954
 40
0.0824920225670144
 40
0.1243939112859004
 40
0.1669241146648501
 40
0.2102184852726498
 40
0.2544058280036149
 40
0.3653529195023205
 40
0.4856607904632086
 40
0.6010852712709151
 40
0.7280306007877361
 40
0.8549219085317394
 40
1.0
 40
1.0
 40
1.0
 40
1.0
 10
814.3429780341463
 20
222.46188827469
 30
0.0
 10
814.3425441695631
 20
222.4614613016863
 30
0.0
 10
814.3416728576625
 20
222.4606038298533
 30
0.0
 10
814.3346691297026
 20
222.4536581425771
 30
0.0
 10
814.3235055478386
 20
222.4425288452989
 30
0.0
 10
814.3077672754563
 20
222.4267871812653
 30
0.0
 10
814.2875654354552
 20
222.4065432632751
 30
0.0
 10
814.2506658223263
 20
222.3695304985382
 30
0.0
 10
814.1854378356812
 20
222.3043094796849
 30
0.0
 10
814.0836515349757
 20
222.2025302555937
 30
0.0
 10
813.9618936890386
 20
222.0809654057599
 30
0.0
 10
813.8265560058341
 20
221.9453942637028
 30
0.0
 10
813.6712885003165
 20
221.7903270683684
 30
0.0
 10
813.5602013676717
 20
221.6791562494334
 30
0.0
 10
813.5009435642661
 20
221.6198538048026
 30
0.0
  0
SPLINE
  5
AD9
330
2
100
AcDbEntity
  8
1
  6
Continuous
 62
     7
370
    50
100
AcDbSpline
210
0.0
220
0.0
230
1.0
 70
    24
 71
     2
 72
    12
 73
     9
 74
     0
 42
0.0000000001
 43
0.0000000001
 40
0.0
 40
0.0
 40
0.0
 40
0.25
 40
0.25
 40
0.5
 40
0.5
 40
0.75
 40
0.75
 40
1.0
 40
1.0
 40
1.0
 10
813.4655290549146
 20
222.1598397379734
 30
0.0
 10
813.4656459234841
 20
222.1599464183208
 30
0.0
 10
813.4107812537987
 20
222.1098646721137
 30
0.0
 10
813.3505430116898
 20
222.0548778040516
 30
0.0
 10
813.2305089879803
 20
221.945307956168
 30
0.0
 10
813.0981453772784
 20
221.8244833745883
 30
0.0
 10
812.9120846805928
 20
221.6546428443535
 30
0.0
 10
812.6982083326211
 20
221.4594115408527
 30
0.0
 10
812.4544335759532
 20
221.2368882746935
 30
0.0
  0
SPLINE
  5
ADA
330
2
100
AcDbEntity
  8
1
  6
Continuous
 62
     7
370
    50
100
AcDbSpline
210
0.0
220
0.0
230
1.0
 70
     8
 71
     3
 72
     8
 73
     4
 74
     0
 42
0.0000000001
 43
0.0000000001
 40
0.0
 40
0.0
 40
0.0
 40
0.0
 40
1.0
 40
1.0
 40
1.0
 40
1.0
 10
803.4889239579495
 20
222.1367017120186
 30
0.0
 10
803.3594661770544
 20
222.1525480200085
 30
0.0
 10
803.2300125513563
 20
222.1684112174994
 30
0.0
 10
803.1005630242537
 20
222.1842902033193
 30
0.0
  0
SPLINE
  5
ADB
330
2
100
AcDbEntity
  8
1
  6
Continuous
 62
     7
370
    50
100
AcDbSpline
210
0.0
220
0.0
230
1.0
 70
     8
 71
     3
 72
     8
 73
     4
 74
     0
 42
0.0000000001
 43
0.0000000001
 40
0.0
 40
0.0
 40
0.0
 40
0.0
 40
1.0
 40
1.0
 40
1.0
 40
1.0
 10
803.0951779309301
 20
222.1368843982581
 30
0.0
 10
803.097003871192
 20
222.1526327364571
 30
0.0
 10
803.0987982508396
 20
222.1683844737923
 30
0.0
 10
803.1005610563788
 20
222.184139485847
 30
0.0
  0
SPLINE
  5
ADC
330
2
100
AcDbEntity
  8
1
  6
Continuous
 62
     7
370
    50
100
AcDbSpline
210
0.0
220
0.0
230
1.0
 70
     8
 71
     3
 72
    71
 73
    67
 74
     0
 42
0.0000000001
 43
0.0000000001
 40
0.0
 40
0.0
 40
0.0
 40
0.0
 40
0.0625007034334422
 40
0.0625007034334422
 40
0.0781258792918028
 40
0.0781258792918028
 40
0.0937510551501634
 40
0.0937510551501634
 40
0.1250014068668845
 40
0.1562517585836054
 40
0.1562517585836054
 40
0.171876934441966
 40
0.171876934441966
 40
0.1875021103003265
 40
0.1875021103003265
 40
0.2500028137337687
 40
0.2500028137337687
 40
0.265627989592129
 40
0.265627989592129
 40
0.2812531654504895
 40
0.2812531654504895
 40
0.3125035171672106
 40
0.3125035171672106
 40
0.3750042206006527
 40
0.3750042206006527
 40
0.3906293964590133
 40
0.3906293964590133
 40
0.4062545723173739
 40
0.4062545723173739
 40
0.4375049240340953
 40
0.4687552757508163
 40
0.4687552757508163
 40
0.484380451609177
 40
0.484380451609177
 40
0.5000056274675378
 40
0.5000056274675378
 40
0.5625063309009803
 40
0.5625063309009803
 40
0.5781315067593408
 40
0.5781315067593408
 40
0.5937566826177015
 40
0.5937566826177015
 40
0.6250070343344225
 40
0.656257386051144
 40
0.656257386051144
 40
0.6718825619095044
 40
0.6718825619095044
 40
0.6875077377678649
 40
0.6875077377678649
 40
0.7500084412013073
 40
0.7500084412013073
 40
0.7812587929180285
 40
0.7812587929180285
 40
0.7968839687763892
 40
0.7968839687763892
 40
0.8125091446347497
 40
0.8125091446347497
 40
0.8750098480681922
 40
0.8750098480681922
 40
0.8906350239265526
 40
0.8906350239265526
 40
0.9062601997849132
 40
0.9062601997849132
 40
0.9375105515016343
 40
0.9375105515016343
 40
1.0
 40
1.0
 40
1.0
 40
1.0
 10
801.8015657465761
 20
222.5118892192745
 30
0.0
 10
801.8015669475319
 20
222.5118876197415
 30
0.0
 10
801.8080417102137
 20
222.5032639905283
 30
0.0
 10
801.8234256031297
 20
222.4820859097241
 30
0.0
 10
801.8268599905079
 20
222.4773343268812
 30
0.0
 10
801.8343373939263
 20
222.4669106518954
 30
0.0
 10
801.8383879890141
 20
222.4612281299844
 30
0.0
 10
801.8514004348363
 20
222.4428121722526
 30
0.0
 10
801.871042004282
 20
222.4146171393605
 30
0.0
 10
801.8945535986341
 20
222.3793869881691
 30
0.0
 10
801.9134023929709
 20
222.3503215121023
 30
0.0
 10
801.9198934320902
 20
222.3401822036161
 30
0.0
 10
801.9330997444692
 20
222.319241692287
 30
0.0
 10
801.9398314748746
 20
222.3084154334245
 30
0.0
 10
801.9740217838153
 20
222.2525386355528
 30
0.0
 10
802.0030485353256
 20
222.2023132946388
 30
0.0
 10
802.0399736643147
 20
222.1325249941942
 30
0.0
 10
802.0473922545413
 20
222.1182132002892
 30
0.0
 10
802.0622651149553
 20
222.0888634320607
 30
0.0
 10
802.0697352508035
 20
222.0737924275791
 30
0.0
 10
802.0920325263844
 20
222.0277052503297
 30
0.0
 10
802.1066989823363
 20
221.9959199738469
 30
0.0
 10
802.149783699939
 20
221.897338743046
 30
0.0
 10
802.1772849091297
 20
221.8273506356831
 30
0.0
 10
802.2091886444721
 20
221.7339123633832
 30
0.0
 10
802.2154508168005
 20
221.714905149548
 30
0.0
 10
802.2275854051297
 20
221.6766557700284
 30
0.0
 10
802.23347365069
 20
221.6573688796572
 30
0.0
 10
802.2505856142505
 20
221.5990183736759
 30
0.0
 10
802.2719270373503
 20
221.5199130286692
 30
0.0
 10
802.2901644879929
 20
221.438124350337
 30
0.0
 10
802.3026220666968
 20
221.3757264844395
 30
0.0
 10
802.3065819465529
 20
221.3546876084991
 30
0.0
 10
802.3140224667702
 20
221.3126101025777
 30
0.0
 10
802.3175033692359
 20
221.2915804119377
 30
0.0
 10
802.3337445364958
 20
221.1864792438671
 30
0.0
 10
802.3430191281786
 20
221.1025449944564
 30
0.0
 10
802.3504497298604
 20
220.9978880176301
 30
0.0
 10
802.3517274678942
 20
220.9769699605619
 30
0.0
 10
802.3538774447381
 20
220.9351637346913
 30
0.0
 10
802.3547440856171
 20
220.9143666803994
 30
0.0
 10
802.3567446655425
 20
220.8527515071518
 30
0.0
 10
802.3578367078508
 20
220.7722819377116
 30
0.0
 10
802.3562586715296
 20
220.6950980062665
 30
0.0
 10
802.3542339250418
 20
220.6384485773818
 30
0.0
 10
802.3534186287985
 20
220.6197722344264
 30
0.0
 10
802.3515322932208
 20
220.5828389402462
 30
0.0
 10
802.350459585048
 20
220.5645570483277
 30
0.0
 10
802.3445352728099
 20
220.4744877289442
 30
0.0
 10
802.3381447128581
 20
220.4083592437695
 30
0.0
 10
802.3275348713401
 20
220.3175832832474
 30
0.0
 10
802.3238229224986
 20
220.288739044922
 30
0.0
 10
802.3181468821894
 20
220.2476377653099
 30
0.0
 10
802.3162313735429
 20
220.2342633260153
 30
0.0
 10
802.3124217732735
 20
220.2084714077221
 30
0.0
 10
802.3105275564088
 20
220.196049509263
 30
0.0
 10
802.3011679660777
 20
220.1362643594062
 30
0.0
 10
802.2939759288814
 20
220.0958038532694
 30
0.0
 10
802.2866182192853
 20
220.0544325444607
 30
0.0
 10
802.2852213784219
 20
220.0466232978826
 30
0.0
 10
802.2825855824587
 20
220.0319540293074
 30
0.0
 10
802.2813474050209
 20
220.0250985020562
 30
0.0
 10
802.2779197546222
 20
220.0061926305402
 30
0.0
 10
802.276000954121
 20
219.9957103988617
 30
0.0
 10
802.2713640481805
 20
219.9704842789827
 30
0.0
 10
802.2697581021899
 20
219.9618888663518
 30
0.0
 10
802.2697581572947
 20
219.961889161278
 30
0.0
  0
HATCH
  5
ADD
330
2
100
AcDbEntity
  8
1
  6
Continuous
 62
     1
370
    25
100
AcDbHatch
 10
0.0
 20
0.0
 30
0.0
210
0.0
220
0.0
230
1.0
  2
ANSI31
 70
     0
 71
     0
 91
        1
 92
        0
 93
       24
 72
     1
 10
793.8548550828783
 20
222.36188827469
 11
793.3429800828783
 21
222.88688827469
 72
     1
 10
793.3429800828783
 20
222.88688827469
 11
793.3429800828783
 21
222.98688827469
 72
     1
 10
793.3429800828783
 20
222.98688827469
 11
794.3429800828782
 21
222.98688827469
 72
     1
 10
794.3429800828782
 20
222.98688827469
 11
794.3429800828782
 21
222.836890219433
 72
     1
 10
794.3429800828782
 20
222.836890219433
 11
798.3429780341572
 21
222.836890219433
 72
     1
 10
798.3429780341572
 20
222.836890219433
 11
798.3429780341572
 21
222.986888678153
 72
     1
 10
798.3429780341572
 20
222.986888678153
 11
799.8429822725729
 21
222.986888678153
 72
     1
 10
799.8429822725729
 20
222.986888678153
 11
799.8429822725729
 21
222.511888419508
 72
     1
 10
799.8429822725729
 20
222.511888419508
 11
801.8015663470418
 21
222.511888419508
 72
     4
 94
        3
 73
     0
 74
     0
 95
       10
 96
        6
 40
0.0
 40
0.0
 40
0.0
 40
0.0
 40
0.9503490624113092
 40
0.9503490624113092
 40
1.0
 40
1.0
 40
1.0
 40
1.0
 10
801.8015663470459
 20
222.511888419511
 10
802.294881440936
 20
221.8478651536366
 10
802.4596984522439
 20
221.0464773383918
 10
802.287465871875
 20
220.0586799050672
 10
802.2785769102464
 20
220.0100926634708
 10
802.2697579609609
 20
219.9618881107415
 72
     1
 10
802.2697579609609
 20
219.9618881107415
 11
799.8429822725728
 21
219.961888129872
 72
     1
 10
799.8429822725729
 20
219.961888129872
 11
799.8429822725729
 21
219.486887871227
 72
     1
 10
799.8429822725729
 20
219.486887871227
 11
798.3429780341572
 21
219.486887871227
 72
     1
 10
798.3429780341572
 20
219.486887871227
 11
798.3429780341572
 21
219.636886329947
 72
     1
 10
798.3429780341572
 20
219.636886329947
 11
794.3429800828782
 21
219.636886329947
 72
     1
 10
794.3429800828782
 20
219.636886329947
 11
794.3429800828782
 21
219.48688827469
 72
     1
 10
794.3429800828782
 20
219.48688827469
 11
793.3429800828783
 21
219.48688827469
 72
     1
 10
793.3429800828783
 20
219.48688827469
 11
793.3429800828783
 21
219.58688827469
 72
     1
 10
793.3429800828783
 20
219.58688827469
 11
793.8548550828783
 21
220.11188827469
 72
     1
 10
793.8548550828783
 20
220.11188827469
 11
795.7429780341562
 21
220.11188827469
 72
     1
 10
795.7429780341562
 20
220.11188827469
 11
799.3641662064143
 21
220.11188827469
 72
     1
 10
799.3641662064143
 20
220.11188827469
 11
800.0136852592527
 21
221.23688827469
 72
     1
 10
800.0136852592527
 20
221.23688827469
 11
799.3641662064143
 21
222.36188827469
 72
     1
 10
799.3641662064143
 20
222.36188827469
 11
793.8548550828783
 21
222.36188827469
 97
        0
 75
     0
 76
     1
 52
0.0
 41
0.1
 77
     0
 78
     1
 53
45.0
 43
774.810130221308
 44
191.1151828483334
 45
-0.2245064030267288
 46
0.2245064030267288
 79
     0
 98
        0
1001
ACAD
1010
0.0
1020
0.0
1030
0.0
  0
DIMENSION
  5
ADE
330
2
100
AcDbEntity
  8
0
100
AcDbDimension
  2
*D2
 10
814.8429780341562
 20
228.4648575219929
 30
0.0
 11
803.0499632560704
 21
228.4648575219929
 31
0.0
 70
   160
 71
     5
 42
21.49999795127792
 73
     0
 74
     0
 75
     0
  3
01
100
AcDbAlignedDimension
 13
793.3429800828783
 23
221.23688827469
 33
0.0
 14
814.8429780341562
 24
221.23688827469
 34
0.0
100
AcDbRotatedDimension
  0
DIMENSION
  5
AEB
330
2
100
AcDbEntity
  8
0
100
AcDbDimension
  2
*D3
 10
799.3641662064143
 20
224.8488584018215
 30
0.0
 11
796.3579704523414
 21
224.8488584018215
 31
0.0
 70
   160
 71
     5
 42
6.021186123536153
 73
     0
 74
     0
 75
     0
  3
01
100
AcDbAlignedDimension
 13
793.3429800828783
 23
221.23688827469
 33
0.0
 14
799.3641662064143
 24
221.23688827469
 34
0.0
100
AcDbRotatedDimension
  0
DIMENSION
  5
B5B
330
2
100
AcDbEntity
  8
0
100
AcDbDimension
  2
*D4
 10
782.7704296436479
 20
222.98688827469
 30
0.0
 11
781.2572890391801
 21
228.8703311130607
 31
0.0
 70
    32
  1
{\fISOCPEUR|b0|i0|c0|p34;%%C}<>
 71
     5
 42
3.5
 73
     0
 74
     0
 75
     0
  3
01
100
AcDbAlignedDimension
 13
793.8429800828783
 23
219.48688827469
 33
0.0
 14
793.8429800828783
 24
222.98688827469
 34
0.0
 50
90.0
100
AcDbRotatedDimension
  0
DIMENSION
  5
B73
330
2
100
AcDbEntity
  8
0
100
AcDbDimension
  2
*D5
 10
789.9496191979467
 20
222.36188827469
 30
0.0
 11
789.9496191979467
 21
228.9677358436783
 31
0.0
 70
   160
  1
{\fISOCPEUR|b0|i0|c0|p34;%%C}2.25
 71
     5
 42
2.25
 73
     0
 74
     0
 75
     0
  3
01
100
AcDbAlignedDimension
 13
795.4981371360706
 23
220.11188827469
 33
0.0
 14
795.4981371360706
 24
222.36188827469
 34
0.0
 50
90.0
100
AcDbRotatedDimension
  0
DIMENSION
  5
BBA
330
2
100
AcDbEntity
  8
0
100
AcDbDimension
  2
*D6
 10
786.5117636804527
 20
219.636886329947
 30
0.0
 11
784.9986230759848
 21
213.7613278542572
 31
0.0
 70
    32
  1
{\fISOCPEUR|b0|i0|c0|p34;%%C}<>
 71
     5
 42
3.200003889485969
 73
     0
 74
     0
 75
     0
  3
01
100
AcDbAlignedDimension
 13
796.5644657358357
 23
222.836890219433
 33
0.0
 14
796.3429790585178
 24
219.636886329947
 34
0.0
 50
90.0
100
AcDbRotatedDimension
  0
ENDSEC
  0
SECTION
  2
OBJECTS
  0
DICTIONARY
  5
B
330
0
100
AcDbDictionary
281
     1
  3
ACAD_COLOR
350
25C
  3
ACAD_GROUP
350
249
  3
ACAD_LAYOUT
350
22A
  3
ACAD_MATERIAL
350
D
  3
ACAD_MLEADERSTYLE
350
2BE
  3
ACAD_MLINESTYLE
350
24A
  3
ACAD_PLOTSETTINGS
350
24B
  3
ACAD_PLOTSTYLENAME
350
A
  3
ACAD_SCALELIST
350
25D
  3
ACAD_TABLESTYLE
350
25E
  3
ACAD_VISUALSTYLE
350
243
  3
ACDB_RECOMPOSE_DATA
350
2AE
  3
AcDbVariableDictionary
350
286
  3
lxx_dict
350
8F6
  0
DICTIONARY
  5
244
330
240
100
AcDbDictionary
280
     1
281
     1
  0
DICTIONARY
  5
235
330
234
100
AcDbDictionary
280
     1
281
     1
  3
ACAD_LAYERFILTERS
360
236
  3
ACAD_LAYERSTATES
360
237
  3
ACLYDICTIONARY
360
238
  0
DICTIONARY
  5
7
330
6
100
AcDbDictionary
280
     1
281
     1
  3
ADSK_XREC_LAYER_RECONCILED
360
8
  0
DICTIONARY
  5
18
330
17
100
AcDbDictionary
280
     1
281
     1
  3
ADSK_XREC_LAYER_RECONCILED
360
19
  0
DICTIONARY
  5
26
330
25
100
AcDbDictionary
280
     1
281
     1
  3
ADSK_XREC_LAYER_RECONCILED
360
27
  0
DICTIONARY
  5
3
330
2
100
AcDbDictionary
280
     1
281
     1
  3
ACAD_SORTENTS
360
285
  0
DICTIONARY
  5
EE8
330
2CE
100
AcDbDictionary
280
     1
281
     1
  0
DICTIONARY
  5
EEF
330
E53
100
AcDbDictionary
280
     1
281
     1
  3
ACAD_MTEXT_2008_RT
360
EF0
  0
DICTIONARY
  5
EF1
330
E97
100
AcDbDictionary
280
     1
281
     1
  3
ACAD_MTEXT_2008_RT
360
EF2
  0
DICTIONARY
  5
EF3
330
E98
100
AcDbDictionary
280
     1
281
     1
  3
ACAD_MTEXT_2008_RT
360
EF4
  0
DICTIONARY
  5
EF5
330
EBD
100
AcDbDictionary
280
     1
281
     1
  3
ACAD_MTEXT_2008_RT
360
EF6
  0
DICTIONARY
  5
EF7
330
EC0
100
AcDbDictionary
280
     1
281
     1
  3
ACAD_MTEXT_2008_RT
360
EF8
  0
DICTIONARY
  5
EF9
330
EC1
100
AcDbDictionary
280
     1
281
     1
  3
ACAD_MTEXT_2008_RT
360
EFA
  0
DICTIONARY
  5
EFB
330
ECB
100
AcDbDictionary
280
     1
281
     1
  3
ACAD_MTEXT_2008_RT
360
EFC
  0
DICTIONARY
  5
EFD
330
ECC
100
AcDbDictionary
280
     1
281
     1
  3
ACAD_MTEXT_2008_RT
360
EFE
  0
DICTIONARY
  5
EFF
330
ECD
100
AcDbDictionary
280
     1
281
     1
  3
ACAD_MTEXT_2008_RT
360
F00
  0
DICTIONARY
  5
F01
330
EDB
100
AcDbDictionary
280
     1
281
     1
  3
ACAD_MTEXT_2008_RT
360
F02
  0
DICTIONARY
  5
F03
330
EDC
100
AcDbDictionary
280
     1
281
     1
  3
ACAD_MTEXT_2008_RT
360
F04
  0
DICTIONARY
  5
F05
330
EDD
100
AcDbDictionary
280
     1
281
     1
  3
ACAD_MTEXT_2008_RT
360
F06
  0
DICTIONARY
  5
EEC
330
F1
100
AcDbDictionary
280
     1
281
     1
  3
ACAD_MTEXT_2008_RT
360
EED
  0
DICTIONARY
  5
25C
102
{ACAD_REACTORS
330
B
102
}
330
B
100
AcDbDictionary
281
     1
  0
DICTIONARY
  5
249
102
{ACAD_REACTORS
330
B
102
}
330
B
100
AcDbDictionary
281
     1
  0
DICTIONARY
  5
22A
102
{ACAD_REACTORS
330
B
102
}
330
B
100
AcDbDictionary
281
     1
  3
Layout1
350
22F
  3
Layout2
350
233
  3
Model
350
229
  0
DICTIONARY
  5
D
102
{ACAD_REACTORS
330
B
102
}
330
B
100
AcDbDictionary
281
     1
  3
ByBlock
350
254
  3
ByLayer
350
24C
  3
Global
350
C
  0
DICTIONARY
  5
2BE
102
{ACAD_REACTORS
330
B
102
}
330
B
100
AcDbDictionary
281
     1
  3
Standard
350
2BF
  0
DICTIONARY
  5
24A
102
{ACAD_REACTORS
330
B
102
}
330
B
100
AcDbDictionary
281
     1
  3
Standard
350
25F
  0
DICTIONARY
  5
24B
102
{ACAD_REACTORS
330
B
102
}
330
B
100
AcDbDictionary
281
     1
  0
ACDBDICTIONARYWDFLT
  5
A
102
{ACAD_REACTORS
330
B
102
}
330
B
100
AcDbDictionary
281
     1
  3
Normal
350
9
100
AcDbDictionaryWithDefault
340
9
  0
DICTIONARY
  5
25D
102
{ACAD_REACTORS
330
B
102
}
330
B
100
AcDbDictionary
281
     1
  3
A0
350
264
  3
A1
350
265
  3
A2
350
266
  3
A3
350
267
  3
A4
350
268
  3
A5
350
269
  3
A6
350
26A
  3
A7
350
26B
  3
A8
350
26C
  3
A9
350
26D
  3
B0
350
26E
  3
B1
350
26F
  3
B2
350
270
  3
B3
350
271
  3
B4
350
272
  3
B5
350
273
  3
B6
350
274
  3
B7
350
275
  3
B8
350
276
  3
B9
350
277
  3
C0
350
278
  3
C1
350
279
  3
C2
350
27A
  3
C3
350
27B
  3
C4
350
27C
  3
C5
350
27D
  3
C6
350
27E
  3
C7
350
27F
  3
C8
350
280
  3
C9
350
281
  3
D0
350
282
  3
D1
350
283
  3
D2
350
284
  0
DICTIONARY
  5
25E
102
{ACAD_REACTORS
330
B
102
}
330
B
100
AcDbDictionary
281
     1
  3
Standard
350
260
  0
DICTIONARY
  5
243
102
{ACAD_REACTORS
330
B
102
}
330
B
100
AcDbDictionary
281
     1
  3
2dWireframe
350
242
  3
3D Hidden
350
2B6
  3
3dWireframe
350
263
  3
Basic
350
2B5
  3
Brighten
350
2B9
  3
ColorChange
350
2BD
  3
Conceptual
350
2B7
  3
Dim
350
2B8
  3
Facepattern
350
2BC
  3
Flat
350
2B1
  3
FlatWithEdges
350
2B2
  3
Gouraud
350
2B3
  3
GouraudWithEdges
350
2B4
  3
Linepattern
350
2BB
  3
Realistic
350
262
  3
Thicken
350
2BA
  0
XRECORD
  5
2AE
102
{ACAD_REACTORS
330
B
102
}
330
B
100
AcDbXrecord
280
     1
 90
        1
330
F1
330
260
330
E53
330
E97
330
E98
330
EBD
330
EC0
330
EC1
330
ECB
330
ECC
330
ECD
330
EDB
330
EDC
330
EDD
  0
DICTIONARY
  5
286
102
{ACAD_REACTORS
330
B
102
}
330
B
100
AcDbDictionary
281
     1
  3
CANNOSCALE
350
289
  3
CMLEADERSTYLE
350
288
  3
CTABLESTYLE
350
287
  3
DIMASSOC
350
3E7
  3
HIDETEXT
350
3E6
  3
INDEXCTL
350
3E5
  3
LIGHTINGUNITS
350
28A
  3
MSLTSCALE
350
3E3
  3
SORTENTS
350
3E4
  0
DICTIONARY
  5
8F6
102
{ACAD_REACTORS
330
B
102
}
330
B
100
AcDbDictionary
281
     1
  3
lxx_dimth
350
8F7
  0
DICTIONARY
  5
236
102
{ACAD_REACTORS
330
235
102
}
330
235
100
AcDbDictionary
281
     1
  0
DICTIONARY
  5
237
102
{ACAD_REACTORS
330
235
102
}
330
235
100
AcDbDictionary
281
     1
  0
DICTIONARY
  5
238
102
{ACAD_REACTORS
330
235
102
}
330
235
100
AcDbDictionary
281
     1
1001
ACAD
1000
<All
  0
XRECORD
  5
8
102
{ACAD_REACTORS
330
7
102
}
330
7
100
AcDbXrecord
280
     1
290
     1
  0
XRECORD
  5
19
102
{ACAD_REACTORS
330
18
102
}
330
18
100
AcDbXrecord
280
     1
290
     1
  0
XRECORD
  5
27
102
{ACAD_REACTORS
330
26
102
}
330
26
100
AcDbXrecord
280
     1
290
     1
  0
SORTENTSTABLE
  5
285
102
{ACAD_REACTORS
330
3
102
}
330
3
100
AcDbSortentsTable
330
2
331
375
  5
3E0
331
23
  5
23
331
373
  5
3DE
331
21
  5
21
331
1F
  5
1F
331
1D
  5
1D
331
1B
  5
1B
331
16
  5
16
331
F1
  5
117
331
376
  5
3E1
331
22
  5
22
331
374
  5
3DF
331
20
  5
20
331
1E
  5
1E
331
1C
  5
1C
331
1A
  5
1A
331
377
  5
3E2
  0
XRECORD
  5
EF0
102
{ACAD_REACTORS
330
EEF
102
}
330
EEF
100
AcDbXrecord
280
     1
 40
1144.0
  1
\pxqc;GQ.WU
  0
XRECORD
  5
EF2
102
{ACAD_REACTORS
330
EF1
102
}
330
EF1
100
AcDbXrecord
280
     1
 40
3624820.0
  1
\pxqc;档案员{\H0.7x;\P\Fromans|c134;Filing Clerk\fFangSong_GB2312|b0|i0|c134|p49; }
  0
XRECORD
  5
EF4
102
{ACAD_REACTORS
330
EF3
102
}
330
EF3
100
AcDbXrecord
280
     1
 40
2054623.0
  1
\pxqc;日期{\Fromans|c134;/Date}
  0
XRECORD
  5
EF6
102
{ACAD_REACTORS
330
EF5
102
}
330
EF5
100
AcDbXrecord
280
     1
 40
1836818.0
  1
\pxsm0.7;{\fFangSong_GB2312|b0|i0|c134|p49;标准化}\PStand.
  0
XRECORD
  5
EF8
102
{ACAD_REACTORS
330
EF7
102
}
330
EF7
100
AcDbXrecord
280
     1
 40
1476476.0
  1
\pxsm0.7;签名\P{\Fromans|c134;Signature} 
  0
XRECORD
  5
EFA
102
{ACAD_REACTORS
330
EF9
102
}
330
EF9
100
AcDbXrecord
280
     1
 40
1354713.0
  1
\pxsm0.7,qc;处数\P{\Fromans|c134;Number }
  0
XRECORD
  5
EFC
102
{ACAD_REACTORS
330
EFB
102
}
330
EFB
100
AcDbXrecord
280
     1
 40
1692934.0
  1
\pxsm0.7;标记\P{\Fromans|c134;Mark}
  0
XRECORD
  5
EFE
102
{ACAD_REACTORS
330
EFD
102
}
330
EFD
100
AcDbXrecord
280
     1
 40
1391581.0
  1
\pxsm0.7;审核\P{\Fromans|c134;Checked}
  0
XRECORD
  5
F00
102
{ACAD_REACTORS
330
EFF
102
}
330
EFF
100
AcDbXrecord
280
     1
 40
1546703.0
  1
\pxsm0.7;绘图\P{\Fromans|c134;Drawn\Ftxt|c134; }
  0
XRECORD
  5
F02
102
{ACAD_REACTORS
330
F01
102
}
330
F01
100
AcDbXrecord
280
     1
 40
1293614.0
  1
\pxsm0.7;批准\P{\Fromans|c134;Approved}
  0
XRECORD
  5
F04
102
{ACAD_REACTORS
330
F03
102
}
330
F03
100
AcDbXrecord
280
     1
 40
1583427.0
  1
\pxsm0.7;工艺\P{\Fromans|c134;Process}
  0
XRECORD
  5
F06
102
{ACAD_REACTORS
330
F05
102
}
330
F05
100
AcDbXrecord
280
     1
 40
1435325.0
  1
\pxsm0.7;日期\P{\Fromans|c134;Date}
  0
XRECORD
  5
EED
102
{ACAD_REACTORS
330
EEC
102
}
330
EEC
100
AcDbXrecord
280
     1
 40
321993981.0
  1
\A1;\pxql;{\f仿宋_GB2312|b0|i0|c134|p49;技术参数}:\P\pq*;- {\f仿宋_GB2312|b0|i0|c134|p49;材料}: {\f仿宋_GB2312|b0|i0|c134|p49;铜合金}\P- {\f仿宋_GB2312|b0|i0|c134|p49;表面处理}: {\f仿宋_GB2312|b0|i0|c134|p49;镀金}\P\pql;- {\f仿宋_GB2312|b0|i0|c134|p49;额定电流}: 10A\P- {\f仿宋_GB231
  1
2|b0|i0|c134|p49;接触电阻}: ≤3mΩ\P- {\f仿宋_GB2312|b0|i0|c134|p49;线径范围}: 2.5mm{\H0.7x;\S2^ ;}(14 AWG)\P\pq*;- {\f仿宋_GB2312|b0|i0|c134|p49;可插拔次数}: {\f仿宋_GB2312|b0|i0|c134|p49;≥}500\P\P\pql;Technical specification:\P- Material: copper alloy\P- Surface: hard-g
  1
old plated\P- Rated current: 10A\P- Contact resistance: ≤3mΩ\P- Wire gauge: 2.5mm{\H0.7x;\S2^ ;}(14 AWG)\P- Mating cycles: {\f仿宋_GB2312|b0|i0|c134|p49;≥}500
  0
LAYOUT
  5
22F
102
{ACAD_REACTORS
330
22A
102
}
330
22A
100
AcDbPlotSettings
  1

  2
none_device
  4

  6

 40
0.0
 41
0.0
 42
0.0
 43
0.0
 44
0.0
 45
0.0
 46
0.0
 47
0.0
 48
0.0
 49
0.0
140
0.0
141
0.0
142
1.0
143
1.0
 70
   688
 72
     0
 73
     0
 74
     5
  7

 75
    16
147
1.0
 76
     0
 77
     2
 78
   300
148
0.0
149
0.0
100
AcDbLayout
  1
Layout1
 70
     1
 71
     1
 10
0.0
 20
0.0
 11
12.0
 21
9.0
 12
0.0
 22
0.0
 32
0.0
 14
1.000000000000000E+20
 24
1.000000000000000E+20
 34
1.000000000000000E+20
 15
-1.000000000000000E+20
 25
-1.000000000000000E+20
 35
-1.000000000000000E+20
146
0.0
 13
0.0
 23
0.0
 33
0.0
 16
1.0
 26
0.0
 36
0.0
 17
0.0
 27
1.0
 37
0.0
 76
     0
330
22C
  0
LAYOUT
  5
233
102
{ACAD_REACTORS
330
22A
102
}
330
22A
100
AcDbPlotSettings
  1

  2
none_device
  4

  6

 40
0.0
 41
0.0
 42
0.0
 43
0.0
 44
0.0
 45
0.0
 46
0.0
 47
0.0
 48
0.0
 49
0.0
140
0.0
141
0.0
142
1.0
143
1.0
 70
   688
 72
     0
 73
     0
 74
     5
  7

 75
    16
147
1.0
 76
     0
 77
     2
 78
   300
148
0.0
149
0.0
100
AcDbLayout
  1
Layout2
 70
     1
 71
     2
 10
0.0
 20
0.0
 11
0.0
 21
0.0
 12
0.0
 22
0.0
 32
0.0
 14
0.0
 24
0.0
 34
0.0
 15
0.0
 25
0.0
 35
0.0
146
0.0
 13
0.0
 23
0.0
 33
0.0
 16
1.0
 26
0.0
 36
0.0
 17
0.0
 27
1.0
 37
0.0
 76
     0
330
230
  0
LAYOUT
  5
229
102
{ACAD_REACTORS
330
22A
102
}
330
22A
100
AcDbPlotSettings
  1

  2
Adobe PDF Converter.pc3
  4
A4
  6

 40
3.174999952316281
 41
3.174999952316281
 42
3.17498779296875
 43
3.175003051757812
 44
297.0318298339844
 45
209.9733276367186
 46
0.0000000000000076
 47
1.630241740247063
 48
246.9897427644609
 49
39.36804549891383
140
544.952097801264
141
244.7492402188181
142
1.0
143
1.025046328645055
 70
  3764
 72
     1
 73
     0
 74
     4
  7
monochrome.ctb
 75
     0
147
0.9755656618192436
 76
     1
 77
     2
 78
   300
148
-246.9897427644609
149
-39.36804549891383
100
AcDbLayout
  1
Model
 70
     1
 71
     0
 10
0.0
 20
0.0
 11
12.0
 21
9.0
 12
0.0
 22
0.0
 32
0.0
 14
1.000000000000000E+20
 24
1.000000000000000E+20
 34
1.000000000000000E+20
 15
-1.000000000000000E+20
 25
-1.000000000000000E+20
 35
-1.000000000000000E+20
146
0.0
 13
0.0
 23
0.0
 33
0.0
 16
1.0
 26
0.0
 36
0.0
 17
0.0
 27
1.0
 37
0.0
 76
     0
330
2
331
241
1001
ACAD_PSEXT
1000
Adobe PDF Converter.pc3
1000
Adobe PDF Converter
1000
桌面\*.pdf
1000

1070
     0
  0
MATERIAL
  5
254
102
{ACAD_XDICTIONARY
360
255
102
}
102
{ACAD_REACTORS
330
D
102
}
330
D
100
AcDbMaterial
  1
ByBlock
 72
     0
 43
0.0208333333333333
 43
0.0
 43
0.0
 43
0.0
 43
0.0
 43
0.0208333333333333
 43
0.0
 43
0.0
 43
0.0
 43
0.0
 43
1.0
 43
0.0
 43
0.0
 43
0.0
 43
0.0
 43
1.0
 77
     0
 47
0.0208333333333333
 47
0.0
 47
0.0
 47
0.0
 47
0.0
 47
0.0208333333333333
 47
0.0
 47
0.0
 47
0.0
 47
0.0
 47
1.0
 47
0.0
 47
0.0
 47
0.0
 47
0.0
 47
1.0
171
     0
 49
0.0208333333333333
 49
0.0
 49
0.0
 49
0.0
 49
0.0
 49
0.0208333333333333
 49
0.0
 49
0.0
 49
0.0
 49
0.0
 49
1.0
 49
0.0
 49
0.0
 49
0.0
 49
0.0
 49
1.0
175
     0
142
0.0208333333333333
142
0.0
142
0.0
142
0.0
142
0.0
142
0.0208333333333333
142
0.0
142
0.0
142
0.0
142
0.0
142
1.0
142
0.0
142
0.0
142
0.0
142
0.0
142
1.0
179
     0
144
0.0208333333333333
144
0.0
144
0.0
144
0.0
144
0.0
144
0.0208333333333333
144
0.0
144
0.0
144
0.0
144
0.0
144
1.0
144
0.0
144
0.0
144
0.0
144
0.0
144
1.0
147
0.0208333333333333
147
0.0
147
0.0
147
0.0
147
0.0
147
0.0208333333333333
147
0.0
147
0.0
147
0.0
147
0.0
147
1.0
147
0.0
147
0.0
147
0.0
147
0.0
147
1.0
  0
MATERIAL
  5
24C
102
{ACAD_XDICTIONARY
360
24D
102
}
102
{ACAD_REACTORS
330
D
102
}
330
D
100
AcDbMaterial
  1
ByLayer
 72
     0
 43
0.0208333333333333
 43
0.0
 43
0.0
 43
0.0
 43
0.0
 43
0.0208333333333333
 43
0.0
 43
0.0
 43
0.0
 43
0.0
 43
1.0
 43
0.0
 43
0.0
 43
0.0
 43
0.0
 43
1.0
 77
     0
 47
0.0208333333333333
 47
0.0
 47
0.0
 47
0.0
 47
0.0
 47
0.0208333333333333
 47
0.0
 47
0.0
 47
0.0
 47
0.0
 47
1.0
 47
0.0
 47
0.0
 47
0.0
 47
0.0
 47
1.0
171
     0
 49
0.0208333333333333
 49
0.0
 49
0.0
 49
0.0
 49
0.0
 49
0.0208333333333333
 49
0.0
 49
0.0
 49
0.0
 49
0.0
 49
1.0
 49
0.0
 49
0.0
 49
0.0
 49
0.0
 49
1.0
175
     0
142
0.0208333333333333
142
0.0
142
0.0
142
0.0
142
0.0
142
0.0208333333333333
142
0.0
142
0.0
142
0.0
142
0.0
142
1.0
142
0.0
142
0.0
142
0.0
142
0.0
142
1.0
179
     0
144
0.0208333333333333
144
0.0
144
0.0
144
0.0
144
0.0
144
0.0208333333333333
144
0.0
144
0.0
144
0.0
144
0.0
144
1.0
144
0.0
144
0.0
144
0.0
144
0.0
144
1.0
147
0.0208333333333333
147
0.0
147
0.0
147
0.0
147
0.0
147
0.0208333333333333
147
0.0
147
0.0
147
0.0
147
0.0
147
1.0
147
0.0
147
0.0
147
0.0
147
0.0
147
1.0
  0
MATERIAL
  5
C
102
{ACAD_XDICTIONARY
360
E
102
}
102
{ACAD_REACTORS
330
D
102
}
330
D
100
AcDbMaterial
  1
Global
 72
     0
 43
0.0208333333333333
 43
0.0
 43
0.0
 43
0.0
 43
0.0
 43
0.0208333333333333
 43
0.0
 43
0.0
 43
0.0
 43
0.0
 43
1.0
 43
0.0
 43
0.0
 43
0.0
 43
0.0
 43
1.0
 77
     0
 47
0.0208333333333333
 47
0.0
 47
0.0
 47
0.0
 47
0.0
 47
0.0208333333333333
 47
0.0
 47
0.0
 47
0.0
 47
0.0
 47
1.0
 47
0.0
 47
0.0
 47
0.0
 47
0.0
 47
1.0
171
     0
 49
0.0208333333333333
 49
0.0
 49
0.0
 49
0.0
 49
0.0
 49
0.0208333333333333
 49
0.0
 49
0.0
 49
0.0
 49
0.0
 49
1.0
 49
0.0
 49
0.0
 49
0.0
 49
0.0
 49
1.0
175
     0
142
0.0208333333333333
142
0.0
142
0.0
142
0.0
142
0.0
142
0.0208333333333333
142
0.0
142
0.0
142
0.0
142
0.0
142
1.0
142
0.0
142
0.0
142
0.0
142
0.0
142
1.0
179
     0
144
0.0208333333333333
144
0.0
144
0.0
144
0.0
144
0.0
144
0.0208333333333333
144
0.0
144
0.0
144
0.0
144
0.0
144
1.0
144
0.0
144
0.0
144
0.0
144
0.0
144
1.0
147
0.0208333333333333
147
0.0
147
0.0
147
0.0
147
0.0
147
0.0208333333333333
147
0.0
147
0.0
147
0.0
147
0.0
147
1.0
147
0.0
147
0.0
147
0.0
147
0.0
147
1.0
  0
MLEADERSTYLE
  5
2BF
102
{ACAD_REACTORS
330
2BE
102
}
330
2BE
100
AcDbMLeaderStyle
170
     2
171
     1
172
     0
 90
        2
 40
0.0
 41
0.0
173
     1
 91
-1056964608
340
23C
 92
       -2
290
     1
 42
0.09
291
     1
 43
0.36
  3
Standard
 44
0.18
300

342
46
174
     1
178
     6
175
     1
176
     0
 93
-1056964608
 45
0.18
292
     0
297
     0
 46
0.18
 94
-1056964608
 47
1.0
 49
1.0
140
1.0
293
     1
141
0.0
294
     1
177
     0
142
1.0
295
     0
296
     0
143
0.125
1001
ACAD_MLEADERVER
1070
     2
  0
MLINESTYLE
  5
25F
102
{ACAD_REACTORS
330
24A
102
}
330
24A
100
AcDbMlineStyle
  2
STANDARD
 70
     0
  3

 62
   256
 51
90.0
 52
90.0
 71
     2
 49
0.5
 62
   256
  6
BYLAYER
 49
-0.5
 62
   256
  6
BYLAYER
  0
ACDBPLACEHOLDER
  5
9
102
{ACAD_REACTORS
330
A
102
}
330
A
  0
SCALE
  5
264
102
{ACAD_REACTORS
330
25D
102
}
330
25D
100
AcDbScale
 70
     0
300
1:1
140
1.0
141
1.0
290
     1
  0
SCALE
  5
265
102
{ACAD_REACTORS
330
25D
102
}
330
25D
100
AcDbScale
 70
     0
300
1:2
140
1.0
141
2.0
290
     0
  0
SCALE
  5
266
102
{ACAD_REACTORS
330
25D
102
}
330
25D
100
AcDbScale
 70
     0
300
1:4
140
1.0
141
4.0
290
     0
  0
SCALE
  5
267
102
{ACAD_REACTORS
330
25D
102
}
330
25D
100
AcDbScale
 70
     0
300
1:5
140
1.0
141
5.0
290
     0
  0
SCALE
  5
268
102
{ACAD_REACTORS
330
25D
102
}
330
25D
100
AcDbScale
 70
     0
300
1:8
140
1.0
141
8.0
290
     0
  0
SCALE
  5
269
102
{ACAD_REACTORS
330
25D
102
}
330
25D
100
AcDbScale
 70
     0
300
1:10
140
1.0
141
10.0
290
     0
  0
SCALE
  5
26A
102
{ACAD_REACTORS
330
25D
102
}
330
25D
100
AcDbScale
 70
     0
300
1:16
140
1.0
141
16.0
290
     0
  0
SCALE
  5
26B
102
{ACAD_REACTORS
330
25D
102
}
330
25D
100
AcDbScale
 70
     0
300
1:20
140
1.0
141
20.0
290
     0
  0
SCALE
  5
26C
102
{ACAD_REACTORS
330
25D
102
}
330
25D
100
AcDbScale
 70
     0
300
1:30
140
1.0
141
30.0
290
     0
  0
SCALE
  5
26D
102
{ACAD_REACTORS
330
25D
102
}
330
25D
100
AcDbScale
 70
     0
300
1:40
140
1.0
141
40.0
290
     0
  0
SCALE
  5
26E
102
{ACAD_REACTORS
330
25D
102
}
330
25D
100
AcDbScale
 70
     0
300
1:50
140
1.0
141
50.0
290
     0
  0
SCALE
  5
26F
102
{ACAD_REACTORS
330
25D
102
}
330
25D
100
AcDbScale
 70
     0
300
1:100
140
1.0
141
100.0
290
     0
  0
SCALE
  5
270
102
{ACAD_REACTORS
330
25D
102
}
330
25D
100
AcDbScale
 70
     0
300
2:1
140
2.0
141
1.0
290
     0
  0
SCALE
  5
271
102
{ACAD_REACTORS
330
25D
102
}
330
25D
100
AcDbScale
 70
     0
300
4:1
140
4.0
141
1.0
290
     0
  0
SCALE
  5
272
102
{ACAD_REACTORS
330
25D
102
}
330
25D
100
AcDbScale
 70
     0
300
8:1
140
8.0
141
1.0
290
     0
  0
SCALE
  5
273
102
{ACAD_REACTORS
330
25D
102
}
330
25D
100
AcDbScale
 70
     0
300
10:1
140
10.0
141
1.0
290
     0
  0
SCALE
  5
274
102
{ACAD_REACTORS
330
25D
102
}
330
25D
100
AcDbScale
 70
     0
300
100:1
140
100.0
141
1.0
290
     0
  0
SCALE
  5
275
102
{ACAD_REACTORS
330
25D
102
}
330
25D
100
AcDbScale
 70
     0
300
1/128" = 1'-0"
140
0.0078125
141
12.0
290
     0
  0
SCALE
  5
276
102
{ACAD_REACTORS
330
25D
102
}
330
25D
100
AcDbScale
 70
     0
300
1/64" = 1'-0"
140
0.015625
141
12.0
290
     0
  0
SCALE
  5
277
102
{ACAD_REACTORS
330
25D
102
}
330
25D
100
AcDbScale
 70
     0
300
1/32" = 1'-0"
140
0.03125
141
12.0
290
     0
  0
SCALE
  5
278
102
{ACAD_REACTORS
330
25D
102
}
330
25D
100
AcDbScale
 70
     0
300
1/16" = 1'-0"
140
0.0625
141
12.0
290
     0
  0
SCALE
  5
279
102
{ACAD_REACTORS
330
25D
102
}
330
25D
100
AcDbScale
 70
     0
300
3/32" = 1'-0"
140
0.09375
141
12.0
290
     0
  0
SCALE
  5
27A
102
{ACAD_REACTORS
330
25D
102
}
330
25D
100
AcDbScale
 70
     0
300
1/8" = 1'-0"
140
0.125
141
12.0
290
     0
  0
SCALE
  5
27B
102
{ACAD_REACTORS
330
25D
102
}
330
25D
100
AcDbScale
 70
     0
300
3/16" = 1'-0"
140
0.1875
141
12.0
290
     0
  0
SCALE
  5
27C
102
{ACAD_REACTORS
330
25D
102
}
330
25D
100
AcDbScale
 70
     0
300
1/4" = 1'-0"
140
0.25
141
12.0
290
     0
  0
SCALE
  5
27D
102
{ACAD_REACTORS
330
25D
102
}
330
25D
100
AcDbScale
 70
     0
300
3/8" = 1'-0"
140
0.375
141
12.0
290
     0
  0
SCALE
  5
27E
102
{ACAD_REACTORS
330
25D
102
}
330
25D
100
AcDbScale
 70
     0
300
1/2" = 1'-0"
140
0.5
141
12.0
290
     0
  0
SCALE
  5
27F
102
{ACAD_REACTORS
330
25D
102
}
330
25D
100
AcDbScale
 70
     0
300
3/4" = 1'-0"
140
0.75
141
12.0
290
     0
  0
SCALE
  5
280
102
{ACAD_REACTORS
330
25D
102
}
330
25D
100
AcDbScale
 70
     0
300
1" = 1'-0"
140
1.0
141
12.0
290
     0
  0
SCALE
  5
281
102
{ACAD_REACTORS
330
25D
102
}
330
25D
100
AcDbScale
 70
     0
300
1-1/2" = 1'-0"
140
1.5
141
12.0
290
     0
  0
SCALE
  5
282
102
{ACAD_REACTORS
330
25D
102
}
330
25D
100
AcDbScale
 70
     0
300
3" = 1'-0"
140
3.0
141
12.0
290
     0
  0
SCALE
  5
283
102
{ACAD_REACTORS
330
25D
102
}
330
25D
100
AcDbScale
 70
     0
300
6" = 1'-0"
140
6.0
141
12.0
290
     0
  0
SCALE
  5
284
102
{ACAD_REACTORS
330
25D
102
}
330
25D
100
AcDbScale
 70
     0
300
1'-0" = 1'-0"
140
12.0
141
12.0
290
     0
  0
TABLESTYLE
  5
260
102
{ACAD_XDICTIONARY
360
261
102
}
102
{ACAD_REACTORS
330
25E
102
}
330
25E
100
AcDbTableStyle
  3
Standard
 70
     0
 71
     0
 40
0.06
 41
0.06
280
     0
281
     0
  7
Standard
140
0.18
170
     2
 62
     0
 63
     7
283
     0
 90
      512
 91
        0
  1

274
    -2
284
     1
 64
     0
275
    -2
285
     1
 65
     0
276
    -2
286
     1
 66
     0
277
    -2
287
     1
 67
     0
278
    -2
288
     1
 68
     0
279
    -2
289
     1
 69
     0
  7
Standard
140
0.25
170
     5
 62
     0
 63
     7
283
     0
 90
      512
 91
        0
  1

274
    -2
284
     1
 64
     0
275
    -2
285
     1
 65
     0
276
    -2
286
     1
 66
     0
277
    -2
287
     1
 67
     0
278
    -2
288
     1
 68
     0
279
    -2
289
     1
 69
     0
  7
Standard
140
0.18
170
     5
 62
     0
 63
     7
283
     0
 90
      512
 91
        0
  1

274
    -2
284
     1
 64
     0
275
    -2
285
     1
 65
     0
276
    -2
286
     1
 66
     0
277
    -2
287
     1
 67
     0
278
    -2
288
     1
 68
     0
279
    -2
289
     1
 69
     0
  0
VISUALSTYLE
  5
242
102
{ACAD_REACTORS
330
243
102
}
330
243
100
AcDbVisualStyle
  2
2dWireframe
 70
     4
 71
     0
 72
     2
 73
     0
 90
        0
 40
-0.6
 41
-30.0
 62
     5
 63
     7
 74
     1
 91
        4
 64
     7
 65
   257
 75
     1
175
     1
 42
1.0
 92
        0
 66
   257
 43
1.0
 76
     1
 77
     6
 78
     2
 67
     7
 79
     5
170
     0
171
     0
290
     0
174
     0
 93
        1
 44
0.0
173
     0
291
     0
 45
0.0
1001
ACAD
1000
AcDbSavedByObjectVersion
1070
     0
1000
AcDbSavedByObjectVersion
1070
     0
1000
AcDbSavedByObjectVersion
1070
     0
1000
AcDbSavedByObjectVersion
1070
     0
1000
AcDbSavedByObjectVersion
1070
     0
1000
AcDbSavedByObjectVersion
1070
     0
1000
AcDbSavedByObjectVersion
1070
     0
1000
AcDbSavedByObjectVersion
1070
     0
1000
AcDbSavedByObjectVersion
1070
     0
1000
AcDbSavedByObjectVersion
1070
     0
1000
AcDbSavedByObjectVersion
1070
     0
1000
AcDbSavedByObjectVersion
1070
     0
1000
AcDbSavedByObjectVersion
1070
     0
1000
AcDbSavedByObjectVersion
1070
     0
1000
AcDbSavedByObjectVersion
1070
     0
1000
AcDbSavedByObjectVersion
1070
     0
1000
AcDbSavedByObjectVersion
1070
     0
1000
AcDbSavedByObjectVersion
1070
     0
1000
AcDbSavedByObjectVersion
1070
     0
1000
AcDbSavedByObjectVersion
1070
     0
1000
AcDbSavedByObjectVersion
1070
     0
1000
AcDbSavedByObjectVersion
1070
     0
1000
AcDbSavedByObjectVersion
1070
     0
1000
AcDbSavedByObjectVersion
1070
     0
1000
AcDbSavedByObjectVersion
1070
     0
1000
AcDbSavedByObjectVersion
1070
     0
1000
AcDbSavedByObjectVersion
1070
     0
1000
AcDbSavedByObjectVersion
1070
     0
1000
AcDbSavedByObjectVersion
1070
     0
1000
AcDbSavedByObjectVersion
1070
     0
  0
VISUALSTYLE
  5
2B6
102
{ACAD_REACTORS
330
243
102
}
330
243
100
AcDbVisualStyle
  2
3D Hidden
 70
     6
 71
     1
 72
     2
 73
     2
 90
        0
 40
-0.6
 41
-30.0
 62
     5
 63
     7
 74
     2
 91
        2
 64
     7
 65
   257
 75
     2
175
     1
 42
40.0
 92
        0
 66
   257
 43
1.0
 76
     1
 77
     6
 78
     2
 67
     7
 79
     3
170
     0
171
     0
290
     0
174
     0
 93
        1
 44
0.0
173
     0
291
     0
 45
0.0
1001
ACAD
1000
AcDbSavedByObjectVersion
1070
     0
1000
AcDbSavedByObjectVersion
1070
     0
  0
VISUALSTYLE
  5
263
102
{ACAD_REACTORS
330
243
102
}
330
243
100
AcDbVisualStyle
  2
3dWireframe
 70
     5
 71
     0
 72
     2
 73
     0
 90
        0
 40
-0.6
 41
-30.0
 62
     5
 63
     7
 74
     1
 91
        4
 64
     7
 65
   257
 75
     1
175
     1
 42
1.0
 92
        0
 66
   257
 43
1.0
 76
     1
 77
     6
 78
     2
 67
     7
 79
     5
170
     0
171
     0
290
     0
174
     0
 93
        1
 44
0.0
173
     0
291
     0
 45
0.0
1001
ACAD
1000
AcDbSavedByObjectVersion
1070
     0
1000
AcDbSavedByObjectVersion
1070
     0
1000
AcDbSavedByObjectVersion
1070
     0
1000
AcDbSavedByObjectVersion
1070
     0
1000
AcDbSavedByObjectVersion
1070
     0
1000
AcDbSavedByObjectVersion
1070
     0
1000
AcDbSavedByObjectVersion
1070
     0
1000
AcDbSavedByObjectVersion
1070
     0
1000
AcDbSavedByObjectVersion
1070
     0
1000
AcDbSavedByObjectVersion
1070
     0
1000
AcDbSavedByObjectVersion
1070
     0
1000
AcDbSavedByObjectVersion
1070
     0
1000
AcDbSavedByObjectVersion
1070
     0
1000
AcDbSavedByObjectVersion
1070
     0
1000
AcDbSavedByObjectVersion
1070
     0
1000
AcDbSavedByObjectVersion
1070
     0
1000
AcDbSavedByObjectVersion
1070
     0
1000
AcDbSavedByObjectVersion
1070
     0
1000
AcDbSavedByObjectVersion
1070
     0
1000
AcDbSavedByObjectVersion
1070
     0
1000
AcDbSavedByObjectVersion
1070
     0
1000
AcDbSavedByObjectVersion
1070
     0
1000
AcDbSavedByObjectVersion
1070
     0
1000
AcDbSavedByObjectVersion
1070
     0
1000
AcDbSavedByObjectVersion
1070
     0
1000
AcDbSavedByObjectVersion
1070
     0
1000
AcDbSavedByObjectVersion
1070
     0
1000
AcDbSavedByObjectVersion
1070
     0
1000
AcDbSavedByObjectVersion
1070
     0
1000
AcDbSavedByObjectVersion
1070
     0
  0
VISUALSTYLE
  5
2B5
102
{ACAD_REACTORS
330
243
102
}
330
243
100
AcDbVisualStyle
  2
Basic
 70
     7
 71
     1
 72
     0
 73
     1
 90
        0
 40
-0.6
 41
-30.0
 62
     5
 63
     7
 74
     0
 91
        4
 64
     7
 65
   257
 75
     1
175
     1
 42
1.0
 92
        8
 66
     7
 43
1.0
 76
     1
 77
     6
 78
     2
 67
     7
 79
     5
170
     0
171
     0
290
     0
174
     0
 93
        1
 44
0.0
173
     0
291
     1
 45
0.0
1001
ACAD
1000
AcDbSavedByObjectVersion
1070
     0
1000
AcDbSavedByObjectVersion
1070
     0
  0
VISUALSTYLE
  5
2B9
102
{ACAD_REACTORS
330
243
102
}
330
243
100
AcDbVisualStyle
  2
Brighten
 70
    12
 71
     2
 72
     2
 73
     0
 90
        0
 40
-0.6
 41
-30.0
 62
     5
 63
     7
 74
     1
 91
        4
 64
     7
 65
   257
 75
     1
175
     1
 42
1.0
 92
        8
 66
     7
 43
1.0
 76
     1
 77
     6
 78
     2
 67
     7
 79
     5
170
     0
171
     0
290
     0
174
     0
 93
        1
 44
50.0
173
     0
291
     1
 45
0.0
1001
ACAD
1000
AcDbSavedByObjectVersion
1070
     0
1000
AcDbSavedByObjectVersion
1070
     0
  0
VISUALSTYLE
  5
2BD
102
{ACAD_REACTORS
330
243
102
}
330
243
100
AcDbVisualStyle
  2
ColorChange
 70
    16
 71
     2
 72
     2
 73
     3
 90
        0
 40
-0.6
 41
-30.0
 62
     5
 63
     8
 74
     1
 91
        4
 64
     7
 65
   257
 75
     1
175
     1
 42
1.0
 92
        8
 66
     8
 43
1.0
 76
     1
 77
     6
 78
     2
 67
     7
 79
     5
170
     0
171
     0
290
     0
174
     0
 93
        1
 44
0.0
173
     0
291
     1
 45
0.0
1001
ACAD
1000
AcDbSavedByObjectVersion
1070
     0
1000
AcDbSavedByObjectVersion
1070
     0
  0
VISUALSTYLE
  5
2B7
102
{ACAD_REACTORS
330
243
102
}
330
243
100
AcDbVisualStyle
  2
Conceptual
 70
     9
 71
     3
 72
     2
 73
     0
 90
        0
 40
-0.6
 41
-30.0
 62
     5
 63
     7
 74
     2
 91
        2
 64
     7
 65
   257
 75
     1
175
     1
 42
40.0
 92
        8
 66
     7
 43
1.0
 76
     1
 77
     6
 78
     2
 67
     7
 79
     3
170
     0
171
     0
290
     0
174
     0
 93
        1
 44
0.0
173
     0
291
     0
 45
0.0
1001
ACAD
1000
AcDbSavedByObjectVersion
1070
     0
1000
AcDbSavedByObjectVersion
1070
     0
  0
VISUALSTYLE
  5
2B8
102
{ACAD_REACTORS
330
243
102
}
330
243
100
AcDbVisualStyle
  2
Dim
 70
    11
 71
     2
 72
     2
 73
     0
 90
        0
 40
-0.6
 41
-30.0
 62
     5
 63
     7
 74
     1
 91
        4
 64
     7
 65
   257
 75
     1
175
     1
 42
1.0
 92
        8
 66
     7
 43
1.0
 76
     1
 77
     6
 78
     2
 67
     7
 79
     5
170
     0
171
     0
290
     0
174
     0
 93
        1
 44
-50.0
173
     0
291
     1
 45
0.0
1001
ACAD
1000
AcDbSavedByObjectVersion
1070
     0
1000
AcDbSavedByObjectVersion
1070
     0
  0
VISUALSTYLE
  5
2BC
102
{ACAD_REACTORS
330
243
102
}
330
243
100
AcDbVisualStyle
  2
Facepattern
 70
    15
 71
     2
 72
     2
 73
     0
 90
        0
 40
-0.6
 41
-30.0
 62
     5
 63
     7
 74
     1
 91
        4
 64
     7
 65
   257
 75
     1
175
     1
 42
1.0
 92
        8
 66
     7
 43
1.0
 76
     1
 77
     6
 78
     2
 67
     7
 79
     5
170
     0
171
     0
290
     0
174
     0
 93
        1
 44
0.0
173
     0
291
     1
 45
0.0
1001
ACAD
1000
AcDbSavedByObjectVersion
1070
     0
1000
AcDbSavedByObjectVersion
1070
     0
  0
VISUALSTYLE
  5
2B1
102
{ACAD_REACTORS
330
243
102
}
330
243
100
AcDbVisualStyle
  2
Flat
 70
     0
 71
     2
 72
     1
 73
     1
 90
        2
 40
-0.6
 41
30.0
 62
     5
 63
     7
 74
     0
 91
        4
 64
     7
 65
   257
 75
     1
175
     1
 42
1.0
 92
        8
 66
     7
 43
1.0
 76
     1
 77
     6
 78
     2
 67
     7
 79
     5
170
     0
171
     0
290
     0
174
     0
 93
       13
 44
0.0
173
     0
291
     1
 45
0.0
1001
ACAD
1000
AcDbSavedByObjectVersion
1070
     0
1000
AcDbSavedByObjectVersion
1070
     0
  0
VISUALSTYLE
  5
2B2
102
{ACAD_REACTORS
330
243
102
}
330
243
100
AcDbVisualStyle
  2
FlatWithEdges
 70
     1
 71
     2
 72
     1
 73
     1
 90
        2
 40
-0.6
 41
30.0
 62
     5
 63
     7
 74
     1
 91
        4
 64
     7
 65
   257
 75
     1
175
     1
 42
1.0
 92
        0
 66
   257
 43
1.0
 76
     1
 77
     6
 78
     2
 67
     7
 79
     5
170
     0
171
     0
290
     0
174
     0
 93
       13
 44
0.0
173
     0
291
     1
 45
0.0
1001
ACAD
1000
AcDbSavedByObjectVersion
1070
     0
1000
AcDbSavedByObjectVersion
1070
     0
  0
VISUALSTYLE
  5
2B3
102
{ACAD_REACTORS
330
243
102
}
330
243
100
AcDbVisualStyle
  2
Gouraud
 70
     2
 71
     2
 72
     2
 73
     1
 90
        2
 40
-0.6
 41
30.0
 62
     5
 63
     7
 74
     0
 91
        4
 64
     7
 65
   257
 75
     1
175
     1
 42
1.0
 92
        0
 66
     7
 43
1.0
 76
     1
 77
     6
 78
     2
 67
     7
 79
     5
170
     0
171
     0
290
     0
174
     0
 93
       13
 44
0.0
173
     0
291
     1
 45
0.0
1001
ACAD
1000
AcDbSavedByObjectVersion
1070
     0
1000
AcDbSavedByObjectVersion
1070
     0
  0
VISUALSTYLE
  5
2B4
102
{ACAD_REACTORS
330
243
102
}
330
243
100
AcDbVisualStyle
  2
GouraudWithEdges
 70
     3
 71
     2
 72
     2
 73
     1
 90
        2
 40
-0.6
 41
30.0
 62
     5
 63
     7
 74
     1
 91
        4
 64
     7
 65
   257
 75
     1
175
     1
 42
1.0
 92
        0
 66
   257
 43
1.0
 76
     1
 77
     6
 78
     2
 67
     7
 79
     5
170
     0
171
     0
290
     0
174
     0
 93
       13
 44
0.0
173
     0
291
     1
 45
0.0
1001
ACAD
1000
AcDbSavedByObjectVersion
1070
     0
1000
AcDbSavedByObjectVersion
1070
     0
  0
VISUALSTYLE
  5
2BB
102
{ACAD_REACTORS
330
243
102
}
330
243
100
AcDbVisualStyle
  2
Linepattern
 70
    14
 71
     2
 72
     2
 73
     0
 90
        0
 40
-0.6
 41
-30.0
 62
     5
 63
     7
 74
     1
 91
        4
 64
     7
 65
   257
 75
     7
175
     7
 42
1.0
 92
        8
 66
     7
 43
1.0
 76
     1
 77
     6
 78
     2
 67
     7
 79
     5
170
     0
171
     0
290
     0
174
     0
 93
        1
 44
0.0
173
     0
291
     1
 45
0.0
1001
ACAD
1000
AcDbSavedByObjectVersion
1070
     0
1000
AcDbSavedByObjectVersion
1070
     0
  0
VISUALSTYLE
  5
262
102
{ACAD_REACTORS
330
243
102
}
330
243
100
AcDbVisualStyle
  2
Realistic
 70
     8
 71
     2
 72
     2
 73
     0
 90
        0
 40
-0.6
 41
-30.0
 62
     5
 63
     7
 74
     1
 91
        0
 64
     7
 65
   257
 75
     1
175
     1
 42
1.0
 92
        8
 66
     8
 43
1.0
 76
     1
 77
     6
 78
     2
 67
     7
 79
     5
170
     0
171
     0
290
     0
174
     0
 93
       13
 44
0.0
173
     0
291
     0
 45
0.0
1001
ACAD
1000
AcDbSavedByObjectVersion
1070
     0
1000
AcDbSavedByObjectVersion
1070
     0
1000
AcDbSavedByObjectVersion
1070
     0
1000
AcDbSavedByObjectVersion
1070
     0
1000
AcDbSavedByObjectVersion
1070
     0
1000
AcDbSavedByObjectVersion
1070
     0
1000
AcDbSavedByObjectVersion
1070
     0
1000
AcDbSavedByObjectVersion
1070
     0
1000
AcDbSavedByObjectVersion
1070
     0
1000
AcDbSavedByObjectVersion
1070
     0
1000
AcDbSavedByObjectVersion
1070
     0
1000
AcDbSavedByObjectVersion
1070
     0
1000
AcDbSavedByObjectVersion
1070
     0
1000
AcDbSavedByObjectVersion
1070
     0
1000
AcDbSavedByObjectVersion
1070
     0
1000
AcDbSavedByObjectVersion
1070
     0
1000
AcDbSavedByObjectVersion
1070
     0
1000
AcDbSavedByObjectVersion
1070
     0
1000
AcDbSavedByObjectVersion
1070
     0
1000
AcDbSavedByObjectVersion
1070
     0
1000
AcDbSavedByObjectVersion
1070
     0
1000
AcDbSavedByObjectVersion
1070
     0
1000
AcDbSavedByObjectVersion
1070
     0
1000
AcDbSavedByObjectVersion
1070
     0
1000
AcDbSavedByObjectVersion
1070
     0
1000
AcDbSavedByObjectVersion
1070
     0
1000
AcDbSavedByObjectVersion
1070
     0
1000
AcDbSavedByObjectVersion
1070
     0
1000
AcDbSavedByObjectVersion
1070
     0
1000
AcDbSavedByObjectVersion
1070
     0
  0
VISUALSTYLE
  5
2BA
102
{ACAD_REACTORS
330
243
102
}
330
243
100
AcDbVisualStyle
  2
Thicken
 70
    13
 71
     2
 72
     2
 73
     0
 90
        0
 40
-0.6
 41
-30.0
 62
     5
 63
     7
 74
     1
 91
        4
 64
     7
 65
   257
 75
     1
175
     1
 42
1.0
 92
       12
 66
     7
 43
1.0
 76
     1
 77
     6
 78
     2
 67
     7
 79
     5
170
     0
171
     0
290
     0
174
     0
 93
        1
 44
0.0
173
     0
291
     1
 45
0.0
1001
ACAD
1000
AcDbSavedByObjectVersion
1070
     0
1000
AcDbSavedByObjectVersion
1070
     0
  0
DICTIONARYVAR
  5
289
102
{ACAD_REACTORS
330
286
102
}
330
286
100
DictionaryVariables
280
     0
  1
1:1
  0
DICTIONARYVAR
  5
288
102
{ACAD_REACTORS
330
286
102
}
330
286
100
DictionaryVariables
280
     0
  1
STANDARD
  0
DICTIONARYVAR
  5
287
102
{ACAD_REACTORS
330
286
102
}
330
286
100
DictionaryVariables
280
     0
  1
STANDARD
  0
DICTIONARYVAR
  5
3E7
102
{ACAD_REACTORS
330
286
102
}
330
286
100
DictionaryVariables
280
     0
  1
1
  0
DICTIONARYVAR
  5
3E6
102
{ACAD_REACTORS
330
286
102
}
330
286
100
DictionaryVariables
280
     0
  1
1
  0
DICTIONARYVAR
  5
3E5
102
{ACAD_REACTORS
330
286
102
}
330
286
100
DictionaryVariables
280
     0
  1
0
  0
DICTIONARYVAR
  5
28A
102
{ACAD_REACTORS
330
286
102
}
330
286
100
DictionaryVariables
280
     0
  1
0
  0
DICTIONARYVAR
  5
3E3
102
{ACAD_REACTORS
330
286
102
}
330
286
100
DictionaryVariables
280
     0
  1
1
  0
DICTIONARYVAR
  5
3E4
102
{ACAD_REACTORS
330
286
102
}
330
286
100
DictionaryVariables
280
     0
  1
127
  0
VLO-VL
  5
8F7
102
{ACAD_REACTORS
330
8F6
102
}
330
8F6
100
vlo_VL
 90
   -64512
 91
       12
 92
        1
 40
2.5
300
(&VLO-R . 0)
  0
DICTIONARY
  5
255
330
254
100
AcDbDictionary
280
     1
281
     1
  3
ACAD_XREC_ROUNDTRIP
360
44A
  3
BUMPTILE
360
256
  3
DIFFUSETILE
360
257
  3
OPACITYTILE
360
258
  3
REFLECTIONTILE
360
259
  3
REFRACTIONTILE
360
25A
  3
SPECULARTILE
360
25B
  0
DICTIONARY
  5
24D
330
24C
100
AcDbDictionary
280
     1
281
     1
  3
ACAD_XREC_ROUNDTRIP
360
449
  3
BUMPTILE
360
24E
  3
DIFFUSETILE
360
24F
  3
OPACITYTILE
360
250
  3
REFLECTIONTILE
360
251
  3
REFRACTIONTILE
360
252
  3
SPECULARTILE
360
253
  0
DICTIONARY
  5
E
330
C
100
AcDbDictionary
280
     1
281
     1
  3
ACAD_XREC_ROUNDTRIP
360
441
  3
BUMPTILE
360
F
  3
DIFFUSETILE
360
10
  3
OPACITYTILE
360
11
  3
REFLECTIONTILE
360
12
  3
REFRACTIONTILE
360
13
  3
SPECULARTILE
360
14
  0
DICTIONARY
  5
261
330
260
100
AcDbDictionary
280
     1
281
     1
  3
ACAD_ROUNDTRIP_2008_TABLESTYLE_CELLSTYLEMAP
360
EEE
  0
XRECORD
  5
44A
102
{ACAD_REACTORS
330
255
102
}
330
255
100
AcDbXrecord
280
     1
102
MATERIAL
148
0.0
149
0.0
149
0.0
 93
        0
 94
      127
282
     0
 72
     0
 77
     0
171
     0
175
     0
179
     0
273
     0
  0
XRECORD
  5
256
102
{ACAD_REACTORS
330
255
102
}
330
255
100
AcDbXrecord
280
     1
270
     1
271
     1
  0
XRECORD
  5
257
102
{ACAD_REACTORS
330
255
102
}
330
255
100
AcDbXrecord
280
     1
270
     1
271
     1
  0
XRECORD
  5
258
102
{ACAD_REACTORS
330
255
102
}
330
255
100
AcDbXrecord
280
     1
270
     1
271
     1
  0
XRECORD
  5
259
102
{ACAD_REACTORS
330
255
102
}
330
255
100
AcDbXrecord
280
     1
270
     1
271
     1
  0
XRECORD
  5
25A
102
{ACAD_REACTORS
330
255
102
}
330
255
100
AcDbXrecord
280
     1
270
     1
271
     1
  0
XRECORD
  5
25B
102
{ACAD_REACTORS
330
255
102
}
330
255
100
AcDbXrecord
280
     1
270
     1
271
     1
  0
XRECORD
  5
449
102
{ACAD_REACTORS
330
24D
102
}
330
24D
100
AcDbXrecord
280
     1
102
MATERIAL
148
0.0
149
0.0
149
0.0
 93
        0
 94
      127
282
     0
 72
     0
 77
     0
171
     0
175
     0
179
     0
273
     0
  0
XRECORD
  5
24E
102
{ACAD_REACTORS
330
24D
102
}
330
24D
100
AcDbXrecord
280
     1
270
     1
271
     1
  0
XRECORD
  5
24F
102
{ACAD_REACTORS
330
24D
102
}
330
24D
100
AcDbXrecord
280
     1
270
     1
271
     1
  0
XRECORD
  5
250
102
{ACAD_REACTORS
330
24D
102
}
330
24D
100
AcDbXrecord
280
     1
270
     1
271
     1
  0
XRECORD
  5
251
102
{ACAD_REACTORS
330
24D
102
}
330
24D
100
AcDbXrecord
280
     1
270
     1
271
     1
  0
XRECORD
  5
252
102
{ACAD_REACTORS
330
24D
102
}
330
24D
100
AcDbXrecord
280
     1
270
     1
271
     1
  0
XRECORD
  5
253
102
{ACAD_REACTORS
330
24D
102
}
330
24D
100
AcDbXrecord
280
     1
270
     1
271
     1
  0
XRECORD
  5
441
102
{ACAD_REACTORS
330
E
102
}
330
E
100
AcDbXrecord
280
     1
102
MATERIAL
148
0.0
149
0.0
149
0.0
 93
        0
 94
      127
282
     0
 72
     0
 77
     0
171
     0
175
     0
179
     0
273
     0
  0
XRECORD
  5
F
102
{ACAD_REACTORS
330
E
102
}
330
E
100
AcDbXrecord
280
     1
270
     1
271
     1
  0
XRECORD
  5
10
102
{ACAD_REACTORS
330
E
102
}
330
E
100
AcDbXrecord
280
     1
270
     1
271
     1
  0
XRECORD
  5
11
102
{ACAD_REACTORS
330
E
102
}
330
E
100
AcDbXrecord
280
     1
270
     1
271
     1
  0
XRECORD
  5
12
102
{ACAD_REACTORS
330
E
102
}
330
E
100
AcDbXrecord
280
     1
270
     1
271
     1
  0
XRECORD
  5
13
102
{ACAD_REACTORS
330
E
102
}
330
E
100
AcDbXrecord
280
     1
270
     1
271
     1
  0
XRECORD
  5
14
102
{ACAD_REACTORS
330
E
102
}
330
E
100
AcDbXrecord
280
     1
270
     1
271
     1
  0
CELLSTYLEMAP
  5
EEE
102
{ACAD_REACTORS
330
261
102
}
330
261
100
AcDbCellStyleMap
 90
        3
300
CELLSTYLE
  1
TABLEFORMAT_BEGIN
 90
        5
170
     1
 91
        0
 92
    32768
 62
   257
 93
        1
300
CONTENTFORMAT
  1
CONTENTFORMAT_BEGIN
 90
        0
 91
        0
 92
      512
 93
        0
300

 40
0.0
140
1.0
 94
        5
 62
     0
340
46
144
0.25
309
CONTENTFORMAT_END
171
     1
301
MARGIN
  1
CELLMARGIN_BEGIN
 40
0.06
 40
0.06
 40
0.06
 40
0.06
 40
0.18
 40
0.18
309
CELLMARGIN_END
 94
        6
 95
        1
302
GRIDFORMAT
  1
GRIDFORMAT_BEGIN
 90
        0
 91
        1
 62
     0
 92
       -2
340
0
 93
        0
 40
0.045
309
GRIDFORMAT_END
 95
        2
302
GRIDFORMAT
  1
GRIDFORMAT_BEGIN
 90
        0
 91
        1
 62
     0
 92
       -2
340
0
 93
        0
 40
0.045
309
GRIDFORMAT_END
 95
        4
302
GRIDFORMAT
  1
GRIDFORMAT_BEGIN
 90
        0
 91
        1
 62
     0
 92
       -2
340
0
 93
        0
 40
0.045
309
GRIDFORMAT_END
 95
        8
302
GRIDFORMAT
  1
GRIDFORMAT_BEGIN
 90
        0
 91
        1
 62
     0
 92
       -2
340
0
 93
        0
 40
0.045
309
GRIDFORMAT_END
 95
       16
302
GRIDFORMAT
  1
GRIDFORMAT_BEGIN
 90
        0
 91
        1
 62
     0
 92
       -2
340
0
 93
        0
 40
0.045
309
GRIDFORMAT_END
 95
       32
302
GRIDFORMAT
  1
GRIDFORMAT_BEGIN
 90
        0
 91
        1
 62
     0
 92
       -2
340
0
 93
        0
 40
0.045
309
GRIDFORMAT_END
309
TABLEFORMAT_END
  1
CELLSTYLE_BEGIN
 90
        1
 91
        1
300
_TITLE
309
CELLSTYLE_END
300
CELLSTYLE
  1
TABLEFORMAT_BEGIN
 90
        5
170
     1
 91
        0
 92
        0
 62
   257
 93
        1
300
CONTENTFORMAT
  1
CONTENTFORMAT_BEGIN
 90
        0
 91
        0
 92
      512
 93
        0
300

 40
0.0
140
1.0
 94
        5
 62
     0
340
46
144
0.18
309
CONTENTFORMAT_END
171
     1
301
MARGIN
  1
CELLMARGIN_BEGIN
 40
0.06
 40
0.06
 40
0.06
 40
0.06
 40
0.18
 40
0.18
309
CELLMARGIN_END
 94
        6
 95
        1
302
GRIDFORMAT
  1
GRIDFORMAT_BEGIN
 90
        0
 91
        1
 62
     0
 92
       -2
340
0
 93
        0
 40
0.045
309
GRIDFORMAT_END
 95
        2
302
GRIDFORMAT
  1
GRIDFORMAT_BEGIN
 90
        0
 91
        1
 62
     0
 92
       -2
340
0
 93
        0
 40
0.045
309
GRIDFORMAT_END
 95
        4
302
GRIDFORMAT
  1
GRIDFORMAT_BEGIN
 90
        0
 91
        1
 62
     0
 92
       -2
340
0
 93
        0
 40
0.045
309
GRIDFORMAT_END
 95
        8
302
GRIDFORMAT
  1
GRIDFORMAT_BEGIN
 90
        0
 91
        1
 62
     0
 92
       -2
340
0
 93
        0
 40
0.045
309
GRIDFORMAT_END
 95
       16
302
GRIDFORMAT
  1
GRIDFORMAT_BEGIN
 90
        0
 91
        1
 62
     0
 92
       -2
340
0
 93
        0
 40
0.045
309
GRIDFORMAT_END
 95
       32
302
GRIDFORMAT
  1
GRIDFORMAT_BEGIN
 90
        0
 91
        1
 62
     0
 92
       -2
340
0
 93
        0
 40
0.045
309
GRIDFORMAT_END
309
TABLEFORMAT_END
  1
CELLSTYLE_BEGIN
 90
        2
 91
        1
300
_HEADER
309
CELLSTYLE_END
300
CELLSTYLE
  1
TABLEFORMAT_BEGIN
 90
        5
170
     1
 91
        0
 92
        0
 62
   257
 93
        1
300
CONTENTFORMAT
  1
CONTENTFORMAT_BEGIN
 90
        0
 91
        0
 92
      512
 93
        0
300

 40
0.0
140
1.0
 94
        2
 62
     0
340
46
144
0.18
309
CONTENTFORMAT_END
171
     1
301
MARGIN
  1
CELLMARGIN_BEGIN
 40
0.06
 40
0.06
 40
0.06
 40
0.06
 40
0.18
 40
0.18
309
CELLMARGIN_END
 94
        6
 95
        1
302
GRIDFORMAT
  1
GRIDFORMAT_BEGIN
 90
        0
 91
        1
 62
     0
 92
       -2
340
0
 93
        0
 40
0.045
309
GRIDFORMAT_END
 95
        2
302
GRIDFORMAT
  1
GRIDFORMAT_BEGIN
 90
        0
 91
        1
 62
     0
 92
       -2
340
0
 93
        0
 40
0.045
309
GRIDFORMAT_END
 95
        4
302
GRIDFORMAT
  1
GRIDFORMAT_BEGIN
 90
        0
 91
        1
 62
     0
 92
       -2
340
0
 93
        0
 40
0.045
309
GRIDFORMAT_END
 95
        8
302
GRIDFORMAT
  1
GRIDFORMAT_BEGIN
 90
        0
 91
        1
 62
     0
 92
       -2
340
0
 93
        0
 40
0.045
309
GRIDFORMAT_END
 95
       16
302
GRIDFORMAT
  1
GRIDFORMAT_BEGIN
 90
        0
 91
        1
 62
     0
 92
       -2
340
0
 93
        0
 40
0.045
309
GRIDFORMAT_END
 95
       32
302
GRIDFORMAT
  1
GRIDFORMAT_BEGIN
 90
        0
 91
        1
 62
     0
 92
       -2
340
0
 93
        0
 40
0.045
309
GRIDFORMAT_END
309
TABLEFORMAT_END
  1
CELLSTYLE_BEGIN
 90
        3
 91
        2
300
_DATA
309
CELLSTYLE_END
  0
ENDSEC
  0
EOF
