  0
SECTION
  2
HEADER
  9
$ACADVER
  1
AC1021
  9
$ACADMAINTVER
 70
    25
  9
$DWGCODEPAGE
  3
ANSI_936
  9
$LASTSAVEDBY
  1
zb.ye
  9
$INSBASE
 10
0.0
 20
0.0
 30
0.0
  9
$EXTMIN
 10
774.2006426298275
 20
184.6373093401216
 30
-0.0000000349181948
  9
$EXTMAX
 10
848.5451538996549
 20
237.1635300191681
 30
0.0000000814935746
  9
$LIMMIN
 10
0.0
 20
0.0
  9
$LIMMAX
 10
12.0
 20
9.0
  9
$ORTHOMODE
 70
     0
  9
$REGENMODE
 70
     1
  9
$FILLMODE
 70
     1
  9
$QTEXTMODE
 70
     0
  9
$MIRRTEXT
 70
     1
  9
$LTSCALE
 40
1.0
  9
$ATTMODE
 70
     1
  9
$TEXTSIZE
 40
0.2
  9
$TRACEWID
 40
0.05
  9
$TEXTSTYLE
  7
Standard
  9
$CLAYER
  8
0
  9
$CELTYPE
  6
ByLayer
  9
$CECOLOR
 62
   256
  9
$CELTSCALE
 40
1.0
  9
$DISPSILH
 70
     0
  9
$DIMSCALE
 40
1.0
  9
$DIMASZ
 40
1.5
  9
$DIMEXO
 40
0.2
  9
$DIMDLI
 40
0.2
  9
$DIMRND
 40
0.0
  9
$DIMDLE
 40
0.0
  9
$DIMEXE
 40
0.5
  9
$DIMTP
 40
0.0
  9
$DIMTM
 40
0.0
  9
$DIMTXT
 40
2.0
  9
$DIMCEN
 40
0.0
  9
$DIMTSZ
 40
0.0
  9
$DIMTOL
 70
     0
  9
$DIMLIM
 70
     0
  9
$DIMTIH
 70
     0
  9
$DIMTOH
 70
     0
  9
$DIMSE1
 70
     0
  9
$DIMSE2
 70
     0
  9
$DIMTAD
 70
     1
  9
$DIMZIN
 70
     8
  9
$DIMBLK
  1

  9
$DIMASO
 70
     1
  9
$DIMSHO
 70
     1
  9
$DIMPOST
  1

  9
$DIMAPOST
  1

  9
$DIMALT
 70
     0
  9
$DIMALTD
 70
     2
  9
$DIMALTF
 40
25.4
  9
$DIMLFAC
 40
1.0
  9
$DIMTOFL
 70
     0
  9
$DIMTVP
 40
0.0
  9
$DIMTIX
 70
     0
  9
$DIMSOXD
 70
     0
  9
$DIMSAH
 70
     0
  9
$DIMBLK1
  1

  9
$DIMBLK2
  1

  9
$DIMSTYLE
  2
01
  9
$DIMCLRD
 70
     1
  9
$DIMCLRE
 70
     6
  9
$DIMCLRT
 70
     4
  9
$DIMTFAC
 40
1.0
  9
$DIMGAP
 40
0.5
  9
$DIMJUST
 70
     0
  9
$DIMSD1
 70
     0
  9
$DIMSD2
 70
     0
  9
$DIMTOLJ
 70
     1
  9
$DIMTZIN
 70
     0
  9
$DIMALTZ
 70
     0
  9
$DIMALTTZ
 70
     0
  9
$DIMUPT
 70
     0
  9
$DIMDEC
 70
     1
  9
$DIMTDEC
 70
     1
  9
$DIMALTU
 70
     2
  9
$DIMALTTD
 70
     2
  9
$DIMTXSTY
  7
Romans字体
  9
$DIMAUNIT
 70
     0
  9
$DIMADEC
 70
     2
  9
$DIMALTRND
 40
0.0
  9
$DIMAZIN
 70
     2
  9
$DIMDSEP
 70
    46
  9
$DIMATFIT
 70
     3
  9
$DIMFRAC
 70
     0
  9
$DIMLDRBLK
  1

  9
$DIMLUNIT
 70
     2
  9
$DIMLWD
 70
    -2
  9
$DIMLWE
 70
    -2
  9
$DIMTMOVE
 70
     0
  9
$DIMFXL
 40
1.0
  9
$DIMFXLON
 70
     0
  9
$DIMJOGANG
 40
0.7853981633974483
  9
$DIMTFILL
 70
     0
  9
$DIMTFILLCLR
 70
     0
  9
$DIMARCSYM
 70
     0
  9
$DIMLTYPE
  6

  9
$DIMLTEX1
  6

  9
$DIMLTEX2
  6

  9
$LUNITS
 70
     2
  9
$LUPREC
 70
     4
  9
$SKETCHINC
 40
0.1
  9
$FILLETRAD
 40
0.5
  9
$AUNITS
 70
     0
  9
$AUPREC
 70
     0
  9
$MENU
  1
.
  9
$ELEVATION
 40
0.0
  9
$PELEVATION
 40
0.0
  9
$THICKNESS
 40
0.0
  9
$LIMCHECK
 70
     0
  9
$CHAMFERA
 40
0.5
  9
$CHAMFERB
 40
0.5
  9
$CHAMFERC
 40
1.0
  9
$CHAMFERD
 40
0.0
  9
$SKPOLY
 70
     0
  9
$TDCREATE
 40
2456524.383632987
  9
$TDUCREATE
 40
2456524.050299653
  9
$TDUPDATE
 40
2460292.600269873
  9
$TDUUPDATE
 40
2460292.266936539
  9
$TDINDWG
 40
1.2858379630
  9
$TDUSRTIMER
 40
1.2858187384
  9
$USRTIMER
 70
     1
  9
$ANGBASE
 50
0.0
  9
$ANGDIR
 70
     0
  9
$PDMODE
 70
     0
  9
$PDSIZE
 40
0.0
  9
$PLINEWID
 40
0.0
  9
$SPLFRAME
 70
     0
  9
$SPLINETYPE
 70
     6
  9
$SPLINESEGS
 70
     8
  9
$HANDSEED
  5
796
  9
$SURFTAB1
 70
     6
  9
$SURFTAB2
 70
     6
  9
$SURFTYPE
 70
     6
  9
$SURFU
 70
     6
  9
$SURFV
 70
     6
  9
$UCSBASE
  2

  9
$UCSNAME
  2

  9
$UCSORG
 10
0.0
 20
0.0
 30
0.0
  9
$UCSXDIR
 10
1.0
 20
0.0
 30
0.0
  9
$UCSYDIR
 10
0.0
 20
1.0
 30
0.0
  9
$UCSORTHOREF
  2

  9
$UCSORTHOVIEW
 70
     0
  9
$UCSORGTOP
 10
0.0
 20
0.0
 30
0.0
  9
$UCSORGBOTTOM
 10
0.0
 20
0.0
 30
0.0
  9
$UCSORGLEFT
 10
0.0
 20
0.0
 30
0.0
  9
$UCSORGRIGHT
 10
0.0
 20
0.0
 30
0.0
  9
$UCSORGFRONT
 10
0.0
 20
0.0
 30
0.0
  9
$UCSORGBACK
 10
0.0
 20
0.0
 30
0.0
  9
$PUCSBASE
  2

  9
$PUCSNAME
  2

  9
$PUCSORG
 10
0.0
 20
0.0
 30
0.0
  9
$PUCSXDIR
 10
1.0
 20
0.0
 30
0.0
  9
$PUCSYDIR
 10
0.0
 20
1.0
 30
0.0
  9
$PUCSORTHOREF
  2

  9
$PUCSORTHOVIEW
 70
     0
  9
$PUCSORGTOP
 10
0.0
 20
0.0
 30
0.0
  9
$PUCSORGBOTTOM
 10
0.0
 20
0.0
 30
0.0
  9
$PUCSORGLEFT
 10
0.0
 20
0.0
 30
0.0
  9
$PUCSORGRIGHT
 10
0.0
 20
0.0
 30
0.0
  9
$PUCSORGFRONT
 10
0.0
 20
0.0
 30
0.0
  9
$PUCSORGBACK
 10
0.0
 20
0.0
 30
0.0
  9
$USERI1
 70
     0
  9
$USERI2
 70
     0
  9
$USERI3
 70
     0
  9
$USERI4
 70
     0
  9
$USERI5
 70
     0
  9
$USERR1
 40
0.0
  9
$USERR2
 40
0.0
  9
$USERR3
 40
0.0
  9
$USERR4
 40
0.0
  9
$USERR5
 40
0.0
  9
$WORLDVIEW
 70
     1
  9
$SHADEDGE
 70
     3
  9
$SHADEDIF
 70
    70
  9
$TILEMODE
 70
     1
  9
$MAXACTVP
 70
    64
  9
$PINSBASE
 10
0.0
 20
0.0
 30
0.0
  9
$PLIMCHECK
 70
     0
  9
$PEXTMIN
 10
1.000000000000000E+20
 20
1.000000000000000E+20
 30
1.000000000000000E+20
  9
$PEXTMAX
 10
-1.000000000000000E+20
 20
-1.000000000000000E+20
 30
-1.000000000000000E+20
  9
$PLIMMIN
 10
0.0
 20
0.0
  9
$PLIMMAX
 10
12.0
 20
9.0
  9
$UNITMODE
 70
     0
  9
$VISRETAIN
 70
     1
  9
$PLINEGEN
 70
     0
  9
$PSLTSCALE
 70
     1
  9
$TREEDEPTH
 70
  3020
  9
$CMLSTYLE
  2
Standard
  9
$CMLJUST
 70
     0
  9
$CMLSCALE
 40
1.0
  9
$PROXYGRAPHICS
 70
     1
  9
$MEASUREMENT
 70
     0
  9
$CELWEIGHT
370
    -1
  9
$ENDCAPS
280
     0
  9
$JOINSTYLE
280
     0
  9
$LWDISPLAY
290
     0
  9
$INSUNITS
 70
     4
  9
$HYPERLINKBASE
  1

  9
$STYLESHEET
  1
MONOCHROME.CTB
  9
$XEDIT
290
     1
  9
$CEPSNTYPE
380
     0
  9
$PSTYLEMODE
290
     1
  9
$FINGERPRINTGUID
  2
{7BD07336-E4F1-416F-AAFB-0A59C53E3604}
  9
$VERSIONGUID
  2
{069A4A3F-7F99-4D18-A9D4-F19E7238B041}
  9
$EXTNAMES
290
     1
  9
$PSVPSCALE
 40
0.0
  9
$OLESTARTUP
290
     0
  9
$SORTENTS
280
   127
  9
$INDEXCTL
280
     0
  9
$HIDETEXT
280
     1
  9
$XCLIPFRAME
290
     0
  9
$HALOGAP
280
     0
  9
$OBSCOLOR
 70
   257
  9
$OBSLTYPE
280
     0
  9
$INTERSECTIONDISPLAY
280
     0
  9
$INTERSECTIONCOLOR
 70
   257
  9
$DIMASSOC
280
     1
  9
$PROJECTNAME
  1

  9
$CAMERADISPLAY
290
     0
  9
$LENSLENGTH
 40
50.0
  9
$CAMERAHEIGHT
 40
0.0
  9
$STEPSPERSEC
 40
2.0
  9
$STEPSIZE
 40
6.0
  9
$3DDWFPREC
 40
2.0
  9
$PSOLWIDTH
 40
0.25
  9
$PSOLHEIGHT
 40
4.0
  9
$LOFTANG1
 40
1.570795999999999
  9
$LOFTANG2
 40
1.570795999999999
  9
$LOFTMAG1
 40
0.0
  9
$LOFTMAG2
 40
0.0
  9
$LOFTPARAM
 70
     7
  9
$LOFTNORMALS
280
     1
  9
$LATITUDE
 40
37.795
  9
$LONGITUDE
 40
-122.394
  9
$NORTHDIRECTION
 40
0.0
  9
$TIMEZONE
 70
 -8000
  9
$LIGHTGLYPHDISPLAY
280
     1
  9
$TILEMODELIGHTSYNCH
280
     1
  9
$CMATERIAL
347
24C
  9
$SOLIDHIST
280
     1
  9
$SHOWHIST
280
     1
  9
$DWFFRAME
280
     2
  9
$DGNFRAME
280
     0
  9
$REALWORLDSCALE
290
     1
  9
$INTERFERECOLOR
 62
     1
  9
$INTERFEREOBJVS
345
262
  9
$INTERFEREVPVS
346
263
  9
$CSHADOW
280
     0
  9
$SHADOWPLANELOCATION
 40
0.0
  0
ENDSEC
  0
SECTION
  2
CLASSES
  0
CLASS
  1
ACDBDICTIONARYWDFLT
  2
AcDbDictionaryWithDefault
  3
ObjectDBX Classes
 90
        0
 91
        1
280
     0
281
     0
  0
CLASS
  1
VISUALSTYLE
  2
AcDbVisualStyle
  3
ObjectDBX Classes
 90
     4095
 91
       16
280
     0
281
     0
  0
CLASS
  1
MATERIAL
  2
AcDbMaterial
  3
ObjectDBX Classes
 90
     1153
 91
        3
280
     0
281
     0
  0
CLASS
  1
TABLESTYLE
  2
AcDbTableStyle
  3
ObjectDBX Classes
 90
     4095
 91
        1
280
     0
281
     0
  0
CLASS
  1
SCALE
  2
AcDbScale
  3
ObjectDBX Classes
 90
     1153
 91
       33
280
     0
281
     0
  0
CLASS
  1
MLEADERSTYLE
  2
AcDbMLeaderStyle
  3
ACDB_MLEADERSTYLE_CLASS
 90
     4095
 91
        1
280
     0
281
     0
  0
CLASS
  1
CELLSTYLEMAP
  2
AcDbCellStyleMap
  3
ObjectDBX Classes
 90
     1152
 91
        2
280
     0
281
     0
  0
CLASS
  1
DICTIONARYVAR
  2
AcDbDictionaryVar
  3
ObjectDBX Classes
 90
        0
 91
       11
280
     0
281
     0
  0
CLASS
  1
SORTENTSTABLE
  2
AcDbSortentsTable
  3
ObjectDBX Classes
 90
        0
 91
        1
280
     0
281
     0
  0
CLASS
  1
ACAD_EVALUATION_GRAPH
  2
AcDbEvalGraph
  3
ObjectDBX Classes
 90
     1153
 91
        1
280
     0
281
     0
  0
CLASS
  1
ACAECUSTOBJ
  2
AcAeEditorObj
  3
AcAeEditorObj
 90
     1024
 91
        1
280
     1
281
     0
  0
CLASS
  1
ACDB_DYNAMICBLOCKPURGEPREVENTER_VERSION
  2
AcDbDynamicBlockPurgePreventer
  3
ObjectDBX Classes
 90
     1153
 91
        1
280
     0
281
     0
  0
CLASS
  1
MENTALRAYRENDERSETTINGS
  2
AcDbMentalRayRenderSettings
  3
SCENEOE
 90
     1024
 91
        0
280
     0
281
     0
  0
CLASS
  1
ACDB_BLOCKREPRESENTATION_DATA
  2
AcDbBlockRepresentationData
  3
ObjectDBX Classes
 90
     1153
 91
        0
280
     0
281
     0
  0
CLASS
  1
DIMASSOC
  2
AcDbDimAssoc
  3
"AcDbDimAssoc|Product Desc:     AcDim ARX App For Dimension|Company:          Autodesk, Inc.|WEB Address:      www.autodesk.com"
 90
        0
 91
        1
280
     0
281
     0
  0
CLASS
  1
SOLID_BACKGROUND
  2
AcDbSolidBackground
  3
SCENEOE
 90
     4095
 91
        0
280
     0
281
     0
  0
CLASS
  1
NPOCOLLECTION
  2
AcDbImpNonPersistentObjectsCollection
  3
ObjectDBX Classes
 90
     1153
 91
        0
280
     0
281
     0
  0
ENDSEC
  0
SECTION
  2
TABLES
  0
TABLE
  2
VPORT
  5
240
102
{ACAD_XDICTIONARY
360
244
102
}
330
0
100
AcDbSymbolTable
 70
     1
  0
VPORT
  5
241
330
240
100
AcDbSymbolTableRecord
100
AcDbViewportTableRecord
  2
*Active
 70
     0
 10
0.0
 20
0.0
 11
1.0
 21
1.0
 12
91.09058976918323
 22
-11.91747699288214
 13
0.0
 23
0.0
 14
0.5
 24
0.5
 15
0.5
 25
0.5
 16
0.0
 26
0.0
 36
47.52287584630495
 17
720.282308495558
 27
222.817896672527
 37
0.0
 40
53.0585810237665
 41
2.426395939086294
 42
50.0
 43
0.0
 44
0.0
 50
0.0
 51
0.0
 71
     0
 72
   100
 73
     1
 74
     3
 75
     0
 76
     0
 77
     0
 78
     0
281
     0
 65
     1
110
0.0
120
0.0
130
0.0
111
1.0
121
0.0
131
0.0
112
0.0
122
1.0
132
0.0
 79
     0
146
0.0
348
242
 60
     3
 61
     5
292
     1
282
     1
141
0.0
142
0.0
 63
   250
421
  3355443
  0
ENDTAB
  0
TABLE
  2
LTYPE
  5
23B
330
0
100
AcDbSymbolTable
 70
     2
  0
LTYPE
  5
23C
330
23B
100
AcDbSymbolTableRecord
100
AcDbLinetypeTableRecord
  2
ByBlock
 70
     0
  3

 72
    65
 73
     0
 40
0.0
  0
LTYPE
  5
23D
330
23B
100
AcDbSymbolTableRecord
100
AcDbLinetypeTableRecord
  2
ByLayer
 70
     0
  3

 72
    65
 73
     0
 40
0.0
  0
LTYPE
  5
15
330
23B
100
AcDbSymbolTableRecord
100
AcDbLinetypeTableRecord
  2
Continuous
 70
     0
  3
Solid line
 72
    65
 73
     0
 40
0.0
  0
LTYPE
  5
118
330
23B
100
AcDbSymbolTableRecord
100
AcDbLinetypeTableRecord
  2
CENTER
 70
     0
  3
Center ____ _ ____ _ ____ _ ____ _ ____ _ ____
 72
    65
 73
     4
 40
2.0
 49
1.25
 74
     0
 49
-0.25
 74
     0
 49
0.25
 74
     0
 49
-0.25
 74
     0
  0
ENDTAB
  0
TABLE
  2
LAYER
  5
234
102
{ACAD_XDICTIONARY
360
235
102
}
330
0
100
AcDbSymbolTable
 70
     7
  0
LAYER
  5
6
102
{ACAD_XDICTIONARY
360
7
102
}
330
234
100
AcDbSymbolTableRecord
100
AcDbLayerTableRecord
  2
0
 70
     0
 62
     7
  6
Continuous
370
    25
390
9
347
C
  0
LAYER
  5
17
102
{ACAD_XDICTIONARY
360
18
102
}
330
234
100
AcDbSymbolTableRecord
100
AcDbLayerTableRecord
  2
图层 1
 70
     0
 62
     7
  6
Continuous
370
    -3
390
9
347
C
  0
LAYER
  5
25
102
{ACAD_XDICTIONARY
360
26
102
}
330
234
100
AcDbSymbolTableRecord
100
AcDbLayerTableRecord
  2
图框
 70
     0
 62
     7
  6
Continuous
370
    20
390
9
347
C
  0
LAYER
  5
129
330
234
100
AcDbSymbolTableRecord
100
AcDbLayerTableRecord
  2
Defpoints
 70
     0
 62
     7
  6
Continuous
290
     0
370
    -3
390
9
347
C
  0
LAYER
  5
11F
330
234
100
AcDbSymbolTableRecord
100
AcDbLayerTableRecord
  2
DIM
 70
     0
 62
     3
  6
Continuous
370
    15
390
9
347
C
1001
AcAecLayerStandard
1000

1000

  0
LAYER
  5
F2
330
234
100
AcDbSymbolTableRecord
100
AcDbLayerTableRecord
  2
打标文字
 70
     0
 62
     3
  6
Continuous
370
    20
390
9
347
C
  0
LAYER
  5
10C
330
234
100
AcDbSymbolTableRecord
100
AcDbLayerTableRecord
  2
hat
 70
     0
 62
     6
  6
Continuous
370
    15
390
9
347
C
1001
AcAecLayerStandard
1000

1000

  0
ENDTAB
  0
TABLE
  2
STYLE
  5
239
330
0
100
AcDbSymbolTable
 70
     4
  0
STYLE
  5
46
330
239
100
AcDbSymbolTableRecord
100
AcDbTextStyleTableRecord
  2
Standard
 70
     0
 40
0.0
 41
0.75
 50
0.0
 71
     0
 42
0.2
  3
SIMFANG.TTF
  4

1001
ACAD
1000
FangSong_GB2312
1071
    34353
  0
STYLE
  5
28
330
239
100
AcDbSymbolTableRecord
100
AcDbTextStyleTableRecord
  2
Romans字体
 70
     0
 40
0.0
 41
0.75
 50
0.0
 71
     0
 42
0.2
  3
romans.shx
  4

  0
STYLE
  5
48
330
239
100
AcDbSymbolTableRecord
100
AcDbTextStyleTableRecord
  2
工程字
 70
     0
 40
0.0
 41
1.0
 50
0.0
 71
     0
 42
3.5
  3
gbenor.shx
  4
gbcbig.shx
  0
STYLE
  5
4A
330
239
100
AcDbSymbolTableRecord
100
AcDbTextStyleTableRecord
  2
Chinese
 70
     0
 40
0.0
 41
1.0
 50
0.0
 71
     0
 42
2.5
  3
PMingLiU.ttf
  4

1001
ACAD
1000
PMingLiU
1071
    34834
  0
ENDTAB
  0
TABLE
  2
VIEW
  5
23E
330
0
100
AcDbSymbolTable
 70
     0
  0
ENDTAB
  0
TABLE
  2
UCS
  5
23F
330
0
100
AcDbSymbolTable
 70
     0
  0
ENDTAB
  0
TABLE
  2
APPID
  5
245
330
0
100
AcDbSymbolTable
 70
    10
  0
APPID
  5
29
330
245
100
AcDbSymbolTableRecord
100
AcDbRegAppTableRecord
  2
ACAD
 70
     0
  0
APPID
  5
35
330
245
100
AcDbSymbolTableRecord
100
AcDbRegAppTableRecord
  2
AcDbBlockRepETag
 70
     0
  0
APPID
  5
22B
330
245
100
AcDbSymbolTableRecord
100
AcDbRegAppTableRecord
  2
ACAD_PSEXT
 70
     0
  0
APPID
  5
10D
330
245
100
AcDbSymbolTableRecord
100
AcDbRegAppTableRecord
  2
AcAecLayerStandard
 70
     0
  0
APPID
  5
12E
330
245
100
AcDbSymbolTableRecord
100
AcDbRegAppTableRecord
  2
ACAD_DSTYLE_DIMJAG
 70
     0
  0
APPID
  5
12F
330
245
100
AcDbSymbolTableRecord
100
AcDbRegAppTableRecord
  2
ACAD_DSTYLE_DIMTALN
 70
     0
  0
APPID
  5
2C0
330
245
100
AcDbSymbolTableRecord
100
AcDbRegAppTableRecord
  2
ACAD_MLEADERVER
 70
     0
  0
APPID
  5
367
330
245
100
AcDbSymbolTableRecord
100
AcDbRegAppTableRecord
  2
AcDbDynamicBlockGUID
 70
     0
  0
APPID
  5
776
330
245
100
AcDbSymbolTableRecord
100
AcDbRegAppTableRecord
  2
ACAUTHENVIRON
 70
     0
  0
APPID
  5
779
330
245
100
AcDbSymbolTableRecord
100
AcDbRegAppTableRecord
  2
AcDbDynamicBlockTrueName
 70
     0
  0
ENDTAB
  0
TABLE
  2
DIMSTYLE
  5
246
330
0
100
AcDbSymbolTable
 70
     2
100
AcDbDimStyleTable
 71
     2
340
12D
340
247
  0
DIMSTYLE
105
247
330
246
100
AcDbSymbolTableRecord
100
AcDbDimStyleTableRecord
  2
Standard
 70
     0
340
46
  0
DIMSTYLE
105
12D
102
{ACAD_REACTORS
330
11C
330
13A
330
147
330
155
330
178
102
}
330
246
100
AcDbSymbolTableRecord
100
AcDbDimStyleTableRecord
  2
01
 70
     0
 41
1.5
 42
0.2
 43
0.2
 44
0.5
 73
     0
 74
     0
 77
     1
 78
     8
 79
     2
140
2.0
141
0.0
147
0.5
176
     1
177
     6
178
     4
179
     2
271
     1
272
     1
340
28
1001
ACAD_DSTYLE_DIMJAG
1070
   388
1040
1.5
1001
ACAD_DSTYLE_DIMTALN
1070
   392
1070
     0
  0
ENDTAB
  0
TABLE
  2
BLOCK_RECORD
  5
1
330
0
100
AcDbSymbolTable
 70
     8
  0
BLOCK_RECORD
  5
2
102
{ACAD_XDICTIONARY
360
3
102
}
330
1
100
AcDbSymbolTableRecord
100
AcDbBlockTableRecord
  2
*Model_Space
340
229
 70
     0
280
     1
281
     0
  0
BLOCK_RECORD
  5
22C
330
1
100
AcDbSymbolTableRecord
100
AcDbBlockTableRecord
  2
*Paper_Space
340
22F
 70
     0
280
     1
281
     0
  0
BLOCK_RECORD
  5
230
330
1
100
AcDbSymbolTableRecord
100
AcDbBlockTableRecord
  2
*Paper_Space0
340
233
 70
     0
280
     1
281
     0
  0
BLOCK_RECORD
  5
2CE
102
{ACAD_XDICTIONARY
360
775
102
}
330
1
100
AcDbSymbolTableRecord
100
AcDbBlockTableRecord
  2
A4图框-NEW
340
0
310
2800000020000000200000000100080000000000000400000000000000000000000000000000000000000000000080000080000000808000800000008000800080800000C0C0C000C0DCC000F0CAA6000020400000206000002080000020A0000020C0000020E00000400000004020000040400000406000004080000040A0
310
000040C0000040E00000600000006020000060400000606000006080000060A0000060C0000060E00000800000008020000080400000806000008080000080A0000080C0000080E00000A0000000A0200000A0400000A0600000A0800000A0A00000A0C00000A0E00000C0000000C0200000C0400000C0600000C0800000C0
310
A00000C0C00000C0E00000E0000000E0200000E0400000E0600000E0800000E0A00000E0C00000E0E00040000000400020004000400040006000400080004000A0004000C0004000E00040200000402020004020400040206000402080004020A0004020C0004020E000404000004040200040404000404060004040800040
310
40A0004040C0004040E00040600000406020004060400040606000406080004060A0004060C0004060E00040800000408020004080400040806000408080004080A0004080C0004080E00040A0000040A0200040A0400040A0600040A0800040A0A00040A0C00040A0E00040C0000040C0200040C0400040C0600040C08000
310
40C0A00040C0C00040C0E00040E0000040E0200040E0400040E0600040E0800040E0A00040E0C00040E0E00080000000800020008000400080006000800080008000A0008000C0008000E00080200000802020008020400080206000802080008020A0008020C0008020E00080400000804020008040400080406000804080
310
008040A0008040C0008040E00080600000806020008060400080606000806080008060A0008060C0008060E00080800000808020008080400080806000808080008080A0008080C0008080E00080A0000080A0200080A0400080A0600080A0800080A0A00080A0C00080A0E00080C0000080C0200080C0400080C0600080C0
310
800080C0A00080C0C00080C0E00080E0000080E0200080E0400080E0600080E0800080E0A00080E0C00080E0E000C0000000C0002000C0004000C0006000C0008000C000A000C000C000C000E000C0200000C0202000C0204000C0206000C0208000C020A000C020C000C020E000C0400000C0402000C0404000C0406000C0
310
408000C040A000C040C000C040E000C0600000C0602000C0604000C0606000C0608000C060A000C060C000C060E000C0800000C0802000C0804000C0806000C0808000C080A000C080C000C080E000C0A00000C0A02000C0A04000C0A06000C0A08000C0A0A000C0A0C000C0A0E000C0C00000C0C02000C0C04000C0C06000
310
C0C08000C0C0A000F0FBFF00A4A0A000808080000000FF0000FF000000FFFF00FF000000FF00FF00FFFF0000FFFFFF0000000000000000000000000000000000000000000000000000000000000000000000000000000000000000000000000000000000000000000000000000000000000000000000000000000000000000
310
000000000000000000000000000000000000000000000000000000000000000000000000000000000000000000000000000000000000000000000000000000000000000000000000000000000000000000000000000000000000000000000000000000000000000000000000000000000000F9F9F9F9F9F9F9F9F9F9F9F9F9
310
F9F9F9F9F9F9F9F9F9F9F9F9F9F9FF00000000F9FF000000000000000000FFFFFFFFFFFFFFFFFFFFFFFFF9FAFAFAFF00000000F9FF000000000000000000FFFFFFFFFFFFFFFFFFFFFFFFFFFFFFFFFF00000000F9FD000000000000000000FFFFFFFFFFFFFFFFFFFFFFFFFFFFFFFFFF00000000F9FF000000000000000000FF
310
FFFFFFFFFFFFFFFFFFFFFFFFFFFFFFFF00000000F9FD000000000000000000FFFFFFFFFFFFFFFFFFFFFFFFFFFFFFFFFF00000000F9FF00000000000000000000000000000000000000000000000000FF00000000F9FD00000000000000000000000000000000000000000000000000FF00000000F9FF000000000000000000
310
00000000000000000000000000000000FF00000000F9FD00000000000000000000000000000000000000000000000000FF00000000F9FF00000000000000000000000000000000000000000000000000FF00000000F9FD00000000000000000000000000000000000000000000000000FF00000000F9FD0000000000000000
310
0000000000000000000000000000000000FF00000000F9FF00000000000000000000000000000000000000000000000000FF00000000F9FD00000000000000000000000000000000000000000000000000FF00000000F9FF00000000000000000000000000000000000000000000000000FF00000000F9FD00000000000000
310
000000000000000000000000000000000000FF00000000F9FF00000000000000000000000000000000000000000000000000FF00000000F9FFFFFFFFFFFFFFFFFFFFFFFFFFFFFFFFFFFFFFFFFFFFFFFFFFFFFF00000000F9FFFFFFF9F9F9F9F9F9F9F9F9F9F9F9F9F9F9F9F9F9F9F9F9F9F9F9000000000000000000000000
310
00000000000000000000000000000000000000000000000000000000000000000000000000000000000000000000000000000000000000000000000000000000000000000000000000000000000000000000000000000000000000000000000000000000000000000000000000000000000000000000000000000000000000
310
0000000000000000000000000000000000000000000000000000000000000000000000000000000000000000000000000000000000000000
102
{BLKREFS
331
374
102
}
 70
     4
280
     1
281
     0
1001
AcDbDynamicBlockGUID
1000
{E81342CC-863B-4E96-80BF-B770F865A8F3}
1001
AcDbBlockRepETag
1070
     1
1071
      149
  0
BLOCK_RECORD
  5
378
330
1
100
AcDbSymbolTableRecord
100
AcDbBlockTableRecord
  2
*D2
340
0
 70
     0
280
     1
281
     0
  0
BLOCK_RECORD
  5
384
330
1
100
AcDbSymbolTableRecord
100
AcDbBlockTableRecord
  2
*D3
340
0
 70
     0
280
     1
281
     0
  0
BLOCK_RECORD
  5
390
330
1
100
AcDbSymbolTableRecord
100
AcDbBlockTableRecord
  2
*D4
340
0
 70
     0
280
     1
281
     0
  0
BLOCK_RECORD
  5
39D
330
1
100
AcDbSymbolTableRecord
100
AcDbBlockTableRecord
  2
*D5
340
0
 70
     0
280
     1
281
     0
  0
BLOCK_RECORD
  5
3AA
330
1
100
AcDbSymbolTableRecord
100
AcDbBlockTableRecord
  2
*D6
340
0
 70
     0
280
     1
281
     0
  0
ENDTAB
  0
ENDSEC
  0
SECTION
  2
BLOCKS
  0
BLOCK
  5
5
330
2
100
AcDbEntity
  8
0
100
AcDbBlockBegin
  2
*Model_Space
 70
     0
 10
0.0
 20
0.0
 30
0.0
  3
*Model_Space
  1

  0
ENDBLK
  5
228
330
2
100
AcDbEntity
  8
0
100
AcDbBlockEnd
  0
BLOCK
  5
22D
330
22C
100
AcDbEntity
 67
     1
  8
0
100
AcDbBlockBegin
  2
*Paper_Space
 70
     0
 10
0.0
 20
0.0
 30
0.0
  3
*Paper_Space
  1

  0
ENDBLK
  5
22E
330
22C
100
AcDbEntity
 67
     1
  8
0
100
AcDbBlockEnd
  0
BLOCK
  5
231
330
230
100
AcDbEntity
 67
     1
  8
0
100
AcDbBlockBegin
  2
*Paper_Space0
 70
     0
 10
0.0
 20
0.0
 30
0.0
  3
*Paper_Space0
  1

  0
ENDBLK
  5
232
330
230
100
AcDbEntity
 67
     1
  8
0
100
AcDbBlockEnd
  0
BLOCK
  5
2D0
330
2CE
100
AcDbEntity
  8
0
100
AcDbBlockBegin
  2
A4图框-NEW
 70
     0
 10
0.0
 20
0.0
 30
0.0
  3
A4图框-NEW
  1

  0
MTEXT
  5
6E0
102
{ACAD_XDICTIONARY
360
77E
102
}
330
2CE
100
AcDbEntity
  8
图框
 62
     3
100
AcDbMText
 10
967.6594956750133
 20
499.7664151964293
 30
0.0
 40
2.985513575034151
 41
15.50176341157864
 46
6.292658374511018
 71
     5
 72
     5
  1
BQ LUO
  7
Romans字体
 73
     1
 44
1.0
1001
AcDbBlockRepETag
1070
     1
1071
        0
1005
6E0
1001
ACAD
1000
ACAD_MTEXT_DEFINED_HEIGHT_BEGIN
1070
    46
1040
6.292658374511018
1000
ACAD_MTEXT_DEFINED_HEIGHT_END
  0
MTEXT
  5
6E1
330
2CE
100
AcDbEntity
  8
图框
 62
     3
100
AcDbMText
 10
983.041569333247
 20
499.7664151964293
 30
0.0
 40
2.487927979195124
 41
15.26238390489062
 46
6.292658374511042
 71
     5
 72
     5
  1
{\W0.7;18.10.2010}
  7
Romans字体
 73
     1
 44
1.0
1001
AcDbBlockRepETag
1070
     1
1071
        1
1005
6E1
1001
ACAD
1000
ACAD_MTEXT_DEFINED_HEIGHT_BEGIN
1070
    46
1040
6.292658374511042
1000
ACAD_MTEXT_DEFINED_HEIGHT_END
  0
MTEXT
  5
6E2
330
2CE
100
AcDbEntity
  8
图框
 62
     3
100
AcDbMText
 10
1012.477254728976
 20
487.1810984474071
 30
0.0
 40
2.985513575034151
 41
17.64876416884615
 46
6.292658374511455
 71
     5
 72
     5
  1
YY LIN
  7
Romans字体
 73
     1
 44
1.0
1001
AcDbBlockRepETag
1070
     1
1071
        2
1005
6E2
1001
ACAD
1000
ACAD_MTEXT_DEFINED_HEIGHT_BEGIN
1070
    46
1040
6.292658374511455
1000
ACAD_MTEXT_DEFINED_HEIGHT_END
  0
MTEXT
  5
6E3
330
2CE
100
AcDbEntity
  8
图框
 62
     3
100
AcDbMText
 10
1028.977802139886
 20
487.1810984474071
 30
0.0
 40
2.487927979195124
 41
15.35233065297276
 46
6.292658374511495
 71
     5
 72
     5
  1
{\W0.7;18.10.2010}
  7
Romans字体
 73
     1
 44
1.0
1001
AcDbBlockRepETag
1070
     1
1071
        3
1005
6E3
1001
ACAD
1000
ACAD_MTEXT_DEFINED_HEIGHT_BEGIN
1070
    46
1040
6.292658374511495
1000
ACAD_MTEXT_DEFINED_HEIGHT_END
  0
MTEXT
  5
6E4
330
2CE
100
AcDbEntity
  8
图框
 62
     3
100
AcDbMText
 10
1063.722665487208
 20
525.4145966538831
 30
0.0
 40
2.985513575034151
 41
32.4973914334545
 46
11.82914190181707
 71
     5
 72
     5
  1
-
  7
Romans字体
 73
     1
 44
1.0
1001
AcDbBlockRepETag
1070
     1
1071
        4
1005
6E4
1001
ACAD
1000
ACAD_MTEXT_DEFINED_HEIGHT_BEGIN
1070
    46
1040
11.82914190181707
1000
ACAD_MTEXT_DEFINED_HEIGHT_END
  0
MTEXT
  5
6E5
330
2CE
100
AcDbEntity
  8
图框
 62
     3
100
AcDbMText
 10
1063.727338552349
 20
513.5854547520641
 30
0.0
 40
2.985513575034151
 41
32.48804530317308
 46
11.82914190182139
 71
     5
 72
     5
  1
-
  7
Romans字体
 73
     1
 44
1.0
1001
AcDbBlockRepETag
1070
     1
1071
        5
1005
6E5
1001
ACAD
1000
ACAD_MTEXT_DEFINED_HEIGHT_BEGIN
1070
    46
1040
11.82914190182139
1000
ACAD_MTEXT_DEFINED_HEIGHT_END
  0
MTEXT
  5
6E6
330
2CE
100
AcDbEntity
  8
图框
 62
     3
100
AcDbMText
 10
1110.122306614152
 20
526.8006839312707
 30
0.0
 40
2.985513575034151
 41
33.61239199242139
 46
9.05696734704178
 71
     5
 72
     5
  1
-
  7
Romans字体
 73
     1
 44
1.0
1001
AcDbBlockRepETag
1070
     1
1071
        6
1005
6E6
1001
ACAD
1000
ACAD_MTEXT_DEFINED_HEIGHT_BEGIN
1070
    46
1040
9.05696734704178
1000
ACAD_MTEXT_DEFINED_HEIGHT_END
  0
MTEXT
  5
6E7
330
2CE
100
AcDbEntity
  8
图框
 62
     3
100
AcDbMText
 10
1110.122306614152
 20
500.2775205517162
 30
0.0
 40
2.985513575034151
 41
33.61239199242139
 46
8.871557304763419
 71
     5
 72
     5
  1
-
  7
Romans字体
 73
     1
 44
1.0
1001
AcDbBlockRepETag
1070
     1
1071
        7
1005
6E7
1001
ACAD
1000
ACAD_MTEXT_DEFINED_HEIGHT_BEGIN
1070
    46
1040
8.871557304763419
1000
ACAD_MTEXT_DEFINED_HEIGHT_END
  0
MTEXT
  5
6E8
330
2CE
100
AcDbEntity
  8
图框
 62
     3
100
AcDbMText
 10
967.6594956750133
 20
493.4737568219182
 30
0.0
 40
2.985513575034151
 41
15.50176341157864
 46
6.292658374510335
 71
     5
 72
     5
  1
P RAO
  7
Romans字体
 73
     1
 44
1.0
1001
AcDbBlockRepETag
1070
     1
1071
        8
1005
6E8
1001
ACAD
1000
ACAD_MTEXT_DEFINED_HEIGHT_BEGIN
1070
    46
1040
6.292658374510335
1000
ACAD_MTEXT_DEFINED_HEIGHT_END
  0
MTEXT
  5
6E9
330
2CE
100
AcDbEntity
  8
图框
 62
     3
100
AcDbMText
 10
983.041569333247
 20
493.2441970450405
 30
0.0
 40
2.487927979195124
 41
15.26238390489051
 46
6.751777928266487
 71
     5
 72
     5
  1
{\W0.7;18.10.2010}
  7
Romans字体
 73
     1
 44
1.0
1001
AcDbBlockRepETag
1070
     1
1071
        9
1005
6E9
1001
ACAD
1000
ACAD_MTEXT_DEFINED_HEIGHT_BEGIN
1070
    46
1040
6.751777928266487
1000
ACAD_MTEXT_DEFINED_HEIGHT_END
  0
MTEXT
  5
6EA
330
2CE
100
AcDbEntity
  8
图框
 62
     3
100
AcDbMText
 10
1012.477254728976
 20
499.7664151964291
 30
0.0
 40
2.985513575034151
 41
17.64876416884615
 46
6.292658374511397
 71
     5
 72
     5
  1
-
  7
Romans字体
 73
     1
 44
1.0
1001
AcDbBlockRepETag
1070
     1
1071
       10
1005
6EA
1001
ACAD
1000
ACAD_MTEXT_DEFINED_HEIGHT_BEGIN
1070
    46
1040
6.292658374511397
1000
ACAD_MTEXT_DEFINED_HEIGHT_END
  0
MTEXT
  5
6EB
330
2CE
100
AcDbEntity
  8
图框
 62
     3
100
AcDbMText
 10
1028.977802139886
 20
499.7664151964289
 30
0.0
 40
2.487927979195124
 41
15.35233065297265
 46
6.292658374511382
 71
     5
 72
     5
  1
-
  7
Romans字体
 73
     1
 44
1.0
1001
AcDbBlockRepETag
1070
     1
1071
       11
1005
6EB
1001
ACAD
1000
ACAD_MTEXT_DEFINED_HEIGHT_BEGIN
1070
    46
1040
6.292658374511382
1000
ACAD_MTEXT_DEFINED_HEIGHT_END
  0
MTEXT
  5
6EC
330
2CE
100
AcDbEntity
  8
图框
 62
     3
100
AcDbMText
 10
967.6594956750133
 20
487.1810984474071
 30
0.0
 40
2.985513575034151
 41
15.50176341157863
 46
6.292658374511478
 71
     5
 72
     5
  1
-
  7
Romans字体
 73
     1
 44
1.0
1001
AcDbBlockRepETag
1070
     1
1071
       12
1005
6EC
1001
ACAD
1000
ACAD_MTEXT_DEFINED_HEIGHT_BEGIN
1070
    46
1040
6.292658374511478
1000
ACAD_MTEXT_DEFINED_HEIGHT_END
  0
MTEXT
  5
6ED
330
2CE
100
AcDbEntity
  8
图框
 62
     3
100
AcDbMText
 10
983.041569333247
 20
487.1810984474071
 30
0.0
 40
2.487927979195124
 41
15.26238390489062
 46
6.292658374511495
 71
     5
 72
     5
  1
-
  7
Romans字体
 73
     1
 44
1.0
1001
AcDbBlockRepETag
1070
     1
1071
       13
1005
6ED
1001
ACAD
1000
ACAD_MTEXT_DEFINED_HEIGHT_BEGIN
1070
    46
1040
6.292658374511495
1000
ACAD_MTEXT_DEFINED_HEIGHT_END
  0
MTEXT
  5
6EE
330
2CE
100
AcDbEntity
  8
图框
 62
     3
100
AcDbMText
 10
1074.556686986741
 20
495.8417418993361
 30
0.0
 40
2.985513575034151
 41
10.82934843438978
 46
7.886094601210427
 71
     5
 72
     5
  1
-
  7
Romans字体
 73
     1
 44
1.0
1001
AcDbBlockRepETag
1070
     1
1071
       14
1005
6EE
1001
ACAD
1000
ACAD_MTEXT_DEFINED_HEIGHT_BEGIN
1070
    46
1040
7.886094601210427
1000
ACAD_MTEXT_DEFINED_HEIGHT_END
  0
LINE
  5
6EF
330
2CE
100
AcDbEntity
  8
图框
370
    -3
100
AcDbLine
 10
1036.653967466372
 20
499.7847891999413
 30
0.0
 11
1079.971361203936
 21
499.7847891999413
 31
0.0
1001
AcDbBlockRepETag
1070
     1
1071
       15
1005
6EF
  0
MTEXT
  5
6F0
330
2CE
100
AcDbEntity
  8
图框
 62
     1
370
    20
100
AcDbMText
 10
1108.26336443907
 20
491.5162596080882
 30
0.0
 40
2.699054613030988
 41
82.30831305643079
 46
0.0
 71
     5
 72
     5
  1
{\fSimHei|b0|i0|c134|p2;厦门唯恩电气有限公司}
 73
     1
 44
1.0
1001
AcDbBlockRepETag
1070
     1
1071
       16
1005
6F0
  0
MTEXT
  5
6F1
330
2CE
100
AcDbEntity
  8
图框
 62
     3
370
    20
100
AcDbMText
 10
1108.435451459908
 20
487.298967726064
 30
0.0
 40
1.652482416141417
 41
68.08558693693567
 46
0.0
 71
     5
 72
     5
  1
{\fArial Narrow|b0|i0|c0|p34;XIAMEN WAIN ELECTRICAL CO.LTD}
  7
工程字
 73
     1
 44
1.0
1001
AcDbBlockRepETag
1070
     1
1071
       17
1005
6F1
  0
MTEXT
  5
6F2
330
2CE
100
AcDbEntity
  8
图框
 62
     1
370
    20
100
AcDbMText
 10
1085.711816899387
 20
491.0944802995856
 30
0.0
 40
2.005930044038334
 41
5.047240019334847
 46
0.0
 71
     1
 72
     5
  1
{\fArial|b0|i0|c0|p34;A}
  7
Chinese
 73
     1
 44
1.0
1001
AcDbBlockRepETag
1070
     1
1071
       18
1005
6F2
  0
MTEXT
  5
6F3
330
2CE
100
AcDbEntity
  8
图框
 62
     1
370
    20
100
AcDbMText
 10
1088.213485935716
 20
491.0944802995856
 30
0.0
 40
2.005930044038334
 41
5.047240019334847
 46
0.0
 71
     1
 72
     5
  1
{\fArial|b0|i0|c0|p34;I}
  7
Chinese
 73
     1
 44
1.0
1001
AcDbBlockRepETag
1070
     1
1071
       19
1005
6F3
  0
MTEXT
  5
6F4
330
2CE
100
AcDbEntity
  8
图框
 62
     1
370
    20
100
AcDbMText
 10
1089.142375222864
 20
491.0822866326808
 30
0.0
 40
2.005930044038334
 41
5.047240019334847
 46
0.0
 71
     1
 72
     5
  1
{\fArial|b0|i0|c0|p34;N}
  7
Chinese
 73
     1
 44
1.0
1001
AcDbBlockRepETag
1070
     1
1071
       20
1005
6F4
  0
MTEXT
  5
6F5
330
2CE
100
AcDbEntity
  8
图框
100
AcDbMText
 10
1069.142012769545
 20
487.9667319294409
 30
0.0
 40
2.252848170144607
 41
21.65869686878327
 46
7.863925338579296
 71
     5
 72
     5
  1
{\W0.5;\C1;All Dimensions in mm\POriginal Size DIN A 4}
  7
Romans字体
 73
     1
 44
1.0
1001
AcDbBlockRepETag
1070
     1
1071
       21
1005
6F5
1001
ACAD
1000
ACAD_MTEXT_DEFINED_HEIGHT_BEGIN
1070
    46
1040
7.863925338579296
1000
ACAD_MTEXT_DEFINED_HEIGHT_END
  0
MTEXT
  5
6F6
330
2CE
100
AcDbEntity
  8
图框
  6
ByBlock
 62
     6
370
    18
100
AcDbMText
 10
1127.40434942308
 20
508.7896535755975
 30
0.0
 40
2.651776162684904
 41
2.557913877927211
 46
0.0
 71
     1
 72
     5
  1
A
  7
Romans字体
 11
0.0000000000000001
 21
1.0
 31
0.0
 73
     1
 44
1.0
1001
AcDbBlockRepETag
1070
     1
1071
       22
1005
6F6
  0
MTEXT
  5
6F7
330
2CE
100
AcDbEntity
  8
图框
 62
     6
100
AcDbMText
 10
1127.40434942308
 20
556.3746573232886
 30
0.0
 40
2.651776162684904
 41
2.557913877927211
 46
0.0
 71
     1
 72
     5
  1
B
  7
Romans字体
 11
0.0000000000000001
 21
1.0
 31
0.0
 73
     1
 44
1.0
1001
AcDbBlockRepETag
1070
     1
1071
       23
1005
6F7
  0
MTEXT
  5
6F8
330
2CE
100
AcDbEntity
  8
图框
 62
     6
100
AcDbMText
 10
1127.40434942308
 20
607.5539372630998
 30
0.0
 40
2.651776162684904
 41
2.557913877927211
 46
0.0
 71
     1
 72
     5
  1
C
  7
Romans字体
 11
0.0000000000000001
 21
1.0
 31
0.0
 73
     1
 44
1.0
1001
AcDbBlockRepETag
1070
     1
1071
       24
1005
6F8
  0
MTEXT
  5
6F9
330
2CE
100
AcDbEntity
  8
图框
 62
     6
100
AcDbMText
 10
1127.40434942308
 20
658.7332172029115
 30
0.0
 40
2.651776162684904
 41
2.557913877927211
 46
0.0
 71
     1
 72
     5
  1
D
  7
Romans字体
 11
0.0000000000000001
 21
1.0
 31
0.0
 73
     1
 44
1.0
1001
AcDbBlockRepETag
1070
     1
1071
       25
1005
6F9
  0
LINE
  5
6FA
330
2CE
100
AcDbEntity
  8
图框
 62
     6
100
AcDbLine
 10
1130.411601781241
 20
634.0726090796082
 30
0.0
 11
1126.928502610363
 21
634.0726090796082
 31
0.0
1001
AcDbBlockRepETag
1070
     1
1071
       26
1005
6FA
  0
LINE
  5
6FB
330
2CE
100
AcDbEntity
  8
图框
 62
     6
100
AcDbLine
 10
1130.411601781241
 20
582.89332913979
 30
0.0
 11
1126.928502610363
 21
582.89332913979
 31
0.0
1001
AcDbBlockRepETag
1070
     1
1071
       27
1005
6FB
  0
MTEXT
  5
6FC
330
2CE
100
AcDbEntity
  8
图框
 62
     6
100
AcDbMText
 10
1105.329704038389
 20
483.6164543011163
 30
0.0
 40
2.651776162684904
 41
2.557913877927211
 46
0.0
 71
     1
 72
     5
  1
6
  7
Romans字体
 73
     1
 44
1.0
1001
AcDbBlockRepETag
1070
     1
1071
       28
1005
6FC
  0
LINE
  5
6FD
330
2CE
100
AcDbEntity
  8
图框
 62
     6
100
AcDbLine
 10
1081.088565155284
 20
484.0347692601515
 30
0.0
 11
1081.088565155284
 21
480.5347692601475
 31
0.0
1001
AcDbBlockRepETag
1070
     1
1071
       29
1005
6FD
  0
MTEXT
  5
6FE
330
2CE
100
AcDbEntity
  8
图框
 62
     6
100
AcDbMText
 10
1055.900596365941
 20
483.520053108993
 30
0.0
 40
2.651776162684904
 41
2.557913877927211
 46
0.0
 71
     1
 72
     5
  1
5
  7
Romans字体
 73
     1
 44
1.0
1001
AcDbBlockRepETag
1070
     1
1071
       30
1005
6FE
  0
LINE
  5
6FF
330
2CE
100
AcDbEntity
  8
图框
 62
     6
100
AcDbLine
 10
1031.553386436349
 20
484.0347692601515
 30
0.0
 11
1031.553386436349
 21
480.5347692601475
 31
0.0
1001
AcDbBlockRepETag
1070
     1
1071
       31
1005
6FF
  0
MTEXT
  5
700
330
2CE
100
AcDbEntity
  8
图框
 62
     6
100
AcDbMText
 10
1006.383180575197
 20
483.5687958215896
 30
0.0
 40
2.651776162684904
 41
2.557913877927211
 46
0.0
 71
     1
 72
     5
  1
4
  7
Romans字体
 73
     1
 44
1.0
1001
AcDbBlockRepETag
1070
     1
1071
       32
1005
700
  0
LINE
  5
701
330
2CE
100
AcDbEntity
  8
图框
 62
     6
100
AcDbLine
 10
982.0182077173887
 20
484.0347692601515
 30
0.0
 11
982.0182077173887
 21
480.5347692601475
 31
0.0
1001
AcDbBlockRepETag
1070
     1
1071
       33
1005
701
  0
MTEXT
  5
702
330
2CE
100
AcDbEntity
  8
图框
 62
     6
100
AcDbMText
 10
956.8302389280352
 20
483.5989680297948
 30
0.0
 40
2.651776162684904
 41
2.557913877927211
 46
0.0
 71
     1
 72
     5
  1
3
  7
Romans字体
 73
     1
 44
1.0
1001
AcDbBlockRepETag
1070
     1
1071
       34
1005
702
  0
LINE
  5
703
330
2CE
100
AcDbEntity
  8
图框
 62
     6
100
AcDbLine
 10
932.4830289984245
 20
484.0347692601515
 30
0.0
 11
932.4830289984245
 21
480.5347692601475
 31
0.0
1001
AcDbBlockRepETag
1070
     1
1071
       35
1005
703
  0
MTEXT
  5
704
330
2CE
100
AcDbEntity
  8
图框
 62
     6
100
AcDbMText
 10
906.0252349826365
 20
483.6475250013156
 30
0.0
 40
2.651776162684904
 41
2.557913877927211
 46
0.0
 71
     1
 72
     5
  1
2
  7
Romans字体
 73
     1
 44
1.0
1001
AcDbBlockRepETag
1070
     1
1071
       36
1005
704
  0
LINE
  5
705
330
2CE
100
AcDbEntity
  8
图框
 62
     6
100
AcDbLine
 10
882.9478502794648
 20
484.0347692601515
 30
0.0
 11
882.9478502794648
 21
480.5347692601475
 31
0.0
1001
AcDbBlockRepETag
1070
     1
1071
       37
1005
705
  0
MTEXT
  5
706
330
2CE
100
AcDbEntity
  8
图框
 62
     6
100
AcDbMText
 10
857.7598814901191
 20
483.651829494754
 30
0.0
 40
2.651776162684904
 41
2.557913877927211
 46
0.0
 71
     1
 72
     5
  1
1
  7
Romans字体
 73
     1
 44
1.0
1001
AcDbBlockRepETag
1070
     1
1071
       38
1005
706
  0
LINE
  5
707
330
2CE
100
AcDbEntity
  8
图框
370
    50
100
AcDbLine
 10
836.8548209370597
 20
484.0347692601515
 30
0.0
 11
1126.928502610363
 21
484.0347692601515
 31
0.0
1001
AcDbBlockRepETag
1070
     1
1071
       39
1005
707
  0
LINE
  5
708
330
2CE
100
AcDbEntity
  8
图框
370
    50
100
AcDbLine
 10
836.9128518455362
 20
484.0178684310246
 30
0.0
 11
836.9128518455394
 21
675.0207195125422
 31
0.0
1001
AcDbBlockRepETag
1070
     1
1071
       40
1005
708
  0
MTEXT
  5
709
330
2CE
100
AcDbEntity
  8
图框
 62
     6
100
AcDbMText
 10
833.8475685789031
 20
658.7332172029115
 30
0.0
 40
2.651776162684904
 41
2.557913877927211
 46
0.0
 71
     1
 72
     5
  1
D
  7
Romans字体
 11
0.0000000000000001
 21
1.0
 31
0.0
 73
     1
 44
1.0
1001
AcDbBlockRepETag
1070
     1
1071
       41
1005
709
  0
LINE
  5
70A
330
2CE
100
AcDbEntity
  8
图框
 62
     6
100
AcDbLine
 10
836.9128518455386
 20
634.0726090796082
 30
0.0
 11
833.4128518455365
 21
634.0726090796082
 31
0.0
1001
AcDbBlockRepETag
1070
     1
1071
       42
1005
70A
  0
MTEXT
  5
70B
330
2CE
100
AcDbEntity
  8
图框
 62
     6
100
AcDbMText
 10
833.9039177480142
 20
607.5539372630998
 30
0.0
 40
2.651776162684904
 41
2.557913877927211
 46
0.0
 71
     1
 72
     5
  1
C
  7
Romans字体
 11
0.0000000000000001
 21
1.0
 31
0.0
 73
     1
 44
1.0
1001
AcDbBlockRepETag
1070
     1
1071
       43
1005
70B
  0
LINE
  5
70C
330
2CE
100
AcDbEntity
  8
图框
 62
     6
100
AcDbLine
 10
836.9128518455378
 20
582.89332913979
 30
0.0
 11
833.4128518455365
 21
582.89332913979
 31
0.0
1001
AcDbBlockRepETag
1070
     1
1071
       44
1005
70C
  0
MTEXT
  5
70D
330
2CE
100
AcDbEntity
  8
图框
 62
     6
100
AcDbMText
 10
833.9039177480142
 20
556.3746573232886
 30
0.0
 40
2.651776162684904
 41
2.557913877927211
 46
0.0
 71
     1
 72
     5
  1
B
  7
Romans字体
 11
0.0000000000000001
 21
1.0
 31
0.0
 73
     1
 44
1.0
1001
AcDbBlockRepETag
1070
     1
1071
       45
1005
70D
  0
LINE
  5
70E
330
2CE
100
AcDbEntity
  8
图框
 62
     6
100
AcDbLine
 10
836.9128518455367
 20
531.714049199969
 30
0.0
 11
833.4128518455365
 21
531.714049199969
 31
0.0
1001
AcDbBlockRepETag
1070
     1
1071
       46
1005
70E
  0
MTEXT
  5
70F
330
2CE
100
AcDbEntity
  8
图框
 62
     6
100
AcDbMText
 10
833.9039177480142
 20
508.7896535755975
 30
0.0
 40
2.651776162684904
 41
2.557913877927211
 46
0.0
 71
     1
 72
     5
  1
A
  7
Romans字体
 11
0.0000000000000001
 21
1.0
 31
0.0
 73
     1
 44
1.0
1001
AcDbBlockRepETag
1070
     1
1071
       47
1005
70F
  0
LINE
  5
710
330
2CE
100
AcDbEntity
  8
图框
370
    -3
100
AcDbLine
 10
836.9128518455394
 20
675.0207195125422
 30
0.0
 11
836.9128518455394
 21
684.5021384922564
 31
0.0
1001
AcDbBlockRepETag
1070
     1
1071
       48
1005
710
  0
LINE
  5
711
330
2CE
100
AcDbEntity
  8
图框
370
    -3
100
AcDbLine
 10
842.6237321475781
 20
675.5347692601515
 30
0.0
 11
842.6237321475781
 21
685.0161882398658
 31
0.0
1001
AcDbBlockRepETag
1070
     1
1071
       49
1005
711
  0
LINE
  5
712
330
2CE
100
AcDbEntity
  8
图框
370
    -3
100
AcDbLine
 10
848.3346124496179
 20
675.5347692601515
 30
0.0
 11
848.3346124496179
 21
685.0161882398658
 31
0.0
1001
AcDbBlockRepETag
1070
     1
1071
       50
1005
712
  0
LINE
  5
713
330
2CE
100
AcDbEntity
  8
图框
370
    -3
100
AcDbLine
 10
854.0454927516588
 20
675.5347692601515
 30
0.0
 11
854.0454927516588
 21
685.0161882398658
 31
0.0
1001
AcDbBlockRepETag
1070
     1
1071
       51
1005
713
  0
LINE
  5
714
330
2CE
100
AcDbEntity
  8
图框
370
    -3
100
AcDbLine
 10
861.5351874539182
 20
675.5347692601515
 30
0.0
 11
861.5351874539182
 21
686.7901958362482
 31
0.0
1001
AcDbBlockRepETag
1070
     1
1071
       52
1005
714
  0
MTEXT
  5
715
330
2CE
100
AcDbEntity
  8
图框
 62
     6
100
AcDbMText
 10
1105.329704038389
 20
678.859919059449
 30
0.0
 40
2.651776162684904
 41
2.557913877927211
 46
0.0
 71
     1
 72
     5
  1
6
  7
Romans字体
 73
     1
 44
1.0
1001
AcDbBlockRepETag
1070
     1
1071
       53
1005
715
  0
LINE
  5
716
330
2CE
100
AcDbEntity
  8
图框
 62
     6
100
AcDbLine
 10
1081.088565155284
 20
679.0347692601516
 30
0.0
 11
1081.088565155284
 21
675.5347692601515
 31
0.0
1001
AcDbBlockRepETag
1070
     1
1071
       54
1005
716
  0
MTEXT
  5
717
330
2CE
100
AcDbEntity
  8
图框
 62
     6
100
AcDbMText
 10
1055.900596365941
 20
678.859919059449
 30
0.0
 40
2.651776162684904
 41
2.557913877927211
 46
0.0
 71
     1
 72
     5
  1
5
  7
Romans字体
 73
     1
 44
1.0
1001
AcDbBlockRepETag
1070
     1
1071
       55
1005
717
  0
LINE
  5
718
330
2CE
100
AcDbEntity
  8
图框
 62
     6
100
AcDbLine
 10
1031.553386436349
 20
679.0347692601516
 30
0.0
 11
1031.553386436349
 21
675.5347692601515
 31
0.0
1001
AcDbBlockRepETag
1070
     1
1071
       56
1005
718
  0
MTEXT
  5
719
330
2CE
100
AcDbEntity
  8
图框
 62
     6
100
AcDbMText
 10
1006.36541764698
 20
678.7312083656147
 30
0.0
 40
2.651776162684904
 41
2.557913877927211
 46
0.0
 71
     1
 72
     5
  1
4
  7
Romans字体
 73
     1
 44
1.0
1001
AcDbBlockRepETag
1070
     1
1071
       57
1005
719
  0
LINE
  5
71A
330
2CE
100
AcDbEntity
  8
图框
 62
     6
100
AcDbLine
 10
982.0182077173887
 20
679.0347692601516
 30
0.0
 11
982.0182077173887
 21
675.5347692601515
 31
0.0
1001
AcDbBlockRepETag
1070
     1
1071
       58
1005
71A
  0
MTEXT
  5
71B
330
2CE
100
AcDbEntity
  8
图框
 62
     6
100
AcDbMText
 10
956.8302389280352
 20
678.859919059449
 30
0.0
 40
2.651776162684904
 41
2.557913877927211
 46
0.0
 71
     1
 72
     5
  1
3
  7
Romans字体
 73
     1
 44
1.0
1001
AcDbBlockRepETag
1070
     1
1071
       59
1005
71B
  0
LINE
  5
71C
330
2CE
100
AcDbEntity
  8
图框
 62
     6
100
AcDbLine
 10
932.4830289984245
 20
679.0347692601516
 30
0.0
 11
932.4830289984245
 21
675.5347692601515
 31
0.0
1001
AcDbBlockRepETag
1070
     1
1071
       60
1005
71C
  0
MTEXT
  5
71D
330
2CE
100
AcDbEntity
  8
图框
 62
     6
100
AcDbMText
 10
907.295060209082
 20
678.859919059449
 30
0.0
 40
2.651776162684904
 41
2.557913877927211
 46
0.0
 71
     1
 72
     5
  1
2
  7
Romans字体
 73
     1
 44
1.0
1001
AcDbBlockRepETag
1070
     1
1071
       61
1005
71D
  0
LINE
  5
71E
330
2CE
100
AcDbEntity
  8
图框
 62
     6
100
AcDbLine
 10
882.9478502794648
 20
678.7962435131815
 30
0.0
 11
882.9478502794648
 21
675.5347692601515
 31
0.0
1001
AcDbBlockRepETag
1070
     1
1071
       62
1005
71E
  0
MTEXT
  5
71F
330
2CE
100
AcDbEntity
  8
图框
 62
     6
100
AcDbMText
 10
862.6286629643733
 20
678.859919059449
 30
0.0
 40
2.651776162684904
 41
2.557913877927211
 46
0.0
 71
     1
 72
     5
  1
1
  7
Romans字体
 73
     1
 44
1.0
1001
AcDbBlockRepETag
1070
     1
1071
       63
1005
71F
  0
LINE
  5
720
330
2CE
100
AcDbEntity
  8
图框
370
    -3
100
AcDbLine
 10
836.9128518455394
 20
675.0207195125422
 30
0.0
 11
836.9128518455394
 21
686.7901958362482
 31
0.0
1001
AcDbBlockRepETag
1070
     1
1071
       64
1005
720
  0
LINE
  5
721
330
2CE
100
AcDbEntity
  8
图框
370
    50
100
AcDbLine
 10
836.9128518455394
 20
675.5347692601515
 30
0.0
 11
1126.928502610363
 21
675.5347692601515
 31
0.0
1001
AcDbBlockRepETag
1070
     1
1071
       65
1005
721
  0
LINE
  5
722
330
2CE
100
AcDbEntity
  8
图框
370
    -3
100
AcDbLine
 10
842.6237321475781
 20
675.5347692601515
 30
0.0
 11
842.6237321475781
 21
686.7901958362482
 31
0.0
1001
AcDbBlockRepETag
1070
     1
1071
       66
1005
722
  0
LINE
  5
723
330
2CE
100
AcDbEntity
  8
图框
370
    -3
100
AcDbLine
 10
848.3346124496179
 20
675.5347692601515
 30
0.0
 11
848.3346124496179
 21
686.7901958362482
 31
0.0
1001
AcDbBlockRepETag
1070
     1
1071
       67
1005
723
  0
MTEXT
  5
724
102
{ACAD_XDICTIONARY
360
780
102
}
330
2CE
100
AcDbEntity
  8
图框
100
AcDbMText
 10
857.7903401027889
 20
686.7901958362482
 30
0.0
 40
1.958998408821398
 41
11.25542657609672
 46
7.489694702258906
 71
     4
 72
     5
  1
\pi2.6646;{\fSimSun|b0|i0|c134|p2;档案员\fFangSong_GB2312|b0|i0|c134|p49;\H0.7x;\P\pi1.4159;\Fromans|c134;Filing Clerk\fFangSong_GB2312|b0|i0|c134|p49; }
 11
-0.0000000000000002
 21
-1.0
 31
0.0
 73
     1
 44
1.0
1001
AcDbBlockRepETag
1070
     1
1071
       68
1005
724
1001
ACAD
1000
ACAD_MTEXT_DEFINED_HEIGHT_BEGIN
1070
    46
1040
7.489694702258906
1000
ACAD_MTEXT_DEFINED_HEIGHT_END
  0
MTEXT
  5
725
102
{ACAD_XDICTIONARY
360
782
102
}
330
2CE
100
AcDbEntity
  8
图框
100
AcDbMText
 10
845.479172298598
 20
686.7901958362482
 30
0.0
 40
1.958998408821398
 41
11.25542657609672
 46
5.710880302039671
 71
     4
 72
     5
  1
\pi0.63465;{\fSimSun|b0|i0|c134|p2;日期\Fromans|c134;/Date}
 11
-0.0000000000000002
 21
-1.0
 31
0.0
 73
     1
 44
1.0
1001
AcDbBlockRepETag
1070
     1
1071
       69
1005
725
1001
ACAD
1000
ACAD_MTEXT_DEFINED_HEIGHT_BEGIN
1070
    46
1040
5.710880302039671
1000
ACAD_MTEXT_DEFINED_HEIGHT_END
  0
LINE
  5
726
330
2CE
100
AcDbEntity
  8
图框
370
    -3
100
AcDbLine
 10
854.0454927516588
 20
675.5347692601515
 30
0.0
 11
854.0454927516588
 21
686.7901958362482
 31
0.0
1001
AcDbBlockRepETag
1070
     1
1071
       70
1005
726
  0
LINE
  5
727
330
2CE
100
AcDbEntity
  8
图框
370
    -3
100
AcDbLine
 10
1036.653967466372
 20
531.3291676047914
 30
0.0
 11
1036.653967466372
 21
484.0126019753161
 31
0.0
1001
AcDbBlockRepETag
1070
     1
1071
       71
1005
727
  0
LINE
  5
728
330
2CE
100
AcDbEntity
  8
图框
370
    -3
100
AcDbLine
 10
1047.483315900763
 20
507.6708838011533
 30
0.0
 11
1047.483315900763
 21
491.8986945987308
 31
0.0
1001
AcDbBlockRepETag
1070
     1
1071
       72
1005
728
  0
LINE
  5
729
330
2CE
100
AcDbEntity
  8
图框
370
    -3
100
AcDbLine
 10
1058.312664335153
 20
507.6708838011533
 30
0.0
 11
1058.312664335153
 21
484.0347692601515
 31
0.0
1001
AcDbBlockRepETag
1070
     1
1071
       73
1005
729
  0
LINE
  5
72A
330
2CE
100
AcDbEntity
  8
图框
370
    25
100
AcDbLine
 10
1048.474135214456
 20
488.1095628329926
 30
0.0
 11
1054.946420288459
 21
488.1095628329926
 31
0.0
1001
AcDbBlockRepETag
1070
     1
1071
       74
1005
72A
  0
LINE
  5
72B
330
2CE
100
AcDbEntity
  8
图框
370
    25
100
AcDbLine
 10
1054.232527365989
 20
487.0761716842634
 30
0.0
 11
1049.156490914508
 21
486.4576273751
 31
0.0
1001
AcDbBlockRepETag
1070
     1
1071
       75
1005
72B
  0
LINE
  5
72C
330
2CE
100
AcDbEntity
  8
图框
370
    25
100
AcDbLine
 10
1054.232527365989
 20
489.1429539817209
 30
0.0
 11
1049.156490914508
 21
489.7614982908846
 31
0.0
1001
AcDbBlockRepETag
1070
     1
1071
       76
1005
72C
  0
LINE
  5
72D
330
2CE
100
AcDbEntity
  8
图框
370
    25
100
AcDbLine
 10
1049.156490914508
 20
489.7614982908846
 30
0.0
 11
1049.156490914508
 21
486.4576273751
 31
0.0
1001
AcDbBlockRepETag
1070
     1
1071
       77
1005
72D
  0
LINE
  5
72E
330
2CE
100
AcDbEntity
  8
图框
370
    25
100
AcDbLine
 10
1054.232527365989
 20
489.1429539817209
 30
0.0
 11
1054.232527365989
 21
487.0761716842634
 31
0.0
1001
AcDbBlockRepETag
1070
     1
1071
       78
1005
72E
  0
CIRCLE
  5
72F
330
2CE
100
AcDbEntity
  8
图框
370
    25
100
AcDbCircle
 10
1042.502700458579
 20
488.1095628329926
 30
0.0
 40
1.651935457891863
1001
AcDbBlockRepETag
1070
     1
1071
       79
1005
72F
  0
CIRCLE
  5
730
330
2CE
100
AcDbEntity
  8
图框
370
    25
100
AcDbCircle
 10
1042.502700458579
 20
488.1095628329926
 30
0.0
 40
1.033391148728775
1001
AcDbBlockRepETag
1070
     1
1071
       80
1005
730
  0
LINE
  5
731
330
2CE
100
AcDbEntity
  8
图框
370
    25
100
AcDbLine
 10
1040.136872078216
 20
488.1095628329926
 30
0.0
 11
1044.868528838943
 21
488.1095628329926
 31
0.0
1001
AcDbBlockRepETag
1070
     1
1071
       81
1005
731
  0
LINE
  5
732
330
2CE
100
AcDbEntity
  8
图框
370
    25
100
AcDbLine
 10
1042.502700458579
 20
490.475391213355
 30
0.0
 11
1042.502700458579
 21
485.743734452629
 31
0.0
1001
AcDbBlockRepETag
1070
     1
1071
       82
1005
732
  0
LINE
  5
733
330
2CE
100
AcDbEntity
  8
图框
370
    -3
100
AcDbLine
 10
1069.142012769546
 20
507.6708838011533
 30
0.0
 11
1069.142012769546
 21
491.8986945987308
 31
0.0
1001
AcDbBlockRepETag
1070
     1
1071
       83
1005
733
  0
MTEXT
  5
734
330
2CE
100
AcDbEntity
  8
图框
100
AcDbMText
 10
1086.643735910939
 20
526.8006839312707
 30
0.0
 40
2.154898249703542
 41
13.34474941400573
 46
9.056967347041775
 71
     5
 72
     5
  1
图号{\Ftxt|c134;\P\Fromans|c134;\W0.65;Drawing No.}
 73
     1
 44
1.0
1001
AcDbBlockRepETag
1070
     1
1071
       84
1005
734
1001
ACAD
1000
ACAD_MTEXT_DEFINED_HEIGHT_BEGIN
1070
    46
1040
9.056967347041775
1000
ACAD_MTEXT_DEFINED_HEIGHT_END
  0
LINE
  5
735
330
2CE
100
AcDbEntity
  8
图框
370
    -3
100
AcDbLine
 10
1093.316110617942
 20
531.3291676047914
 30
0.0
 11
1093.316110617942
 21
495.8417418993347
 31
0.0
1001
AcDbBlockRepETag
1070
     1
1071
       85
1005
735
  0
LINE
  5
736
330
2CE
100
AcDbEntity
  8
图框
370
    -3
100
AcDbLine
 10
1047.473969770481
 20
531.3291676047914
 30
0.0
 11
1047.473969770481
 21
507.6708838011533
 31
0.0
1001
AcDbBlockRepETag
1070
     1
1071
       86
1005
736
  0
MTEXT
  5
737
330
2CE
100
AcDbEntity
  8
图框
100
AcDbMText
 10
1063.72733855235
 20
503.7278365005473
 30
0.0
 40
2.252848170144607
 41
10.82934843439208
 46
7.886094601212128
 71
     5
 72
     5
  1
重量\P{\Fromans|c134;Weight}
 73
     1
 44
1.0
1001
AcDbBlockRepETag
1070
     1
1071
       87
1005
737
1001
ACAD
1000
ACAD_MTEXT_DEFINED_HEIGHT_BEGIN
1070
    46
1040
7.886094601212128
1000
ACAD_MTEXT_DEFINED_HEIGHT_END
  0
LINE
  5
738
330
2CE
100
AcDbEntity
  8
图框
370
    -3
100
AcDbLine
 10
1036.653967466372
 20
519.5000257029746
 30
0.0
 11
1079.971361203936
 21
519.5000257029746
 31
0.0
1001
AcDbBlockRepETag
1070
     1
1071
       88
1005
738
  0
MTEXT
  5
739
330
2CE
100
AcDbEntity
  8
图框
100
AcDbMText
 10
1074.556686986741
 20
503.7278365005473
 30
0.0
 40
2.252848170144607
 41
10.82934843438984
 46
7.886094601212141
 71
     5
 72
     5
  1
数量\P{\Fromans|c134;Qty.}
 73
     1
 44
1.0
1001
AcDbBlockRepETag
1070
     1
1071
       89
1005
739
1001
ACAD
1000
ACAD_MTEXT_DEFINED_HEIGHT_BEGIN
1070
    46
1040
7.886094601212141
1000
ACAD_MTEXT_DEFINED_HEIGHT_END
  0
LINE
  5
73A
330
2CE
100
AcDbEntity
  8
图框
370
    -3
100
AcDbLine
 10
1079.971361203936
 20
495.8417418993347
 30
0.0
 11
1126.928502610363
 21
495.8417418993342
 31
0.0
1001
AcDbBlockRepETag
1070
     1
1071
       90
1005
73A
  0
LINE
  5
73B
330
2CE
100
AcDbEntity
  8
图框
370
    -3
100
AcDbLine
 10
1079.971361203936
 20
504.7132992040975
 30
0.0
 11
1126.928502610363
 21
504.7132992040975
 31
0.0
1001
AcDbBlockRepETag
1070
     1
1071
       91
1005
73B
  0
MTEXT
  5
73C
330
2CE
100
AcDbEntity
  8
图框
100
AcDbMText
 10
1052.893317052817
 20
503.7278365005473
 30
0.0
 40
2.252848170144607
 41
10.83869456467139
 46
7.886094601212101
 71
     5
 72
     5
  1
版本\P{\Fromans|c134;REV.}
 73
     1
 44
1.0
1001
AcDbBlockRepETag
1070
     1
1071
       92
1005
73C
1001
ACAD
1000
ACAD_MTEXT_DEFINED_HEIGHT_BEGIN
1070
    46
1040
7.886094601212101
1000
ACAD_MTEXT_DEFINED_HEIGHT_END
  0
MTEXT
  5
73D
330
2CE
100
AcDbEntity
  8
图框
100
AcDbMText
 10
1042.068641683568
 20
503.7278365005473
 30
0.0
 40
2.252848170144607
 41
10.8293484343908
 46
7.886094601212136
 71
     5
 72
     5
  1
比例\P{\Fromans|c134;Scale}
 73
     1
 44
1.0
1001
AcDbBlockRepETag
1070
     1
1071
       93
1005
73D
1001
ACAD
1000
ACAD_MTEXT_DEFINED_HEIGHT_BEGIN
1070
    46
1040
7.886094601212136
1000
ACAD_MTEXT_DEFINED_HEIGHT_END
  0
LINE
  5
73E
330
2CE
100
AcDbEntity
  8
图框
370
    -3
100
AcDbLine
 10
1036.653967466372
 20
507.6708838011533
 30
0.0
 11
1079.971361203936
 21
507.6708838011533
 31
0.0
1001
AcDbBlockRepETag
1070
     1
1071
       94
1005
73E
  0
LINE
  5
73F
330
2CE
100
AcDbEntity
  8
图框
370
    -3
100
AcDbLine
 10
1036.653967466372
 20
491.8986945987308
 30
0.0
 11
1079.971361203936
 21
491.8986945987308
 31
0.0
1001
AcDbBlockRepETag
1070
     1
1071
       95
1005
73F
  0
LINE
  5
740
330
2CE
100
AcDbEntity
  8
图框
370
    -3
100
AcDbLine
 10
1079.971361203936
 20
531.3291676047914
 30
0.0
 11
1079.971361203936
 21
484.0125999975168
 31
0.0
1001
AcDbBlockRepETag
1070
     1
1071
       96
1005
740
  0
MTEXT
  5
741
330
2CE
100
AcDbEntity
  8
图框
100
AcDbMText
 10
1042.063968618426
 20
525.4145966538832
 30
0.0
 40
2.252848170144607
 41
10.82000230410933
 46
11.82914190181708
 71
     5
 72
     5
  1
表面处理\P{\Fromans|c134;Finish}
 73
     1
 44
1.0
1001
AcDbBlockRepETag
1070
     1
1071
       97
1005
741
1001
ACAD
1000
ACAD_MTEXT_DEFINED_HEIGHT_BEGIN
1070
    46
1040
11.82914190181708
1000
ACAD_MTEXT_DEFINED_HEIGHT_END
  0
MTEXT
  5
742
330
2CE
100
AcDbEntity
  8
图框
100
AcDbMText
 10
1042.063968618426
 20
513.5854547520639
 30
0.0
 40
2.252848170144607
 41
10.82000230410933
 46
11.8291419018212
 71
     5
 72
     5
  1
材料\P{\Fromans|c134;Material}
 73
     1
 44
1.0
1001
AcDbBlockRepETag
1070
     1
1071
       98
1005
742
1001
ACAD
1000
ACAD_MTEXT_DEFINED_HEIGHT_BEGIN
1070
    46
1040
11.8291419018212
1000
ACAD_MTEXT_DEFINED_HEIGHT_END
  0
LINE
  5
743
330
2CE
100
AcDbEntity
  8
图框
370
    -3
100
AcDbLine
 10
1079.971361203936
 20
522.27220025775
 30
0.0
 11
1126.928502610363
 21
522.27220025775
 31
0.0
1001
AcDbBlockRepETag
1070
     1
1071
       99
1005
743
  0
LINE
  5
744
330
2CE
100
AcDbEntity
  8
图框
370
    -3
100
AcDbLine
 10
1079.971361203936
 20
513.5854547520641
 30
0.0
 11
1126.928502610363
 21
513.5854547520639
 31
0.0
1001
AcDbBlockRepETag
1070
     1
1071
      100
1005
744
  0
MTEXT
  5
745
330
2CE
100
AcDbEntity
  8
图框
100
AcDbMText
 10
1086.643735910939
 20
517.9288275049072
 30
0.0
 40
1.958998408821398
 41
13.34474941400573
 46
8.686745505685811
 71
     5
 72
     5
  1
产品代号\P{\Fromans|c134;Part Code}
 73
     1
 44
1.0
1001
AcDbBlockRepETag
1070
     1
1071
      101
1005
745
1001
ACAD
1000
ACAD_MTEXT_DEFINED_HEIGHT_BEGIN
1070
    46
1040
8.686745505685811
1000
ACAD_MTEXT_DEFINED_HEIGHT_END
  0
LINE
  5
746
330
2CE
100
AcDbEntity
  8
图框
370
    -3
100
AcDbLine
 10
946.9285026103634
 20
525.7982263931411
 30
0.0
 11
1036.653967466372
 21
525.7982263931411
 31
0.0
1001
AcDbBlockRepETag
1070
     1
1071
      102
1005
746
  0
LINE
  5
747
330
2CE
100
AcDbEntity
  8
图框
370
    -3
100
AcDbLine
 10
946.9285026103634
 20
520.2672851814959
 30
0.0
 11
1036.653967466372
 21
520.2672851814959
 31
0.0
1001
AcDbBlockRepETag
1070
     1
1071
      103
1005
747
  0
LINE
  5
748
330
2CE
100
AcDbEntity
  8
图框
370
    35
100
AcDbLine
 10
946.9285026103634
 20
531.3291676047914
 30
0.0
 11
1126.928502610363
 21
531.3291676047914
 31
0.0
1001
AcDbBlockRepETag
1070
     1
1071
      104
1005
748
  0
LINE
  5
749
330
2CE
100
AcDbEntity
  8
图框
370
    -3
100
AcDbLine
 10
990.6727612856927
 20
509.2054027581959
 30
0.0
 11
990.6727612856927
 21
484.0347692601515
 31
0.0
1001
AcDbBlockRepETag
1070
     1
1071
      105
1005
749
  0
MTEXT
  5
74A
102
{ACAD_XDICTIONARY
360
784
102
}
330
2CE
100
AcDbEntity
  8
图框
100
AcDbMText
 10
997.1628169651232
 20
499.816589978722
 30
0.0
 40
2.252848170144607
 41
12.98011135886052
 46
6.19230880992475
 71
     5
 72
     5
  1
{\fSimSun|b0|i0|c134|p2;标准化}\PStand.
  7
Romans字体
 73
     1
 44
1.0
1001
AcDbBlockRepETag
1070
     1
1071
      106
1005
74A
1001
ACAD
1000
ACAD_MTEXT_DEFINED_HEIGHT_BEGIN
1070
    46
1040
6.19230880992475
1000
ACAD_MTEXT_DEFINED_HEIGHT_END
  0
LINE
  5
74B
330
2CE
100
AcDbEntity
  8
图框
370
    -3
100
AcDbLine
 10
975.4103773808022
 20
509.2054027581959
 30
0.0
 11
975.4103773808022
 21
484.0347692601515
 31
0.0
1001
AcDbBlockRepETag
1070
     1
1071
      107
1005
74B
  0
MTEXT
  5
74C
330
2CE
100
AcDbEntity
  8
图框
100
AcDbMText
 10
984.5089229802068
 20
511.9708733640202
 30
0.0
 40
2.448748011026752
 41
38.287899328693
 46
5.530941211648832
 71
     5
 72
     5
  1
  变更描述{\Fromans|c134;/Description}
 73
     1
 44
1.0
1001
AcDbBlockRepETag
1070
     1
1071
      108
1005
74C
1001
ACAD
1000
ACAD_MTEXT_DEFINED_HEIGHT_BEGIN
1070
    46
1040
5.530941211648832
1000
ACAD_MTEXT_DEFINED_HEIGHT_END
  0
MTEXT
  5
74D
102
{ACAD_XDICTIONARY
360
786
102
}
330
2CE
100
AcDbEntity
  8
图框
100
AcDbMText
 10
1012.466086049227
 20
511.9708733640202
 30
0.0
 40
1.958998408821398
 41
17.6264268093469
 46
5.530941211648825
 71
     5
 72
     5
  1
{\fSimSun|b0|i0|c134|p2;签名\P\Fromans|c134;Signature} 
 73
     1
 44
1.0
1001
AcDbBlockRepETag
1070
     1
1071
      109
1005
74D
1001
ACAD
1000
ACAD_MTEXT_DEFINED_HEIGHT_BEGIN
1070
    46
1040
5.530941211648825
1000
ACAD_MTEXT_DEFINED_HEIGHT_END
  0
MTEXT
  5
74E
102
{ACAD_XDICTIONARY
360
788
102
}
330
2CE
100
AcDbEntity
  8
图框
100
AcDbMText
 10
960.7558556394856
 20
511.9708733640202
 30
0.0
 40
1.958998408821398
 41
9.218235352749283
 46
5.530941211648841
 71
     5
 72
     5
  1
{\fSimSun|b0|i0|c134|p2;处数\P\Fromans|c134;Number }
 73
     1
 44
1.0
1001
AcDbBlockRepETag
1070
     1
1071
      110
1005
74E
1001
ACAD
1000
ACAD_MTEXT_DEFINED_HEIGHT_BEGIN
1070
    46
1040
5.530941211648841
1000
ACAD_MTEXT_DEFINED_HEIGHT_END
  0
LINE
  5
74F
330
2CE
100
AcDbEntity
  8
图框
370
    -3
100
AcDbLine
 10
946.9285026103634
 20
514.7363439698449
 30
0.0
 11
1036.653967466372
 21
514.7363439698449
 31
0.0
1001
AcDbBlockRepETag
1070
     1
1071
      111
1005
74F
  0
LINE
  5
750
330
2CE
100
AcDbEntity
  8
图框
370
    -3
100
AcDbLine
 10
946.9285026103634
 20
509.2054027581959
 30
0.0
 11
1036.653967466372
 21
509.2054027581959
 31
0.0
1001
AcDbBlockRepETag
1070
     1
1071
      112
1005
750
  0
LINE
  5
751
330
2CE
100
AcDbEntity
  8
图框
370
    -3
100
AcDbLine
 10
946.9285026103634
 20
502.9127443836848
 30
0.0
 11
1036.653967466372
 21
502.9127443836848
 31
0.0
1001
AcDbBlockRepETag
1070
     1
1071
      113
1005
751
  0
LINE
  5
752
330
2CE
100
AcDbEntity
  8
图框
370
    -3
100
AcDbLine
 10
946.9285026103634
 20
496.620086009173
 30
0.0
 11
1036.653967466372
 21
496.620086009173
 31
0.0
1001
AcDbBlockRepETag
1070
     1
1071
      114
1005
752
  0
LINE
  5
753
330
2CE
100
AcDbEntity
  8
图框
370
    35
380
     1
100
AcDbLine
 10
946.9285026103634
 20
531.3291676047914
 30
0.0
 11
946.9285026103634
 21
484.0347692601515
 31
0.0
1001
AcDbBlockRepETag
1070
     1
1071
      115
1005
753
  0
LINE
  5
754
330
2CE
100
AcDbEntity
  8
图框
370
    -3
100
AcDbLine
 10
1021.301636813399
 20
531.3291676047914
 30
0.0
 11
1021.301636813399
 21
484.0347692601515
 31
0.0
1001
AcDbBlockRepETag
1070
     1
1071
      116
1005
754
  0
LINE
  5
755
330
2CE
100
AcDbEntity
  8
图框
370
    -3
100
AcDbLine
 10
1003.652872644553
 20
531.3291676047914
 30
0.0
 11
1003.652872644553
 21
484.0347692601515
 31
0.0
1001
AcDbBlockRepETag
1070
     1
1071
      117
1005
755
  0
LINE
  5
756
330
2CE
100
AcDbEntity
  8
图框
370
    -3
100
AcDbLine
 10
965.3649733158603
 20
531.3291676047914
 30
0.0
 11
965.3649733158603
 21
509.2054027581959
 31
0.0
1001
AcDbBlockRepETag
1070
     1
1071
      118
1005
756
  0
LINE
  5
757
330
2CE
100
AcDbEntity
  8
图框
370
    -3
100
AcDbLine
 10
956.1467379631109
 20
531.3291676047914
 30
0.0
 11
956.1467379631109
 21
509.2054027581959
 31
0.0
1001
AcDbBlockRepETag
1070
     1
1071
      119
1005
757
  0
MTEXT
  5
758
102
{ACAD_XDICTIONARY
360
78A
102
}
330
2CE
100
AcDbEntity
  8
图框
100
AcDbMText
 10
951.537620286737
 20
511.9708733640202
 30
0.0
 40
1.958998408821398
 41
9.218235352747692
 46
5.530941211648832
 71
     5
 72
     5
  1
{\fSimSun|b0|i0|c134|p2;标记\P\Fromans|c134;Mark}
 73
     1
 44
1.0
1001
AcDbBlockRepETag
1070
     1
1071
      120
1005
758
1001
ACAD
1000
ACAD_MTEXT_DEFINED_HEIGHT_BEGIN
1070
    46
1040
5.530941211648832
1000
ACAD_MTEXT_DEFINED_HEIGHT_END
  0
MTEXT
  5
759
102
{ACAD_XDICTIONARY
360
78C
102
}
330
2CE
100
AcDbEntity
  8
图框
100
AcDbMText
 10
953.4185582897936
 20
493.4737568219182
 30
0.0
 40
2.252848170144607
 41
12.98011135886041
 46
6.292658374510382
 71
     5
 72
     5
  1
{\fSimSun|b0|i0|c134|p2;审核\P\Fromans|c134;Checked}
 73
     1
 44
1.0
1001
AcDbBlockRepETag
1070
     1
1071
      121
1005
759
1001
ACAD
1000
ACAD_MTEXT_DEFINED_HEIGHT_BEGIN
1070
    46
1040
6.292658374510382
1000
ACAD_MTEXT_DEFINED_HEIGHT_END
  0
MTEXT
  5
75A
102
{ACAD_XDICTIONARY
360
78E
102
}
330
2CE
100
AcDbEntity
  8
图框
100
AcDbMText
 10
953.4185582897936
 20
499.8775635376777
 30
0.0
 40
2.252848170144607
 41
12.98011135886041
 46
6.070361692014189
 71
     5
 72
     5
  1
{\fSimSun|b0|i0|c134|p2;绘图\P\Fromans|c134;Drawn\Ftxt|c134; }
 73
     1
 44
1.0
1001
AcDbBlockRepETag
1070
     1
1071
      122
1005
75A
1001
ACAD
1000
ACAD_MTEXT_DEFINED_HEIGHT_BEGIN
1070
    46
1040
6.070361692014189
1000
ACAD_MTEXT_DEFINED_HEIGHT_END
  0
ARC
  5
75B
330
2CE
100
AcDbEntity
  8
图框
 62
     4
370
    35
100
AcDbCircle
 10
1086.900627017421
 20
490.0179944151195
 30
0.0
 40
4.063310408393665
100
AcDbArc
 50
18.95237904564806
 51
161.0476209543519
1001
AcDbBlockRepETag
1070
     1
1071
      123
1005
75B
  0
ARC
  5
75C
330
2CE
100
AcDbEntity
  8
图框
 62
     4
370
    35
100
AcDbCircle
 10
1086.900627017421
 20
490.0179944151195
 30
0.0
 40
4.063310408393665
100
AcDbArc
 50
198.952379045648
 51
341.0476209543519
1001
AcDbBlockRepETag
1070
     1
1071
      124
1005
75C
  0
LINE
  5
75D
330
2CE
100
AcDbEntity
  8
图框
 62
     4
370
    35
100
AcDbLine
 10
1083.057593369548
 20
488.6983035966752
 30
0.0
 11
1090.74366066529
 21
488.6983035966752
 31
0.0
1001
AcDbBlockRepETag
1070
     1
1071
      125
1005
75D
  0
LINE
  5
75E
330
2CE
100
AcDbEntity
  8
图框
 62
     4
370
    35
100
AcDbLine
 10
1083.057593369548
 20
491.3376852335652
 30
0.0
 11
1090.74366066529
 21
491.3376852335652
 31
0.0
1001
AcDbBlockRepETag
1070
     1
1071
      126
1005
75E
  0
MTEXT
  5
75F
330
2CE
100
AcDbEntity
  8
图框
 62
     1
370
    20
100
AcDbMText
 10
1083.034582879669
 20
491.0506288081688
 30
0.0
 40
2.005930044038334
 41
5.047240019334847
 46
0.0
 71
     1
 72
     5
  1
{\fArial|b0|i0|c0|p34;W}
  7
Chinese
 73
     1
 44
1.0
1001
AcDbBlockRepETag
1070
     1
1071
      127
1005
75F
  0
LINE
  5
760
330
2CE
100
AcDbEntity
  8
图框
370
    -3
100
AcDbLine
 10
946.9285026103634
 20
490.327427634663
 30
0.0
 11
1036.653967466372
 21
490.327427634663
 31
0.0
1001
AcDbBlockRepETag
1070
     1
1071
      128
1005
760
  0
LINE
  5
761
330
2CE
100
AcDbEntity
  8
图框
370
    -3
100
AcDbLine
 10
959.9086139692238
 20
509.2054027581959
 30
0.0
 11
959.9086139692238
 21
484.0347692601515
 31
0.0
1001
AcDbBlockRepETag
1070
     1
1071
      129
1005
761
  0
MTEXT
  5
762
330
2CE
100
AcDbEntity
  8
图框
100
AcDbMText
 10
967.6594956750129
 20
506.0590735709403
 30
0.0
 40
2.252848170144607
 41
15.50176341157869
 46
6.292658374511246
 71
     5
 72
     5
  1
姓名{\Fromans|c134;/Name\Ftxt|c134; }
 73
     1
 44
1.0
1001
AcDbBlockRepETag
1070
     1
1071
      130
1005
762
1001
ACAD
1000
ACAD_MTEXT_DEFINED_HEIGHT_BEGIN
1070
    46
1040
6.292658374511246
1000
ACAD_MTEXT_DEFINED_HEIGHT_END
  0
MTEXT
  5
763
330
2CE
100
AcDbEntity
  8
图框
100
AcDbMText
 10
983.0415693332477
 20
506.0590735709403
 30
0.0
 40
2.252848170144607
 41
15.26238390489042
 46
6.2926583745112
 71
     5
 72
     5
  1
日期{\Fromans|c134;/Date}
 73
     1
 44
1.0
1001
AcDbBlockRepETag
1070
     1
1071
      131
1005
763
1001
ACAD
1000
ACAD_MTEXT_DEFINED_HEIGHT_BEGIN
1070
    46
1040
6.2926583745112
1000
ACAD_MTEXT_DEFINED_HEIGHT_END
  0
LINE
  5
764
330
2CE
100
AcDbEntity
  8
图框
370
    -3
100
AcDbLine
 10
946.9285026103634
 20
509.2054027581959
 30
0.0
 11
959.9086139692238
 21
502.9127443836848
 31
0.0
1001
AcDbBlockRepETag
1070
     1
1071
      132
1005
764
  0
MTEXT
  5
765
330
2CE
100
AcDbEntity
  8
图框
100
AcDbMText
 10
1012.931405110086
 20
506.0185715840725
 30
0.0
 40
2.252848170144607
 41
16.93492221063566
 46
0.0
 71
     5
 72
     5
  1
姓名{\Fromans|c134;/Name}
 73
     1
 44
1.0
1001
AcDbBlockRepETag
1070
     1
1071
      133
1005
765
  0
MTEXT
  5
766
330
2CE
100
AcDbEntity
  8
图框
100
AcDbMText
 10
1028.977802139886
 20
506.0590735709403
 30
0.0
 40
2.252848170144607
 41
15.35233065297283
 46
6.292658374511256
 71
     5
 72
     5
  1
日期{\Fromans|c134;/Date}
 73
     1
 44
1.0
1001
AcDbBlockRepETag
1070
     1
1071
      134
1005
766
1001
ACAD
1000
ACAD_MTEXT_DEFINED_HEIGHT_BEGIN
1070
    46
1040
6.292658374511256
1000
ACAD_MTEXT_DEFINED_HEIGHT_END
  0
LINE
  5
767
330
2CE
100
AcDbEntity
  8
图框
370
    -3
100
AcDbLine
 10
1003.652872644553
 20
502.9127443836848
 30
0.0
 11
990.6727612856927
 21
509.2054027581959
 31
0.0
1001
AcDbBlockRepETag
1070
     1
1071
      135
1005
767
  0
MTEXT
  5
768
102
{ACAD_XDICTIONARY
360
790
102
}
330
2CE
100
AcDbEntity
  8
图框
100
AcDbMText
 10
997.1628169651232
 20
487.1810984474071
 30
0.0
 40
2.252848170144607
 41
12.98011135886052
 46
6.292658374511517
 71
     5
 72
     5
  1
{\fSimSun|b0|i0|c134|p2;批准\P\Fromans|c134;Approved}
 73
     1
 44
1.0
1001
AcDbBlockRepETag
1070
     1
1071
      136
1005
768
1001
ACAD
1000
ACAD_MTEXT_DEFINED_HEIGHT_BEGIN
1070
    46
1040
6.292658374511517
1000
ACAD_MTEXT_DEFINED_HEIGHT_END
  0
MTEXT
  5
769
102
{ACAD_XDICTIONARY
360
792
102
}
330
2CE
100
AcDbEntity
  8
图框
100
AcDbMText
 10
953.4185582897936
 20
487.1810984474071
 30
0.0
 40
2.252848170144607
 41
12.98011135886041
 46
6.292658374511495
 71
     5
 72
     5
  1
{\fSimSun|b0|i0|c134|p2;工艺\P\Fromans|c134;Process}
 73
     1
 44
1.0
1001
AcDbBlockRepETag
1070
     1
1071
      137
1005
769
1001
ACAD
1000
ACAD_MTEXT_DEFINED_HEIGHT_BEGIN
1070
    46
1040
6.292658374511495
1000
ACAD_MTEXT_DEFINED_HEIGHT_END
  0
MTEXT
  5
76A
102
{ACAD_XDICTIONARY
360
794
102
}
330
2CE
100
AcDbEntity
  8
图框
100
AcDbMText
 10
1028.977802139886
 20
511.8287965307664
 30
0.0
 40
1.958998408821398
 41
15.3523306529728
 46
5.246787545140668
 71
     5
 72
     5
  1
{\fSimSun|b0|i0|c134|p2;日期\P\Fromans|c134;Date}
 73
     1
 44
1.0
1001
AcDbBlockRepETag
1070
     1
1071
      138
1005
76A
1001
ACAD
1000
ACAD_MTEXT_DEFINED_HEIGHT_BEGIN
1070
    46
1040
5.246787545140668
1000
ACAD_MTEXT_DEFINED_HEIGHT_END
  0
MTEXT
  5
76B
330
2CE
100
AcDbEntity
  8
图框
100
AcDbMText
 10
1086.643735910939
 20
509.1493769780809
 30
0.0
 40
2.154898249703542
 41
13.34474941400573
 46
8.87215554796615
 71
     5
 72
     5
  1
产品料号\P{\Fromans|c134;Part No.}
 73
     1
 44
1.0
1001
AcDbBlockRepETag
1070
     1
1071
      139
1005
76B
1001
ACAD
1000
ACAD_MTEXT_DEFINED_HEIGHT_BEGIN
1070
    46
1040
8.87215554796615
1000
ACAD_MTEXT_DEFINED_HEIGHT_END
  0
MTEXT
  5
76C
330
2CE
100
AcDbEntity
  8
图框
100
AcDbMText
 10
1086.643735910939
 20
500.2775205517163
 30
0.0
 40
1.958998408821398
 41
13.34474941400573
 46
8.871557304763321
 71
     5
 72
     5
  1
产品名称\P{\Fromans|c134;Part Name}
 73
     1
 44
1.0
1001
AcDbBlockRepETag
1070
     1
1071
      140
1005
76C
1001
ACAD
1000
ACAD_MTEXT_DEFINED_HEIGHT_BEGIN
1070
    46
1040
8.871557304763321
1000
ACAD_MTEXT_DEFINED_HEIGHT_END
  0
LINE
  5
76D
330
2CE
100
AcDbEntity
  8
图框
 62
     1
370
    18
100
AcDbLine
 10
833.4128518455365
 20
690.5347692601515
 30
0.0
 11
833.4128518455365
 21
480.5347692601515
 31
0.0
1001
AcDbBlockRepETag
1070
     1
1071
      141
1005
76D
  0
LINE
  5
76E
330
2CE
100
AcDbEntity
  8
图框
 62
     1
370
    18
100
AcDbLine
 10
833.4128518455365
 20
480.5347692601515
 30
0.0
 11
1130.411601781236
 21
480.5347692601515
 31
0.0
1001
AcDbBlockRepETag
1070
     1
1071
      142
1005
76E
  0
LINE
  5
76F
330
2CE
100
AcDbEntity
  8
图框
 62
     1
370
    18
100
AcDbLine
 10
833.4128518455365
 20
690.5347692601515
 30
0.0
 11
1130.411601781236
 21
690.5347692601515
 31
0.0
1001
AcDbBlockRepETag
1070
     1
1071
      143
1005
76F
  0
LINE
  5
770
330
2CE
100
AcDbEntity
  8
图框
 62
     1
370
    18
100
AcDbLine
 10
1130.411601781236
 20
480.5347692601515
 30
0.0
 11
1130.411601781236
 21
690.5347692601515
 31
0.0
1001
AcDbBlockRepETag
1070
     1
1071
      144
1005
770
  0
LINE
  5
771
330
2CE
100
AcDbEntity
  8
图框
370
    18
100
AcDbLine
 10
836.9128518455394
 20
686.7901958362482
 30
0.0
 11
861.5351874539182
 21
686.7901958362482
 31
0.0
1001
AcDbBlockRepETag
1070
     1
1071
      145
1005
771
  0
LINE
  5
772
330
2CE
100
AcDbEntity
  8
图框
370
    50
100
AcDbLine
 10
1126.928502610363
 20
484.3410054693078
 30
0.0
 11
1126.928502610363
 21
675.5347692601515
 31
0.0
1001
AcDbBlockRepETag
1070
     1
1071
      146
1005
772
  0
MTEXT
  5
773
330
2CE
100
AcDbEntity
  8
图框
 62
     3
100
AcDbMText
 10
1052.897990117958
 20
495.8417418993364
 30
0.0
 40
2.985513575034151
 41
10.82934843439114
 46
7.886094601211307
 71
     5
 72
     5
  1
V1.1
  7
Romans字体
 73
     1
 44
1.0
1001
AcDbBlockRepETag
1070
     1
1071
      147
1005
773
1001
ACAD
1000
ACAD_MTEXT_DEFINED_HEIGHT_BEGIN
1070
    46
1040
7.886094601211307
1000
ACAD_MTEXT_DEFINED_HEIGHT_END
  0
LINE
  5
774
330
2CE
100
AcDbEntity
  8
图框
 62
     6
100
AcDbLine
 10
1126.911601781236
 20
531.714049199969
 30
0.0
 11
1130.411601781236
 21
531.714049199969
 31
0.0
1001
AcDbBlockRepETag
1070
     1
1071
      148
1005
774
  0
ENDBLK
  5
366
330
2CE
100
AcDbEntity
  8
0
100
AcDbBlockEnd
  0
BLOCK
  5
379
330
378
100
AcDbEntity
  8
0
100
AcDbBlockBegin
  2
*D2
 70
     1
 10
0.0
 20
0.0
 30
0.0
  3
*D2
  1

  0
LINE
  5
5D2
330
378
100
AcDbEntity
  8
DIM
 62
     6
370
    -2
100
AcDbLine
 10
817.7633023615808
 20
212.3652156428498
 30
0.0
 11
817.7633023615808
 21
217.3194442491396
 31
0.0
  0
LINE
  5
5D3
330
378
100
AcDbEntity
  8
DIM
 62
     6
370
    -2
100
AcDbLine
 10
796.2633023615807
 20
212.90521564235
 30
0.0
 11
796.2633023615807
 21
217.3194442491396
 31
0.0
  0
LINE
  5
5D4
330
378
100
AcDbEntity
  8
DIM
 62
     1
370
    -2
100
AcDbLine
 10
816.7633023615806
 20
217.1194442491395
 30
0.0
 11
797.2633023615807
 21
217.1194442491395
 31
0.0
  0
SOLID
  5
5D5
330
378
100
AcDbEntity
  8
DIM
 62
     1
100
AcDbTrace
 10
816.7633023615806
 20
217.2861109158062
 30
0.0
 11
816.7633023615806
 21
216.9527775824729
 31
0.0
 12
817.7633023615808
 22
217.1194442491395
 32
0.0
 13
817.7633023615808
 23
217.1194442491395
 33
0.0
  0
SOLID
  5
5D6
330
378
100
AcDbEntity
  8
DIM
 62
     1
100
AcDbTrace
 10
797.2633023615807
 20
217.2861109158062
 30
0.0
 11
797.2633023615807
 21
216.9527775824729
 31
0.0
 12
796.2633023615807
 22
217.1194442491395
 32
0.0
 13
796.2633023615807
 23
217.1194442491395
 33
0.0
  0
MTEXT
  5
5D7
330
378
100
AcDbEntity
  8
DIM
 62
     4
100
AcDbMText
 10
807.0133023615806
 20
217.9194442491396
 30
0.0
 40
1.199999999999999
 41
0.0
 46
0.0
 71
     5
 72
     1
  1
\A1;21.5
  7
Romans字体
 73
     1
 44
1.0
  0
POINT
  5
5D8
330
378
100
AcDbEntity
  8
Defpoints
 62
     0
100
AcDbPoint
 10
817.7633023615808
 20
212.1652156428499
 30
0.0
  0
POINT
  5
5D9
330
378
100
AcDbEntity
  8
Defpoints
 62
     0
100
AcDbPoint
 10
796.2633023615807
 20
212.7052156423502
 30
0.0
  0
POINT
  5
5DA
330
378
100
AcDbEntity
  8
Defpoints
 62
     0
100
AcDbPoint
 10
796.2633023615807
 20
217.1194442491395
 30
0.0
  0
ENDBLK
  5
37A
330
378
100
AcDbEntity
  8
0
100
AcDbBlockEnd
  0
BLOCK
  5
385
330
384
100
AcDbEntity
  8
0
100
AcDbBlockBegin
  2
*D3
 70
     1
 10
0.0
 20
0.0
 30
0.0
  3
*D3
  1

  0
LINE
  5
5C9
330
384
100
AcDbEntity
  8
DIM
 62
     6
370
    -2
100
AcDbLine
 10
796.2633023615807
 20
212.9051370115699
 30
0.0
 11
796.2633023615807
 21
214.91336961382
 31
0.0
  0
LINE
  5
5CA
330
384
100
AcDbEntity
  8
DIM
 62
     6
370
    -2
100
AcDbLine
 10
804.2633023615806
 20
212.0510528566848
 30
0.0
 11
804.2633023615806
 21
214.91336961382
 31
0.0
  0
LINE
  5
5CB
330
384
100
AcDbEntity
  8
DIM
 62
     1
370
    -2
100
AcDbLine
 10
797.2633023615807
 20
214.7133696138201
 30
0.0
 11
803.2633023615806
 21
214.7133696138201
 31
0.0
  0
SOLID
  5
5CC
330
384
100
AcDbEntity
  8
DIM
 62
     1
100
AcDbTrace
 10
797.2633023615807
 20
214.8800362804867
 30
0.0
 11
797.2633023615807
 21
214.5467029471534
 31
0.0
 12
796.2633023615807
 22
214.7133696138201
 32
0.0
 13
796.2633023615807
 23
214.7133696138201
 33
0.0
  0
SOLID
  5
5CD
330
384
100
AcDbEntity
  8
DIM
 62
     1
100
AcDbTrace
 10
803.2633023615806
 20
214.8800362804867
 30
0.0
 11
803.2633023615806
 21
214.5467029471534
 31
0.0
 12
804.2633023615806
 22
214.7133696138201
 32
0.0
 13
804.2633023615806
 23
214.7133696138201
 33
0.0
  0
MTEXT
  5
5CE
330
384
100
AcDbEntity
  8
DIM
 62
     4
100
AcDbMText
 10
800.2633023615805
 20
215.5133696138201
 30
0.0
 40
1.199999999999999
 41
0.0
 46
0.0
 71
     5
 72
     1
  1
\A1;h
  7
Romans字体
 73
     1
 44
1.0
  0
POINT
  5
5CF
330
384
100
AcDbEntity
  8
Defpoints
 62
     0
100
AcDbPoint
 10
796.2633023615807
 20
212.70513701157
 30
0.0
  0
POINT
  5
5D0
330
384
100
AcDbEntity
  8
Defpoints
 62
     0
100
AcDbPoint
 10
804.2633023615806
 20
211.8510528566848
 30
0.0
  0
POINT
  5
5D1
330
384
100
AcDbEntity
  8
Defpoints
 62
     0
100
AcDbPoint
 10
804.2633023615806
 20
214.7133696138201
 30
0.0
  0
ENDBLK
  5
386
330
384
100
AcDbEntity
  8
0
100
AcDbBlockEnd
  0
BLOCK
  5
391
330
390
100
AcDbEntity
  8
0
100
AcDbBlockBegin
  2
*D4
 70
     1
 10
0.0
 20
0.0
 30
0.0
  3
*D4
  1

  0
LINE
  5
5ED
330
390
100
AcDbEntity
  8
DIM
 62
     6
370
    -2
100
AcDbLine
 10
796.0633023615805
 20
212.7052156423502
 30
0.0
 11
791.3589415354555
 21
212.7052156423502
 31
0.0
  0
LINE
  5
5EE
330
390
100
AcDbEntity
  8
DIM
 62
     6
370
    -2
100
AcDbLine
 10
796.0633023615805
 20
209.2052156446502
 30
0.0
 11
791.3589415354555
 21
209.2052156446502
 31
0.0
  0
LINE
  5
5EF
330
390
100
AcDbEntity
  8
DIM
 62
     1
370
    -2
100
AcDbLine
 10
791.5589415354554
 20
211.7052156423502
 30
0.0
 11
791.5589415354554
 21
210.2052156446502
 31
0.0
  0
LINE
  5
5F0
330
390
100
AcDbEntity
  8
DIM
 62
     1
370
    -2
100
AcDbLine
 10
791.5589415354554
 20
209.2052156446502
 30
0.0
 11
791.5589415354554
 21
205.0709299303644
 31
0.0
  0
SOLID
  5
5F1
330
390
100
AcDbEntity
  8
DIM
 62
     1
100
AcDbTrace
 10
791.3922748687889
 20
211.7052156423502
 30
0.0
 11
791.7256082021221
 21
211.7052156423502
 31
0.0
 12
791.5589415354554
 22
212.7052156423502
 32
0.0
 13
791.5589415354554
 23
212.7052156423502
 33
0.0
  0
SOLID
  5
5F2
330
390
100
AcDbEntity
  8
DIM
 62
     1
100
AcDbTrace
 10
791.3922748687889
 20
210.2052156446502
 30
0.0
 11
791.7256082021221
 21
210.2052156446502
 31
0.0
 12
791.5589415354554
 22
209.2052156446502
 32
0.0
 13
791.5589415354554
 23
209.2052156446502
 33
0.0
  0
MTEXT
  5
5F3
330
390
100
AcDbEntity
  8
DIM
 62
     4
100
AcDbMText
 10
790.7589415354556
 20
206.6380727875074
 30
0.0
 40
1.199999999999999
 41
0.0
 46
0.0
 71
     5
 72
     1
  1
\A1;{\fISOCPEUR|b0|i0|c0|p34;%%C}3.5
  7
Romans字体
 11
0.0000000000000001
 21
1.0
 31
0.0
 73
     1
 44
1.0
  0
POINT
  5
5F4
330
390
100
AcDbEntity
  8
Defpoints
 62
     0
100
AcDbPoint
 10
796.2633023615807
 20
212.7052156423502
 30
0.0
  0
POINT
  5
5F5
330
390
100
AcDbEntity
  8
Defpoints
 62
     0
100
AcDbPoint
 10
796.2633023615807
 20
209.2052156446502
 30
0.0
  0
POINT
  5
5F6
330
390
100
AcDbEntity
  8
Defpoints
 62
     0
100
AcDbPoint
 10
791.5589415354554
 20
209.2052156446502
 30
0.0
  0
ENDBLK
  5
392
330
390
100
AcDbEntity
  8
0
100
AcDbBlockEnd
  0
BLOCK
  5
39E
330
39D
100
AcDbEntity
  8
0
100
AcDbBlockBegin
  2
*D5
 70
     1
 10
0.0
 20
0.0
 30
0.0
  3
*D5
  1

  0
LINE
  5
5E3
330
39D
100
AcDbEntity
  8
DIM
 62
     6
370
    -2
100
AcDbLine
 10
797.4111332428874
 20
211.8302156435002
 30
0.0
 11
793.7776319401276
 21
211.8302156435002
 31
0.0
  0
LINE
  5
5E4
330
39D
100
AcDbEntity
  8
DIM
 62
     6
370
    -2
100
AcDbLine
 10
797.4111332428874
 20
210.0802156435002
 30
0.0
 11
793.7776319401276
 21
210.0802156435002
 31
0.0
  0
LINE
  5
5E5
330
39D
100
AcDbEntity
  8
DIM
 62
     1
370
    -2
100
AcDbLine
 10
793.9776319401277
 20
212.8302156435001
 30
0.0
 11
793.9776319401277
 21
213.8302156435002
 31
0.0
  0
LINE
  5
5E6
330
39D
100
AcDbEntity
  8
DIM
 62
     1
370
    -2
100
AcDbLine
 10
793.9776319401277
 20
209.0802156435002
 30
0.0
 11
793.9776319401277
 21
206.3173585006431
 31
0.0
  0
SOLID
  5
5E7
330
39D
100
AcDbEntity
  8
DIM
 62
     1
100
AcDbTrace
 10
793.8109652734611
 20
212.8302156435001
 30
0.0
 11
794.1442986067944
 21
212.8302156435001
 31
0.0
 12
793.9776319401277
 22
211.8302156435002
 32
0.0
 13
793.9776319401277
 23
211.8302156435002
 33
0.0
  0
SOLID
  5
5E8
330
39D
100
AcDbEntity
  8
DIM
 62
     1
100
AcDbTrace
 10
793.8109652734611
 20
209.0802156435002
 30
0.0
 11
794.1442986067944
 21
209.0802156435002
 31
0.0
 12
793.9776319401277
 22
210.0802156435002
 32
0.0
 13
793.9776319401277
 23
210.0802156435002
 33
0.0
  0
MTEXT
  5
5E9
330
39D
100
AcDbEntity
  8
DIM
 62
     4
100
AcDbMText
 10
793.1776319401278
 20
207.1987870720718
 30
0.0
 40
1.199999999999999
 41
0.0
 46
0.0
 71
     5
 72
     1
  1
\A1;{\fISOCPEUR|b0|i0|c0|p34;%%C}d
  7
Romans字体
 11
0.0000000000000001
 21
1.0
 31
0.0
 73
     1
 44
1.0
  0
POINT
  5
5EA
330
39D
100
AcDbEntity
  8
Defpoints
 62
     0
100
AcDbPoint
 10
797.6111332428875
 20
211.8302156435002
 30
0.0
  0
POINT
  5
5EB
330
39D
100
AcDbEntity
  8
Defpoints
 62
     0
100
AcDbPoint
 10
797.6111332428875
 20
210.0802156435002
 30
0.0
  0
POINT
  5
5EC
330
39D
100
AcDbEntity
  8
Defpoints
 62
     0
100
AcDbPoint
 10
793.9776319401277
 20
210.0802156435002
 30
0.0
  0
ENDBLK
  5
39F
330
39D
100
AcDbEntity
  8
0
100
AcDbBlockEnd
  0
BLOCK
  5
3AB
330
3AA
100
AcDbEntity
  8
0
100
AcDbBlockBegin
  2
*D6
 70
     1
 10
0.0
 20
0.0
 30
0.0
  3
*D6
  1

  0
LINE
  5
5DB
330
3AA
100
AcDbEntity
  8
DIM
 62
     1
370
    -2
100
AcDbLine
 10
799.2433023622009
 20
211.4552156435
 30
0.0
 11
799.2433023622009
 21
210.4552156435002
 31
0.0
  0
LINE
  5
5DC
330
3AA
100
AcDbEntity
  8
DIM
 62
     1
370
    -2
100
AcDbLine
 10
799.2433023622009
 20
209.4552156435002
 30
0.0
 11
799.2433023622009
 21
206.5637870720716
 31
0.0
  0
SOLID
  5
5DD
330
3AA
100
AcDbEntity
  8
DIM
 62
     1
100
AcDbTrace
 10
799.0766356955342
 20
211.4552156435
 30
0.0
 11
799.4099690288675
 21
211.4552156435
 31
0.0
 12
799.2433023622009
 22
212.4552156435
 32
0.0
 13
799.2433023622009
 23
212.4552156435
 33
0.0
  0
SOLID
  5
5DE
330
3AA
100
AcDbEntity
  8
DIM
 62
     1
100
AcDbTrace
 10
799.0766356955342
 20
210.4552156435002
 30
0.0
 11
799.4099690288675
 21
210.4552156435002
 31
0.0
 12
799.2433023622009
 22
209.4552156435002
 32
0.0
 13
799.2433023622009
 23
209.4552156435002
 33
0.0
  0
MTEXT
  5
5DF
330
3AA
100
AcDbEntity
  8
DIM
 62
     4
100
AcDbMText
 10
798.4433023622009
 20
207.509501357786
 30
0.0
 40
1.199999999999999
 41
0.0
 46
0.0
 71
     5
 72
     1
  1
\A1;{\fISOCPEUR|b0|i0|c0|p34;%%C}D
  7
Romans字体
 11
0.0000000000000001
 21
1.0
 31
0.0
 73
     1
 44
1.0
  0
POINT
  5
5E0
330
3AA
100
AcDbEntity
  8
Defpoints
 62
     0
100
AcDbPoint
 10
799.2433023622009
 20
212.4552156435
 30
0.0
  0
POINT
  5
5E1
330
3AA
100
AcDbEntity
  8
Defpoints
 62
     0
100
AcDbPoint
 10
799.2433023622009
 20
209.4552156435002
 30
0.0
  0
POINT
  5
5E2
330
3AA
100
AcDbEntity
  8
Defpoints
 62
     0
100
AcDbPoint
 10
799.2433023622009
 20
209.4552156435002
 30
0.0
  0
ENDBLK
  5
3AC
330
3AA
100
AcDbEntity
  8
0
100
AcDbBlockEnd
  0
ENDSEC
  0
SECTION
  2
ENTITIES
  0
HATCH
  5
16
330
2
100
AcDbEntity
  8
图层 1
 62
     7
100
AcDbHatch
 10
0.0
 20
0.0
 30
0.0
210
0.0
220
0.0
230
1.0
  2
SOLID
 70
     1
 71
     0
 91
        1
 92
        1
 93
        2
 72
     4
 94
        3
 73
     0
 74
     0
 95
       17
 96
       13
 40
0.0
 40
0.0
 40
0.0
 40
0.0
 40
0.3527780104152769
 40
0.3527780104152769
 40
0.3527780104152769
 40
0.7055560208305538
 40
0.7055560208305538
 40
0.7055560208305538
 40
1.058334031245828
 40
1.058334031245828
 40
1.058334031245828
 40
1.411112041661104
 40
1.411112041661104
 40
1.411112041661104
 40
1.411112041661104
 10
11.07013262565829
 20
29.50312817963231
 10
11.07013262565829
 20
29.50312817963231
 10
10.9431807732774
 20
29.50312817963231
 10
10.9431807732774
 20
29.50312817963231
 10
10.9431807732774
 20
29.50312817963231
 10
10.85843136843155
 20
29.22786486877117
 10
10.85843136843155
 20
29.22786486877117
 10
10.85843136843155
 20
29.22786486877117
 10
10.90080607085448
 20
29.2068497724476
 10
10.90080607085448
 20
29.2068497724476
 10
10.94455881238059
 20
29.31571486159919
 10
11.00346998404173
 20
29.40907701083995
 10
11.07013262565829
 20
29.50312817963231
 72
     1
 10
11.07013262565829
 20
29.50312817963231
 11
11.07013262565829
 21
29.50312817963231
 97
        0
 75
     0
 76
     1
 98
        0
450
        0
451
        0
460
0.0
461
0.0
452
        0
462
0.0
453
        0
470

  0
HATCH
  5
1A
330
2
100
AcDbEntity
  8
图层 1
 62
     7
100
AcDbHatch
 10
0.0
 20
0.0
 30
0.0
210
0.0
220
0.0
230
1.0
  2
SOLID
 70
     1
 71
     0
 91
        1
 92
        1
 93
        2
 72
     4
 94
        3
 73
     0
 74
     0
 95
       47
 96
       43
 40
0.0
 40
0.0
 40
0.0
 40
0.0
 40
0.3527780104152769
 40
0.3527780104152769
 40
0.3527780104152769
 40
0.7055560208305538
 40
0.7055560208305538
 40
0.7055560208305538
 40
1.058334031245828
 40
1.058334031245828
 40
1.058334031245828
 40
1.411112041661104
 40
1.411112041661104
 40
1.411112041661104
 40
1.763890052076384
 40
1.763890052076384
 40
1.763890052076384
 40
2.116668062491659
 40
2.116668062491659
 40
2.116668062491659
 40
2.469446072906936
 40
2.469446072906936
 40
2.469446072906936
 40
2.822224083322215
 40
2.822224083322215
 40
2.822224083322215
 40
3.175002093737492
 40
3.175002093737492
 40
3.175002093737492
 40
3.527780104152768
 40
3.527780104152768
 40
3.527780104152768
 40
3.880558114568044
 40
3.880558114568044
 40
3.880558114568044
 40
4.233336124983321
 40
4.233336124983321
 40
4.233336124983321
 40
4.586114135398599
 40
4.586114135398599
 40
4.586114135398599
 40
4.938892145813873
 40
4.938892145813873
 40
4.938892145813873
 40
4.938892145813873
 10
162.8986914070121
 20
257.4895347631509
 10
162.8986914070121
 20
257.4895347631509
 10
162.9200510131114
 20
257.4471600607279
 10
162.9200510131114
 20
257.4471600607279
 10
162.9200510131114
 20
257.4471600607279
 10
162.9200510131114
 20
257.404785358305
 10
162.9200510131114
 20
257.404785358305
 10
162.9200510131114
 20
257.404785358305
 10
162.8986914070121
 20
257.36258291077
 10
162.8986914070121
 20
257.36258291077
 10
162.8986914070121
 20
257.36258291077
 10
162.8986914070121
 20
257.320208208347
 10
162.8986914070121
 20
257.320208208347
 10
162.8986914070121
 20
257.320208208347
 10
162.8563167045891
 20
257.2990208571356
 10
162.8563167045891
 20
257.2990208571356
 10
162.8563167045891
 20
257.2990208571356
 10
162.8139420021662
 20
257.2563016449369
 10
162.8139420021662
 20
257.2563016449369
 10
162.8139420021662
 20
257.2563016449369
 10
162.7295371070961
 20
257.2563016449369
 10
162.7295371070961
 20
257.2563016449369
 10
162.7295371070961
 20
257.2563016449369
 10
162.6658027985738
 20
257.2778335059241
 10
162.6658027985738
 20
257.2778335059241
 10
162.6658027985738
 20
257.2778335059241
 10
162.6237726059267
 20
257.2990208571356
 10
162.6237726059267
 20
257.2990208571356
 10
162.6237726059267
 20
257.2990208571356
 10
162.5813979035038
 20
257.3413955595585
 10
162.5813979035038
 20
257.3413955595585
 10
162.5813979035038
 20
257.3413955595585
 10
162.5813979035038
 20
257.4895347631509
 10
162.5813979035038
 20
257.4895347631509
 10
162.5813979035038
 20
257.4895347631509
 10
162.6447877022503
 20
257.5525800521216
 10
162.6447877022503
 20
257.5525800521216
 10
162.6447877022503
 20
257.5525800521216
 10
162.7081775009967
 20
257.5525800521216
 10
162.7081775009967
 20
257.5525800521216
 10
162.8749202324821
 20
257.5424170137356
 10
162.7918933765152
 20
257.5939212252171
 10
162.8986914070121
 20
257.4895347631509
 72
     1
 10
162.8986914070121
 20
257.4895347631509
 11
162.8986914070121
 21
257.4895347631509
 97
        0
 75
     0
 76
     1
 98
        0
450
        0
451
        0
460
0.0
461
0.0
452
        0
462
0.0
453
        0
470

  0
HATCH
  5
1B
330
2
100
AcDbEntity
  8
图层 1
 62
     7
100
AcDbHatch
 10
0.0
 20
0.0
 30
0.0
210
0.0
220
0.0
230
1.0
  2
SOLID
 70
     1
 71
     0
 91
        1
 92
        1
 93
        2
 72
     4
 94
        3
 73
     0
 74
     0
 95
       56
 96
       52
 40
0.0
 40
0.0
 40
0.0
 40
0.0
 40
0.3527780104152769
 40
0.3527780104152769
 40
0.3527780104152769
 40
0.7055560208305538
 40
0.7055560208305538
 40
0.7055560208305538
 40
1.058334031245828
 40
1.058334031245828
 40
1.058334031245828
 40
1.411112041661104
 40
1.411112041661104
 40
1.411112041661104
 40
1.763890052076384
 40
1.763890052076384
 40
1.763890052076384
 40
2.116668062491659
 40
2.116668062491659
 40
2.116668062491659
 40
2.469446072906936
 40
2.469446072906936
 40
2.469446072906936
 40
2.822224083322215
 40
2.822224083322215
 40
2.822224083322215
 40
3.175002093737492
 40
3.175002093737492
 40
3.175002093737492
 40
3.527780104152768
 40
3.527780104152768
 40
3.527780104152768
 40
3.880558114568044
 40
3.880558114568044
 40
3.880558114568044
 40
4.233336124983321
 40
4.233336124983321
 40
4.233336124983321
 40
4.586114135398599
 40
4.586114135398599
 40
4.586114135398599
 40
4.938892145813873
 40
4.938892145813873
 40
4.938892145813873
 40
5.291670156229153
 40
5.291670156229153
 40
5.291670156229153
 40
5.64444816664443
 40
5.64444816664443
 40
5.64444816664443
 40
5.997226177059705
 40
5.997226177059705
 40
5.997226177059705
 40
5.997226177059705
 10
185.4837187788815
 20
241.4451977396596
 10
185.4837187788815
 20
241.4451977396596
 10
185.4837187788815
 20
241.4028230372367
 10
185.4837187788815
 20
241.4028230372367
 10
185.4837187788815
 20
241.4028230372367
 10
185.5047338752051
 20
241.3604483348137
 10
185.5047338752051
 20
241.3604483348137
 10
185.4520238795082
 20
241.2782827532863
 10
185.4671823096433
 20
241.1897437409066
 10
185.335579575289
 20
241.2119646214456
 10
185.335579575289
 20
241.2119646214456
 10
185.2932048728662
 20
241.2119646214456
 10
185.2932048728662
 20
241.2119646214456
 10
185.2932048728662
 20
241.2119646214456
 10
185.2294705643439
 20
241.2334964824328
 10
185.2294705643439
 20
241.2334964824328
 10
185.2294705643439
 20
241.2334964824328
 10
185.1660807655974
 20
241.2543393238685
 10
185.1660807655974
 20
241.2543393238685
 10
185.1660807655974
 20
241.2543393238685
 10
185.1450656692739
 20
241.2758711848558
 10
185.1450656692739
 20
241.2758711848558
 10
185.1450656692739
 20
241.2758711848558
 10
185.1450656692739
 20
241.2967140262914
 10
185.1450656692739
 20
241.2967140262914
 10
185.1450656692739
 20
241.2967140262914
 10
185.1237060631745
 20
241.3604483348137
 10
185.1237060631745
 20
241.3604483348137
 10
185.1237060631745
 20
241.3604483348137
 10
185.1237060631745
 20
241.4028230372367
 10
185.1237060631745
 20
241.4028230372367
 10
185.1237060631745
 20
241.4028230372367
 10
185.1660807655974
 20
241.4875724420825
 10
185.1660807655974
 20
241.4875724420825
 10
185.1660807655974
 20
241.4875724420825
 10
185.2084554680203
 20
241.5085875384061
 10
185.2084554680203
 20
241.5085875384061
 10
185.2084554680203
 20
241.5085875384061
 10
185.2718452667668
 20
241.5297748896175
 10
185.2718452667668
 20
241.5297748896175
 10
185.2718452667668
 20
241.5297748896175
 10
185.3565946716127
 20
241.5297748896175
 10
185.3565946716127
 20
241.5297748896175
 10
185.3565946716127
 20
241.5297748896175
 10
185.4199844703592
 20
241.5085875384061
 10
185.4199844703592
 20
241.5085875384061
 10
185.4199844703592
 20
241.5085875384061
 10
185.4623591727821
 20
241.4875724420825
 10
185.4623591727821
 20
241.4875724420825
 10
185.4623591727821
 20
241.4875724420825
 10
185.4837187788815
 20
241.4451977396596
 10
185.4837187788815
 20
241.4451977396596
 72
     1
 10
185.4837187788815
 20
241.4451977396596
 11
185.4837187788815
 21
241.4451977396596
 97
        0
 75
     0
 76
     1
 98
        0
450
        0
451
        0
460
0.0
461
0.0
452
        0
462
0.0
453
        0
470

  0
HATCH
  5
1C
330
2
100
AcDbEntity
  8
图层 1
 62
     7
100
AcDbHatch
 10
0.0
 20
0.0
 30
0.0
210
0.0
220
0.0
230
1.0
  2
SOLID
 70
     1
 71
     0
 91
        1
 92
        1
 93
        2
 72
     4
 94
        3
 73
     0
 74
     0
 95
       38
 96
       34
 40
0.0
 40
0.0
 40
0.0
 40
0.0
 40
0.3527780104152769
 40
0.3527780104152769
 40
0.3527780104152769
 40
0.7055560208305538
 40
0.7055560208305538
 40
0.7055560208305538
 40
1.058334031245828
 40
1.058334031245828
 40
1.058334031245828
 40
1.411112041661104
 40
1.411112041661104
 40
1.411112041661104
 40
1.763890052076384
 40
1.763890052076384
 40
1.763890052076384
 40
2.116668062491659
 40
2.116668062491659
 40
2.116668062491659
 40
2.469446072906936
 40
2.469446072906936
 40
2.469446072906936
 40
2.822224083322215
 40
2.822224083322215
 40
2.822224083322215
 40
3.175002093737492
 40
3.175002093737492
 40
3.175002093737492
 40
3.527780104152768
 40
3.527780104152768
 40
3.527780104152768
 40
3.880558114568044
 40
3.880558114568044
 40
3.880558114568044
 40
3.880558114568044
 10
185.907121293335
 20
220.1937677098971
 10
185.9005756075949
 20
220.0449394867532
 10
185.9329595265197
 20
220.1136691870245
 10
185.864746590912
 20
219.9817219428946
 10
185.864746590912
 20
219.9817219428946
 10
185.822371888489
 20
219.9605345916831
 10
185.822371888489
 20
219.9605345916831
 10
185.822371888489
 20
219.9605345916831
 10
185.6528730787974
 20
219.9605345916831
 10
185.6528730787974
 20
219.9605345916831
 10
185.6528730787974
 20
219.9605345916831
 10
185.5894832800509
 20
220.002909294106
 10
185.5894832800509
 20
220.002909294106
 10
185.5894832800509
 20
220.002909294106
 10
185.5681236739515
 20
220.0240966453175
 10
185.5681236739515
 20
220.0240966453175
 10
185.5681236739515
 20
220.0240966453175
 10
185.5681236739515
 20
220.045283996529
 10
185.5681236739515
 20
220.045283996529
 10
185.5681236739515
 20
220.045283996529
 10
185.547108577628
 20
220.0876586989519
 10
185.547108577628
 20
220.0876586989519
 10
185.547108577628
 20
220.0876586989519
 10
185.547108577628
 20
220.1513930074742
 10
185.547108577628
 20
220.1513930074742
 10
185.547108577628
 20
220.1513930074742
 10
185.5894832800509
 20
220.23614241232
 10
185.5894832800509
 20
220.23614241232
 10
185.5894832800509
 20
220.23614241232
 10
185.6318579824738
 20
220.2573297635315
 10
185.6318579824738
 20
220.2573297635315
 10
185.7055830744942
 20
220.2566407439799
 10
185.8416644359337
 20
220.3310548555519
 10
185.907121293335
 20
220.1937677098971
 72
     1
 10
185.907121293335
 20
220.1937677098971
 11
185.907121293335
 21
220.1937677098971
 97
        0
 75
     0
 76
     1
 98
        0
450
        0
451
        0
460
0.0
461
0.0
452
        0
462
0.0
453
        0
470

  0
HATCH
  5
1D
330
2
100
AcDbEntity
  8
图层 1
 62
     7
100
AcDbHatch
 10
0.0
 20
0.0
 30
0.0
210
0.0
220
0.0
230
1.0
  2
SOLID
 70
     1
 71
     0
 91
        1
 92
        1
 93
        2
 72
     4
 94
        3
 73
     0
 74
     0
 95
       50
 96
       46
 40
0.0
 40
0.0
 40
0.0
 40
0.0
 40
0.3527780104152769
 40
0.3527780104152769
 40
0.3527780104152769
 40
0.7055560208305538
 40
0.7055560208305538
 40
0.7055560208305538
 40
1.058334031245828
 40
1.058334031245828
 40
1.058334031245828
 40
1.411112041661104
 40
1.411112041661104
 40
1.411112041661104
 40
1.763890052076384
 40
1.763890052076384
 40
1.763890052076384
 40
2.116668062491659
 40
2.116668062491659
 40
2.116668062491659
 40
2.469446072906936
 40
2.469446072906936
 40
2.469446072906936
 40
2.822224083322215
 40
2.822224083322215
 40
2.822224083322215
 40
3.175002093737492
 40
3.175002093737492
 40
3.175002093737492
 40
3.527780104152768
 40
3.527780104152768
 40
3.527780104152768
 40
3.880558114568044
 40
3.880558114568044
 40
3.880558114568044
 40
4.233336124983321
 40
4.233336124983321
 40
4.233336124983321
 40
4.586114135398599
 40
4.586114135398599
 40
4.586114135398599
 40
4.938892145813873
 40
4.938892145813873
 40
4.938892145813873
 40
5.291670156229153
 40
5.291670156229153
 40
5.291670156229153
 40
5.291670156229153
 10
180.9117295442905
 20
208.9327766684477
 10
180.9117295442905
 20
208.9327766684477
 10
180.9117295442905
 20
208.7637946234197
 10
180.9117295442905
 20
208.7637946234197
 10
181.2273004989198
 20
208.6749111012643
 10
181.3833634273555
 20
208.6776671794706
 10
181.6948002646751
 20
208.5097186637701
 10
181.9542161258496
 20
208.4294478860095
 10
182.1388733656765
 20
208.2134402565853
 10
182.3297317814676
 20
208.02292635057
 10
182.3297317814676
 20
208.02292635057
 10
182.435496282637
 20
208.065301052993
 10
182.435496282637
 20
208.065301052993
 10
182.288390608372
 20
208.2733849575739
 10
182.3752070718726
 20
208.2134402565853
 10
182.1605774815516
 20
208.3824223016133
 10
182.1605774815516
 20
208.3824223016133
 10
182.1182027791287
 20
208.4247970040363
 10
182.1182027791287
 20
208.4247970040363
 10
182.1182027791287
 20
208.4247970040363
 10
182.0968431730294
 20
208.467516216235
 10
182.0968431730294
 20
208.467516216235
 10
182.0968431730294
 20
208.467516216235
 10
182.0544684706064
 20
208.4883590576707
 10
182.0544684706064
 20
208.4883590576707
 10
182.0544684706064
 20
208.4883590576707
 10
181.9910786718599
 20
208.5305615052057
 10
181.9910786718599
 20
208.5305615052057
 10
181.9910786718599
 20
208.5305615052057
 10
181.948703969437
 20
208.552093366193
 10
181.948703969437
 20
208.552093366193
 10
181.948703969437
 20
208.552093366193
 10
181.9063292670141
 20
208.5729362076286
 10
181.9063292670141
 20
208.5729362076286
 10
181.9063292670141
 20
208.5729362076286
 10
181.8639545645911
 20
208.6156554198274
 10
181.8639545645911
 20
208.6156554198274
 10
181.8639545645911
 20
208.6156554198274
 10
181.821924371944
 20
208.6368427710388
 10
181.821924371944
 20
208.6368427710388
 10
181.6637943848536
 20
208.6742220817127
 10
181.5452830219797
 20
208.8092699138248
 10
181.3771622513911
 20
208.8061693258427
 10
181.2803550043924
 20
208.8573290275484
 10
181.0126709085988
 20
208.8971199066528
 10
180.9117295442905
 20
208.9327766684477
 72
     1
 10
180.9117295442905
 20
208.9327766684477
 11
180.9117295442905
 21
208.9327766684477
 97
        0
 75
     0
 76
     1
 98
        0
450
        0
451
        0
460
0.0
461
0.0
452
        0
462
0.0
453
        0
470

  0
HATCH
  5
1E
330
2
100
AcDbEntity
  8
图层 1
 62
     7
100
AcDbHatch
 10
0.0
 20
0.0
 30
0.0
210
0.0
220
0.0
230
1.0
  2
SOLID
 70
     1
 71
     0
 91
        1
 92
        1
 93
        2
 72
     4
 94
        3
 73
     0
 74
     0
 95
       38
 96
       34
 40
0.0
 40
0.0
 40
0.0
 40
0.0
 40
0.3527780104152769
 40
0.3527780104152769
 40
0.3527780104152769
 40
0.7055560208305538
 40
0.7055560208305538
 40
0.7055560208305538
 40
1.058334031245828
 40
1.058334031245828
 40
1.058334031245828
 40
1.411112041661104
 40
1.411112041661104
 40
1.411112041661104
 40
1.763890052076384
 40
1.763890052076384
 40
1.763890052076384
 40
2.116668062491659
 40
2.116668062491659
 40
2.116668062491659
 40
2.469446072906936
 40
2.469446072906936
 40
2.469446072906936
 40
2.822224083322215
 40
2.822224083322215
 40
2.822224083322215
 40
3.175002093737492
 40
3.175002093737492
 40
3.175002093737492
 40
3.527780104152768
 40
3.527780104152768
 40
3.527780104152768
 40
3.880558114568044
 40
3.880558114568044
 40
3.880558114568044
 40
3.880558114568044
 10
189.145513185819
 20
166.8326485368285
 10
189.207869455238
 20
166.740492171803
 10
189.1317327947871
 20
166.6833035490209
 10
189.103138483396
 20
166.6209472796017
 10
189.103138483396
 20
166.6209472796017
 10
189.0607637809731
 20
166.5997599283903
 10
189.0607637809731
 20
166.5997599283903
 10
189.0607637809731
 20
166.5997599283903
 10
188.9973739822266
 20
166.5785725771788
 10
188.9973739822266
 20
166.5785725771788
 10
188.9973739822266
 20
166.5785725771788
 10
188.9549992798037
 20
166.5997599283903
 10
188.9549992798037
 20
166.5997599283903
 10
188.9549992798037
 20
166.5997599283903
 10
188.8916094810572
 20
166.5997599283903
 10
188.8916094810572
 20
166.5997599283903
 10
188.8916094810572
 20
166.5997599283903
 10
188.8492347786343
 20
166.6209472796017
 10
188.8492347786343
 20
166.6209472796017
 10
188.8492347786343
 20
166.6209472796017
 10
188.8278751725349
 20
166.6633219820247
 10
188.8278751725349
 20
166.6633219820247
 10
188.8278751725349
 20
166.6633219820247
 10
188.8068600762114
 20
166.6845093332361
 10
188.8068600762114
 20
166.6845093332361
 10
188.8068600762114
 20
166.6845093332361
 10
188.8068600762114
 20
166.8326485368285
 10
188.8068600762114
 20
166.8326485368285
 10
188.8068600762114
 20
166.8326485368285
 10
188.8702498749578
 20
166.896038335575
 10
188.8702498749578
 20
166.896038335575
 10
189.0228677056355
 20
166.8819134347673
 10
189.0686875058164
 20
166.9411691162043
 10
189.145513185819
 20
166.8326485368285
 72
     1
 10
189.145513185819
 20
166.8326485368285
 11
189.145513185819
 21
166.8326485368285
 97
        0
 75
     0
 76
     1
 98
        0
450
        0
451
        0
460
0.0
461
0.0
452
        0
462
0.0
453
        0
470

  0
HATCH
  5
1F
330
2
100
AcDbEntity
  8
图层 1
 62
     7
100
AcDbHatch
 10
0.0
 20
0.0
 30
0.0
210
0.0
220
0.0
230
1.0
  2
SOLID
 70
     1
 71
     0
 91
        1
 92
        1
 93
        2
 72
     4
 94
        3
 73
     0
 74
     0
 95
       68
 96
       64
 40
0.0
 40
0.0
 40
0.0
 40
0.0
 40
0.3527780104152769
 40
0.3527780104152769
 40
0.3527780104152769
 40
0.7055560208305538
 40
0.7055560208305538
 40
0.7055560208305538
 40
1.058334031245828
 40
1.058334031245828
 40
1.058334031245828
 40
1.411112041661104
 40
1.411112041661104
 40
1.411112041661104
 40
1.763890052076384
 40
1.763890052076384
 40
1.763890052076384
 40
2.116668062491659
 40
2.116668062491659
 40
2.116668062491659
 40
2.469446072906936
 40
2.469446072906936
 40
2.469446072906936
 40
2.822224083322215
 40
2.822224083322215
 40
2.822224083322215
 40
3.175002093737492
 40
3.175002093737492
 40
3.175002093737492
 40
3.527780104152768
 40
3.527780104152768
 40
3.527780104152768
 40
3.880558114568044
 40
3.880558114568044
 40
3.880558114568044
 40
4.233336124983321
 40
4.233336124983321
 40
4.233336124983321
 40
4.586114135398599
 40
4.586114135398599
 40
4.586114135398599
 40
4.938892145813873
 40
4.938892145813873
 40
4.938892145813873
 40
5.291670156229153
 40
5.291670156229153
 40
5.291670156229153
 40
5.64444816664443
 40
5.64444816664443
 40
5.64444816664443
 40
5.997226177059705
 40
5.997226177059705
 40
5.997226177059705
 40
6.350004187474984
 40
6.350004187474984
 40
6.350004187474984
 40
6.702782197890257
 40
6.702782197890257
 40
6.702782197890257
 40
7.055560208305537
 40
7.055560208305537
 40
7.055560208305537
 40
7.408338218720808
 40
7.408338218720808
 40
7.408338218720808
 40
7.408338218720808
 10
174.7732543591544
 20
135.4846705078077
 10
174.7732543591544
 20
135.4846705078077
 10
174.7732543591544
 20
135.3789060066383
 10
174.7732543591544
 20
135.3789060066383
 10
174.7732543591544
 20
135.3789060066383
 10
174.8156290615773
 20
135.3789060066383
 10
174.8156290615773
 20
135.3789060066383
 10
174.8156290615773
 20
135.3789060066383
 10
174.8580037640002
 20
135.3578909103147
 10
174.8580037640002
 20
135.3578909103147
 10
174.8580037640002
 20
135.3578909103147
 10
174.9213935627468
 20
135.3578909103147
 10
174.9213935627468
 20
135.3578909103147
 10
174.9213935627468
 20
135.3578909103147
 10
174.9637682651697
 20
135.3365313042154
 10
174.9637682651697
 20
135.3365313042154
 10
174.9637682651697
 20
135.3365313042154
 10
174.9847833614933
 20
135.3365313042154
 10
174.9847833614933
 20
135.3365313042154
 10
174.9847833614933
 20
135.3365313042154
 10
175.0271580639162
 20
135.3155162078918
 10
175.0271580639162
 20
135.3155162078918
 10
175.0271580639162
 20
135.3155162078918
 10
175.0485176700155
 20
135.2941566017924
 10
175.0485176700155
 20
135.2941566017924
 10
175.0485176700155
 20
135.2941566017924
 10
175.0695327663391
 20
135.2941566017924
 10
175.0695327663391
 20
135.2941566017924
 10
175.0695327663391
 20
135.2941566017924
 10
175.0908923724385
 20
135.2731415054689
 10
175.0908923724385
 20
135.2731415054689
 10
175.0908923724385
 20
135.2731415054689
 10
175.1332670748614
 20
135.2731415054689
 10
175.1332670748614
 20
135.2731415054689
 10
175.1332670748614
 20
135.2731415054689
 10
175.154282171185
 20
135.2517818993695
 10
175.154282171185
 20
135.2517818993695
 10
175.154282171185
 20
135.2517818993695
 10
175.154282171185
 20
135.3578909103147
 10
175.154282171185
 20
135.3578909103147
 10
175.154282171185
 20
135.3578909103147
 10
175.1332670748614
 20
135.3789060066383
 10
175.1332670748614
 20
135.3789060066383
 10
175.1332670748614
 20
135.3789060066383
 10
175.0908923724385
 20
135.3789060066383
 10
175.0908923724385
 20
135.3789060066383
 10
175.0908923724385
 20
135.3789060066383
 10
175.0908923724385
 20
135.3999211029619
 10
175.0908923724385
 20
135.3999211029619
 10
175.0908923724385
 20
135.3999211029619
 10
175.0695327663391
 20
135.3999211029619
 10
175.0695327663391
 20
135.3999211029619
 10
175.0695327663391
 20
135.3999211029619
 10
175.0271580639162
 20
135.4212807090612
 10
175.0271580639162
 20
135.4212807090612
 10
175.0271580639162
 20
135.4212807090612
 10
175.0061429675926
 20
135.4212807090612
 10
175.0061429675926
 20
135.4212807090612
 10
175.0061429675926
 20
135.4212807090612
 10
174.9637682651697
 20
135.4422958053848
 10
174.9637682651697
 20
135.4422958053848
 10
174.8996894468716
 20
135.4498750204523
 10
174.8394002361073
 20
135.4860485469109
 10
174.7732543591544
 20
135.4846705078077
 72
     1
 10
174.7732543591544
 20
135.4846705078077
 11
174.7732543591544
 21
135.4846705078077
 97
        0
 75
     0
 76
     1
 98
        0
450
        0
451
        0
460
0.0
461
0.0
452
        0
462
0.0
453
        0
470

  0
HATCH
  5
20
330
2
100
AcDbEntity
  8
图层 1
 62
     7
100
AcDbHatch
 10
0.0
 20
0.0
 30
0.0
210
0.0
220
0.0
230
1.0
  2
SOLID
 70
     1
 71
     0
 91
        1
 92
        1
 93
        2
 72
     4
 94
        3
 73
     0
 74
     0
 95
       29
 96
       25
 40
0.0
 40
0.0
 40
0.0
 40
0.0
 40
0.3527780104152769
 40
0.3527780104152769
 40
0.3527780104152769
 40
0.7055560208305538
 40
0.7055560208305538
 40
0.7055560208305538
 40
1.058334031245828
 40
1.058334031245828
 40
1.058334031245828
 40
1.411112041661104
 40
1.411112041661104
 40
1.411112041661104
 40
1.763890052076384
 40
1.763890052076384
 40
1.763890052076384
 40
2.116668062491659
 40
2.116668062491659
 40
2.116668062491659
 40
2.469446072906936
 40
2.469446072906936
 40
2.469446072906936
 40
2.822224083322215
 40
2.822224083322215
 40
2.822224083322215
 40
2.822224083322215
 10
175.4929352807925
 20
164.0174869039101
 10
175.4929352807925
 20
164.0174869039101
 10
175.5139503771161
 20
163.9751122014871
 10
175.5139503771161
 20
163.9751122014871
 10
175.5139503771161
 20
163.9751122014871
 10
175.5139503771161
 20
163.9327374990642
 10
175.5139503771161
 20
163.9327374990642
 10
175.5139503771161
 20
163.9327374990642
 10
175.4929352807925
 20
163.8903627966413
 10
175.4929352807925
 20
163.8903627966413
 10
175.4929352807925
 20
163.8903627966413
 10
175.471920184469
 20
163.8691754454298
 10
175.471920184469
 20
163.8691754454298
 10
175.471920184469
 20
163.8691754454298
 10
175.4505605783696
 20
163.8269729978948
 10
175.4505605783696
 20
163.8269729978948
 10
175.3571984291289
 20
163.7715069239916
 10
175.272449024283
 20
163.8195660377152
 10
175.1966568736079
 20
163.8691754454298
 10
175.208370205985
 20
163.9930267098286
 10
175.1563492298397
 20
164.0216210212197
 10
175.2600466723544
 20
164.0596893514451
 10
175.3330827448232
 20
164.1094710140476
 10
175.4357466580104
 20
164.0753645462439
 10
175.4929352807925
 20
164.0174869039101
 72
     1
 10
175.4929352807925
 20
164.0174869039101
 11
175.4929352807925
 21
164.0174869039101
 97
        0
 75
     0
 76
     1
 98
        0
450
        0
451
        0
460
0.0
461
0.0
452
        0
462
0.0
453
        0
470

  0
HATCH
  5
21
330
2
100
AcDbEntity
  8
图层 1
 62
     7
100
AcDbHatch
 10
0.0
 20
0.0
 30
0.0
210
0.0
220
0.0
230
1.0
  2
SOLID
 70
     1
 71
     0
 91
        1
 92
        1
 93
        2
 72
     4
 94
        3
 73
     0
 74
     0
 95
       11
 96
        7
 40
0.0
 40
0.0
 40
0.0
 40
0.0
 40
0.3527780104152769
 40
0.3527780104152769
 40
0.3527780104152769
 40
0.7055560208305538
 40
0.7055560208305538
 40
0.7055560208305538
 40
0.7055560208305538
 10
174.9213935627468
 20
174.5369206529582
 10
174.9213935627468
 20
174.5369206529582
 10
174.9213935627468
 20
174.3043765542958
 10
174.9213935627468
 20
174.3043765542958
 10
174.9213935627468
 20
174.3043765542958
 10
174.9213935627468
 20
174.5369206529582
 10
174.9213935627468
 20
174.5369206529582
 72
     1
 10
174.9213935627468
 20
174.5369206529582
 11
174.9213935627468
 21
174.5369206529582
 97
        0
 75
     0
 76
     1
 98
        0
450
        0
451
        0
460
0.0
461
0.0
452
        0
462
0.0
453
        0
470

  0
HATCH
  5
22
330
2
100
AcDbEntity
  8
图层 1
 62
     7
100
AcDbHatch
 10
0.0
 20
0.0
 30
0.0
210
0.0
220
0.0
230
1.0
  2
SOLID
 70
     1
 71
     0
 91
        1
 92
        1
 93
        2
 72
     4
 94
        3
 73
     0
 74
     0
 95
      131
 96
      127
 40
0.0
 40
0.0
 40
0.0
 40
0.0
 40
0.3527780104152769
 40
0.3527780104152769
 40
0.3527780104152769
 40
0.7055560208305538
 40
0.7055560208305538
 40
0.7055560208305538
 40
1.058334031245828
 40
1.058334031245828
 40
1.058334031245828
 40
1.411112041661104
 40
1.411112041661104
 40
1.411112041661104
 40
1.763890052076384
 40
1.763890052076384
 40
1.763890052076384
 40
2.116668062491659
 40
2.116668062491659
 40
2.116668062491659
 40
2.469446072906936
 40
2.469446072906936
 40
2.469446072906936
 40
2.822224083322215
 40
2.822224083322215
 40
2.822224083322215
 40
3.175002093737492
 40
3.175002093737492
 40
3.175002093737492
 40
3.527780104152768
 40
3.527780104152768
 40
3.527780104152768
 40
3.880558114568044
 40
3.880558114568044
 40
3.880558114568044
 40
4.233336124983321
 40
4.233336124983321
 40
4.233336124983321
 40
4.586114135398599
 40
4.586114135398599
 40
4.586114135398599
 40
4.938892145813873
 40
4.938892145813873
 40
4.938892145813873
 40
5.291670156229153
 40
5.291670156229153
 40
5.291670156229153
 40
5.64444816664443
 40
5.64444816664443
 40
5.64444816664443
 40
5.997226177059705
 40
5.997226177059705
 40
5.997226177059705
 40
6.350004187474984
 40
6.350004187474984
 40
6.350004187474984
 40
6.702782197890257
 40
6.702782197890257
 40
6.702782197890257
 40
7.055560208305537
 40
7.055560208305537
 40
7.055560208305537
 40
7.408338218720808
 40
7.408338218720808
 40
7.408338218720808
 40
7.76111622913609
 40
7.76111622913609
 40
7.76111622913609
 40
8.113894239551369
 40
8.113894239551369
 40
8.113894239551369
 40
8.466672249966642
 40
8.466672249966642
 40
8.466672249966642
 40
8.819450260381922
 40
8.819450260381922
 40
8.819450260381922
 40
9.172228270797198
 40
9.172228270797198
 40
9.172228270797198
 40
9.525006281212476
 40
9.525006281212476
 40
9.525006281212476
 40
9.877784291627751
 40
9.877784291627751
 40
9.877784291627751
 40
10.23056230204303
 40
10.23056230204303
 40
10.23056230204303
 40
10.58334031245831
 40
10.58334031245831
 40
10.58334031245831
 40
10.93611832287358
 40
10.93611832287358
 40
10.93611832287358
 40
11.28889633328886
 40
11.28889633328886
 40
11.28889633328886
 40
11.64167434370414
 40
11.64167434370414
 40
11.64167434370414
 40
11.99445235411941
 40
11.99445235411941
 40
11.99445235411941
 40
12.34723036453469
 40
12.34723036453469
 40
12.34723036453469
 40
12.70000837494997
 40
12.70000837494997
 40
12.70000837494997
 40
13.05278638536524
 40
13.05278638536524
 40
13.05278638536524
 40
13.40556439578052
 40
13.40556439578052
 40
13.40556439578052
 40
13.7583424061958
 40
13.7583424061958
 40
13.7583424061958
 40
14.11112041661107
 40
14.11112041661107
 40
14.11112041661107
 40
14.46389842702635
 40
14.46389842702635
 40
14.46389842702635
 40
14.81667643744163
 40
14.81667643744163
 40
14.81667643744163
 40
14.81667643744163
 10
173.3972823146245
 20
126.8274843518258
 10
173.3972823146245
 20
126.8274843518258
 10
173.3972823146245
 20
126.7217198506564
 10
173.3972823146245
 20
126.7217198506564
 10
173.3972823146245
 20
126.7217198506564
 10
173.4186419207238
 20
126.7217198506564
 10
173.4186419207238
 20
126.7217198506564
 10
173.4186419207238
 20
126.7217198506564
 10
173.4820317194703
 20
126.7007047543328
 10
173.4820317194703
 20
126.7007047543328
 10
173.4820317194703
 20
126.7007047543328
 10
173.5244064218933
 20
126.6793451482334
 10
173.5244064218933
 20
126.6793451482334
 10
173.5244064218933
 20
126.6793451482334
 10
173.5877962206398
 20
126.6793451482334
 10
173.5877962206398
 20
126.6793451482334
 10
173.5877962206398
 20
126.6793451482334
 10
173.6301709230627
 20
126.6583300519099
 10
173.6301709230627
 20
126.6583300519099
 10
173.7955356154449
 20
126.5911506456296
 10
173.759706598762
 20
126.6380039751379
 10
173.9478089363468
 20
126.5525655507404
 10
173.9478089363468
 20
126.5525655507404
 10
173.9688240326703
 20
126.4464565397952
 10
173.9688240326703
 20
126.4464565397952
 10
173.9688240326703
 20
126.4464565397952
 10
174.0325583411926
 20
126.5101908483175
 10
174.0325583411926
 20
126.5101908483175
 10
174.0325583411926
 20
126.5101908483175
 10
174.0749330436156
 20
126.5101908483175
 10
174.0749330436156
 20
126.5101908483175
 10
174.0749330436156
 20
126.5101908483175
 10
174.1593379386856
 20
126.4678161458946
 10
174.1593379386856
 20
126.4678161458946
 10
174.1593379386856
 20
126.4678161458946
 10
174.180697544785
 20
126.4464565397952
 10
174.180697544785
 20
126.4464565397952
 10
174.2464989119621
 20
126.3982251711837
 10
174.3298702777047
 20
126.3716979184474
 10
174.3922265471239
 20
126.3196769423022
 10
174.608234176548
 20
126.2059887162895
 10
174.7749769080334
 20
126.0278771622029
 10
174.9637682651697
 20
125.8749148217494
 10
174.9637682651697
 20
125.8749148217494
 10
175.0061429675926
 20
125.9172895241723
 10
175.0061429675926
 20
125.9172895241723
 10
174.961356696739
 20
125.9631093243532
 10
174.782211613325
 20
126.1246844092016
 10
174.7308796567315
 20
126.1501781326105
 10
174.7308796567315
 20
126.1501781326105
 10
174.6885049543085
 20
126.1925528350335
 10
174.6885049543085
 20
126.1925528350335
 10
174.6885049543085
 20
126.1925528350335
 10
174.667489857985
 20
126.2349275374564
 10
174.667489857985
 20
126.2349275374564
 10
174.667489857985
 20
126.2349275374564
 10
174.625115155562
 20
126.2559426337799
 10
174.625115155562
 20
126.2559426337799
 10
174.625115155562
 20
126.2559426337799
 10
174.5827404531391
 20
126.2983173362029
 10
174.5827404531391
 20
126.2983173362029
 10
174.5827404531391
 20
126.2983173362029
 10
174.5403657507162
 20
126.3196769423022
 10
174.5403657507162
 20
126.3196769423022
 10
174.5403657507162
 20
126.3196769423022
 10
174.4979910482932
 20
126.3620516447252
 10
174.4979910482932
 20
126.3620516447252
 10
174.4735308542117
 20
126.3875453681341
 10
174.3247026310678
 20
126.4695386947736
 10
174.2864620459544
 20
126.4888312422181
 10
174.2864620459544
 20
126.4888312422181
 10
174.2654469496308
 20
126.5101908483175
 10
174.2654469496308
 20
126.5101908483175
 10
174.2654469496308
 20
126.5101908483175
 10
174.2230722472079
 20
126.5312059446411
 10
174.2230722472079
 20
126.5312059446411
 10
174.2230722472079
 20
126.5312059446411
 10
174.2017126411085
 20
126.5525655507404
 10
174.2017126411085
 20
126.5525655507404
 10
174.2017126411085
 20
126.5525655507404
 10
174.1383228423621
 20
126.573580647064
 10
174.1383228423621
 20
126.573580647064
 10
174.1383228423621
 20
126.573580647064
 10
174.1169632362627
 20
126.5945957433876
 10
174.1169632362627
 20
126.5945957433876
 10
174.1169632362627
 20
126.5945957433876
 10
174.0959481399391
 20
126.7007047543328
 10
174.0959481399391
 20
126.7007047543328
 10
174.0959481399391
 20
126.7007047543328
 10
174.0325583411926
 20
126.6369704458105
 10
174.0325583411926
 20
126.6369704458105
 10
174.0325583411926
 20
126.6369704458105
 10
173.9901836387697
 20
126.6369704458105
 10
173.9901836387697
 20
126.6369704458105
 10
173.9901836387697
 20
126.6369704458105
 10
173.9054342339239
 20
126.6793451482334
 10
173.9054342339239
 20
126.6793451482334
 10
173.9054342339239
 20
126.6793451482334
 10
173.8420444351773
 20
126.7007047543328
 10
173.8420444351773
 20
126.7007047543328
 10
173.8420444351773
 20
126.7007047543328
 10
173.7996697327544
 20
126.7217198506564
 10
173.7996697327544
 20
126.7217198506564
 10
173.7996697327544
 20
126.7217198506564
 10
173.7572950303315
 20
126.7217198506564
 10
173.7572950303315
 20
126.7217198506564
 10
173.7572950303315
 20
126.7217198506564
 10
173.6725456254856
 20
126.7640945530793
 10
173.6725456254856
 20
126.7640945530793
 10
173.6725456254856
 20
126.7640945530793
 10
173.6515305291621
 20
126.7640945530793
 10
173.6515305291621
 20
126.7640945530793
 10
173.6515305291621
 20
126.7640945530793
 10
173.5667811243162
 20
126.7851096494029
 10
173.5667811243162
 20
126.7851096494029
 10
173.5667811243162
 20
126.7851096494029
 10
173.5033913255697
 20
126.8064692555022
 10
173.5033913255697
 20
126.8064692555022
 10
173.5033913255697
 20
126.8064692555022
 10
173.4396570170474
 20
126.8064692555022
 10
173.4396570170474
 20
126.8064692555022
 10
173.4396570170474
 20
126.8064692555022
 10
173.4186419207238
 20
126.8274843518258
 10
173.4186419207238
 20
126.8274843518258
 10
173.4186419207238
 20
126.8274843518258
 10
173.3972823146245
 20
126.8274843518258
 10
173.3972823146245
 20
126.8274843518258
 72
     1
 10
173.3972823146245
 20
126.8274843518258
 11
173.3972823146245
 21
126.8274843518258
 97
        0
 75
     0
 76
     1
 98
        0
450
        0
451
        0
460
0.0
461
0.0
452
        0
462
0.0
453
        0
470

  0
HATCH
  5
23
330
2
100
AcDbEntity
  8
图层 1
 62
     7
100
AcDbHatch
 10
0.0
 20
0.0
 30
0.0
210
0.0
220
0.0
230
1.0
  2
SOLID
 70
     1
 71
     0
 91
        1
 92
        1
 93
        2
 72
     4
 94
        3
 73
     0
 74
     0
 95
       47
 96
       43
 40
0.0
 40
0.0
 40
0.0
 40
0.0
 40
0.3527780104152769
 40
0.3527780104152769
 40
0.3527780104152769
 40
0.7055560208305538
 40
0.7055560208305538
 40
0.7055560208305538
 40
1.058334031245828
 40
1.058334031245828
 40
1.058334031245828
 40
1.411112041661104
 40
1.411112041661104
 40
1.411112041661104
 40
1.763890052076384
 40
1.763890052076384
 40
1.763890052076384
 40
2.116668062491659
 40
2.116668062491659
 40
2.116668062491659
 40
2.469446072906936
 40
2.469446072906936
 40
2.469446072906936
 40
2.822224083322215
 40
2.822224083322215
 40
2.822224083322215
 40
3.175002093737492
 40
3.175002093737492
 40
3.175002093737492
 40
3.527780104152768
 40
3.527780104152768
 40
3.527780104152768
 40
3.880558114568044
 40
3.880558114568044
 40
3.880558114568044
 40
4.233336124983321
 40
4.233336124983321
 40
4.233336124983321
 40
4.586114135398599
 40
4.586114135398599
 40
4.586114135398599
 40
4.938892145813873
 40
4.938892145813873
 40
4.938892145813873
 40
4.938892145813873
 10
180.1920486226523
 20
255.6479577566324
 10
180.1920486226523
 20
255.6479577566324
 10
180.2130637189759
 20
255.6055830542095
 10
180.2130637189759
 20
255.6055830542095
 10
180.2130637189759
 20
255.6055830542095
 10
180.2130637189759
 20
255.5210059042515
 10
180.2130637189759
 20
255.5210059042515
 10
180.2130637189759
 20
255.5210059042515
 10
180.1920486226523
 20
255.4786312018286
 10
180.1920486226523
 20
255.4786312018286
 10
180.1920486226523
 20
255.4786312018286
 10
180.1496739202294
 20
255.4359119896299
 10
180.1496739202294
 20
255.4359119896299
 10
180.1496739202294
 20
255.4359119896299
 10
180.1283143141301
 20
255.4147246384184
 10
180.1283143141301
 20
255.4147246384184
 10
180.1283143141301
 20
255.4147246384184
 10
180.0225498129606
 20
255.4147246384184
 10
180.0225498129606
 20
255.4147246384184
 10
180.0225498129606
 20
255.4147246384184
 10
179.9591600142141
 20
255.4359119896299
 10
179.9591600142141
 20
255.4359119896299
 10
179.9591600142141
 20
255.4359119896299
 10
179.9167853117912
 20
255.4570993408414
 10
179.9167853117912
 20
255.4570993408414
 10
179.9167853117912
 20
255.4570993408414
 10
179.8957702154676
 20
255.4786312018286
 10
179.8957702154676
 20
255.4786312018286
 10
179.8957702154676
 20
255.4786312018286
 10
179.8744106093683
 20
255.4994740432643
 10
179.8744106093683
 20
255.4994740432643
 10
179.8744106093683
 20
255.4994740432643
 10
179.8744106093683
 20
255.6479577566324
 10
179.8744106093683
 20
255.6479577566324
 10
179.9608825630931
 20
255.7323626517025
 10
180.045631967939
 20
255.7085914771726
 10
180.1496739202294
 20
255.7115198102668
 10
180.1496739202294
 20
255.7115198102668
 10
180.170689016553
 20
255.6688005980681
 10
180.170689016553
 20
255.6688005980681
 10
180.170689016553
 20
255.6688005980681
 10
180.1920486226523
 20
255.6479577566324
 10
180.1920486226523
 20
255.6479577566324
 72
     1
 10
180.1920486226523
 20
255.6479577566324
 11
180.1920486226523
 21
255.6479577566324
 97
        0
 75
     0
 76
     1
 98
        0
450
        0
451
        0
460
0.0
461
0.0
452
        0
462
0.0
453
        0
470

  0
LINE
  5
CA
330
2
100
AcDbEntity
  8
图框
370
    -3
100
AcDbLine
 10
785.7487875556556
 20
232.1670179282362
 30
0.0
 11
796.5180147270394
 21
232.1670179282362
 31
0.0
  0
LINE
  5
CB
330
2
100
AcDbEntity
  8
图框
370
    -3
100
AcDbLine
 10
775.126779930065
 20
230.8147957414209
 30
0.0
 11
809.6454252847127
 21
230.8147957414218
 31
0.0
  0
MTEXT
  5
CD
330
2
100
AcDbEntity
  8
图框
100
AcDbMText
 10
793.0882908369222
 20
232.8431290216787
 30
0.0
 40
0.6000023545570477
 41
6.859684067146692
 46
1.352222186885061
 71
     5
 72
     5
  1
{\fFangSong_GB2312|b0|i0|c134|p49;\C4;线径\Fromans|c134;/Wire Gauge}
  7
Romans字体
 73
     1
 44
1.0
1001
ACAD
1000
ACAD_MTEXT_DEFINED_HEIGHT_BEGIN
1070
    46
1040
1.352222186885061
1000
ACAD_MTEXT_DEFINED_HEIGHT_END
  0
MTEXT
  5
CF
330
2
100
AcDbEntity
  8
图框
100
AcDbMText
 10
795.0430623880403
 20
231.4908718008695
 30
0.0
 40
0.6000023545570477
 41
2.949904677997924
 46
1.352152118895874
 71
     5
 72
     5
  1
{\C4;AWG}
  7
Romans字体
 73
     1
 44
1.0
1001
ACAD
1000
ACAD_MTEXT_DEFINED_HEIGHT_BEGIN
1070
    46
1040
1.352152118895874
1000
ACAD_MTEXT_DEFINED_HEIGHT_END
  0
MTEXT
  5
D0
330
2
100
AcDbEntity
  8
图框
100
AcDbMText
 10
791.6132794258618
 20
231.4909068348288
 30
0.0
 40
0.6000023545570477
 41
3.909661246359366
 46
1.352222186814757
 71
     5
 72
     5
  1
\A1;{\C4;mm\H0.7x;\S2^  ;}
  7
Romans字体
 73
     1
 44
1.0
1001
ACAD
1000
ACAD_MTEXT_DEFINED_HEIGHT_BEGIN
1070
    46
1040
1.352222186814757
1000
ACAD_MTEXT_DEFINED_HEIGHT_END
  0
MTEXT
  5
D5
330
2
100
AcDbEntity
  8
图框
100
AcDbMText
 10
782.7153705565641
 20
232.1669778925274
 30
0.0
 40
0.6000023545570477
 41
6.066833998183262
 46
2.704364302212839
 71
     5
 72
     5
  1
{\fFangSong_GB2312|b0|i0|c134|p49;\C4;产品料号\Fromans|c134;\PPart NO.}
  7
Romans字体
 73
     1
 44
1.0
1001
ACAD
1000
ACAD_MTEXT_DEFINED_HEIGHT_BEGIN
1070
    46
1040
2.704364302212839
1000
ACAD_MTEXT_DEFINED_HEIGHT_END
  0
MTEXT
  5
D6
330
2
100
AcDbEntity
  8
图框
100
AcDbMText
 10
797.7344665899042
 20
232.1669778925277
 30
0.0
 40
0.6000023545570477
 41
2.432903725729715
 46
2.704364302212435
 71
     5
 72
     5
  1
{\C4;d}
  7
Romans字体
 73
     1
 44
1.0
1001
ACAD
1000
ACAD_MTEXT_DEFINED_HEIGHT_BEGIN
1070
    46
1040
2.704364302212435
1000
ACAD_MTEXT_DEFINED_HEIGHT_END
  0
MTEXT
  5
DA
330
2
100
AcDbEntity
  8
图框
100
AcDbMText
 10
800.1673703153004
 20
232.1669778925277
 30
0.0
 40
0.6000023545570477
 41
2.432903725062574
 46
2.704364302212435
 71
     5
 72
     5
  1
{\C4;D}
  7
Romans字体
 73
     1
 44
1.0
1001
ACAD
1000
ACAD_MTEXT_DEFINED_HEIGHT_BEGIN
1070
    46
1040
2.704364302212435
1000
ACAD_MTEXT_DEFINED_HEIGHT_END
  0
LINE
  5
DB
330
2
100
AcDbEntity
  8
图框
370
    -3
100
AcDbLine
 10
775.126779930065
 20
230.8147957414218
 30
0.0
 11
809.6454151847071
 21
230.8147957414218
 31
0.0
  0
LINE
  5
DD
330
2
100
AcDbEntity
  8
图框
370
    35
380
     1
100
AcDbLine
 10
801.3838221778316
 20
233.3906476067316
 30
0.0
 11
801.3838221778316
 21
230.6147949565692
 31
0.0
  0
LINE
  5
DE
330
2
100
AcDbEntity
  8
图框
370
    -3
100
AcDbLine
 10
796.5180147277057
 20
233.3906476067316
 30
0.0
 11
796.518014727706
 21
230.6147949565692
 31
0.0
  0
LINE
  5
DF
330
2
100
AcDbEntity
  8
图框
370
    -3
100
AcDbLine
 10
793.5681100497084
 20
232.1670279318046
 30
0.0
 11
793.5681100497084
 21
230.6147949565692
 31
0.0
  0
LINE
  5
E0
330
2
100
AcDbEntity
  8
图框
370
    -3
100
AcDbLine
 10
779.6819535581391
 20
226.7548913422081
 30
0.0
 11
779.6819535581391
 21
231.0173280491522
 31
0.0
  0
LINE
  5
E1
330
2
100
AcDbEntity
  8
图框
370
    -3
100
AcDbLine
 10
785.7487875563228
 20
222.692638442558
 30
0.0
 11
785.7487875563228
 21
231.0173280491524
 31
0.0
  0
LINE
  5
E9
330
2
100
AcDbEntity
  8
图框
370
    -3
100
AcDbLine
 10
796.5180147270394
 20
233.3906476067316
 30
0.0
 11
796.5180147270396
 21
230.6147949565692
 31
0.0
  0
LINE
  5
EA
330
2
100
AcDbEntity
  8
图框
370
    -3
100
AcDbLine
 10
793.5681100490413
 20
232.1669478603173
 30
0.0
 11
793.5681100490413
 21
230.6147949565692
 31
0.0
  0
LINE
  5
EB
330
2
100
AcDbEntity
  8
图框
370
    -3
100
AcDbLine
 10
779.6819535574726
 20
222.6926384425582
 30
0.0
 11
779.6819535574726
 21
231.0173280491522
 31
0.0
  0
LINE
  5
EC
330
2
100
AcDbEntity
  8
图框
370
    -3
100
AcDbLine
 10
785.7487875556556
 20
222.692638442558
 30
0.0
 11
785.7487875556556
 21
231.0173280491524
 31
0.0
  0
LINE
  5
ED
330
2
100
AcDbEntity
  8
图框
370
    35
100
AcDbLine
 10
775.126779930065
 20
229.4625835581044
 30
0.0
 11
809.645413502602
 21
229.4625835581054
 31
0.0
  0
LINE
  5
EE
330
2
100
AcDbEntity
  8
图框
370
    35
380
     1
100
AcDbLine
 10
809.6454284889826
 20
233.3906476067316
 30
0.0
 11
809.6454250359187
 21
230.6147949565692
 31
0.0
  0
MTEXT
  5
F1
102
{ACAD_XDICTIONARY
360
77B
102
}
330
2
100
AcDbEntity
  8
打标文字
 62
     3
100
AcDbMText
 10
826.0669881104009
 20
218.0823144331145
 30
0.0
 40
0.75
 41
21.56370451087032
 46
26.95590277395973
 71
     1
 72
     5
  3
\A1;{\f仿宋_GB2312|b0|i0|c134|p49;技术参数}:\P- {\f仿宋_GB2312|b0|i0|c134|p49;材料}: {\f仿宋_GB2312|b0|i0|c134|p49;铜合金}\P- {\f仿宋_GB2312|b0|i0|c134|p49;表面处理}: {\f仿宋_GB2312|b0|i0|c134|p49;镀金}\P- {\f仿宋_GB2312|b0|i0|c134|p49;额定电流}: 10A\P- {\f仿宋_GB2312|b0|i0|c134|p49
  3
;接触电阻}: ≤3mΩ\P- {\f仿宋_GB2312|b0|i0|c134|p49;线径范围}: 0.14-0.37mm{\H0.7x;\S2^ ;}(26-22 AWG)\P- {\f仿宋_GB2312|b0|i0|c134|p49;可插拔次数}: {\f仿宋_GB2312|b0|i0|c134|p49;≥}500\P\PTechnical specification:\P- Material: copper alloy\P- Surface: hard-gold plated\P- Rat
  1
ed current: 10A\P- Contact resistance: ≤3mΩ\P- Wire gauge: 0.14-0.37mm{\H0.7x;\S2^ ;}(26-22 AWG)\P- Mating cycles: {\f仿宋_GB2312|b0|i0|c134|p49;≥}500
  7
Romans字体
 73
     1
 44
1.0
1001
ACAD
1000
ACAD_MTEXT_DEFINED_HEIGHT_BEGIN
1070
    46
1040
26.95590277395973
1000
ACAD_MTEXT_DEFINED_HEIGHT_END
  0
LINE
  5
F3
330
2
100
AcDbEntity
  8
图框
370
    35
100
AcDbLine
 10
775.126779930065
 20
228.1075167370655
 30
0.0
 11
809.6454118169461
 21
228.1075167370665
 31
0.0
  0
MTEXT
  5
F4
330
2
100
AcDbEntity
  8
图框
100
AcDbMText
 10
777.404366743769
 20
232.1670229300199
 30
0.0
 40
0.6000023545570477
 41
4.555173627407302
 46
2.704274227227899
 71
     5
 72
     5
  1
{\fFangSong_GB2312|b0|i0|c134|p49;\C4;产品代号\P\Fromans|c134;Part Code}
  7
Romans字体
 73
     1
 44
1.0
1001
ACAD
1000
ACAD_MTEXT_DEFINED_HEIGHT_BEGIN
1070
    46
1040
2.704274227227899
1000
ACAD_MTEXT_DEFINED_HEIGHT_END
  0
MTEXT
  5
F5
330
2
100
AcDbEntity
  8
图框
100
AcDbMText
 10
787.7036181795022
 20
232.843088985935
 30
0.0
 40
0.6000023545570477
 41
3.909661246359441
 46
1.352142115397727
 71
     5
 72
     5
  1
{\fFangSong_GB2312|b0|i0|c134|p49;\C4;重量\Fromans|c134;/Weight}
  7
Romans字体
 73
     1
 44
1.0
1001
ACAD
1000
ACAD_MTEXT_DEFINED_HEIGHT_BEGIN
1070
    46
1040
1.352142115397727
1000
ACAD_MTEXT_DEFINED_HEIGHT_END
  0
MTEXT
  5
F6
330
2
100
AcDbEntity
  8
图框
100
AcDbMText
 10
787.7036181795022
 20
231.4909068348288
 30
0.0
 40
0.6000023545570477
 41
3.909661246359381
 46
1.352222186814968
 71
     5
 72
     5
  1
{\C4;g}
  7
Romans字体
 73
     1
 44
1.0
1001
ACAD
1000
ACAD_MTEXT_DEFINED_HEIGHT_BEGIN
1070
    46
1040
1.352222186814968
1000
ACAD_MTEXT_DEFINED_HEIGHT_END
  0
LINE
  5
F7
330
2
100
AcDbEntity
  8
图框
370
    -3
100
AcDbLine
 10
789.658448802682
 20
233.3906476067316
 30
0.0
 11
789.6584488026817
 21
230.6147949565691
 31
0.0
  0
MTEXT
  5
FA
330
2
100
AcDbEntity
  8
图框
100
AcDbMText
 10
806.7310772758711
 20
232.1669778925277
 30
0.0
 40
0.6000023545570477
 41
5.828702745953783
 46
2.704364302212259
 71
     5
 72
     5
  1
{\fFangSong_GB2312|b0|i0|c134|p49;\C4;剥线长度\Fromans|c134;\PStripping Length}
  7
Romans字体
 73
     1
 44
1.0
1001
ACAD
1000
ACAD_MTEXT_DEFINED_HEIGHT_BEGIN
1070
    46
1040
2.704364302212259
1000
ACAD_MTEXT_DEFINED_HEIGHT_END
  0
LINE
  5
FB
330
2
100
AcDbEntity
  8
图框
370
    35
380
     1
100
AcDbLine
 10
803.8167259028941
 20
233.3906476067316
 30
0.0
 11
803.8167259028941
 21
230.6147949565692
 31
0.0
  0
SPLINE
  5
105
330
2
100
AcDbEntity
  8
0
  6
Continuous
 62
     7
370
    25
100
AcDbSpline
210
0.0
220
0.0
230
1.0
 70
     8
 71
     3
 72
    16
 73
    12
 74
    10
 42
0.0000000001
 43
0.0000000001
 44
0.0000000001
 12
-0.0000000000000002
 22
-1.0
 32
0.0
 13
-0.99999917972172
 23
-0.0012808418666015
 33
0.0
 40
0.0
 40
0.0
 40
0.0
 40
0.0
 40
0.1837973260045345
 40
0.372426925231389
 40
0.5708033321911012
 40
0.7817124924430471
 40
1.005557426141714
 40
1.243713235427652
 40
1.499219056325744
 40
1.770604252719607
 40
1.896422136288742
 40
1.896422136288742
 40
1.896422136288742
 40
1.896422136288742
 10
817.0633023798206
 20
210.9552158047895
 30
0.0
 10
817.0633023798206
 20
210.8939500294547
 30
0.0
 10
817.0538379259062
 20
210.7696032790864
 30
0.0
 10
817.0102740263407
 20
210.5836326648903
 30
0.0
 10
816.9341337436144
 20
210.3984657792744
 30
0.0
 10
816.8215546724963
 20
210.2186908572052
 30
0.0
 10
816.6695524253279
 20
210.0520020968592
 30
0.0
 10
816.4764941471123
 20
209.9081955214887
 30
0.0
 10
816.2436476593725
 20
209.7997204493543
 30
0.0
 10
816.0292402076748
 20
209.7522952232366
 30
0.0
 10
815.8968102366419
 20
209.7452904589937
 30
0.0
 10
815.8548709765208
 20
209.7452367413894
 30
0.0
 11
817.0633023798206
 21
210.9552158047895
 31
0.0
 11
817.0493431062405
 21
210.7719493437893
 31
0.0
 11
817.0063269133807
 21
210.5882900590898
 31
0.0
 11
816.9308769220403
 21
210.4048220846502
 31
0.0
 11
816.8189359851407
 21
210.2260711391304
 31
0.0
 11
816.6681019307002
 21
210.0606757269702
 31
0.0
 11
816.4771081978804
 21
209.91840983675
 31
0.0
 11
816.2454905254802
 21
209.8105373270696
 31
0.0
 11
815.9805111773605
 21
209.7519210333298
 31
0.0
 11
815.8548709765208
 21
209.7452367413894
 31
0.0
  0
SPLINE
  5
106
330
2
100
AcDbEntity
  8
0
  6
Continuous
 62
     7
370
    25
100
AcDbSpline
210
0.0
220
0.0
230
1.0
 70
     8
 71
     3
 72
    16
 73
    12
 74
    10
 42
0.0000000001
 43
0.0000000001
 44
0.0000000001
 12
0.9999991660080638
 22
-0.0012915042302749
 32
0.0
 13
-0.0000000000000002
 23
-1.0
 33
0.0
 40
0.0
 40
0.0
 40
0.0
 40
0.0
 40
0.1258082619349366
 40
0.397087805853506
 40
0.6525190475172844
 40
0.8906775483165775
 40
1.114555641980243
 40
1.325519830360139
 40
1.523968415581435
 40
1.712648308985841
 40
1.896409337280391
 40
1.896409337280391
 40
1.896409337280391
 40
1.896409337280391
 10
815.8548838949608
 20
212.1651945151302
 30
0.0
 10
815.8968199472981
 20
212.165140354496
 30
0.0
 10
816.0292114453444
 20
212.1581367457197
 30
0.0
 10
816.2435568563317
 20
212.1107344445821
 30
0.0
 10
816.4763609225719
 20
212.0023121416407
 30
0.0
 10
816.6694298542168
 20
211.8585414930683
 30
0.0
 10
816.82147475143
 20
211.6918498814794
 30
0.0
 10
816.9340996437636
 20
211.5120395958058
 30
0.0
 10
817.0102705282333
 20
211.3268203111459
 30
0.0
 10
817.0538394111574
 20
211.1408207679051
 30
0.0
 10
817.0633023798206
 20
211.0164694808877
 30
0.0
 10
817.0633023798206
 20
210.9552158047895
 30
0.0
 11
815.8548838949608
 21
212.1651945151302
 31
0.0
 11
815.9805144438001
 21
212.1585099082298
 31
0.0
 11
816.2453930479005
 21
212.09992735077
 31
0.0
 11
816.4769556378601
 21
211.9921132229896
 31
0.0
 11
816.6679723018006
 21
211.8498736166908
 31
0.0
 11
816.8188503922207
 21
211.6844734877499
 31
0.0
 11
816.9308374402806
 21
211.5056864920102
 31
0.0
 11
817.0063225547405
 21
211.3221549185104
 31
0.0
 11
817.0493485697807
 21
211.1384462790705
 31
0.0
 11
817.0633023798206
 21
210.9552158047895
 31
0.0
  0
SPLINE
  5
107
330
2
100
AcDbEntity
  8
0
  6
Continuous
 62
     7
370
    25
100
AcDbSpline
210
0.0
220
0.0
230
1.0
 70
     8
 71
     3
 72
    15
 73
    11
 74
     9
 42
0.0000000001
 43
0.0000000001
 44
0.0000000001
 12
-0.0000000000000002
 22
-1.0
 32
0.0
 13
-0.9922863483362336
 23
-0.1239669427934035
 33
0.0
 40
0.0
 40
0.0
 40
0.0
 40
0.0
 40
0.1819871974440332
 40
0.36868276955875
 40
0.5648610721780626
 40
0.7732770598769193
 40
0.9943723678198839
 40
1.22938615589726
 40
1.481186464943709
 40
1.747766615437786
 40
1.747766615437786
 40
1.747766615437786
 40
1.747766615437786
 10
816.3561955796605
 20
210.95521564223
 30
0.0
 10
816.3561955796605
 20
210.894553243082
 30
0.0
 10
816.3469192444733
 20
210.7714605343016
 30
0.0
 10
816.3042360375271
 20
210.5873417275892
 30
0.0
 10
816.2296825421487
 20
210.4039442500127
 30
0.0
 10
816.119499774197
 20
210.2256435551248
 30
0.0
 10
815.9707590958589
 20
210.0598396997445
 30
0.0
 10
815.7818150962837
 20
209.9159730436323
 30
0.0
 10
815.5540667502705
 20
209.8061096264289
 30
0.0
 10
815.3843701959916
 20
209.7655648699249
 30
0.0
 10
815.2961955813006
 20
209.7545491611695
 30
0.0
 11
816.3561955796605
 21
210.95521564223
 31
0.0
 11
816.3425099021804
 21
210.7737437648896
 31
0.0
 11
816.3003532681802
 21
210.5918700316101
 31
0.0
 11
816.2264682978403
 21
210.4101368822497
 31
0.0
 11
816.1169053673601
 21
210.2328428096102
 31
0.0
 11
815.9692580299402
 21
210.0682724631101
 31
0.0
 11
815.7822800726805
 21
209.9258971700096
 31
0.0
 11
815.55546920804
 21
209.8165343458099
 31
0.0
 11
815.2961955813006
 21
209.7545491611695
 31
0.0
  0
SPLINE
  5
108
330
2
100
AcDbEntity
  8
0
  6
Continuous
 62
     7
370
    25
100
AcDbSpline
210
0.0
220
0.0
230
1.0
 70
     8
 71
     3
 72
    15
 73
    11
 74
     9
 42
0.0000000001
 43
0.0000000001
 44
0.0000000001
 12
0.9922863484250726
 22
-0.1239669420822977
 32
0.0
 13
-0.0000000000000002
 23
-1.0
 33
0.0
 40
0.0
 40
0.0
 40
0.0
 40
0.0
 40
0.2665763167491961
 40
0.5183394526531635
 40
0.7533245955998784
 40
0.9744200222759896
 40
1.182859386246376
 40
1.379091892357826
 40
1.565822273808123
 40
1.74776673046784
 40
1.74776673046784
 40
1.74776673046784
 40
1.74776673046784
 10
815.2961955813006
 20
212.1558821258298
 30
0.0
 10
815.3843689279419
 20
212.1448665755568
 30
0.0
 10
815.5540521180567
 20
212.1043252853154
 30
0.0
 10
815.7817809234247
 20
211.9944765098377
 30
0.0
 10
815.9707137135498
 20
211.8506321337964
 30
0.0
 10
816.1194628381474
 20
211.6848381618413
 30
0.0
 10
816.2296679869546
 20
211.5065204391252
 30
0.0
 10
816.3042387628278
 20
211.3230888277107
 30
0.0
 10
816.3469216536796
 20
211.1389537157231
 30
0.0
 10
816.3561955796605
 20
211.0158637944499
 30
0.0
 10
816.3561955796605
 20
210.95521564223
 30
0.0
 11
815.2961955813006
 21
212.1558821258298
 31
0.0
 11
815.5554655783806
 21
212.09389824675
 31
0.0
 11
815.7822449952798
 21
211.9845557908098
 31
0.0
 11
815.9692067067007
 21
211.8422064463497
 31
0.0
 11
816.1168636377004
 21
211.6776445478893
 31
0.0
 11
816.2264473809404
 21
211.5003358575499
 31
0.0
 11
816.3003556557804
 21
211.3185536709502
 31
0.0
 11
816.3425163309204
 21
211.1366451422103
 31
0.0
 11
816.3561955796605
 21
210.95521564223
 31
0.0
  0
LINE
  5
109
330
2
100
AcDbEntity
  8
0
  6
Continuous
 62
     7
370
    25
100
AcDbLine
 10
817.7633023615808
 20
212.1652156428499
 30
0.0
 11
817.7633023615808
 21
209.7452156441499
 31
0.0
  0
HATCH
  5
10B
330
2
100
AcDbEntity
  8
hat
100
AcDbHatch
 10
0.0
 20
0.0
 30
0.0
210
0.0
220
0.0
230
1.0
  2
ANSI31
 70
     0
 71
     1
 91
        3
 92
        5
 93
       13
 72
     1
 10
804.2633023615803
 20
211.8302156435002
 11
804.76848384712
 21
210.9552156435003
 72
     1
 10
804.76848384712
 20
210.9552156435003
 11
805.09182877067
 21
210.9552156435003
 72
     4
 94
        3
 73
     0
 74
     0
 95
       10
 96
        6
 40
0.0
 40
0.0
 40
0.0
 40
0.0
 40
0.2761455570495295
 40
0.8490834775034256
 40
1.519741873693764
 40
1.519741873693764
 40
1.519741873693764
 40
1.519741873693764
 10
805.0918287706689
 20
210.9552156435019
 10
805.0388062974318
 20
211.0421923327896
 10
804.9090010354317
 20
211.3106325983583
 10
805.5065042255588
 20
211.7659068367547
 10
805.0699535733588
 20
212.0675452331407
 10
804.8345264043151
 20
212.2302156434999
 72
     1
 10
804.8345264043151
 20
212.2302156434999
 11
802.7633023615811
 21
212.2302156434999
 72
     1
 10
802.7633023615811
 20
212.2302156434999
 11
802.7633023615804
 21
212.7052156448905
 72
     1
 10
802.7633023615804
 20
212.7052156448905
 11
801.2233023628207
 21
212.7052156448907
 72
     1
 10
801.2233023628207
 20
212.7052156448907
 11
801.2233023628207
 21
212.4552156435
 72
     1
 10
801.2233023628207
 20
212.4552156435
 11
797.2633023615808
 21
212.4552156435
 72
     1
 10
797.2633023615808
 20
212.4552156435
 11
797.2633023615811
 21
212.7052156423496
 72
     1
 10
797.2633023615811
 20
212.7052156423496
 11
796.2633023615803
 21
212.7052156423502
 72
     1
 10
796.2633023615803
 20
212.7052156423502
 11
796.2633023615803
 21
212.6083861656455
 72
     1
 10
796.2633023615803
 20
212.6083861656455
 11
797.6111332428874
 21
211.8302156435002
 72
     1
 10
797.6111332428874
 20
211.8302156435002
 11
804.2633023615803
 21
211.8302156435002
 97
       13
330
185
330
174
330
173
330
170
330
171
330
165
330
172
330
114
330
116
330
16F
330
168
330
176
330
163
 92
        7
 72
     0
 73
     1
 93
       11
 10
801.2233023628207
 20
209.4552156435002
 10
801.2233023628207
 20
209.2052156421094
 10
802.7633023615804
 20
209.2052156421094
 10
802.7633023615811
 20
209.6802156435002
 10
803.313302361581
 20
209.6802156435002
 10
803.3133023615807
 20
210.0802156435002
 10
797.6111332428875
 20
210.0802156435002
 10
796.2633023615807
 20
209.302045121355
 10
796.2633023615807
 20
209.2052156421094
 10
797.2633023615811
 20
209.2052156421094
 10
797.2633023615807
 20
209.4552156435002
 97
       11
330
166
330
16E
330
116
330
10F
330
137
330
164
330
115
330
10E
330
138
330
169
330
119
 92
        5
 93
        6
 72
     4
 94
        3
 73
     0
 74
     0
 95
       10
 96
        6
 40
1.519741873693763
 40
1.519741873693763
 40
1.519741873693763
 40
1.519741873693763
 40
1.975478343087798
 40
2.482919157517337
 40
2.933140830321819
 40
2.933140830321819
 40
2.933140830321819
 40
2.933140830321819
 10
805.1822354705306
 20
209.6802156435002
 10
805.0820040438678
 20
209.8245438744832
 10
804.8701697058888
 20
210.1295747044324
 10
805.4232545997026
 20
210.5136308344226
 10
805.1782754506447
 20
210.8134107527606
 10
805.0918287706689
 20
210.9552156435019
 72
     1
 10
805.09182877067
 20
210.9552156435003
 11
804.7684838471205
 21
210.9552156435003
 72
     1
 10
804.7684838471205
 20
210.9552156435003
 11
804.2633023615806
 21
210.0802156435002
 72
     1
 10
804.2633023615806
 20
210.0802156435002
 11
804.2133023615802
 21
210.0802156435002
 72
     1
 10
804.2133023615802
 20
210.0802156435002
 11
804.2133023615802
 21
209.6802156435002
 72
     1
 10
804.2133023615802
 20
209.6802156435002
 11
805.1822354705306
 21
209.6802156435002
 97
        6
330
185
330
163
330
16D
330
167
330
11A
330
16A
 75
     0
 76
     1
 52
0.0
 41
0.1
 77
     0
 78
     1
 53
45.0
 43
3696.278542172939
 44
431.0927589195713
 45
-0.2245064030267288
 46
0.2245064030267288
 79
     0
 47
0.0111304559774793
 98
        3
 10
802.4370085440843
 20
212.0852029846933
 10
798.8809470433055
 20
209.7232180981653
 10
804.8514938291166
 20
210.0014795852064
1001
ACAD
1010
0.0
1020
0.0
1030
0.0
  0
LINE
  5
10E
102
{ACAD_REACTORS
330
10B
102
}
330
2
100
AcDbEntity
  8
0
  6
Continuous
 62
     7
370
    25
100
AcDbLine
 10
801.2233023628207
 20
209.2052156421094
 30
0.0
 11
802.7633023615804
 21
209.2052156421094
 31
0.0
  0
LINE
  5
10F
102
{ACAD_REACTORS
330
10B
102
}
330
2
100
AcDbEntity
  8
0
  6
Continuous
 62
     7
370
    25
100
AcDbLine
 10
796.2633023615807
 20
209.2052156421094
 30
0.0
 11
797.2633023615807
 21
209.2052156421094
 31
0.0
  0
LINE
  5
110
330
2
100
AcDbEntity
  8
0
  6
Continuous
 62
     7
370
    25
100
AcDbLine
 10
807.7633023619208
 20
209.7452156441499
 30
0.0
 11
817.7633023615808
 21
209.7452156441499
 31
0.0
  0
LINE
  5
111
330
2
100
AcDbEntity
  8
0
  6
Continuous
 62
     7
370
    25
100
AcDbLine
 10
807.7633023619208
 20
212.1652156428499
 30
0.0
 11
807.7633023619208
 21
209.7452156441499
 31
0.0
  0
LINE
  5
112
330
2
100
AcDbEntity
  8
0
  6
Continuous
 62
     7
370
    25
100
AcDbLine
 10
815.8548706107611
 20
209.7455232356096
 30
0.0
 11
815.7033023617007
 21
209.7545491611695
 31
0.0
  0
LINE
  5
113
102
{ACAD_REACTORS
330
11E
102
}
330
2
100
AcDbEntity
  8
0
  6
Continuous
 62
     7
370
    25
100
AcDbLine
 10
807.7633023619208
 20
212.1652156428499
 30
0.0
 11
817.7633023615808
 21
212.1652156428499
 31
0.0
  0
LINE
  5
114
102
{ACAD_REACTORS
330
10B
330
11E
102
}
330
2
100
AcDbEntity
  8
0
  6
Continuous
 62
     7
370
    25
100
AcDbLine
 10
796.2633023615807
 20
212.7052156423502
 30
0.0
 11
797.2633023615811
 21
212.7052156423496
 31
0.0
  0
LINE
  5
115
102
{ACAD_REACTORS
330
10B
102
}
330
2
100
AcDbEntity
  8
0
  6
Continuous
 62
     7
370
    25
100
AcDbLine
 10
801.2233023628207
 20
209.4552156435002
 30
0.0
 11
801.2233023628207
 21
209.2052942754303
 31
0.0
  0
LINE
  5
116
102
{ACAD_REACTORS
330
10B
102
}
330
2
100
AcDbEntity
  8
0
  6
Continuous
 62
     7
370
    25
100
AcDbLine
 10
796.2633023615807
 20
212.70513701157
 30
0.0
 11
796.2633023615807
 21
209.2052942754303
 31
0.0
  0
LINE
  5
117
330
2
100
AcDbEntity
  8
0
  6
CENTER
 62
     1
 48
0.03
100
AcDbLine
 10
803.7633023615805
 20
210.4462860709704
 30
0.0
 11
803.7633023615805
 21
209.4000364216014
 31
0.0
  0
LINE
  5
119
102
{ACAD_REACTORS
330
10B
102
}
330
2
100
AcDbEntity
  8
0
  6
Continuous
 62
     7
370
    25
100
AcDbLine
 10
803.3133023615807
 20
210.0802156435002
 30
0.0
 11
803.3133023615807
 21
209.6802156435002
 31
0.0
  0
LINE
  5
11A
102
{ACAD_REACTORS
330
10B
102
}
330
2
100
AcDbEntity
  8
0
  6
Continuous
 62
     7
370
    25
100
AcDbLine
 10
804.2133023615802
 20
210.0802156435002
 30
0.0
 11
804.2133023615802
 21
209.6802156434999
 31
0.0
  0
LINE
  5
11B
330
2
100
AcDbEntity
  8
0
  6
Continuous
 62
     7
370
    25
100
AcDbLine
 10
804.2633023615801
 20
210.9552156435003
 30
0.0
 11
804.2633023615801
 21
210.0802156435002
 31
0.0
  0
DIMENSION
  5
11C
102
{ACAD_XDICTIONARY
360
11D
102
}
102
{ACAD_REACTORS
330
11E
102
}
330
2
100
AcDbEntity
  8
DIM
100
AcDbDimension
  2
*D2
 10
796.2633023615807
 20
217.1194442491395
 30
0.0
 11
807.0133023615806
 21
217.9194442491396
 31
0.0
 70
    32
 71
     5
 42
21.5
 73
     0
 74
     0
 75
     0
  3
01
100
AcDbAlignedDimension
 13
817.7633023615808
 23
212.1652156428499
 33
0.0
 14
796.2633023615807
 24
212.7052156423502
 34
0.0
100
AcDbRotatedDimension
1001
ACAD
1000
DSTYLE
1002
{
1070
   147
1040
0.2
1070
   140
1040
1.199999999999999
1070
    41
1040
1.0
1070
    44
1040
0.2
1002
}
  0
LINE
  5
130
330
2
100
AcDbEntity
  8
0
  6
Continuous
 62
     7
370
    25
100
AcDbLine
 10
807.4133023619207
 20
209.7992156441732
 30
0.0
 11
807.4133023619207
 21
210.6052156435002
 31
0.0
  0
LINE
  5
131
330
2
100
AcDbEntity
  8
0
  6
Continuous
 62
     7
370
    25
100
AcDbLine
 10
807.4133023619207
 20
211.3052156435001
 30
0.0
 11
807.4133023619207
 21
212.111215642827
 31
0.0
  0
LINE
  5
132
330
2
100
AcDbEntity
  8
0
  6
Continuous
 62
     7
370
    25
100
AcDbLine
 10
805.7633023639606
 20
211.3052156435001
 30
0.0
 11
807.4133023619207
 21
211.3052156435001
 31
0.0
  0
LINE
  5
133
330
2
100
AcDbEntity
  8
0
  6
Continuous
 62
     7
370
    25
100
AcDbLine
 10
805.7633023639606
 20
210.6052156435002
 30
0.0
 11
807.4133023619207
 21
210.6052156435002
 31
0.0
  0
LINE
  5
134
330
2
100
AcDbEntity
  8
0
  6
Continuous
 62
     7
370
    25
100
AcDbLine
 10
805.7633023639606
 20
212.7052156423502
 30
0.0
 11
807.4133023619207
 21
212.1112156428266
 31
0.0
  0
LINE
  5
135
330
2
100
AcDbEntity
  8
0
  6
Continuous
 62
     7
370
    25
100
AcDbLine
 10
805.7633023639606
 20
209.2052156446502
 30
0.0
 11
807.4133023619207
 21
209.7992156441732
 31
0.0
  0
LINE
  5
136
330
2
100
AcDbEntity
  8
0
  6
Continuous
 62
     7
370
    25
100
AcDbLine
 10
805.7633023639606
 20
209.2052156446502
 30
0.0
 11
805.763302363961
 21
212.7052156423498
 31
0.0
  0
LINE
  5
137
102
{ACAD_REACTORS
330
10B
102
}
330
2
100
AcDbEntity
  8
0
  6
Continuous
 62
     7
370
    25
100
AcDbLine
 10
797.2633023615807
 20
209.4552156435002
 30
0.0
 11
797.2633023615811
 21
209.205215642109
 31
0.0
  0
LINE
  5
138
102
{ACAD_REACTORS
330
10B
102
}
330
2
100
AcDbEntity
  8
0
  6
Continuous
 62
     7
370
    25
100
AcDbLine
 10
802.7633023615811
 20
209.6802156435002
 30
0.0
 11
802.7633023615804
 21
209.2052156421094
 31
0.0
  0
ARC
  5
139
330
2
100
AcDbEntity
  8
0
  6
Continuous
 62
     7
370
    25
100
AcDbCircle
 10
803.7633023615805
 20
208.7444899179287
 30
0.0
 40
1.038307581353496
100
AcDbArc
 50
64.31662641441959
 51
115.6833735855794
  0
DIMENSION
  5
13A
330
2
100
AcDbEntity
  8
DIM
100
AcDbDimension
  2
*D3
 10
804.2633023615806
 20
214.7133696138201
 30
0.0
 11
800.2633023615805
 21
215.5133696138201
 31
0.0
 70
    32
  1
h
 71
     5
 42
8.0
 73
     0
 74
     0
 75
     0
  3
01
100
AcDbAlignedDimension
 13
796.2633023615807
 23
212.70513701157
 33
0.0
 14
804.2633023615806
 24
211.8510528566848
 34
0.0
100
AcDbRotatedDimension
1001
ACAD
1000
DSTYLE
1002
{
1070
   147
1040
0.2
1070
   140
1040
1.199999999999999
1070
    41
1040
1.0
1070
    44
1040
0.2
1002
}
  0
DIMENSION
  5
147
330
2
100
AcDbEntity
  8
DIM
100
AcDbDimension
  2
*D4
 10
791.5589415354554
 20
209.2052156446502
 30
0.0
 11
791.5589415354554
 21
206.6380727875074
 31
0.0
 70
   160
  1
{\fISOCPEUR|b0|i0|c0|p34;%%C}<>
 71
     5
 42
3.499999997700001
 73
     0
 74
     0
 75
     0
  3
01
100
AcDbAlignedDimension
 13
796.2633023615807
 23
212.7052156423502
 33
0.0
 14
796.2633023615807
 24
209.2052156446502
 34
0.0
 50
270.0
100
AcDbRotatedDimension
1001
ACAD
1000
DSTYLE
1002
{
1070
   147
1040
0.2
1070
   140
1040
1.199999999999999
1070
    41
1040
1.0
1070
    44
1040
0.2
1002
}
  0
DIMENSION
  5
155
330
2
100
AcDbEntity
  8
DIM
100
AcDbDimension
  2
*D5
 10
793.9776319401277
 20
210.0802156435002
 30
0.0
 11
793.1776319401278
 21
207.1987870720718
 31
0.0
 70
    32
  1
{\fISOCPEUR|b0|i0|c0|p34;%%C}d
 71
     5
 42
1.75
 73
     0
 74
     0
 75
     0
  3
01
100
AcDbAlignedDimension
 13
797.6111332428875
 23
211.8302156435002
 33
0.0
 14
797.6111332428875
 24
210.0802156435002
 34
0.0
 50
270.0
100
AcDbRotatedDimension
1001
ACAD
1000
DSTYLE
1002
{
1070
   147
1040
0.2
1070
   140
1040
1.199999999999999
1070
    41
1040
1.0
1070
    44
1040
0.2
1002
}
  0
LINE
  5
163
102
{ACAD_REACTORS
330
10B
102
}
330
2
100
AcDbEntity
  8
0
  6
CENTER
 62
     1
100
AcDbLine
 10
795.4950393288372
 20
210.9552156435003
 30
0.0
 11
819.0232070148285
 21
210.9552156435003
 31
0.0
  0
LINE
  5
164
102
{ACAD_REACTORS
330
10B
102
}
330
2
100
AcDbEntity
  8
0
  6
Continuous
 62
     7
370
    25
100
AcDbLine
 10
797.2633023615807
 20
209.4552156435002
 30
0.0
 11
801.2233023628207
 21
209.4552156435002
 31
0.0
  0
LINE
  5
165
102
{ACAD_REACTORS
330
10B
102
}
330
2
100
AcDbEntity
  8
0
  6
Continuous
 62
     7
370
    25
100
AcDbLine
 10
797.2633023615807
 20
212.4552156435
 30
0.0
 11
801.2233023628207
 21
212.4552156435
 31
0.0
  0
LINE
  5
166
102
{ACAD_REACTORS
330
10B
102
}
330
2
100
AcDbEntity
  8
0
  6
Continuous
 62
     7
370
    25
100
AcDbLine
 10
797.6090273551514
 20
210.0802156435002
 30
0.0
 11
803.3133023615807
 21
210.0802156435002
 31
0.0
  0
LINE
  5
167
102
{ACAD_REACTORS
330
10B
102
}
330
2
100
AcDbEntity
  8
0
  6
Continuous
 62
     7
370
    25
100
AcDbLine
 10
804.2133023615802
 20
210.0802156435002
 30
0.0
 11
804.2633023615806
 21
210.0802156435002
 31
0.0
  0
LINE
  5
168
102
{ACAD_REACTORS
330
10B
102
}
330
2
100
AcDbEntity
  8
0
  6
Continuous
 62
     7
370
    25
100
AcDbLine
 10
797.6090273551521
 20
211.8302156435002
 30
0.0
 11
804.2633023615806
 21
211.8302156435002
 31
0.0
  0
LINE
  5
169
102
{ACAD_REACTORS
330
10B
102
}
330
2
100
AcDbEntity
  8
0
  6
Continuous
 62
     7
370
    25
100
AcDbLine
 10
802.7633023615811
 20
209.6802156435002
 30
0.0
 11
803.3133023615807
 21
209.6802156435002
 31
0.0
  0
LINE
  5
16A
102
{ACAD_REACTORS
330
10B
102
}
330
2
100
AcDbEntity
  8
0
  6
Continuous
 62
     7
370
    25
100
AcDbLine
 10
804.2133023615802
 20
209.6802156435002
 30
0.0
 11
805.7633023639606
 21
209.6802156435002
 31
0.0
  0
LINE
  5
16B
330
2
100
AcDbEntity
  8
0
  6
Continuous
 62
     7
370
    25
100
AcDbLine
 10
807.4133023619207
 20
210.0552156435
 30
0.0
 11
807.7633023619203
 21
210.0552156435
 31
0.0
  0
LINE
  5
16C
330
2
100
AcDbEntity
  8
0
  6
Continuous
 62
     7
370
    25
100
AcDbLine
 10
807.4133023619211
 20
211.8552156435002
 30
0.0
 11
807.763302361921
 21
211.8552156435002
 31
0.0
  0
LINE
  5
16D
102
{ACAD_REACTORS
330
10B
102
}
330
2
100
AcDbEntity
  8
0
370
    25
100
AcDbLine
 10
804.7684838471205
 20
210.9552156435003
 30
0.0
 11
804.2633023615806
 21
210.0802156435002
 31
0.0
  0
LINE
  5
16E
102
{ACAD_REACTORS
330
10B
102
}
330
2
100
AcDbEntity
  8
0
  6
Continuous
 62
     7
370
    25
100
AcDbLine
 10
796.2646752379407
 20
209.3028377518911
 30
0.0
 11
797.6111332428875
 21
210.0802156435002
 31
0.0
  0
LINE
  5
16F
102
{ACAD_REACTORS
330
10B
102
}
330
2
100
AcDbEntity
  8
0
  6
Continuous
 62
     7
370
    25
100
AcDbLine
 10
796.2646752379407
 20
212.6075935351092
 30
0.0
 11
797.6111332428875
 21
211.8302156435002
 31
0.0
  0
LINE
  5
170
102
{ACAD_REACTORS
330
10B
102
}
330
2
100
AcDbEntity
  8
0
  6
Continuous
 62
     7
370
    25
100
AcDbLine
 10
801.2233023628207
 20
212.7052156448907
 30
0.0
 11
802.7633023615804
 21
212.7052156448905
 31
0.0
  0
LINE
  5
171
102
{ACAD_REACTORS
330
10B
102
}
330
2
100
AcDbEntity
  8
0
  6
Continuous
 62
     7
370
    25
100
AcDbLine
 10
801.2233023628207
 20
212.4552156435
 30
0.0
 11
801.2233023628207
 21
212.7051370115698
 31
0.0
  0
LINE
  5
172
102
{ACAD_REACTORS
330
10B
102
}
330
2
100
AcDbEntity
  8
0
  6
Continuous
 62
     7
370
    25
100
AcDbLine
 10
797.2633023615807
 20
212.4552156435
 30
0.0
 11
797.2633023615811
 21
212.7052156448912
 31
0.0
  0
LINE
  5
173
102
{ACAD_REACTORS
330
10B
102
}
330
2
100
AcDbEntity
  8
0
  6
Continuous
 62
     7
370
    25
100
AcDbLine
 10
802.7633023615811
 20
212.2302156434999
 30
0.0
 11
802.7633023615804
 21
212.7052156448905
 31
0.0
  0
LINE
  5
174
102
{ACAD_REACTORS
330
10B
102
}
330
2
100
AcDbEntity
  8
0
  6
Continuous
 62
     7
370
    25
100
AcDbLine
 10
802.7633023615811
 20
212.2302156434999
 30
0.0
 11
805.7633023639606
 21
212.2302156434999
 31
0.0
  0
LINE
  5
175
330
2
100
AcDbEntity
  8
0
  6
Continuous
 62
     7
370
    25
100
AcDbLine
 10
804.2633023615801
 20
210.9552156435003
 30
0.0
 11
804.2633023615801
 21
211.8302156435002
 31
0.0
  0
LINE
  5
176
102
{ACAD_REACTORS
330
10B
102
}
330
2
100
AcDbEntity
  8
0
370
    25
100
AcDbLine
 10
804.76848384712
 20
210.9552156435003
 30
0.0
 11
804.2633023615806
 21
211.8302156435002
 31
0.0
  0
LINE
  5
177
330
2
100
AcDbEntity
  8
0
  6
Continuous
 62
     7
370
    25
100
AcDbLine
 10
797.6090273551521
 20
211.8302156435002
 30
0.0
 11
797.6090273551514
 21
210.0802156435002
 31
0.0
  0
DIMENSION
  5
178
330
2
100
AcDbEntity
  8
DIM
100
AcDbDimension
  2
*D6
 10
799.2433023622009
 20
209.4552156435002
 30
0.0
 11
799.2433023622009
 21
207.509501357786
 31
0.0
 70
   160
  1
{\fISOCPEUR|b0|i0|c0|p34;%%C}D
 71
     5
 42
2.999999999999771
 73
     0
 74
     0
 75
     0
  3
01
100
AcDbAlignedDimension
 13
799.2433023622009
 23
212.4552156435
 33
0.0
 14
799.2433023622009
 24
209.4552156435002
 34
0.0
 50
90.0
100
AcDbRotatedDimension
1001
ACAD
1000
DSTYLE
1002
{
1070
    44
1040
0.2
1070
   147
1040
0.2
1070
   140
1040
1.199999999999999
1070
    41
1040
1.0
1002
}
  0
ARC
  5
184
330
2
100
AcDbEntity
  8
0
  6
Continuous
 62
     7
370
    25
100
AcDbCircle
 10
803.7633023615805
 20
209.1444899179287
 30
0.0
 40
1.038307581353496
100
AcDbArc
 50
64.31662641441959
 51
115.6833735855794
  0
SPLINE
  5
185
102
{ACAD_REACTORS
330
10B
102
}
330
2
100
AcDbEntity
  8
hat
100
AcDbSpline
210
0.0
220
0.0
230
1.0
 70
     8
 71
     3
 72
    12
 73
     8
 74
     6
 42
0.0000000001
 43
0.0000000001
 44
0.0000000001
 40
0.0
 40
0.0
 40
0.0
 40
0.0
 40
0.6706583961905084
 40
1.243596316644379
 40
1.969963546498469
 40
2.477404360928091
 40
2.933140830322058
 40
2.933140830322058
 40
2.933140830322058
 40
2.933140830322058
 10
804.8345264043151
 20
212.2302156434999
 30
0.0
 10
805.0699535733587
 20
212.0675452331407
 30
0.0
 10
805.5065042255588
 20
211.7659068367548
 30
0.0
 10
804.7319914455659
 20
211.1757581616243
 30
0.0
 10
805.5313146314311
 20
210.5886665442319
 30
0.0
 10
804.8701697058884
 20
210.1295747044324
 30
0.0
 10
805.0820040438678
 20
209.8245438744832
 30
0.0
 10
805.1822354705306
 20
209.6802156435002
 30
0.0
 11
804.8345264043151
 21
212.2302156434999
 31
0.0
 11
805.2716464481303
 21
211.7215814412721
 31
0.0
 11
805.0034135153312
 21
211.2153117952769
 31
0.0
 11
805.2716464481303
 21
210.5402855392187
 31
0.0
 11
805.0133483595141
 21
210.1035038116175
 31
0.0
 11
805.1822354705306
 21
209.6802156435002
 31
0.0
  0
SPLINE
  5
186
330
2
100
AcDbEntity
  8
0
  6
Continuous
 62
     7
370
    25
100
AcDbSpline
210
0.0
220
0.0
230
1.0
 70
     8
 71
     3
 72
    12
 73
     8
 74
     6
 42
0.0000000001
 43
0.0000000001
 44
0.0000000001
 12
0.6051282559960846
 22
0.7961280008862504
 32
0.0
 13
0.8526548681690409
 23
-0.5224745695128478
 33
0.0
 40
0.0
 40
0.0
 40
0.0
 40
0.0
 40
0.0051723733242142
 40
0.0753170065389396
 40
0.1940759083309694
 40
0.3675795436833073
 40
0.5915287742021621
 40
0.5915287742021621
 40
0.5915287742021621
 40
0.5915287742021621
 10
780.0472900052716
 20
191.9721179386648
 30
0.0
 10
780.048333321688
 20
191.9734905624096
 30
0.0
 10
780.0648278807253
 20
191.9926556792464
 30
0.0
 10
780.1386552414342
 20
191.9995278511836
 30
0.0
 10
780.2513822369165
 20
191.9650155183916
 30
0.0
 10
780.4100510401974
 20
191.8936151905146
 30
0.0
 10
780.5244005151625
 20
191.8272959733395
 30
0.0
 10
780.5880509823707
 20
191.7882933807368
 30
0.0
 11
780.0472900052716
 21
191.9721179386648
 31
0.0
 11
780.0506561717682
 21
191.9760450710693
 31
0.0
 11
780.1183557283168
 21
191.9944037096884
 31
0.0
 11
780.2341763066313
 21
191.9681497501061
 31
0.0
 11
780.3930559923258
 21
191.8984306210661
 31
0.0
 11
780.5880509823707
 21
191.7882933807368
 31
0.0
  0
SPLINE
  5
187
330
2
100
AcDbEntity
  8
0
  6
Continuous
 62
     7
370
    25
100
AcDbSpline
210
0.0
220
0.0
230
1.0
 70
     8
 71
     3
 72
    11
 73
     7
 74
     5
 42
0.0000000001
 43
0.0000000001
 44
0.0000000001
 12
0.5393574476510593
 22
0.8420769226521617
 32
0.0
 13
0.8526548691160817
 23
-0.5224745679673201
 33
0.0
 40
0.0
 40
0.0
 40
0.0
 40
0.0
 40
0.0096823576864509
 40
0.0638243234415599
 40
0.1600001766397443
 40
0.2969115803260886
 40
0.2969115803260886
 40
0.2969115803260886
 40
0.2969115803260886
 10
784.3129006146981
 20
195.7967052303944
 30
0.0
 10
784.3146413652744
 20
195.7994229937159
 30
0.0
 10
784.3291711116677
 20
195.8161459528929
 30
0.0
 10
784.3919283410953
 20
195.8016338700321
 30
0.0
 10
784.4748757153717
 20
195.7689311535027
 30
0.0
 10
784.5444696048718
 20
195.7290049432266
 30
0.0
 10
784.5833823298687
 20
195.705160701063
 30
0.0
 11
784.3129006146981
 21
195.7967052303944
 31
0.0
 11
784.3192915275964
 21
195.8039787634214
 31
0.0
 11
784.3734239588281
 21
195.8049948071097
 31
0.0
 11
784.4635004132697
 21
195.7712898060919
 31
0.0
 11
784.5833823298687
 21
195.705160701063
 31
0.0
  0
SPLINE
  5
188
330
2
100
AcDbEntity
  8
0
  6
Continuous
 62
     7
370
    25
100
AcDbSpline
210
0.0
220
0.0
230
1.0
 70
     8
 71
     3
 72
    18
 73
    14
 74
    12
 42
0.0000000001
 43
0.0000000001
 44
0.0000000001
 12
0.7217724596552382
 22
0.6921304186952251
 32
0.0
 13
-0.8526548684434704
 23
0.5224745690649914
 33
0.0
 40
0.0
 40
0.0
 40
0.0
 40
0.0
 40
0.0084009331471381
 40
0.068685902263188
 40
0.1725495518834767
 40
0.3226049704267206
 40
0.5136497968521912
 40
0.7371737123709546
 40
0.9826206573946219
 40
1.23817022297712
 40
1.491438079024196
 40
1.730166432950297
 40
1.942915711975743
 40
1.942915711975743
 40
1.942915711975743
 40
1.942915711975743
 10
782.0896871026895
 20
190.2324684864998
 30
0.0
 10
782.0917082900831
 20
190.2344066669586
 30
0.0
 10
782.106689225089
 20
190.252356945553
 30
0.0
 10
782.0931955794273
 20
190.3179301391176
 30
0.0
 10
782.0461383923502
 20
190.4066166000608
 30
0.0
 10
781.9586156718696
 20
190.5293780280531
 30
0.0
 10
781.8366510053673
 20
190.6718280211616
 30
0.0
 10
781.684105172259
 20
190.8308718683143
 30
0.0
 10
781.5089019449398
 20
190.9970811785093
 30
0.0
 10
781.3195132968908
 20
191.1625798056632
 30
0.0
 10
781.1254273525041
 20
191.3189625469555
 30
0.0
 10
780.9363435170588
 20
191.4584800129438
 30
0.0
 10
780.81086572763
 20
191.5417571490264
 30
0.0
 10
780.750398491457
 20
191.578809178319
 30
0.0
 11
782.0896871026895
 21
190.2324684864998
 31
0.0
 11
782.0950684472729
 21
190.2389195955685
 31
0.0
 11
782.0950190448833
 21
190.2992045444424
 31
0.0
 11
782.0510625650532
 21
190.3933081341369
 31
0.0
 11
781.96540317427
 21
190.5165116138152
 31
0.0
 11
781.8423361893152
 21
190.6626370493768
 31
0.0
 11
781.6880327023425
 21
190.8243570998248
 31
0.0
 11
781.5102301353172
 21
190.9935624483829
 31
0.0
 11
781.317844251764
 21
191.1617684300806
 31
0.0
 11
781.1205220832378
 21
191.3205404953653
 31
0.0
 11
780.9281581873472
 21
191.4619171501781
 31
0.0
 11
780.750398491457
 21
191.578809178319
 31
0.0
  0
SPLINE
  5
189
330
2
100
AcDbEntity
  8
0
  6
Continuous
 62
     7
370
    25
100
AcDbSpline
210
0.0
220
0.0
230
1.0
 70
     8
 71
     3
 72
    11
 73
     7
 74
     5
 42
0.0000000001
 43
0.0000000001
 44
0.0000000001
 12
0.7217724585086961
 22
0.6921304198908704
 32
0.0
 13
0.8526548687111436
 23
-0.5224745686281606
 33
0.0
 40
0.0
 40
0.0
 40
0.0
 40
0.0
 40
0.0420637076601206
 40
0.128866256283775
 40
0.2623426353714959
 40
0.4392063108464486
 40
0.4392063108464486
 40
0.4392063108464486
 40
0.4392063108464486
 10
780.3491177003204
 20
191.7147967078167
 30
0.0
 10
780.3592378422177
 20
191.7245012316983
 30
0.0
 10
780.4028498102143
 20
191.74044983309
 30
0.0
 10
780.4894858894325
 20
191.7132283704476
 30
0.0
 10
780.6101256299584
 20
191.6620790254314
 30
0.0
 10
780.7001306001264
 20
191.6096114358356
 30
0.0
 10
780.750398491457
 20
191.578809178319
 30
0.0
 11
780.3491177003204
 21
191.7147967078167
 31
0.0
 11
780.3875965051497
 21
191.7317889731463
 31
0.0
 11
780.4731668746237
 21
191.7172152188042
 31
0.0
 11
780.596156608831
 21
191.6653551276551
 31
0.0
 11
780.750398491457
 21
191.578809178319
 31
0.0
  0
SPLINE
  5
18A
330
2
100
AcDbEntity
  8
0
  6
Continuous
 62
     7
370
    25
100
AcDbSpline
210
0.0
220
0.0
230
1.0
 70
     8
 71
     3
 72
    16
 73
    12
 74
    10
 42
0.0000000001
 43
0.0000000001
 44
0.0000000001
 12
0.8526548685600523
 22
-0.5224745688747347
 32
0.0
 13
-0.2442363493916579
 23
-0.969715734447903
 33
0.0
 40
0.0
 40
0.0
 40
0.0
 40
0.0
 40
0.1300054093288377
 40
0.2787374393516545
 40
0.4531872599907644
 40
0.6582128736637402
 40
0.8949667916419235
 40
1.163261019193595
 40
1.462011228534418
 40
1.78114459989234
 40
2.097094650975665
 40
2.097094650975665
 40
2.097094650975665
 40
2.097094650975665
 10
789.7844853346007
 20
202.1044118893273
 30
0.0
 10
789.8214352496685
 20
202.0817703825971
 30
0.0
 10
789.8946425183018
 20
202.0231360412986
 30
0.0
 10
789.9922184733952
 20
201.9068727622983
 30
0.0
 10
790.0823639371679
 20
201.7548396547247
 30
0.0
 10
790.1617111887918
 20
201.5647494088387
 30
0.0
 10
790.2255266685317
 20
201.3362590037042
 30
0.0
 10
790.2681710334658
 20
201.071197921475
 30
0.0
 10
790.2831388618469
 20
200.775580798694
 30
0.0
 10
790.2643254165163
 20
200.4642356672201
 30
0.0
 10
790.2266269802958
 20
200.2552416007847
 30
0.0
 10
790.2009048179402
 20
200.1531143555063
 30
0.0
 11
789.7844853346007
 21
202.1044118893273
 31
0.0
 11
789.8868543988492
 21
202.0242746249639
 31
0.0
 11
789.9836251252974
 21
201.9113293140502
 31
0.0
 11
790.0737854958528
 21
201.7619845869845
 31
0.0
 11
790.1539252859918
 21
201.5732702094229
 31
0.0
 11
790.2186058629539
 21
201.3455228918934
 31
0.0
 11
790.2619645988948
 21
201.0807554230549
 31
0.0
 11
790.2774447156613
 21
200.7824065441127
 31
0.0
 11
790.2579727753316
 21
200.4638677674244
 31
0.0
 11
790.2009048179402
 21
200.1531143555063
 31
0.0
  0
SPLINE
  5
18B
330
2
100
AcDbEntity
  8
0
  6
Continuous
 62
     7
370
    25
100
AcDbSpline
210
0.0
220
0.0
230
1.0
 70
     8
 71
     3
 72
    20
 73
    16
 74
    14
 42
0.0000000001
 43
0.0000000001
 44
0.0000000001
 12
-0.8526548679476974
 22
0.5224745698740704
 32
0.0
 13
0.9118732870663986
 23
0.4104718118637642
 33
0.0
 40
0.0
 40
0.0
 40
0.0
 40
0.0
 40
0.2112752581486883
 40
0.4524447241416394
 40
0.7145773936552839
 40
0.9862435324959912
 40
1.255270707060499
 40
1.51188673844756
 40
1.74969276933004
 40
1.962420938485622
 40
2.142829259701728
 40
2.284666123300732
 40
2.38565326107794
 40
2.449653634660149
 40
2.495026364900509
 40
2.495026364900509
 40
2.495026364900509
 40
2.495026364900509
 10
779.0311340498813
 20
186.9377684111433
 30
0.0
 10
778.9710857574354
 20
186.9745637276854
 30
0.0
 10
778.8447525790252
 20
187.057064119338
 30
0.0
 10
778.6510001017729
 20
187.1957070361636
 30
0.0
 10
778.4466320575757
 20
187.3538007124549
 30
0.0
 10
778.240664531939
 20
187.5247372363309
 30
0.0
 10
778.041909527129
 20
187.7012435712017
 30
0.0
 10
777.8575435124244
 20
187.8767644837182
 30
0.0
 10
777.6931435980197
 20
188.0457000725545
 30
0.0
 10
777.5533754259927
 20
188.2032220673839
 30
0.0
 10
777.4433619923074
 20
188.3430643498558
 30
0.0
 10
777.3652559913541
 20
188.462564966545
 30
0.0
 10
777.3234441385828
 20
188.5529740929989
 30
0.0
 10
777.3096290575588
 20
188.6300011128187
 30
0.0
 10
777.341311757137
 20
188.6567980026663
 30
0.0
 10
777.3551031506928
 20
188.6630060782633
 30
0.0
 11
779.0311340498813
 21
186.9377684111433
 31
0.0
 11
778.8538969683387
 21
187.0527651573237
 31
0.0
 11
778.6575428939917
 21
187.1927929717558
 31
0.0
 11
778.4500676066319
 21
187.3530039001013
 31
0.0
 11
778.2409799555161
 21
187.526453734761
 31
0.0
 11
778.0398884328842
 21
187.7051652905703
 31
0.0
 11
777.8542009139884
 21
187.8822865284023
 31
0.0
 11
777.6886890881423
 21
188.0530423301461
 31
0.0
 11
777.5480437617122
 21
188.2126423492741
 31
0.0
 11
777.4375608141741
 21
188.3552631074663
 31
0.0
 11
777.3617167252734
 21
188.4751187291719
 31
0.0
 11
777.3227678221197
 21
188.5682926790697
 31
0.0
 11
777.3217136123912
 21
188.632284369628
 31
0.0
 11
777.3551031506928
 21
188.6630060782633
 31
0.0
  0
SPLINE
  5
18C
330
2
100
AcDbEntity
  8
0
  6
Continuous
 62
     7
370
    25
100
AcDbSpline
210
0.0
220
0.0
230
1.0
 70
     8
 71
     3
 72
    12
 73
     8
 74
     6
 42
0.0000000001
 43
0.0000000001
 44
0.0000000001
 12
0.6051282559960846
 22
0.7961280008862504
 32
0.0
 13
0.8526548681690409
 23
-0.5224745695128478
 33
0.0
 40
0.0
 40
0.0
 40
0.0
 40
0.0
 40
0.0051723733248307
 40
0.0753170043820758
 40
0.1940759083545287
 40
0.3675795437065441
 40
0.5915287742252535
 40
0.5915287742252535
 40
0.5915287742252535
 40
0.5915287742252535
 10
777.2637474577622
 20
188.7043624907494
 30
0.0
 10
777.2647907741787
 20
188.7057351144943
 30
0.0
 10
777.2812853327389
 20
188.7249002307867
 30
0.0
 10
777.3551126930532
 20
188.7317724035137
 30
0.0
 10
777.4678396888288
 20
188.6972600707499
 30
0.0
 10
777.6265084926498
 20
188.6258597426124
 30
0.0
 10
777.7408579676534
 20
188.559540525424
 30
0.0
 10
777.8045084348616
 20
188.5205379328214
 30
0.0
 11
777.2637474577622
 21
188.7043624907494
 31
0.0
 11
777.2671136242595
 21
188.7082896231541
 31
0.0
 11
777.3348131785727
 21
188.7266482617733
 31
0.0
 11
777.450633759123
 21
188.7003943021911
 31
0.0
 11
777.6095134448172
 21
188.6306751731514
 31
0.0
 11
777.8045084348616
 21
188.5205379328214
 31
0.0
  0
SPLINE
  5
18D
330
2
100
AcDbEntity
  8
0
  6
Continuous
 62
     7
370
    25
100
AcDbSpline
210
0.0
220
0.0
230
1.0
 70
     8
 71
     3
 72
    18
 73
    14
 74
    12
 42
0.0000000001
 43
0.0000000001
 44
0.0000000001
 12
0.6051282550325159
 22
0.7961280016186484
 32
0.0
 13
-0.8526548684658536
 23
0.5224745690284628
 33
0.0
 40
0.0
 40
0.0
 40
0.0
 40
0.0
 40
0.0597307089790893
 40
0.1688230207860204
 40
0.332708191215927
 40
0.5481765034639292
 40
0.8074492179564874
 40
1.100109116539444
 40
1.413992440241665
 40
1.735885701185355
 40
2.05218755385386
 40
2.34956697811223
 40
2.615623611215895
 40
2.615623611215895
 40
2.615623611215895
 40
2.615623611215895
 10
779.6079722502284
 20
186.7073918077367
 30
0.0
 10
779.6200204967938
 20
186.7232429043949
 30
0.0
 10
779.6272928842617
 20
186.7849338358649
 30
0.0
 10
779.5795845407583
 20
186.8866323849533
 30
0.0
 10
779.4938355774461
 20
187.0248622493588
 30
0.0
 10
779.3609153202599
 20
187.1918236160536
 30
0.0
 10
779.1899212864341
 20
187.3820677520408
 30
0.0
 10
778.9862073216734
 20
187.5867061222337
 30
0.0
 10
778.7590381739098
 20
187.7969693858835
 30
0.0
 10
778.5180661705012
 20
188.003605949061
 30
0.0
 10
778.2738233044181
 20
188.1976444833165
 30
0.0
 10
778.0369593377363
 20
188.3706606906903
 30
0.0
 10
777.8801265960294
 20
188.4742019912487
 30
0.0
 10
777.8045084348616
 20
188.5205379328214
 30
0.0
 11
779.6079722502284
 21
186.7073918077367
 31
0.0
 11
779.6212258216885
 21
186.7656335491143
 31
0.0
 11
779.5860393770505
 21
186.8688955779977
 31
0.0
 11
779.5005845696525
 21
187.0087377210713
 31
0.0
 11
779.3685961817625
 21
187.1790481994489
 31
0.0
 11
779.1958427415459
 21
187.3723836317257
 31
0.0
 11
778.9898744014383
 21
187.5802943315752
 31
0.0
 11
778.7596929689903
 21
187.7936936030232
 31
0.0
 11
778.5153584736607
 21
188.0032548729015
 31
0.0
 11
778.2675495074568
 21
188.1998193108613
 31
0.0
 11
778.0270965106912
 21
188.3747961045189
 31
0.0
 11
777.8045084348616
 21
188.5205379328214
 31
0.0
  0
SPLINE
  5
18E
330
2
100
AcDbEntity
  8
0
  6
Continuous
 62
     7
370
    25
100
AcDbSpline
210
0.0
220
0.0
230
1.0
 70
     8
 71
     3
 72
    11
 73
     7
 74
     5
 42
0.0000000001
 43
0.0000000001
 44
0.0000000001
 12
0.7217724572110394
 22
0.6921304212441024
 32
0.0
 13
0.8526548683723632
 23
-0.522474569181035
 33
0.0
 40
0.0
 40
0.0
 40
0.0
 40
0.0
 40
0.0391516039228042
 40
0.1199447454218075
 40
0.2441804531517713
 40
0.408799718467335
 40
0.408799718467335
 40
0.408799718467335
 40
0.408799718467335
 10
784.0908276787092
 20
195.9853554554808
 30
0.0
 10
784.100247195165
 20
195.9943881275193
 30
0.0
 10
784.1408398728885
 20
196.0092325948588
 30
0.0
 10
784.2214780693615
 20
195.9838956932299
 30
0.0
 10
784.3337658285187
 20
195.9362874593457
 30
0.0
 10
784.4175396849152
 20
195.887452240807
 30
0.0
 10
784.464327490915
 20
195.8587824475654
 30
0.0
 11
784.0908276787092
 21
195.9853554554808
 31
0.0
 11
784.1266425654727
 21
196.001171332815
 31
0.0
 11
784.2062888323932
 21
195.9876065298709
 31
0.0
 11
784.3207638940698
 21
195.9393367533095
 31
0.0
 11
784.464327490915
 21
195.8587824475654
 31
0.0
  0
SPLINE
  5
18F
330
2
100
AcDbEntity
  8
0
  6
Continuous
 62
     7
370
    25
100
AcDbSpline
210
0.0
220
0.0
230
1.0
 70
     8
 71
     3
 72
    13
 73
     9
 74
     7
 42
0.0000000001
 43
0.0000000001
 44
0.0000000001
 12
0.6492870852763431
 22
0.7605434115771112
 32
0.0
 13
0.8526548681004756
 23
-0.5224745696247434
 33
0.0
 40
0.0
 40
0.0
 40
0.0
 40
0.0
 40
0.0230358935756797
 40
0.1906398046384848
 40
0.3306754569847815
 40
0.4528282188883221
 40
0.568020276866282
 40
0.6864573244640279
 40
0.6864573244640279
 40
0.6864573244640279
 40
0.6864573244640279
 10
789.1766751569796
 20
201.9571880854263
 30
0.0
 10
789.1816607930451
 20
201.9630280177893
 30
0.0
 10
789.2235148342035
 20
202.0108233785287
 30
0.0
 10
789.3054816089417
 20
202.0862235189928
 30
0.0
 10
789.4341090827185
 20
202.1535570894089
 30
0.0
 10
789.5601143903641
 20
202.1757460442142
 30
0.0
 10
789.6792462155778
 20
202.1582905296622
 30
0.0
 10
789.7508233595348
 20
202.1250386711511
 30
0.0
 10
789.7844853346007
 20
202.1044118893273
 30
0.0
 11
789.1766751569796
 21
201.9571880854263
 31
0.0
 11
789.1918544918246
 21
201.9745155257016
 31
0.0
 11
789.3170086864222
 21
202.0859942168411
 31
0.0
 11
789.4420501241202
 21
202.1490388263369
 31
0.0
 11
789.5624982884062
 21
202.1693744345351
 31
0.0
 11
789.6765424191698
 21
202.1531526448809
 31
0.0
 11
789.7844853346007
 21
202.1044118893273
 31
0.0
  0
SPLINE
  5
190
330
2
100
AcDbEntity
  8
0
  6
Continuous
 62
     7
370
    25
100
AcDbSpline
210
0.0
220
0.0
230
1.0
 70
     8
 71
     3
 72
    19
 73
    15
 74
    13
 42
0.0000000001
 43
0.0000000001
 44
0.0000000001
 12
0.6125651864282588
 22
-0.7904200733635962
 32
0.0
 13
-0.8548840384026414
 23
0.5188191215485328
 33
0.0
 40
0.0
 40
0.0
 40
0.0
 40
0.0
 40
0.0714263725781585
 40
0.1498099424449389
 40
0.2387026748432821
 40
0.3395032223066162
 40
0.4473245647387281
 40
0.5565463091180503
 40
0.6575321160625756
 40
0.7488746171562774
 40
0.8284892195397334
 40
0.8978262736088689
 40
0.9580189980923677
 40
1.015505912887522
 40
1.015505912887522
 40
1.015505912887522
 40
1.015505912887522
 10
783.9348290249969
 20
192.8592892461574
 30
0.0
 10
783.9494134614083
 20
192.8404702999396
 30
0.0
 10
783.9722093598456
 20
192.7943091834766
 30
0.0
 10
783.977829338017
 20
192.713397456786
 30
0.0
 10
783.9579877386149
 20
192.6254017904308
 30
0.0
 10
783.9175655873811
 20
192.5343946760806
 30
0.0
 10
783.862204629705
 20
192.4438254232159
 30
0.0
 10
783.7987375191732
 20
192.3587640903727
 30
0.0
 10
783.7325031326456
 20
192.2830245221055
 30
0.0
 10
783.6670856399409
 20
192.2200577170563
 30
0.0
 10
783.6028405966039
 20
192.1717585203388
 30
0.0
 10
783.5395036862355
 20
192.1409943069366
 30
0.0
 10
783.4759523339561
 20
192.1329557702479
 30
0.0
 10
783.437535446135
 20
192.1467261404244
 30
0.0
 10
783.4211538975099
 20
192.1566679106359
 30
0.0
 11
783.9348290249969
 21
192.8592892461574
 31
0.0
 11
783.9667705493277
 21
192.7954028961044
 31
0.0
 11
783.9739986340332
 21
192.7173533040712
 31
0.0
 11
783.9562925866414
 21
192.6302418021957
 31
0.0
 11
783.916653590075
 21
192.5375622450101
 31
0.0
 11
783.8610887331586
 21
192.4451610082234
 31
0.0
 11
783.7959542340143
 21
192.3574861174822
 31
0.0
 11
783.7292762935069
 21
192.2816429539542
 31
0.0
 11
783.6629562711051
 21
192.2188328661125
 31
0.0
 11
783.5985830520246
 21
192.1719865900824
 31
0.0
 11
783.5353619489012
 21
192.1435134591192
 31
0.0
 11
783.475444290326
 21
192.1377655663224
 31
0.0
 11
783.4211538975099
 21
192.1566679106359
 31
0.0
  0
SPLINE
  5
191
330
2
100
AcDbEntity
  8
0
  6
Continuous
 62
     7
370
    25
100
AcDbSpline
210
0.0
220
0.0
230
1.0
 70
     8
 71
     3
 72
    13
 73
     9
 74
     7
 42
0.0000000001
 43
0.0000000001
 44
0.0000000001
 12
-0.2090564587525931
 22
-0.9779035724721664
 32
0.0
 13
-0.852654865590636
 23
0.5224745737206879
 33
0.0
 40
0.0
 40
0.0
 40
0.0
 40
0.0
 40
0.0119480122795507
 40
0.0616138436425793
 40
0.1371942875080132
 40
0.252373478714307
 40
0.404833874639799
 40
0.5867225355638639
 40
0.5867225355638639
 40
0.5867225355638639
 40
0.5867225355638639
 10
779.5538052002187
 20
186.7907978509322
 30
0.0
 10
779.5529725971733
 20
186.7869031829681
 30
0.0
 10
779.5464662525248
 20
186.7672204052549
 30
0.0
 10
779.5057405293509
 20
186.7352609292445
 30
0.0
 10
779.4219682446782
 20
186.7489630889309
 30
0.0
 10
779.3147375453854
 20
186.7839992416738
 30
0.0
 10
779.1791732039349
 20
186.8504493807601
 30
0.0
 10
779.0828301337922
 20
186.9060910109496
 30
0.0
 10
779.0311340498813
 20
186.9377684111433
 30
0.0
 11
779.5538052002187
 21
186.7907978509322
 31
0.0
 11
779.550006097835
 21
186.7794699288584
 31
0.0
 11
779.5124172244734
 21
186.7470080834951
 31
0.0
 11
779.4368440529884
 21
186.7480565331127
 31
0.0
 11
779.326923215782
 21
186.7824608298613
 31
0.0
 11
779.1889807960107
 21
186.8473920330951
 31
0.0
 11
779.0311340498813
 21
186.9377684111433
 31
0.0
  0
SPLINE
  5
192
330
2
100
AcDbEntity
  8
0
  6
Continuous
 62
     7
370
    25
100
AcDbSpline
210
0.0
220
0.0
230
1.0
 70
     8
 71
     3
 72
    10
 73
     6
 74
     4
 42
0.0000000001
 43
0.0000000001
 44
0.0000000001
 12
0.6477828279472412
 22
0.7618250506623389
 32
0.0
 13
0.6490941118240166
 23
0.7607081135332995
 33
0.0
 40
0.0
 40
0.0
 40
0.0
 40
0.0
 40
0.0278386519191734
 40
0.1110092336429814
 40
0.1417038272033792
 40
0.1417038272033792
 40
0.1417038272033792
 40
0.1417038272033792
 10
783.3814963264313
 20
192.4940264678199
 30
0.0
 10
783.3875074599867
 20
192.5010958619561
 30
0.0
 10
783.4114441851173
 20
192.5293139676399
 30
0.0
 10
783.4420762288719
 20
192.5652694121994
 30
0.0
 10
783.466741782355
 20
192.5941172386608
 30
0.0
 10
783.4733830090033
 20
192.6019004474485
 30
0.0
 11
783.3814963264313
 21
192.4940264678199
 31
0.0
 11
783.3995168374051
 21
192.5152456036392
 31
0.0
 11
783.4534473473766
 21
192.5785610500839
 31
0.0
 11
783.4733830090033
 21
192.6019004474485
 31
0.0
  0
SPLINE
  5
193
330
2
100
AcDbEntity
  8
0
  6
Continuous
 62
     7
370
    25
100
AcDbSpline
210
0.0
220
0.0
230
1.0
 70
     8
 71
     3
 72
    16
 73
    12
 74
    10
 42
0.0000000001
 43
0.0000000001
 44
0.0000000001
 12
0.5393574466367496
 22
0.8420769233018358
 32
0.0
 13
-0.8526548685179356
 23
0.5224745689434673
 33
0.0
 40
0.0
 40
0.0
 40
0.0
 40
0.0
 40
0.0295293767700809
 40
0.1022704045388319
 40
0.2177575010728285
 40
0.3709389053682613
 40
0.5524863638464705
 40
0.7506729492514497
 40
0.9524818876077624
 40
1.144622508971416
 40
1.314540150691019
 40
1.314540150691019
 40
1.314540150691019
 40
1.314540150691019
 10
785.4888231876144
 20
194.794300182935
 30
0.0
 10
785.4941321506997
 20
194.8025888518475
 30
0.0
 10
785.5029799489475
 20
194.8379980282424
 30
0.0
 10
785.4628249306884
 20
194.9046496268031
 30
0.0
 10
785.4011122751087
 20
194.9972175809262
 30
0.0
 10
785.3008787976383
 20
195.1108488490711
 30
0.0
 10
785.1767316880863
 20
195.2373596296514
 30
0.0
 10
785.0335121540825
 20
195.3683314965067
 30
0.0
 10
784.8819196270891
 20
195.4947836711403
 30
0.0
 10
784.731917144917
 20
195.608166743575
 30
0.0
 10
784.6316760313551
 20
195.6755681521919
 30
0.0
 10
784.5833823298687
 20
195.705160701063
 30
0.0
 11
785.4888231876144
 21
194.794300182935
 31
0.0
 11
785.4969316438374
 21
194.822694496276
 31
0.0
 11
785.4708098471621
 21
194.8905834413209
 31
0.0
 11
785.4058470381998
 21
194.9860669630279
 31
0.0
 11
785.306470327835
 21
195.1026380231543
 31
0.0
 11
785.1794520725494
 21
195.2323524884391
 31
0.0
 11
785.0334483592752
 21
195.3663705407478
 31
0.0
 11
784.8784090958717
 21
195.4955590634725
 31
0.0
 11
784.7248999542746
 21
195.6111140799112
 31
0.0
 11
784.5833823298687
 21
195.705160701063
 31
0.0
  0
SPLINE
  5
194
330
2
100
AcDbEntity
  8
0
  6
Continuous
 62
     7
370
    25
100
AcDbSpline
210
0.0
220
0.0
230
1.0
 70
     8
 71
     3
 72
    18
 73
    14
 74
    12
 42
0.0000000001
 43
0.0000000001
 44
0.0000000001
 12
0.7217724593546493
 22
0.6921304190086876
 32
0.0
 13
-0.8526548685302147
 23
0.5224745689234286
 33
0.0
 40
0.0
 40
0.0
 40
0.0
 40
0.0
 40
0.0078193271582768
 40
0.0639307227269282
 40
0.1606038116886034
 40
0.3002707783748767
 40
0.4780894247059073
 40
0.6861386071118912
 40
0.9145930724335833
 40
1.152450744845284
 40
1.38818467066007
 40
1.610385678925742
 40
1.808406161809859
 40
1.808406161809859
 40
1.808406161809859
 40
1.808406161809859
 10
785.7108961236037
 20
194.6056499578486
 30
0.0
 10
785.712777381935
 20
194.6074539559094
 30
0.0
 10
785.7267211748424
 20
194.6241615223706
 30
0.0
 10
785.7141617029297
 20
194.6851950331162
 30
0.0
 10
785.6703623240085
 20
194.7677416630599
 30
0.0
 10
785.5888988669501
 20
194.8820042224704
 30
0.0
 10
785.4753779075879
 20
195.0145922920385
 30
0.0
 10
785.3333929417112
 20
195.1626254135906
 30
0.0
 10
785.1703191674141
 20
195.317327924404
 30
0.0
 10
784.9940420411696
 20
195.4713689538336
 30
0.0
 10
784.8133928164409
 20
195.6169251982945
 30
0.0
 10
784.6373993984292
 20
195.7467837602106
 30
0.0
 10
784.5206085338483
 20
195.8242955587544
 30
0.0
 10
784.464327490915
 20
195.8587824475654
 30
0.0
 11
785.7108961236037
 21
194.6056499578486
 31
0.0
 11
785.7159049117577
 21
194.6116544493705
 31
0.0
 11
785.7158589292236
 21
194.6677658260981
 31
0.0
 11
785.674945591493
 21
194.7553545521143
 31
0.0
 11
785.595216465709
 21
194.8700285600022
 31
0.0
 11
785.4806695021173
 21
195.0060376189464
 31
0.0
 11
785.3370485656876
 21
195.1565616665895
 31
0.0
 11
785.1715554059967
 21
195.3140527991048
 31
0.0
 11
784.9924885450298
 21
195.4706137509049
 31
0.0
 11
784.8088271432913
 21
195.6183939027911
 31
0.0
 11
784.6297807455796
 21
195.7499829431431
 31
0.0
 11
784.464327490915
 21
195.8587824475654
 31
0.0
  0
SPLINE
  5
195
330
2
100
AcDbEntity
  8
0
  6
Continuous
 62
     7
370
    25
100
AcDbSpline
210
0.0
220
0.0
230
1.0
 70
     8
 71
     3
 72
    18
 73
    14
 74
    12
 42
0.0000000001
 43
0.0000000001
 44
0.0000000001
 12
0.6051282550325159
 22
0.7961280016186484
 32
0.0
 13
-0.8526548684658536
 23
0.5224745690284628
 33
0.0
 40
0.0
 40
0.0
 40
0.0
 40
0.0
 40
0.0597307067998914
 40
0.16882302000122
 40
0.3327081896900061
 40
0.5481765019376626
 40
0.8074492164309235
 40
1.100109115013221
 40
1.413992438715294
 40
1.735885699657788
 40
2.05218755232811
 40
2.349566977901536
 40
2.615623609780716
 40
2.615623609780716
 40
2.615623609780716
 40
2.615623609780716
 10
782.3915147977364
 20
189.975147257887
 30
0.0
 10
782.4035630438623
 20
189.9909983539669
 30
0.0
 10
782.4108354314012
 20
190.0526892846566
 30
0.0
 10
782.3631270928079
 20
190.1543878354337
 30
0.0
 10
782.2773781228948
 20
190.2926176964051
 30
0.0
 10
782.1444578684634
 20
190.4595790643566
 30
0.0
 10
781.9734638337113
 20
190.6498231998242
 30
0.0
 10
781.7697498692629
 20
190.8544615702033
 30
0.0
 10
781.5425807213553
 20
191.0647248337247
 30
0.0
 10
781.3016087181844
 20
191.2713613972167
 30
0.0
 10
781.0573658509883
 20
191.4653999306624
 30
0.0
 10
780.8205018868421
 20
191.638416141678
 30
0.0
 10
780.6636691431905
 20
191.7419574393774
 30
0.0
 10
780.5880509823707
 20
191.7882933807368
 30
0.0
 11
782.3915147977364
 21
189.975147257887
 31
0.0
 11
782.4047683691977
 21
190.0333889970294
 31
0.0
 11
782.3695819267951
 21
190.1366510281477
 31
0.0
 11
782.2841271171612
 21
190.2764931689864
 31
0.0
 11
782.1521387292716
 21
190.4468036473639
 31
0.0
 11
781.979385289054
 21
190.6401390796407
 31
0.0
 11
781.7734169489474
 21
190.8480497794903
 31
0.0
 11
781.5432355164996
 21
191.0614490509383
 31
0.0
 11
781.2989010211719
 21
191.2710103208169
 31
0.0
 11
781.0510920549656
 21
191.4675747587768
 31
0.0
 11
780.8106390582004
 21
191.6425515546698
 31
0.0
 11
780.5880509823707
 21
191.7882933807368
 31
0.0
  0
SPLINE
  5
196
330
2
100
AcDbEntity
  8
0
  6
Continuous
 62
     7
370
    25
100
AcDbSpline
210
0.0
220
0.0
230
1.0
 70
     8
 71
     3
 72
    10
 73
     6
 74
     4
 42
0.0000000001
 43
0.0000000001
 44
0.0000000001
 12
0.8732276254399817
 22
-0.4873125425929965
 32
0.0
 13
0.8978549919648306
 23
0.4402912824526893
 33
0.0
 40
0.0
 40
0.0
 40
0.0
 40
0.0
 40
0.0538038665195567
 40
0.1347013073014416
 40
0.1802759588557032
 40
0.1802759588557032
 40
0.1802759588557032
 40
0.1802759588557032
 10
783.4153952846933
 20
192.7949204974756
 30
0.0
 10
783.4310562922268
 20
192.7861807311439
 30
0.0
 10
783.4713448422714
 20
192.7650469473917
 30
0.0
 10
783.5248195092732
 20
192.7444010906481
 30
0.0
 10
783.5704753674018
 20
192.7314870114524
 30
0.0
 10
783.5841151768702
 20
192.7381757187125
 30
0.0
 11
783.4153952846933
 21
192.7949204974756
 31
0.0
 11
783.4631882215695
 21
192.7702083296792
 31
0.0
 11
783.5386280052589
 21
192.740998143751
 31
0.0
 11
783.5841151768702
 21
192.7381757187125
 31
0.0
  0
SPLINE
  5
197
330
2
100
AcDbEntity
  8
0
  6
Continuous
 62
     7
370
    25
100
AcDbSpline
210
0.0
220
0.0
230
1.0
 70
     8
 71
     3
 72
    11
 73
     7
 74
     5
 42
0.0000000001
 43
0.0000000001
 44
0.0000000001
 12
0.7217724598642608
 22
0.6921304184772509
 32
0.0
 13
0.8526548693793223
 23
-0.5224745675377233
 33
0.0
 40
0.0
 40
0.0
 40
0.0
 40
0.0
 40
0.0410930054337538
 40
0.1258924183482071
 40
0.2562885725671029
 40
0.4290707772585389
 40
0.4290707772585389
 40
0.4290707772585389
 40
0.4290707772585389
 10
782.9282645050331
 20
194.7019197044501
 30
0.0
 10
782.9381511049048
 20
194.7114002774659
 30
0.0
 10
782.980756642716
 20
194.7269808332981
 30
0.0
 10
783.0653934269728
 20
194.7003875586231
 30
0.0
 10
783.1832491721445
 20
194.6504185815048
 30
0.0
 10
783.2711771049007
 20
194.5991617847049
 30
0.0
 10
783.3202849676248
 20
194.5690703488135
 30
0.0
 11
782.9282645050331
 21
194.7019197044501
 31
0.0
 11
782.9658553364307
 21
194.7185198397029
 31
0.0
 11
783.0494510050526
 21
194.7042824024935
 31
0.0
 11
783.1696025135936
 21
194.6536190821285
 31
0.0
 11
783.3202849676248
 21
194.5690703488135
 31
0.0
  0
SPLINE
  5
198
330
2
100
AcDbEntity
  8
0
  6
Continuous
 62
     7
370
    25
100
AcDbSpline
210
0.0
220
0.0
230
1.0
 70
     8
 71
     3
 72
    12
 73
     8
 74
     6
 42
0.0000000001
 43
0.0000000001
 44
0.0000000001
 12
0.6051282559960846
 22
0.7961280008862504
 32
0.0
 13
0.8526548681690409
 23
-0.5224745695128478
 33
0.0
 40
0.0
 40
0.0
 40
0.0
 40
0.0
 40
0.005172373323425
 40
0.0753170037959038
 40
0.1940759050946996
 40
0.3675795424936084
 40
0.5915287741126793
 40
0.5915287741126793
 40
0.5915287741126793
 40
0.5915287741126793
 10
780.9283710141507
 20
193.0064679504279
 30
0.0
 10
780.9294143305668
 20
193.0078405741724
 30
0.0
 10
780.9459088889735
 20
193.0270056903837
 30
0.0
 10
781.0197362490343
 20
193.0338778589781
 30
0.0
 10
781.1324632443103
 20
192.9993655313603
 30
0.0
 10
781.2911320493023
 20
192.9279652027199
 30
0.0
 10
781.4054815237287
 20
192.8616459830587
 30
0.0
 10
781.4691319912497
 20
192.8226433902644
 30
0.0
 11
780.9283710141507
 21
193.0064679504279
 31
0.0
 11
780.9317371806457
 21
193.0103950828326
 31
0.0
 11
780.9994367349592
 21
193.0287537192167
 31
0.0
 11
781.1152573132745
 21
193.0024997618695
 31
0.0
 11
781.2741370012042
 21
192.9327806328298
 31
0.0
 11
781.4691319912497
 21
192.8226433902644
 31
0.0
  0
SPLINE
  5
199
330
2
100
AcDbEntity
  8
0
  6
Continuous
 62
     7
370
    25
100
AcDbSpline
210
0.0
220
0.0
230
1.0
 70
     8
 71
     3
 72
    16
 73
    12
 74
    10
 42
0.0000000001
 43
0.0000000001
 44
0.0000000001
 12
0.852654868300544
 22
-0.5224745692982409
 32
0.0
 13
-0.2779604537810687
 23
-0.9605925182583002
 33
0.0
 40
0.0
 40
0.0
 40
0.0
 40
0.0
 40
0.0927243800650993
 40
0.1996144546047941
 40
0.3253965190954036
 40
0.4723667234458184
 40
0.640457788587166
 40
0.8287675940055413
 40
1.036595658096119
 40
1.26001253352482
 40
1.482625266499796
 40
1.482625266499796
 40
1.482625266499796
 40
1.482625266499796
 10
789.7073214696257
 20
201.6715401001577
 30
0.0
 10
789.7336754343166
 20
201.6553913899784
 30
0.0
 10
789.7859002302975
 20
201.6130705581673
 30
0.0
 10
789.854927920118
 20
201.5286956329855
 30
0.0
 10
789.9179104399081
 20
201.4183473395478
 30
0.0
 10
789.9721427684515
 20
201.2813215386538
 30
0.0
 10
790.0142485305005
 20
201.1184991239765
 30
0.0
 10
790.0405355164998
 20
200.931886860536
 30
0.0
 10
790.046833851747
 20
200.7250345373677
 30
0.0
 10
790.0287478606093
 20
200.5073614319945
 30
0.0
 10
789.9980647306188
 20
200.3613258474153
 30
0.0
 10
789.9774388851938
 20
200.2900458054937
 30
0.0
 11
789.7073214696257
 21
201.6715401001577
 31
0.0
 11
789.7800622627266
 21
201.6140371639064
 31
0.0
 11
789.8486499178795
 21
201.5320541071463
 31
0.0
 11
789.9119080537966
 21
201.4233364177494
 31
0.0
 11
789.9668451950276
 21
201.2870200523336
 31
0.0
 11
790.0096193859329
 21
201.1244624478583
 31
0.0
 11
790.0363657153709
 21
200.9380617593448
 31
0.0
 11
790.0428867772594
 21
200.7303360267658
 31
0.0
 11
790.0241226264207
 21
200.5077085197735
 31
0.0
 11
789.9774388851938
 21
200.2900458054937
 31
0.0
  0
SPLINE
  5
19A
330
2
100
AcDbEntity
  8
0
  6
Continuous
 62
     7
370
    25
100
AcDbSpline
210
0.0
220
0.0
230
1.0
 70
     8
 71
     3
 72
    12
 73
     8
 74
     6
 42
0.0000000001
 43
0.0000000001
 44
0.0000000001
 12
0.6051282559960846
 22
0.7961280008862504
 32
0.0
 13
0.8526548681690409
 23
-0.5224745695128478
 33
0.0
 40
0.0
 40
0.0
 40
0.0
 40
0.0
 40
0.0051723750208287
 40
0.0753170054927738
 40
0.1940759089720429
 40
0.3675795443239642
 40
0.5915287759413569
 40
0.5915287759413569
 40
0.5915287759413569
 40
0.5915287759413569
 10
777.7968856473651
 20
189.3302430690088
 30
0.0
 10
777.7979289641237
 20
189.3316156932039
 30
0.0
 10
777.8144235142693
 20
189.3507808173138
 30
0.0
 10
777.8882508885183
 20
189.3576529750094
 30
0.0
 10
778.0009778759058
 20
189.3231406554102
 30
0.0
 10
778.1596466840656
 20
189.251740321688
 30
0.0
 10
778.2739961569424
 20
189.1854211038749
 30
0.0
 10
778.3376466244629
 20
189.1464185110809
 30
0.0
 11
777.7968856473651
 21
189.3302430690088
 31
0.0
 11
777.8002518138607
 21
189.3341702036487
 31
0.0
 11
777.8679513681736
 21
189.3525288400328
 31
0.0
 11
777.9837719487248
 21
189.3262748826855
 31
0.0
 11
778.1426516344188
 21
189.2565557536455
 31
0.0
 11
778.3376466244629
 21
189.1464185110809
 31
0.0
  0
SPLINE
  5
19B
330
2
100
AcDbEntity
  8
0
  6
Continuous
 62
     7
370
    25
100
AcDbSpline
210
0.0
220
0.0
230
1.0
 70
     8
 71
     3
 72
    13
 73
     9
 74
     7
 42
0.0000000001
 43
0.0000000001
 44
0.0000000001
 12
0.6494678921309987
 22
0.7603890169452198
 32
0.0
 13
0.8526548693411005
 23
-0.5224745676000996
 33
0.0
 40
0.0
 40
0.0
 40
0.0
 40
0.0
 40
0.0318725265918883
 40
0.1964314585489048
 40
0.3343036340837252
 40
0.4549656754776509
 40
0.5690123307194279
 40
0.6863238372001815
 40
0.6863238372001815
 40
0.6863238372001815
 40
0.6863238372001815
 10
788.7799697733043
 20
201.4914782712041
 30
0.0
 10
788.7868698341917
 20
201.4995567775917
 30
0.0
 10
788.8302480298363
 20
201.5485816561915
 30
0.0
 10
788.9139211448484
 20
201.6239022900225
 30
0.0
 10
789.0412039962625
 20
201.6888795549171
 30
0.0
 10
789.165739468339
 20
201.7097761981694
 30
0.0
 10
789.2834914470358
 20
201.6919818277423
 30
0.0
 10
789.3543163719438
 20
201.6589853069755
 30
0.0
 10
789.3876584476872
 20
201.6385545474345
 30
0.0
 11
788.7799697733043
 21
201.4914782712041
 31
0.0
 11
788.8010990831405
 21
201.5153405891383
 31
0.0
 11
788.9251266609427
 21
201.6234923437767
 31
0.0
 11
789.0488380920552
 21
201.6843546358696
 31
0.0
 11
789.1679663372126
 21
201.7035324730538
 31
0.0
 11
789.2808040433632
 21
201.6869707206552
 31
0.0
 11
789.3876584476872
 21
201.6385545474345
 31
0.0
  0
SPLINE
  5
19C
330
2
100
AcDbEntity
  8
0
  6
Continuous
 62
     7
370
    25
100
AcDbSpline
210
0.0
220
0.0
230
1.0
 70
     8
 71
     3
 72
    11
 73
     7
 74
     5
 42
0.0000000001
 43
0.0000000001
 44
0.0000000001
 12
0.7217724572110394
 22
0.6921304212441024
 32
0.0
 13
0.8526548683723632
 23
-0.522474569181035
 33
0.0
 40
0.0
 40
0.0
 40
0.0
 40
0.0
 40
0.0391516039228622
 40
0.1199447454219585
 40
0.2441804531520713
 40
0.4087997184678472
 40
0.4087997184678472
 40
0.4087997184678472
 40
0.4087997184678472
 10
789.803824278296
 20
202.6921599846442
 30
0.0
 10
789.8132437947517
 20
202.7011926566827
 30
0.0
 10
789.8538364724753
 20
202.716037124022
 30
0.0
 10
789.9344746689487
 20
202.6907002223935
 30
0.0
 10
790.0467624281057
 20
202.643091988509
 30
0.0
 10
790.1305362845025
 20
202.5942567699703
 30
0.0
 10
790.1773240905023
 20
202.5655869767287
 30
0.0
 11
789.803824278296
 21
202.6921599846442
 31
0.0
 11
789.8396391650595
 21
202.7079758619783
 31
0.0
 11
789.9192854319801
 21
202.6944110590343
 31
0.0
 11
790.0337604936569
 21
202.6461412824728
 31
0.0
 11
790.1773240905023
 21
202.5655869767287
 31
0.0
  0
SPLINE
  5
19D
330
2
100
AcDbEntity
  8
0
  6
Continuous
 62
     7
370
    25
100
AcDbSpline
210
0.0
220
0.0
230
1.0
 70
     8
 71
     3
 72
    18
 73
    14
 74
    12
 42
0.0000000001
 43
0.0000000001
 44
0.0000000001
 12
0.7217724595681272
 22
0.6921304187860669
 32
0.0
 13
-0.8526548686458449
 23
0.522474568734725
 33
0.0
 40
0.0
 40
0.0
 40
0.0
 40
0.0
 40
0.0082070639122152
 40
0.0671008418473467
 40
0.1685676362930269
 40
0.3151602381629621
 40
0.5017963378902151
 40
0.7201620101167757
 40
0.9599447936722203
 40
1.209597062163239
 40
1.457020275619401
 40
1.690239514925546
 40
1.898079195451088
 40
1.898079195451088
 40
1.898079195451088
 40
1.898079195451088
 10
784.6286669208331
 20
193.2537990576949
 30
0.0
 10
784.6306414650683
 20
193.2556925105557
 30
0.0
 10
784.6452766876068
 20
193.2732285502784
 30
0.0
 10
784.6320944266363
 20
193.3372885172046
 30
0.0
 10
784.5861231824923
 20
193.4239283675804
 30
0.0
 10
784.500620214179
 20
193.5438568395131
 30
0.0
 10
784.3814701170658
 20
193.6830195248022
 30
0.0
 10
784.2324445741105
 20
193.8383931312429
 30
0.0
 10
784.0612844974157
 20
194.0007668412973
 30
0.0
 10
783.8762663545272
 20
194.1624462666791
 30
0.0
 10
783.6866593189606
 20
194.3152201795496
 30
0.0
 10
783.5019389547798
 20
194.4515180102678
 30
0.0
 10
783.3793568061241
 20
194.5328733663306
 30
0.0
 10
783.3202849676248
 20
194.5690703488135
 30
0.0
 11
784.6286669208331
 21
193.2537990576949
 31
0.0
 11
784.6339240799399
 21
193.2601012935033
 31
0.0
 11
784.6338758152666
 21
193.3189950516615
 31
0.0
 11
784.5909337183727
 21
193.4109270193846
 31
0.0
 11
784.5072510825888
 21
193.5312873425449
 31
0.0
 11
784.3870241047548
 21
193.6740406525671
 31
0.0
 11
784.2362814679625
 21
193.8320287035705
 31
0.0
 11
784.062582037461
 21
193.9973293119573
 31
0.0
 11
783.8746358266122
 21
194.1616536162775
 31
0.0
 11
783.6818672477614
 21
194.3167617126645
 31
0.0
 11
783.4939425171858
 21
194.454875829324
 31
0.0
 11
783.3202849676248
 21
194.5690703488135
 31
0.0
  0
SPLINE
  5
19E
330
2
100
AcDbEntity
  8
0
  6
Continuous
 62
     7
370
    25
100
AcDbSpline
210
0.0
220
0.0
230
1.0
 70
     8
 71
     3
 72
    18
 73
    14
 74
    12
 42
0.0000000001
 43
0.0000000001
 44
0.0000000001
 12
0.6051282550325159
 22
0.7961280016186484
 32
0.0
 13
-0.8526548684658536
 23
0.5224745690284628
 33
0.0
 40
0.0
 40
0.0
 40
0.0
 40
0.0
 40
0.0597307089792734
 40
0.1688230207861311
 40
0.332708189308589
 40
0.5481765033232034
 40
0.8074492178174216
 40
1.100109116399657
 40
1.413992441740673
 40
1.735885700987018
 40
2.05218755365595
 40
2.349566977915181
 40
2.615623609793268
 40
2.615623609793268
 40
2.615623609793268
 40
2.615623609793268
 10
783.2725958066157
 20
191.009497267415
 30
0.0
 10
783.2846440531812
 20
191.0253483640733
 30
0.0
 10
783.2919164406135
 20
191.0870392955198
 30
0.0
 10
783.2442080977158
 20
191.1887378442385
 30
0.0
 10
783.1584591323252
 20
191.326967707261
 30
0.0
 10
783.02553887773
 20
191.4939290758043
 30
0.0
 10
782.8545448425013
 20
191.6841732114491
 30
0.0
 10
782.6508308781734
 20
191.888811582823
 30
0.0
 10
782.4236617281287
 20
192.0990748439701
 30
0.0
 10
782.1826897269496
 20
192.305711409683
 30
0.0
 10
781.9384468605302
 20
192.4997499426189
 30
0.0
 10
781.701582895017
 20
192.6727661509769
 30
0.0
 10
781.5447501520692
 20
192.7763074489052
 30
0.0
 10
781.4691319912497
 20
192.8226433902644
 30
0.0
 11
783.2725958066157
 21
191.009497267415
 31
0.0
 11
783.2858493780763
 21
191.0677390087927
 31
0.0
 11
783.2506629334385
 21
191.1710010376761
 31
0.0
 11
783.1652081260406
 21
191.3108431785143
 31
0.0
 11
783.0332197381505
 21
191.4811536591268
 31
0.0
 11
782.8604662979318
 21
191.674489091404
 31
0.0
 11
782.654497957825
 21
191.8823997912533
 31
0.0
 11
782.4243165231425
 21
192.0957990627016
 31
0.0
 11
782.1799820300491
 21
192.3053603325799
 31
0.0
 11
781.9321730638446
 21
192.5019247705397
 31
0.0
 11
781.691720067078
 21
192.6769015641973
 31
0.0
 11
781.4691319912497
 21
192.8226433902644
 31
0.0
  0
SPLINE
  5
19F
330
2
100
AcDbEntity
  8
0
  6
Continuous
 62
     7
370
    25
100
AcDbSpline
210
0.0
220
0.0
230
1.0
 70
     8
 71
     3
 72
    15
 73
    11
 74
     9
 42
0.0000000001
 43
0.0000000001
 44
0.0000000001
 12
0.8526548687041486
 22
-0.5224745686395761
 32
0.0
 13
-0.1095295769127357
 23
-0.9939835369770049
 33
0.0
 40
0.0
 40
0.0
 40
0.0
 40
0.0
 40
0.1286591644162438
 40
0.2756264522276648
 40
0.4476964436486767
 40
0.6496511342595519
 40
0.8827276356121615
 40
1.146749015984323
 40
1.440726842986491
 40
1.754463722243159
 40
1.754463722243159
 40
1.754463722243159
 40
1.754463722243159
 10
789.3876584476872
 20
201.6385545474345
 30
0.0
 10
789.4242257353348
 20
201.6161475002912
 30
0.0
 10
789.4966783794423
 20
201.5582702969264
 30
0.0
 10
789.5933904512352
 20
201.4436955473631
 30
0.0
 10
789.682874175194
 20
201.2940876962633
 30
0.0
 10
789.7619016782101
 20
201.1071786787964
 30
0.0
 10
789.8259017641887
 20
200.8825747331331
 30
0.0
 10
789.8694220546931
 20
200.6219609881321
 30
0.0
 10
789.8861732915251
 20
200.3313301944761
 30
0.0
 10
789.8756600847982
 20
200.1285094886337
 30
0.0
 10
789.8642055955826
 20
200.0245597243258
 30
0.0
 11
789.3876584476872
 21
201.6385545474345
 31
0.0
 11
789.4890525288726
 21
201.559355930724
 31
0.0
 11
789.5849709020336
 21
201.4480049119734
 31
0.0
 11
789.6744494203582
 21
201.3010298232473
 31
0.0
 11
789.754229801513
 21
201.1155014215333
 31
0.0
 11
789.8190756156362
 21
200.891627180332
 31
0.0
 11
789.8633019980998
 21
200.6313363499368
 31
0.0
 11
789.8806007384076
 21
200.3378679251401
 31
0.0
 11
789.8642055955826
 21
200.0245597243258
 31
0.0
  0
SPLINE
  5
1A0
330
2
100
AcDbEntity
  8
0
  6
Continuous
 62
     7
370
    25
100
AcDbSpline
210
0.0
220
0.0
230
1.0
 70
     8
 71
     3
 72
     9
 73
     5
 74
     3
 42
0.0000000001
 43
0.0000000001
 44
0.0000000001
 12
0.6471537650326164
 22
-0.7623594981398929
 32
0.0
 13
0.5655154566843536
 23
-0.8247376966351708
 33
0.0
 40
0.0
 40
0.0
 40
0.0
 40
0.0
 40
0.0942442374979542
 40
0.1767421477967924
 40
0.1767421477967924
 40
0.1767421477967924
 40
0.1767421477967924
 10
786.8265002375285
 20
196.4584284118984
 30
0.0
 10
786.8468304085717
 20
196.4344790820312
 30
0.0
 10
786.8841352242106
 20
196.3888577810169
 30
0.0
 10
786.919180628368
 20
196.3414519898703
 30
0.0
 10
786.9347319095075
 20
196.318772277698
 30
0.0
 11
786.8265002375285
 21
196.4584284118984
 31
0.0
 11
786.8859720832262
 21
196.3853183861094
 31
0.0
 11
786.9347319095075
 21
196.318772277698
 31
0.0
  0
SPLINE
  5
1A1
330
2
100
AcDbEntity
  8
0
  6
Continuous
 62
     7
370
    25
100
AcDbSpline
210
0.0
220
0.0
230
1.0
 70
     8
 71
     3
 72
    18
 73
    14
 74
    12
 42
0.0000000001
 43
0.0000000001
 44
0.0000000001
 12
0.6051282550325159
 22
0.7961280016186484
 32
0.0
 13
-0.8526548684658536
 23
0.5224745690284628
 33
0.0
 40
0.0
 40
0.0
 40
0.0
 40
0.0
 40
0.0597307089793817
 40
0.1688230207861464
 40
0.3327081893094531
 40
0.5481765033234182
 40
0.8074492178169911
 40
1.100109116399608
 40
1.413992438582511
 40
1.735885700980222
 40
2.052187553648424
 40
2.349566977908073
 40
2.615623609787534
 40
2.615623609787534
 40
2.615623609787534
 40
2.615623609787534
 10
780.1411104398305
 20
187.333272388231
 30
0.0
 10
780.153158686396
 20
187.3491234848893
 30
0.0
 10
780.1604310738285
 20
187.4108144163359
 30
0.0
 10
780.1127227309288
 20
187.5125129650544
 30
0.0
 10
780.0269737655383
 20
187.650742828076
 30
0.0
 10
779.8940535109466
 20
187.8177041966233
 30
0.0
 10
779.723059475704
 20
188.0079483322519
 30
0.0
 10
779.5193455121834
 20
188.2125867029503
 30
0.0
 10
779.29217636192
 20
188.4228499638509
 30
0.0
 10
779.0512043610415
 20
188.6294865299085
 30
0.0
 10
778.8069614937314
 20
188.8235250634194
 30
0.0
 10
778.5700975282346
 20
188.9965412717972
 30
0.0
 10
778.4132647852827
 20
189.1000825697214
 30
0.0
 10
778.3376466244629
 20
189.1464185110809
 30
0.0
 11
780.1411104398305
 21
187.333272388231
 31
0.0
 11
780.1543640112912
 21
187.3915141296088
 31
0.0
 11
780.1191775666526
 21
187.4947761584918
 31
0.0
 11
780.0337227592536
 21
187.6346182993304
 31
0.0
 11
779.9017343713646
 21
187.8049287799429
 31
0.0
 11
779.7289809311465
 21
187.9982642122198
 31
0.0
 11
779.5230125910394
 21
188.2061749120693
 31
0.0
 11
779.2928311585911
 21
188.4195741812823
 31
0.0
 11
779.0484966632632
 21
188.6291354533959
 31
0.0
 11
778.8006876970596
 21
188.8256998913557
 31
0.0
 11
778.5602347002925
 21
189.0006766850134
 31
0.0
 11
778.3376466244629
 21
189.1464185110809
 31
0.0
  0
SPLINE
  5
1A2
330
2
100
AcDbEntity
  8
0
  6
Continuous
 62
     7
370
    25
100
AcDbSpline
210
0.0
220
0.0
230
1.0
 70
     8
 71
     3
 72
    19
 73
    15
 74
    13
 42
0.0000000001
 43
0.0000000001
 44
0.0000000001
 12
-0.6125651882788837
 22
0.7904200719293862
 32
0.0
 13
0.851764968415139
 23
-0.5239240771149552
 33
0.0
 40
0.0
 40
0.0
 40
0.0
 40
0.0
 40
0.0781790343101989
 40
0.1718092946857527
 40
0.2762795356318829
 40
0.3875854923265798
 40
0.4992899056410561
 40
0.6082572461819548
 40
0.7097492606512546
 40
0.8068777947987509
 40
0.9001610310768535
 40
0.9913009077520394
 40
1.076918665809795
 40
1.154329167012082
 40
1.154329167012082
 40
1.154329167012082
 40
1.154329167012082
 10
783.3736309303259
 20
192.2004675844792
 30
0.0
 10
783.357667678702
 20
192.2210656771201
 30
0.0
 10
783.3300885874883
 20
192.2721636201823
 30
0.0
 10
783.3051158147086
 20
192.3613469753298
 30
0.0
 10
783.295957044042
 20
192.4646550068386
 30
0.0
 10
783.3061219193023
 20
192.5739845344891
 30
0.0
 10
783.3379833631844
 20
192.6808090579859
 30
0.0
 10
783.3911355433149
 20
192.7752693609664
 30
0.0
 10
783.4617729486313
 20
192.850918709923
 30
0.0
 10
783.543732844635
 20
192.9049798902255
 30
0.0
 10
783.6324300774738
 20
192.9379385345704
 30
0.0
 10
783.7224703393582
 20
192.9498517060874
 30
0.0
 10
783.8075361305997
 20
192.9408725674211
 30
0.0
 10
783.8589858038458
 20
192.9205010630915
 30
0.0
 10
783.8809643215496
 20
192.9069819879577
 30
0.0
 11
783.3736309303259
 21
192.2004675844792
 31
0.0
 11
783.3350637255704
 21
192.2684714970359
 31
0.0
 11
783.308785730883
 21
192.3583385802934
 31
0.0
 11
783.2992266164476
 21
192.4623705685208
 31
0.0
 11
783.3097169219087
 21
192.5731810801479
 31
0.0
 11
783.3421482389101
 21
192.6800739500293
 31
0.0
 11
783.3960171601796
 21
192.7747947007961
 31
0.0
 11
783.4654265396726
 21
192.8488417604232
 31
0.0
 11
783.5465095797415
 21
192.9023159856054
 31
0.0
 11
783.6339735704225
 21
192.9347476445926
 31
0.0
 11
783.7243703871384
 21
192.9463619740184
 31
0.0
 11
783.8094243427101
 21
192.9365525328298
 31
0.0
 11
783.8809643215496
 21
192.9069819879577
 31
0.0
  0
SPLINE
  5
1A3
330
2
100
AcDbEntity
  8
0
  6
Continuous
 62
     7
370
    25
100
AcDbSpline
210
0.0
220
0.0
230
1.0
 70
     8
 71
     3
 72
    11
 73
     7
 74
     5
 42
0.0000000001
 43
0.0000000001
 44
0.0000000001
 12
0.8684318200751814
 22
-0.4958086060980666
 32
0.0
 13
0.7217724593320884
 23
0.6921304190322147
 33
0.0
 40
0.0
 40
0.0
 40
0.0
 40
0.0
 40
0.0863586058174658
 40
0.2105943135476116
 40
0.2913874550466006
 40
0.3305390589694628
 40
0.3305390589694628
 40
0.3305390589694628
 40
0.3305390589694628
 10
785.404701455731
 20
194.692195900479
 30
0.0
 10
785.4297003094741
 20
194.6779234538207
 30
0.0
 10
785.4918478220127
 20
194.6446531823188
 30
0.0
 10
785.5802225483783
 20
194.6071068018811
 30
0.0
 10
785.6608863860121
 20
194.5817731276492
 30
0.0
 10
785.7014766071204
 20
194.5966172858389
 30
0.0
 10
785.7108961236037
 20
194.6056499578486
 30
0.0
 11
785.404701455731
 21
194.692195900479
 31
0.0
 11
785.480959908243
 21
194.6516686600201
 31
0.0
 11
785.5954349699198
 21
194.6033988834585
 31
0.0
 11
785.6750812368402
 21
194.5898340805145
 31
0.0
 11
785.7108961236037
 21
194.6056499578486
 31
0.0
  0
SPLINE
  5
1A4
330
2
100
AcDbEntity
  8
0
  6
Continuous
 62
     7
370
    25
100
AcDbSpline
210
0.0
220
0.0
230
1.0
 70
     8
 71
     3
 72
    12
 73
     8
 74
     6
 42
0.0000000001
 43
0.0000000001
 44
0.0000000001
 12
-0.6235931312429123
 22
0.7817490688620359
 32
0.0
 13
0.7217724596876021
 23
0.6921304186614753
 33
0.0
 40
0.0
 40
0.0
 40
0.0
 40
0.0
 40
0.0304866691539543
 40
0.1701536358405543
 40
0.2668267248015579
 40
0.3229381203727521
 40
0.3307574489623453
 40
0.3307574489623453
 40
0.3307574489623453
 40
0.3307574489623453
 10
784.225315024668
 20
195.6969829402282
 30
0.0
 10
784.2189779321751
 20
195.7049272486361
 30
0.0
 10
784.1840636203774
 20
195.7494909006129
 30
0.0
 10
784.1313007297408
 20
195.8233076624044
 30
0.0
 10
784.087570052806
 20
195.9058046318557
 30
0.0
 10
784.0750024089904
 20
195.9668440482322
 30
0.0
 10
784.0889464200329
 20
195.9835514570906
 30
0.0
 10
784.0908276787092
 20
195.9853554554808
 30
0.0
 11
784.225315024668
 21
195.6969829402282
 31
0.0
 11
784.206507336604
 21
195.7209768533269
 31
0.0
 11
784.12677821082
 21
195.8356508612152
 31
0.0
 11
784.0858648730902
 21
195.923239587231
 31
0.0
 11
784.0858188883203
 21
195.9793509639593
 31
0.0
 11
784.0908276787092
 21
195.9853554554808
 31
0.0
  0
SPLINE
  5
1A5
330
2
100
AcDbEntity
  8
0
  6
Continuous
 62
     7
370
    25
100
AcDbSpline
210
0.0
220
0.0
230
1.0
 70
     8
 71
     3
 72
     9
 73
     5
 74
     3
 42
0.0000000001
 43
0.0000000001
 44
0.0000000001
 12
0.4107658119563176
 22
0.9117408884808595
 32
0.0
 13
0.6492870851028326
 23
0.7605434117252396
 33
0.0
 40
0.0
 40
0.0
 40
0.0
 40
0.0
 40
0.1669556091318813
 40
0.3477931737595576
 40
0.3477931737595576
 40
0.3477931737595576
 40
0.3477931737595576
 10
788.9950170197132
 20
201.6615874832328
 30
0.0
 10
789.0178769051618
 20
201.7123275683684
 30
0.0
 10
789.0709507557025
 20
201.8156410476258
 30
0.0
 10
789.1375366585748
 20
201.9113431459696
 30
0.0
 10
789.1766751569796
 20
201.9571880854263
 30
0.0
 11
788.9950170197132
 21
201.6615874832328
 31
0.0
 11
789.071946076929
 21
201.8097633772793
 31
0.0
 11
789.1766751569796
 21
201.9571880854263
 31
0.0
  0
SPLINE
  5
1A6
330
2
100
AcDbEntity
  8
0
  6
Continuous
 62
     7
370
    25
100
AcDbSpline
210
0.0
220
0.0
230
1.0
 70
     8
 71
     3
 72
    18
 73
    14
 74
    12
 42
0.0000000001
 43
0.0000000001
 44
0.0000000001
 12
0.7217724593546493
 22
0.6921304190086876
 32
0.0
 13
-0.8526548685302147
 23
0.5224745689234286
 33
0.0
 40
0.0
 40
0.0
 40
0.0
 40
0.0
 40
0.0078193285898916
 40
0.0639307241605171
 40
0.160603813122359
 40
0.3002707798081
 40
0.4780894261383628
 40
0.686138608545623
 40
0.9145930722473234
 40
1.152450744659554
 40
1.388184672215651
 40
1.610385680481389
 40
1.808406163365475
 40
1.808406163365475
 40
1.808406163365475
 40
1.808406163365475
 10
791.423892723191
 20
201.312454487012
 30
0.0
 10
791.4257739818666
 20
201.3142584854031
 30
0.0
 10
791.4397177813319
 20
201.3309660472009
 30
0.0
 10
791.4271582974913
 20
201.3919995650819
 30
0.0
 10
791.3833589260254
 20
201.4745461908709
 30
0.0
 10
791.301895465554
 20
201.5888087521607
 30
0.0
 10
791.1883745075865
 20
201.7213968210875
 30
0.0
 10
791.0463895412381
 20
201.8694299420831
 30
0.0
 10
790.8833157691948
 20
202.0241324542397
 30
0.0
 10
790.707038642757
 20
202.1781734836672
 30
0.0
 10
790.526389416217
 20
202.3237297267577
 30
0.0
 10
790.350395998085
 20
202.4535882894614
 30
0.0
 10
790.2336051334356
 20
202.5311000879177
 30
0.0
 10
790.1773240905023
 20
202.5655869767287
 30
0.0
 11
791.423892723191
 21
201.312454487012
 31
0.0
 11
791.4289015135802
 21
201.3184589785337
 31
0.0
 11
791.4288555288106
 21
201.3745703552614
 31
0.0
 11
791.3879421910795
 21
201.4621590812776
 31
0.0
 11
791.3082130652967
 21
201.5768330891656
 31
0.0
 11
791.1936661017059
 21
201.7128421481097
 31
0.0
 11
791.0500451652745
 21
201.8633661957528
 31
0.0
 11
790.8845520078195
 21
202.0208573282677
 31
0.0
 11
790.7054851468521
 21
202.1774182800681
 31
0.0
 11
790.5218237428786
 21
202.3251984319543
 31
0.0
 11
790.3427773451669
 21
202.4567874723064
 31
0.0
 11
790.1773240905023
 21
202.5655869767287
 31
0.0
  0
SPLINE
  5
1A7
330
2
100
AcDbEntity
  8
0
  6
Continuous
 62
     7
370
    25
100
AcDbSpline
210
0.0
220
0.0
230
1.0
 70
     8
 71
     3
 72
     8
 73
     4
 74
     2
 42
0.0000000001
 43
0.0000000001
 44
0.0000000001
 12
0.5741487262888107
 22
0.8187510244884805
 32
0.0
 13
0.5552793448690739
 23
0.8316639039670846
 33
0.0
 40
0.0
 40
0.0
 40
0.0
 40
0.0
 40
0.0187082088244223
 40
0.0187082088244223
 40
0.0187082088244223
 40
0.0187082088244223
 10
783.5916085708747
 20
192.7493670410089
 30
0.0
 10
783.5951890022973
 20
192.7544728293893
 30
0.0
 10
783.5987151210684
 20
192.7596172663203
 30
0.0
 10
783.602177881715
 20
192.7648035803161
 30
0.0
 11
783.5916085708747
 21
192.7493670410089
 31
0.0
 11
783.602177881715
 21
192.7648035803161
 31
0.0
  0
SPLINE
  5
1A8
330
2
100
AcDbEntity
  8
0
  6
Continuous
 62
     7
370
    25
100
AcDbSpline
210
0.0
220
0.0
230
1.0
 70
     8
 71
     3
 72
    10
 73
     6
 74
     4
 42
0.0000000001
 43
0.0000000001
 44
0.0000000001
 12
0.6490941109463339
 22
0.7607081142822052
 32
0.0
 13
0.5741486852074253
 23
0.8187510532967788
 33
0.0
 40
0.0
 40
0.0
 40
0.0
 40
0.0
 40
0.0535716231510481
 40
0.1340948048663511
 40
0.1890669546221772
 40
0.1890669546221772
 40
0.1890669546221772
 40
0.1890669546221772
 10
783.4733830090033
 20
192.6019004474485
 30
0.0
 10
783.4849740173703
 20
192.6154845702573
 30
0.0
 10
783.5139269234302
 20
192.6495372732451
 30
0.0
 10
783.5539950588424
 20
192.6981986421365
 30
0.0
 10
783.5810878417063
 20
192.7343642058374
 30
0.0
 10
783.5916085708747
 20
192.7493670410089
 30
0.0
 11
783.4733830090033
 21
192.6019004474485
 31
0.0
 11
783.5080223593843
 21
192.6427664995238
 31
0.0
 11
783.5588370698439
 21
192.7052312735526
 31
0.0
 11
783.5916085708747
 21
192.7493670410089
 31
0.0
  0
SPLINE
  5
1A9
330
2
100
AcDbEntity
  8
0
  6
Continuous
 62
     7
370
    25
100
AcDbSpline
210
0.0
220
0.0
230
1.0
 70
     8
 71
     3
 72
    19
 73
    15
 74
    13
 42
0.0000000001
 43
0.0000000001
 44
0.0000000001
 12
0.8526548678407346
 22
-0.5224745700486288
 32
0.0
 13
-0.2090564587779828
 23
-0.9779035724667384
 33
0.0
 40
0.0
 40
0.0
 40
0.0
 40
0.0
 40
0.2112752600241376
 40
0.4524447260167716
 40
0.7145773955319396
 40
0.9862435343703888
 40
1.255270707265301
 40
1.51188673865209
 40
1.749692771091096
 40
1.962420938769241
 40
2.14282925998444
 40
2.284666124778557
 40
2.385653262555397
 40
2.438540190519242
 40
2.438540190519242
 40
2.438540190519242
 40
2.438540190519242
 10
777.8405856581095
 20
188.4739858873431
 30
0.0
 10
777.9006339510807
 20
188.4371905704621
 30
0.0
 10
778.0269671318158
 20
188.3546901686127
 30
0.0
 10
778.220719605114
 20
188.2160473100407
 30
0.0
 10
778.4250876659888
 20
188.0579533888508
 30
0.0
 10
778.6310551265687
 20
187.8870178226031
 30
0.0
 10
778.8298103676337
 20
187.710507980538
 30
0.0
 10
779.0141755551611
 20
187.5349992399874
 30
0.0
 10
779.1785782137504
 20
187.3660232894531
 30
0.0
 10
779.3183377780458
 20
187.2086279855545
 30
0.0
 10
779.428376191434
 20
187.0684179356578
 30
0.0
 10
779.5064169886006
 20
186.9498773121478
 30
0.0
 10
779.5468580777958
 20
186.8606273139484
 30
0.0
 10
779.5574906515107
 20
186.8080372895297
 30
0.0
 10
779.5538052002187
 20
186.7907978509322
 30
0.0
 11
777.8405856581095
 21
188.4739858873431
 31
0.0
 11
778.0178227418875
 21
188.3589891411624
 31
0.0
 11
778.2141768162342
 21
188.2189613267305
 31
0.0
 11
778.4216521035958
 21
188.0587503983847
 31
0.0
 11
778.6307397547093
 21
187.8853005637258
 31
0.0
 11
778.8318312751068
 21
187.7065890079157
 31
0.0
 11
779.0175187940027
 21
187.5294677700842
 31
0.0
 11
779.1830306220848
 21
187.35871196834
 31
0.0
 11
779.3236759462802
 21
187.1991119492119
 31
0.0
 11
779.4341588938166
 21
187.0564911910196
 31
0.0
 11
779.5100029849524
 21
186.9366355693141
 31
0.0
 11
779.5489518881061
 21
186.8434616194167
 31
0.0
 11
779.5538052002187
 21
186.7907978509322
 31
0.0
  0
SPLINE
  5
1AA
330
2
100
AcDbEntity
  8
0
  6
Continuous
 62
     7
370
    25
100
AcDbSpline
210
0.0
220
0.0
230
1.0
 70
     8
 71
     3
 72
    18
 73
    14
 74
    12
 42
0.0000000001
 43
0.0000000001
 44
0.0000000001
 12
-0.8526548684658536
 22
0.5224745690284628
 32
0.0
 13
0.6051282550325159
 23
0.7961280016186484
 33
0.0
 40
0.0
 40
0.0
 40
0.0
 40
0.0
 40
0.2660566318775155
 40
0.5634360561370393
 40
0.8797379088062191
 40
1.20163116805289
 40
1.515514493393879
 40
1.808174391976417
 40
2.067447106470402
 40
2.282915420483534
 40
2.446800589007102
 40
2.555892900814216
 40
2.615623609793102
 40
2.615623609793102
 40
2.615623609793102
 40
2.615623609793102
 10
779.0672112731288
 20
186.8912163679
 30
0.0
 10
778.9915931123094
 20
186.9375523092591
 30
0.0
 10
778.8347603693623
 20
187.0410936071878
 30
0.0
 10
778.5978964038483
 20
187.2141098155453
 30
0.0
 10
778.3536535374294
 20
187.4081483484819
 30
0.0
 10
778.1126815362495
 20
187.6147849141946
 30
0.0
 10
777.8855123862044
 20
187.8250481753413
 30
0.0
 10
777.6817984218772
 20
188.0296865467159
 30
0.0
 10
777.5108043866473
 20
188.2199306823593
 30
0.0
 10
777.3778841320551
 20
188.3868920509046
 30
0.0
 10
777.2921351666634
 20
188.525121913926
 30
0.0
 10
777.2444268237644
 20
188.6268204626448
 30
0.0
 10
777.2516992111969
 20
188.6885113940912
 30
0.0
 10
777.2637474577622
 20
188.7043624907494
 30
0.0
 11
779.0672112731288
 21
186.8912163679
 31
0.0
 11
778.8446231973011
 21
187.0369581939671
 31
0.0
 11
778.6041702005342
 21
187.2119349876247
 31
0.0
 11
778.3563612343296
 21
187.4084994255849
 31
0.0
 11
778.1120267412358
 21
187.6180606954632
 31
0.0
 11
777.8818453065531
 21
187.8314599669112
 31
0.0
 11
777.6758769664462
 21
188.0393706667608
 31
0.0
 11
777.5031235262275
 21
188.2327060990377
 31
0.0
 11
777.3711351383397
 21
188.4030165796501
 31
0.0
 11
777.2856803309402
 21
188.5428587204887
 31
0.0
 11
777.2504938863017
 21
188.6461207493721
 31
0.0
 11
777.2637474577622
 21
188.7043624907494
 31
0.0
  0
SPLINE
  5
1AB
330
2
100
AcDbEntity
  8
0
  6
Continuous
 62
     7
370
    25
100
AcDbSpline
210
0.0
220
0.0
230
1.0
 70
     8
 71
     3
 72
    12
 73
     8
 74
     6
 42
0.0000000001
 43
0.0000000001
 44
0.0000000001
 12
0.8526548681690409
 22
-0.5224745695128478
 32
0.0
 13
0.6051282559960846
 23
0.7961280008862504
 33
0.0
 40
0.0
 40
0.0
 40
0.0
 40
0.0
 40
0.2239492316181136
 40
0.3974528690176686
 40
0.5162117703168284
 40
0.5863564007894468
 40
0.5915287741128687
 40
0.5915287741128687
 40
0.5915287741128687
 40
0.5915287741128687
 10
779.0672112731288
 20
186.8912163679
 30
0.0
 10
779.1308617406494
 20
186.8522137751059
 30
0.0
 10
779.2452112150761
 20
186.7858945554448
 30
0.0
 10
779.4038800200675
 20
186.7144942268051
 30
0.0
 10
779.516607015345
 20
186.6799818991853
 30
0.0
 10
779.5904343754044
 20
186.6868540677826
 30
0.0
 10
779.6069289338122
 20
186.7060191839921
 30
0.0
 10
779.6079722502284
 20
186.7073918077367
 30
0.0
 11
779.0672112731288
 21
186.8912163679
 31
0.0
 11
779.2622062631736
 21
186.7810791253353
 31
0.0
 11
779.4210859511037
 21
186.7113599962953
 31
0.0
 11
779.5369065294195
 21
186.685106038948
 31
0.0
 11
779.6046060837331
 21
186.7034646753322
 31
0.0
 11
779.6079722502284
 21
186.7073918077367
 31
0.0
  0
SPLINE
  5
1AC
330
2
100
AcDbEntity
  8
0
  6
Continuous
 62
     7
370
    25
100
AcDbSpline
210
0.0
220
0.0
230
1.0
 70
     8
 71
     3
 72
    11
 73
     7
 74
     5
 42
0.0000000001
 43
0.0000000001
 44
0.0000000001
 12
-0.6202185170687652
 22
0.7844290860779079
 32
0.0
 13
0.605128253444496
 23
0.7961280028256851
 33
0.0
 40
0.0
 40
0.0
 40
0.0
 40
0.0
 40
0.1212000425951444
 40
0.2850852111176374
 40
0.3941775229245708
 40
0.4539082319038971
 40
0.4539082319038971
 40
0.4539082319038971
 40
0.4539082319038971
 10
780.2269024115018
 20
191.5734424877064
 30
0.0
 10
780.201845574606
 20
191.6051334339216
 30
0.0
 10
780.1449160513816
 20
191.681410595004
 30
0.0
 10
780.0756700534886
 20
191.7928604514836
 30
0.0
 10
780.0279703089633
 20
191.8945779805118
 30
0.0
 10
780.0352417587377
 20
191.9562668419824
 30
0.0
 10
780.0472900052716
 20
191.9721179386648
 30
0.0
 11
780.2269024115018
 21
191.5734424877064
 31
0.0
 11
780.1546776858473
 21
191.6707720275656
 31
0.0
 11
780.0692228784493
 21
191.8106141684038
 31
0.0
 11
780.0340364338109
 21
191.9138761972871
 31
0.0
 11
780.0472900052716
 21
191.9721179386648
 31
0.0
  0
SPLINE
  5
1AD
330
2
100
AcDbEntity
  8
0
  6
Continuous
 62
     7
370
    25
100
AcDbSpline
210
0.0
220
0.0
230
1.0
 70
     8
 71
     3
 72
    12
 73
     8
 74
     6
 42
0.0000000001
 43
0.0000000001
 44
0.0000000001
 12
0.8741057085952997
 22
-0.4857357411197051
 32
0.0
 13
0.6051282569494535
 23
0.7961280001616048
 33
0.0
 40
0.0
 40
0.0
 40
0.0
 40
0.0
 40
0.086339453334697
 40
0.2598430886867224
 40
0.3786019899860977
 40
0.4487466226143534
 40
0.4539189961804672
 40
0.4539189961804672
 40
0.4539189961804672
 40
0.4539189961804672
 10
781.9694601516772
 20
190.0892640348858
 30
0.0
 10
781.9946167546896
 20
190.075284648768
 30
0.0
 10
782.070960871117
 20
190.0347337096039
 30
0.0
 10
782.1874434690348
 20
189.9822224947897
 30
0.0
 10
782.3001467602417
 20
189.9477409876898
 30
0.0
 10
782.373976979843
 20
189.9546094506411
 30
0.0
 10
782.3904714812696
 20
189.9737746340792
 30
0.0
 10
782.3915147977364
 20
189.975147257887
 30
0.0
 11
781.9694601516772
 21
190.0892640348858
 31
0.0
 11
782.0457488129187
 21
190.0488345732504
 31
0.0
 11
782.2046284986128
 21
189.9791154442104
 31
0.0
 11
782.3204490769287
 21
189.9528614868631
 31
0.0
 11
782.3881486334758
 21
189.9712201232473
 31
0.0
 11
782.3915147977364
 21
189.975147257887
 31
0.0
  0
SPLINE
  5
1AE
330
2
100
AcDbEntity
  8
0
  6
Continuous
 62
     7
370
    25
100
AcDbSpline
210
0.0
220
0.0
230
1.0
 70
     8
 71
     3
 72
    10
 73
     6
 74
     4
 42
0.0000000001
 43
0.0000000001
 44
0.0000000001
 12
0.6915488324688325
 22
0.7223297116352026
 32
0.0
 13
0.6477828337774343
 23
0.7618250457049026
 33
0.0
 40
0.0
 40
0.0
 40
0.0
 40
0.0
 40
0.0028329956192242
 40
0.0688887082209434
 40
0.1164431107293398
 40
0.1164431107293398
 40
0.1164431107293398
 40
0.1164431107293398
 10
783.3044294244317
 20
192.4067492683336
 30
0.0
 10
783.3050824760361
 20
192.4074313873031
 30
0.0
 10
783.3209345450588
 20
192.4240450292453
 30
0.0
 10
783.3466408210015
 20
192.4531521858233
 30
0.0
 10
783.3712280178928
 20
192.4819504228651
 30
0.0
 10
783.3814963264313
 20
192.4940264678199
 30
0.0
 11
783.3044294244317
 21
192.4067492683336
 31
0.0
 11
783.3063851953744
 21
192.4087988595607
 31
0.0
 11
783.3505583331387
 21
192.4579119033208
 31
0.0
 11
783.3814963264313
 21
192.4940264678199
 31
0.0
  0
SPLINE
  5
1AF
330
2
100
AcDbEntity
  8
0
  6
Continuous
 62
     7
370
    25
100
AcDbSpline
210
0.0
220
0.0
230
1.0
 70
     8
 71
     3
 72
    12
 73
     8
 74
     6
 42
0.0000000001
 43
0.0000000001
 44
0.0000000001
 12
0.9118732869118547
 22
0.4104718122070873
 32
0.0
 13
0.8526548667226613
 23
-0.5224745718732739
 33
0.0
 40
0.0
 40
0.0
 40
0.0
 40
0.0
 40
0.0045455991912291
 40
0.0801260452914183
 40
0.1953052343642366
 40
0.3477656302896983
 40
0.5296542912138054
 40
0.5296542912138054
 40
0.5296542912138054
 40
0.5296542912138054
 10
777.3551031506928
 20
188.6630060782633
 30
0.0
 10
777.3564848208512
 20
188.6636280250425
 30
0.0
 10
777.381218744263
 20
188.6739039436527
 30
0.0
 10
777.4500817152024
 20
188.6628035234726
 30
0.0
 10
777.5568415386979
 20
188.6277498130136
 30
0.0
 10
777.6926006236091
 20
188.5613069357278
 30
0.0
 10
777.7888895741299
 20
188.5056632874247
 30
0.0
 10
777.8405856581095
 20
188.4739858873431
 30
0.0
 11
777.3551031506928
 21
188.6630060782633
 31
0.0
 11
777.3593024835178
 21
188.6647462149913
 31
0.0
 11
777.4348756572377
 21
188.6636977653737
 31
0.0
 11
777.5447964922086
 21
188.6292934686247
 31
0.0
 11
777.68273891198
 21
188.5643622653912
 31
0.0
 11
777.8405856581095
 21
188.4739858873431
 31
0.0
  0
SPLINE
  5
1B0
330
2
100
AcDbEntity
  8
0
  6
Continuous
 62
     7
370
    25
100
AcDbSpline
210
0.0
220
0.0
230
1.0
 70
     8
 71
     3
 72
    11
 73
     7
 74
     5
 42
0.0000000001
 43
0.0000000001
 44
0.0000000001
 12
0.8092791028883572
 22
0.587424321617871
 32
0.0
 13
0.8526548690010113
 23
-0.5224745681551101
 33
0.0
 40
0.0
 40
0.0
 40
0.0
 40
0.0
 40
0.0949911677973269
 40
0.1825606398012554
 40
0.2646667477216894
 40
0.3488460017318504
 40
0.3488460017318504
 40
0.3488460017318504
 40
0.3488460017318504
 10
789.3796987909627
 20
201.652704389391
 30
0.0
 10
789.4053235799819
 20
201.6713044301587
 30
0.0
 10
789.4590472071143
 20
201.7016992156533
 30
0.0
 10
789.546880870666
 20
201.7203827354032
 30
0.0
 10
789.6322703940947
 20
201.7096525585479
 30
0.0
 10
789.6833961860255
 20
201.6862006066199
 30
0.0
 10
789.7073214696257
 20
201.6715401001577
 30
0.0
 11
789.3796987909627
 21
201.652704389391
 31
0.0
 11
789.4630890357646
 21
201.6981949272135
 31
0.0
 11
789.548897632854
 21
201.7156676800758
 31
0.0
 11
789.6304008659358
 21
201.7057361165
 31
0.0
 11
789.7073214696257
 21
201.6715401001577
 31
0.0
  0
SPLINE
  5
1B1
330
2
100
AcDbEntity
  8
0
  6
Continuous
 62
     7
370
    25
100
AcDbSpline
210
0.0
220
0.0
230
1.0
 70
     8
 71
     3
 72
     8
 73
     4
 74
     2
 42
0.0000000001
 43
0.0000000001
 44
0.0000000001
 12
0.8012987367192783
 22
0.5982644352893533
 32
0.0
 13
0.8092790720151239
 23
0.5874243641511134
 33
0.0
 40
0.0
 40
0.0
 40
0.0
 40
0.0
 40
0.0056789021500746
 40
0.0056789021500746
 40
0.0056789021500746
 40
0.0056789021500746
 10
789.3751256075262
 20
201.6493375031609
 30
0.0
 10
789.376642439899
 20
201.6504699982235
 30
0.0
 10
789.3781668520753
 20
201.6515924142294
 30
0.0
 10
789.3796987909627
 20
201.652704389391
 30
0.0
 11
789.3751256075262
 21
201.6493375031609
 31
0.0
 11
789.3796987909627
 21
201.652704389391
 31
0.0
  0
LINE
  5
1B2
330
2
100
AcDbEntity
  8
0
  6
Continuous
 62
     7
370
    25
100
AcDbLine
 10
789.9774388851936
 20
200.2900458054938
 30
0.0
 11
790.2009048179402
 21
200.1531143555066
 31
0.0
  0
LINE
  5
1B3
330
2
100
AcDbEntity
  8
0
  6
Continuous
 62
     7
370
    25
100
AcDbLine
 10
782.3917348598826
 20
189.9750152492106
 30
0.0
 11
783.2728158687614
 21
191.0093652609738
 31
0.0
  0
LINE
  5
1B4
330
2
100
AcDbEntity
  8
0
  6
Continuous
 62
     7
370
    25
100
AcDbLine
 10
779.6081923123741
 20
186.7072598012955
 30
0.0
 11
780.1413305019763
 21
187.3331403817897
 31
0.0
  0
LINE
  5
1B5
330
2
100
AcDbEntity
  8
0
  6
Continuous
 62
     7
370
    25
100
AcDbLine
 10
779.9595111263212
 20
187.7303768668681
 30
0.0
 11
782.0902779420454
 21
190.2318025690104
 31
0.0
  0
LINE
  5
1B6
330
2
100
AcDbEntity
  8
0
  6
Continuous
 62
     7
370
    25
100
AcDbLine
 10
783.0744756605146
 20
191.4279193111384
 30
0.0
 11
784.6292441254692
 21
193.2531485049704
 31
0.0
  0
LINE
  5
1B7
330
2
100
AcDbEntity
  8
0
  6
Continuous
 62
     7
370
    25
100
AcDbLine
 10
785.7114460588011
 20
194.6050301413593
 30
0.0
 11
791.4244426583882
 21
201.3118346682873
 31
0.0
  0
LINE
  5
1B8
330
2
100
AcDbEntity
  8
0
  6
Continuous
 62
     7
370
    25
100
AcDbLine
 10
790.2009048179402
 20
200.1531143555066
 30
0.0
 11
786.9347319095062
 21
196.3187722776984
 31
0.0
  0
LINE
  5
1B9
330
2
100
AcDbEntity
  8
0
  6
Continuous
 62
     7
370
    25
100
AcDbLine
 10
784.4615535495996
 20
193.5855469946553
 30
0.0
 11
784.667082951876
 21
193.8268293934053
 31
0.0
  0
LINE
  5
1BA
330
2
100
AcDbEntity
  8
0
  6
Continuous
 62
     7
370
    25
100
AcDbLine
 10
786.8265002375276
 20
196.4584284118984
 30
0.0
 11
789.8642055955816
 21
200.0245597243258
 31
0.0
  0
LINE
  5
1BB
330
2
100
AcDbEntity
  8
0
  6
Continuous
 62
     7
370
    25
100
AcDbLine
 10
789.8715961100363
 20
200.1657910844329
 30
0.0
 11
789.9774388851936
 21
200.2900458054938
 31
0.0
  0
LINE
  5
1BC
330
2
100
AcDbEntity
  8
0
  6
Continuous
 62
     7
370
    25
100
AcDbLine
 10
783.282746017456
 20
194.5901336554298
 30
0.0
 11
783.4129419735351
 21
194.74297793139
 31
0.0
  0
LINE
  5
1BD
330
2
100
AcDbEntity
  8
0
  6
Continuous
 62
     7
370
    25
100
AcDbLine
 10
789.1753679181422
 20
201.9556455180268
 30
0.0
 11
789.8032743430992
 21
202.6927798011337
 31
0.0
  0
LINE
  5
1BE
330
2
100
AcDbEntity
  8
0
  6
Continuous
 62
     7
370
    25
100
AcDbLine
 10
784.0902777435115
 20
195.9859752719705
 30
0.0
 11
788.7782764304878
 21
201.4894777292059
 31
0.0
  0
LINE
  5
1BF
330
2
100
AcDbEntity
  8
0
  6
Continuous
 62
     7
370
    25
100
AcDbLine
 10
781.3727149717897
 20
192.877101736009
 30
0.0
 11
782.9276873003963
 21
194.70257025494
 31
0.0
  0
LINE
  5
1C0
330
2
100
AcDbEntity
  8
0
  6
Continuous
 62
     7
370
    25
100
AcDbLine
 10
778.2178152725592
 20
189.2141017596106
 30
0.0
 11
780.3485268609627
 21
191.7154626275418
 31
0.0
  0
LINE
  5
1C1
330
2
100
AcDbEntity
  8
0
  6
Continuous
 62
     7
370
    25
100
AcDbLine
 10
783.8809610022776
 20
192.9069765944201
 30
0.0
 11
783.9348290249961
 21
192.8592892461578
 31
0.0
  0
LINE
  5
1C2
330
2
100
AcDbEntity
  8
0
  6
Continuous
 62
     7
370
    25
100
AcDbLine
 10
783.602177881715
 20
192.7648035803161
 30
0.0
 11
783.4652823692728
 21
192.8486879585465
 31
0.0
  0
LINE
  5
1C3
330
2
100
AcDbEntity
  8
0
  6
Continuous
 62
     7
370
    25
100
AcDbLine
 10
780.0470699431264
 20
191.9722499451065
 30
0.0
 11
780.9281509520044
 21
193.0065999568699
 31
0.0
  0
LINE
  5
1C4
330
2
100
AcDbEntity
  8
0
  6
Continuous
 62
     7
370
    25
100
AcDbLine
 10
777.263527395617
 20
188.7044944971915
 30
0.0
 11
777.7966655852185
 21
189.3303750776856
 31
0.0
  0
LINE
  5
1C5
330
2
100
AcDbEntity
  8
0
  6
Continuous
 62
     7
370
    25
100
AcDbLine
 10
783.4211536829309
 20
192.1566675597097
 30
0.0
 11
783.3736309303259
 21
192.2004675844793
 31
0.0
  0
LINE
  5
1C6
330
2
100
AcDbEntity
  8
DIM
 62
     0
100
AcDbLine
 10
782.5834259597443
 20
194.9106847226399
 30
0.0
 11
782.5612710211482
 21
194.5898365302073
 31
0.0
  0
LINE
  5
1C7
330
2
100
AcDbEntity
  8
0
  6
Continuous
 62
     0
370
    25
100
AcDbLine
 10
783.3910833989308
 20
194.7473971726671
 30
0.0
 11
783.2489373922783
 21
194.5559803859221
 31
0.0
  0
LINE
  5
1C8
330
2
100
AcDbEntity
  8
DIM
 62
     0
100
AcDbLine
 10
782.5612710211482
 20
194.5898365302073
 30
0.0
 11
782.7163260040597
 21
194.4349431094241
 31
0.0
  0
LINE
  5
1C9
330
2
100
AcDbEntity
  8
DIM
 62
     0
100
AcDbLine
 10
782.5834259597443
 20
194.9106847226399
 30
0.0
 11
783.5137262699555
 21
194.7226019402337
 31
0.0
  0
LINE
  5
1CA
330
2
100
AcDbEntity
  8
DIM
 62
     0
100
AcDbLine
 10
783.7795322760391
 20
195.696215831933
 30
0.0
 11
782.5834259597443
 21
194.9106847226399
 31
0.0
  0
SPLINE
  5
1CB
330
2
100
AcDbEntity
  8
0
  6
Continuous
 62
     0
370
    25
100
AcDbSpline
210
0.0
220
0.0
230
1.0
 70
     8
 71
     3
 72
    19
 73
    15
 74
    13
 42
0.0000000001
 43
0.0000000001
 44
0.0000000001
 12
-0.4833491116098826
 22
0.8754276876509774
 32
0.0
 13
-0.5499835124643627
 23
-0.8351755121035113
 33
0.0
 40
0.0
 40
0.0
 40
0.0
 40
0.0
 40
0.1495094770346932
 40
0.3430819381714597
 40
0.5713863938369455
 40
0.8222931963517885
 40
1.082067858646739
 40
1.336373618147849
 40
1.57124364121181
 40
1.774069805256901
 40
1.934718671988255
 40
2.047345298945364
 40
2.116446213213972
 40
2.123294734582879
 40
2.123294734582879
 40
2.123294734582879
 40
2.123294734582879
 10
785.5034221641292
 20
194.5459465318036
 30
0.0
 10
785.4793337398286
 20
194.5895747770577
 30
0.0
 10
785.4119577669076
 20
194.6827777769385
 30
0.0
 10
785.2842099137363
 20
194.8241702882486
 30
0.0
 10
785.1213309208053
 20
194.9786484219456
 30
0.0
 10
784.9326377118036
 20
195.1371619885547
 30
0.0
 10
784.7287528230814
 20
195.2905289831578
 30
0.0
 10
784.5215428195362
 20
195.4299324738148
 30
0.0
 10
784.3226450496516
 20
195.5473061511741
 30
0.0
 10
784.1445178345701
 20
195.6366141909391
 30
0.0
 10
783.9942220064501
 20
195.6923438483163
 30
0.0
 10
783.8848041535356
 20
195.7160719341352
 30
0.0
 10
783.8146396738491
 20
195.7035046665973
 30
0.0
 10
783.7991093211712
 20
195.6832235164618
 30
0.0
 10
783.7978537965587
 20
195.6813169440147
 30
0.0
 11
785.5034221641292
 21
194.5459465318036
 31
0.0
 11
785.4188394736559
 21
194.6692301568131
 31
0.0
 11
785.2903300516302
 21
194.813990739021
 31
0.0
 11
785.1253623986353
 21
194.9718153186721
 31
0.0
 11
784.9335238350951
 21
195.1335317033926
 31
0.0
 11
784.725963321793
 21
195.2897415253893
 31
0.0
 11
784.5147435223394
 21
195.4313664371604
 31
0.0
 11
784.3121397617367
 21
195.5501757125716
 31
0.0
 11
784.1299266332492
 21
195.6392645930676
 31
0.0
 11
783.9786937053377
 21
195.6934555507764
 31
0.0
 11
783.8672300816822
 21
195.709599209015
 31
0.0
 11
783.8020136266941
 21
195.6867573537589
 31
0.0
 11
783.7978537965587
 21
195.6813169440147
 31
0.0
  0
LINE
  5
1CC
330
2
100
AcDbEntity
  8
DIM
 62
     0
100
AcDbLine
 10
783.5137262699555
 20
194.7226019402337
 30
0.0
 11
784.5990874805318
 21
193.959198841697
 31
0.0
  0
LINE
  5
1CD
330
2
100
AcDbEntity
  8
DIM
 62
     0
100
AcDbLine
 10
784.5990874805318
 20
193.959198841697
 30
0.0
 11
785.031014103921
 21
193.1183503600245
 31
0.0
  0
LINE
  5
1CE
330
2
100
AcDbEntity
  8
DIM
 62
     0
100
AcDbLine
 10
785.031014103921
 20
193.1183503600245
 30
0.0
 11
785.5072387695993
 21
194.5345165033163
 31
0.0
  0
LINE
  5
1CF
330
2
100
AcDbEntity
  8
DIM
 62
     0
100
AcDbLine
 10
784.8316610787215
 20
192.9192009177285
 30
0.0
 11
784.5437119689453
 21
193.0077129607542
 31
0.0
  0
LINE
  5
1D0
330
2
100
AcDbEntity
  8
DIM
 62
     0
100
AcDbLine
 10
785.031014103921
 20
193.1072863546463
 30
0.0
 11
784.8316610787215
 21
192.9192009177285
 31
0.0
  0
LINE
  5
1D1
330
2
100
AcDbEntity
  8
0
  6
Continuous
 62
     7
370
    25
100
AcDbLine
 10
785.4021678121173
 20
194.6897864029612
 30
0.0
 11
785.4903776507487
 21
194.7933408395656
 31
0.0
  0
LINE
  5
1D2
330
2
100
AcDbEntity
  8
0
  6
Continuous
 62
     7
370
    25
100
AcDbLine
 10
784.1637546586099
 20
195.6243987119356
 30
0.0
 11
784.3113461493291
 21
195.7976645737641
 31
0.0
  0
MTEXT
  5
1DA
330
2
100
AcDbEntity
  8
图框
100
AcDbMText
 10
777.4043667441023
 20
230.1412161708918
 30
0.0
 40
0.6000023545570477
 41
4.555173628074113
 46
1.3522221868162
 71
     5
 72
     5
  1
{\C4;CDGF-0.37}
  7
Romans字体
 73
     1
 44
1.0
1001
ACAD
1000
ACAD_MTEXT_DEFINED_HEIGHT_BEGIN
1070
    46
1040
1.3522221868162
1000
ACAD_MTEXT_DEFINED_HEIGHT_END
  0
MTEXT
  5
1DB
330
2
100
AcDbEntity
  8
图框
100
AcDbMText
 10
782.715370557231
 20
230.1412161708919
 30
0.0
 40
0.6000023545570477
 41
6.066833998183262
 46
1.352222186816343
 71
     5
 72
     5
  1
{\C4;1010172200301}
  7
Romans字体
 73
     1
 44
1.0
1001
ACAD
1000
ACAD_MTEXT_DEFINED_HEIGHT_BEGIN
1070
    46
1040
1.352222186816343
1000
ACAD_MTEXT_DEFINED_HEIGHT_END
  0
MTEXT
  5
1DC
330
2
100
AcDbEntity
  8
图框
100
AcDbMText
 10
782.715370557231
 20
228.7889939840754
 30
0.0
 40
0.6000023545570477
 41
6.066833998183262
 46
1.352222186816343
 71
     5
 72
     5
  1
{\C4;1010172200401}
  7
Romans字体
 73
     1
 44
1.0
1001
ACAD
1000
ACAD_MTEXT_DEFINED_HEIGHT_BEGIN
1070
    46
1040
1.352222186816343
1000
ACAD_MTEXT_DEFINED_HEIGHT_END
  0
MTEXT
  5
1DD
330
2
100
AcDbEntity
  8
图框
100
AcDbMText
 10
782.715370557231
 20
227.4367717972602
 30
0.0
 40
0.6000023545570477
 41
6.066833998183262
 46
1.352222186816343
 71
     5
 72
     5
  1
{\C4;1010172200601}
  7
Romans字体
 73
     1
 44
1.0
1001
ACAD
1000
ACAD_MTEXT_DEFINED_HEIGHT_BEGIN
1070
    46
1040
1.352222186816343
1000
ACAD_MTEXT_DEFINED_HEIGHT_END
  0
MTEXT
  5
1DE
330
2
100
AcDbEntity
  8
图框
100
AcDbMText
 10
782.715370557231
 20
226.084549610445
 30
0.0
 40
0.6000023545570477
 41
6.066833998183262
 46
1.352222186816343
 71
     5
 72
     5
  1
{\C4;1010172200801}
  7
Romans字体
 73
     1
 44
1.0
1001
ACAD
1000
ACAD_MTEXT_DEFINED_HEIGHT_BEGIN
1070
    46
1040
1.352222186816343
1000
ACAD_MTEXT_DEFINED_HEIGHT_END
  0
MTEXT
  5
1DF
330
2
100
AcDbEntity
  8
图框
100
AcDbMText
 10
782.715370557231
 20
224.7323274236298
 30
0.0
 40
0.6000023545570477
 41
6.066833998183262
 46
1.352222186816343
 71
     5
 72
     5
  1
{\C4;1010172200901}
  7
Romans字体
 73
     1
 44
1.0
1001
ACAD
1000
ACAD_MTEXT_DEFINED_HEIGHT_BEGIN
1070
    46
1040
1.352222186816343
1000
ACAD_MTEXT_DEFINED_HEIGHT_END
  0
MTEXT
  5
1E0
330
2
100
AcDbEntity
  8
图框
100
AcDbMText
 10
791.6132794261953
 20
230.1412161708922
 30
0.0
 40
0.6000023545570477
 41
3.909661247026225
 46
1.3522221868165
 71
     5
 72
     5
  1
{\C4;0.14-0.37}
  7
Romans字体
 73
     1
 44
1.0
1001
ACAD
1000
ACAD_MTEXT_DEFINED_HEIGHT_BEGIN
1070
    46
1040
1.3522221868165
1000
ACAD_MTEXT_DEFINED_HEIGHT_END
  0
MTEXT
  5
1E1
330
2
100
AcDbEntity
  8
图框
100
AcDbMText
 10
791.6132794261953
 20
228.7889939840764
 30
0.0
 40
0.6000023545570477
 41
3.909661247026225
 46
1.352222186815229
 71
     5
 72
     5
  1
{\C4;0.5}
  7
Romans字体
 73
     1
 44
1.0
1001
ACAD
1000
ACAD_MTEXT_DEFINED_HEIGHT_BEGIN
1070
    46
1040
1.352222186815229
1000
ACAD_MTEXT_DEFINED_HEIGHT_END
  0
MTEXT
  5
1E2
330
2
100
AcDbEntity
  8
图框
100
AcDbMText
 10
795.0430623883739
 20
230.1412161708923
 30
0.0
 40
0.6000023545570477
 41
2.949904678664852
 46
1.352222186816635
 71
     5
 72
     5
  1
{\C4;26-22}
  7
Romans字体
 73
     1
 44
1.0
1001
ACAD
1000
ACAD_MTEXT_DEFINED_HEIGHT_BEGIN
1070
    46
1040
1.352222186816635
1000
ACAD_MTEXT_DEFINED_HEIGHT_END
  0
MTEXT
  5
1E3
330
2
100
AcDbEntity
  8
图框
100
AcDbMText
 10
795.0430623887073
 20
228.7889939840764
 30
0.0
 40
0.6000023545570477
 41
2.949904677998123
 46
1.352222186815164
 71
     5
 72
     5
  1
{\C4;20}
  7
Romans字体
 73
     1
 44
1.0
1001
ACAD
1000
ACAD_MTEXT_DEFINED_HEIGHT_BEGIN
1070
    46
1040
1.352222186815164
1000
ACAD_MTEXT_DEFINED_HEIGHT_END
  0
MTEXT
  5
1E4
330
2
100
AcDbEntity
  8
图框
100
AcDbMText
 10
797.7344665899042
 20
230.1412161708923
 30
0.0
 40
0.6000023545570477
 41
2.43290372572948
 46
1.352222186816667
 71
     5
 72
     5
  1
{\C4;0.9}
  7
Romans字体
 73
     1
 44
1.0
1001
ACAD
1000
ACAD_MTEXT_DEFINED_HEIGHT_BEGIN
1070
    46
1040
1.352222186816667
1000
ACAD_MTEXT_DEFINED_HEIGHT_END
  0
MTEXT
  5
1E5
330
2
100
AcDbEntity
  8
图框
100
AcDbMText
 10
797.7344665899042
 20
228.7889939840763
 30
0.0
 40
0.6000023545570477
 41
2.43290372572947
 46
1.352222186815196
 71
     5
 72
     5
  1
{\C4;1.15}
  7
Romans字体
 73
     1
 44
1.0
1001
ACAD
1000
ACAD_MTEXT_DEFINED_HEIGHT_BEGIN
1070
    46
1040
1.352222186815196
1000
ACAD_MTEXT_DEFINED_HEIGHT_END
  0
MTEXT
  5
1E6
330
2
100
AcDbEntity
  8
图框
100
AcDbMText
 10
800.1673703153004
 20
230.1412161708923
 30
0.0
 40
0.6000023545570477
 41
2.432903725062595
 46
1.35222218681682
 71
     5
 72
     5
  1
{\C4;2.6}
  7
Romans字体
 73
     1
 44
1.0
1001
ACAD
1000
ACAD_MTEXT_DEFINED_HEIGHT_BEGIN
1070
    46
1040
1.35222218681682
1000
ACAD_MTEXT_DEFINED_HEIGHT_END
  0
MTEXT
  5
1E7
330
2
100
AcDbEntity
  8
图框
100
AcDbMText
 10
791.6132794265288
 20
227.4367717972612
 30
0.0
 40
0.59999791584616
 41
3.909661246359378
 46
1.352222186815279
 71
     5
 72
     5
  1
{\C4;0.75}
  7
Romans字体
 73
     1
 44
1.0
1001
ACAD
1000
ACAD_MTEXT_DEFINED_HEIGHT_BEGIN
1070
    46
1040
1.352222186815279
1000
ACAD_MTEXT_DEFINED_HEIGHT_END
  0
MTEXT
  5
1E8
330
2
100
AcDbEntity
  8
图框
100
AcDbMText
 10
795.0430623887073
 20
227.4367717972612
 30
0.0
 40
0.59999791584616
 41
2.949904677998274
 46
1.35222218681521
 71
     5
 72
     5
  1
{\C4;18}
  7
Romans字体
 73
     1
 44
1.0
1001
ACAD
1000
ACAD_MTEXT_DEFINED_HEIGHT_BEGIN
1070
    46
1040
1.35222218681521
1000
ACAD_MTEXT_DEFINED_HEIGHT_END
  0
MTEXT
  5
1E9
330
2
100
AcDbEntity
  8
图框
100
AcDbMText
 10
797.7344665902376
 20
227.4367717972612
 30
0.0
 40
0.59999791584616
 41
2.432903725062625
 46
1.352222186815245
 71
     5
 72
     5
  1
{\C4;1.3}
  7
Romans字体
 73
     1
 44
1.0
1001
ACAD
1000
ACAD_MTEXT_DEFINED_HEIGHT_BEGIN
1070
    46
1040
1.352222186815245
1000
ACAD_MTEXT_DEFINED_HEIGHT_END
  0
MTEXT
  5
1EA
330
2
100
AcDbEntity
  8
图框
100
AcDbMText
 10
791.6132794265288
 20
226.0823735873212
 30
0.0
 40
0.59999791584616
 41
3.909661246359378
 46
1.347870140565607
 71
     5
 72
     5
  1
{\C4;1.0}
  7
Romans字体
 73
     1
 44
1.0
1001
ACAD
1000
ACAD_MTEXT_DEFINED_HEIGHT_BEGIN
1070
    46
1040
1.347870140565607
1000
ACAD_MTEXT_DEFINED_HEIGHT_END
  0
MTEXT
  5
1EB
330
2
100
AcDbEntity
  8
图框
100
AcDbMText
 10
795.043062388374
 20
226.0823335515775
 30
0.0
 40
0.59999791584616
 41
2.94990467733168
 46
1.347790069078369
 71
     5
 72
     5
  1
{\C4;18}
  7
Romans字体
 73
     1
 44
1.0
1001
ACAD
1000
ACAD_MTEXT_DEFINED_HEIGHT_BEGIN
1070
    46
1040
1.347790069078369
1000
ACAD_MTEXT_DEFINED_HEIGHT_END
  0
MTEXT
  5
1EC
330
2
100
AcDbEntity
  8
图框
100
AcDbMText
 10
797.7344665899046
 20
226.0845496104459
 30
0.0
 40
0.59999791584616
 41
2.43290372572923
 46
1.352222186815245
 71
     5
 72
     5
  1
{\C4;1.45}
  7
Romans字体
 73
     1
 44
1.0
1001
ACAD
1000
ACAD_MTEXT_DEFINED_HEIGHT_BEGIN
1070
    46
1040
1.352222186815245
1000
ACAD_MTEXT_DEFINED_HEIGHT_END
  0
MTEXT
  5
1ED
330
2
100
AcDbEntity
  8
图框
100
AcDbMText
 10
800.1673703153002
 20
224.7308600581691
 30
0.0
 40
0.59999791584616
 41
2.432903725062594
 46
1.35515691773857
 71
     5
 72
     5
  1
{\C4;3.0}
  7
Romans字体
 73
     1
 44
1.0
1001
ACAD
1000
ACAD_MTEXT_DEFINED_HEIGHT_BEGIN
1070
    46
1040
1.35515691773857
1000
ACAD_MTEXT_DEFINED_HEIGHT_END
  0
MTEXT
  5
1EE
330
2
100
AcDbEntity
  8
图框
100
AcDbMText
 10
791.6132794261953
 20
224.73232742363
 30
0.0
 40
0.6000023545570477
 41
3.909661247026225
 46
1.3522221868165
 71
     5
 72
     5
  1
{\C4;1.5}
  7
Romans字体
 73
     1
 44
1.0
1001
ACAD
1000
ACAD_MTEXT_DEFINED_HEIGHT_BEGIN
1070
    46
1040
1.3522221868165
1000
ACAD_MTEXT_DEFINED_HEIGHT_END
  0
MTEXT
  5
1EF
330
2
100
AcDbEntity
  8
图框
100
AcDbMText
 10
795.0430623877076
 20
224.73232742363
 30
0.0
 40
0.6000023545570477
 41
2.949904678664852
 46
1.352222186816635
 71
     5
 72
     5
  1
{\C4;16}
  7
Romans字体
 73
     1
 44
1.0
1001
ACAD
1000
ACAD_MTEXT_DEFINED_HEIGHT_BEGIN
1070
    46
1040
1.352222186816635
1000
ACAD_MTEXT_DEFINED_HEIGHT_END
  0
MTEXT
  5
1F0
330
2
100
AcDbEntity
  8
图框
100
AcDbMText
 10
797.7344665899042
 20
224.7323274236299
 30
0.0
 40
0.6000023545570477
 41
2.43290372572948
 46
1.352222186816667
 71
     5
 72
     5
  1
{\C4;1.75}
  7
Romans字体
 73
     1
 44
1.0
1001
ACAD
1000
ACAD_MTEXT_DEFINED_HEIGHT_BEGIN
1070
    46
1040
1.352222186816667
1000
ACAD_MTEXT_DEFINED_HEIGHT_END
  0
MTEXT
  5
1F1
330
2
100
AcDbEntity
  8
图框
100
AcDbMText
 10
777.4043667434355
 20
228.7889939840758
 30
0.0
 40
0.6000023545570477
 41
4.555173628074113
 46
1.3522221868162
 71
     5
 72
     5
  1
{\C4;CDGF-0.50}
  7
Romans字体
 73
     1
 44
1.0
1001
ACAD
1000
ACAD_MTEXT_DEFINED_HEIGHT_BEGIN
1070
    46
1040
1.3522221868162
1000
ACAD_MTEXT_DEFINED_HEIGHT_END
  0
MTEXT
  5
1F2
330
2
100
AcDbEntity
  8
图框
100
AcDbMText
 10
777.4043667441023
 20
227.4367717972606
 30
0.0
 40
0.6000023545570477
 41
4.555173628074113
 46
1.3522221868162
 71
     5
 72
     5
  1
{\C4;CDGF-0.75}
  7
Romans字体
 73
     1
 44
1.0
1001
ACAD
1000
ACAD_MTEXT_DEFINED_HEIGHT_BEGIN
1070
    46
1040
1.3522221868162
1000
ACAD_MTEXT_DEFINED_HEIGHT_END
  0
MTEXT
  5
1F3
330
2
100
AcDbEntity
  8
图框
100
AcDbMText
 10
777.4043667434355
 20
226.0801174927081
 30
0.0
 40
0.6000023545570477
 41
4.555173628074113
 46
1.3522221868162
 71
     5
 72
     5
  1
{\C4;CDGF-1.0}
  7
Romans字体
 73
     1
 44
1.0
1001
ACAD
1000
ACAD_MTEXT_DEFINED_HEIGHT_BEGIN
1070
    46
1040
1.3522221868162
1000
ACAD_MTEXT_DEFINED_HEIGHT_END
  0
MTEXT
  5
1F4
330
2
100
AcDbEntity
  8
图框
100
AcDbMText
 10
777.4043667434355
 20
224.7323274236301
 30
0.0
 40
0.6000023545570477
 41
4.555173628074113
 46
1.3522221868162
 71
     5
 72
     5
  1
{\C4;CDGF-1.5}
  7
Romans字体
 73
     1
 44
1.0
1001
ACAD
1000
ACAD_MTEXT_DEFINED_HEIGHT_BEGIN
1070
    46
1040
1.3522221868162
1000
ACAD_MTEXT_DEFINED_HEIGHT_END
  0
MTEXT
  5
1F5
330
2
100
AcDbEntity
  8
图框
100
AcDbMText
 10
800.1673703153004
 20
228.7889939840771
 30
0.0
 40
0.6000023545570477
 41
2.432903725062595
 46
1.35222218681682
 71
     5
 72
     5
  1
{\C4;2.6}
  7
Romans字体
 73
     1
 44
1.0
1001
ACAD
1000
ACAD_MTEXT_DEFINED_HEIGHT_BEGIN
1070
    46
1040
1.35222218681682
1000
ACAD_MTEXT_DEFINED_HEIGHT_END
  0
MTEXT
  5
1F6
330
2
100
AcDbEntity
  8
图框
100
AcDbMText
 10
800.1673703153004
 20
227.4367717972618
 30
0.0
 40
0.6000023545570477
 41
2.432903725062595
 46
1.35222218681682
 71
     5
 72
     5
  1
{\C4;2.6}
  7
Romans字体
 73
     1
 44
1.0
1001
ACAD
1000
ACAD_MTEXT_DEFINED_HEIGHT_BEGIN
1070
    46
1040
1.35222218681682
1000
ACAD_MTEXT_DEFINED_HEIGHT_END
  0
MTEXT
  5
1F7
330
2
100
AcDbEntity
  8
图框
100
AcDbMText
 10
800.1673703153004
 20
226.0845496104466
 30
0.0
 40
0.6000023545570477
 41
2.432903725062595
 46
1.35222218681682
 71
     5
 72
     5
  1
{\C4;2.6}
  7
Romans字体
 73
     1
 44
1.0
1001
ACAD
1000
ACAD_MTEXT_DEFINED_HEIGHT_BEGIN
1070
    46
1040
1.35222218681682
1000
ACAD_MTEXT_DEFINED_HEIGHT_END
  0
LINE
  5
1F8
330
2
100
AcDbEntity
  8
图框
370
    -3
100
AcDbLine
 10
775.1267597310961
 20
225.4003169845881
 30
0.0
 11
809.645408448986
 21
225.4000775898119
 31
0.0
  0
LINE
  5
1F9
330
2
100
AcDbEntity
  8
图框
370
    35
100
AcDbLine
 10
775.126769820079
 20
226.7525291678678
 30
0.0
 11
809.6454101310685
 21
226.7522716210288
 31
0.0
  0
LINE
  5
1FA
330
2
100
AcDbEntity
  8
图框
370
    35
380
     1
100
AcDbLine
 10
798.9509184527689
 20
233.3906476067316
 30
0.0
 11
798.9509184527689
 21
230.6147949565692
 31
0.0
  0
MTEXT
  5
1FB
330
2
100
AcDbEntity
  8
图框
100
AcDbMText
 10
802.6002740403631
 20
232.1669778925277
 30
0.0
 40
0.6000023545570477
 41
2.432903725062574
 46
2.704364302212435
 71
     5
 72
     5
  1
{\C4;h}
  7
Romans字体
 73
     1
 44
1.0
1001
ACAD
1000
ACAD_MTEXT_DEFINED_HEIGHT_BEGIN
1070
    46
1040
2.704364302212435
1000
ACAD_MTEXT_DEFINED_HEIGHT_END
  0
LINE
  5
1FC
330
2
100
AcDbEntity
  8
图框
370
    35
100
AcDbLine
 10
775.126779930065
 20
222.6926384425583
 30
0.0
 11
809.6454118169461
 21
222.6926384425574
 31
0.0
  0
LINE
  5
1FD
330
2
100
AcDbEntity
  8
图框
370
    35
100
AcDbLine
 10
775.126769820079
 20
224.047626011756
 30
0.0
 11
809.6454101310685
 21
224.0478835585951
 31
0.0
  0
MTEXT
  5
210
330
2
100
AcDbEntity
  8
图框
100
AcDbMText
 10
806.7310671758777
 20
230.1386946515137
 30
0.0
 40
0.6000023545570477
 41
5.828702745953752
 46
1.35222218681682
 71
     5
 72
     5
  1
{\C4;8}
  7
Romans字体
 73
     1
 44
1.0
1001
ACAD
1000
ACAD_MTEXT_DEFINED_HEIGHT_BEGIN
1070
    46
1040
1.35222218681682
1000
ACAD_MTEXT_DEFINED_HEIGHT_END
  0
MTEXT
  5
211
330
2
100
AcDbEntity
  8
图框
100
AcDbMText
 10
802.6002639403696
 20
230.1386946515137
 30
0.0
 40
0.6000023545570477
 41
2.432903725062595
 46
1.35222218681682
 71
     5
 72
     5
  1
{\C4;8}
  7
Romans字体
 73
     1
 44
1.0
1001
ACAD
1000
ACAD_MTEXT_DEFINED_HEIGHT_BEGIN
1070
    46
1040
1.35222218681682
1000
ACAD_MTEXT_DEFINED_HEIGHT_END
  0
MTEXT
  5
212
330
2
100
AcDbEntity
  8
图框
100
AcDbMText
 10
806.7310654902215
 20
228.7836278304748
 30
0.0
 40
0.6000023545570477
 41
5.828702745953752
 46
1.35222218681682
 71
     5
 72
     5
  1
{\C4;8}
  7
Romans字体
 73
     1
 44
1.0
1001
ACAD
1000
ACAD_MTEXT_DEFINED_HEIGHT_BEGIN
1070
    46
1040
1.35222218681682
1000
ACAD_MTEXT_DEFINED_HEIGHT_END
  0
MTEXT
  5
213
330
2
100
AcDbEntity
  8
图框
100
AcDbMText
 10
802.6002622547137
 20
228.7836278304748
 30
0.0
 40
0.6000023545570477
 41
2.432903725062595
 46
1.35222218681682
 71
     5
 72
     5
  1
{\C4;8}
  7
Romans字体
 73
     1
 44
1.0
1001
ACAD
1000
ACAD_MTEXT_DEFINED_HEIGHT_BEGIN
1070
    46
1040
1.35222218681682
1000
ACAD_MTEXT_DEFINED_HEIGHT_END
  0
MTEXT
  5
214
330
2
100
AcDbEntity
  8
图框
100
AcDbMText
 10
806.7310638043439
 20
227.4283827144371
 30
0.0
 40
0.6000023545570477
 41
5.828702745953752
 46
1.35222218681682
 71
     5
 72
     5
  1
{\C4;8}
  7
Romans字体
 73
     1
 44
1.0
1001
ACAD
1000
ACAD_MTEXT_DEFINED_HEIGHT_BEGIN
1070
    46
1040
1.35222218681682
1000
ACAD_MTEXT_DEFINED_HEIGHT_END
  0
MTEXT
  5
215
330
2
100
AcDbEntity
  8
图框
100
AcDbMText
 10
802.6002605688358
 20
227.4283827144371
 30
0.0
 40
0.6000023545570477
 41
2.432903725062595
 46
1.35222218681682
 71
     5
 72
     5
  1
{\C4;8}
  7
Romans字体
 73
     1
 44
1.0
1001
ACAD
1000
ACAD_MTEXT_DEFINED_HEIGHT_BEGIN
1070
    46
1040
1.35222218681682
1000
ACAD_MTEXT_DEFINED_HEIGHT_END
  0
MTEXT
  5
216
330
2
100
AcDbEntity
  8
图框
100
AcDbMText
 10
806.7310621222615
 20
226.0761886832203
 30
0.0
 40
0.6000023545570477
 41
5.828702745953752
 46
1.35222218681682
 71
     5
 72
     5
  1
{\C4;8}
  7
Romans字体
 73
     1
 44
1.0
1001
ACAD
1000
ACAD_MTEXT_DEFINED_HEIGHT_BEGIN
1070
    46
1040
1.35222218681682
1000
ACAD_MTEXT_DEFINED_HEIGHT_END
  0
MTEXT
  5
217
330
2
100
AcDbEntity
  8
图框
100
AcDbMText
 10
802.6002588867536
 20
226.0761886832202
 30
0.0
 40
0.6000023545570477
 41
2.432903725062595
 46
1.35222218681682
 71
     5
 72
     5
  1
{\C4;8}
  7
Romans字体
 73
     1
 44
1.0
1001
ACAD
1000
ACAD_MTEXT_DEFINED_HEIGHT_BEGIN
1070
    46
1040
1.35222218681682
1000
ACAD_MTEXT_DEFINED_HEIGHT_END
  0
MTEXT
  5
218
330
2
100
AcDbEntity
  8
图框
100
AcDbMText
 10
806.7310604401795
 20
224.7239946519783
 30
0.0
 40
0.6000023545570477
 41
5.828702745953752
 46
1.35222218681682
 71
     5
 72
     5
  1
{\C4;8}
  7
Romans字体
 73
     1
 44
1.0
1001
ACAD
1000
ACAD_MTEXT_DEFINED_HEIGHT_BEGIN
1070
    46
1040
1.35222218681682
1000
ACAD_MTEXT_DEFINED_HEIGHT_END
  0
MTEXT
  5
219
330
2
100
AcDbEntity
  8
图框
100
AcDbMText
 10
802.6002572046714
 20
224.7239946519783
 30
0.0
 40
0.6000023545570477
 41
2.432903725062595
 46
1.35222218681682
 71
     5
 72
     5
  1
{\C4;8}
  7
Romans字体
 73
     1
 44
1.0
1001
ACAD
1000
ACAD_MTEXT_DEFINED_HEIGHT_BEGIN
1070
    46
1040
1.35222218681682
1000
ACAD_MTEXT_DEFINED_HEIGHT_END
  0
MTEXT
  5
21A
330
2
100
AcDbEntity
  8
图框
100
AcDbMText
 10
782.715370557231
 20
223.3760963558376
 30
0.0
 40
0.6000023545570477
 41
6.066833998183262
 46
1.352222186816343
 71
     5
 72
     5
  1
{\C4;1010172201001}
  7
Romans字体
 73
     1
 44
1.0
1001
ACAD
1000
ACAD_MTEXT_DEFINED_HEIGHT_BEGIN
1070
    46
1040
1.352222186816343
1000
ACAD_MTEXT_DEFINED_HEIGHT_END
  0
MTEXT
  5
21B
330
2
100
AcDbEntity
  8
图框
100
AcDbMText
 10
800.1673703153002
 20
223.3746289903769
 30
0.0
 40
0.59999791584616
 41
2.432903725062594
 46
1.35515691773857
 71
     5
 72
     5
  1
{\C4;3.2}
  7
Romans字体
 73
     1
 44
1.0
1001
ACAD
1000
ACAD_MTEXT_DEFINED_HEIGHT_BEGIN
1070
    46
1040
1.35515691773857
1000
ACAD_MTEXT_DEFINED_HEIGHT_END
  0
MTEXT
  5
21C
330
2
100
AcDbEntity
  8
图框
100
AcDbMText
 10
787.7036181788354
 20
223.3760162843503
 30
0.0
 40
0.6000023545570477
 41
3.909661246359451
 46
1.352222186816528
 71
     5
 72
     5
  1
{\C4;0.63}
  7
Romans字体
 73
     1
 44
1.0
1001
ACAD
1000
ACAD_MTEXT_DEFINED_HEIGHT_BEGIN
1070
    46
1040
1.352222186816528
1000
ACAD_MTEXT_DEFINED_HEIGHT_END
  0
MTEXT
  5
21D
330
2
100
AcDbEntity
  8
图框
100
AcDbMText
 10
791.6132794261953
 20
223.3760963558378
 30
0.0
 40
0.6000023545570477
 41
3.909661247026225
 46
1.3522221868165
 71
     5
 72
     5
  1
{\C4;2.5}
  7
Romans字体
 73
     1
 44
1.0
1001
ACAD
1000
ACAD_MTEXT_DEFINED_HEIGHT_BEGIN
1070
    46
1040
1.3522221868165
1000
ACAD_MTEXT_DEFINED_HEIGHT_END
  0
MTEXT
  5
21E
330
2
100
AcDbEntity
  8
图框
100
AcDbMText
 10
795.0430623877076
 20
223.3760963558378
 30
0.0
 40
0.6000023545570477
 41
2.949904678664852
 46
1.352222186816635
 71
     5
 72
     5
  1
{\C4;14}
  7
Romans字体
 73
     1
 44
1.0
1001
ACAD
1000
ACAD_MTEXT_DEFINED_HEIGHT_BEGIN
1070
    46
1040
1.352222186816635
1000
ACAD_MTEXT_DEFINED_HEIGHT_END
  0
MTEXT
  5
21F
330
2
100
AcDbEntity
  8
图框
100
AcDbMText
 10
797.7344665899042
 20
223.3760963558377
 30
0.0
 40
0.6000023545570477
 41
2.43290372572948
 46
1.352222186816667
 71
     5
 72
     5
  1
{\C4;2.25}
  7
Romans字体
 73
     1
 44
1.0
1001
ACAD
1000
ACAD_MTEXT_DEFINED_HEIGHT_BEGIN
1070
    46
1040
1.352222186816667
1000
ACAD_MTEXT_DEFINED_HEIGHT_END
  0
MTEXT
  5
220
330
2
100
AcDbEntity
  8
图框
100
AcDbMText
 10
777.4043667434355
 20
223.3760963558379
 30
0.0
 40
0.6000023545570477
 41
4.555173628074113
 46
1.3522221868162
 71
     5
 72
     5
  1
{\C4;CDGF-2.5}
  7
Romans字体
 73
     1
 44
1.0
1001
ACAD
1000
ACAD_MTEXT_DEFINED_HEIGHT_BEGIN
1070
    46
1040
1.3522221868162
1000
ACAD_MTEXT_DEFINED_HEIGHT_END
  0
MTEXT
  5
221
330
2
100
AcDbEntity
  8
图框
100
AcDbMText
 10
806.7310688579826
 20
223.3687495359658
 30
0.0
 40
0.6000023545570477
 41
5.828702745953752
 46
1.35222218681682
 71
     5
 72
     5
  1
{\C4;6}
  7
Romans字体
 73
     1
 44
1.0
1001
ACAD
1000
ACAD_MTEXT_DEFINED_HEIGHT_BEGIN
1070
    46
1040
1.35222218681682
1000
ACAD_MTEXT_DEFINED_HEIGHT_END
  0
MTEXT
  5
222
330
2
100
AcDbEntity
  8
图框
100
AcDbMText
 10
802.6002656224747
 20
223.3687495359657
 30
0.0
 40
0.6000023545570477
 41
2.432903725062595
 46
1.35222218681682
 71
     5
 72
     5
  1
{\C4;6}
  7
Romans字体
 73
     1
 44
1.0
1001
ACAD
1000
ACAD_MTEXT_DEFINED_HEIGHT_BEGIN
1070
    46
1040
1.35222218681682
1000
ACAD_MTEXT_DEFINED_HEIGHT_END
  0
MTEXT
  5
223
330
2
100
AcDbEntity
  8
图框
100
AcDbMText
 10
787.7036181788354
 20
230.138604576526
 30
0.0
 40
0.6000023545570477
 41
3.909661246359451
 46
1.352222186816528
 71
     5
 72
     5
  1
{\C4;0.74}
  7
Romans字体
 73
     1
 44
1.0
1001
ACAD
1000
ACAD_MTEXT_DEFINED_HEIGHT_BEGIN
1070
    46
1040
1.352222186816528
1000
ACAD_MTEXT_DEFINED_HEIGHT_END
  0
MTEXT
  5
224
330
2
100
AcDbEntity
  8
图框
100
AcDbMText
 10
787.7036181788354
 20
228.7863823897095
 30
0.0
 40
0.6000023545570477
 41
3.909661246359451
 46
1.352222186816528
 71
     5
 72
     5
  1
{\C4;0.72}
  7
Romans字体
 73
     1
 44
1.0
1001
ACAD
1000
ACAD_MTEXT_DEFINED_HEIGHT_BEGIN
1070
    46
1040
1.352222186816528
1000
ACAD_MTEXT_DEFINED_HEIGHT_END
  0
MTEXT
  5
225
330
2
100
AcDbEntity
  8
图框
100
AcDbMText
 10
787.7036181788354
 20
227.4341602028943
 30
0.0
 40
0.6000023545570477
 41
3.909661246359451
 46
1.352222186816528
 71
     5
 72
     5
  1
{\C4;0.70}
  7
Romans字体
 73
     1
 44
1.0
1001
ACAD
1000
ACAD_MTEXT_DEFINED_HEIGHT_BEGIN
1070
    46
1040
1.352222186816528
1000
ACAD_MTEXT_DEFINED_HEIGHT_END
  0
MTEXT
  5
226
330
2
100
AcDbEntity
  8
图框
100
AcDbMText
 10
787.7036181788354
 20
226.0819380160791
 30
0.0
 40
0.6000023545570477
 41
3.909661246359451
 46
1.352222186816528
 71
     5
 72
     5
  1
{\C4;0.68}
  7
Romans字体
 73
     1
 44
1.0
1001
ACAD
1000
ACAD_MTEXT_DEFINED_HEIGHT_BEGIN
1070
    46
1040
1.352222186816528
1000
ACAD_MTEXT_DEFINED_HEIGHT_END
  0
MTEXT
  5
227
330
2
100
AcDbEntity
  8
图框
100
AcDbMText
 10
787.7036181788354
 20
224.7297158292639
 30
0.0
 40
0.6000023545570477
 41
3.909661246359451
 46
1.352222186816528
 71
     5
 72
     5
  1
{\C4;0.67}
  7
Romans字体
 73
     1
 44
1.0
1001
ACAD
1000
ACAD_MTEXT_DEFINED_HEIGHT_BEGIN
1070
    46
1040
1.352222186816528
1000
ACAD_MTEXT_DEFINED_HEIGHT_END
  0
MTEXT
  5
373
330
2
100
AcDbEntity
  8
图框
 62
     3
100
AcDbMText
 10
843.42914394815
 20
191.7942996856998
 30
0.0
 40
0.746378394635083
 41
8.403098007973925
 46
2.218038889596384
 71
     5
 72
     5
  1
{\C4;1010172200301}
  7
Romans字体
 73
     1
 44
1.0
1001
ACAD
1000
ACAD_MTEXT_DEFINED_HEIGHT_BEGIN
1070
    46
1040
2.218038889596384
1000
ACAD_MTEXT_DEFINED_HEIGHT_END
  0
INSERT
  5
374
330
2
100
AcDbEntity
  8
DIM
100
AcDbBlockReference
  2
A4图框-NEW
 10
565.8985669686805
 20
64.50695529169367
 30
0.0
 41
0.25
 42
0.25
 43
0.25
  0
MTEXT
  5
375
330
2
100
AcDbEntity
  8
图框
 62
     3
100
AcDbMText
 10
831.8304017672662
 20
188.3636919496518
 30
0.0
 40
0.746378394635083
 41
2.707336787601192
 46
1.971523801091308
 71
     5
 72
     5
  1
0.74g
  7
Romans字体
 73
     1
 44
1.0
1001
ACAD
1000
ACAD_MTEXT_DEFINED_HEIGHT_BEGIN
1070
    46
1040
1.971523801091308
1000
ACAD_MTEXT_DEFINED_HEIGHT_END
  0
MTEXT
  5
376
330
2
100
AcDbEntity
  8
图框
 62
     3
100
AcDbMText
 10
826.4157273895722
 20
188.4673907665274
 30
0.0
 40
0.7463783937585367
 41
2.707337108597616
 46
1.971523650302624
 71
     5
 72
     5
  1
4:1
  7
Romans字体
 73
     1
 44
1.0
1001
ACAD
1000
ACAD_MTEXT_DEFINED_HEIGHT_BEGIN
1070
    46
1040
1.971523650302624
1000
ACAD_MTEXT_DEFINED_HEIGHT_END
  0
MTEXT
  5
377
330
2
100
AcDbEntity
  8
图框
 62
     3
100
AcDbMText
 10
843.4291436222185
 20
193.9891621679204
 30
0.0
 40
0.7463783937585367
 41
8.403097998105339
 46
2.171686376421464
 71
     5
 72
     5
  1
CDGF-0.37
  7
Romans字体
 73
     1
 44
1.0
1001
ACAD
1000
ACAD_MTEXT_DEFINED_HEIGHT_BEGIN
1070
    46
1040
2.171686376421464
1000
ACAD_MTEXT_DEFINED_HEIGHT_END
  0
LINE
  5
3B9
330
2
100
AcDbEntity
  8
图框
370
    35
100
AcDbLine
 10
798.9509184527689
 20
231.017328049153
 30
0.0
 11
798.9509184527689
 21
222.6926384425577
 31
0.0
  0
LINE
  5
3BB
330
2
100
AcDbEntity
  8
图框
370
    35
100
AcDbLine
 10
803.8167259028941
 20
231.0148065297744
 30
0.0
 11
803.8167259028941
 21
222.6926384425575
 31
0.0
  0
LINE
  5
3BD
330
2
100
AcDbEntity
  8
图框
370
    -3
100
AcDbLine
 10
789.6584488026817
 20
231.0173280491528
 30
0.0
 11
789.6584488026814
 21
222.6926384425579
 31
0.0
  0
LINE
  5
3BF
330
2
100
AcDbEntity
  8
图框
370
    35
100
AcDbLine
 10
809.6454154335138
 20
231.0148065297744
 30
0.0
 11
809.645405081026
 21
222.6926384425574
 31
0.0
  0
LINE
  5
3C5
330
2
100
AcDbEntity
  8
图框
370
    -3
100
AcDbLine
 10
793.5681100490413
 20
231.0173280491528
 30
0.0
 11
793.5681100490413
 21
222.6926384425578
 31
0.0
  0
LINE
  5
3C7
330
2
100
AcDbEntity
  8
图框
370
    -3
100
AcDbLine
 10
796.5180147270403
 20
231.0173280491529
 30
0.0
 11
796.5180147270407
 21
222.6926384425577
 31
0.0
  0
LINE
  5
3CD
330
2
100
AcDbEntity
  8
图框
370
    -3
100
AcDbLine
 10
793.5681100497081
 20
231.0173280491528
 30
0.0
 11
793.5681100497077
 21
222.6926384425578
 31
0.0
  0
LINE
  5
3CF
330
2
100
AcDbEntity
  8
图框
370
    -3
100
AcDbLine
 10
796.5180147277067
 20
231.0173280491529
 30
0.0
 11
796.5180147277078
 21
222.6926384425577
 31
0.0
  0
LINE
  5
3D1
330
2
100
AcDbEntity
  8
图框
370
    35
100
AcDbLine
 10
801.3838221778316
 20
231.0173280491531
 30
0.0
 11
801.3838221778316
 21
222.6926384425576
 31
0.0
  0
LINE
  5
3D8
330
2
100
AcDbEntity
  8
图框
370
    -3
100
AcDbLine
 10
785.7487875556556
 20
230.6147949565687
 30
0.0
 11
785.7487875556556
 21
233.3906476067316
 31
0.0
  0
LINE
  5
3DA
330
2
100
AcDbEntity
  8
图框
370
    -3
100
AcDbLine
 10
779.6819535574726
 20
230.6147949565687
 30
0.0
 11
779.6819535574726
 21
233.3906476067316
 31
0.0
  0
LINE
  5
3DD
330
2
100
AcDbEntity
  8
图框
370
    -3
100
AcDbLine
 10
785.7487875563228
 20
230.6147949565687
 30
0.0
 11
785.7487875563228
 21
233.3906476067316
 31
0.0
  0
LINE
  5
3DF
330
2
100
AcDbEntity
  8
图框
370
    -3
100
AcDbLine
 10
779.6819535581391
 20
230.6147949565687
 30
0.0
 11
779.6819535581391
 21
230.8144025369463
 31
0.0
  0
ENDSEC
  0
SECTION
  2
OBJECTS
  0
DICTIONARY
  5
B
330
0
100
AcDbDictionary
281
     1
  3
ACAD_COLOR
350
25C
  3
ACAD_GROUP
350
249
  3
ACAD_LAYOUT
350
22A
  3
ACAD_MATERIAL
350
D
  3
ACAD_MLEADERSTYLE
350
2BE
  3
ACAD_MLINESTYLE
350
24A
  3
ACAD_PLOTSETTINGS
350
24B
  3
ACAD_PLOTSTYLENAME
350
A
  3
ACAD_SCALELIST
350
25D
  3
ACAD_TABLESTYLE
350
25E
  3
ACAD_VISUALSTYLE
350
243
  3
ACDB_RECOMPOSE_DATA
350
2AE
  3
AcDbVariableDictionary
350
286
  0
DICTIONARY
  5
244
330
240
100
AcDbDictionary
280
     1
281
     1
  0
DICTIONARY
  5
235
330
234
100
AcDbDictionary
280
     1
281
     1
  3
ACAD_LAYERFILTERS
360
236
  3
ACAD_LAYERSTATES
360
237
  3
ACLYDICTIONARY
360
238
  0
DICTIONARY
  5
7
330
6
100
AcDbDictionary
280
     1
281
     1
  3
ADSK_XREC_LAYER_RECONCILED
360
8
  0
DICTIONARY
  5
18
330
17
100
AcDbDictionary
280
     1
281
     1
  3
ADSK_XREC_LAYER_RECONCILED
360
19
  0
DICTIONARY
  5
26
330
25
100
AcDbDictionary
280
     1
281
     1
  3
ADSK_XREC_LAYER_RECONCILED
360
27
  0
DICTIONARY
  5
3
330
2
100
AcDbDictionary
280
     1
281
     1
  3
ACAD_SORTENTS
360
285
  0
DICTIONARY
  5
775
330
2CE
100
AcDbDictionary
280
     1
281
     1
  0
DICTIONARY
  5
77E
330
6E0
100
AcDbDictionary
280
     1
281
     1
  3
ACAD_MTEXT_2008_RT
360
77F
  0
DICTIONARY
  5
780
330
724
100
AcDbDictionary
280
     1
281
     1
  3
ACAD_MTEXT_2008_RT
360
781
  0
DICTIONARY
  5
782
330
725
100
AcDbDictionary
280
     1
281
     1
  3
ACAD_MTEXT_2008_RT
360
783
  0
DICTIONARY
  5
784
330
74A
100
AcDbDictionary
280
     1
281
     1
  3
ACAD_MTEXT_2008_RT
360
785
  0
DICTIONARY
  5
786
330
74D
100
AcDbDictionary
280
     1
281
     1
  3
ACAD_MTEXT_2008_RT
360
787
  0
DICTIONARY
  5
788
330
74E
100
AcDbDictionary
280
     1
281
     1
  3
ACAD_MTEXT_2008_RT
360
789
  0
DICTIONARY
  5
78A
330
758
100
AcDbDictionary
280
     1
281
     1
  3
ACAD_MTEXT_2008_RT
360
78B
  0
DICTIONARY
  5
78C
330
759
100
AcDbDictionary
280
     1
281
     1
  3
ACAD_MTEXT_2008_RT
360
78D
  0
DICTIONARY
  5
78E
330
75A
100
AcDbDictionary
280
     1
281
     1
  3
ACAD_MTEXT_2008_RT
360
78F
  0
DICTIONARY
  5
790
330
768
100
AcDbDictionary
280
     1
281
     1
  3
ACAD_MTEXT_2008_RT
360
791
  0
DICTIONARY
  5
792
330
769
100
AcDbDictionary
280
     1
281
     1
  3
ACAD_MTEXT_2008_RT
360
793
  0
DICTIONARY
  5
794
330
76A
100
AcDbDictionary
280
     1
281
     1
  3
ACAD_MTEXT_2008_RT
360
795
  0
DICTIONARY
  5
77B
330
F1
100
AcDbDictionary
280
     1
281
     1
  3
ACAD_MTEXT_2008_RT
360
77C
  0
DICTIONARY
  5
11D
330
11C
100
AcDbDictionary
280
     1
281
     1
  3
ACAD_DIMASSOC
360
11E
  0
DICTIONARY
  5
25C
102
{ACAD_REACTORS
330
B
102
}
330
B
100
AcDbDictionary
281
     1
  0
DICTIONARY
  5
249
102
{ACAD_REACTORS
330
B
102
}
330
B
100
AcDbDictionary
281
     1
  0
DICTIONARY
  5
22A
102
{ACAD_REACTORS
330
B
102
}
330
B
100
AcDbDictionary
281
     1
  3
Layout1
350
22F
  3
Layout2
350
233
  3
Model
350
229
  0
DICTIONARY
  5
D
102
{ACAD_REACTORS
330
B
102
}
330
B
100
AcDbDictionary
281
     1
  3
ByBlock
350
254
  3
ByLayer
350
24C
  3
Global
350
C
  0
DICTIONARY
  5
2BE
102
{ACAD_REACTORS
330
B
102
}
330
B
100
AcDbDictionary
281
     1
  3
Standard
350
2BF
  0
DICTIONARY
  5
24A
102
{ACAD_REACTORS
330
B
102
}
330
B
100
AcDbDictionary
281
     1
  3
Standard
350
25F
  0
DICTIONARY
  5
24B
102
{ACAD_REACTORS
330
B
102
}
330
B
100
AcDbDictionary
281
     1
  0
ACDBDICTIONARYWDFLT
  5
A
102
{ACAD_REACTORS
330
B
102
}
330
B
100
AcDbDictionary
281
     1
  3
Normal
350
9
100
AcDbDictionaryWithDefault
340
9
  0
DICTIONARY
  5
25D
102
{ACAD_REACTORS
330
B
102
}
330
B
100
AcDbDictionary
281
     1
  3
A0
350
264
  3
A1
350
265
  3
A2
350
266
  3
A3
350
267
  3
A4
350
268
  3
A5
350
269
  3
A6
350
26A
  3
A7
350
26B
  3
A8
350
26C
  3
A9
350
26D
  3
B0
350
26E
  3
B1
350
26F
  3
B2
350
270
  3
B3
350
271
  3
B4
350
272
  3
B5
350
273
  3
B6
350
274
  3
B7
350
275
  3
B8
350
276
  3
B9
350
277
  3
C0
350
278
  3
C1
350
279
  3
C2
350
27A
  3
C3
350
27B
  3
C4
350
27C
  3
C5
350
27D
  3
C6
350
27E
  3
C7
350
27F
  3
C8
350
280
  3
C9
350
281
  3
D0
350
282
  3
D1
350
283
  3
D2
350
284
  0
DICTIONARY
  5
25E
102
{ACAD_REACTORS
330
B
102
}
330
B
100
AcDbDictionary
281
     1
  3
Standard
350
260
  0
DICTIONARY
  5
243
102
{ACAD_REACTORS
330
B
102
}
330
B
100
AcDbDictionary
281
     1
  3
2dWireframe
350
242
  3
3D Hidden
350
2B6
  3
3dWireframe
350
263
  3
Basic
350
2B5
  3
Brighten
350
2B9
  3
ColorChange
350
2BD
  3
Conceptual
350
2B7
  3
Dim
350
2B8
  3
Facepattern
350
2BC
  3
Flat
350
2B1
  3
FlatWithEdges
350
2B2
  3
Gouraud
350
2B3
  3
GouraudWithEdges
350
2B4
  3
Linepattern
350
2BB
  3
Realistic
350
262
  3
Thicken
350
2BA
  0
XRECORD
  5
2AE
102
{ACAD_REACTORS
330
B
102
}
330
B
100
AcDbXrecord
280
     1
 90
        1
330
F1
330
260
330
6E0
330
724
330
725
330
74A
330
74D
330
74E
330
758
330
759
330
75A
330
768
330
769
330
76A
  0
DICTIONARY
  5
286
102
{ACAD_REACTORS
330
B
102
}
330
B
100
AcDbDictionary
281
     1
  3
CANNOSCALE
350
289
  3
CMLEADERSTYLE
350
288
  3
CTABLESTYLE
350
287
  3
DIMASSOC
350
3E7
  3
HIDETEXT
350
3E6
  3
INDEXCTL
350
3E5
  3
LIGHTINGUNITS
350
28A
  3
MSLTSCALE
350
3E3
  3
SORTENTS
350
3E4
  0
DICTIONARY
  5
236
102
{ACAD_REACTORS
330
235
102
}
330
235
100
AcDbDictionary
281
     1
  0
DICTIONARY
  5
237
102
{ACAD_REACTORS
330
235
102
}
330
235
100
AcDbDictionary
281
     1
  0
DICTIONARY
  5
238
102
{ACAD_REACTORS
330
235
102
}
330
235
100
AcDbDictionary
281
     1
1001
ACAD
1000
<All
  0
XRECORD
  5
8
102
{ACAD_REACTORS
330
7
102
}
330
7
100
AcDbXrecord
280
     1
290
     1
  0
XRECORD
  5
19
102
{ACAD_REACTORS
330
18
102
}
330
18
100
AcDbXrecord
280
     1
290
     1
  0
XRECORD
  5
27
102
{ACAD_REACTORS
330
26
102
}
330
26
100
AcDbXrecord
280
     1
290
     1
  0
SORTENTSTABLE
  5
285
102
{ACAD_REACTORS
330
3
102
}
330
3
100
AcDbSortentsTable
330
2
331
190
  5
1B7
331
CA
  5
CA
331
21E
  5
3D4
331
171
  5
1A3
331
198
  5
1BF
331
1A0
  5
1C7
331
DA
  5
DA
331
1DF
  5
207
331
226
  5
3DC
331
1A8
  5
1CF
331
1E7
  5
20F
331
1C
  5
1C
331
111
  5
172
331
1EF
  5
217
331
169
  5
19B
331
1B0
  5
1D8
331
EA
  5
100
331
1F7
  5
21F
331
11B
  5
186
331
131
  5
189
331
1B8
  5
1E0
331
1C0
  5
1E8
331
FA
  5
135
331
374
  5
3DF
331
189
  5
1B0
331
F3
  5
119
331
1C8
  5
1F0
331
217
  5
3CD
331
191
  5
1B8
331
CB
  5
CB
331
1D0
  5
1F8
331
21F
  5
3D5
331
172
  5
1A4
331
199
  5
1C0
331
227
  5
3DD
331
1A1
  5
1C8
331
DB
  5
DB
331
1E0
  5
208
331
1D
  5
1D
331
1E8
  5
210
331
3BF
  5
114
331
155
  5
194
331
112
  5
173
331
1A9
  5
1D0
331
3C7
  5
FF
331
1B1
  5
1D9
331
1F0
  5
218
331
EB
  5
104
331
16A
  5
19C
331
3CF
  5
E4
331
11C
  5
187
331
1B9
  5
1E1
331
1F8
  5
220
331
132
  5
18A
331
F4
  5
11A
331
18A
  5
1B1
331
1C1
  5
1E9
331
375
  5
3E0
331
FB
  5
136
331
210
  5
3C6
331
3DF
  5
EC
331
1C9
  5
1F1
331
1D1
  5
1F9
331
218
  5
3CE
331
192
  5
1B9
331
220
  5
3D6
331
173
  5
1A5
331
19A
  5
1C1
331
1A2
  5
1C9
331
1E1
  5
209
331
163
  5
195
331
113
  5
174
331
1AA
  5
1D1
331
1E9
  5
211
331
1E
  5
1E
331
16B
  5
19D
331
1B2
  5
1DA
331
EC
  5
108
331
1F1
  5
219
331
1F9
  5
221
331
133
  5
18B
331
1BA
  5
1E2
331
F5
  5
11B
331
1C2
  5
1EA
331
211
  5
3C7
331
376
  5
3E1
331
18B
  5
1B2
331
3D8
  5
10F
331
1CA
  5
1F2
331
10E
  5
16F
331
193
  5
1BA
331
1D2
  5
1FA
331
CD
  5
CD
331
184
  5
1AB
331
219
  5
3CF
331
221
  5
3D7
331
174
  5
1A6
331
19B
  5
1C2
331
D5
  5
D5
331
1DA
  5
201
331
1E2
  5
20A
331
3B9
  5
225
331
164
  5
196
331
1A3
  5
1CA
331
147
  5
193
331
DD
  5
DD
331
1EA
  5
212
331
1F
  5
1F
331
114
  5
175
331
1AB
  5
1D2
331
16
  5
16
331
1B3
  5
1DB
331
1F2
  5
21A
331
ED
  5
110
331
16C
  5
19E
331
3D1
  5
E0
331
134
  5
18C
331
1BB
  5
1E3
331
1FA
  5
222
331
F6
  5
11C
331
377
  5
3E2
331
18C
  5
1B3
331
1C3
  5
1EB
331
212
  5
3C8
331
105
  5
169
331
1CB
  5
1F3
331
10F
  5
170
331
21A
  5
3D0
331
138
  5
190
331
185
  5
1AC
331
194
  5
1BB
331
1DB
  5
202
331
222
  5
3D8
331
D6
  5
D6
331
175
  5
1A7
331
19C
  5
1C3
331
1A4
  5
1CB
331
1E3
  5
20B
331
DE
  5
E1
331
165
  5
197
331
20
  5
20
331
115
  5
176
331
1AC
  5
1D3
331
1EB
  5
213
331
178
  5
1AA
331
1F3
  5
21B
331
16D
  5
19F
331
1B4
  5
1DC
331
EE
  5
111
331
1FB
  5
226
331
135
  5
18D
331
1BC
  5
1E4
331
F7
  5
130
331
1C4
  5
1EC
331
213
  5
3C9
331
18D
  5
1B4
331
3DA
  5
107
331
1CC
  5
1F4
331
106
  5
16A
331
108
  5
16C
331
195
  5
1BC
331
CF
  5
CF
331
139
  5
191
331
186
  5
1AD
331
21B
  5
3D1
331
223
  5
3D9
331
176
  5
1A8
331
19D
  5
1C4
331
1DC
  5
203
331
1E4
  5
20C
331
3BB
  5
139
331
DF
  5
E5
331
166
  5
198
331
1A5
  5
1CC
331
1EC
  5
214
331
21
  5
21
331
116
  5
177
331
1AD
  5
1D4
331
1B5
  5
1DD
331
1F4
  5
21C
331
16E
  5
1A0
331
136
  5
18E
331
1BD
  5
1E5
331
1FC
  5
227
331
214
  5
3CA
331
18E
  5
1B5
331
1C5
  5
1ED
331
109
  5
16D
331
107
  5
16B
331
1CD
  5
1F5
331
21C
  5
3D2
331
D0
  5
D0
331
13A
  5
192
331
187
  5
1AE
331
196
  5
1BD
331
19E
  5
1C5
331
1DD
  5
205
331
177
  5
1A9
331
224
  5
3DA
331
1A6
  5
1CD
331
1E5
  5
20D
331
1A
  5
1A
331
E0
  5
E9
331
167
  5
199
331
22
  5
22
331
117
  5
178
331
1AE
  5
1D5
331
1ED
  5
215
331
1F5
  5
21D
331
119
  5
184
331
16F
  5
1A1
331
1B6
  5
1DE
331
1FD
  5
373
331
F1
  5
117
331
137
  5
18F
331
1BE
  5
1E6
331
1C6
  5
1EE
331
215
  5
3CB
331
18F
  5
1B6
331
1CE
  5
1F6
331
21D
  5
3D3
331
197
  5
1BE
331
170
  5
1A2
331
225
  5
3DB
331
19F
  5
1C6
331
1DE
  5
206
331
1B
  5
1B
331
1E6
  5
20E
331
3BD
  5
134
331
E1
  5
ED
331
110
  5
171
331
1A7
  5
1CE
331
23
  5
23
331
1AF
  5
1D7
331
1EE
  5
216
331
3C5
  5
103
331
E9
  5
FC
331
168
  5
19A
331
11A
  5
185
331
1B7
  5
1DF
331
1F6
  5
21E
331
130
  5
188
331
3CD
  5
E8
331
373
  5
3DE
331
188
  5
1AF
331
1BF
  5
1E7
331
216
  5
3CC
331
3DD
  5
F1
331
1C7
  5
1EF
331
10B
  5
16E
331
1CF
  5
1F7
  0
XRECORD
  5
77F
102
{ACAD_REACTORS
330
77E
102
}
330
77E
100
AcDbXrecord
280
     1
 40
1527.0
  1
\pxqc;BQ LUO
  0
XRECORD
  5
781
102
{ACAD_REACTORS
330
780
102
}
330
780
100
AcDbXrecord
280
     1
 40
3624820.0
  1
\pxqc;档案员{\H0.7x;\P\Fromans|c134;Filing Clerk\fFangSong_GB2312|b0|i0|c134|p49; }
  0
XRECORD
  5
783
102
{ACAD_REACTORS
330
782
102
}
330
782
100
AcDbXrecord
280
     1
 40
2054623.0
  1
\pxqc;日期{\Fromans|c134;/Date}
  0
XRECORD
  5
785
102
{ACAD_REACTORS
330
784
102
}
330
784
100
AcDbXrecord
280
     1
 40
1836818.0
  1
\pxsm0.7;{\fFangSong_GB2312|b0|i0|c134|p49;标准化}\PStand.
  0
XRECORD
  5
787
102
{ACAD_REACTORS
330
786
102
}
330
786
100
AcDbXrecord
280
     1
 40
1476476.0
  1
\pxsm0.7;签名\P{\Fromans|c134;Signature} 
  0
XRECORD
  5
789
102
{ACAD_REACTORS
330
788
102
}
330
788
100
AcDbXrecord
280
     1
 40
1354713.0
  1
\pxsm0.7,qc;处数\P{\Fromans|c134;Number }
  0
XRECORD
  5
78B
102
{ACAD_REACTORS
330
78A
102
}
330
78A
100
AcDbXrecord
280
     1
 40
1692934.0
  1
\pxsm0.7;标记\P{\Fromans|c134;Mark}
  0
XRECORD
  5
78D
102
{ACAD_REACTORS
330
78C
102
}
330
78C
100
AcDbXrecord
280
     1
 40
1391581.0
  1
\pxsm0.7;审核\P{\Fromans|c134;Checked}
  0
XRECORD
  5
78F
102
{ACAD_REACTORS
330
78E
102
}
330
78E
100
AcDbXrecord
280
     1
 40
1546703.0
  1
\pxsm0.7;绘图\P{\Fromans|c134;Drawn\Ftxt|c134; }
  0
XRECORD
  5
791
102
{ACAD_REACTORS
330
790
102
}
330
790
100
AcDbXrecord
280
     1
 40
1293614.0
  1
\pxsm0.7;批准\P{\Fromans|c134;Approved}
  0
XRECORD
  5
793
102
{ACAD_REACTORS
330
792
102
}
330
792
100
AcDbXrecord
280
     1
 40
1583427.0
  1
\pxsm0.7;工艺\P{\Fromans|c134;Process}
  0
XRECORD
  5
795
102
{ACAD_REACTORS
330
794
102
}
330
794
100
AcDbXrecord
280
     1
 40
1435325.0
  1
\pxsm0.7;日期\P{\Fromans|c134;Date}
  0
XRECORD
  5
77C
102
{ACAD_REACTORS
330
77B
102
}
330
77B
100
AcDbXrecord
280
     1
 40
325686832.0
  1
\A1;\pxql;{\f仿宋_GB2312|b0|i0|c134|p49;技术参数}:\P\pq*;- {\f仿宋_GB2312|b0|i0|c134|p49;材料}: {\f仿宋_GB2312|b0|i0|c134|p49;铜合金}\P- {\f仿宋_GB2312|b0|i0|c134|p49;表面处理}: {\f仿宋_GB2312|b0|i0|c134|p49;镀金}\P\pql;- {\f仿宋_GB2312|b0|i0|c134|p49;额定电流}: 10A\P- {\f仿宋_GB231
  1
2|b0|i0|c134|p49;接触电阻}: ≤3mΩ\P- {\f仿宋_GB2312|b0|i0|c134|p49;线径范围}: 0.14-0.37mm{\H0.7x;\S2^ ;}(26-22 AWG)\P\pq*;- {\f仿宋_GB2312|b0|i0|c134|p49;可插拔次数}: {\f仿宋_GB2312|b0|i0|c134|p49;≥}500\P\P\pql;Technical specification:\P- Material: copper alloy\P- Surfac
  1
e: hard-gold plated\P- Rated current: 10A\P- Contact resistance: ≤3mΩ\P- Wire gauge: 0.14-0.37mm{\H0.7x;\S2^ ;}(26-22 AWG)\P- Mating cycles: {\f仿宋_GB2312|b0|i0|c134|p49;≥}500
  0
DIMASSOC
  5
11E
102
{ACAD_REACTORS
330
11D
102
}
330
11D
100
AcDbDimAssoc
330
11C
 90
        3
 70
     0
 71
     0
  1
AcDbOsnapPointRef
 72
     1
331
113
 73
     2
 91
        0
 40
1.0
 10
0.0
 20
0.0
 30
2.000000000000000E+50
 75
     0
  1
AcDbOsnapPointRef
 72
    13
331
114
 73
     2
 91
        0
 40
0.0
 10
0.0
 20
0.0
 30
2.000000000000000E+50
 75
     0
  0
LAYOUT
  5
22F
102
{ACAD_REACTORS
330
22A
102
}
330
22A
100
AcDbPlotSettings
  1

  2
none_device
  4

  6

 40
0.0
 41
0.0
 42
0.0
 43
0.0
 44
0.0
 45
0.0
 46
0.0
 47
0.0
 48
0.0
 49
0.0
140
0.0
141
0.0
142
1.0
143
1.0
 70
   688
 72
     0
 73
     0
 74
     5
  7

 75
    16
147
1.0
 76
     0
 77
     2
 78
   300
148
0.0
149
0.0
100
AcDbLayout
  1
Layout1
 70
     1
 71
     1
 10
0.0
 20
0.0
 11
12.0
 21
9.0
 12
0.0
 22
0.0
 32
0.0
 14
1.000000000000000E+20
 24
1.000000000000000E+20
 34
1.000000000000000E+20
 15
-1.000000000000000E+20
 25
-1.000000000000000E+20
 35
-1.000000000000000E+20
146
0.0
 13
0.0
 23
0.0
 33
0.0
 16
1.0
 26
0.0
 36
0.0
 17
0.0
 27
1.0
 37
0.0
 76
     0
330
22C
  0
LAYOUT
  5
233
102
{ACAD_REACTORS
330
22A
102
}
330
22A
100
AcDbPlotSettings
  1

  2
none_device
  4

  6

 40
0.0
 41
0.0
 42
0.0
 43
0.0
 44
0.0
 45
0.0
 46
0.0
 47
0.0
 48
0.0
 49
0.0
140
0.0
141
0.0
142
1.0
143
1.0
 70
   688
 72
     0
 73
     0
 74
     5
  7

 75
    16
147
1.0
 76
     0
 77
     2
 78
   300
148
0.0
149
0.0
100
AcDbLayout
  1
Layout2
 70
     1
 71
     2
 10
0.0
 20
0.0
 11
0.0
 21
0.0
 12
0.0
 22
0.0
 32
0.0
 14
0.0
 24
0.0
 34
0.0
 15
0.0
 25
0.0
 35
0.0
146
0.0
 13
0.0
 23
0.0
 33
0.0
 16
1.0
 26
0.0
 36
0.0
 17
0.0
 27
1.0
 37
0.0
 76
     0
330
230
  0
LAYOUT
  5
229
102
{ACAD_REACTORS
330
22A
102
}
330
22A
100
AcDbPlotSettings
  1

  2
Adobe PDF Converter.pc3
  4
A4
  6

 40
3.174999952316281
 41
3.174999952316281
 42
3.17498779296875
 43
3.175003051757812
 44
297.0318298339844
 45
209.9733276367186
 46
0.0000000000000076
 47
1.630241740247063
 48
246.9897427644609
 49
39.36804549891383
140
544.952097801264
141
244.7492402188181
142
1.0
143
1.025046328645055
 70
  3764
 72
     1
 73
     0
 74
     4
  7
monochrome.ctb
 75
     0
147
0.9755656618192436
 76
     1
 77
     2
 78
   300
148
-246.9897427644609
149
-39.36804549891383
100
AcDbLayout
  1
Model
 70
     1
 71
     0
 10
0.0
 20
0.0
 11
12.0
 21
9.0
 12
0.0
 22
0.0
 32
0.0
 14
1.000000000000000E+20
 24
1.000000000000000E+20
 34
1.000000000000000E+20
 15
-1.000000000000000E+20
 25
-1.000000000000000E+20
 35
-1.000000000000000E+20
146
0.0
 13
0.0
 23
0.0
 33
0.0
 16
1.0
 26
0.0
 36
0.0
 17
0.0
 27
1.0
 37
0.0
 76
     0
330
2
331
241
1001
ACAD_PSEXT
1000
Adobe PDF Converter.pc3
1000
Adobe PDF Converter
1000
桌面\*.pdf
1000

1070
     0
  0
MATERIAL
  5
254
102
{ACAD_XDICTIONARY
360
255
102
}
102
{ACAD_REACTORS
330
D
102
}
330
D
100
AcDbMaterial
  1
ByBlock
 72
     0
 43
0.0208333333333333
 43
0.0
 43
0.0
 43
0.0
 43
0.0
 43
0.0208333333333333
 43
0.0
 43
0.0
 43
0.0
 43
0.0
 43
1.0
 43
0.0
 43
0.0
 43
0.0
 43
0.0
 43
1.0
 77
     0
 47
0.0208333333333333
 47
0.0
 47
0.0
 47
0.0
 47
0.0
 47
0.0208333333333333
 47
0.0
 47
0.0
 47
0.0
 47
0.0
 47
1.0
 47
0.0
 47
0.0
 47
0.0
 47
0.0
 47
1.0
171
     0
 49
0.0208333333333333
 49
0.0
 49
0.0
 49
0.0
 49
0.0
 49
0.0208333333333333
 49
0.0
 49
0.0
 49
0.0
 49
0.0
 49
1.0
 49
0.0
 49
0.0
 49
0.0
 49
0.0
 49
1.0
175
     0
142
0.0208333333333333
142
0.0
142
0.0
142
0.0
142
0.0
142
0.0208333333333333
142
0.0
142
0.0
142
0.0
142
0.0
142
1.0
142
0.0
142
0.0
142
0.0
142
0.0
142
1.0
179
     0
144
0.0208333333333333
144
0.0
144
0.0
144
0.0
144
0.0
144
0.0208333333333333
144
0.0
144
0.0
144
0.0
144
0.0
144
1.0
144
0.0
144
0.0
144
0.0
144
0.0
144
1.0
147
0.0208333333333333
147
0.0
147
0.0
147
0.0
147
0.0
147
0.0208333333333333
147
0.0
147
0.0
147
0.0
147
0.0
147
1.0
147
0.0
147
0.0
147
0.0
147
0.0
147
1.0
  0
MATERIAL
  5
24C
102
{ACAD_XDICTIONARY
360
24D
102
}
102
{ACAD_REACTORS
330
D
102
}
330
D
100
AcDbMaterial
  1
ByLayer
 72
     0
 43
0.0208333333333333
 43
0.0
 43
0.0
 43
0.0
 43
0.0
 43
0.0208333333333333
 43
0.0
 43
0.0
 43
0.0
 43
0.0
 43
1.0
 43
0.0
 43
0.0
 43
0.0
 43
0.0
 43
1.0
 77
     0
 47
0.0208333333333333
 47
0.0
 47
0.0
 47
0.0
 47
0.0
 47
0.0208333333333333
 47
0.0
 47
0.0
 47
0.0
 47
0.0
 47
1.0
 47
0.0
 47
0.0
 47
0.0
 47
0.0
 47
1.0
171
     0
 49
0.0208333333333333
 49
0.0
 49
0.0
 49
0.0
 49
0.0
 49
0.0208333333333333
 49
0.0
 49
0.0
 49
0.0
 49
0.0
 49
1.0
 49
0.0
 49
0.0
 49
0.0
 49
0.0
 49
1.0
175
     0
142
0.0208333333333333
142
0.0
142
0.0
142
0.0
142
0.0
142
0.0208333333333333
142
0.0
142
0.0
142
0.0
142
0.0
142
1.0
142
0.0
142
0.0
142
0.0
142
0.0
142
1.0
179
     0
144
0.0208333333333333
144
0.0
144
0.0
144
0.0
144
0.0
144
0.0208333333333333
144
0.0
144
0.0
144
0.0
144
0.0
144
1.0
144
0.0
144
0.0
144
0.0
144
0.0
144
1.0
147
0.0208333333333333
147
0.0
147
0.0
147
0.0
147
0.0
147
0.0208333333333333
147
0.0
147
0.0
147
0.0
147
0.0
147
1.0
147
0.0
147
0.0
147
0.0
147
0.0
147
1.0
  0
MATERIAL
  5
C
102
{ACAD_XDICTIONARY
360
E
102
}
102
{ACAD_REACTORS
330
D
102
}
330
D
100
AcDbMaterial
  1
Global
 72
     0
 43
0.0208333333333333
 43
0.0
 43
0.0
 43
0.0
 43
0.0
 43
0.0208333333333333
 43
0.0
 43
0.0
 43
0.0
 43
0.0
 43
1.0
 43
0.0
 43
0.0
 43
0.0
 43
0.0
 43
1.0
 77
     0
 47
0.0208333333333333
 47
0.0
 47
0.0
 47
0.0
 47
0.0
 47
0.0208333333333333
 47
0.0
 47
0.0
 47
0.0
 47
0.0
 47
1.0
 47
0.0
 47
0.0
 47
0.0
 47
0.0
 47
1.0
171
     0
 49
0.0208333333333333
 49
0.0
 49
0.0
 49
0.0
 49
0.0
 49
0.0208333333333333
 49
0.0
 49
0.0
 49
0.0
 49
0.0
 49
1.0
 49
0.0
 49
0.0
 49
0.0
 49
0.0
 49
1.0
175
     0
142
0.0208333333333333
142
0.0
142
0.0
142
0.0
142
0.0
142
0.0208333333333333
142
0.0
142
0.0
142
0.0
142
0.0
142
1.0
142
0.0
142
0.0
142
0.0
142
0.0
142
1.0
179
     0
144
0.0208333333333333
144
0.0
144
0.0
144
0.0
144
0.0
144
0.0208333333333333
144
0.0
144
0.0
144
0.0
144
0.0
144
1.0
144
0.0
144
0.0
144
0.0
144
0.0
144
1.0
147
0.0208333333333333
147
0.0
147
0.0
147
0.0
147
0.0
147
0.0208333333333333
147
0.0
147
0.0
147
0.0
147
0.0
147
1.0
147
0.0
147
0.0
147
0.0
147
0.0
147
1.0
  0
MLEADERSTYLE
  5
2BF
102
{ACAD_REACTORS
330
2BE
102
}
330
2BE
100
AcDbMLeaderStyle
170
     2
171
     1
172
     0
 90
        2
 40
0.0
 41
0.0
173
     1
 91
-1056964608
340
23C
 92
       -2
290
     1
 42
0.09
291
     1
 43
0.36
  3
Standard
 44
0.18
300

342
46
174
     1
178
     6
175
     1
176
     0
 93
-1056964608
 45
0.18
292
     0
297
     0
 46
0.18
 94
-1056964608
 47
1.0
 49
1.0
140
1.0
293
     1
141
0.0
294
     1
177
     0
142
1.0
295
     0
296
     0
143
0.125
1001
ACAD_MLEADERVER
1070
     2
  0
MLINESTYLE
  5
25F
102
{ACAD_REACTORS
330
24A
102
}
330
24A
100
AcDbMlineStyle
  2
STANDARD
 70
     0
  3

 62
   256
 51
90.0
 52
90.0
 71
     2
 49
0.5
 62
   256
  6
BYLAYER
 49
-0.5
 62
   256
  6
BYLAYER
  0
ACDBPLACEHOLDER
  5
9
102
{ACAD_REACTORS
330
A
102
}
330
A
  0
SCALE
  5
264
102
{ACAD_REACTORS
330
25D
102
}
330
25D
100
AcDbScale
 70
     0
300
1:1
140
1.0
141
1.0
290
     1
  0
SCALE
  5
265
102
{ACAD_REACTORS
330
25D
102
}
330
25D
100
AcDbScale
 70
     0
300
1:2
140
1.0
141
2.0
290
     0
  0
SCALE
  5
266
102
{ACAD_REACTORS
330
25D
102
}
330
25D
100
AcDbScale
 70
     0
300
1:4
140
1.0
141
4.0
290
     0
  0
SCALE
  5
267
102
{ACAD_REACTORS
330
25D
102
}
330
25D
100
AcDbScale
 70
     0
300
1:5
140
1.0
141
5.0
290
     0
  0
SCALE
  5
268
102
{ACAD_REACTORS
330
25D
102
}
330
25D
100
AcDbScale
 70
     0
300
1:8
140
1.0
141
8.0
290
     0
  0
SCALE
  5
269
102
{ACAD_REACTORS
330
25D
102
}
330
25D
100
AcDbScale
 70
     0
300
1:10
140
1.0
141
10.0
290
     0
  0
SCALE
  5
26A
102
{ACAD_REACTORS
330
25D
102
}
330
25D
100
AcDbScale
 70
     0
300
1:16
140
1.0
141
16.0
290
     0
  0
SCALE
  5
26B
102
{ACAD_REACTORS
330
25D
102
}
330
25D
100
AcDbScale
 70
     0
300
1:20
140
1.0
141
20.0
290
     0
  0
SCALE
  5
26C
102
{ACAD_REACTORS
330
25D
102
}
330
25D
100
AcDbScale
 70
     0
300
1:30
140
1.0
141
30.0
290
     0
  0
SCALE
  5
26D
102
{ACAD_REACTORS
330
25D
102
}
330
25D
100
AcDbScale
 70
     0
300
1:40
140
1.0
141
40.0
290
     0
  0
SCALE
  5
26E
102
{ACAD_REACTORS
330
25D
102
}
330
25D
100
AcDbScale
 70
     0
300
1:50
140
1.0
141
50.0
290
     0
  0
SCALE
  5
26F
102
{ACAD_REACTORS
330
25D
102
}
330
25D
100
AcDbScale
 70
     0
300
1:100
140
1.0
141
100.0
290
     0
  0
SCALE
  5
270
102
{ACAD_REACTORS
330
25D
102
}
330
25D
100
AcDbScale
 70
     0
300
2:1
140
2.0
141
1.0
290
     0
  0
SCALE
  5
271
102
{ACAD_REACTORS
330
25D
102
}
330
25D
100
AcDbScale
 70
     0
300
4:1
140
4.0
141
1.0
290
     0
  0
SCALE
  5
272
102
{ACAD_REACTORS
330
25D
102
}
330
25D
100
AcDbScale
 70
     0
300
8:1
140
8.0
141
1.0
290
     0
  0
SCALE
  5
273
102
{ACAD_REACTORS
330
25D
102
}
330
25D
100
AcDbScale
 70
     0
300
10:1
140
10.0
141
1.0
290
     0
  0
SCALE
  5
274
102
{ACAD_REACTORS
330
25D
102
}
330
25D
100
AcDbScale
 70
     0
300
100:1
140
100.0
141
1.0
290
     0
  0
SCALE
  5
275
102
{ACAD_REACTORS
330
25D
102
}
330
25D
100
AcDbScale
 70
     0
300
1/128" = 1'-0"
140
0.0078125
141
12.0
290
     0
  0
SCALE
  5
276
102
{ACAD_REACTORS
330
25D
102
}
330
25D
100
AcDbScale
 70
     0
300
1/64" = 1'-0"
140
0.015625
141
12.0
290
     0
  0
SCALE
  5
277
102
{ACAD_REACTORS
330
25D
102
}
330
25D
100
AcDbScale
 70
     0
300
1/32" = 1'-0"
140
0.03125
141
12.0
290
     0
  0
SCALE
  5
278
102
{ACAD_REACTORS
330
25D
102
}
330
25D
100
AcDbScale
 70
     0
300
1/16" = 1'-0"
140
0.0625
141
12.0
290
     0
  0
SCALE
  5
279
102
{ACAD_REACTORS
330
25D
102
}
330
25D
100
AcDbScale
 70
     0
300
3/32" = 1'-0"
140
0.09375
141
12.0
290
     0
  0
SCALE
  5
27A
102
{ACAD_REACTORS
330
25D
102
}
330
25D
100
AcDbScale
 70
     0
300
1/8" = 1'-0"
140
0.125
141
12.0
290
     0
  0
SCALE
  5
27B
102
{ACAD_REACTORS
330
25D
102
}
330
25D
100
AcDbScale
 70
     0
300
3/16" = 1'-0"
140
0.1875
141
12.0
290
     0
  0
SCALE
  5
27C
102
{ACAD_REACTORS
330
25D
102
}
330
25D
100
AcDbScale
 70
     0
300
1/4" = 1'-0"
140
0.25
141
12.0
290
     0
  0
SCALE
  5
27D
102
{ACAD_REACTORS
330
25D
102
}
330
25D
100
AcDbScale
 70
     0
300
3/8" = 1'-0"
140
0.375
141
12.0
290
     0
  0
SCALE
  5
27E
102
{ACAD_REACTORS
330
25D
102
}
330
25D
100
AcDbScale
 70
     0
300
1/2" = 1'-0"
140
0.5
141
12.0
290
     0
  0
SCALE
  5
27F
102
{ACAD_REACTORS
330
25D
102
}
330
25D
100
AcDbScale
 70
     0
300
3/4" = 1'-0"
140
0.75
141
12.0
290
     0
  0
SCALE
  5
280
102
{ACAD_REACTORS
330
25D
102
}
330
25D
100
AcDbScale
 70
     0
300
1" = 1'-0"
140
1.0
141
12.0
290
     0
  0
SCALE
  5
281
102
{ACAD_REACTORS
330
25D
102
}
330
25D
100
AcDbScale
 70
     0
300
1-1/2" = 1'-0"
140
1.5
141
12.0
290
     0
  0
SCALE
  5
282
102
{ACAD_REACTORS
330
25D
102
}
330
25D
100
AcDbScale
 70
     0
300
3" = 1'-0"
140
3.0
141
12.0
290
     0
  0
SCALE
  5
283
102
{ACAD_REACTORS
330
25D
102
}
330
25D
100
AcDbScale
 70
     0
300
6" = 1'-0"
140
6.0
141
12.0
290
     0
  0
SCALE
  5
284
102
{ACAD_REACTORS
330
25D
102
}
330
25D
100
AcDbScale
 70
     0
300
1'-0" = 1'-0"
140
12.0
141
12.0
290
     0
  0
TABLESTYLE
  5
260
102
{ACAD_XDICTIONARY
360
261
102
}
102
{ACAD_REACTORS
330
25E
102
}
330
25E
100
AcDbTableStyle
  3
Standard
 70
     0
 71
     0
 40
0.06
 41
0.06
280
     0
281
     0
  7
Standard
140
0.18
170
     2
 62
     0
 63
     7
283
     0
 90
      512
 91
        0
  1

274
    -2
284
     1
 64
     0
275
    -2
285
     1
 65
     0
276
    -2
286
     1
 66
     0
277
    -2
287
     1
 67
     0
278
    -2
288
     1
 68
     0
279
    -2
289
     1
 69
     0
  7
Standard
140
0.25
170
     5
 62
     0
 63
     7
283
     0
 90
      512
 91
        0
  1

274
    -2
284
     1
 64
     0
275
    -2
285
     1
 65
     0
276
    -2
286
     1
 66
     0
277
    -2
287
     1
 67
     0
278
    -2
288
     1
 68
     0
279
    -2
289
     1
 69
     0
  7
Standard
140
0.18
170
     5
 62
     0
 63
     7
283
     0
 90
      512
 91
        0
  1

274
    -2
284
     1
 64
     0
275
    -2
285
     1
 65
     0
276
    -2
286
     1
 66
     0
277
    -2
287
     1
 67
     0
278
    -2
288
     1
 68
     0
279
    -2
289
     1
 69
     0
  0
VISUALSTYLE
  5
242
102
{ACAD_REACTORS
330
243
102
}
330
243
100
AcDbVisualStyle
  2
2dWireframe
 70
     4
 71
     0
 72
     2
 73
     0
 90
        0
 40
-0.6
 41
-30.0
 62
     5
 63
     7
 74
     1
 91
        4
 64
     7
 65
   257
 75
     1
175
     1
 42
1.0
 92
        0
 66
   257
 43
1.0
 76
     1
 77
     6
 78
     2
 67
     7
 79
     5
170
     0
171
     0
290
     0
174
     0
 93
        1
 44
0.0
173
     0
291
     0
 45
0.0
1001
ACAD
1000
AcDbSavedByObjectVersion
1070
     0
1000
AcDbSavedByObjectVersion
1070
     0
1000
AcDbSavedByObjectVersion
1070
     0
1000
AcDbSavedByObjectVersion
1070
     0
1000
AcDbSavedByObjectVersion
1070
     0
1000
AcDbSavedByObjectVersion
1070
     0
1000
AcDbSavedByObjectVersion
1070
     0
1000
AcDbSavedByObjectVersion
1070
     0
1000
AcDbSavedByObjectVersion
1070
     0
1000
AcDbSavedByObjectVersion
1070
     0
1000
AcDbSavedByObjectVersion
1070
     0
1000
AcDbSavedByObjectVersion
1070
     0
1000
AcDbSavedByObjectVersion
1070
     0
1000
AcDbSavedByObjectVersion
1070
     0
1000
AcDbSavedByObjectVersion
1070
     0
1000
AcDbSavedByObjectVersion
1070
     0
1000
AcDbSavedByObjectVersion
1070
     0
1000
AcDbSavedByObjectVersion
1070
     0
1000
AcDbSavedByObjectVersion
1070
     0
1000
AcDbSavedByObjectVersion
1070
     0
1000
AcDbSavedByObjectVersion
1070
     0
1000
AcDbSavedByObjectVersion
1070
     0
1000
AcDbSavedByObjectVersion
1070
     0
1000
AcDbSavedByObjectVersion
1070
     0
1000
AcDbSavedByObjectVersion
1070
     0
1000
AcDbSavedByObjectVersion
1070
     0
1000
AcDbSavedByObjectVersion
1070
     0
1000
AcDbSavedByObjectVersion
1070
     0
1000
AcDbSavedByObjectVersion
1070
     0
1000
AcDbSavedByObjectVersion
1070
     0
1000
AcDbSavedByObjectVersion
1070
     0
  0
VISUALSTYLE
  5
2B6
102
{ACAD_REACTORS
330
243
102
}
330
243
100
AcDbVisualStyle
  2
3D Hidden
 70
     6
 71
     1
 72
     2
 73
     2
 90
        0
 40
-0.6
 41
-30.0
 62
     5
 63
     7
 74
     2
 91
        2
 64
     7
 65
   257
 75
     2
175
     1
 42
40.0
 92
        0
 66
   257
 43
1.0
 76
     1
 77
     6
 78
     2
 67
     7
 79
     3
170
     0
171
     0
290
     0
174
     0
 93
        1
 44
0.0
173
     0
291
     0
 45
0.0
1001
ACAD
1000
AcDbSavedByObjectVersion
1070
     0
1000
AcDbSavedByObjectVersion
1070
     0
1000
AcDbSavedByObjectVersion
1070
     0
  0
VISUALSTYLE
  5
263
102
{ACAD_REACTORS
330
243
102
}
330
243
100
AcDbVisualStyle
  2
3dWireframe
 70
     5
 71
     0
 72
     2
 73
     0
 90
        0
 40
-0.6
 41
-30.0
 62
     5
 63
     7
 74
     1
 91
        4
 64
     7
 65
   257
 75
     1
175
     1
 42
1.0
 92
        0
 66
   257
 43
1.0
 76
     1
 77
     6
 78
     2
 67
     7
 79
     5
170
     0
171
     0
290
     0
174
     0
 93
        1
 44
0.0
173
     0
291
     0
 45
0.0
1001
ACAD
1000
AcDbSavedByObjectVersion
1070
     0
1000
AcDbSavedByObjectVersion
1070
     0
1000
AcDbSavedByObjectVersion
1070
     0
1000
AcDbSavedByObjectVersion
1070
     0
1000
AcDbSavedByObjectVersion
1070
     0
1000
AcDbSavedByObjectVersion
1070
     0
1000
AcDbSavedByObjectVersion
1070
     0
1000
AcDbSavedByObjectVersion
1070
     0
1000
AcDbSavedByObjectVersion
1070
     0
1000
AcDbSavedByObjectVersion
1070
     0
1000
AcDbSavedByObjectVersion
1070
     0
1000
AcDbSavedByObjectVersion
1070
     0
1000
AcDbSavedByObjectVersion
1070
     0
1000
AcDbSavedByObjectVersion
1070
     0
1000
AcDbSavedByObjectVersion
1070
     0
1000
AcDbSavedByObjectVersion
1070
     0
1000
AcDbSavedByObjectVersion
1070
     0
1000
AcDbSavedByObjectVersion
1070
     0
1000
AcDbSavedByObjectVersion
1070
     0
1000
AcDbSavedByObjectVersion
1070
     0
1000
AcDbSavedByObjectVersion
1070
     0
1000
AcDbSavedByObjectVersion
1070
     0
1000
AcDbSavedByObjectVersion
1070
     0
1000
AcDbSavedByObjectVersion
1070
     0
1000
AcDbSavedByObjectVersion
1070
     0
1000
AcDbSavedByObjectVersion
1070
     0
1000
AcDbSavedByObjectVersion
1070
     0
1000
AcDbSavedByObjectVersion
1070
     0
1000
AcDbSavedByObjectVersion
1070
     0
1000
AcDbSavedByObjectVersion
1070
     0
1000
AcDbSavedByObjectVersion
1070
     0
  0
VISUALSTYLE
  5
2B5
102
{ACAD_REACTORS
330
243
102
}
330
243
100
AcDbVisualStyle
  2
Basic
 70
     7
 71
     1
 72
     0
 73
     1
 90
        0
 40
-0.6
 41
-30.0
 62
     5
 63
     7
 74
     0
 91
        4
 64
     7
 65
   257
 75
     1
175
     1
 42
1.0
 92
        8
 66
     7
 43
1.0
 76
     1
 77
     6
 78
     2
 67
     7
 79
     5
170
     0
171
     0
290
     0
174
     0
 93
        1
 44
0.0
173
     0
291
     1
 45
0.0
1001
ACAD
1000
AcDbSavedByObjectVersion
1070
     0
1000
AcDbSavedByObjectVersion
1070
     0
1000
AcDbSavedByObjectVersion
1070
     0
  0
VISUALSTYLE
  5
2B9
102
{ACAD_REACTORS
330
243
102
}
330
243
100
AcDbVisualStyle
  2
Brighten
 70
    12
 71
     2
 72
     2
 73
     0
 90
        0
 40
-0.6
 41
-30.0
 62
     5
 63
     7
 74
     1
 91
        4
 64
     7
 65
   257
 75
     1
175
     1
 42
1.0
 92
        8
 66
     7
 43
1.0
 76
     1
 77
     6
 78
     2
 67
     7
 79
     5
170
     0
171
     0
290
     0
174
     0
 93
        1
 44
50.0
173
     0
291
     1
 45
0.0
1001
ACAD
1000
AcDbSavedByObjectVersion
1070
     0
1000
AcDbSavedByObjectVersion
1070
     0
1000
AcDbSavedByObjectVersion
1070
     0
  0
VISUALSTYLE
  5
2BD
102
{ACAD_REACTORS
330
243
102
}
330
243
100
AcDbVisualStyle
  2
ColorChange
 70
    16
 71
     2
 72
     2
 73
     3
 90
        0
 40
-0.6
 41
-30.0
 62
     5
 63
     8
 74
     1
 91
        4
 64
     7
 65
   257
 75
     1
175
     1
 42
1.0
 92
        8
 66
     8
 43
1.0
 76
     1
 77
     6
 78
     2
 67
     7
 79
     5
170
     0
171
     0
290
     0
174
     0
 93
        1
 44
0.0
173
     0
291
     1
 45
0.0
1001
ACAD
1000
AcDbSavedByObjectVersion
1070
     0
1000
AcDbSavedByObjectVersion
1070
     0
1000
AcDbSavedByObjectVersion
1070
     0
  0
VISUALSTYLE
  5
2B7
102
{ACAD_REACTORS
330
243
102
}
330
243
100
AcDbVisualStyle
  2
Conceptual
 70
     9
 71
     3
 72
     2
 73
     0
 90
        0
 40
-0.6
 41
-30.0
 62
     5
 63
     7
 74
     2
 91
        2
 64
     7
 65
   257
 75
     1
175
     1
 42
40.0
 92
        8
 66
     7
 43
1.0
 76
     1
 77
     6
 78
     2
 67
     7
 79
     3
170
     0
171
     0
290
     0
174
     0
 93
        1
 44
0.0
173
     0
291
     0
 45
0.0
1001
ACAD
1000
AcDbSavedByObjectVersion
1070
     0
1000
AcDbSavedByObjectVersion
1070
     0
1000
AcDbSavedByObjectVersion
1070
     0
  0
VISUALSTYLE
  5
2B8
102
{ACAD_REACTORS
330
243
102
}
330
243
100
AcDbVisualStyle
  2
Dim
 70
    11
 71
     2
 72
     2
 73
     0
 90
        0
 40
-0.6
 41
-30.0
 62
     5
 63
     7
 74
     1
 91
        4
 64
     7
 65
   257
 75
     1
175
     1
 42
1.0
 92
        8
 66
     7
 43
1.0
 76
     1
 77
     6
 78
     2
 67
     7
 79
     5
170
     0
171
     0
290
     0
174
     0
 93
        1
 44
-50.0
173
     0
291
     1
 45
0.0
1001
ACAD
1000
AcDbSavedByObjectVersion
1070
     0
1000
AcDbSavedByObjectVersion
1070
     0
1000
AcDbSavedByObjectVersion
1070
     0
  0
VISUALSTYLE
  5
2BC
102
{ACAD_REACTORS
330
243
102
}
330
243
100
AcDbVisualStyle
  2
Facepattern
 70
    15
 71
     2
 72
     2
 73
     0
 90
        0
 40
-0.6
 41
-30.0
 62
     5
 63
     7
 74
     1
 91
        4
 64
     7
 65
   257
 75
     1
175
     1
 42
1.0
 92
        8
 66
     7
 43
1.0
 76
     1
 77
     6
 78
     2
 67
     7
 79
     5
170
     0
171
     0
290
     0
174
     0
 93
        1
 44
0.0
173
     0
291
     1
 45
0.0
1001
ACAD
1000
AcDbSavedByObjectVersion
1070
     0
1000
AcDbSavedByObjectVersion
1070
     0
1000
AcDbSavedByObjectVersion
1070
     0
  0
VISUALSTYLE
  5
2B1
102
{ACAD_REACTORS
330
243
102
}
330
243
100
AcDbVisualStyle
  2
Flat
 70
     0
 71
     2
 72
     1
 73
     1
 90
        2
 40
-0.6
 41
30.0
 62
     5
 63
     7
 74
     0
 91
        4
 64
     7
 65
   257
 75
     1
175
     1
 42
1.0
 92
        8
 66
     7
 43
1.0
 76
     1
 77
     6
 78
     2
 67
     7
 79
     5
170
     0
171
     0
290
     0
174
     0
 93
       13
 44
0.0
173
     0
291
     1
 45
0.0
1001
ACAD
1000
AcDbSavedByObjectVersion
1070
     0
1000
AcDbSavedByObjectVersion
1070
     0
1000
AcDbSavedByObjectVersion
1070
     0
  0
VISUALSTYLE
  5
2B2
102
{ACAD_REACTORS
330
243
102
}
330
243
100
AcDbVisualStyle
  2
FlatWithEdges
 70
     1
 71
     2
 72
     1
 73
     1
 90
        2
 40
-0.6
 41
30.0
 62
     5
 63
     7
 74
     1
 91
        4
 64
     7
 65
   257
 75
     1
175
     1
 42
1.0
 92
        0
 66
   257
 43
1.0
 76
     1
 77
     6
 78
     2
 67
     7
 79
     5
170
     0
171
     0
290
     0
174
     0
 93
       13
 44
0.0
173
     0
291
     1
 45
0.0
1001
ACAD
1000
AcDbSavedByObjectVersion
1070
     0
1000
AcDbSavedByObjectVersion
1070
     0
1000
AcDbSavedByObjectVersion
1070
     0
  0
VISUALSTYLE
  5
2B3
102
{ACAD_REACTORS
330
243
102
}
330
243
100
AcDbVisualStyle
  2
Gouraud
 70
     2
 71
     2
 72
     2
 73
     1
 90
        2
 40
-0.6
 41
30.0
 62
     5
 63
     7
 74
     0
 91
        4
 64
     7
 65
   257
 75
     1
175
     1
 42
1.0
 92
        0
 66
     7
 43
1.0
 76
     1
 77
     6
 78
     2
 67
     7
 79
     5
170
     0
171
     0
290
     0
174
     0
 93
       13
 44
0.0
173
     0
291
     1
 45
0.0
1001
ACAD
1000
AcDbSavedByObjectVersion
1070
     0
1000
AcDbSavedByObjectVersion
1070
     0
1000
AcDbSavedByObjectVersion
1070
     0
  0
VISUALSTYLE
  5
2B4
102
{ACAD_REACTORS
330
243
102
}
330
243
100
AcDbVisualStyle
  2
GouraudWithEdges
 70
     3
 71
     2
 72
     2
 73
     1
 90
        2
 40
-0.6
 41
30.0
 62
     5
 63
     7
 74
     1
 91
        4
 64
     7
 65
   257
 75
     1
175
     1
 42
1.0
 92
        0
 66
   257
 43
1.0
 76
     1
 77
     6
 78
     2
 67
     7
 79
     5
170
     0
171
     0
290
     0
174
     0
 93
       13
 44
0.0
173
     0
291
     1
 45
0.0
1001
ACAD
1000
AcDbSavedByObjectVersion
1070
     0
1000
AcDbSavedByObjectVersion
1070
     0
1000
AcDbSavedByObjectVersion
1070
     0
  0
VISUALSTYLE
  5
2BB
102
{ACAD_REACTORS
330
243
102
}
330
243
100
AcDbVisualStyle
  2
Linepattern
 70
    14
 71
     2
 72
     2
 73
     0
 90
        0
 40
-0.6
 41
-30.0
 62
     5
 63
     7
 74
     1
 91
        4
 64
     7
 65
   257
 75
     7
175
     7
 42
1.0
 92
        8
 66
     7
 43
1.0
 76
     1
 77
     6
 78
     2
 67
     7
 79
     5
170
     0
171
     0
290
     0
174
     0
 93
        1
 44
0.0
173
     0
291
     1
 45
0.0
1001
ACAD
1000
AcDbSavedByObjectVersion
1070
     0
1000
AcDbSavedByObjectVersion
1070
     0
1000
AcDbSavedByObjectVersion
1070
     0
  0
VISUALSTYLE
  5
262
102
{ACAD_REACTORS
330
243
102
}
330
243
100
AcDbVisualStyle
  2
Realistic
 70
     8
 71
     2
 72
     2
 73
     0
 90
        0
 40
-0.6
 41
-30.0
 62
     5
 63
     7
 74
     1
 91
        0
 64
     7
 65
   257
 75
     1
175
     1
 42
1.0
 92
        8
 66
     8
 43
1.0
 76
     1
 77
     6
 78
     2
 67
     7
 79
     5
170
     0
171
     0
290
     0
174
     0
 93
       13
 44
0.0
173
     0
291
     0
 45
0.0
1001
ACAD
1000
AcDbSavedByObjectVersion
1070
     0
1000
AcDbSavedByObjectVersion
1070
     0
1000
AcDbSavedByObjectVersion
1070
     0
1000
AcDbSavedByObjectVersion
1070
     0
1000
AcDbSavedByObjectVersion
1070
     0
1000
AcDbSavedByObjectVersion
1070
     0
1000
AcDbSavedByObjectVersion
1070
     0
1000
AcDbSavedByObjectVersion
1070
     0
1000
AcDbSavedByObjectVersion
1070
     0
1000
AcDbSavedByObjectVersion
1070
     0
1000
AcDbSavedByObjectVersion
1070
     0
1000
AcDbSavedByObjectVersion
1070
     0
1000
AcDbSavedByObjectVersion
1070
     0
1000
AcDbSavedByObjectVersion
1070
     0
1000
AcDbSavedByObjectVersion
1070
     0
1000
AcDbSavedByObjectVersion
1070
     0
1000
AcDbSavedByObjectVersion
1070
     0
1000
AcDbSavedByObjectVersion
1070
     0
1000
AcDbSavedByObjectVersion
1070
     0
1000
AcDbSavedByObjectVersion
1070
     0
1000
AcDbSavedByObjectVersion
1070
     0
1000
AcDbSavedByObjectVersion
1070
     0
1000
AcDbSavedByObjectVersion
1070
     0
1000
AcDbSavedByObjectVersion
1070
     0
1000
AcDbSavedByObjectVersion
1070
     0
1000
AcDbSavedByObjectVersion
1070
     0
1000
AcDbSavedByObjectVersion
1070
     0
1000
AcDbSavedByObjectVersion
1070
     0
1000
AcDbSavedByObjectVersion
1070
     0
1000
AcDbSavedByObjectVersion
1070
     0
1000
AcDbSavedByObjectVersion
1070
     0
  0
VISUALSTYLE
  5
2BA
102
{ACAD_REACTORS
330
243
102
}
330
243
100
AcDbVisualStyle
  2
Thicken
 70
    13
 71
     2
 72
     2
 73
     0
 90
        0
 40
-0.6
 41
-30.0
 62
     5
 63
     7
 74
     1
 91
        4
 64
     7
 65
   257
 75
     1
175
     1
 42
1.0
 92
       12
 66
     7
 43
1.0
 76
     1
 77
     6
 78
     2
 67
     7
 79
     5
170
     0
171
     0
290
     0
174
     0
 93
        1
 44
0.0
173
     0
291
     1
 45
0.0
1001
ACAD
1000
AcDbSavedByObjectVersion
1070
     0
1000
AcDbSavedByObjectVersion
1070
     0
1000
AcDbSavedByObjectVersion
1070
     0
  0
DICTIONARYVAR
  5
289
102
{ACAD_REACTORS
330
286
102
}
330
286
100
DictionaryVariables
280
     0
  1
1:1
  0
DICTIONARYVAR
  5
288
102
{ACAD_REACTORS
330
286
102
}
330
286
100
DictionaryVariables
280
     0
  1
STANDARD
  0
DICTIONARYVAR
  5
287
102
{ACAD_REACTORS
330
286
102
}
330
286
100
DictionaryVariables
280
     0
  1
STANDARD
  0
DICTIONARYVAR
  5
3E7
102
{ACAD_REACTORS
330
286
102
}
330
286
100
DictionaryVariables
280
     0
  1
1
  0
DICTIONARYVAR
  5
3E6
102
{ACAD_REACTORS
330
286
102
}
330
286
100
DictionaryVariables
280
     0
  1
1
  0
DICTIONARYVAR
  5
3E5
102
{ACAD_REACTORS
330
286
102
}
330
286
100
DictionaryVariables
280
     0
  1
0
  0
DICTIONARYVAR
  5
28A
102
{ACAD_REACTORS
330
286
102
}
330
286
100
DictionaryVariables
280
     0
  1
0
  0
DICTIONARYVAR
  5
3E3
102
{ACAD_REACTORS
330
286
102
}
330
286
100
DictionaryVariables
280
     0
  1
1
  0
DICTIONARYVAR
  5
3E4
102
{ACAD_REACTORS
330
286
102
}
330
286
100
DictionaryVariables
280
     0
  1
127
  0
DICTIONARY
  5
255
330
254
100
AcDbDictionary
280
     1
281
     1
  3
ACAD_XREC_ROUNDTRIP
360
44A
  3
BUMPTILE
360
256
  3
DIFFUSETILE
360
257
  3
OPACITYTILE
360
258
  3
REFLECTIONTILE
360
259
  3
REFRACTIONTILE
360
25A
  3
SPECULARTILE
360
25B
  0
DICTIONARY
  5
24D
330
24C
100
AcDbDictionary
280
     1
281
     1
  3
ACAD_XREC_ROUNDTRIP
360
449
  3
BUMPTILE
360
24E
  3
DIFFUSETILE
360
24F
  3
OPACITYTILE
360
250
  3
REFLECTIONTILE
360
251
  3
REFRACTIONTILE
360
252
  3
SPECULARTILE
360
253
  0
DICTIONARY
  5
E
330
C
100
AcDbDictionary
280
     1
281
     1
  3
ACAD_XREC_ROUNDTRIP
360
441
  3
BUMPTILE
360
F
  3
DIFFUSETILE
360
10
  3
OPACITYTILE
360
11
  3
REFLECTIONTILE
360
12
  3
REFRACTIONTILE
360
13
  3
SPECULARTILE
360
14
  0
DICTIONARY
  5
261
330
260
100
AcDbDictionary
280
     1
281
     1
  3
ACAD_ROUNDTRIP_2008_TABLESTYLE_CELLSTYLEMAP
360
77D
  0
XRECORD
  5
44A
102
{ACAD_REACTORS
330
255
102
}
330
255
100
AcDbXrecord
280
     1
102
MATERIAL
148
0.0
149
0.0
149
0.0
 93
        0
 94
      127
282
     0
 72
     0
 77
     0
171
     0
175
     0
179
     0
273
     0
  0
XRECORD
  5
256
102
{ACAD_REACTORS
330
255
102
}
330
255
100
AcDbXrecord
280
     1
270
     1
271
     1
  0
XRECORD
  5
257
102
{ACAD_REACTORS
330
255
102
}
330
255
100
AcDbXrecord
280
     1
270
     1
271
     1
  0
XRECORD
  5
258
102
{ACAD_REACTORS
330
255
102
}
330
255
100
AcDbXrecord
280
     1
270
     1
271
     1
  0
XRECORD
  5
259
102
{ACAD_REACTORS
330
255
102
}
330
255
100
AcDbXrecord
280
     1
270
     1
271
     1
  0
XRECORD
  5
25A
102
{ACAD_REACTORS
330
255
102
}
330
255
100
AcDbXrecord
280
     1
270
     1
271
     1
  0
XRECORD
  5
25B
102
{ACAD_REACTORS
330
255
102
}
330
255
100
AcDbXrecord
280
     1
270
     1
271
     1
  0
XRECORD
  5
449
102
{ACAD_REACTORS
330
24D
102
}
330
24D
100
AcDbXrecord
280
     1
102
MATERIAL
148
0.0
149
0.0
149
0.0
 93
        0
 94
      127
282
     0
 72
     0
 77
     0
171
     0
175
     0
179
     0
273
     0
  0
XRECORD
  5
24E
102
{ACAD_REACTORS
330
24D
102
}
330
24D
100
AcDbXrecord
280
     1
270
     1
271
     1
  0
XRECORD
  5
24F
102
{ACAD_REACTORS
330
24D
102
}
330
24D
100
AcDbXrecord
280
     1
270
     1
271
     1
  0
XRECORD
  5
250
102
{ACAD_REACTORS
330
24D
102
}
330
24D
100
AcDbXrecord
280
     1
270
     1
271
     1
  0
XRECORD
  5
251
102
{ACAD_REACTORS
330
24D
102
}
330
24D
100
AcDbXrecord
280
     1
270
     1
271
     1
  0
XRECORD
  5
252
102
{ACAD_REACTORS
330
24D
102
}
330
24D
100
AcDbXrecord
280
     1
270
     1
271
     1
  0
XRECORD
  5
253
102
{ACAD_REACTORS
330
24D
102
}
330
24D
100
AcDbXrecord
280
     1
270
     1
271
     1
  0
XRECORD
  5
441
102
{ACAD_REACTORS
330
E
102
}
330
E
100
AcDbXrecord
280
     1
102
MATERIAL
148
0.0
149
0.0
149
0.0
 93
        0
 94
      127
282
     0
 72
     0
 77
     0
171
     0
175
     0
179
     0
273
     0
  0
XRECORD
  5
F
102
{ACAD_REACTORS
330
E
102
}
330
E
100
AcDbXrecord
280
     1
270
     1
271
     1
  0
XRECORD
  5
10
102
{ACAD_REACTORS
330
E
102
}
330
E
100
AcDbXrecord
280
     1
270
     1
271
     1
  0
XRECORD
  5
11
102
{ACAD_REACTORS
330
E
102
}
330
E
100
AcDbXrecord
280
     1
270
     1
271
     1
  0
XRECORD
  5
12
102
{ACAD_REACTORS
330
E
102
}
330
E
100
AcDbXrecord
280
     1
270
     1
271
     1
  0
XRECORD
  5
13
102
{ACAD_REACTORS
330
E
102
}
330
E
100
AcDbXrecord
280
     1
270
     1
271
     1
  0
XRECORD
  5
14
102
{ACAD_REACTORS
330
E
102
}
330
E
100
AcDbXrecord
280
     1
270
     1
271
     1
  0
CELLSTYLEMAP
  5
77D
102
{ACAD_REACTORS
330
261
102
}
330
261
100
AcDbCellStyleMap
 90
        3
300
CELLSTYLE
  1
TABLEFORMAT_BEGIN
 90
        5
170
     1
 91
        0
 92
    32768
 62
   257
 93
        1
300
CONTENTFORMAT
  1
CONTENTFORMAT_BEGIN
 90
        0
 91
        0
 92
      512
 93
        0
300

 40
0.0
140
1.0
 94
        5
 62
     0
340
46
144
0.25
309
CONTENTFORMAT_END
171
     1
301
MARGIN
  1
CELLMARGIN_BEGIN
 40
0.06
 40
0.06
 40
0.06
 40
0.06
 40
0.18
 40
0.18
309
CELLMARGIN_END
 94
        6
 95
        1
302
GRIDFORMAT
  1
GRIDFORMAT_BEGIN
 90
        0
 91
        1
 62
     0
 92
       -2
340
0
 93
        0
 40
0.045
309
GRIDFORMAT_END
 95
        2
302
GRIDFORMAT
  1
GRIDFORMAT_BEGIN
 90
        0
 91
        1
 62
     0
 92
       -2
340
0
 93
        0
 40
0.045
309
GRIDFORMAT_END
 95
        4
302
GRIDFORMAT
  1
GRIDFORMAT_BEGIN
 90
        0
 91
        1
 62
     0
 92
       -2
340
0
 93
        0
 40
0.045
309
GRIDFORMAT_END
 95
        8
302
GRIDFORMAT
  1
GRIDFORMAT_BEGIN
 90
        0
 91
        1
 62
     0
 92
       -2
340
0
 93
        0
 40
0.045
309
GRIDFORMAT_END
 95
       16
302
GRIDFORMAT
  1
GRIDFORMAT_BEGIN
 90
        0
 91
        1
 62
     0
 92
       -2
340
0
 93
        0
 40
0.045
309
GRIDFORMAT_END
 95
       32
302
GRIDFORMAT
  1
GRIDFORMAT_BEGIN
 90
        0
 91
        1
 62
     0
 92
       -2
340
0
 93
        0
 40
0.045
309
GRIDFORMAT_END
309
TABLEFORMAT_END
  1
CELLSTYLE_BEGIN
 90
        1
 91
        1
300
_TITLE
309
CELLSTYLE_END
300
CELLSTYLE
  1
TABLEFORMAT_BEGIN
 90
        5
170
     1
 91
        0
 92
        0
 62
   257
 93
        1
300
CONTENTFORMAT
  1
CONTENTFORMAT_BEGIN
 90
        0
 91
        0
 92
      512
 93
        0
300

 40
0.0
140
1.0
 94
        5
 62
     0
340
46
144
0.18
309
CONTENTFORMAT_END
171
     1
301
MARGIN
  1
CELLMARGIN_BEGIN
 40
0.06
 40
0.06
 40
0.06
 40
0.06
 40
0.18
 40
0.18
309
CELLMARGIN_END
 94
        6
 95
        1
302
GRIDFORMAT
  1
GRIDFORMAT_BEGIN
 90
        0
 91
        1
 62
     0
 92
       -2
340
0
 93
        0
 40
0.045
309
GRIDFORMAT_END
 95
        2
302
GRIDFORMAT
  1
GRIDFORMAT_BEGIN
 90
        0
 91
        1
 62
     0
 92
       -2
340
0
 93
        0
 40
0.045
309
GRIDFORMAT_END
 95
        4
302
GRIDFORMAT
  1
GRIDFORMAT_BEGIN
 90
        0
 91
        1
 62
     0
 92
       -2
340
0
 93
        0
 40
0.045
309
GRIDFORMAT_END
 95
        8
302
GRIDFORMAT
  1
GRIDFORMAT_BEGIN
 90
        0
 91
        1
 62
     0
 92
       -2
340
0
 93
        0
 40
0.045
309
GRIDFORMAT_END
 95
       16
302
GRIDFORMAT
  1
GRIDFORMAT_BEGIN
 90
        0
 91
        1
 62
     0
 92
       -2
340
0
 93
        0
 40
0.045
309
GRIDFORMAT_END
 95
       32
302
GRIDFORMAT
  1
GRIDFORMAT_BEGIN
 90
        0
 91
        1
 62
     0
 92
       -2
340
0
 93
        0
 40
0.045
309
GRIDFORMAT_END
309
TABLEFORMAT_END
  1
CELLSTYLE_BEGIN
 90
        2
 91
        1
300
_HEADER
309
CELLSTYLE_END
300
CELLSTYLE
  1
TABLEFORMAT_BEGIN
 90
        5
170
     1
 91
        0
 92
        0
 62
   257
 93
        1
300
CONTENTFORMAT
  1
CONTENTFORMAT_BEGIN
 90
        0
 91
        0
 92
      512
 93
        0
300

 40
0.0
140
1.0
 94
        2
 62
     0
340
46
144
0.18
309
CONTENTFORMAT_END
171
     1
301
MARGIN
  1
CELLMARGIN_BEGIN
 40
0.06
 40
0.06
 40
0.06
 40
0.06
 40
0.18
 40
0.18
309
CELLMARGIN_END
 94
        6
 95
        1
302
GRIDFORMAT
  1
GRIDFORMAT_BEGIN
 90
        0
 91
        1
 62
     0
 92
       -2
340
0
 93
        0
 40
0.045
309
GRIDFORMAT_END
 95
        2
302
GRIDFORMAT
  1
GRIDFORMAT_BEGIN
 90
        0
 91
        1
 62
     0
 92
       -2
340
0
 93
        0
 40
0.045
309
GRIDFORMAT_END
 95
        4
302
GRIDFORMAT
  1
GRIDFORMAT_BEGIN
 90
        0
 91
        1
 62
     0
 92
       -2
340
0
 93
        0
 40
0.045
309
GRIDFORMAT_END
 95
        8
302
GRIDFORMAT
  1
GRIDFORMAT_BEGIN
 90
        0
 91
        1
 62
     0
 92
       -2
340
0
 93
        0
 40
0.045
309
GRIDFORMAT_END
 95
       16
302
GRIDFORMAT
  1
GRIDFORMAT_BEGIN
 90
        0
 91
        1
 62
     0
 92
       -2
340
0
 93
        0
 40
0.045
309
GRIDFORMAT_END
 95
       32
302
GRIDFORMAT
  1
GRIDFORMAT_BEGIN
 90
        0
 91
        1
 62
     0
 92
       -2
340
0
 93
        0
 40
0.045
309
GRIDFORMAT_END
309
TABLEFORMAT_END
  1
CELLSTYLE_BEGIN
 90
        3
 91
        2
300
_DATA
309
CELLSTYLE_END
  0
ENDSEC
  0
EOF
