  0
SECTION
  2
HEADER
  9
$ACADVER
  1
AC1021
  9
$ACADMAINTVER
 70
    25
  9
$DWGCODEPAGE
  3
ANSI_936
  9
$LASTSAVEDBY
  1
zb.ye
  9
$INSBASE
 10
0.0
 20
0.0
 30
0.0
  9
$EXTMIN
 10
686.4935838894921
 20
184.793111063834
 30
-0.0000000000001324
  9
$EXTMAX
 10
760.8387088416061
 20
237.3186918906015
 30
0.0000000000000049
  9
$LIMMIN
 10
0.0
 20
0.0
  9
$LIMMAX
 10
12.0
 20
9.0
  9
$ORTHOMODE
 70
     0
  9
$REGENMODE
 70
     1
  9
$FILLMODE
 70
     1
  9
$QTEXTMODE
 70
     0
  9
$MIRRTEXT
 70
     1
  9
$LTSCALE
 40
1.0
  9
$ATTMODE
 70
     1
  9
$TEXTSIZE
 40
0.2
  9
$TRACEWID
 40
0.05
  9
$TEXTSTYLE
  7
Standard
  9
$CLAYER
  8
0
  9
$CELTYPE
  6
ByLayer
  9
$CECOLOR
 62
   256
  9
$CELTSCALE
 40
1.0
  9
$DISPSILH
 70
     0
  9
$DIMSCALE
 40
1.0
  9
$DIMASZ
 40
1.5
  9
$DIMEXO
 40
0.2
  9
$DIMDLI
 40
0.2
  9
$DIMRND
 40
0.0
  9
$DIMDLE
 40
0.0
  9
$DIMEXE
 40
0.5
  9
$DIMTP
 40
0.0
  9
$DIMTM
 40
0.0
  9
$DIMTXT
 40
2.0
  9
$DIMCEN
 40
0.0
  9
$DIMTSZ
 40
0.0
  9
$DIMTOL
 70
     0
  9
$DIMLIM
 70
     0
  9
$DIMTIH
 70
     0
  9
$DIMTOH
 70
     0
  9
$DIMSE1
 70
     0
  9
$DIMSE2
 70
     0
  9
$DIMTAD
 70
     1
  9
$DIMZIN
 70
     8
  9
$DIMBLK
  1

  9
$DIMASO
 70
     1
  9
$DIMSHO
 70
     1
  9
$DIMPOST
  1

  9
$DIMAPOST
  1

  9
$DIMALT
 70
     0
  9
$DIMALTD
 70
     2
  9
$DIMALTF
 40
25.4
  9
$DIMLFAC
 40
1.0
  9
$DIMTOFL
 70
     0
  9
$DIMTVP
 40
0.0
  9
$DIMTIX
 70
     0
  9
$DIMSOXD
 70
     0
  9
$DIMSAH
 70
     0
  9
$DIMBLK1
  1

  9
$DIMBLK2
  1

  9
$DIMSTYLE
  2
01
  9
$DIMCLRD
 70
     1
  9
$DIMCLRE
 70
     6
  9
$DIMCLRT
 70
     4
  9
$DIMTFAC
 40
1.0
  9
$DIMGAP
 40
0.5
  9
$DIMJUST
 70
     0
  9
$DIMSD1
 70
     0
  9
$DIMSD2
 70
     0
  9
$DIMTOLJ
 70
     1
  9
$DIMTZIN
 70
     0
  9
$DIMALTZ
 70
     0
  9
$DIMALTTZ
 70
     0
  9
$DIMUPT
 70
     0
  9
$DIMDEC
 70
     1
  9
$DIMTDEC
 70
     1
  9
$DIMALTU
 70
     2
  9
$DIMALTTD
 70
     2
  9
$DIMTXSTY
  7
Romans字体
  9
$DIMAUNIT
 70
     0
  9
$DIMADEC
 70
     2
  9
$DIMALTRND
 40
0.0
  9
$DIMAZIN
 70
     2
  9
$DIMDSEP
 70
    46
  9
$DIMATFIT
 70
     3
  9
$DIMFRAC
 70
     0
  9
$DIMLDRBLK
  1

  9
$DIMLUNIT
 70
     2
  9
$DIMLWD
 70
    -2
  9
$DIMLWE
 70
    -2
  9
$DIMTMOVE
 70
     0
  9
$DIMFXL
 40
1.0
  9
$DIMFXLON
 70
     0
  9
$DIMJOGANG
 40
0.7853981633974483
  9
$DIMTFILL
 70
     0
  9
$DIMTFILLCLR
 70
     0
  9
$DIMARCSYM
 70
     0
  9
$DIMLTYPE
  6

  9
$DIMLTEX1
  6

  9
$DIMLTEX2
  6

  9
$LUNITS
 70
     2
  9
$LUPREC
 70
     4
  9
$SKETCHINC
 40
0.1
  9
$FILLETRAD
 40
0.5
  9
$AUNITS
 70
     0
  9
$AUPREC
 70
     0
  9
$MENU
  1
.
  9
$ELEVATION
 40
0.0
  9
$PELEVATION
 40
0.0
  9
$THICKNESS
 40
0.0
  9
$LIMCHECK
 70
     0
  9
$CHAMFERA
 40
0.5
  9
$CHAMFERB
 40
0.5
  9
$CHAMFERC
 40
1.0
  9
$CHAMFERD
 40
0.0
  9
$SKPOLY
 70
     0
  9
$TDCREATE
 40
2456524.383632987
  9
$TDUCREATE
 40
2456524.050299653
  9
$TDUPDATE
 40
2460290.687386863
  9
$TDUUPDATE
 40
2460290.354053530
  9
$TDINDWG
 40
1.2910309606
  9
$TDUSRTIMER
 40
1.2910119444
  9
$USRTIMER
 70
     1
  9
$ANGBASE
 50
0.0
  9
$ANGDIR
 70
     0
  9
$PDMODE
 70
     0
  9
$PDSIZE
 40
0.0
  9
$PLINEWID
 40
0.0
  9
$SPLFRAME
 70
     0
  9
$SPLINETYPE
 70
     6
  9
$SPLINESEGS
 70
     8
  9
$HANDSEED
  5
DEC
  9
$SURFTAB1
 70
     6
  9
$SURFTAB2
 70
     6
  9
$SURFTYPE
 70
     6
  9
$SURFU
 70
     6
  9
$SURFV
 70
     6
  9
$UCSBASE
  2

  9
$UCSNAME
  2

  9
$UCSORG
 10
0.0
 20
0.0
 30
0.0
  9
$UCSXDIR
 10
1.0
 20
0.0
 30
0.0
  9
$UCSYDIR
 10
0.0
 20
1.0
 30
0.0
  9
$UCSORTHOREF
  2

  9
$UCSORTHOVIEW
 70
     0
  9
$UCSORGTOP
 10
0.0
 20
0.0
 30
0.0
  9
$UCSORGBOTTOM
 10
0.0
 20
0.0
 30
0.0
  9
$UCSORGLEFT
 10
0.0
 20
0.0
 30
0.0
  9
$UCSORGRIGHT
 10
0.0
 20
0.0
 30
0.0
  9
$UCSORGFRONT
 10
0.0
 20
0.0
 30
0.0
  9
$UCSORGBACK
 10
0.0
 20
0.0
 30
0.0
  9
$PUCSBASE
  2

  9
$PUCSNAME
  2

  9
$PUCSORG
 10
0.0
 20
0.0
 30
0.0
  9
$PUCSXDIR
 10
1.0
 20
0.0
 30
0.0
  9
$PUCSYDIR
 10
0.0
 20
1.0
 30
0.0
  9
$PUCSORTHOREF
  2

  9
$PUCSORTHOVIEW
 70
     0
  9
$PUCSORGTOP
 10
0.0
 20
0.0
 30
0.0
  9
$PUCSORGBOTTOM
 10
0.0
 20
0.0
 30
0.0
  9
$PUCSORGLEFT
 10
0.0
 20
0.0
 30
0.0
  9
$PUCSORGRIGHT
 10
0.0
 20
0.0
 30
0.0
  9
$PUCSORGFRONT
 10
0.0
 20
0.0
 30
0.0
  9
$PUCSORGBACK
 10
0.0
 20
0.0
 30
0.0
  9
$USERI1
 70
     0
  9
$USERI2
 70
     0
  9
$USERI3
 70
     0
  9
$USERI4
 70
     0
  9
$USERI5
 70
     0
  9
$USERR1
 40
0.0
  9
$USERR2
 40
0.0
  9
$USERR3
 40
0.0
  9
$USERR4
 40
0.0
  9
$USERR5
 40
2.5
  9
$WORLDVIEW
 70
     1
  9
$SHADEDGE
 70
     3
  9
$SHADEDIF
 70
    70
  9
$TILEMODE
 70
     1
  9
$MAXACTVP
 70
    64
  9
$PINSBASE
 10
0.0
 20
0.0
 30
0.0
  9
$PLIMCHECK
 70
     0
  9
$PEXTMIN
 10
1.000000000000000E+20
 20
1.000000000000000E+20
 30
1.000000000000000E+20
  9
$PEXTMAX
 10
-1.000000000000000E+20
 20
-1.000000000000000E+20
 30
-1.000000000000000E+20
  9
$PLIMMIN
 10
0.0
 20
0.0
  9
$PLIMMAX
 10
12.0
 20
9.0
  9
$UNITMODE
 70
     0
  9
$VISRETAIN
 70
     1
  9
$PLINEGEN
 70
     0
  9
$PSLTSCALE
 70
     1
  9
$TREEDEPTH
 70
  3020
  9
$CMLSTYLE
  2
Standard
  9
$CMLJUST
 70
     0
  9
$CMLSCALE
 40
1.0
  9
$PROXYGRAPHICS
 70
     1
  9
$MEASUREMENT
 70
     0
  9
$CELWEIGHT
370
    -1
  9
$ENDCAPS
280
     0
  9
$JOINSTYLE
280
     0
  9
$LWDISPLAY
290
     0
  9
$INSUNITS
 70
     4
  9
$HYPERLINKBASE
  1

  9
$STYLESHEET
  1
MONOCHROME.CTB
  9
$XEDIT
290
     1
  9
$CEPSNTYPE
380
     0
  9
$PSTYLEMODE
290
     1
  9
$FINGERPRINTGUID
  2
{6F478082-FE3C-45F1-B44F-2B64E702E701}
  9
$VERSIONGUID
  2
{992F901B-80BF-4FFF-86E6-BF0111CBFFD0}
  9
$EXTNAMES
290
     1
  9
$PSVPSCALE
 40
0.0
  9
$OLESTARTUP
290
     0
  9
$SORTENTS
280
   127
  9
$INDEXCTL
280
     0
  9
$HIDETEXT
280
     1
  9
$XCLIPFRAME
290
     0
  9
$HALOGAP
280
     0
  9
$OBSCOLOR
 70
   257
  9
$OBSLTYPE
280
     0
  9
$INTERSECTIONDISPLAY
280
     0
  9
$INTERSECTIONCOLOR
 70
   257
  9
$DIMASSOC
280
     1
  9
$PROJECTNAME
  1

  9
$CAMERADISPLAY
290
     0
  9
$LENSLENGTH
 40
50.0
  9
$CAMERAHEIGHT
 40
0.0
  9
$STEPSPERSEC
 40
2.0
  9
$STEPSIZE
 40
6.0
  9
$3DDWFPREC
 40
2.0
  9
$PSOLWIDTH
 40
0.25
  9
$PSOLHEIGHT
 40
4.0
  9
$LOFTANG1
 40
1.570795999999999
  9
$LOFTANG2
 40
1.570795999999999
  9
$LOFTMAG1
 40
0.0
  9
$LOFTMAG2
 40
0.0
  9
$LOFTPARAM
 70
     7
  9
$LOFTNORMALS
280
     1
  9
$LATITUDE
 40
37.795
  9
$LONGITUDE
 40
-122.394
  9
$NORTHDIRECTION
 40
0.0
  9
$TIMEZONE
 70
 -8000
  9
$LIGHTGLYPHDISPLAY
280
     1
  9
$TILEMODELIGHTSYNCH
280
     1
  9
$CMATERIAL
347
211
  9
$SOLIDHIST
280
     1
  9
$SHOWHIST
280
     1
  9
$DWFFRAME
280
     2
  9
$DGNFRAME
280
     0
  9
$REALWORLDSCALE
290
     1
  9
$INTERFERECOLOR
 62
     1
  9
$INTERFEREOBJVS
345
227
  9
$INTERFEREVPVS
346
228
  9
$CSHADOW
280
     0
  9
$SHADOWPLANELOCATION
 40
0.0
  0
ENDSEC
  0
SECTION
  2
CLASSES
  0
CLASS
  1
ACDBDICTIONARYWDFLT
  2
AcDbDictionaryWithDefault
  3
ObjectDBX Classes
 90
        0
 91
        1
280
     0
281
     0
  0
CLASS
  1
VISUALSTYLE
  2
AcDbVisualStyle
  3
ObjectDBX Classes
 90
     4095
 91
       16
280
     0
281
     0
  0
CLASS
  1
MATERIAL
  2
AcDbMaterial
  3
ObjectDBX Classes
 90
     1153
 91
        3
280
     0
281
     0
  0
CLASS
  1
TABLESTYLE
  2
AcDbTableStyle
  3
ObjectDBX Classes
 90
     4095
 91
        1
280
     0
281
     0
  0
CLASS
  1
SCALE
  2
AcDbScale
  3
ObjectDBX Classes
 90
     1153
 91
       33
280
     0
281
     0
  0
CLASS
  1
MLEADERSTYLE
  2
AcDbMLeaderStyle
  3
ACDB_MLEADERSTYLE_CLASS
 90
     4095
 91
        1
280
     0
281
     0
  0
CLASS
  1
CELLSTYLEMAP
  2
AcDbCellStyleMap
  3
ObjectDBX Classes
 90
     1152
 91
        2
280
     0
281
     0
  0
CLASS
  1
DICTIONARYVAR
  2
AcDbDictionaryVar
  3
ObjectDBX Classes
 90
        0
 91
       11
280
     0
281
     0
  0
CLASS
  1
SORTENTSTABLE
  2
AcDbSortentsTable
  3
ObjectDBX Classes
 90
        0
 91
        1
280
     0
281
     0
  0
CLASS
  1
ACAD_EVALUATION_GRAPH
  2
AcDbEvalGraph
  3
ObjectDBX Classes
 90
     1153
 91
        1
280
     0
281
     0
  0
CLASS
  1
ACAECUSTOBJ
  2
AcAeEditorObj
  3
AcAeEditorObj
 90
     1024
 91
        1
280
     1
281
     0
  0
CLASS
  1
ACDB_DYNAMICBLOCKPURGEPREVENTER_VERSION
  2
AcDbDynamicBlockPurgePreventer
  3
ObjectDBX Classes
 90
     1153
 91
        1
280
     0
281
     0
  0
CLASS
  1
MENTALRAYRENDERSETTINGS
  2
AcDbMentalRayRenderSettings
  3
SCENEOE
 90
     1024
 91
        0
280
     0
281
     0
  0
CLASS
  1
ACDB_BLOCKREPRESENTATION_DATA
  2
AcDbBlockRepresentationData
  3
ObjectDBX Classes
 90
     1153
 91
        0
280
     0
281
     0
  0
CLASS
  1
DIMASSOC
  2
AcDbDimAssoc
  3
"AcDbDimAssoc|Product Desc:     AcDim ARX App For Dimension|Company:          Autodesk, Inc.|WEB Address:      www.autodesk.com"
 90
        0
 91
        0
280
     0
281
     0
  0
CLASS
  1
SOLID_BACKGROUND
  2
AcDbSolidBackground
  3
SCENEOE
 90
     4095
 91
        0
280
     0
281
     0
  0
CLASS
  1
NPOCOLLECTION
  2
AcDbImpNonPersistentObjectsCollection
  3
ObjectDBX Classes
 90
     1153
 91
        0
280
     0
281
     0
  0
CLASS
  1
VLO-VL
  2
vlo_VL
  3
VL|AutoLISP based application
 90
      129
 91
        1
280
     0
281
     0
  0
ENDSEC
  0
SECTION
  2
TABLES
  0
TABLE
  2
VPORT
  5
205
102
{ACAD_XDICTIONARY
360
209
102
}
330
0
100
AcDbSymbolTable
 70
     1
  0
VPORT
  5
206
330
205
100
AcDbSymbolTableRecord
100
AcDbViewportTableRecord
  2
*Active
 70
     0
 10
0.0
 20
0.0
 11
1.0
 21
1.0
 12
3.383837869991108
 22
-11.76199519530928
 13
0.0
 23
0.0
 14
0.5
 24
0.5
 15
0.5
 25
0.5
 16
0.0
 26
0.0
 36
47.52287584630495
 17
720.282308495558
 27
222.817896672527
 37
0.0
 40
53.05793468649826
 41
2.426395939086294
 42
50.0
 43
0.0
 44
0.0
 50
0.0
 51
0.0
 71
     0
 72
   100
 73
     1
 74
     3
 75
     0
 76
     0
 77
     0
 78
     0
281
     0
 65
     1
110
0.0
120
0.0
130
0.0
111
1.0
121
0.0
131
0.0
112
0.0
122
1.0
132
0.0
 79
     0
146
0.0
348
207
 60
     3
 61
     5
292
     1
282
     1
141
0.0
142
0.0
 63
   250
421
  3355443
  0
ENDTAB
  0
TABLE
  2
LTYPE
  5
200
330
0
100
AcDbSymbolTable
 70
     2
  0
LTYPE
  5
201
330
200
100
AcDbSymbolTableRecord
100
AcDbLinetypeTableRecord
  2
ByBlock
 70
     0
  3

 72
    65
 73
     0
 40
0.0
  0
LTYPE
  5
202
330
200
100
AcDbSymbolTableRecord
100
AcDbLinetypeTableRecord
  2
ByLayer
 70
     0
  3

 72
    65
 73
     0
 40
0.0
  0
LTYPE
  5
15
330
200
100
AcDbSymbolTableRecord
100
AcDbLinetypeTableRecord
  2
Continuous
 70
     0
  3
Solid line
 72
    65
 73
     0
 40
0.0
  0
LTYPE
  5
112
330
200
100
AcDbSymbolTableRecord
100
AcDbLinetypeTableRecord
  2
CENTER
 70
     0
  3
Center ____ _ ____ _ ____ _ ____ _ ____ _ ____
 72
    65
 73
     4
 40
2.0
 49
1.25
 74
     0
 49
-0.25
 74
     0
 49
0.25
 74
     0
 49
-0.25
 74
     0
  0
ENDTAB
  0
TABLE
  2
LAYER
  5
1F9
102
{ACAD_XDICTIONARY
360
1FA
102
}
330
0
100
AcDbSymbolTable
 70
     9
  0
LAYER
  5
6
102
{ACAD_XDICTIONARY
360
7
102
}
330
1F9
100
AcDbSymbolTableRecord
100
AcDbLayerTableRecord
  2
0
 70
     0
 62
     7
  6
Continuous
370
    30
390
9
347
C
  0
LAYER
  5
17
102
{ACAD_XDICTIONARY
360
18
102
}
330
1F9
100
AcDbSymbolTableRecord
100
AcDbLayerTableRecord
  2
图层 1
 70
     0
 62
     7
  6
Continuous
370
    -3
390
9
347
C
  0
LAYER
  5
25
102
{ACAD_XDICTIONARY
360
26
102
}
330
1F9
100
AcDbSymbolTableRecord
100
AcDbLayerTableRecord
  2
图框
 70
     0
 62
     7
  6
Continuous
370
    20
390
9
347
C
  0
LAYER
  5
123
330
1F9
100
AcDbSymbolTableRecord
100
AcDbLayerTableRecord
  2
Defpoints
 70
     0
 62
     7
  6
Continuous
290
     0
370
    -3
390
9
347
C
  0
LAYER
  5
119
330
1F9
100
AcDbSymbolTableRecord
100
AcDbLayerTableRecord
  2
DIM
 70
     0
 62
     3
  6
Continuous
370
    15
390
9
347
C
1001
AcAecLayerStandard
1000

1000

  0
LAYER
  5
ED
330
1F9
100
AcDbSymbolTableRecord
100
AcDbLayerTableRecord
  2
打标文字
 70
     0
 62
     3
  6
Continuous
370
    20
390
9
347
C
  0
LAYER
  5
106
330
1F9
100
AcDbSymbolTableRecord
100
AcDbLayerTableRecord
  2
hat
 70
     0
 62
     6
  6
Continuous
370
    15
390
9
347
C
1001
AcAecLayerStandard
1000

1000

  0
LAYER
  5
6D5
330
1F9
100
AcDbSymbolTableRecord
100
AcDbLayerTableRecord
  2
CEN
 70
     0
 62
     1
  6
CENTER
370
    15
390
9
347
C
1001
AcAecLayerStandard
1000

1000

  0
LAYER
  5
A86
330
1F9
100
AcDbSymbolTableRecord
100
AcDbLayerTableRecord
  2
1
 70
     0
 62
     7
  6
Continuous
370
    -3
390
9
347
C
  0
ENDTAB
  0
TABLE
  2
STYLE
  5
1FE
330
0
100
AcDbSymbolTable
 70
     4
  0
STYLE
  5
46
330
1FE
100
AcDbSymbolTableRecord
100
AcDbTextStyleTableRecord
  2
Standard
 70
     0
 40
0.0
 41
0.75
 50
0.0
 71
     0
 42
0.2
  3
SIMFANG.TTF
  4

1001
ACAD
1000
FangSong_GB2312
1071
    34353
  0
STYLE
  5
28
330
1FE
100
AcDbSymbolTableRecord
100
AcDbTextStyleTableRecord
  2
Romans字体
 70
     0
 40
0.0
 41
0.75
 50
0.0
 71
     0
 42
0.2
  3
romans.shx
  4

  0
STYLE
  5
48
330
1FE
100
AcDbSymbolTableRecord
100
AcDbTextStyleTableRecord
  2
工程字
 70
     0
 40
0.0
 41
1.0
 50
0.0
 71
     0
 42
3.5
  3
gbenor.shx
  4
gbcbig.shx
  0
STYLE
  5
4A
330
1FE
100
AcDbSymbolTableRecord
100
AcDbTextStyleTableRecord
  2
Chinese
 70
     0
 40
0.0
 41
1.0
 50
0.0
 71
     0
 42
2.5
  3
PMingLiU.ttf
  4

1001
ACAD
1000
PMingLiU
1071
    34834
  0
ENDTAB
  0
TABLE
  2
VIEW
  5
203
330
0
100
AcDbSymbolTable
 70
     0
  0
ENDTAB
  0
TABLE
  2
UCS
  5
204
330
0
100
AcDbSymbolTable
 70
     0
  0
ENDTAB
  0
TABLE
  2
APPID
  5
20A
330
0
100
AcDbSymbolTable
 70
    10
  0
APPID
  5
29
330
20A
100
AcDbSymbolTableRecord
100
AcDbRegAppTableRecord
  2
ACAD
 70
     0
  0
APPID
  5
35
330
20A
100
AcDbSymbolTableRecord
100
AcDbRegAppTableRecord
  2
AcDbBlockRepETag
 70
     0
  0
APPID
  5
1F0
330
20A
100
AcDbSymbolTableRecord
100
AcDbRegAppTableRecord
  2
ACAD_PSEXT
 70
     0
  0
APPID
  5
107
330
20A
100
AcDbSymbolTableRecord
100
AcDbRegAppTableRecord
  2
AcAecLayerStandard
 70
     0
  0
APPID
  5
128
330
20A
100
AcDbSymbolTableRecord
100
AcDbRegAppTableRecord
  2
ACAD_DSTYLE_DIMJAG
 70
     0
  0
APPID
  5
129
330
20A
100
AcDbSymbolTableRecord
100
AcDbRegAppTableRecord
  2
ACAD_DSTYLE_DIMTALN
 70
     0
  0
APPID
  5
285
330
20A
100
AcDbSymbolTableRecord
100
AcDbRegAppTableRecord
  2
ACAD_MLEADERVER
 70
     0
  0
APPID
  5
369
330
20A
100
AcDbSymbolTableRecord
100
AcDbRegAppTableRecord
  2
AcDbDynamicBlockGUID
 70
     0
  0
APPID
  5
A42
330
20A
100
AcDbSymbolTableRecord
100
AcDbRegAppTableRecord
  2
ACAUTHENVIRON
 70
     0
  0
APPID
  5
A45
330
20A
100
AcDbSymbolTableRecord
100
AcDbRegAppTableRecord
  2
AcDbDynamicBlockTrueName
 70
     0
  0
ENDTAB
  0
TABLE
  2
DIMSTYLE
  5
20B
330
0
100
AcDbSymbolTable
 70
     2
100
AcDbDimStyleTable
 71
     2
340
127
340
20C
  0
DIMSTYLE
105
20C
330
20B
100
AcDbSymbolTableRecord
100
AcDbDimStyleTableRecord
  2
Standard
 70
     0
340
46
  0
DIMSTYLE
105
127
102
{ACAD_REACTORS
330
C22
330
C23
330
C24
330
C25
330
C26
102
}
330
20B
100
AcDbSymbolTableRecord
100
AcDbDimStyleTableRecord
  2
01
 70
     0
 41
1.5
 42
0.2
 43
0.2
 44
0.5
 73
     0
 74
     0
 77
     1
 78
     8
 79
     2
140
2.0
141
0.0
147
0.5
176
     1
177
     6
178
     4
179
     2
271
     1
272
     1
340
28
1001
ACAD_DSTYLE_DIMJAG
1070
   388
1040
1.5
1001
ACAD_DSTYLE_DIMTALN
1070
   392
1070
     0
  0
ENDTAB
  0
TABLE
  2
BLOCK_RECORD
  5
1
330
0
100
AcDbSymbolTable
 70
    18
  0
BLOCK_RECORD
  5
2
102
{ACAD_XDICTIONARY
360
3
102
}
330
1
100
AcDbSymbolTableRecord
100
AcDbBlockTableRecord
  2
*Model_Space
340
1EE
 70
     0
280
     1
281
     0
  0
BLOCK_RECORD
  5
1F1
330
1
100
AcDbSymbolTableRecord
100
AcDbBlockTableRecord
  2
*Paper_Space
340
1F4
 70
     0
280
     1
281
     0
  0
BLOCK_RECORD
  5
1F5
330
1
100
AcDbSymbolTableRecord
100
AcDbBlockTableRecord
  2
*Paper_Space0
340
1F8
 70
     0
280
     1
281
     0
  0
BLOCK_RECORD
  5
293
102
{ACAD_XDICTIONARY
360
DCD
102
}
330
1
100
AcDbSymbolTableRecord
100
AcDbBlockTableRecord
  2
A4图框-NEW
340
0
310
2800000020000000200000000100080000000000000400000000000000000000000000000000000000000000000080000080000000808000800000008000800080800000C0C0C000C0DCC000F0CAA6000020400000206000002080000020A0000020C0000020E00000400000004020000040400000406000004080000040A0
310
000040C0000040E00000600000006020000060400000606000006080000060A0000060C0000060E00000800000008020000080400000806000008080000080A0000080C0000080E00000A0000000A0200000A0400000A0600000A0800000A0A00000A0C00000A0E00000C0000000C0200000C0400000C0600000C0800000C0
310
A00000C0C00000C0E00000E0000000E0200000E0400000E0600000E0800000E0A00000E0C00000E0E00040000000400020004000400040006000400080004000A0004000C0004000E00040200000402020004020400040206000402080004020A0004020C0004020E000404000004040200040404000404060004040800040
310
40A0004040C0004040E00040600000406020004060400040606000406080004060A0004060C0004060E00040800000408020004080400040806000408080004080A0004080C0004080E00040A0000040A0200040A0400040A0600040A0800040A0A00040A0C00040A0E00040C0000040C0200040C0400040C0600040C08000
310
40C0A00040C0C00040C0E00040E0000040E0200040E0400040E0600040E0800040E0A00040E0C00040E0E00080000000800020008000400080006000800080008000A0008000C0008000E00080200000802020008020400080206000802080008020A0008020C0008020E00080400000804020008040400080406000804080
310
008040A0008040C0008040E00080600000806020008060400080606000806080008060A0008060C0008060E00080800000808020008080400080806000808080008080A0008080C0008080E00080A0000080A0200080A0400080A0600080A0800080A0A00080A0C00080A0E00080C0000080C0200080C0400080C0600080C0
310
800080C0A00080C0C00080C0E00080E0000080E0200080E0400080E0600080E0800080E0A00080E0C00080E0E000C0000000C0002000C0004000C0006000C0008000C000A000C000C000C000E000C0200000C0202000C0204000C0206000C0208000C020A000C020C000C020E000C0400000C0402000C0404000C0406000C0
310
408000C040A000C040C000C040E000C0600000C0602000C0604000C0606000C0608000C060A000C060C000C060E000C0800000C0802000C0804000C0806000C0808000C080A000C080C000C080E000C0A00000C0A02000C0A04000C0A06000C0A08000C0A0A000C0A0C000C0A0E000C0C00000C0C02000C0C04000C0C06000
310
C0C08000C0C0A000F0FBFF00A4A0A000808080000000FF0000FF000000FFFF00FF000000FF00FF00FFFF0000FFFFFF0000000000000000000000000000000000000000000000000000000000000000000000000000000000000000000000000000000000000000000000000000000000000000000000000000000000000000
310
000000000000000000000000000000000000000000000000000000000000000000000000000000000000000000000000000000000000000000000000000000000000000000000000000000000000000000000000000000000000000000000000000000000000000000000000000000000000F9F9F9F9F9F9F9F9F9F9F9F9F9
310
F9F9F9F9F9F9F9F9F9F9F9F9F9F9FF00000000F9FF000000000000000000FFFFFFFFFFFFFFFFFFFFFFFFF9FAFAFAFF00000000F9FF000000000000000000FFFFFFFFFFFFFFFFFFFFFFFFFFFFFFFFFF00000000F9FD000000000000000000FFFFFFFFFFFFFFFFFFFFFFFFFFFFFFFFFF00000000F9FF000000000000000000FF
310
FFFFFFFFFFFFFFFFFFFFFFFFFFFFFFFF00000000F9FD000000000000000000FFFFFFFFFFFFFFFFFFFFFFFFFFFFFFFFFF00000000F9FF00000000000000000000000000000000000000000000000000FF00000000F9FD00000000000000000000000000000000000000000000000000FF00000000F9FF000000000000000000
310
00000000000000000000000000000000FF00000000F9FD00000000000000000000000000000000000000000000000000FF00000000F9FF00000000000000000000000000000000000000000000000000FF00000000F9FD00000000000000000000000000000000000000000000000000FF00000000F9FD0000000000000000
310
0000000000000000000000000000000000FF00000000F9FF00000000000000000000000000000000000000000000000000FF00000000F9FD00000000000000000000000000000000000000000000000000FF00000000F9FF00000000000000000000000000000000000000000000000000FF00000000F9FD00000000000000
310
000000000000000000000000000000000000FF00000000F9FF00000000000000000000000000000000000000000000000000FF00000000F9FFFFFFFFFFFFFFFFFFFFFFFFFFFFFFFFFFFFFFFFFFFFFFFFFFFFFF00000000F9FFFFFFF9F9F9F9F9F9F9F9F9F9F9F9F9F9F9F9F9F9F9F9F9F9F9F9000000000000000000000000
310
00000000000000000000000000000000000000000000000000000000000000000000000000000000000000000000000000000000000000000000000000000000000000000000000000000000000000000000000000000000000000000000000000000000000000000000000000000000000000000000000000000000000000
310
0000000000000000000000000000000000000000000000000000000000000000000000000000000000000000000000000000000000000000
102
{BLKREFS
331
534
102
}
 70
     4
280
     1
281
     0
1001
AcDbDynamicBlockGUID
1000
{F75C6E5A-B053-4A90-9E0D-5209AE0F9A38}
1001
AcDbBlockRepETag
1070
     1
1071
      149
  0
BLOCK_RECORD
  5
538
330
1
100
AcDbSymbolTableRecord
100
AcDbBlockTableRecord
  2
*D2
340
0
 70
     0
280
     1
281
     0
  0
BLOCK_RECORD
  5
544
330
1
100
AcDbSymbolTableRecord
100
AcDbBlockTableRecord
  2
*D3
340
0
 70
     0
280
     1
281
     0
  0
BLOCK_RECORD
  5
551
330
1
100
AcDbSymbolTableRecord
100
AcDbBlockTableRecord
  2
*D4
340
0
 70
     0
280
     1
281
     0
  0
BLOCK_RECORD
  5
55E
330
1
100
AcDbSymbolTableRecord
100
AcDbBlockTableRecord
  2
*D5
340
0
 70
     0
280
     1
281
     0
  0
BLOCK_RECORD
  5
569
330
1
100
AcDbSymbolTableRecord
100
AcDbBlockTableRecord
  2
*D6
340
0
 70
     0
280
     1
281
     0
  0
BLOCK_RECORD
  5
A47
330
1
100
AcDbSymbolTableRecord
100
AcDbBlockTableRecord
  2
*D7
340
0
 70
     0
280
     1
281
     0
  0
BLOCK_RECORD
  5
A53
330
1
100
AcDbSymbolTableRecord
100
AcDbBlockTableRecord
  2
*D8
340
0
 70
     0
280
     1
281
     0
  0
BLOCK_RECORD
  5
A5F
330
1
100
AcDbSymbolTableRecord
100
AcDbBlockTableRecord
  2
*D9
340
0
 70
     0
280
     1
281
     0
  0
BLOCK_RECORD
  5
A6C
330
1
100
AcDbSymbolTableRecord
100
AcDbBlockTableRecord
  2
*D10
340
0
 70
     0
280
     1
281
     0
  0
BLOCK_RECORD
  5
A79
330
1
100
AcDbSymbolTableRecord
100
AcDbBlockTableRecord
  2
*D11
340
0
 70
     0
280
     1
281
     0
  0
BLOCK_RECORD
  5
C27
330
1
100
AcDbSymbolTableRecord
100
AcDbBlockTableRecord
  2
*D12
340
0
 70
     0
280
     1
281
     0
  0
BLOCK_RECORD
  5
C33
330
1
100
AcDbSymbolTableRecord
100
AcDbBlockTableRecord
  2
*D13
340
0
 70
     0
280
     1
281
     0
  0
BLOCK_RECORD
  5
C3F
330
1
100
AcDbSymbolTableRecord
100
AcDbBlockTableRecord
  2
*D14
340
0
 70
     0
280
     1
281
     0
  0
BLOCK_RECORD
  5
C4C
330
1
100
AcDbSymbolTableRecord
100
AcDbBlockTableRecord
  2
*D15
340
0
 70
     0
280
     1
281
     0
  0
BLOCK_RECORD
  5
C59
330
1
100
AcDbSymbolTableRecord
100
AcDbBlockTableRecord
  2
*D16
340
0
 70
     0
280
     1
281
     0
  0
ENDTAB
  0
ENDSEC
  0
SECTION
  2
BLOCKS
  0
BLOCK
  5
5
330
2
100
AcDbEntity
  8
0
100
AcDbBlockBegin
  2
*Model_Space
 70
     0
 10
0.0
 20
0.0
 30
0.0
  3
*Model_Space
  1

  0
ENDBLK
  5
1ED
330
2
100
AcDbEntity
  8
0
100
AcDbBlockEnd
  0
BLOCK
  5
1F2
330
1F1
100
AcDbEntity
 67
     1
  8
0
100
AcDbBlockBegin
  2
*Paper_Space
 70
     0
 10
0.0
 20
0.0
 30
0.0
  3
*Paper_Space
  1

  0
ENDBLK
  5
1F3
330
1F1
100
AcDbEntity
 67
     1
  8
0
100
AcDbBlockEnd
  0
BLOCK
  5
1F6
330
1F5
100
AcDbEntity
 67
     1
  8
0
100
AcDbBlockBegin
  2
*Paper_Space0
 70
     0
 10
0.0
 20
0.0
 30
0.0
  3
*Paper_Space0
  1

  0
ENDBLK
  5
1F7
330
1F5
100
AcDbEntity
 67
     1
  8
0
100
AcDbBlockEnd
  0
BLOCK
  5
295
330
293
100
AcDbEntity
  8
0
100
AcDbBlockBegin
  2
A4图框-NEW
 70
     0
 10
0.0
 20
0.0
 30
0.0
  3
A4图框-NEW
  1

  0
MTEXT
  5
D38
102
{ACAD_XDICTIONARY
360
DD4
102
}
330
293
100
AcDbEntity
  8
图框
 62
     3
100
AcDbMText
 10
967.6594956750133
 20
499.7664151964293
 30
0.0
 40
2.985513575034151
 41
15.50176341157864
 46
6.292658374511018
 71
     5
 72
     5
  1
GQ.WU
  7
Romans字体
 73
     1
 44
1.0
1001
AcDbBlockRepETag
1070
     1
1071
        0
1005
D38
1001
ACAD
1000
MTEXTBEGIN
1070
    73
1070
     1
1070
    44
1040
1.0
1070
    74
1070
     0
1000
MTEXTEND
1000
ACAD_MTEXT_DEFINED_HEIGHT_BEGIN
1070
    46
1040
6.292658374511018
1000
ACAD_MTEXT_DEFINED_HEIGHT_END
  0
MTEXT
  5
D39
330
293
100
AcDbEntity
  8
图框
 62
     3
100
AcDbMText
 10
983.041569333247
 20
499.7664151964293
 30
0.0
 40
2.487927979195124
 41
15.26238390489062
 46
6.292658374511042
 71
     5
 72
     5
  1
{\W0.7;20.3.2023}
  7
Romans字体
 73
     1
 44
1.0
1001
AcDbBlockRepETag
1070
     1
1071
        1
1005
D39
1001
ACAD
1000
MTEXTBEGIN
1070
    73
1070
     1
1070
    44
1040
1.0
1070
    74
1070
     0
1000
MTEXTEND
1000
ACAD_MTEXT_DEFINED_HEIGHT_BEGIN
1070
    46
1040
6.292658374511042
1000
ACAD_MTEXT_DEFINED_HEIGHT_END
  0
MTEXT
  5
D3A
330
293
100
AcDbEntity
  8
图框
 62
     3
100
AcDbMText
 10
1012.477254728976
 20
487.1810984474071
 30
0.0
 40
2.985513575034151
 41
17.64876416884615
 46
6.292658374511455
 71
     5
 72
     5
  1
HQ.ZHANG
  7
Romans字体
 73
     1
 44
1.0
1001
AcDbBlockRepETag
1070
     1
1071
        2
1005
D3A
1001
ACAD
1000
MTEXTBEGIN
1070
    73
1070
     1
1070
    44
1040
1.0
1070
    74
1070
     0
1000
MTEXTEND
1000
ACAD_MTEXT_DEFINED_HEIGHT_BEGIN
1070
    46
1040
6.292658374511455
1000
ACAD_MTEXT_DEFINED_HEIGHT_END
  0
MTEXT
  5
D3B
330
293
100
AcDbEntity
  8
图框
 62
     3
100
AcDbMText
 10
1028.977802139886
 20
487.1810984474071
 30
0.0
 40
2.487927979195124
 41
15.35233065297276
 46
6.292658374511495
 71
     5
 72
     5
  1
{\W0.7;20.3.2023}
  7
Romans字体
 73
     1
 44
1.0
1001
AcDbBlockRepETag
1070
     1
1071
        3
1005
D3B
1001
ACAD
1000
MTEXTBEGIN
1070
    73
1070
     1
1070
    44
1040
1.0
1070
    74
1070
     0
1000
MTEXTEND
1000
ACAD_MTEXT_DEFINED_HEIGHT_BEGIN
1070
    46
1040
6.292658374511495
1000
ACAD_MTEXT_DEFINED_HEIGHT_END
  0
MTEXT
  5
D3C
330
293
100
AcDbEntity
  8
图框
 62
     3
100
AcDbMText
 10
1063.722665487208
 20
525.4145966538831
 30
0.0
 40
2.985513575034151
 41
32.4973914334545
 46
11.82914190181707
 71
     5
 72
     5
  1
-
  7
Romans字体
 73
     1
 44
1.0
1001
AcDbBlockRepETag
1070
     1
1071
        4
1005
D3C
1001
ACAD
1000
MTEXTBEGIN
1070
    73
1070
     1
1070
    44
1040
1.0
1070
    74
1070
     0
1000
MTEXTEND
1000
ACAD_MTEXT_DEFINED_HEIGHT_BEGIN
1070
    46
1040
11.82914190181707
1000
ACAD_MTEXT_DEFINED_HEIGHT_END
  0
MTEXT
  5
D3D
330
293
100
AcDbEntity
  8
图框
 62
     3
100
AcDbMText
 10
1063.727338552349
 20
513.5854547520641
 30
0.0
 40
2.985513575034151
 41
32.48804530317308
 46
11.82914190182139
 71
     5
 72
     5
  1
-
  7
Romans字体
 73
     1
 44
1.0
1001
AcDbBlockRepETag
1070
     1
1071
        5
1005
D3D
1001
ACAD
1000
MTEXTBEGIN
1070
    73
1070
     1
1070
    44
1040
1.0
1070
    74
1070
     0
1000
MTEXTEND
1000
ACAD_MTEXT_DEFINED_HEIGHT_BEGIN
1070
    46
1040
11.82914190182139
1000
ACAD_MTEXT_DEFINED_HEIGHT_END
  0
MTEXT
  5
D3E
330
293
100
AcDbEntity
  8
图框
 62
     3
100
AcDbMText
 10
1110.122306614152
 20
526.8006839312707
 30
0.0
 40
2.985513575034151
 41
33.61239199242139
 46
9.05696734704178
 71
     5
 72
     5
  1
-
  7
Romans字体
 73
     1
 44
1.0
1001
AcDbBlockRepETag
1070
     1
1071
        6
1005
D3E
1001
ACAD
1000
MTEXTBEGIN
1070
    73
1070
     1
1070
    44
1040
1.0
1070
    74
1070
     0
1000
MTEXTEND
1000
ACAD_MTEXT_DEFINED_HEIGHT_BEGIN
1070
    46
1040
9.05696734704178
1000
ACAD_MTEXT_DEFINED_HEIGHT_END
  0
MTEXT
  5
D3F
330
293
100
AcDbEntity
  8
图框
 62
     3
100
AcDbMText
 10
1110.122306614152
 20
500.2775205517162
 30
0.0
 40
2.985513575034151
 41
33.61239199242139
 46
8.871557304763419
 71
     5
 72
     5
  1
-
  7
Romans字体
 73
     1
 44
1.0
1001
AcDbBlockRepETag
1070
     1
1071
        7
1005
D3F
1001
ACAD
1000
MTEXTBEGIN
1070
    73
1070
     1
1070
    44
1040
1.0
1070
    74
1070
     0
1000
MTEXTEND
1000
ACAD_MTEXT_DEFINED_HEIGHT_BEGIN
1070
    46
1040
8.871557304763419
1000
ACAD_MTEXT_DEFINED_HEIGHT_END
  0
MTEXT
  5
D40
330
293
100
AcDbEntity
  8
图框
 62
     3
100
AcDbMText
 10
967.6594956750133
 20
493.4737568219182
 30
0.0
 40
2.985513575034151
 41
15.50176341157864
 46
6.292658374510335
 71
     5
 72
     5
  1
Q.GAO
  7
Romans字体
 73
     1
 44
1.0
1001
AcDbBlockRepETag
1070
     1
1071
        8
1005
D40
1001
ACAD
1000
MTEXTBEGIN
1070
    73
1070
     1
1070
    44
1040
1.0
1070
    74
1070
     0
1000
MTEXTEND
1000
ACAD_MTEXT_DEFINED_HEIGHT_BEGIN
1070
    46
1040
6.292658374510335
1000
ACAD_MTEXT_DEFINED_HEIGHT_END
  0
MTEXT
  5
D41
330
293
100
AcDbEntity
  8
图框
 62
     3
100
AcDbMText
 10
983.041569333247
 20
493.2441970450405
 30
0.0
 40
2.487927979195124
 41
15.26238390489051
 46
6.751777928266487
 71
     5
 72
     5
  1
{\W0.7;20.3.2023}
  7
Romans字体
 73
     1
 44
1.0
1001
AcDbBlockRepETag
1070
     1
1071
        9
1005
D41
1001
ACAD
1000
MTEXTBEGIN
1070
    73
1070
     1
1070
    44
1040
1.0
1070
    74
1070
     0
1000
MTEXTEND
1000
ACAD_MTEXT_DEFINED_HEIGHT_BEGIN
1070
    46
1040
6.751777928266487
1000
ACAD_MTEXT_DEFINED_HEIGHT_END
  0
MTEXT
  5
D42
330
293
100
AcDbEntity
  8
图框
 62
     3
100
AcDbMText
 10
1012.477254728976
 20
499.7664151964291
 30
0.0
 40
2.985513575034151
 41
17.64876416884615
 46
6.292658374511397
 71
     5
 72
     5
  1
-
  7
Romans字体
 73
     1
 44
1.0
1001
AcDbBlockRepETag
1070
     1
1071
       10
1005
D42
1001
ACAD
1000
MTEXTBEGIN
1070
    73
1070
     1
1070
    44
1040
1.0
1070
    74
1070
     0
1000
MTEXTEND
1000
ACAD_MTEXT_DEFINED_HEIGHT_BEGIN
1070
    46
1040
6.292658374511397
1000
ACAD_MTEXT_DEFINED_HEIGHT_END
  0
MTEXT
  5
D43
330
293
100
AcDbEntity
  8
图框
 62
     3
100
AcDbMText
 10
1028.977802139886
 20
499.7664151964289
 30
0.0
 40
2.487927979195124
 41
15.35233065297265
 46
6.292658374511382
 71
     5
 72
     5
  1
-
  7
Romans字体
 73
     1
 44
1.0
1001
AcDbBlockRepETag
1070
     1
1071
       11
1005
D43
1001
ACAD
1000
MTEXTBEGIN
1070
    73
1070
     1
1070
    44
1040
1.0
1070
    74
1070
     0
1000
MTEXTEND
1000
ACAD_MTEXT_DEFINED_HEIGHT_BEGIN
1070
    46
1040
6.292658374511382
1000
ACAD_MTEXT_DEFINED_HEIGHT_END
  0
MTEXT
  5
D44
330
293
100
AcDbEntity
  8
图框
 62
     3
100
AcDbMText
 10
967.6594956750133
 20
487.1810984474071
 30
0.0
 40
2.985513575034151
 41
15.50176341157863
 46
6.292658374511478
 71
     5
 72
     5
  1
-
  7
Romans字体
 73
     1
 44
1.0
1001
AcDbBlockRepETag
1070
     1
1071
       12
1005
D44
1001
ACAD
1000
MTEXTBEGIN
1070
    73
1070
     1
1070
    44
1040
1.0
1070
    74
1070
     0
1000
MTEXTEND
1000
ACAD_MTEXT_DEFINED_HEIGHT_BEGIN
1070
    46
1040
6.292658374511478
1000
ACAD_MTEXT_DEFINED_HEIGHT_END
  0
MTEXT
  5
D45
330
293
100
AcDbEntity
  8
图框
 62
     3
100
AcDbMText
 10
983.041569333247
 20
487.1810984474071
 30
0.0
 40
2.487927979195124
 41
15.26238390489062
 46
6.292658374511495
 71
     5
 72
     5
  1
-
  7
Romans字体
 73
     1
 44
1.0
1001
AcDbBlockRepETag
1070
     1
1071
       13
1005
D45
1001
ACAD
1000
MTEXTBEGIN
1070
    73
1070
     1
1070
    44
1040
1.0
1070
    74
1070
     0
1000
MTEXTEND
1000
ACAD_MTEXT_DEFINED_HEIGHT_BEGIN
1070
    46
1040
6.292658374511495
1000
ACAD_MTEXT_DEFINED_HEIGHT_END
  0
MTEXT
  5
D46
330
293
100
AcDbEntity
  8
图框
 62
     3
100
AcDbMText
 10
1074.556686986741
 20
495.8417418993361
 30
0.0
 40
2.985513575034151
 41
10.82934843438978
 46
7.886094601210427
 71
     5
 72
     5
  1
-
  7
Romans字体
 73
     1
 44
1.0
1001
AcDbBlockRepETag
1070
     1
1071
       14
1005
D46
1001
ACAD
1000
MTEXTBEGIN
1070
    73
1070
     1
1070
    44
1040
1.0
1070
    74
1070
     0
1000
MTEXTEND
1000
ACAD_MTEXT_DEFINED_HEIGHT_BEGIN
1070
    46
1040
7.886094601210427
1000
ACAD_MTEXT_DEFINED_HEIGHT_END
  0
LINE
  5
D47
330
293
100
AcDbEntity
  8
图框
370
    -3
100
AcDbLine
 10
1036.653967466372
 20
499.7847891999413
 30
0.0
 11
1079.971361203936
 21
499.7847891999413
 31
0.0
1001
AcDbBlockRepETag
1070
     1
1071
       15
1005
D47
  0
MTEXT
  5
D48
330
293
100
AcDbEntity
  8
图框
 62
     1
370
    20
100
AcDbMText
 10
1108.26336443907
 20
491.5162596080882
 30
0.0
 40
2.699054613030988
 41
82.30831305643079
 46
0.0
 71
     5
 72
     5
  1
{\fSimHei|b0|i0|c134|p2;厦门唯恩电气有限公司}
 73
     1
 44
1.0
1001
AcDbBlockRepETag
1070
     1
1071
       16
1005
D48
1001
ACAD
1000
MTEXTBEGIN
1070
    73
1070
     1
1070
    44
1040
1.0
1070
    74
1070
     0
1000
MTEXTEND
  0
MTEXT
  5
D49
330
293
100
AcDbEntity
  8
图框
 62
     3
370
    20
100
AcDbMText
 10
1108.435451459908
 20
487.298967726064
 30
0.0
 40
1.652482416141417
 41
68.08558693693567
 46
0.0
 71
     5
 72
     5
  1
{\fArial Narrow|b0|i0|c0|p34;XIAMEN WAIN ELECTRICAL CO.LTD}
  7
工程字
 73
     1
 44
1.0
1001
AcDbBlockRepETag
1070
     1
1071
       17
1005
D49
1001
ACAD
1000
MTEXTBEGIN
1070
    73
1070
     1
1070
    44
1040
1.0
1070
    74
1070
     0
1000
MTEXTEND
  0
MTEXT
  5
D4A
330
293
100
AcDbEntity
  8
图框
 62
     1
370
    20
100
AcDbMText
 10
1085.711816899387
 20
491.0944802995856
 30
0.0
 40
2.005930044038334
 41
5.047240019334847
 46
0.0
 71
     1
 72
     5
  1
{\fArial|b0|i0|c0|p34;A}
  7
Chinese
 73
     1
 44
1.0
1001
AcDbBlockRepETag
1070
     1
1071
       18
1005
D4A
1001
ACAD
1000
MTEXTBEGIN
1070
    73
1070
     1
1070
    44
1040
1.0
1070
    74
1070
     0
1000
MTEXTEND
  0
MTEXT
  5
D4B
330
293
100
AcDbEntity
  8
图框
 62
     1
370
    20
100
AcDbMText
 10
1088.213485935716
 20
491.0944802995856
 30
0.0
 40
2.005930044038334
 41
5.047240019334847
 46
0.0
 71
     1
 72
     5
  1
{\fArial|b0|i0|c0|p34;I}
  7
Chinese
 73
     1
 44
1.0
1001
AcDbBlockRepETag
1070
     1
1071
       19
1005
D4B
1001
ACAD
1000
MTEXTBEGIN
1070
    73
1070
     1
1070
    44
1040
1.0
1070
    74
1070
     0
1000
MTEXTEND
  0
MTEXT
  5
D4C
330
293
100
AcDbEntity
  8
图框
 62
     1
370
    20
100
AcDbMText
 10
1089.142375222864
 20
491.0822866326808
 30
0.0
 40
2.005930044038334
 41
5.047240019334847
 46
0.0
 71
     1
 72
     5
  1
{\fArial|b0|i0|c0|p34;N}
  7
Chinese
 73
     1
 44
1.0
1001
AcDbBlockRepETag
1070
     1
1071
       20
1005
D4C
1001
ACAD
1000
MTEXTBEGIN
1070
    73
1070
     1
1070
    44
1040
1.0
1070
    74
1070
     0
1000
MTEXTEND
  0
MTEXT
  5
D4D
330
293
100
AcDbEntity
  8
图框
100
AcDbMText
 10
1069.142012769545
 20
487.9667319294409
 30
0.0
 40
2.252848170144607
 41
21.65869686878327
 46
7.863925338579296
 71
     5
 72
     5
  1
{\W0.5;\C1;All Dimensions in mm\POriginal Size DIN A 4}
  7
Romans字体
 73
     1
 44
1.0
1001
AcDbBlockRepETag
1070
     1
1071
       21
1005
D4D
1001
ACAD
1000
MTEXTBEGIN
1070
    73
1070
     1
1070
    44
1040
1.0
1070
    74
1070
     0
1000
MTEXTEND
1000
ACAD_MTEXT_DEFINED_HEIGHT_BEGIN
1070
    46
1040
7.863925338579296
1000
ACAD_MTEXT_DEFINED_HEIGHT_END
  0
MTEXT
  5
D4E
330
293
100
AcDbEntity
  8
图框
  6
ByBlock
 62
     6
370
    18
100
AcDbMText
 10
1127.40434942308
 20
508.7896535755975
 30
0.0
 40
2.651776162684904
 41
2.557913877927211
 46
0.0
 71
     1
 72
     5
  1
A
  7
Romans字体
 11
0.0000000000000001
 21
1.0
 31
0.0
 73
     1
 44
1.0
1001
AcDbBlockRepETag
1070
     1
1071
       22
1005
D4E
1001
ACAD
1000
MTEXTBEGIN
1070
    73
1070
     1
1070
    44
1040
1.0
1070
    74
1070
     0
1000
MTEXTEND
  0
MTEXT
  5
D4F
330
293
100
AcDbEntity
  8
图框
 62
     6
100
AcDbMText
 10
1127.40434942308
 20
556.3746573232886
 30
0.0
 40
2.651776162684904
 41
2.557913877927211
 46
0.0
 71
     1
 72
     5
  1
B
  7
Romans字体
 11
0.0000000000000001
 21
1.0
 31
0.0
 73
     1
 44
1.0
1001
AcDbBlockRepETag
1070
     1
1071
       23
1005
D4F
1001
ACAD
1000
MTEXTBEGIN
1070
    73
1070
     1
1070
    44
1040
1.0
1070
    74
1070
     0
1000
MTEXTEND
  0
MTEXT
  5
D50
330
293
100
AcDbEntity
  8
图框
 62
     6
100
AcDbMText
 10
1127.40434942308
 20
607.5539372630998
 30
0.0
 40
2.651776162684904
 41
2.557913877927211
 46
0.0
 71
     1
 72
     5
  1
C
  7
Romans字体
 11
0.0000000000000001
 21
1.0
 31
0.0
 73
     1
 44
1.0
1001
AcDbBlockRepETag
1070
     1
1071
       24
1005
D50
1001
ACAD
1000
MTEXTBEGIN
1070
    73
1070
     1
1070
    44
1040
1.0
1070
    74
1070
     0
1000
MTEXTEND
  0
MTEXT
  5
D51
330
293
100
AcDbEntity
  8
图框
 62
     6
100
AcDbMText
 10
1127.40434942308
 20
658.7332172029115
 30
0.0
 40
2.651776162684904
 41
2.557913877927211
 46
0.0
 71
     1
 72
     5
  1
D
  7
Romans字体
 11
0.0000000000000001
 21
1.0
 31
0.0
 73
     1
 44
1.0
1001
AcDbBlockRepETag
1070
     1
1071
       25
1005
D51
1001
ACAD
1000
MTEXTBEGIN
1070
    73
1070
     1
1070
    44
1040
1.0
1070
    74
1070
     0
1000
MTEXTEND
  0
LINE
  5
D52
330
293
100
AcDbEntity
  8
图框
 62
     6
100
AcDbLine
 10
1130.411601781241
 20
634.0726090796082
 30
0.0
 11
1126.928502610363
 21
634.0726090796082
 31
0.0
1001
AcDbBlockRepETag
1070
     1
1071
       26
1005
D52
  0
LINE
  5
D53
330
293
100
AcDbEntity
  8
图框
 62
     6
100
AcDbLine
 10
1130.411601781241
 20
582.89332913979
 30
0.0
 11
1126.928502610363
 21
582.89332913979
 31
0.0
1001
AcDbBlockRepETag
1070
     1
1071
       27
1005
D53
  0
MTEXT
  5
D54
330
293
100
AcDbEntity
  8
图框
 62
     6
100
AcDbMText
 10
1105.329704038389
 20
483.6164543011163
 30
0.0
 40
2.651776162684904
 41
2.557913877927211
 46
0.0
 71
     1
 72
     5
  1
6
  7
Romans字体
 73
     1
 44
1.0
1001
AcDbBlockRepETag
1070
     1
1071
       28
1005
D54
1001
ACAD
1000
MTEXTBEGIN
1070
    73
1070
     1
1070
    44
1040
1.0
1070
    74
1070
     0
1000
MTEXTEND
  0
LINE
  5
D55
330
293
100
AcDbEntity
  8
图框
 62
     6
100
AcDbLine
 10
1081.088565155284
 20
484.0347692601515
 30
0.0
 11
1081.088565155284
 21
480.5347692601475
 31
0.0
1001
AcDbBlockRepETag
1070
     1
1071
       29
1005
D55
  0
MTEXT
  5
D56
330
293
100
AcDbEntity
  8
图框
 62
     6
100
AcDbMText
 10
1055.900596365941
 20
483.520053108993
 30
0.0
 40
2.651776162684904
 41
2.557913877927211
 46
0.0
 71
     1
 72
     5
  1
5
  7
Romans字体
 73
     1
 44
1.0
1001
AcDbBlockRepETag
1070
     1
1071
       30
1005
D56
1001
ACAD
1000
MTEXTBEGIN
1070
    73
1070
     1
1070
    44
1040
1.0
1070
    74
1070
     0
1000
MTEXTEND
  0
LINE
  5
D57
330
293
100
AcDbEntity
  8
图框
 62
     6
100
AcDbLine
 10
1031.553386436349
 20
484.0347692601515
 30
0.0
 11
1031.553386436349
 21
480.5347692601475
 31
0.0
1001
AcDbBlockRepETag
1070
     1
1071
       31
1005
D57
  0
MTEXT
  5
D58
330
293
100
AcDbEntity
  8
图框
 62
     6
100
AcDbMText
 10
1006.383180575197
 20
483.5687958215896
 30
0.0
 40
2.651776162684904
 41
2.557913877927211
 46
0.0
 71
     1
 72
     5
  1
4
  7
Romans字体
 73
     1
 44
1.0
1001
AcDbBlockRepETag
1070
     1
1071
       32
1005
D58
1001
ACAD
1000
MTEXTBEGIN
1070
    73
1070
     1
1070
    44
1040
1.0
1070
    74
1070
     0
1000
MTEXTEND
  0
LINE
  5
D59
330
293
100
AcDbEntity
  8
图框
 62
     6
100
AcDbLine
 10
982.0182077173887
 20
484.0347692601515
 30
0.0
 11
982.0182077173887
 21
480.5347692601475
 31
0.0
1001
AcDbBlockRepETag
1070
     1
1071
       33
1005
D59
  0
MTEXT
  5
D5A
330
293
100
AcDbEntity
  8
图框
 62
     6
100
AcDbMText
 10
956.8302389280352
 20
483.5989680297948
 30
0.0
 40
2.651776162684904
 41
2.557913877927211
 46
0.0
 71
     1
 72
     5
  1
3
  7
Romans字体
 73
     1
 44
1.0
1001
AcDbBlockRepETag
1070
     1
1071
       34
1005
D5A
1001
ACAD
1000
MTEXTBEGIN
1070
    73
1070
     1
1070
    44
1040
1.0
1070
    74
1070
     0
1000
MTEXTEND
  0
LINE
  5
D5B
330
293
100
AcDbEntity
  8
图框
 62
     6
100
AcDbLine
 10
932.4830289984245
 20
484.0347692601515
 30
0.0
 11
932.4830289984245
 21
480.5347692601475
 31
0.0
1001
AcDbBlockRepETag
1070
     1
1071
       35
1005
D5B
  0
MTEXT
  5
D5C
330
293
100
AcDbEntity
  8
图框
 62
     6
100
AcDbMText
 10
906.0252349826365
 20
483.6475250013156
 30
0.0
 40
2.651776162684904
 41
2.557913877927211
 46
0.0
 71
     1
 72
     5
  1
2
  7
Romans字体
 73
     1
 44
1.0
1001
AcDbBlockRepETag
1070
     1
1071
       36
1005
D5C
1001
ACAD
1000
MTEXTBEGIN
1070
    73
1070
     1
1070
    44
1040
1.0
1070
    74
1070
     0
1000
MTEXTEND
  0
LINE
  5
D5D
330
293
100
AcDbEntity
  8
图框
 62
     6
100
AcDbLine
 10
882.9478502794648
 20
484.0347692601515
 30
0.0
 11
882.9478502794648
 21
480.5347692601475
 31
0.0
1001
AcDbBlockRepETag
1070
     1
1071
       37
1005
D5D
  0
MTEXT
  5
D5E
330
293
100
AcDbEntity
  8
图框
 62
     6
100
AcDbMText
 10
857.7598814901191
 20
483.651829494754
 30
0.0
 40
2.651776162684904
 41
2.557913877927211
 46
0.0
 71
     1
 72
     5
  1
1
  7
Romans字体
 73
     1
 44
1.0
1001
AcDbBlockRepETag
1070
     1
1071
       38
1005
D5E
1001
ACAD
1000
MTEXTBEGIN
1070
    73
1070
     1
1070
    44
1040
1.0
1070
    74
1070
     0
1000
MTEXTEND
  0
LINE
  5
D5F
330
293
100
AcDbEntity
  8
图框
370
    50
100
AcDbLine
 10
836.8548209370597
 20
484.0347692601515
 30
0.0
 11
1126.928502610363
 21
484.0347692601515
 31
0.0
1001
AcDbBlockRepETag
1070
     1
1071
       39
1005
D5F
  0
LINE
  5
D60
330
293
100
AcDbEntity
  8
图框
370
    50
100
AcDbLine
 10
836.9128518455362
 20
484.0178684310246
 30
0.0
 11
836.9128518455394
 21
675.0207195125422
 31
0.0
1001
AcDbBlockRepETag
1070
     1
1071
       40
1005
D60
  0
MTEXT
  5
D61
330
293
100
AcDbEntity
  8
图框
 62
     6
100
AcDbMText
 10
833.8475685789031
 20
658.7332172029115
 30
0.0
 40
2.651776162684904
 41
2.557913877927211
 46
0.0
 71
     1
 72
     5
  1
D
  7
Romans字体
 11
0.0000000000000001
 21
1.0
 31
0.0
 73
     1
 44
1.0
1001
AcDbBlockRepETag
1070
     1
1071
       41
1005
D61
1001
ACAD
1000
MTEXTBEGIN
1070
    73
1070
     1
1070
    44
1040
1.0
1070
    74
1070
     0
1000
MTEXTEND
  0
LINE
  5
D62
330
293
100
AcDbEntity
  8
图框
 62
     6
100
AcDbLine
 10
836.9128518455386
 20
634.0726090796082
 30
0.0
 11
833.4128518455365
 21
634.0726090796082
 31
0.0
1001
AcDbBlockRepETag
1070
     1
1071
       42
1005
D62
  0
MTEXT
  5
D63
330
293
100
AcDbEntity
  8
图框
 62
     6
100
AcDbMText
 10
833.9039177480142
 20
607.5539372630998
 30
0.0
 40
2.651776162684904
 41
2.557913877927211
 46
0.0
 71
     1
 72
     5
  1
C
  7
Romans字体
 11
0.0000000000000001
 21
1.0
 31
0.0
 73
     1
 44
1.0
1001
AcDbBlockRepETag
1070
     1
1071
       43
1005
D63
1001
ACAD
1000
MTEXTBEGIN
1070
    73
1070
     1
1070
    44
1040
1.0
1070
    74
1070
     0
1000
MTEXTEND
  0
LINE
  5
D64
330
293
100
AcDbEntity
  8
图框
 62
     6
100
AcDbLine
 10
836.9128518455378
 20
582.89332913979
 30
0.0
 11
833.4128518455365
 21
582.89332913979
 31
0.0
1001
AcDbBlockRepETag
1070
     1
1071
       44
1005
D64
  0
MTEXT
  5
D65
330
293
100
AcDbEntity
  8
图框
 62
     6
100
AcDbMText
 10
833.9039177480142
 20
556.3746573232886
 30
0.0
 40
2.651776162684904
 41
2.557913877927211
 46
0.0
 71
     1
 72
     5
  1
B
  7
Romans字体
 11
0.0000000000000001
 21
1.0
 31
0.0
 73
     1
 44
1.0
1001
AcDbBlockRepETag
1070
     1
1071
       45
1005
D65
1001
ACAD
1000
MTEXTBEGIN
1070
    73
1070
     1
1070
    44
1040
1.0
1070
    74
1070
     0
1000
MTEXTEND
  0
LINE
  5
D66
330
293
100
AcDbEntity
  8
图框
 62
     6
100
AcDbLine
 10
836.9128518455367
 20
531.714049199969
 30
0.0
 11
833.4128518455365
 21
531.714049199969
 31
0.0
1001
AcDbBlockRepETag
1070
     1
1071
       46
1005
D66
  0
MTEXT
  5
D67
330
293
100
AcDbEntity
  8
图框
 62
     6
100
AcDbMText
 10
833.9039177480142
 20
508.7896535755975
 30
0.0
 40
2.651776162684904
 41
2.557913877927211
 46
0.0
 71
     1
 72
     5
  1
A
  7
Romans字体
 11
0.0000000000000001
 21
1.0
 31
0.0
 73
     1
 44
1.0
1001
AcDbBlockRepETag
1070
     1
1071
       47
1005
D67
1001
ACAD
1000
MTEXTBEGIN
1070
    73
1070
     1
1070
    44
1040
1.0
1070
    74
1070
     0
1000
MTEXTEND
  0
LINE
  5
D68
330
293
100
AcDbEntity
  8
图框
370
    -3
100
AcDbLine
 10
836.9128518455394
 20
675.0207195125422
 30
0.0
 11
836.9128518455394
 21
684.5021384922564
 31
0.0
1001
AcDbBlockRepETag
1070
     1
1071
       48
1005
D68
  0
LINE
  5
D69
330
293
100
AcDbEntity
  8
图框
370
    -3
100
AcDbLine
 10
842.6237321475781
 20
675.5347692601515
 30
0.0
 11
842.6237321475781
 21
685.0161882398658
 31
0.0
1001
AcDbBlockRepETag
1070
     1
1071
       49
1005
D69
  0
LINE
  5
D6A
330
293
100
AcDbEntity
  8
图框
370
    -3
100
AcDbLine
 10
848.3346124496179
 20
675.5347692601515
 30
0.0
 11
848.3346124496179
 21
685.0161882398658
 31
0.0
1001
AcDbBlockRepETag
1070
     1
1071
       50
1005
D6A
  0
LINE
  5
D6B
330
293
100
AcDbEntity
  8
图框
370
    -3
100
AcDbLine
 10
854.0454927516588
 20
675.5347692601515
 30
0.0
 11
854.0454927516588
 21
685.0161882398658
 31
0.0
1001
AcDbBlockRepETag
1070
     1
1071
       51
1005
D6B
  0
LINE
  5
D6C
330
293
100
AcDbEntity
  8
图框
370
    -3
100
AcDbLine
 10
861.5351874539182
 20
675.5347692601515
 30
0.0
 11
861.5351874539182
 21
686.7901958362482
 31
0.0
1001
AcDbBlockRepETag
1070
     1
1071
       52
1005
D6C
  0
MTEXT
  5
D6D
330
293
100
AcDbEntity
  8
图框
 62
     6
100
AcDbMText
 10
1105.329704038389
 20
678.859919059449
 30
0.0
 40
2.651776162684904
 41
2.557913877927211
 46
0.0
 71
     1
 72
     5
  1
6
  7
Romans字体
 73
     1
 44
1.0
1001
AcDbBlockRepETag
1070
     1
1071
       53
1005
D6D
1001
ACAD
1000
MTEXTBEGIN
1070
    73
1070
     1
1070
    44
1040
1.0
1070
    74
1070
     0
1000
MTEXTEND
  0
LINE
  5
D6E
330
293
100
AcDbEntity
  8
图框
 62
     6
100
AcDbLine
 10
1081.088565155284
 20
679.0347692601516
 30
0.0
 11
1081.088565155284
 21
675.5347692601515
 31
0.0
1001
AcDbBlockRepETag
1070
     1
1071
       54
1005
D6E
  0
MTEXT
  5
D6F
330
293
100
AcDbEntity
  8
图框
 62
     6
100
AcDbMText
 10
1055.900596365941
 20
678.859919059449
 30
0.0
 40
2.651776162684904
 41
2.557913877927211
 46
0.0
 71
     1
 72
     5
  1
5
  7
Romans字体
 73
     1
 44
1.0
1001
AcDbBlockRepETag
1070
     1
1071
       55
1005
D6F
1001
ACAD
1000
MTEXTBEGIN
1070
    73
1070
     1
1070
    44
1040
1.0
1070
    74
1070
     0
1000
MTEXTEND
  0
LINE
  5
D70
330
293
100
AcDbEntity
  8
图框
 62
     6
100
AcDbLine
 10
1031.553386436349
 20
679.0347692601516
 30
0.0
 11
1031.553386436349
 21
675.5347692601515
 31
0.0
1001
AcDbBlockRepETag
1070
     1
1071
       56
1005
D70
  0
MTEXT
  5
D71
330
293
100
AcDbEntity
  8
图框
 62
     6
100
AcDbMText
 10
1006.36541764698
 20
678.7312083656147
 30
0.0
 40
2.651776162684904
 41
2.557913877927211
 46
0.0
 71
     1
 72
     5
  1
4
  7
Romans字体
 73
     1
 44
1.0
1001
AcDbBlockRepETag
1070
     1
1071
       57
1005
D71
1001
ACAD
1000
MTEXTBEGIN
1070
    73
1070
     1
1070
    44
1040
1.0
1070
    74
1070
     0
1000
MTEXTEND
  0
LINE
  5
D72
330
293
100
AcDbEntity
  8
图框
 62
     6
100
AcDbLine
 10
982.0182077173887
 20
679.0347692601516
 30
0.0
 11
982.0182077173887
 21
675.5347692601515
 31
0.0
1001
AcDbBlockRepETag
1070
     1
1071
       58
1005
D72
  0
MTEXT
  5
D73
330
293
100
AcDbEntity
  8
图框
 62
     6
100
AcDbMText
 10
956.8302389280352
 20
678.859919059449
 30
0.0
 40
2.651776162684904
 41
2.557913877927211
 46
0.0
 71
     1
 72
     5
  1
3
  7
Romans字体
 73
     1
 44
1.0
1001
AcDbBlockRepETag
1070
     1
1071
       59
1005
D73
1001
ACAD
1000
MTEXTBEGIN
1070
    73
1070
     1
1070
    44
1040
1.0
1070
    74
1070
     0
1000
MTEXTEND
  0
LINE
  5
D74
330
293
100
AcDbEntity
  8
图框
 62
     6
100
AcDbLine
 10
932.4830289984245
 20
679.0347692601516
 30
0.0
 11
932.4830289984245
 21
675.5347692601515
 31
0.0
1001
AcDbBlockRepETag
1070
     1
1071
       60
1005
D74
  0
MTEXT
  5
D75
330
293
100
AcDbEntity
  8
图框
 62
     6
100
AcDbMText
 10
907.295060209082
 20
678.859919059449
 30
0.0
 40
2.651776162684904
 41
2.557913877927211
 46
0.0
 71
     1
 72
     5
  1
2
  7
Romans字体
 73
     1
 44
1.0
1001
AcDbBlockRepETag
1070
     1
1071
       61
1005
D75
1001
ACAD
1000
MTEXTBEGIN
1070
    73
1070
     1
1070
    44
1040
1.0
1070
    74
1070
     0
1000
MTEXTEND
  0
LINE
  5
D76
330
293
100
AcDbEntity
  8
图框
 62
     6
100
AcDbLine
 10
882.9478502794648
 20
678.7962435131815
 30
0.0
 11
882.9478502794648
 21
675.5347692601515
 31
0.0
1001
AcDbBlockRepETag
1070
     1
1071
       62
1005
D76
  0
MTEXT
  5
D77
330
293
100
AcDbEntity
  8
图框
 62
     6
100
AcDbMText
 10
862.6286629643733
 20
678.859919059449
 30
0.0
 40
2.651776162684904
 41
2.557913877927211
 46
0.0
 71
     1
 72
     5
  1
1
  7
Romans字体
 73
     1
 44
1.0
1001
AcDbBlockRepETag
1070
     1
1071
       63
1005
D77
1001
ACAD
1000
MTEXTBEGIN
1070
    73
1070
     1
1070
    44
1040
1.0
1070
    74
1070
     0
1000
MTEXTEND
  0
LINE
  5
D78
330
293
100
AcDbEntity
  8
图框
370
    -3
100
AcDbLine
 10
836.9128518455394
 20
675.0207195125422
 30
0.0
 11
836.9128518455394
 21
686.7901958362482
 31
0.0
1001
AcDbBlockRepETag
1070
     1
1071
       64
1005
D78
  0
LINE
  5
D79
330
293
100
AcDbEntity
  8
图框
370
    50
100
AcDbLine
 10
836.9128518455394
 20
675.5347692601515
 30
0.0
 11
1126.928502610363
 21
675.5347692601515
 31
0.0
1001
AcDbBlockRepETag
1070
     1
1071
       65
1005
D79
  0
LINE
  5
D7A
330
293
100
AcDbEntity
  8
图框
370
    -3
100
AcDbLine
 10
842.6237321475781
 20
675.5347692601515
 30
0.0
 11
842.6237321475781
 21
686.7901958362482
 31
0.0
1001
AcDbBlockRepETag
1070
     1
1071
       66
1005
D7A
  0
LINE
  5
D7B
330
293
100
AcDbEntity
  8
图框
370
    -3
100
AcDbLine
 10
848.3346124496179
 20
675.5347692601515
 30
0.0
 11
848.3346124496179
 21
686.7901958362482
 31
0.0
1001
AcDbBlockRepETag
1070
     1
1071
       67
1005
D7B
  0
MTEXT
  5
D7C
102
{ACAD_XDICTIONARY
360
DD6
102
}
330
293
100
AcDbEntity
  8
图框
100
AcDbMText
 10
857.7903401027889
 20
686.7901958362482
 30
0.0
 40
1.958998408821398
 41
11.25542657609672
 46
7.489694702258906
 71
     4
 72
     5
  1
\pi2.6646;{\fSimSun|b0|i0|c134|p2;档案员\fFangSong_GB2312|b0|i0|c134|p49;\H0.7x;\P\pi1.4159;\Fromans|c134;Filing Clerk\fFangSong_GB2312|b0|i0|c134|p49; }
 11
-0.0000000000000002
 21
-1.0
 31
0.0
 73
     1
 44
1.0
1001
AcDbBlockRepETag
1070
     1
1071
       68
1005
D7C
1001
ACAD
1000
MTEXTBEGIN
1070
    73
1070
     1
1070
    44
1040
1.0
1070
    74
1070
     0
1000
MTEXTEND
1000
ACAD_MTEXT_DEFINED_HEIGHT_BEGIN
1070
    46
1040
7.489694702258906
1000
ACAD_MTEXT_DEFINED_HEIGHT_END
  0
MTEXT
  5
D7D
102
{ACAD_XDICTIONARY
360
DD8
102
}
330
293
100
AcDbEntity
  8
图框
100
AcDbMText
 10
845.479172298598
 20
686.7901958362482
 30
0.0
 40
1.958998408821398
 41
11.25542657609672
 46
5.710880302039671
 71
     4
 72
     5
  1
\pi0.63465;{\fSimSun|b0|i0|c134|p2;日期\Fromans|c134;/Date}
 11
-0.0000000000000002
 21
-1.0
 31
0.0
 73
     1
 44
1.0
1001
AcDbBlockRepETag
1070
     1
1071
       69
1005
D7D
1001
ACAD
1000
MTEXTBEGIN
1070
    73
1070
     1
1070
    44
1040
1.0
1070
    74
1070
     0
1000
MTEXTEND
1000
ACAD_MTEXT_DEFINED_HEIGHT_BEGIN
1070
    46
1040
5.710880302039671
1000
ACAD_MTEXT_DEFINED_HEIGHT_END
  0
LINE
  5
D7E
330
293
100
AcDbEntity
  8
图框
370
    -3
100
AcDbLine
 10
854.0454927516588
 20
675.5347692601515
 30
0.0
 11
854.0454927516588
 21
686.7901958362482
 31
0.0
1001
AcDbBlockRepETag
1070
     1
1071
       70
1005
D7E
  0
LINE
  5
D7F
330
293
100
AcDbEntity
  8
图框
370
    -3
100
AcDbLine
 10
1036.653967466372
 20
531.3291676047914
 30
0.0
 11
1036.653967466372
 21
484.0126019753161
 31
0.0
1001
AcDbBlockRepETag
1070
     1
1071
       71
1005
D7F
  0
LINE
  5
D80
330
293
100
AcDbEntity
  8
图框
370
    -3
100
AcDbLine
 10
1047.483315900763
 20
507.6708838011533
 30
0.0
 11
1047.483315900763
 21
491.8986945987308
 31
0.0
1001
AcDbBlockRepETag
1070
     1
1071
       72
1005
D80
  0
LINE
  5
D81
330
293
100
AcDbEntity
  8
图框
370
    -3
100
AcDbLine
 10
1058.312664335153
 20
507.6708838011533
 30
0.0
 11
1058.312664335153
 21
484.0347692601515
 31
0.0
1001
AcDbBlockRepETag
1070
     1
1071
       73
1005
D81
  0
LINE
  5
D82
330
293
100
AcDbEntity
  8
图框
370
    25
100
AcDbLine
 10
1048.474135214456
 20
488.1095628329926
 30
0.0
 11
1054.946420288459
 21
488.1095628329926
 31
0.0
1001
AcDbBlockRepETag
1070
     1
1071
       74
1005
D82
  0
LINE
  5
D83
330
293
100
AcDbEntity
  8
图框
370
    25
100
AcDbLine
 10
1054.232527365989
 20
487.0761716842634
 30
0.0
 11
1049.156490914508
 21
486.4576273751
 31
0.0
1001
AcDbBlockRepETag
1070
     1
1071
       75
1005
D83
  0
LINE
  5
D84
330
293
100
AcDbEntity
  8
图框
370
    25
100
AcDbLine
 10
1054.232527365989
 20
489.1429539817209
 30
0.0
 11
1049.156490914508
 21
489.7614982908846
 31
0.0
1001
AcDbBlockRepETag
1070
     1
1071
       76
1005
D84
  0
LINE
  5
D85
330
293
100
AcDbEntity
  8
图框
370
    25
100
AcDbLine
 10
1049.156490914508
 20
489.7614982908846
 30
0.0
 11
1049.156490914508
 21
486.4576273751
 31
0.0
1001
AcDbBlockRepETag
1070
     1
1071
       77
1005
D85
  0
LINE
  5
D86
330
293
100
AcDbEntity
  8
图框
370
    25
100
AcDbLine
 10
1054.232527365989
 20
489.1429539817209
 30
0.0
 11
1054.232527365989
 21
487.0761716842634
 31
0.0
1001
AcDbBlockRepETag
1070
     1
1071
       78
1005
D86
  0
CIRCLE
  5
D87
330
293
100
AcDbEntity
  8
图框
370
    25
100
AcDbCircle
 10
1042.502700458579
 20
488.1095628329926
 30
0.0
 40
1.651935457891863
1001
AcDbBlockRepETag
1070
     1
1071
       79
1005
D87
  0
CIRCLE
  5
D88
330
293
100
AcDbEntity
  8
图框
370
    25
100
AcDbCircle
 10
1042.502700458579
 20
488.1095628329926
 30
0.0
 40
1.033391148728775
1001
AcDbBlockRepETag
1070
     1
1071
       80
1005
D88
  0
LINE
  5
D89
330
293
100
AcDbEntity
  8
图框
370
    25
100
AcDbLine
 10
1040.136872078216
 20
488.1095628329926
 30
0.0
 11
1044.868528838943
 21
488.1095628329926
 31
0.0
1001
AcDbBlockRepETag
1070
     1
1071
       81
1005
D89
  0
LINE
  5
D8A
330
293
100
AcDbEntity
  8
图框
370
    25
100
AcDbLine
 10
1042.502700458579
 20
490.475391213355
 30
0.0
 11
1042.502700458579
 21
485.743734452629
 31
0.0
1001
AcDbBlockRepETag
1070
     1
1071
       82
1005
D8A
  0
LINE
  5
D8B
330
293
100
AcDbEntity
  8
图框
370
    -3
100
AcDbLine
 10
1069.142012769546
 20
507.6708838011533
 30
0.0
 11
1069.142012769546
 21
491.8986945987308
 31
0.0
1001
AcDbBlockRepETag
1070
     1
1071
       83
1005
D8B
  0
MTEXT
  5
D8C
330
293
100
AcDbEntity
  8
图框
100
AcDbMText
 10
1086.643735910939
 20
526.8006839312707
 30
0.0
 40
2.154898249703542
 41
13.34474941400573
 46
9.056967347041775
 71
     5
 72
     5
  1
图号{\Ftxt|c134;\P\Fromans|c134;\W0.65;Drawing No.}
 73
     1
 44
1.0
1001
AcDbBlockRepETag
1070
     1
1071
       84
1005
D8C
1001
ACAD
1000
MTEXTBEGIN
1070
    73
1070
     1
1070
    44
1040
1.0
1070
    74
1070
     0
1000
MTEXTEND
1000
ACAD_MTEXT_DEFINED_HEIGHT_BEGIN
1070
    46
1040
9.056967347041775
1000
ACAD_MTEXT_DEFINED_HEIGHT_END
  0
LINE
  5
D8D
330
293
100
AcDbEntity
  8
图框
370
    -3
100
AcDbLine
 10
1093.316110617942
 20
531.3291676047914
 30
0.0
 11
1093.316110617942
 21
495.8417418993347
 31
0.0
1001
AcDbBlockRepETag
1070
     1
1071
       85
1005
D8D
  0
LINE
  5
D8E
330
293
100
AcDbEntity
  8
图框
370
    -3
100
AcDbLine
 10
1047.473969770481
 20
531.3291676047914
 30
0.0
 11
1047.473969770481
 21
507.6708838011533
 31
0.0
1001
AcDbBlockRepETag
1070
     1
1071
       86
1005
D8E
  0
MTEXT
  5
D8F
330
293
100
AcDbEntity
  8
图框
100
AcDbMText
 10
1063.72733855235
 20
503.7278365005473
 30
0.0
 40
2.252848170144607
 41
10.82934843439208
 46
7.886094601212128
 71
     5
 72
     5
  1
重量\P{\Fromans|c134;Weight}
 73
     1
 44
1.0
1001
AcDbBlockRepETag
1070
     1
1071
       87
1005
D8F
1001
ACAD
1000
MTEXTBEGIN
1070
    73
1070
     1
1070
    44
1040
1.0
1070
    74
1070
     0
1000
MTEXTEND
1000
ACAD_MTEXT_DEFINED_HEIGHT_BEGIN
1070
    46
1040
7.886094601212128
1000
ACAD_MTEXT_DEFINED_HEIGHT_END
  0
LINE
  5
D90
330
293
100
AcDbEntity
  8
图框
370
    -3
100
AcDbLine
 10
1036.653967466372
 20
519.5000257029746
 30
0.0
 11
1079.971361203936
 21
519.5000257029746
 31
0.0
1001
AcDbBlockRepETag
1070
     1
1071
       88
1005
D90
  0
MTEXT
  5
D91
330
293
100
AcDbEntity
  8
图框
100
AcDbMText
 10
1074.556686986741
 20
503.7278365005473
 30
0.0
 40
2.252848170144607
 41
10.82934843438984
 46
7.886094601212141
 71
     5
 72
     5
  1
数量\P{\Fromans|c134;Qty.}
 73
     1
 44
1.0
1001
AcDbBlockRepETag
1070
     1
1071
       89
1005
D91
1001
ACAD
1000
MTEXTBEGIN
1070
    73
1070
     1
1070
    44
1040
1.0
1070
    74
1070
     0
1000
MTEXTEND
1000
ACAD_MTEXT_DEFINED_HEIGHT_BEGIN
1070
    46
1040
7.886094601212141
1000
ACAD_MTEXT_DEFINED_HEIGHT_END
  0
LINE
  5
D92
330
293
100
AcDbEntity
  8
图框
370
    -3
100
AcDbLine
 10
1079.971361203936
 20
495.8417418993347
 30
0.0
 11
1126.928502610363
 21
495.8417418993342
 31
0.0
1001
AcDbBlockRepETag
1070
     1
1071
       90
1005
D92
  0
LINE
  5
D93
330
293
100
AcDbEntity
  8
图框
370
    -3
100
AcDbLine
 10
1079.971361203936
 20
504.7132992040975
 30
0.0
 11
1126.928502610363
 21
504.7132992040975
 31
0.0
1001
AcDbBlockRepETag
1070
     1
1071
       91
1005
D93
  0
MTEXT
  5
D94
330
293
100
AcDbEntity
  8
图框
100
AcDbMText
 10
1052.893317052817
 20
503.7278365005473
 30
0.0
 40
2.252848170144607
 41
10.83869456467139
 46
7.886094601212101
 71
     5
 72
     5
  1
版本\P{\Fromans|c134;REV.}
 73
     1
 44
1.0
1001
AcDbBlockRepETag
1070
     1
1071
       92
1005
D94
1001
ACAD
1000
MTEXTBEGIN
1070
    73
1070
     1
1070
    44
1040
1.0
1070
    74
1070
     0
1000
MTEXTEND
1000
ACAD_MTEXT_DEFINED_HEIGHT_BEGIN
1070
    46
1040
7.886094601212101
1000
ACAD_MTEXT_DEFINED_HEIGHT_END
  0
MTEXT
  5
D95
330
293
100
AcDbEntity
  8
图框
100
AcDbMText
 10
1042.068641683568
 20
503.7278365005473
 30
0.0
 40
2.252848170144607
 41
10.8293484343908
 46
7.886094601212136
 71
     5
 72
     5
  1
比例\P{\Fromans|c134;Scale}
 73
     1
 44
1.0
1001
AcDbBlockRepETag
1070
     1
1071
       93
1005
D95
1001
ACAD
1000
MTEXTBEGIN
1070
    73
1070
     1
1070
    44
1040
1.0
1070
    74
1070
     0
1000
MTEXTEND
1000
ACAD_MTEXT_DEFINED_HEIGHT_BEGIN
1070
    46
1040
7.886094601212136
1000
ACAD_MTEXT_DEFINED_HEIGHT_END
  0
LINE
  5
D96
330
293
100
AcDbEntity
  8
图框
370
    -3
100
AcDbLine
 10
1036.653967466372
 20
507.6708838011533
 30
0.0
 11
1079.971361203936
 21
507.6708838011533
 31
0.0
1001
AcDbBlockRepETag
1070
     1
1071
       94
1005
D96
  0
LINE
  5
D97
330
293
100
AcDbEntity
  8
图框
370
    -3
100
AcDbLine
 10
1036.653967466372
 20
491.8986945987308
 30
0.0
 11
1079.971361203936
 21
491.8986945987308
 31
0.0
1001
AcDbBlockRepETag
1070
     1
1071
       95
1005
D97
  0
LINE
  5
D98
330
293
100
AcDbEntity
  8
图框
370
    -3
100
AcDbLine
 10
1079.971361203936
 20
531.3291676047914
 30
0.0
 11
1079.971361203936
 21
484.0125999975168
 31
0.0
1001
AcDbBlockRepETag
1070
     1
1071
       96
1005
D98
  0
MTEXT
  5
D99
330
293
100
AcDbEntity
  8
图框
100
AcDbMText
 10
1042.063968618426
 20
525.4145966538832
 30
0.0
 40
2.252848170144607
 41
10.82000230410933
 46
11.82914190181708
 71
     5
 72
     5
  1
表面处理\P{\Fromans|c134;Finish}
 73
     1
 44
1.0
1001
AcDbBlockRepETag
1070
     1
1071
       97
1005
D99
1001
ACAD
1000
MTEXTBEGIN
1070
    73
1070
     1
1070
    44
1040
1.0
1070
    74
1070
     0
1000
MTEXTEND
1000
ACAD_MTEXT_DEFINED_HEIGHT_BEGIN
1070
    46
1040
11.82914190181708
1000
ACAD_MTEXT_DEFINED_HEIGHT_END
  0
MTEXT
  5
D9A
330
293
100
AcDbEntity
  8
图框
100
AcDbMText
 10
1042.063968618426
 20
513.5854547520639
 30
0.0
 40
2.252848170144607
 41
10.82000230410933
 46
11.8291419018212
 71
     5
 72
     5
  1
材料\P{\Fromans|c134;Material}
 73
     1
 44
1.0
1001
AcDbBlockRepETag
1070
     1
1071
       98
1005
D9A
1001
ACAD
1000
MTEXTBEGIN
1070
    73
1070
     1
1070
    44
1040
1.0
1070
    74
1070
     0
1000
MTEXTEND
1000
ACAD_MTEXT_DEFINED_HEIGHT_BEGIN
1070
    46
1040
11.8291419018212
1000
ACAD_MTEXT_DEFINED_HEIGHT_END
  0
LINE
  5
D9B
330
293
100
AcDbEntity
  8
图框
370
    -3
100
AcDbLine
 10
1079.971361203936
 20
522.27220025775
 30
0.0
 11
1126.928502610363
 21
522.27220025775
 31
0.0
1001
AcDbBlockRepETag
1070
     1
1071
       99
1005
D9B
  0
LINE
  5
D9C
330
293
100
AcDbEntity
  8
图框
370
    -3
100
AcDbLine
 10
1079.971361203936
 20
513.5854547520641
 30
0.0
 11
1126.928502610363
 21
513.5854547520639
 31
0.0
1001
AcDbBlockRepETag
1070
     1
1071
      100
1005
D9C
  0
MTEXT
  5
D9D
330
293
100
AcDbEntity
  8
图框
100
AcDbMText
 10
1086.643735910939
 20
517.9288275049072
 30
0.0
 40
1.958998408821398
 41
13.34474941400573
 46
8.686745505685811
 71
     5
 72
     5
  1
产品代号\P{\Fromans|c134;Part Code}
 73
     1
 44
1.0
1001
AcDbBlockRepETag
1070
     1
1071
      101
1005
D9D
1001
ACAD
1000
MTEXTBEGIN
1070
    73
1070
     1
1070
    44
1040
1.0
1070
    74
1070
     0
1000
MTEXTEND
1000
ACAD_MTEXT_DEFINED_HEIGHT_BEGIN
1070
    46
1040
8.686745505685811
1000
ACAD_MTEXT_DEFINED_HEIGHT_END
  0
LINE
  5
D9E
330
293
100
AcDbEntity
  8
图框
370
    -3
100
AcDbLine
 10
946.9285026103634
 20
525.7982263931411
 30
0.0
 11
1036.653967466372
 21
525.7982263931411
 31
0.0
1001
AcDbBlockRepETag
1070
     1
1071
      102
1005
D9E
  0
LINE
  5
D9F
330
293
100
AcDbEntity
  8
图框
370
    -3
100
AcDbLine
 10
946.9285026103634
 20
520.2672851814959
 30
0.0
 11
1036.653967466372
 21
520.2672851814959
 31
0.0
1001
AcDbBlockRepETag
1070
     1
1071
      103
1005
D9F
  0
LINE
  5
DA0
330
293
100
AcDbEntity
  8
图框
370
    35
100
AcDbLine
 10
946.9285026103634
 20
531.3291676047914
 30
0.0
 11
1126.928502610363
 21
531.3291676047914
 31
0.0
1001
AcDbBlockRepETag
1070
     1
1071
      104
1005
DA0
  0
LINE
  5
DA1
330
293
100
AcDbEntity
  8
图框
370
    -3
100
AcDbLine
 10
990.6727612856927
 20
509.2054027581959
 30
0.0
 11
990.6727612856927
 21
484.0347692601515
 31
0.0
1001
AcDbBlockRepETag
1070
     1
1071
      105
1005
DA1
  0
MTEXT
  5
DA2
102
{ACAD_XDICTIONARY
360
DDA
102
}
330
293
100
AcDbEntity
  8
图框
100
AcDbMText
 10
997.1628169651232
 20
499.816589978722
 30
0.0
 40
2.252848170144607
 41
12.98011135886052
 46
6.19230880992475
 71
     5
 72
     5
  1
{\fSimSun|b0|i0|c134|p2;标准化}\PStand.
  7
Romans字体
 73
     1
 44
1.0
1001
AcDbBlockRepETag
1070
     1
1071
      106
1005
DA2
1001
ACAD
1000
MTEXTBEGIN
1070
    73
1070
     1
1070
    44
1040
1.0
1070
    74
1070
     0
1000
MTEXTEND
1000
ACAD_MTEXT_DEFINED_HEIGHT_BEGIN
1070
    46
1040
6.19230880992475
1000
ACAD_MTEXT_DEFINED_HEIGHT_END
  0
LINE
  5
DA3
330
293
100
AcDbEntity
  8
图框
370
    -3
100
AcDbLine
 10
975.4103773808022
 20
509.2054027581959
 30
0.0
 11
975.4103773808022
 21
484.0347692601515
 31
0.0
1001
AcDbBlockRepETag
1070
     1
1071
      107
1005
DA3
  0
MTEXT
  5
DA4
330
293
100
AcDbEntity
  8
图框
100
AcDbMText
 10
984.5089229802068
 20
511.9708733640202
 30
0.0
 40
2.448748011026752
 41
38.287899328693
 46
5.530941211648832
 71
     5
 72
     5
  1
  变更描述{\Fromans|c134;/Description}
 73
     1
 44
1.0
1001
AcDbBlockRepETag
1070
     1
1071
      108
1005
DA4
1001
ACAD
1000
MTEXTBEGIN
1070
    73
1070
     1
1070
    44
1040
1.0
1070
    74
1070
     0
1000
MTEXTEND
1000
ACAD_MTEXT_DEFINED_HEIGHT_BEGIN
1070
    46
1040
5.530941211648832
1000
ACAD_MTEXT_DEFINED_HEIGHT_END
  0
MTEXT
  5
DA5
102
{ACAD_XDICTIONARY
360
DDC
102
}
330
293
100
AcDbEntity
  8
图框
100
AcDbMText
 10
1012.466086049227
 20
511.9708733640202
 30
0.0
 40
1.958998408821398
 41
17.6264268093469
 46
5.530941211648825
 71
     5
 72
     5
  1
{\fSimSun|b0|i0|c134|p2;签名\P\Fromans|c134;Signature} 
 73
     1
 44
1.0
1001
AcDbBlockRepETag
1070
     1
1071
      109
1005
DA5
1001
ACAD
1000
MTEXTBEGIN
1070
    73
1070
     1
1070
    44
1040
1.0
1070
    74
1070
     0
1000
MTEXTEND
1000
ACAD_MTEXT_DEFINED_HEIGHT_BEGIN
1070
    46
1040
5.530941211648825
1000
ACAD_MTEXT_DEFINED_HEIGHT_END
  0
MTEXT
  5
DA6
102
{ACAD_XDICTIONARY
360
DDE
102
}
330
293
100
AcDbEntity
  8
图框
100
AcDbMText
 10
960.7558556394856
 20
511.9708733640202
 30
0.0
 40
1.958998408821398
 41
9.218235352749283
 46
5.530941211648841
 71
     5
 72
     5
  1
{\fSimSun|b0|i0|c134|p2;处数\P\Fromans|c134;Number }
 73
     1
 44
1.0
1001
AcDbBlockRepETag
1070
     1
1071
      110
1005
DA6
1001
ACAD
1000
MTEXTBEGIN
1070
    73
1070
     1
1070
    44
1040
1.0
1070
    74
1070
     0
1000
MTEXTEND
1000
ACAD_MTEXT_DEFINED_HEIGHT_BEGIN
1070
    46
1040
5.530941211648841
1000
ACAD_MTEXT_DEFINED_HEIGHT_END
  0
LINE
  5
DA7
330
293
100
AcDbEntity
  8
图框
370
    -3
100
AcDbLine
 10
946.9285026103634
 20
514.7363439698449
 30
0.0
 11
1036.653967466372
 21
514.7363439698449
 31
0.0
1001
AcDbBlockRepETag
1070
     1
1071
      111
1005
DA7
  0
LINE
  5
DA8
330
293
100
AcDbEntity
  8
图框
370
    -3
100
AcDbLine
 10
946.9285026103634
 20
509.2054027581959
 30
0.0
 11
1036.653967466372
 21
509.2054027581959
 31
0.0
1001
AcDbBlockRepETag
1070
     1
1071
      112
1005
DA8
  0
LINE
  5
DA9
330
293
100
AcDbEntity
  8
图框
370
    -3
100
AcDbLine
 10
946.9285026103634
 20
502.9127443836848
 30
0.0
 11
1036.653967466372
 21
502.9127443836848
 31
0.0
1001
AcDbBlockRepETag
1070
     1
1071
      113
1005
DA9
  0
LINE
  5
DAA
330
293
100
AcDbEntity
  8
图框
370
    -3
100
AcDbLine
 10
946.9285026103634
 20
496.620086009173
 30
0.0
 11
1036.653967466372
 21
496.620086009173
 31
0.0
1001
AcDbBlockRepETag
1070
     1
1071
      114
1005
DAA
  0
LINE
  5
DAB
330
293
100
AcDbEntity
  8
图框
370
    35
380
     1
100
AcDbLine
 10
946.9285026103634
 20
531.3291676047914
 30
0.0
 11
946.9285026103634
 21
484.0347692601515
 31
0.0
1001
AcDbBlockRepETag
1070
     1
1071
      115
1005
DAB
  0
LINE
  5
DAC
330
293
100
AcDbEntity
  8
图框
370
    -3
100
AcDbLine
 10
1021.301636813399
 20
531.3291676047914
 30
0.0
 11
1021.301636813399
 21
484.0347692601515
 31
0.0
1001
AcDbBlockRepETag
1070
     1
1071
      116
1005
DAC
  0
LINE
  5
DAD
330
293
100
AcDbEntity
  8
图框
370
    -3
100
AcDbLine
 10
1003.652872644553
 20
531.3291676047914
 30
0.0
 11
1003.652872644553
 21
484.0347692601515
 31
0.0
1001
AcDbBlockRepETag
1070
     1
1071
      117
1005
DAD
  0
LINE
  5
DAE
330
293
100
AcDbEntity
  8
图框
370
    -3
100
AcDbLine
 10
965.3649733158603
 20
531.3291676047914
 30
0.0
 11
965.3649733158603
 21
509.2054027581959
 31
0.0
1001
AcDbBlockRepETag
1070
     1
1071
      118
1005
DAE
  0
LINE
  5
DAF
330
293
100
AcDbEntity
  8
图框
370
    -3
100
AcDbLine
 10
956.1467379631109
 20
531.3291676047914
 30
0.0
 11
956.1467379631109
 21
509.2054027581959
 31
0.0
1001
AcDbBlockRepETag
1070
     1
1071
      119
1005
DAF
  0
MTEXT
  5
DB0
102
{ACAD_XDICTIONARY
360
DE0
102
}
330
293
100
AcDbEntity
  8
图框
100
AcDbMText
 10
951.537620286737
 20
511.9708733640202
 30
0.0
 40
1.958998408821398
 41
9.218235352747692
 46
5.530941211648832
 71
     5
 72
     5
  1
{\fSimSun|b0|i0|c134|p2;标记\P\Fromans|c134;Mark}
 73
     1
 44
1.0
1001
AcDbBlockRepETag
1070
     1
1071
      120
1005
DB0
1001
ACAD
1000
MTEXTBEGIN
1070
    73
1070
     1
1070
    44
1040
1.0
1070
    74
1070
     0
1000
MTEXTEND
1000
ACAD_MTEXT_DEFINED_HEIGHT_BEGIN
1070
    46
1040
5.530941211648832
1000
ACAD_MTEXT_DEFINED_HEIGHT_END
  0
MTEXT
  5
DB1
102
{ACAD_XDICTIONARY
360
DE2
102
}
330
293
100
AcDbEntity
  8
图框
100
AcDbMText
 10
953.4185582897936
 20
493.4737568219182
 30
0.0
 40
2.252848170144607
 41
12.98011135886041
 46
6.292658374510382
 71
     5
 72
     5
  1
{\fSimSun|b0|i0|c134|p2;审核\P\Fromans|c134;Checked}
 73
     1
 44
1.0
1001
AcDbBlockRepETag
1070
     1
1071
      121
1005
DB1
1001
ACAD
1000
MTEXTBEGIN
1070
    73
1070
     1
1070
    44
1040
1.0
1070
    74
1070
     0
1000
MTEXTEND
1000
ACAD_MTEXT_DEFINED_HEIGHT_BEGIN
1070
    46
1040
6.292658374510382
1000
ACAD_MTEXT_DEFINED_HEIGHT_END
  0
MTEXT
  5
DB2
102
{ACAD_XDICTIONARY
360
DE4
102
}
330
293
100
AcDbEntity
  8
图框
100
AcDbMText
 10
953.4185582897936
 20
499.8775635376777
 30
0.0
 40
2.252848170144607
 41
12.98011135886041
 46
6.070361692014189
 71
     5
 72
     5
  1
{\fSimSun|b0|i0|c134|p2;绘图\P\Fromans|c134;Drawn\Ftxt|c134; }
 73
     1
 44
1.0
1001
AcDbBlockRepETag
1070
     1
1071
      122
1005
DB2
1001
ACAD
1000
MTEXTBEGIN
1070
    73
1070
     1
1070
    44
1040
1.0
1070
    74
1070
     0
1000
MTEXTEND
1000
ACAD_MTEXT_DEFINED_HEIGHT_BEGIN
1070
    46
1040
6.070361692014189
1000
ACAD_MTEXT_DEFINED_HEIGHT_END
  0
ARC
  5
DB3
330
293
100
AcDbEntity
  8
图框
 62
     4
370
    35
100
AcDbCircle
 10
1086.900627017421
 20
490.0179944151195
 30
0.0
 40
4.063310408393665
100
AcDbArc
 50
18.95237904564806
 51
161.0476209543519
1001
AcDbBlockRepETag
1070
     1
1071
      123
1005
DB3
  0
ARC
  5
DB4
330
293
100
AcDbEntity
  8
图框
 62
     4
370
    35
100
AcDbCircle
 10
1086.900627017421
 20
490.0179944151195
 30
0.0
 40
4.063310408393665
100
AcDbArc
 50
198.952379045648
 51
341.0476209543519
1001
AcDbBlockRepETag
1070
     1
1071
      124
1005
DB4
  0
LINE
  5
DB5
330
293
100
AcDbEntity
  8
图框
 62
     4
370
    35
100
AcDbLine
 10
1083.057593369548
 20
488.6983035966752
 30
0.0
 11
1090.74366066529
 21
488.6983035966752
 31
0.0
1001
AcDbBlockRepETag
1070
     1
1071
      125
1005
DB5
  0
LINE
  5
DB6
330
293
100
AcDbEntity
  8
图框
 62
     4
370
    35
100
AcDbLine
 10
1083.057593369548
 20
491.3376852335652
 30
0.0
 11
1090.74366066529
 21
491.3376852335652
 31
0.0
1001
AcDbBlockRepETag
1070
     1
1071
      126
1005
DB6
  0
MTEXT
  5
DB7
330
293
100
AcDbEntity
  8
图框
 62
     1
370
    20
100
AcDbMText
 10
1083.034582879669
 20
491.0506288081688
 30
0.0
 40
2.005930044038334
 41
5.047240019334847
 46
0.0
 71
     1
 72
     5
  1
{\fArial|b0|i0|c0|p34;W}
  7
Chinese
 73
     1
 44
1.0
1001
AcDbBlockRepETag
1070
     1
1071
      127
1005
DB7
1001
ACAD
1000
MTEXTBEGIN
1070
    73
1070
     1
1070
    44
1040
1.0
1070
    74
1070
     0
1000
MTEXTEND
  0
LINE
  5
DB8
330
293
100
AcDbEntity
  8
图框
370
    -3
100
AcDbLine
 10
946.9285026103634
 20
490.327427634663
 30
0.0
 11
1036.653967466372
 21
490.327427634663
 31
0.0
1001
AcDbBlockRepETag
1070
     1
1071
      128
1005
DB8
  0
LINE
  5
DB9
330
293
100
AcDbEntity
  8
图框
370
    -3
100
AcDbLine
 10
959.9086139692238
 20
509.2054027581959
 30
0.0
 11
959.9086139692238
 21
484.0347692601515
 31
0.0
1001
AcDbBlockRepETag
1070
     1
1071
      129
1005
DB9
  0
MTEXT
  5
DBA
330
293
100
AcDbEntity
  8
图框
100
AcDbMText
 10
967.6594956750129
 20
506.0590735709403
 30
0.0
 40
2.252848170144607
 41
15.50176341157869
 46
6.292658374511246
 71
     5
 72
     5
  1
姓名{\Fromans|c134;/Name\Ftxt|c134; }
 73
     1
 44
1.0
1001
AcDbBlockRepETag
1070
     1
1071
      130
1005
DBA
1001
ACAD
1000
MTEXTBEGIN
1070
    73
1070
     1
1070
    44
1040
1.0
1070
    74
1070
     0
1000
MTEXTEND
1000
ACAD_MTEXT_DEFINED_HEIGHT_BEGIN
1070
    46
1040
6.292658374511246
1000
ACAD_MTEXT_DEFINED_HEIGHT_END
  0
MTEXT
  5
DBB
330
293
100
AcDbEntity
  8
图框
100
AcDbMText
 10
983.0415693332477
 20
506.0590735709403
 30
0.0
 40
2.252848170144607
 41
15.26238390489042
 46
6.2926583745112
 71
     5
 72
     5
  1
日期{\Fromans|c134;/Date}
 73
     1
 44
1.0
1001
AcDbBlockRepETag
1070
     1
1071
      131
1005
DBB
1001
ACAD
1000
MTEXTBEGIN
1070
    73
1070
     1
1070
    44
1040
1.0
1070
    74
1070
     0
1000
MTEXTEND
1000
ACAD_MTEXT_DEFINED_HEIGHT_BEGIN
1070
    46
1040
6.2926583745112
1000
ACAD_MTEXT_DEFINED_HEIGHT_END
  0
LINE
  5
DBC
330
293
100
AcDbEntity
  8
图框
370
    -3
100
AcDbLine
 10
946.9285026103634
 20
509.2054027581959
 30
0.0
 11
959.9086139692238
 21
502.9127443836848
 31
0.0
1001
AcDbBlockRepETag
1070
     1
1071
      132
1005
DBC
  0
MTEXT
  5
DBD
330
293
100
AcDbEntity
  8
图框
100
AcDbMText
 10
1012.931405110086
 20
506.0185715840725
 30
0.0
 40
2.252848170144607
 41
16.93492221063566
 46
0.0
 71
     5
 72
     5
  1
姓名{\Fromans|c134;/Name}
 73
     1
 44
1.0
1001
AcDbBlockRepETag
1070
     1
1071
      133
1005
DBD
1001
ACAD
1000
MTEXTBEGIN
1070
    73
1070
     1
1070
    44
1040
1.0
1070
    74
1070
     0
1000
MTEXTEND
  0
MTEXT
  5
DBE
330
293
100
AcDbEntity
  8
图框
100
AcDbMText
 10
1028.977802139886
 20
506.0590735709403
 30
0.0
 40
2.252848170144607
 41
15.35233065297283
 46
6.292658374511256
 71
     5
 72
     5
  1
日期{\Fromans|c134;/Date}
 73
     1
 44
1.0
1001
AcDbBlockRepETag
1070
     1
1071
      134
1005
DBE
1001
ACAD
1000
MTEXTBEGIN
1070
    73
1070
     1
1070
    44
1040
1.0
1070
    74
1070
     0
1000
MTEXTEND
1000
ACAD_MTEXT_DEFINED_HEIGHT_BEGIN
1070
    46
1040
6.292658374511256
1000
ACAD_MTEXT_DEFINED_HEIGHT_END
  0
LINE
  5
DBF
330
293
100
AcDbEntity
  8
图框
370
    -3
100
AcDbLine
 10
1003.652872644553
 20
502.9127443836848
 30
0.0
 11
990.6727612856927
 21
509.2054027581959
 31
0.0
1001
AcDbBlockRepETag
1070
     1
1071
      135
1005
DBF
  0
MTEXT
  5
DC0
102
{ACAD_XDICTIONARY
360
DE6
102
}
330
293
100
AcDbEntity
  8
图框
100
AcDbMText
 10
997.1628169651232
 20
487.1810984474071
 30
0.0
 40
2.252848170144607
 41
12.98011135886052
 46
6.292658374511517
 71
     5
 72
     5
  1
{\fSimSun|b0|i0|c134|p2;批准\P\Fromans|c134;Approved}
 73
     1
 44
1.0
1001
AcDbBlockRepETag
1070
     1
1071
      136
1005
DC0
1001
ACAD
1000
MTEXTBEGIN
1070
    73
1070
     1
1070
    44
1040
1.0
1070
    74
1070
     0
1000
MTEXTEND
1000
ACAD_MTEXT_DEFINED_HEIGHT_BEGIN
1070
    46
1040
6.292658374511517
1000
ACAD_MTEXT_DEFINED_HEIGHT_END
  0
MTEXT
  5
DC1
102
{ACAD_XDICTIONARY
360
DE8
102
}
330
293
100
AcDbEntity
  8
图框
100
AcDbMText
 10
953.4185582897936
 20
487.1810984474071
 30
0.0
 40
2.252848170144607
 41
12.98011135886041
 46
6.292658374511495
 71
     5
 72
     5
  1
{\fSimSun|b0|i0|c134|p2;工艺\P\Fromans|c134;Process}
 73
     1
 44
1.0
1001
AcDbBlockRepETag
1070
     1
1071
      137
1005
DC1
1001
ACAD
1000
MTEXTBEGIN
1070
    73
1070
     1
1070
    44
1040
1.0
1070
    74
1070
     0
1000
MTEXTEND
1000
ACAD_MTEXT_DEFINED_HEIGHT_BEGIN
1070
    46
1040
6.292658374511495
1000
ACAD_MTEXT_DEFINED_HEIGHT_END
  0
MTEXT
  5
DC2
102
{ACAD_XDICTIONARY
360
DEA
102
}
330
293
100
AcDbEntity
  8
图框
100
AcDbMText
 10
1028.977802139886
 20
511.8287965307664
 30
0.0
 40
1.958998408821398
 41
15.3523306529728
 46
5.246787545140668
 71
     5
 72
     5
  1
{\fSimSun|b0|i0|c134|p2;日期\P\Fromans|c134;Date}
 73
     1
 44
1.0
1001
AcDbBlockRepETag
1070
     1
1071
      138
1005
DC2
1001
ACAD
1000
MTEXTBEGIN
1070
    73
1070
     1
1070
    44
1040
1.0
1070
    74
1070
     0
1000
MTEXTEND
1000
ACAD_MTEXT_DEFINED_HEIGHT_BEGIN
1070
    46
1040
5.246787545140668
1000
ACAD_MTEXT_DEFINED_HEIGHT_END
  0
MTEXT
  5
DC3
330
293
100
AcDbEntity
  8
图框
100
AcDbMText
 10
1086.643735910939
 20
509.1493769780809
 30
0.0
 40
2.154898249703542
 41
13.34474941400573
 46
8.87215554796615
 71
     5
 72
     5
  1
产品料号\P{\Fromans|c134;Part No.}
 73
     1
 44
1.0
1001
AcDbBlockRepETag
1070
     1
1071
      139
1005
DC3
1001
ACAD
1000
MTEXTBEGIN
1070
    73
1070
     1
1070
    44
1040
1.0
1070
    74
1070
     0
1000
MTEXTEND
1000
ACAD_MTEXT_DEFINED_HEIGHT_BEGIN
1070
    46
1040
8.87215554796615
1000
ACAD_MTEXT_DEFINED_HEIGHT_END
  0
MTEXT
  5
DC4
330
293
100
AcDbEntity
  8
图框
100
AcDbMText
 10
1086.643735910939
 20
500.2775205517163
 30
0.0
 40
1.958998408821398
 41
13.34474941400573
 46
8.871557304763321
 71
     5
 72
     5
  1
产品名称\P{\Fromans|c134;Part Name}
 73
     1
 44
1.0
1001
AcDbBlockRepETag
1070
     1
1071
      140
1005
DC4
1001
ACAD
1000
MTEXTBEGIN
1070
    73
1070
     1
1070
    44
1040
1.0
1070
    74
1070
     0
1000
MTEXTEND
1000
ACAD_MTEXT_DEFINED_HEIGHT_BEGIN
1070
    46
1040
8.871557304763321
1000
ACAD_MTEXT_DEFINED_HEIGHT_END
  0
LINE
  5
DC5
330
293
100
AcDbEntity
  8
图框
 62
     1
370
    18
100
AcDbLine
 10
833.4128518455365
 20
690.5347692601515
 30
0.0
 11
833.4128518455365
 21
480.5347692601515
 31
0.0
1001
AcDbBlockRepETag
1070
     1
1071
      141
1005
DC5
  0
LINE
  5
DC6
330
293
100
AcDbEntity
  8
图框
 62
     1
370
    18
100
AcDbLine
 10
833.4128518455365
 20
480.5347692601515
 30
0.0
 11
1130.411601781236
 21
480.5347692601515
 31
0.0
1001
AcDbBlockRepETag
1070
     1
1071
      142
1005
DC6
  0
LINE
  5
DC7
330
293
100
AcDbEntity
  8
图框
 62
     1
370
    18
100
AcDbLine
 10
833.4128518455365
 20
690.5347692601515
 30
0.0
 11
1130.411601781236
 21
690.5347692601515
 31
0.0
1001
AcDbBlockRepETag
1070
     1
1071
      143
1005
DC7
  0
LINE
  5
DC8
330
293
100
AcDbEntity
  8
图框
 62
     1
370
    18
100
AcDbLine
 10
1130.411601781236
 20
480.5347692601515
 30
0.0
 11
1130.411601781236
 21
690.5347692601515
 31
0.0
1001
AcDbBlockRepETag
1070
     1
1071
      144
1005
DC8
  0
LINE
  5
DC9
330
293
100
AcDbEntity
  8
图框
370
    18
100
AcDbLine
 10
836.9128518455394
 20
686.7901958362482
 30
0.0
 11
861.5351874539182
 21
686.7901958362482
 31
0.0
1001
AcDbBlockRepETag
1070
     1
1071
      145
1005
DC9
  0
LINE
  5
DCA
330
293
100
AcDbEntity
  8
图框
370
    50
100
AcDbLine
 10
1126.928502610363
 20
484.3410054693078
 30
0.0
 11
1126.928502610363
 21
675.5347692601515
 31
0.0
1001
AcDbBlockRepETag
1070
     1
1071
      146
1005
DCA
  0
MTEXT
  5
DCB
330
293
100
AcDbEntity
  8
图框
 62
     3
100
AcDbMText
 10
1052.897990117958
 20
495.8417418993364
 30
0.0
 40
2.985513575034151
 41
10.82934843439114
 46
7.886094601211307
 71
     5
 72
     5
  1
V1.2
  7
Romans字体
 73
     1
 44
1.0
1001
AcDbBlockRepETag
1070
     1
1071
      147
1005
DCB
1001
ACAD
1000
MTEXTBEGIN
1070
    73
1070
     1
1070
    44
1040
1.0
1070
    74
1070
     0
1000
MTEXTEND
1000
ACAD_MTEXT_DEFINED_HEIGHT_BEGIN
1070
    46
1040
7.886094601211307
1000
ACAD_MTEXT_DEFINED_HEIGHT_END
  0
LINE
  5
DCC
330
293
100
AcDbEntity
  8
图框
 62
     6
100
AcDbLine
 10
1126.911601781236
 20
531.714049199969
 30
0.0
 11
1130.411601781236
 21
531.714049199969
 31
0.0
1001
AcDbBlockRepETag
1070
     1
1071
      148
1005
DCC
  0
ENDBLK
  5
32B
330
293
100
AcDbEntity
  8
0
100
AcDbBlockEnd
  0
BLOCK
  5
539
330
538
100
AcDbEntity
  8
0
100
AcDbBlockBegin
  2
*D2
 70
     1
 10
0.0
 20
0.0
 30
0.0
  3
*D2
  1

  0
LINE
  5
6F2
330
538
100
AcDbEntity
  8
DIM
 62
     6
370
    -2
100
AcDbLine
 10
709.1880528278343
 20
212.3379553946738
 30
0.0
 11
709.1880528278343
 21
214.3461879969239
 31
0.0
  0
LINE
  5
6F3
330
538
100
AcDbEntity
  8
DIM
 62
     6
370
    -2
100
AcDbLine
 10
717.1880528278343
 20
211.4838712397887
 30
0.0
 11
717.1880528278343
 21
214.3461879969239
 31
0.0
  0
LINE
  5
6F4
330
538
100
AcDbEntity
  8
DIM
 62
     1
370
    -2
100
AcDbLine
 10
710.1880528278343
 20
214.1461879969239
 30
0.0
 11
716.1880528278343
 21
214.1461879969239
 31
0.0
  0
SOLID
  5
6F5
330
538
100
AcDbEntity
  8
DIM
 62
     1
100
AcDbTrace
 10
710.1880528278343
 20
214.3128546635906
 30
0.0
 11
710.1880528278343
 21
213.9795213302573
 31
0.0
 12
709.1880528278343
 22
214.1461879969239
 32
0.0
 13
709.1880528278343
 23
214.1461879969239
 33
0.0
  0
SOLID
  5
6F6
330
538
100
AcDbEntity
  8
DIM
 62
     1
100
AcDbTrace
 10
716.1880528278343
 20
214.3128546635906
 30
0.0
 11
716.1880528278343
 21
213.9795213302573
 31
0.0
 12
717.1880528278343
 22
214.1461879969239
 32
0.0
 13
717.1880528278343
 23
214.1461879969239
 33
0.0
  0
MTEXT
  5
6F7
330
538
100
AcDbEntity
  8
DIM
 62
     4
100
AcDbMText
 10
713.1880528278343
 20
214.946187996924
 30
0.0
 40
1.199999999999999
 41
0.0
 46
0.0
 71
     5
 72
     1
  1
\A1;h
  7
Romans字体
 73
     1
 44
1.0
1001
ACAD
1000
MTEXTBEGIN
1070
    73
1070
     1
1070
    44
1040
1.0
1070
    74
1070
     0
1000
MTEXTEND
  0
POINT
  5
6F8
330
538
100
AcDbEntity
  8
Defpoints
 62
     0
100
AcDbPoint
 10
709.1880528278343
 20
212.1379553946738
 30
0.0
  0
POINT
  5
6F9
330
538
100
AcDbEntity
  8
Defpoints
 62
     0
100
AcDbPoint
 10
717.1880528278343
 20
211.2838712397887
 30
0.0
  0
POINT
  5
6FA
330
538
100
AcDbEntity
  8
Defpoints
 62
     0
100
AcDbPoint
 10
717.1880528278343
 20
214.1461879969239
 30
0.0
  0
ENDBLK
  5
53A
330
538
100
AcDbEntity
  8
0
100
AcDbBlockEnd
  0
BLOCK
  5
545
330
544
100
AcDbEntity
  8
0
100
AcDbBlockBegin
  2
*D3
 70
     1
 10
0.0
 20
0.0
 30
0.0
  3
*D3
  1

  0
LINE
  5
70E
330
544
100
AcDbEntity
  8
DIM
 62
     6
370
    -2
100
AcDbLine
 10
708.9880528278342
 20
212.138034025454
 30
0.0
 11
704.4520397918837
 21
212.138034025454
 31
0.0
  0
LINE
  5
70F
330
544
100
AcDbEntity
  8
DIM
 62
     6
370
    -2
100
AcDbLine
 10
708.9880528278342
 20
208.638034027754
 30
0.0
 11
704.4520397918837
 21
208.638034027754
 31
0.0
  0
LINE
  5
710
330
544
100
AcDbEntity
  8
DIM
 62
     1
370
    -2
100
AcDbLine
 10
704.6520397918836
 20
209.638034027754
 30
0.0
 11
704.6520397918836
 21
211.1380340254541
 31
0.0
  0
LINE
  5
711
330
544
100
AcDbEntity
  8
DIM
 62
     1
370
    -2
100
AcDbLine
 10
704.6520397918836
 20
212.138034025454
 30
0.0
 11
704.6520397918836
 21
216.3623197397397
 31
0.0
  0
SOLID
  5
712
330
544
100
AcDbEntity
  8
DIM
 62
     1
100
AcDbTrace
 10
704.4853731252171
 20
209.638034027754
 30
0.0
 11
704.8187064585504
 21
209.638034027754
 31
0.0
 12
704.6520397918836
 22
208.638034027754
 32
0.0
 13
704.6520397918836
 23
208.638034027754
 33
0.0
  0
SOLID
  5
713
330
544
100
AcDbEntity
  8
DIM
 62
     1
100
AcDbTrace
 10
704.4853731252171
 20
211.1380340254541
 30
0.0
 11
704.8187064585504
 21
211.1380340254541
 31
0.0
 12
704.6520397918836
 22
212.138034025454
 32
0.0
 13
704.6520397918836
 23
212.138034025454
 33
0.0
  0
MTEXT
  5
714
330
544
100
AcDbEntity
  8
DIM
 62
     4
100
AcDbMText
 10
703.8520397918837
 20
214.750176882597
 30
0.0
 40
1.199999999999999
 41
0.0
 46
0.0
 71
     5
 72
     1
  1
\A1;{\fISOCPEUR|b0|i0|c0|p34;%%C}3.5
  7
Romans字体
 11
0.0000000000000001
 21
1.0
 31
0.0
 73
     1
 44
1.0
1001
ACAD
1000
MTEXTBEGIN
1070
    73
1070
     1
1070
    44
1040
1.0
1070
    74
1070
     0
1000
MTEXTEND
  0
POINT
  5
715
330
544
100
AcDbEntity
  8
Defpoints
 62
     0
100
AcDbPoint
 10
709.1880528278343
 20
212.138034025454
 30
0.0
  0
POINT
  5
716
330
544
100
AcDbEntity
  8
Defpoints
 62
     0
100
AcDbPoint
 10
709.1880528278343
 20
208.638034027754
 30
0.0
  0
POINT
  5
717
330
544
100
AcDbEntity
  8
Defpoints
 62
     0
100
AcDbPoint
 10
704.6520397918836
 20
208.638034027754
 30
0.0
  0
ENDBLK
  5
546
330
544
100
AcDbEntity
  8
0
100
AcDbBlockEnd
  0
BLOCK
  5
552
330
551
100
AcDbEntity
  8
0
100
AcDbBlockBegin
  2
*D4
 70
     1
 10
0.0
 20
0.0
 30
0.0
  3
*D4
  1

  0
LINE
  5
704
330
551
100
AcDbEntity
  8
DIM
 62
     6
370
    -2
100
AcDbLine
 10
710.3358837091413
 20
211.2630340266041
 30
0.0
 11
706.9382029696733
 21
211.2630340266041
 31
0.0
  0
LINE
  5
705
330
551
100
AcDbEntity
  8
DIM
 62
     6
370
    -2
100
AcDbLine
 10
710.3358837091413
 20
209.513034026604
 30
0.0
 11
706.9382029696733
 21
209.513034026604
 31
0.0
  0
LINE
  5
706
330
551
100
AcDbEntity
  8
DIM
 62
     1
370
    -2
100
AcDbLine
 10
707.1382029696733
 20
208.513034026604
 30
0.0
 11
707.1382029696733
 21
207.513034026604
 31
0.0
  0
LINE
  5
707
330
551
100
AcDbEntity
  8
DIM
 62
     1
370
    -2
100
AcDbLine
 10
707.1382029696733
 20
212.2630340266042
 30
0.0
 11
707.1382029696733
 21
215.1158911694613
 31
0.0
  0
SOLID
  5
708
330
551
100
AcDbEntity
  8
DIM
 62
     1
100
AcDbTrace
 10
706.9715363030065
 20
208.513034026604
 30
0.0
 11
707.3048696363397
 21
208.513034026604
 31
0.0
 12
707.1382029696733
 22
209.513034026604
 32
0.0
 13
707.1382029696733
 23
209.513034026604
 33
0.0
  0
SOLID
  5
709
330
551
100
AcDbEntity
  8
DIM
 62
     1
100
AcDbTrace
 10
706.9715363030065
 20
212.2630340266042
 30
0.0
 11
707.3048696363397
 21
212.2630340266042
 31
0.0
 12
707.1382029696733
 22
211.2630340266041
 32
0.0
 13
707.1382029696733
 23
211.2630340266041
 33
0.0
  0
MTEXT
  5
70A
330
551
100
AcDbEntity
  8
DIM
 62
     4
100
AcDbMText
 10
706.3382029696732
 20
214.1894625980328
 30
0.0
 40
1.199999999999999
 41
0.0
 46
0.0
 71
     5
 72
     1
  1
\A1;{\fISOCPEUR|b0|i0|c0|p34;%%C}d
  7
Romans字体
 11
0.0000000000000001
 21
1.0
 31
0.0
 73
     1
 44
1.0
1001
ACAD
1000
MTEXTBEGIN
1070
    73
1070
     1
1070
    44
1040
1.0
1070
    74
1070
     0
1000
MTEXTEND
  0
POINT
  5
70B
330
551
100
AcDbEntity
  8
Defpoints
 62
     0
100
AcDbPoint
 10
710.5358837091412
 20
211.2630340266041
 30
0.0
  0
POINT
  5
70C
330
551
100
AcDbEntity
  8
Defpoints
 62
     0
100
AcDbPoint
 10
710.5358837091412
 20
209.513034026604
 30
0.0
  0
POINT
  5
70D
330
551
100
AcDbEntity
  8
Defpoints
 62
     0
100
AcDbPoint
 10
707.1382029696733
 20
209.513034026604
 30
0.0
  0
ENDBLK
  5
553
330
551
100
AcDbEntity
  8
0
100
AcDbBlockEnd
  0
BLOCK
  5
55F
330
55E
100
AcDbEntity
  8
0
100
AcDbBlockBegin
  2
*D5
 70
     1
 10
0.0
 20
0.0
 30
0.0
  3
*D5
  1

  0
LINE
  5
6EA
330
55E
100
AcDbEntity
  8
DIM
 62
     1
370
    -2
100
AcDbLine
 10
712.1680528284549
 20
210.8880340266039
 30
0.0
 11
712.1680528284549
 21
209.888034026604
 31
0.0
  0
LINE
  5
6EB
330
55E
100
AcDbEntity
  8
DIM
 62
     1
370
    -2
100
AcDbLine
 10
712.1680528284549
 20
208.888034026604
 30
0.0
 11
712.1680528284549
 21
205.475515137626
 31
0.0
  0
SOLID
  5
6EC
330
55E
100
AcDbEntity
  8
DIM
 62
     1
100
AcDbTrace
 10
712.0013861617882
 20
210.8880340266039
 30
0.0
 11
712.3347194951215
 21
210.8880340266039
 31
0.0
 12
712.1680528284549
 22
211.8880340266039
 32
0.0
 13
712.1680528284549
 23
211.8880340266039
 33
0.0
  0
SOLID
  5
6ED
330
55E
100
AcDbEntity
  8
DIM
 62
     1
100
AcDbTrace
 10
712.0013861617882
 20
209.888034026604
 30
0.0
 11
712.3347194951215
 21
209.888034026604
 31
0.0
 12
712.1680528284549
 22
208.888034026604
 32
0.0
 13
712.1680528284549
 23
208.888034026604
 33
0.0
  0
MTEXT
  5
6EE
330
55E
100
AcDbEntity
  8
DIM
 62
     4
100
AcDbMText
 10
711.3680528284548
 20
206.4662294233404
 30
0.0
 40
1.199999999999999
 41
0.0
 46
0.0
 71
     5
 72
     1
  1
\A1;{\fISOCPEUR|b0|i0|c0|p34;%%C}D
  7
Romans字体
 11
0.0000000000000001
 21
1.0
 31
0.0
 73
     1
 44
1.0
1001
ACAD
1000
MTEXTBEGIN
1070
    73
1070
     1
1070
    44
1040
1.0
1070
    74
1070
     0
1000
MTEXTEND
  0
POINT
  5
6EF
330
55E
100
AcDbEntity
  8
Defpoints
 62
     0
100
AcDbPoint
 10
712.1680528284549
 20
211.8880340266039
 30
0.0
  0
POINT
  5
6F0
330
55E
100
AcDbEntity
  8
Defpoints
 62
     0
100
AcDbPoint
 10
712.1680528284549
 20
208.888034026604
 30
0.0
  0
POINT
  5
6F1
330
55E
100
AcDbEntity
  8
Defpoints
 62
     0
100
AcDbPoint
 10
712.1680528284549
 20
208.888034026604
 30
0.0
  0
ENDBLK
  5
560
330
55E
100
AcDbEntity
  8
0
100
AcDbBlockEnd
  0
BLOCK
  5
56A
330
569
100
AcDbEntity
  8
0
100
AcDbBlockBegin
  2
*D6
 70
     1
 10
0.0
 20
0.0
 30
0.0
  3
*D6
  1

  0
LINE
  5
6FB
330
569
100
AcDbEntity
  8
DIM
 62
     6
370
    -2
100
AcDbLine
 10
730.6880528278343
 20
211.7980340259538
 30
0.0
 11
730.6880528278343
 21
216.7522626322435
 31
0.0
  0
LINE
  5
6FC
330
569
100
AcDbEntity
  8
DIM
 62
     6
370
    -2
100
AcDbLine
 10
709.1880528278343
 20
212.338034025454
 30
0.0
 11
709.1880528278343
 21
216.7522626322435
 31
0.0
  0
LINE
  5
6FD
330
569
100
AcDbEntity
  8
DIM
 62
     1
370
    -2
100
AcDbLine
 10
729.6880528278343
 20
216.5522626322435
 30
0.0
 11
710.1880528278343
 21
216.5522626322435
 31
0.0
  0
SOLID
  5
6FE
330
569
100
AcDbEntity
  8
DIM
 62
     1
100
AcDbTrace
 10
729.6880528278343
 20
216.7189292989102
 30
0.0
 11
729.6880528278343
 21
216.3855959655769
 31
0.0
 12
730.6880528278343
 22
216.5522626322435
 32
0.0
 13
730.6880528278343
 23
216.5522626322435
 33
0.0
  0
SOLID
  5
6FF
330
569
100
AcDbEntity
  8
DIM
 62
     1
100
AcDbTrace
 10
710.1880528278343
 20
216.7189292989102
 30
0.0
 11
710.1880528278343
 21
216.3855959655769
 31
0.0
 12
709.1880528278343
 22
216.5522626322435
 32
0.0
 13
709.1880528278343
 23
216.5522626322435
 33
0.0
  0
MTEXT
  5
700
330
569
100
AcDbEntity
  8
DIM
 62
     4
100
AcDbMText
 10
719.9380528278346
 20
217.3522626322435
 30
0.0
 40
1.199999999999999
 41
0.0
 46
0.0
 71
     5
 72
     1
  1
\A1;21.5
  7
Romans字体
 73
     1
 44
1.0
1001
ACAD
1000
MTEXTBEGIN
1070
    73
1070
     1
1070
    44
1040
1.0
1070
    74
1070
     0
1000
MTEXTEND
  0
POINT
  5
701
330
569
100
AcDbEntity
  8
Defpoints
 62
     0
100
AcDbPoint
 10
730.6880528278343
 20
211.5980340259536
 30
0.0
  0
POINT
  5
702
330
569
100
AcDbEntity
  8
Defpoints
 62
     0
100
AcDbPoint
 10
709.1880528278343
 20
212.138034025454
 30
0.0
  0
POINT
  5
703
330
569
100
AcDbEntity
  8
Defpoints
 62
     0
100
AcDbPoint
 10
709.1880528278343
 20
216.5522626322435
 30
0.0
  0
ENDBLK
  5
56B
330
569
100
AcDbEntity
  8
0
100
AcDbBlockEnd
  0
BLOCK
  5
A48
330
A47
100
AcDbEntity
  8
0
100
AcDbBlockBegin
  2
*D7
 70
     1
 10
0.0
 20
0.0
 30
0.0
  3
*D7
  1

  0
LINE
  5
A49
330
A47
100
AcDbEntity
  8
0
 62
     6
370
    -2
100
AcDbLine
 10
793.3429800828783
 20
221.43688827469
 30
0.0
 11
793.3429800828783
 21
228.9648575219929
 31
0.0
  0
LINE
  5
A4A
330
A47
100
AcDbEntity
  8
0
 62
     6
370
    -2
100
AcDbLine
 10
814.8429780341562
 20
221.43688827469
 30
0.0
 11
814.8429780341562
 21
228.9648575219929
 31
0.0
  0
LINE
  5
A4B
330
A47
100
AcDbEntity
  8
0
 62
     1
370
    -2
100
AcDbLine
 10
794.8429800828782
 20
228.4648575219929
 30
0.0
 11
813.3429780341561
 21
228.4648575219929
 31
0.0
  0
SOLID
  5
A4C
330
A47
100
AcDbEntity
  8
0
 62
     1
100
AcDbTrace
 10
794.8429800828782
 20
228.7148575219929
 30
0.0
 11
794.8429800828782
 21
228.2148575219929
 31
0.0
 12
793.3429800828783
 22
228.4648575219929
 32
0.0
 13
793.3429800828783
 23
228.4648575219929
 33
0.0
  0
SOLID
  5
A4D
330
A47
100
AcDbEntity
  8
0
 62
     1
100
AcDbTrace
 10
813.3429780341561
 20
228.7148575219929
 30
0.0
 11
813.3429780341561
 21
228.2148575219929
 31
0.0
 12
814.8429780341562
 22
228.4648575219929
 32
0.0
 13
814.8429780341562
 23
228.4648575219929
 33
0.0
  0
MTEXT
  5
A4E
330
A47
100
AcDbEntity
  8
0
 62
     4
100
AcDbMText
 10
803.0499632560704
 20
229.9779981264607
 30
0.0
 40
2.0
 41
0.0
 46
0.0
 71
     5
 72
     1
  1
\A1;21.5
  7
Romans字体
 73
     1
 44
1.0
1001
ACAD
1000
MTEXTBEGIN
1070
    73
1070
     1
1070
    44
1040
1.0
1070
    74
1070
     0
1000
MTEXTEND
  0
POINT
  5
A4F
330
A47
100
AcDbEntity
  8
Defpoints
 62
     0
100
AcDbPoint
 10
793.3429800828783
 20
221.23688827469
 30
0.0
  0
POINT
  5
A50
330
A47
100
AcDbEntity
  8
Defpoints
 62
     0
100
AcDbPoint
 10
814.8429780341562
 20
221.23688827469
 30
0.0
  0
POINT
  5
A51
330
A47
100
AcDbEntity
  8
Defpoints
 62
     0
100
AcDbPoint
 10
814.8429780341562
 20
228.4648575219929
 30
0.0
  0
ENDBLK
  5
A52
330
A47
100
AcDbEntity
  8
0
100
AcDbBlockEnd
  0
BLOCK
  5
A54
330
A53
100
AcDbEntity
  8
0
100
AcDbBlockBegin
  2
*D8
 70
     1
 10
0.0
 20
0.0
 30
0.0
  3
*D8
  1

  0
LINE
  5
A55
330
A53
100
AcDbEntity
  8
0
 62
     6
370
    -2
100
AcDbLine
 10
793.3429800828783
 20
221.43688827469
 30
0.0
 11
793.3429800828783
 21
225.3488584018215
 31
0.0
  0
LINE
  5
A56
330
A53
100
AcDbEntity
  8
0
 62
     6
370
    -2
100
AcDbLine
 10
799.3641662064143
 20
221.43688827469
 30
0.0
 11
799.3641662064143
 21
225.3488584018215
 31
0.0
  0
LINE
  5
A57
330
A53
100
AcDbEntity
  8
0
 62
     1
370
    -2
100
AcDbLine
 10
794.8429800828782
 20
224.8488584018215
 30
0.0
 11
797.8641662064143
 21
224.8488584018215
 31
0.0
  0
SOLID
  5
A58
330
A53
100
AcDbEntity
  8
0
 62
     1
100
AcDbTrace
 10
794.8429800828782
 20
225.0988584018215
 30
0.0
 11
794.8429800828782
 21
224.5988584018215
 31
0.0
 12
793.3429800828783
 22
224.8488584018215
 32
0.0
 13
793.3429800828783
 23
224.8488584018215
 33
0.0
  0
SOLID
  5
A59
330
A53
100
AcDbEntity
  8
0
 62
     1
100
AcDbTrace
 10
797.8641662064143
 20
225.0988584018215
 30
0.0
 11
797.8641662064143
 21
224.5988584018215
 31
0.0
 12
799.3641662064143
 22
224.8488584018215
 32
0.0
 13
799.3641662064143
 23
224.8488584018215
 33
0.0
  0
MTEXT
  5
A5A
330
A53
100
AcDbEntity
  8
0
 62
     4
100
AcDbMText
 10
796.3579704523414
 20
226.358056824949
 30
0.0
 40
2.0
 41
0.0
 46
0.0
 71
     5
 72
     1
  1
\A1;6
  7
Romans字体
 73
     1
 44
1.0
1001
ACAD
1000
MTEXTBEGIN
1070
    73
1070
     1
1070
    44
1040
1.0
1070
    74
1070
     0
1000
MTEXTEND
  0
POINT
  5
A5B
330
A53
100
AcDbEntity
  8
Defpoints
 62
     0
100
AcDbPoint
 10
793.3429800828783
 20
221.23688827469
 30
0.0
  0
POINT
  5
A5C
330
A53
100
AcDbEntity
  8
Defpoints
 62
     0
100
AcDbPoint
 10
799.3641662064143
 20
221.23688827469
 30
0.0
  0
POINT
  5
A5D
330
A53
100
AcDbEntity
  8
Defpoints
 62
     0
100
AcDbPoint
 10
799.3641662064143
 20
224.8488584018215
 30
0.0
  0
ENDBLK
  5
A5E
330
A53
100
AcDbEntity
  8
0
100
AcDbBlockEnd
  0
BLOCK
  5
A60
330
A5F
100
AcDbEntity
  8
0
100
AcDbBlockBegin
  2
*D9
 70
     1
 10
0.0
 20
0.0
 30
0.0
  3
*D9
  1

  0
LINE
  5
A61
330
A5F
100
AcDbEntity
  8
0
 62
     6
370
    -2
100
AcDbLine
 10
793.6429800828782
 20
219.48688827469
 30
0.0
 11
782.2704296436479
 21
219.48688827469
 31
0.0
  0
LINE
  5
A62
330
A5F
100
AcDbEntity
  8
0
 62
     6
370
    -2
100
AcDbLine
 10
793.6429800828782
 20
222.98688827469
 30
0.0
 11
782.2704296436479
 21
222.98688827469
 31
0.0
  0
LINE
  5
A63
330
A5F
100
AcDbEntity
  8
0
 62
     1
370
    -2
100
AcDbLine
 10
782.7704296436479
 20
217.98688827469
 30
0.0
 11
782.7704296436479
 21
216.48688827469
 31
0.0
  0
LINE
  5
A64
330
A5F
100
AcDbEntity
  8
0
 62
     1
370
    -2
100
AcDbLine
 10
782.7704296436479
 20
224.48688827469
 30
0.0
 11
782.7704296436479
 21
231.7537739514311
 31
0.0
  0
SOLID
  5
A65
330
A5F
100
AcDbEntity
  8
0
 62
     1
100
AcDbTrace
 10
782.520429643648
 20
217.98688827469
 30
0.0
 11
783.0204296436479
 21
217.98688827469
 31
0.0
 12
782.7704296436479
 22
219.48688827469
 32
0.0
 13
782.7704296436479
 23
219.48688827469
 33
0.0
  0
SOLID
  5
A66
330
A5F
100
AcDbEntity
  8
0
 62
     1
100
AcDbTrace
 10
782.520429643648
 20
224.48688827469
 30
0.0
 11
783.0204296436479
 21
224.48688827469
 31
0.0
 12
782.7704296436479
 22
222.98688827469
 32
0.0
 13
782.7704296436479
 23
222.98688827469
 33
0.0
  0
MTEXT
  5
A67
330
A5F
100
AcDbEntity
  8
0
 62
     4
100
AcDbMText
 10
781.2572890391801
 20
228.8703311130607
 30
0.0
 40
2.0
 41
0.0
 46
0.0
 71
     5
 72
     1
  1
\A1;{\fISOCPEUR|b0|i0|c0|p34;%%C}3.5
  7
Romans字体
 11
0.0000000000000001
 21
1.0
 31
0.0
 73
     1
 44
1.0
1001
ACAD
1000
MTEXTBEGIN
1070
    73
1070
     1
1070
    44
1040
1.0
1070
    74
1070
     0
1000
MTEXTEND
  0
POINT
  5
A68
330
A5F
100
AcDbEntity
  8
Defpoints
 62
     0
100
AcDbPoint
 10
793.8429800828783
 20
219.48688827469
 30
0.0
  0
POINT
  5
A69
330
A5F
100
AcDbEntity
  8
Defpoints
 62
     0
100
AcDbPoint
 10
793.8429800828783
 20
222.98688827469
 30
0.0
  0
POINT
  5
A6A
330
A5F
100
AcDbEntity
  8
Defpoints
 62
     0
100
AcDbPoint
 10
782.7704296436479
 20
222.98688827469
 30
0.0
  0
ENDBLK
  5
A6B
330
A5F
100
AcDbEntity
  8
0
100
AcDbBlockEnd
  0
BLOCK
  5
A6D
330
A6C
100
AcDbEntity
  8
0
100
AcDbBlockBegin
  2
*D10
 70
     1
 10
0.0
 20
0.0
 30
0.0
  3
*D10
  1

  0
LINE
  5
A6E
330
A6C
100
AcDbEntity
  8
0
 62
     6
370
    -2
100
AcDbLine
 10
795.2981371360707
 20
220.11188827469
 30
0.0
 11
789.4496191979467
 21
220.11188827469
 31
0.0
  0
LINE
  5
A6F
330
A6C
100
AcDbEntity
  8
0
 62
     6
370
    -2
100
AcDbLine
 10
795.2981371360707
 20
222.36188827469
 30
0.0
 11
789.4496191979467
 21
222.36188827469
 31
0.0
  0
LINE
  5
A70
330
A6C
100
AcDbEntity
  8
0
 62
     1
370
    -2
100
AcDbLine
 10
789.9496191979467
 20
218.61188827469
 30
0.0
 11
789.9496191979467
 21
217.11188827469
 31
0.0
  0
LINE
  5
A71
330
A6C
100
AcDbEntity
  8
0
 62
     1
370
    -2
100
AcDbLine
 10
789.9496191979467
 20
223.86188827469
 30
0.0
 11
789.9496191979467
 21
232.5735834126663
 31
0.0
  0
SOLID
  5
A72
330
A6C
100
AcDbEntity
  8
0
 62
     1
100
AcDbTrace
 10
789.6996191979467
 20
218.61188827469
 30
0.0
 11
790.1996191979467
 21
218.61188827469
 31
0.0
 12
789.9496191979467
 22
220.11188827469
 32
0.0
 13
789.9496191979467
 23
220.11188827469
 33
0.0
  0
SOLID
  5
A73
330
A6C
100
AcDbEntity
  8
0
 62
     1
100
AcDbTrace
 10
789.6996191979467
 20
223.86188827469
 30
0.0
 11
790.1996191979467
 21
223.86188827469
 31
0.0
 12
789.9496191979467
 22
222.36188827469
 32
0.0
 13
789.9496191979467
 23
222.36188827469
 33
0.0
  0
MTEXT
  5
A74
330
A6C
100
AcDbEntity
  8
0
 62
     4
100
AcDbMText
 10
788.4364785934787
 20
228.9677358436783
 30
0.0
 40
2.0
 41
0.0
 46
0.0
 71
     5
 72
     1
  1
\A1;{\fISOCPEUR|b0|i0|c0|p34;%%C}2.25
  7
Romans字体
 11
0.0000000000000001
 21
1.0
 31
0.0
 73
     1
 44
1.0
1001
ACAD
1000
MTEXTBEGIN
1070
    73
1070
     1
1070
    44
1040
1.0
1070
    74
1070
     0
1000
MTEXTEND
  0
POINT
  5
A75
330
A6C
100
AcDbEntity
  8
Defpoints
 62
     0
100
AcDbPoint
 10
795.4981371360706
 20
220.11188827469
 30
0.0
  0
POINT
  5
A76
330
A6C
100
AcDbEntity
  8
Defpoints
 62
     0
100
AcDbPoint
 10
795.4981371360706
 20
222.36188827469
 30
0.0
  0
POINT
  5
A77
330
A6C
100
AcDbEntity
  8
Defpoints
 62
     0
100
AcDbPoint
 10
789.9496191979467
 20
222.36188827469
 30
0.0
  0
ENDBLK
  5
A78
330
A6C
100
AcDbEntity
  8
0
100
AcDbBlockEnd
  0
BLOCK
  5
A7A
330
A79
100
AcDbEntity
  8
0
100
AcDbBlockBegin
  2
*D11
 70
     1
 10
0.0
 20
0.0
 30
0.0
  3
*D11
  1

  0
LINE
  5
A7B
330
A79
100
AcDbEntity
  8
0
 62
     6
370
    -2
100
AcDbLine
 10
796.3644657358355
 20
222.836890219433
 30
0.0
 11
786.0117636804528
 21
222.836890219433
 31
0.0
  0
LINE
  5
A7C
330
A79
100
AcDbEntity
  8
0
 62
     6
370
    -2
100
AcDbLine
 10
796.1429790585177
 20
219.636886329947
 30
0.0
 11
786.0117636804528
 21
219.636886329947
 31
0.0
  0
LINE
  5
A7D
330
A79
100
AcDbEntity
  8
0
 62
     1
370
    -2
100
AcDbLine
 10
786.5117636804527
 20
224.336890219433
 30
0.0
 11
786.5117636804527
 21
225.836890219433
 31
0.0
  0
LINE
  5
A7E
330
A79
100
AcDbEntity
  8
0
 62
     1
370
    -2
100
AcDbLine
 10
786.5117636804527
 20
218.136886329947
 30
0.0
 11
786.5117636804527
 21
210.8857693785672
 31
0.0
  0
SOLID
  5
A7F
330
A79
100
AcDbEntity
  8
0
 62
     1
100
AcDbTrace
 10
786.2617636804527
 20
224.336890219433
 30
0.0
 11
786.7617636804527
 21
224.336890219433
 31
0.0
 12
786.5117636804527
 22
222.836890219433
 32
0.0
 13
786.5117636804527
 23
222.836890219433
 33
0.0
  0
SOLID
  5
A80
330
A79
100
AcDbEntity
  8
0
 62
     1
100
AcDbTrace
 10
786.2617636804527
 20
218.136886329947
 30
0.0
 11
786.7617636804527
 21
218.136886329947
 31
0.0
 12
786.5117636804527
 22
219.636886329947
 32
0.0
 13
786.5117636804527
 23
219.636886329947
 33
0.0
  0
MTEXT
  5
A81
330
A79
100
AcDbEntity
  8
0
 62
     4
100
AcDbMText
 10
784.9986230759848
 20
213.7613278542572
 30
0.0
 40
2.0
 41
0.0
 46
0.0
 71
     5
 72
     1
  1
\A1;{\fISOCPEUR|b0|i0|c0|p34;%%C}3.2
  7
Romans字体
 11
0.0000000000000001
 21
1.0
 31
0.0
 73
     1
 44
1.0
1001
ACAD
1000
MTEXTBEGIN
1070
    73
1070
     1
1070
    44
1040
1.0
1070
    74
1070
     0
1000
MTEXTEND
  0
POINT
  5
A82
330
A79
100
AcDbEntity
  8
Defpoints
 62
     0
100
AcDbPoint
 10
796.5644657358357
 20
222.836890219433
 30
0.0
  0
POINT
  5
A83
330
A79
100
AcDbEntity
  8
Defpoints
 62
     0
100
AcDbPoint
 10
796.3429790585178
 20
219.636886329947
 30
0.0
  0
POINT
  5
A84
330
A79
100
AcDbEntity
  8
Defpoints
 62
     0
100
AcDbPoint
 10
786.5117636804527
 20
219.636886329947
 30
0.0
  0
ENDBLK
  5
A85
330
A79
100
AcDbEntity
  8
0
100
AcDbBlockEnd
  0
BLOCK
  5
C28
330
C27
100
AcDbEntity
  8
0
100
AcDbBlockBegin
  2
*D12
 70
     1
 10
0.0
 20
0.0
 30
0.0
  3
*D12
  1

  0
LINE
  5
C66
330
C27
100
AcDbEntity
  8
0
 62
     6
370
    -2
100
AcDbLine
 10
705.1023937756599
 20
220.0300282421467
 30
0.0
 11
705.1023937756599
 21
227.5579974894495
 31
0.0
  0
LINE
  5
C67
330
C27
100
AcDbEntity
  8
0
 62
     6
370
    -2
100
AcDbLine
 10
726.6023917269379
 20
220.0300282421467
 30
0.0
 11
726.6023917269379
 21
227.5579974894495
 31
0.0
  0
LINE
  5
C68
330
C27
100
AcDbEntity
  8
0
 62
     1
370
    -2
100
AcDbLine
 10
706.6023937756599
 20
227.0579974894495
 30
0.0
 11
725.1023917269377
 21
227.0579974894495
 31
0.0
  0
SOLID
  5
C69
330
C27
100
AcDbEntity
  8
0
 62
     1
100
AcDbTrace
 10
706.6023937756599
 20
227.3079974894495
 30
0.0
 11
706.6023937756599
 21
226.8079974894495
 31
0.0
 12
705.1023937756599
 22
227.0579974894495
 32
0.0
 13
705.1023937756599
 23
227.0579974894495
 33
0.0
  0
SOLID
  5
C6A
330
C27
100
AcDbEntity
  8
0
 62
     1
100
AcDbTrace
 10
725.1023917269377
 20
227.3079974894495
 30
0.0
 11
725.1023917269377
 21
226.8079974894495
 31
0.0
 12
726.6023917269379
 22
227.0579974894495
 32
0.0
 13
726.6023917269379
 23
227.0579974894495
 33
0.0
  0
MTEXT
  5
C6B
330
C27
100
AcDbEntity
  8
0
 62
     4
100
AcDbMText
 10
714.8093769488521
 20
228.5711380939174
 30
0.0
 40
2.0
 41
0.0
 46
0.0
 71
     5
 72
     1
  1
\A1;21.5
  7
Romans字体
 73
     1
 44
1.0
1001
ACAD
1000
MTEXTBEGIN
1070
    73
1070
     1
1070
    44
1040
1.0
1070
    74
1070
     0
1000
MTEXTEND
  0
POINT
  5
C6C
330
C27
100
AcDbEntity
  8
Defpoints
 62
     0
100
AcDbPoint
 10
705.1023937756599
 20
219.8300282421467
 30
0.0
  0
POINT
  5
C6D
330
C27
100
AcDbEntity
  8
Defpoints
 62
     0
100
AcDbPoint
 10
726.6023917269379
 20
219.8300282421467
 30
0.0
  0
POINT
  5
C6E
330
C27
100
AcDbEntity
  8
Defpoints
 62
     0
100
AcDbPoint
 10
726.6023917269379
 20
227.0579974894495
 30
0.0
  0
ENDBLK
  5
C29
330
C27
100
AcDbEntity
  8
0
100
AcDbBlockEnd
  0
BLOCK
  5
C34
330
C33
100
AcDbEntity
  8
0
100
AcDbBlockBegin
  2
*D13
 70
     1
 10
0.0
 20
0.0
 30
0.0
  3
*D13
  1

  0
LINE
  5
C6F
330
C33
100
AcDbEntity
  8
0
 62
     6
370
    -2
100
AcDbLine
 10
705.1023937756599
 20
220.0300282421467
 30
0.0
 11
705.1023937756599
 21
223.9419983692782
 31
0.0
  0
LINE
  5
C70
330
C33
100
AcDbEntity
  8
0
 62
     6
370
    -2
100
AcDbLine
 10
711.1235798991962
 20
220.0300282421467
 30
0.0
 11
711.1235798991962
 21
223.9419983692782
 31
0.0
  0
LINE
  5
C71
330
C33
100
AcDbEntity
  8
0
 62
     1
370
    -2
100
AcDbLine
 10
706.6023937756599
 20
223.4419983692782
 30
0.0
 11
709.6235798991962
 21
223.4419983692782
 31
0.0
  0
SOLID
  5
C72
330
C33
100
AcDbEntity
  8
0
 62
     1
100
AcDbTrace
 10
706.6023937756599
 20
223.6919983692782
 30
0.0
 11
706.6023937756599
 21
223.1919983692782
 31
0.0
 12
705.1023937756599
 22
223.4419983692782
 32
0.0
 13
705.1023937756599
 23
223.4419983692782
 33
0.0
  0
SOLID
  5
C73
330
C33
100
AcDbEntity
  8
0
 62
     1
100
AcDbTrace
 10
709.6235798991962
 20
223.6919983692782
 30
0.0
 11
709.6235798991962
 21
223.1919983692782
 31
0.0
 12
711.1235798991962
 22
223.4419983692782
 32
0.0
 13
711.1235798991962
 23
223.4419983692782
 33
0.0
  0
MTEXT
  5
C74
330
C33
100
AcDbEntity
  8
0
 62
     4
100
AcDbMText
 10
708.1173841451231
 20
224.9511967924056
 30
0.0
 40
2.0
 41
0.0
 46
0.0
 71
     5
 72
     1
  1
\A1;6
  7
Romans字体
 73
     1
 44
1.0
1001
ACAD
1000
MTEXTBEGIN
1070
    73
1070
     1
1070
    44
1040
1.0
1070
    74
1070
     0
1000
MTEXTEND
  0
POINT
  5
C75
330
C33
100
AcDbEntity
  8
Defpoints
 62
     0
100
AcDbPoint
 10
705.1023937756599
 20
219.8300282421467
 30
0.0
  0
POINT
  5
C76
330
C33
100
AcDbEntity
  8
Defpoints
 62
     0
100
AcDbPoint
 10
711.1235798991962
 20
219.8300282421467
 30
0.0
  0
POINT
  5
C77
330
C33
100
AcDbEntity
  8
Defpoints
 62
     0
100
AcDbPoint
 10
711.1235798991962
 20
223.4419983692782
 30
0.0
  0
ENDBLK
  5
C35
330
C33
100
AcDbEntity
  8
0
100
AcDbBlockEnd
  0
BLOCK
  5
C40
330
C3F
100
AcDbEntity
  8
0
100
AcDbBlockBegin
  2
*D14
 70
     1
 10
0.0
 20
0.0
 30
0.0
  3
*D14
  1

  0
LINE
  5
C78
330
C3F
100
AcDbEntity
  8
0
 62
     6
370
    -2
100
AcDbLine
 10
705.4023937756599
 20
218.0800282421467
 30
0.0
 11
694.0298433364296
 21
218.0800282421467
 31
0.0
  0
LINE
  5
C79
330
C3F
100
AcDbEntity
  8
0
 62
     6
370
    -2
100
AcDbLine
 10
705.4023937756599
 20
221.5800282421466
 30
0.0
 11
694.0298433364296
 21
221.5800282421467
 31
0.0
  0
LINE
  5
C7A
330
C3F
100
AcDbEntity
  8
0
 62
     1
370
    -2
100
AcDbLine
 10
694.5298433364296
 20
216.5800282421467
 30
0.0
 11
694.5298433364296
 21
215.0800282421467
 31
0.0
  0
LINE
  5
C7B
330
C3F
100
AcDbEntity
  8
0
 62
     1
370
    -2
100
AcDbLine
 10
694.5298433364296
 20
223.0800282421467
 30
0.0
 11
694.5298433364296
 21
230.3469139188878
 31
0.0
  0
SOLID
  5
C7C
330
C3F
100
AcDbEntity
  8
0
 62
     1
100
AcDbTrace
 10
694.2798433364296
 20
216.5800282421467
 30
0.0
 11
694.7798433364296
 21
216.5800282421467
 31
0.0
 12
694.5298433364296
 22
218.0800282421467
 32
0.0
 13
694.5298433364296
 23
218.0800282421467
 33
0.0
  0
SOLID
  5
C7D
330
C3F
100
AcDbEntity
  8
0
 62
     1
100
AcDbTrace
 10
694.2798433364296
 20
223.0800282421467
 30
0.0
 11
694.7798433364296
 21
223.0800282421467
 31
0.0
 12
694.5298433364296
 22
221.5800282421467
 32
0.0
 13
694.5298433364296
 23
221.5800282421467
 33
0.0
  0
MTEXT
  5
C7E
330
C3F
100
AcDbEntity
  8
0
 62
     4
100
AcDbMText
 10
693.0167027319618
 20
227.4634710805174
 30
0.0
 40
2.0
 41
0.0
 46
0.0
 71
     5
 72
     1
  1
\A1;{\fISOCPEUR|b0|i0|c0|p34;%%C}3.5
  7
Romans字体
 11
0.0000000000000001
 21
1.0
 31
0.0
 73
     1
 44
1.0
1001
ACAD
1000
MTEXTBEGIN
1070
    73
1070
     1
1070
    44
1040
1.0
1070
    74
1070
     0
1000
MTEXTEND
  0
POINT
  5
C7F
330
C3F
100
AcDbEntity
  8
Defpoints
 62
     0
100
AcDbPoint
 10
705.6023937756599
 20
218.0800282421467
 30
0.0
  0
POINT
  5
C80
330
C3F
100
AcDbEntity
  8
Defpoints
 62
     0
100
AcDbPoint
 10
705.6023937756599
 20
221.5800282421466
 30
0.0
  0
POINT
  5
C81
330
C3F
100
AcDbEntity
  8
Defpoints
 62
     0
100
AcDbPoint
 10
694.5298433364296
 20
221.5800282421467
 30
0.0
  0
ENDBLK
  5
C41
330
C3F
100
AcDbEntity
  8
0
100
AcDbBlockEnd
  0
BLOCK
  5
C4D
330
C4C
100
AcDbEntity
  8
0
100
AcDbBlockBegin
  2
*D15
 70
     1
 10
0.0
 20
0.0
 30
0.0
  3
*D15
  1

  0
LINE
  5
C82
330
C4C
100
AcDbEntity
  8
0
 62
     6
370
    -2
100
AcDbLine
 10
707.0575508288522
 20
218.7050282421466
 30
0.0
 11
701.2090328907283
 21
218.7050282421467
 31
0.0
  0
LINE
  5
C83
330
C4C
100
AcDbEntity
  8
0
 62
     6
370
    -2
100
AcDbLine
 10
707.0575508288522
 20
220.9550282421467
 30
0.0
 11
701.2090328907283
 21
220.9550282421467
 31
0.0
  0
LINE
  5
C84
330
C4C
100
AcDbEntity
  8
0
 62
     1
370
    -2
100
AcDbLine
 10
701.7090328907283
 20
217.2050282421467
 30
0.0
 11
701.7090328907283
 21
215.7050282421467
 31
0.0
  0
LINE
  5
C85
330
C4C
100
AcDbEntity
  8
0
 62
     1
370
    -2
100
AcDbLine
 10
701.7090328907283
 20
222.4550282421467
 30
0.0
 11
701.7090328907283
 21
231.166723380123
 31
0.0
  0
SOLID
  5
C86
330
C4C
100
AcDbEntity
  8
0
 62
     1
100
AcDbTrace
 10
701.4590328907282
 20
217.2050282421467
 30
0.0
 11
701.9590328907282
 21
217.2050282421467
 31
0.0
 12
701.7090328907283
 22
218.7050282421467
 32
0.0
 13
701.7090328907283
 23
218.7050282421467
 33
0.0
  0
SOLID
  5
C87
330
C4C
100
AcDbEntity
  8
0
 62
     1
100
AcDbTrace
 10
701.4590328907282
 20
222.4550282421467
 30
0.0
 11
701.9590328907282
 21
222.4550282421467
 31
0.0
 12
701.7090328907283
 22
220.9550282421467
 32
0.0
 13
701.7090328907283
 23
220.9550282421467
 33
0.0
  0
MTEXT
  5
C88
330
C4C
100
AcDbEntity
  8
0
 62
     4
100
AcDbMText
 10
700.1958922862606
 20
227.5608758111349
 30
0.0
 40
2.0
 41
0.0
 46
0.0
 71
     5
 72
     1
  1
\A1;{\fISOCPEUR|b0|i0|c0|p34;%%C}2.25
  7
Romans字体
 11
0.0000000000000001
 21
1.0
 31
0.0
 73
     1
 44
1.0
1001
ACAD
1000
MTEXTBEGIN
1070
    73
1070
     1
1070
    44
1040
1.0
1070
    74
1070
     0
1000
MTEXTEND
  0
POINT
  5
C89
330
C4C
100
AcDbEntity
  8
Defpoints
 62
     0
100
AcDbPoint
 10
707.2575508288523
 20
218.7050282421466
 30
0.0
  0
POINT
  5
C8A
330
C4C
100
AcDbEntity
  8
Defpoints
 62
     0
100
AcDbPoint
 10
707.2575508288523
 20
220.9550282421467
 30
0.0
  0
POINT
  5
C8B
330
C4C
100
AcDbEntity
  8
Defpoints
 62
     0
100
AcDbPoint
 10
701.7090328907283
 20
220.9550282421467
 30
0.0
  0
ENDBLK
  5
C4E
330
C4C
100
AcDbEntity
  8
0
100
AcDbBlockEnd
  0
BLOCK
  5
C5A
330
C59
100
AcDbEntity
  8
0
100
AcDbBlockBegin
  2
*D16
 70
     1
 10
0.0
 20
0.0
 30
0.0
  3
*D16
  1

  0
LINE
  5
C8C
330
C59
100
AcDbEntity
  8
0
 62
     6
370
    -2
100
AcDbLine
 10
708.1238794286171
 20
221.4300301868896
 30
0.0
 11
697.7711773732344
 21
221.4300301868897
 31
0.0
  0
LINE
  5
C8D
330
C59
100
AcDbEntity
  8
0
 62
     6
370
    -2
100
AcDbLine
 10
707.9023927512994
 20
218.2300262974037
 30
0.0
 11
697.7711773732344
 21
218.2300262974037
 31
0.0
  0
LINE
  5
C8E
330
C59
100
AcDbEntity
  8
0
 62
     1
370
    -2
100
AcDbLine
 10
698.2711773732344
 20
222.9300301868897
 30
0.0
 11
698.2711773732344
 21
224.4300301868896
 31
0.0
  0
LINE
  5
C8F
330
C59
100
AcDbEntity
  8
0
 62
     1
370
    -2
100
AcDbLine
 10
698.2711773732344
 20
216.7300262974037
 30
0.0
 11
698.2711773732344
 21
209.4789093460239
 31
0.0
  0
SOLID
  5
C90
330
C59
100
AcDbEntity
  8
0
 62
     1
100
AcDbTrace
 10
698.0211773732344
 20
222.9300301868897
 30
0.0
 11
698.5211773732344
 21
222.9300301868897
 31
0.0
 12
698.2711773732344
 22
221.4300301868897
 32
0.0
 13
698.2711773732344
 23
221.4300301868897
 33
0.0
  0
SOLID
  5
C91
330
C59
100
AcDbEntity
  8
0
 62
     1
100
AcDbTrace
 10
698.0211773732344
 20
216.7300262974037
 30
0.0
 11
698.5211773732344
 21
216.7300262974037
 31
0.0
 12
698.2711773732344
 22
218.2300262974037
 32
0.0
 13
698.2711773732344
 23
218.2300262974037
 33
0.0
  0
MTEXT
  5
C92
330
C59
100
AcDbEntity
  8
0
 62
     4
100
AcDbMText
 10
696.7580367687665
 20
212.3544678217139
 30
0.0
 40
2.0
 41
0.0
 46
0.0
 71
     5
 72
     1
  1
\A1;{\fISOCPEUR|b0|i0|c0|p34;%%C}3.2
  7
Romans字体
 11
0.0000000000000001
 21
1.0
 31
0.0
 73
     1
 44
1.0
1001
ACAD
1000
MTEXTBEGIN
1070
    73
1070
     1
1070
    44
1040
1.0
1070
    74
1070
     0
1000
MTEXTEND
  0
POINT
  5
C93
330
C59
100
AcDbEntity
  8
Defpoints
 62
     0
100
AcDbPoint
 10
708.3238794286174
 20
221.4300301868896
 30
0.0
  0
POINT
  5
C94
330
C59
100
AcDbEntity
  8
Defpoints
 62
     0
100
AcDbPoint
 10
708.1023927512994
 20
218.2300262974037
 30
0.0
  0
POINT
  5
C95
330
C59
100
AcDbEntity
  8
Defpoints
 62
     0
100
AcDbPoint
 10
698.2711773732344
 20
218.2300262974037
 30
0.0
  0
ENDBLK
  5
C5B
330
C59
100
AcDbEntity
  8
0
100
AcDbBlockEnd
  0
ENDSEC
  0
SECTION
  2
ENTITIES
  0
HATCH
  5
16
330
2
100
AcDbEntity
  8
图层 1
 62
     7
100
AcDbHatch
 10
0.0
 20
0.0
 30
0.0
210
0.0
220
0.0
230
1.0
  2
SOLID
 70
     1
 71
     0
 91
        1
 92
        1
 93
        2
 72
     4
 94
        3
 73
     0
 74
     0
 95
       17
 96
       13
 40
0.0
 40
0.0
 40
0.0
 40
0.0
 40
0.3527780104152769
 40
0.3527780104152769
 40
0.3527780104152769
 40
0.7055560208305538
 40
0.7055560208305538
 40
0.7055560208305538
 40
1.058334031245828
 40
1.058334031245828
 40
1.058334031245828
 40
1.411112041661104
 40
1.411112041661104
 40
1.411112041661104
 40
1.411112041661104
 10
11.07013262565829
 20
29.50312817963231
 10
11.07013262565829
 20
29.50312817963231
 10
10.9431807732774
 20
29.50312817963231
 10
10.9431807732774
 20
29.50312817963231
 10
10.9431807732774
 20
29.50312817963231
 10
10.85843136843155
 20
29.22786486877117
 10
10.85843136843155
 20
29.22786486877117
 10
10.85843136843155
 20
29.22786486877117
 10
10.90080607085448
 20
29.2068497724476
 10
10.90080607085448
 20
29.2068497724476
 10
10.94455881238059
 20
29.31571486159919
 10
11.00346998404173
 20
29.40907701083995
 10
11.07013262565829
 20
29.50312817963231
 72
     1
 10
11.07013262565829
 20
29.50312817963231
 11
11.07013262565829
 21
29.50312817963231
 97
        0
 75
     0
 76
     1
 98
        0
450
        0
451
        0
460
0.0
461
0.0
452
        0
462
0.0
453
        0
470

  0
HATCH
  5
1A
330
2
100
AcDbEntity
  8
图层 1
 62
     7
100
AcDbHatch
 10
0.0
 20
0.0
 30
0.0
210
0.0
220
0.0
230
1.0
  2
SOLID
 70
     1
 71
     0
 91
        1
 92
        1
 93
        2
 72
     4
 94
        3
 73
     0
 74
     0
 95
       47
 96
       43
 40
0.0
 40
0.0
 40
0.0
 40
0.0
 40
0.3527780104152769
 40
0.3527780104152769
 40
0.3527780104152769
 40
0.7055560208305538
 40
0.7055560208305538
 40
0.7055560208305538
 40
1.058334031245828
 40
1.058334031245828
 40
1.058334031245828
 40
1.411112041661104
 40
1.411112041661104
 40
1.411112041661104
 40
1.763890052076384
 40
1.763890052076384
 40
1.763890052076384
 40
2.116668062491659
 40
2.116668062491659
 40
2.116668062491659
 40
2.469446072906936
 40
2.469446072906936
 40
2.469446072906936
 40
2.822224083322215
 40
2.822224083322215
 40
2.822224083322215
 40
3.175002093737492
 40
3.175002093737492
 40
3.175002093737492
 40
3.527780104152768
 40
3.527780104152768
 40
3.527780104152768
 40
3.880558114568044
 40
3.880558114568044
 40
3.880558114568044
 40
4.233336124983321
 40
4.233336124983321
 40
4.233336124983321
 40
4.586114135398599
 40
4.586114135398599
 40
4.586114135398599
 40
4.938892145813873
 40
4.938892145813873
 40
4.938892145813873
 40
4.938892145813873
 10
162.8986914070121
 20
257.4895347631509
 10
162.8986914070121
 20
257.4895347631509
 10
162.9200510131114
 20
257.4471600607279
 10
162.9200510131114
 20
257.4471600607279
 10
162.9200510131114
 20
257.4471600607279
 10
162.9200510131114
 20
257.404785358305
 10
162.9200510131114
 20
257.404785358305
 10
162.9200510131114
 20
257.404785358305
 10
162.8986914070121
 20
257.36258291077
 10
162.8986914070121
 20
257.36258291077
 10
162.8986914070121
 20
257.36258291077
 10
162.8986914070121
 20
257.320208208347
 10
162.8986914070121
 20
257.320208208347
 10
162.8986914070121
 20
257.320208208347
 10
162.8563167045891
 20
257.2990208571356
 10
162.8563167045891
 20
257.2990208571356
 10
162.8563167045891
 20
257.2990208571356
 10
162.8139420021662
 20
257.2563016449369
 10
162.8139420021662
 20
257.2563016449369
 10
162.8139420021662
 20
257.2563016449369
 10
162.7295371070961
 20
257.2563016449369
 10
162.7295371070961
 20
257.2563016449369
 10
162.7295371070961
 20
257.2563016449369
 10
162.6658027985738
 20
257.2778335059241
 10
162.6658027985738
 20
257.2778335059241
 10
162.6658027985738
 20
257.2778335059241
 10
162.6237726059267
 20
257.2990208571356
 10
162.6237726059267
 20
257.2990208571356
 10
162.6237726059267
 20
257.2990208571356
 10
162.5813979035038
 20
257.3413955595585
 10
162.5813979035038
 20
257.3413955595585
 10
162.5813979035038
 20
257.3413955595585
 10
162.5813979035038
 20
257.4895347631509
 10
162.5813979035038
 20
257.4895347631509
 10
162.5813979035038
 20
257.4895347631509
 10
162.6447877022503
 20
257.5525800521216
 10
162.6447877022503
 20
257.5525800521216
 10
162.6447877022503
 20
257.5525800521216
 10
162.7081775009967
 20
257.5525800521216
 10
162.7081775009967
 20
257.5525800521216
 10
162.8749202324821
 20
257.5424170137356
 10
162.7918933765152
 20
257.5939212252171
 10
162.8986914070121
 20
257.4895347631509
 72
     1
 10
162.8986914070121
 20
257.4895347631509
 11
162.8986914070121
 21
257.4895347631509
 97
        0
 75
     0
 76
     1
 98
        0
450
        0
451
        0
460
0.0
461
0.0
452
        0
462
0.0
453
        0
470

  0
HATCH
  5
1B
330
2
100
AcDbEntity
  8
图层 1
 62
     7
100
AcDbHatch
 10
0.0
 20
0.0
 30
0.0
210
0.0
220
0.0
230
1.0
  2
SOLID
 70
     1
 71
     0
 91
        1
 92
        1
 93
        2
 72
     4
 94
        3
 73
     0
 74
     0
 95
       56
 96
       52
 40
0.0
 40
0.0
 40
0.0
 40
0.0
 40
0.3527780104152769
 40
0.3527780104152769
 40
0.3527780104152769
 40
0.7055560208305538
 40
0.7055560208305538
 40
0.7055560208305538
 40
1.058334031245828
 40
1.058334031245828
 40
1.058334031245828
 40
1.411112041661104
 40
1.411112041661104
 40
1.411112041661104
 40
1.763890052076384
 40
1.763890052076384
 40
1.763890052076384
 40
2.116668062491659
 40
2.116668062491659
 40
2.116668062491659
 40
2.469446072906936
 40
2.469446072906936
 40
2.469446072906936
 40
2.822224083322215
 40
2.822224083322215
 40
2.822224083322215
 40
3.175002093737492
 40
3.175002093737492
 40
3.175002093737492
 40
3.527780104152768
 40
3.527780104152768
 40
3.527780104152768
 40
3.880558114568044
 40
3.880558114568044
 40
3.880558114568044
 40
4.233336124983321
 40
4.233336124983321
 40
4.233336124983321
 40
4.586114135398599
 40
4.586114135398599
 40
4.586114135398599
 40
4.938892145813873
 40
4.938892145813873
 40
4.938892145813873
 40
5.291670156229153
 40
5.291670156229153
 40
5.291670156229153
 40
5.64444816664443
 40
5.64444816664443
 40
5.64444816664443
 40
5.997226177059705
 40
5.997226177059705
 40
5.997226177059705
 40
5.997226177059705
 10
185.4837187788815
 20
241.4451977396596
 10
185.4837187788815
 20
241.4451977396596
 10
185.4837187788815
 20
241.4028230372367
 10
185.4837187788815
 20
241.4028230372367
 10
185.4837187788815
 20
241.4028230372367
 10
185.5047338752051
 20
241.3604483348137
 10
185.5047338752051
 20
241.3604483348137
 10
185.4520238795082
 20
241.2782827532863
 10
185.4671823096433
 20
241.1897437409066
 10
185.335579575289
 20
241.2119646214456
 10
185.335579575289
 20
241.2119646214456
 10
185.2932048728662
 20
241.2119646214456
 10
185.2932048728662
 20
241.2119646214456
 10
185.2932048728662
 20
241.2119646214456
 10
185.2294705643439
 20
241.2334964824328
 10
185.2294705643439
 20
241.2334964824328
 10
185.2294705643439
 20
241.2334964824328
 10
185.1660807655974
 20
241.2543393238685
 10
185.1660807655974
 20
241.2543393238685
 10
185.1660807655974
 20
241.2543393238685
 10
185.1450656692739
 20
241.2758711848558
 10
185.1450656692739
 20
241.2758711848558
 10
185.1450656692739
 20
241.2758711848558
 10
185.1450656692739
 20
241.2967140262914
 10
185.1450656692739
 20
241.2967140262914
 10
185.1450656692739
 20
241.2967140262914
 10
185.1237060631745
 20
241.3604483348137
 10
185.1237060631745
 20
241.3604483348137
 10
185.1237060631745
 20
241.3604483348137
 10
185.1237060631745
 20
241.4028230372367
 10
185.1237060631745
 20
241.4028230372367
 10
185.1237060631745
 20
241.4028230372367
 10
185.1660807655974
 20
241.4875724420825
 10
185.1660807655974
 20
241.4875724420825
 10
185.1660807655974
 20
241.4875724420825
 10
185.2084554680203
 20
241.5085875384061
 10
185.2084554680203
 20
241.5085875384061
 10
185.2084554680203
 20
241.5085875384061
 10
185.2718452667668
 20
241.5297748896175
 10
185.2718452667668
 20
241.5297748896175
 10
185.2718452667668
 20
241.5297748896175
 10
185.3565946716127
 20
241.5297748896175
 10
185.3565946716127
 20
241.5297748896175
 10
185.3565946716127
 20
241.5297748896175
 10
185.4199844703592
 20
241.5085875384061
 10
185.4199844703592
 20
241.5085875384061
 10
185.4199844703592
 20
241.5085875384061
 10
185.4623591727821
 20
241.4875724420825
 10
185.4623591727821
 20
241.4875724420825
 10
185.4623591727821
 20
241.4875724420825
 10
185.4837187788815
 20
241.4451977396596
 10
185.4837187788815
 20
241.4451977396596
 72
     1
 10
185.4837187788815
 20
241.4451977396596
 11
185.4837187788815
 21
241.4451977396596
 97
        0
 75
     0
 76
     1
 98
        0
450
        0
451
        0
460
0.0
461
0.0
452
        0
462
0.0
453
        0
470

  0
HATCH
  5
1C
330
2
100
AcDbEntity
  8
图层 1
 62
     7
100
AcDbHatch
 10
0.0
 20
0.0
 30
0.0
210
0.0
220
0.0
230
1.0
  2
SOLID
 70
     1
 71
     0
 91
        1
 92
        1
 93
        2
 72
     4
 94
        3
 73
     0
 74
     0
 95
       38
 96
       34
 40
0.0
 40
0.0
 40
0.0
 40
0.0
 40
0.3527780104152769
 40
0.3527780104152769
 40
0.3527780104152769
 40
0.7055560208305538
 40
0.7055560208305538
 40
0.7055560208305538
 40
1.058334031245828
 40
1.058334031245828
 40
1.058334031245828
 40
1.411112041661104
 40
1.411112041661104
 40
1.411112041661104
 40
1.763890052076384
 40
1.763890052076384
 40
1.763890052076384
 40
2.116668062491659
 40
2.116668062491659
 40
2.116668062491659
 40
2.469446072906936
 40
2.469446072906936
 40
2.469446072906936
 40
2.822224083322215
 40
2.822224083322215
 40
2.822224083322215
 40
3.175002093737492
 40
3.175002093737492
 40
3.175002093737492
 40
3.527780104152768
 40
3.527780104152768
 40
3.527780104152768
 40
3.880558114568044
 40
3.880558114568044
 40
3.880558114568044
 40
3.880558114568044
 10
185.907121293335
 20
220.1937677098971
 10
185.9005756075949
 20
220.0449394867532
 10
185.9329595265197
 20
220.1136691870245
 10
185.864746590912
 20
219.9817219428946
 10
185.864746590912
 20
219.9817219428946
 10
185.822371888489
 20
219.9605345916831
 10
185.822371888489
 20
219.9605345916831
 10
185.822371888489
 20
219.9605345916831
 10
185.6528730787974
 20
219.9605345916831
 10
185.6528730787974
 20
219.9605345916831
 10
185.6528730787974
 20
219.9605345916831
 10
185.5894832800509
 20
220.002909294106
 10
185.5894832800509
 20
220.002909294106
 10
185.5894832800509
 20
220.002909294106
 10
185.5681236739515
 20
220.0240966453175
 10
185.5681236739515
 20
220.0240966453175
 10
185.5681236739515
 20
220.0240966453175
 10
185.5681236739515
 20
220.045283996529
 10
185.5681236739515
 20
220.045283996529
 10
185.5681236739515
 20
220.045283996529
 10
185.547108577628
 20
220.0876586989519
 10
185.547108577628
 20
220.0876586989519
 10
185.547108577628
 20
220.0876586989519
 10
185.547108577628
 20
220.1513930074742
 10
185.547108577628
 20
220.1513930074742
 10
185.547108577628
 20
220.1513930074742
 10
185.5894832800509
 20
220.23614241232
 10
185.5894832800509
 20
220.23614241232
 10
185.5894832800509
 20
220.23614241232
 10
185.6318579824738
 20
220.2573297635315
 10
185.6318579824738
 20
220.2573297635315
 10
185.7055830744942
 20
220.2566407439799
 10
185.8416644359337
 20
220.3310548555519
 10
185.907121293335
 20
220.1937677098971
 72
     1
 10
185.907121293335
 20
220.1937677098971
 11
185.907121293335
 21
220.1937677098971
 97
        0
 75
     0
 76
     1
 98
        0
450
        0
451
        0
460
0.0
461
0.0
452
        0
462
0.0
453
        0
470

  0
HATCH
  5
1D
330
2
100
AcDbEntity
  8
图层 1
 62
     7
100
AcDbHatch
 10
0.0
 20
0.0
 30
0.0
210
0.0
220
0.0
230
1.0
  2
SOLID
 70
     1
 71
     0
 91
        1
 92
        1
 93
        2
 72
     4
 94
        3
 73
     0
 74
     0
 95
       50
 96
       46
 40
0.0
 40
0.0
 40
0.0
 40
0.0
 40
0.3527780104152769
 40
0.3527780104152769
 40
0.3527780104152769
 40
0.7055560208305538
 40
0.7055560208305538
 40
0.7055560208305538
 40
1.058334031245828
 40
1.058334031245828
 40
1.058334031245828
 40
1.411112041661104
 40
1.411112041661104
 40
1.411112041661104
 40
1.763890052076384
 40
1.763890052076384
 40
1.763890052076384
 40
2.116668062491659
 40
2.116668062491659
 40
2.116668062491659
 40
2.469446072906936
 40
2.469446072906936
 40
2.469446072906936
 40
2.822224083322215
 40
2.822224083322215
 40
2.822224083322215
 40
3.175002093737492
 40
3.175002093737492
 40
3.175002093737492
 40
3.527780104152768
 40
3.527780104152768
 40
3.527780104152768
 40
3.880558114568044
 40
3.880558114568044
 40
3.880558114568044
 40
4.233336124983321
 40
4.233336124983321
 40
4.233336124983321
 40
4.586114135398599
 40
4.586114135398599
 40
4.586114135398599
 40
4.938892145813873
 40
4.938892145813873
 40
4.938892145813873
 40
5.291670156229153
 40
5.291670156229153
 40
5.291670156229153
 40
5.291670156229153
 10
180.9117295442905
 20
208.9327766684477
 10
180.9117295442905
 20
208.9327766684477
 10
180.9117295442905
 20
208.7637946234197
 10
180.9117295442905
 20
208.7637946234197
 10
181.2273004989198
 20
208.6749111012643
 10
181.3833634273555
 20
208.6776671794706
 10
181.6948002646751
 20
208.5097186637701
 10
181.9542161258496
 20
208.4294478860095
 10
182.1388733656765
 20
208.2134402565853
 10
182.3297317814676
 20
208.02292635057
 10
182.3297317814676
 20
208.02292635057
 10
182.435496282637
 20
208.065301052993
 10
182.435496282637
 20
208.065301052993
 10
182.288390608372
 20
208.2733849575739
 10
182.3752070718726
 20
208.2134402565853
 10
182.1605774815516
 20
208.3824223016133
 10
182.1605774815516
 20
208.3824223016133
 10
182.1182027791287
 20
208.4247970040363
 10
182.1182027791287
 20
208.4247970040363
 10
182.1182027791287
 20
208.4247970040363
 10
182.0968431730294
 20
208.467516216235
 10
182.0968431730294
 20
208.467516216235
 10
182.0968431730294
 20
208.467516216235
 10
182.0544684706064
 20
208.4883590576707
 10
182.0544684706064
 20
208.4883590576707
 10
182.0544684706064
 20
208.4883590576707
 10
181.9910786718599
 20
208.5305615052057
 10
181.9910786718599
 20
208.5305615052057
 10
181.9910786718599
 20
208.5305615052057
 10
181.948703969437
 20
208.552093366193
 10
181.948703969437
 20
208.552093366193
 10
181.948703969437
 20
208.552093366193
 10
181.9063292670141
 20
208.5729362076286
 10
181.9063292670141
 20
208.5729362076286
 10
181.9063292670141
 20
208.5729362076286
 10
181.8639545645911
 20
208.6156554198274
 10
181.8639545645911
 20
208.6156554198274
 10
181.8639545645911
 20
208.6156554198274
 10
181.821924371944
 20
208.6368427710388
 10
181.821924371944
 20
208.6368427710388
 10
181.6637943848536
 20
208.6742220817127
 10
181.5452830219797
 20
208.8092699138248
 10
181.3771622513911
 20
208.8061693258427
 10
181.2803550043924
 20
208.8573290275484
 10
181.0126709085988
 20
208.8971199066528
 10
180.9117295442905
 20
208.9327766684477
 72
     1
 10
180.9117295442905
 20
208.9327766684477
 11
180.9117295442905
 21
208.9327766684477
 97
        0
 75
     0
 76
     1
 98
        0
450
        0
451
        0
460
0.0
461
0.0
452
        0
462
0.0
453
        0
470

  0
HATCH
  5
1E
330
2
100
AcDbEntity
  8
图层 1
 62
     7
100
AcDbHatch
 10
0.0
 20
0.0
 30
0.0
210
0.0
220
0.0
230
1.0
  2
SOLID
 70
     1
 71
     0
 91
        1
 92
        1
 93
        2
 72
     4
 94
        3
 73
     0
 74
     0
 95
       38
 96
       34
 40
0.0
 40
0.0
 40
0.0
 40
0.0
 40
0.3527780104152769
 40
0.3527780104152769
 40
0.3527780104152769
 40
0.7055560208305538
 40
0.7055560208305538
 40
0.7055560208305538
 40
1.058334031245828
 40
1.058334031245828
 40
1.058334031245828
 40
1.411112041661104
 40
1.411112041661104
 40
1.411112041661104
 40
1.763890052076384
 40
1.763890052076384
 40
1.763890052076384
 40
2.116668062491659
 40
2.116668062491659
 40
2.116668062491659
 40
2.469446072906936
 40
2.469446072906936
 40
2.469446072906936
 40
2.822224083322215
 40
2.822224083322215
 40
2.822224083322215
 40
3.175002093737492
 40
3.175002093737492
 40
3.175002093737492
 40
3.527780104152768
 40
3.527780104152768
 40
3.527780104152768
 40
3.880558114568044
 40
3.880558114568044
 40
3.880558114568044
 40
3.880558114568044
 10
189.145513185819
 20
166.8326485368285
 10
189.207869455238
 20
166.740492171803
 10
189.1317327947871
 20
166.6833035490209
 10
189.103138483396
 20
166.6209472796017
 10
189.103138483396
 20
166.6209472796017
 10
189.0607637809731
 20
166.5997599283903
 10
189.0607637809731
 20
166.5997599283903
 10
189.0607637809731
 20
166.5997599283903
 10
188.9973739822266
 20
166.5785725771788
 10
188.9973739822266
 20
166.5785725771788
 10
188.9973739822266
 20
166.5785725771788
 10
188.9549992798037
 20
166.5997599283903
 10
188.9549992798037
 20
166.5997599283903
 10
188.9549992798037
 20
166.5997599283903
 10
188.8916094810572
 20
166.5997599283903
 10
188.8916094810572
 20
166.5997599283903
 10
188.8916094810572
 20
166.5997599283903
 10
188.8492347786343
 20
166.6209472796017
 10
188.8492347786343
 20
166.6209472796017
 10
188.8492347786343
 20
166.6209472796017
 10
188.8278751725349
 20
166.6633219820247
 10
188.8278751725349
 20
166.6633219820247
 10
188.8278751725349
 20
166.6633219820247
 10
188.8068600762114
 20
166.6845093332361
 10
188.8068600762114
 20
166.6845093332361
 10
188.8068600762114
 20
166.6845093332361
 10
188.8068600762114
 20
166.8326485368285
 10
188.8068600762114
 20
166.8326485368285
 10
188.8068600762114
 20
166.8326485368285
 10
188.8702498749578
 20
166.896038335575
 10
188.8702498749578
 20
166.896038335575
 10
189.0228677056355
 20
166.8819134347673
 10
189.0686875058164
 20
166.9411691162043
 10
189.145513185819
 20
166.8326485368285
 72
     1
 10
189.145513185819
 20
166.8326485368285
 11
189.145513185819
 21
166.8326485368285
 97
        0
 75
     0
 76
     1
 98
        0
450
        0
451
        0
460
0.0
461
0.0
452
        0
462
0.0
453
        0
470

  0
HATCH
  5
1F
330
2
100
AcDbEntity
  8
图层 1
 62
     7
100
AcDbHatch
 10
0.0
 20
0.0
 30
0.0
210
0.0
220
0.0
230
1.0
  2
SOLID
 70
     1
 71
     0
 91
        1
 92
        1
 93
        2
 72
     4
 94
        3
 73
     0
 74
     0
 95
       68
 96
       64
 40
0.0
 40
0.0
 40
0.0
 40
0.0
 40
0.3527780104152769
 40
0.3527780104152769
 40
0.3527780104152769
 40
0.7055560208305538
 40
0.7055560208305538
 40
0.7055560208305538
 40
1.058334031245828
 40
1.058334031245828
 40
1.058334031245828
 40
1.411112041661104
 40
1.411112041661104
 40
1.411112041661104
 40
1.763890052076384
 40
1.763890052076384
 40
1.763890052076384
 40
2.116668062491659
 40
2.116668062491659
 40
2.116668062491659
 40
2.469446072906936
 40
2.469446072906936
 40
2.469446072906936
 40
2.822224083322215
 40
2.822224083322215
 40
2.822224083322215
 40
3.175002093737492
 40
3.175002093737492
 40
3.175002093737492
 40
3.527780104152768
 40
3.527780104152768
 40
3.527780104152768
 40
3.880558114568044
 40
3.880558114568044
 40
3.880558114568044
 40
4.233336124983321
 40
4.233336124983321
 40
4.233336124983321
 40
4.586114135398599
 40
4.586114135398599
 40
4.586114135398599
 40
4.938892145813873
 40
4.938892145813873
 40
4.938892145813873
 40
5.291670156229153
 40
5.291670156229153
 40
5.291670156229153
 40
5.64444816664443
 40
5.64444816664443
 40
5.64444816664443
 40
5.997226177059705
 40
5.997226177059705
 40
5.997226177059705
 40
6.350004187474984
 40
6.350004187474984
 40
6.350004187474984
 40
6.702782197890257
 40
6.702782197890257
 40
6.702782197890257
 40
7.055560208305537
 40
7.055560208305537
 40
7.055560208305537
 40
7.408338218720808
 40
7.408338218720808
 40
7.408338218720808
 40
7.408338218720808
 10
174.7732543591544
 20
135.4846705078077
 10
174.7732543591544
 20
135.4846705078077
 10
174.7732543591544
 20
135.3789060066383
 10
174.7732543591544
 20
135.3789060066383
 10
174.7732543591544
 20
135.3789060066383
 10
174.8156290615773
 20
135.3789060066383
 10
174.8156290615773
 20
135.3789060066383
 10
174.8156290615773
 20
135.3789060066383
 10
174.8580037640002
 20
135.3578909103147
 10
174.8580037640002
 20
135.3578909103147
 10
174.8580037640002
 20
135.3578909103147
 10
174.9213935627468
 20
135.3578909103147
 10
174.9213935627468
 20
135.3578909103147
 10
174.9213935627468
 20
135.3578909103147
 10
174.9637682651697
 20
135.3365313042154
 10
174.9637682651697
 20
135.3365313042154
 10
174.9637682651697
 20
135.3365313042154
 10
174.9847833614933
 20
135.3365313042154
 10
174.9847833614933
 20
135.3365313042154
 10
174.9847833614933
 20
135.3365313042154
 10
175.0271580639162
 20
135.3155162078918
 10
175.0271580639162
 20
135.3155162078918
 10
175.0271580639162
 20
135.3155162078918
 10
175.0485176700155
 20
135.2941566017924
 10
175.0485176700155
 20
135.2941566017924
 10
175.0485176700155
 20
135.2941566017924
 10
175.0695327663391
 20
135.2941566017924
 10
175.0695327663391
 20
135.2941566017924
 10
175.0695327663391
 20
135.2941566017924
 10
175.0908923724385
 20
135.2731415054689
 10
175.0908923724385
 20
135.2731415054689
 10
175.0908923724385
 20
135.2731415054689
 10
175.1332670748614
 20
135.2731415054689
 10
175.1332670748614
 20
135.2731415054689
 10
175.1332670748614
 20
135.2731415054689
 10
175.154282171185
 20
135.2517818993695
 10
175.154282171185
 20
135.2517818993695
 10
175.154282171185
 20
135.2517818993695
 10
175.154282171185
 20
135.3578909103147
 10
175.154282171185
 20
135.3578909103147
 10
175.154282171185
 20
135.3578909103147
 10
175.1332670748614
 20
135.3789060066383
 10
175.1332670748614
 20
135.3789060066383
 10
175.1332670748614
 20
135.3789060066383
 10
175.0908923724385
 20
135.3789060066383
 10
175.0908923724385
 20
135.3789060066383
 10
175.0908923724385
 20
135.3789060066383
 10
175.0908923724385
 20
135.3999211029619
 10
175.0908923724385
 20
135.3999211029619
 10
175.0908923724385
 20
135.3999211029619
 10
175.0695327663391
 20
135.3999211029619
 10
175.0695327663391
 20
135.3999211029619
 10
175.0695327663391
 20
135.3999211029619
 10
175.0271580639162
 20
135.4212807090612
 10
175.0271580639162
 20
135.4212807090612
 10
175.0271580639162
 20
135.4212807090612
 10
175.0061429675926
 20
135.4212807090612
 10
175.0061429675926
 20
135.4212807090612
 10
175.0061429675926
 20
135.4212807090612
 10
174.9637682651697
 20
135.4422958053848
 10
174.9637682651697
 20
135.4422958053848
 10
174.8996894468716
 20
135.4498750204523
 10
174.8394002361073
 20
135.4860485469109
 10
174.7732543591544
 20
135.4846705078077
 72
     1
 10
174.7732543591544
 20
135.4846705078077
 11
174.7732543591544
 21
135.4846705078077
 97
        0
 75
     0
 76
     1
 98
        0
450
        0
451
        0
460
0.0
461
0.0
452
        0
462
0.0
453
        0
470

  0
HATCH
  5
20
330
2
100
AcDbEntity
  8
图层 1
 62
     7
100
AcDbHatch
 10
0.0
 20
0.0
 30
0.0
210
0.0
220
0.0
230
1.0
  2
SOLID
 70
     1
 71
     0
 91
        1
 92
        1
 93
        2
 72
     4
 94
        3
 73
     0
 74
     0
 95
       29
 96
       25
 40
0.0
 40
0.0
 40
0.0
 40
0.0
 40
0.3527780104152769
 40
0.3527780104152769
 40
0.3527780104152769
 40
0.7055560208305538
 40
0.7055560208305538
 40
0.7055560208305538
 40
1.058334031245828
 40
1.058334031245828
 40
1.058334031245828
 40
1.411112041661104
 40
1.411112041661104
 40
1.411112041661104
 40
1.763890052076384
 40
1.763890052076384
 40
1.763890052076384
 40
2.116668062491659
 40
2.116668062491659
 40
2.116668062491659
 40
2.469446072906936
 40
2.469446072906936
 40
2.469446072906936
 40
2.822224083322215
 40
2.822224083322215
 40
2.822224083322215
 40
2.822224083322215
 10
175.4929352807925
 20
164.0174869039101
 10
175.4929352807925
 20
164.0174869039101
 10
175.5139503771161
 20
163.9751122014871
 10
175.5139503771161
 20
163.9751122014871
 10
175.5139503771161
 20
163.9751122014871
 10
175.5139503771161
 20
163.9327374990642
 10
175.5139503771161
 20
163.9327374990642
 10
175.5139503771161
 20
163.9327374990642
 10
175.4929352807925
 20
163.8903627966413
 10
175.4929352807925
 20
163.8903627966413
 10
175.4929352807925
 20
163.8903627966413
 10
175.471920184469
 20
163.8691754454298
 10
175.471920184469
 20
163.8691754454298
 10
175.471920184469
 20
163.8691754454298
 10
175.4505605783696
 20
163.8269729978948
 10
175.4505605783696
 20
163.8269729978948
 10
175.3571984291289
 20
163.7715069239916
 10
175.272449024283
 20
163.8195660377152
 10
175.1966568736079
 20
163.8691754454298
 10
175.208370205985
 20
163.9930267098286
 10
175.1563492298397
 20
164.0216210212197
 10
175.2600466723544
 20
164.0596893514451
 10
175.3330827448232
 20
164.1094710140476
 10
175.4357466580104
 20
164.0753645462439
 10
175.4929352807925
 20
164.0174869039101
 72
     1
 10
175.4929352807925
 20
164.0174869039101
 11
175.4929352807925
 21
164.0174869039101
 97
        0
 75
     0
 76
     1
 98
        0
450
        0
451
        0
460
0.0
461
0.0
452
        0
462
0.0
453
        0
470

  0
HATCH
  5
21
330
2
100
AcDbEntity
  8
图层 1
 62
     7
100
AcDbHatch
 10
0.0
 20
0.0
 30
0.0
210
0.0
220
0.0
230
1.0
  2
SOLID
 70
     1
 71
     0
 91
        1
 92
        1
 93
        2
 72
     4
 94
        3
 73
     0
 74
     0
 95
       11
 96
        7
 40
0.0
 40
0.0
 40
0.0
 40
0.0
 40
0.3527780104152769
 40
0.3527780104152769
 40
0.3527780104152769
 40
0.7055560208305538
 40
0.7055560208305538
 40
0.7055560208305538
 40
0.7055560208305538
 10
174.9213935627468
 20
174.5369206529582
 10
174.9213935627468
 20
174.5369206529582
 10
174.9213935627468
 20
174.3043765542958
 10
174.9213935627468
 20
174.3043765542958
 10
174.9213935627468
 20
174.3043765542958
 10
174.9213935627468
 20
174.5369206529582
 10
174.9213935627468
 20
174.5369206529582
 72
     1
 10
174.9213935627468
 20
174.5369206529582
 11
174.9213935627468
 21
174.5369206529582
 97
        0
 75
     0
 76
     1
 98
        0
450
        0
451
        0
460
0.0
461
0.0
452
        0
462
0.0
453
        0
470

  0
HATCH
  5
22
330
2
100
AcDbEntity
  8
图层 1
 62
     7
100
AcDbHatch
 10
0.0
 20
0.0
 30
0.0
210
0.0
220
0.0
230
1.0
  2
SOLID
 70
     1
 71
     0
 91
        1
 92
        1
 93
        2
 72
     4
 94
        3
 73
     0
 74
     0
 95
      131
 96
      127
 40
0.0
 40
0.0
 40
0.0
 40
0.0
 40
0.3527780104152769
 40
0.3527780104152769
 40
0.3527780104152769
 40
0.7055560208305538
 40
0.7055560208305538
 40
0.7055560208305538
 40
1.058334031245828
 40
1.058334031245828
 40
1.058334031245828
 40
1.411112041661104
 40
1.411112041661104
 40
1.411112041661104
 40
1.763890052076384
 40
1.763890052076384
 40
1.763890052076384
 40
2.116668062491659
 40
2.116668062491659
 40
2.116668062491659
 40
2.469446072906936
 40
2.469446072906936
 40
2.469446072906936
 40
2.822224083322215
 40
2.822224083322215
 40
2.822224083322215
 40
3.175002093737492
 40
3.175002093737492
 40
3.175002093737492
 40
3.527780104152768
 40
3.527780104152768
 40
3.527780104152768
 40
3.880558114568044
 40
3.880558114568044
 40
3.880558114568044
 40
4.233336124983321
 40
4.233336124983321
 40
4.233336124983321
 40
4.586114135398599
 40
4.586114135398599
 40
4.586114135398599
 40
4.938892145813873
 40
4.938892145813873
 40
4.938892145813873
 40
5.291670156229153
 40
5.291670156229153
 40
5.291670156229153
 40
5.64444816664443
 40
5.64444816664443
 40
5.64444816664443
 40
5.997226177059705
 40
5.997226177059705
 40
5.997226177059705
 40
6.350004187474984
 40
6.350004187474984
 40
6.350004187474984
 40
6.702782197890257
 40
6.702782197890257
 40
6.702782197890257
 40
7.055560208305537
 40
7.055560208305537
 40
7.055560208305537
 40
7.408338218720808
 40
7.408338218720808
 40
7.408338218720808
 40
7.76111622913609
 40
7.76111622913609
 40
7.76111622913609
 40
8.113894239551369
 40
8.113894239551369
 40
8.113894239551369
 40
8.466672249966642
 40
8.466672249966642
 40
8.466672249966642
 40
8.819450260381922
 40
8.819450260381922
 40
8.819450260381922
 40
9.172228270797198
 40
9.172228270797198
 40
9.172228270797198
 40
9.525006281212476
 40
9.525006281212476
 40
9.525006281212476
 40
9.877784291627751
 40
9.877784291627751
 40
9.877784291627751
 40
10.23056230204303
 40
10.23056230204303
 40
10.23056230204303
 40
10.58334031245831
 40
10.58334031245831
 40
10.58334031245831
 40
10.93611832287358
 40
10.93611832287358
 40
10.93611832287358
 40
11.28889633328886
 40
11.28889633328886
 40
11.28889633328886
 40
11.64167434370414
 40
11.64167434370414
 40
11.64167434370414
 40
11.99445235411941
 40
11.99445235411941
 40
11.99445235411941
 40
12.34723036453469
 40
12.34723036453469
 40
12.34723036453469
 40
12.70000837494997
 40
12.70000837494997
 40
12.70000837494997
 40
13.05278638536524
 40
13.05278638536524
 40
13.05278638536524
 40
13.40556439578052
 40
13.40556439578052
 40
13.40556439578052
 40
13.7583424061958
 40
13.7583424061958
 40
13.7583424061958
 40
14.11112041661107
 40
14.11112041661107
 40
14.11112041661107
 40
14.46389842702635
 40
14.46389842702635
 40
14.46389842702635
 40
14.81667643744163
 40
14.81667643744163
 40
14.81667643744163
 40
14.81667643744163
 10
173.3972823146245
 20
126.8274843518258
 10
173.3972823146245
 20
126.8274843518258
 10
173.3972823146245
 20
126.7217198506564
 10
173.3972823146245
 20
126.7217198506564
 10
173.3972823146245
 20
126.7217198506564
 10
173.4186419207238
 20
126.7217198506564
 10
173.4186419207238
 20
126.7217198506564
 10
173.4186419207238
 20
126.7217198506564
 10
173.4820317194703
 20
126.7007047543328
 10
173.4820317194703
 20
126.7007047543328
 10
173.4820317194703
 20
126.7007047543328
 10
173.5244064218933
 20
126.6793451482334
 10
173.5244064218933
 20
126.6793451482334
 10
173.5244064218933
 20
126.6793451482334
 10
173.5877962206398
 20
126.6793451482334
 10
173.5877962206398
 20
126.6793451482334
 10
173.5877962206398
 20
126.6793451482334
 10
173.6301709230627
 20
126.6583300519099
 10
173.6301709230627
 20
126.6583300519099
 10
173.7955356154449
 20
126.5911506456296
 10
173.759706598762
 20
126.6380039751379
 10
173.9478089363468
 20
126.5525655507404
 10
173.9478089363468
 20
126.5525655507404
 10
173.9688240326703
 20
126.4464565397952
 10
173.9688240326703
 20
126.4464565397952
 10
173.9688240326703
 20
126.4464565397952
 10
174.0325583411926
 20
126.5101908483175
 10
174.0325583411926
 20
126.5101908483175
 10
174.0325583411926
 20
126.5101908483175
 10
174.0749330436156
 20
126.5101908483175
 10
174.0749330436156
 20
126.5101908483175
 10
174.0749330436156
 20
126.5101908483175
 10
174.1593379386856
 20
126.4678161458946
 10
174.1593379386856
 20
126.4678161458946
 10
174.1593379386856
 20
126.4678161458946
 10
174.180697544785
 20
126.4464565397952
 10
174.180697544785
 20
126.4464565397952
 10
174.2464989119621
 20
126.3982251711837
 10
174.3298702777047
 20
126.3716979184474
 10
174.3922265471239
 20
126.3196769423022
 10
174.608234176548
 20
126.2059887162895
 10
174.7749769080334
 20
126.0278771622029
 10
174.9637682651697
 20
125.8749148217494
 10
174.9637682651697
 20
125.8749148217494
 10
175.0061429675926
 20
125.9172895241723
 10
175.0061429675926
 20
125.9172895241723
 10
174.961356696739
 20
125.9631093243532
 10
174.782211613325
 20
126.1246844092016
 10
174.7308796567315
 20
126.1501781326105
 10
174.7308796567315
 20
126.1501781326105
 10
174.6885049543085
 20
126.1925528350335
 10
174.6885049543085
 20
126.1925528350335
 10
174.6885049543085
 20
126.1925528350335
 10
174.667489857985
 20
126.2349275374564
 10
174.667489857985
 20
126.2349275374564
 10
174.667489857985
 20
126.2349275374564
 10
174.625115155562
 20
126.2559426337799
 10
174.625115155562
 20
126.2559426337799
 10
174.625115155562
 20
126.2559426337799
 10
174.5827404531391
 20
126.2983173362029
 10
174.5827404531391
 20
126.2983173362029
 10
174.5827404531391
 20
126.2983173362029
 10
174.5403657507162
 20
126.3196769423022
 10
174.5403657507162
 20
126.3196769423022
 10
174.5403657507162
 20
126.3196769423022
 10
174.4979910482932
 20
126.3620516447252
 10
174.4979910482932
 20
126.3620516447252
 10
174.4735308542117
 20
126.3875453681341
 10
174.3247026310678
 20
126.4695386947736
 10
174.2864620459544
 20
126.4888312422181
 10
174.2864620459544
 20
126.4888312422181
 10
174.2654469496308
 20
126.5101908483175
 10
174.2654469496308
 20
126.5101908483175
 10
174.2654469496308
 20
126.5101908483175
 10
174.2230722472079
 20
126.5312059446411
 10
174.2230722472079
 20
126.5312059446411
 10
174.2230722472079
 20
126.5312059446411
 10
174.2017126411085
 20
126.5525655507404
 10
174.2017126411085
 20
126.5525655507404
 10
174.2017126411085
 20
126.5525655507404
 10
174.1383228423621
 20
126.573580647064
 10
174.1383228423621
 20
126.573580647064
 10
174.1383228423621
 20
126.573580647064
 10
174.1169632362627
 20
126.5945957433876
 10
174.1169632362627
 20
126.5945957433876
 10
174.1169632362627
 20
126.5945957433876
 10
174.0959481399391
 20
126.7007047543328
 10
174.0959481399391
 20
126.7007047543328
 10
174.0959481399391
 20
126.7007047543328
 10
174.0325583411926
 20
126.6369704458105
 10
174.0325583411926
 20
126.6369704458105
 10
174.0325583411926
 20
126.6369704458105
 10
173.9901836387697
 20
126.6369704458105
 10
173.9901836387697
 20
126.6369704458105
 10
173.9901836387697
 20
126.6369704458105
 10
173.9054342339239
 20
126.6793451482334
 10
173.9054342339239
 20
126.6793451482334
 10
173.9054342339239
 20
126.6793451482334
 10
173.8420444351773
 20
126.7007047543328
 10
173.8420444351773
 20
126.7007047543328
 10
173.8420444351773
 20
126.7007047543328
 10
173.7996697327544
 20
126.7217198506564
 10
173.7996697327544
 20
126.7217198506564
 10
173.7996697327544
 20
126.7217198506564
 10
173.7572950303315
 20
126.7217198506564
 10
173.7572950303315
 20
126.7217198506564
 10
173.7572950303315
 20
126.7217198506564
 10
173.6725456254856
 20
126.7640945530793
 10
173.6725456254856
 20
126.7640945530793
 10
173.6725456254856
 20
126.7640945530793
 10
173.6515305291621
 20
126.7640945530793
 10
173.6515305291621
 20
126.7640945530793
 10
173.6515305291621
 20
126.7640945530793
 10
173.5667811243162
 20
126.7851096494029
 10
173.5667811243162
 20
126.7851096494029
 10
173.5667811243162
 20
126.7851096494029
 10
173.5033913255697
 20
126.8064692555022
 10
173.5033913255697
 20
126.8064692555022
 10
173.5033913255697
 20
126.8064692555022
 10
173.4396570170474
 20
126.8064692555022
 10
173.4396570170474
 20
126.8064692555022
 10
173.4396570170474
 20
126.8064692555022
 10
173.4186419207238
 20
126.8274843518258
 10
173.4186419207238
 20
126.8274843518258
 10
173.4186419207238
 20
126.8274843518258
 10
173.3972823146245
 20
126.8274843518258
 10
173.3972823146245
 20
126.8274843518258
 72
     1
 10
173.3972823146245
 20
126.8274843518258
 11
173.3972823146245
 21
126.8274843518258
 97
        0
 75
     0
 76
     1
 98
        0
450
        0
451
        0
460
0.0
461
0.0
452
        0
462
0.0
453
        0
470

  0
HATCH
  5
23
330
2
100
AcDbEntity
  8
图层 1
 62
     7
100
AcDbHatch
 10
0.0
 20
0.0
 30
0.0
210
0.0
220
0.0
230
1.0
  2
SOLID
 70
     1
 71
     0
 91
        1
 92
        1
 93
        2
 72
     4
 94
        3
 73
     0
 74
     0
 95
       47
 96
       43
 40
0.0
 40
0.0
 40
0.0
 40
0.0
 40
0.3527780104152769
 40
0.3527780104152769
 40
0.3527780104152769
 40
0.7055560208305538
 40
0.7055560208305538
 40
0.7055560208305538
 40
1.058334031245828
 40
1.058334031245828
 40
1.058334031245828
 40
1.411112041661104
 40
1.411112041661104
 40
1.411112041661104
 40
1.763890052076384
 40
1.763890052076384
 40
1.763890052076384
 40
2.116668062491659
 40
2.116668062491659
 40
2.116668062491659
 40
2.469446072906936
 40
2.469446072906936
 40
2.469446072906936
 40
2.822224083322215
 40
2.822224083322215
 40
2.822224083322215
 40
3.175002093737492
 40
3.175002093737492
 40
3.175002093737492
 40
3.527780104152768
 40
3.527780104152768
 40
3.527780104152768
 40
3.880558114568044
 40
3.880558114568044
 40
3.880558114568044
 40
4.233336124983321
 40
4.233336124983321
 40
4.233336124983321
 40
4.586114135398599
 40
4.586114135398599
 40
4.586114135398599
 40
4.938892145813873
 40
4.938892145813873
 40
4.938892145813873
 40
4.938892145813873
 10
180.1920486226523
 20
255.6479577566324
 10
180.1920486226523
 20
255.6479577566324
 10
180.2130637189759
 20
255.6055830542095
 10
180.2130637189759
 20
255.6055830542095
 10
180.2130637189759
 20
255.6055830542095
 10
180.2130637189759
 20
255.5210059042515
 10
180.2130637189759
 20
255.5210059042515
 10
180.2130637189759
 20
255.5210059042515
 10
180.1920486226523
 20
255.4786312018286
 10
180.1920486226523
 20
255.4786312018286
 10
180.1920486226523
 20
255.4786312018286
 10
180.1496739202294
 20
255.4359119896299
 10
180.1496739202294
 20
255.4359119896299
 10
180.1496739202294
 20
255.4359119896299
 10
180.1283143141301
 20
255.4147246384184
 10
180.1283143141301
 20
255.4147246384184
 10
180.1283143141301
 20
255.4147246384184
 10
180.0225498129606
 20
255.4147246384184
 10
180.0225498129606
 20
255.4147246384184
 10
180.0225498129606
 20
255.4147246384184
 10
179.9591600142141
 20
255.4359119896299
 10
179.9591600142141
 20
255.4359119896299
 10
179.9591600142141
 20
255.4359119896299
 10
179.9167853117912
 20
255.4570993408414
 10
179.9167853117912
 20
255.4570993408414
 10
179.9167853117912
 20
255.4570993408414
 10
179.8957702154676
 20
255.4786312018286
 10
179.8957702154676
 20
255.4786312018286
 10
179.8957702154676
 20
255.4786312018286
 10
179.8744106093683
 20
255.4994740432643
 10
179.8744106093683
 20
255.4994740432643
 10
179.8744106093683
 20
255.4994740432643
 10
179.8744106093683
 20
255.6479577566324
 10
179.8744106093683
 20
255.6479577566324
 10
179.9608825630931
 20
255.7323626517025
 10
180.045631967939
 20
255.7085914771726
 10
180.1496739202294
 20
255.7115198102668
 10
180.1496739202294
 20
255.7115198102668
 10
180.170689016553
 20
255.6688005980681
 10
180.170689016553
 20
255.6688005980681
 10
180.170689016553
 20
255.6688005980681
 10
180.1920486226523
 20
255.6479577566324
 10
180.1920486226523
 20
255.6479577566324
 72
     1
 10
180.1920486226523
 20
255.6479577566324
 11
180.1920486226523
 21
255.6479577566324
 97
        0
 75
     0
 76
     1
 98
        0
450
        0
451
        0
460
0.0
461
0.0
452
        0
462
0.0
453
        0
470

  0
MTEXT
  5
480
102
{ACAD_XDICTIONARY
360
DD2
102
}
330
2
100
AcDbEntity
  8
打标文字
 62
     3
100
AcDbMText
 10
742.4523214733905
 20
219.0258525082236
 30
0.0
 40
0.75
 41
21.56370451087032
 46
26.95590277395973
 71
     1
 72
     5
  3
\A1;{\f仿宋_GB2312|b0|i0|c134|p49;技术参数}:\P- {\f仿宋_GB2312|b0|i0|c134|p49;材料}: {\f仿宋_GB2312|b0|i0|c134|p49;铜合金}\P- {\f仿宋_GB2312|b0|i0|c134|p49;表面处理}: {\f仿宋_GB2312|b0|i0|c134|p49;镀银}\P- {\f仿宋_GB2312|b0|i0|c134|p49;额定电流}: 10A\P- {\f仿宋_GB2312|b0|i0|c134|p49
  3
;接触电阻}: ≤3mΩ\P- {\f仿宋_GB2312|b0|i0|c134|p49;线径范围}: 2.5mm{\H0.7x;\S2^ ;}(14 AWG)\P- {\f仿宋_GB2312|b0|i0|c134|p49;可插拔次数}: {\f仿宋_GB2312|b0|i0|c134|p49;≥}500\P\PTechnical specification:\P- Material: copper alloy\P- Surface: hard-silver plated\P- Rated curr
  1
ent: 10A\P- Contact resistance: ≤3mΩ\P- Wire gauge: 2.5mm{\H0.7x;\S2^ ;}(14 AWG)\P- Mating cycles: {\f仿宋_GB2312|b0|i0|c134|p49;≥}500
  7
Romans字体
 73
     1
 44
1.0
1001
ACAD
1000
MTEXTBEGIN
1070
    73
1070
     1
1070
    44
1040
1.0
1070
    74
1070
     0
1000
MTEXTEND
1000
ACAD_MTEXT_DEFINED_HEIGHT_BEGIN
1070
    46
1040
26.95590277395973
1000
ACAD_MTEXT_DEFINED_HEIGHT_END
  0
MTEXT
  5
533
330
2
100
AcDbEntity
  8
图框
 62
     3
100
AcDbMText
 10
755.6951633939372
 20
191.9592824318357
 30
0.0
 40
0.746378394635083
 41
8.403098007973925
 46
2.218038889596384
 71
     5
 72
     5
  1
1010171201001
  7
Romans字体
 73
     1
 44
1.0
1001
ACAD
1000
MTEXTBEGIN
1070
    73
1070
     1
1070
    44
1040
1.0
1070
    74
1070
     0
1000
MTEXTEND
1000
ACAD_MTEXT_DEFINED_HEIGHT_BEGIN
1070
    46
1040
2.218038889596384
1000
ACAD_MTEXT_DEFINED_HEIGHT_END
  0
INSERT
  5
534
330
2
100
AcDbEntity
  8
DIM
100
AcDbBlockReference
  2
A4图框-NEW
 10
478.1645864144678
 20
64.67193803782954
 30
0.0
 41
0.25
 42
0.25
 43
0.25
  0
MTEXT
  5
535
330
2
100
AcDbEntity
  8
图框
 62
     3
100
AcDbMText
 10
744.0839055752239
 20
188.55318539734
 30
0.0
 40
0.746378394635083
 41
2.707336787601192
 46
1.971523801091308
 71
     5
 72
     5
  1
0.7g
  7
Romans字体
 73
     1
 44
1.0
1001
ACAD
1000
MTEXTBEGIN
1070
    73
1070
     1
1070
    44
1040
1.0
1070
    74
1070
     0
1000
MTEXTEND
1000
ACAD_MTEXT_DEFINED_HEIGHT_BEGIN
1070
    46
1040
1.971523801091308
1000
ACAD_MTEXT_DEFINED_HEIGHT_END
  0
MTEXT
  5
536
330
2
100
AcDbEntity
  8
图框
 62
     3
100
AcDbMText
 10
738.6817468353596
 20
188.6323735126634
 30
0.0
 40
0.7463783937585367
 41
2.707337108597616
 46
1.971523650302624
 71
     5
 72
     5
  1
4:1
  7
Romans字体
 73
     1
 44
1.0
1001
ACAD
1000
MTEXTBEGIN
1070
    73
1070
     1
1070
    44
1040
1.0
1070
    74
1070
     0
1000
MTEXTEND
1000
ACAD_MTEXT_DEFINED_HEIGHT_BEGIN
1070
    46
1040
1.971523650302624
1000
ACAD_MTEXT_DEFINED_HEIGHT_END
  0
MTEXT
  5
537
330
2
100
AcDbEntity
  8
图框
 62
     3
100
AcDbMText
 10
755.6951630680059
 20
194.1541449140563
 30
0.0
 40
0.7463783937585367
 41
8.403097998105339
 46
2.171686376421464
 71
     5
 72
     5
  1
CDSF-2.5
  7
Romans字体
 73
     1
 44
1.0
1001
ACAD
1000
MTEXTBEGIN
1070
    73
1070
     1
1070
    44
1040
1.0
1070
    74
1070
     0
1000
MTEXTEND
1000
ACAD_MTEXT_DEFINED_HEIGHT_BEGIN
1070
    46
1040
2.171686376421464
1000
ACAD_MTEXT_DEFINED_HEIGHT_END
  0
LINE
  5
B5A
330
2
100
AcDbEntity
  8
1
  6
Continuous
 62
     7
370
    50
100
AcDbLine
 10
697.1522944207535
 20
198.6768553477386
 30
0.0000000000000011
 11
697.1778624618994
 21
198.729901096393
 31
0.0000000000000009
  0
LINE
  5
B5B
330
2
100
AcDbEntity
  8
1
  6
Continuous
 62
     7
370
    50
100
AcDbLine
 10
700.6028906271902
 20
209.8342423820326
 30
0.0000000000000019
 11
700.4353668704752
 21
209.3278298231383
 31
0.0000000000000014
  0
LINE
  5
B5C
330
2
100
AcDbEntity
  8
1
  6
Continuous
 62
     7
370
    50
100
AcDbLine
 10
698.1290019286407
 20
202.3558504762024
 30
0.0000000000000009
 11
697.5105297540034
 21
200.4862524997448
 31
0.0000000000000008
  0
LINE
  5
B5D
330
2
100
AcDbEntity
  8
1
  6
Continuous
 62
     7
370
    50
100
AcDbLine
 10
701.3423417236601
 20
206.8683022186026
 30
0.0000000000000013
 11
699.7432581535677
 21
202.0343848178978
 31
0.000000000000001
  0
LINE
  5
B5E
330
2
100
AcDbEntity
  8
1
  6
Continuous
 62
     7
370
    50
100
AcDbLine
 10
696.8445873925397
 20
198.6323578937693
 30
0.0000000000000008
 11
695.9826606622694
 21
196.0268138824924
 31
0.0000000000000006
  0
LINE
  5
B5F
330
2
100
AcDbEntity
  8
1
  6
Continuous
 62
     7
370
    50
100
AcDbLine
 10
698.9590897591361
 20
198.0990647486671
 30
0.0000000000000008
 11
699.047792198058
 21
198.3672059959468
 31
0.0000000000000008
  0
LINE
  5
B60
330
2
100
AcDbEntity
  8
1
  6
Continuous
 62
     7
370
    50
100
AcDbLine
 10
699.3002616278247
 20
198.1837401945122
 30
0.0000000000000004
 11
699.6788581728361
 21
199.7856176661406
 31
0.000000000000001
  0
LINE
  5
B61
330
2
100
AcDbEntity
  8
1
  6
Continuous
 62
     7
370
    50
100
AcDbLine
 10
697.8190850746869
 20
200.3841808872472
 30
0.000000000000001
 11
697.2501679830425
 21
198.6643844486533
 31
0.0000000000000008
  0
LINE
  5
B62
330
2
100
AcDbEntity
  8
1
  6
Continuous
 62
     7
370
    50
100
AcDbLine
 10
699.8346198394822
 20
201.9968315062588
 30
0.0000000000000007
 11
701.4561771808528
 21
206.8986855402155
 31
0.0000000000000014
  0
LINE
  5
B63
330
2
100
AcDbEntity
  8
1
  6
Continuous
 62
     7
370
    50
100
AcDbLine
 10
699.8365621714643
 20
199.7167895747635
 30
0.0000000000000012
 11
702.9289230446511
 21
209.0647794570514
 31
0.0000000000000016
  0
LINE
  5
B64
330
2
100
AcDbEntity
  8
1
  6
Continuous
 62
     7
370
    50
100
AcDbLine
 10
695.4659147270056
 20
195.9771465598786
 30
0.0000000000000005
 11
695.0020592853567
 21
194.5749441154688
 31
0.0000000000000004
  0
LINE
  5
B65
330
2
100
AcDbEntity
  8
1
  6
Continuous
 62
     7
370
    50
100
AcDbLine
 10
696.9845168498261
 20
189.9012359026979
 30
0.0000000000000001
 11
698.1825548202536
 21
193.5228206030015
 31
0.0000000000000004
  0
LINE
  5
B66
330
2
100
AcDbEntity
  8
1
  6
Continuous
 62
     7
370
    50
100
AcDbLine
 10
696.7787833188655
 20
188.8017182127797
 30
0.0
 11
697.0880194061842
 21
189.7365172010085
 31
0.0
  0
LINE
  5
B67
330
2
100
AcDbEntity
  8
1
  6
Continuous
 62
     7
370
    50
100
AcDbLine
 10
699.1544641634239
 20
200.1062290303041
 30
0.0000000000000006
 11
698.5756230820655
 21
200.3253139698019
 31
0.0000000000000004
  0
LINE
  5
B68
330
2
100
AcDbEntity
  8
1
  6
Continuous
 62
     7
370
    50
100
AcDbLine
 10
698.7129108049035
 20
198.5555155302609
 30
0.0000000000000004
 11
698.1643466054467
 21
198.7631485616005
 31
0.0000000000000004
  0
LINE
  5
B69
330
2
100
AcDbEntity
  8
1
  6
Continuous
 62
     7
370
    50
100
AcDbLine
 10
698.6884712941782
 20
198.530399116692
 30
0.0000000000000003
 11
698.1408370591516
 21
198.7376726104216
 31
0.0000000000000004
  0
LINE
  5
B6A
330
2
100
AcDbEntity
  8
1
  6
Continuous
 62
     7
370
    50
100
AcDbLine
 10
695.1444679700716
 20
194.5278346245343
 30
0.0000000000000003
 11
693.9464299996443
 21
190.9062499242308
 31
-0.0000000000000001
  0
LINE
  5
B6B
330
2
100
AcDbEntity
  8
1
  6
Continuous
 62
     7
370
    50
100
AcDbLine
 10
698.403633453383
 20
195.2259442165469
 30
0.0000000000000005
 11
699.2655601836532
 21
197.8314882278238
 31
0.0000000000000007
  0
LINE
  5
B6C
330
2
100
AcDbEntity
  8
1
  6
Continuous
 62
     7
370
    50
100
AcDbLine
 10
693.7651159526684
 20
190.8357499509816
 30
0.0000000000000002
 11
693.4558798653498
 21
189.9009509627529
 31
-0.0000000000000001
  0
LINE
  5
B6D
330
2
100
AcDbEntity
  8
1
  6
Continuous
 62
     7
370
    50
100
AcDbLine
 10
698.3249635049685
 20
193.4757111120671
 30
0.0000000000000004
 11
698.7888189466177
 21
194.8779135564769
 31
0.0000000000000004
  0
ELLIPSE
  5
B6E
330
2
100
AcDbEntity
  8
1
  6
Continuous
 62
     7
370
    50
100
AcDbEllipse
 10
701.7659068359208
 20
209.449510919542
 30
0.0000000000000015
 11
1.163016208730478
 21
-0.3847314624906394
 31
-0.0000000000000001
210
0.0000000000000001
220
0.0
230
1.0
 40
0.1747108866277669
 41
2.881153416559658
 42
3.141611082496508
  0
ELLIPSE
  5
B6F
330
2
100
AcDbEntity
  8
1
  6
Continuous
 62
     7
370
    50
100
AcDbEllipse
 10
699.2920181373712
 20
201.9711190137117
 30
0.0000000000000006
 11
-1.163016208730478
 21
0.3847314624906394
 31
0.0000000000000001
210
0.0000000000000001
220
0.0
230
1.0
 40
0.1747108866277669
 41
6.02274607014946
 42
6.283203735983945
  0
ELLIPSE
  5
B70
330
2
100
AcDbEntity
  8
1
  6
Continuous
 62
     7
370
    50
100
AcDbEllipse
 10
854.9227508811497
 20
265.5792565624082
 30
-0.0000000000001302
 11
-177.3915665579722
 21
-462.8406961053774
 31
0.0000000000000027
210
0.0
220
0.0
230
1.0
 40
0.2535445171080911
 41
4.934931353567136
 42
4.946264655586264
  0
ELLIPSE
  5
B71
330
2
100
AcDbEntity
  8
1
  6
Continuous
 62
     7
370
    50
100
AcDbEllipse
 10
698.0550737880965
 20
198.2319230607965
 30
0.0000000000000006
 11
-1.210486395556767
 21
0.40043483297274
 31
0.0000000000000001
210
0.0000000000000001
220
0.0
230
0.9999999999999998
 40
0.1747108866277669
 41
6.022746070149456
 42
6.283203735983932
  0
ELLIPSE
  5
B72
330
2
100
AcDbEntity
  8
1
  6
Continuous
 62
     7
370
    50
100
AcDbEllipse
 10
701.7659068359208
 20
209.449510919542
 30
0.0000000000000015
 11
1.163016208730478
 21
-0.3847314624906394
 31
-0.0000000000000001
210
0.0000000000000001
220
0.0
230
1.0
 40
0.1747108866277669
 41
0.0000184289065626
 42
2.881153416559658
  0
ELLIPSE
  5
B73
330
2
100
AcDbEntity
  8
1
  6
Continuous
 62
     7
370
    50
100
AcDbEllipse
 10
699.2920181373712
 20
201.9711190137117
 30
0.0000000000000008
 11
1.163016208730478
 21
-0.3847314624906394
 31
-0.0000000000000001
210
0.0000000000000001
220
0.0
230
1.0
 40
0.1747108866277669
 41
1.144023068234542
 42
1.310357089764765
  0
ELLIPSE
  5
B74
330
2
100
AcDbEntity
  8
1
  6
Continuous
 62
     7
370
    50
100
AcDbEllipse
 10
699.2920181373712
 20
201.9711190137117
 30
0.0000000000000008
 11
-1.163016208730478
 21
0.3847314624906394
 31
0.0000000000000001
210
0.0000000000000001
220
0.0
230
1.0
 40
0.1747108866277669
 41
4.451949743354558
 42
6.022746070149454
  0
ELLIPSE
  5
B75
330
2
100
AcDbEntity
  8
1
  6
Continuous
 62
     7
370
    50
100
AcDbEllipse
 10
698.6735459627339
 20
200.1015210372541
 30
0.0000000000000009
 11
-0.8544608880468816
 21
0.2826598499931229
 31
0.0
210
0.0
220
0.0
230
1.0
 40
0.1747108866277669
 41
5.366424053303002
 42
6.283184538675366
  0
ELLIPSE
  5
B76
330
2
100
AcDbEntity
  8
1
  6
Continuous
 62
     7
370
    50
100
AcDbEllipse
 10
698.6735459627339
 20
200.1015210372541
 30
0.0000000000000008
 11
-1.163016208730478
 21
0.3847314624906394
 31
0.0000000000000001
210
0.0000000000000001
220
0.0
230
1.0
 40
0.1747108866277669
 41
2.623640993734758
 42
2.881153416559665
  0
ELLIPSE
  5
B77
330
2
100
AcDbEntity
  8
1
  6
Continuous
 62
     7
370
    50
100
AcDbEllipse
 10
698.6735459627339
 20
200.1015210372541
 30
0.0000000000000008
 11
-1.163016208730478
 21
0.3847314624906394
 31
0.0000000000000001
210
0.0000000000000001
220
0.0
230
1.0
 40
0.1747108866277669
 41
6.022746070149453
 42
7.02879203007746
  0
ELLIPSE
  5
B78
330
2
100
AcDbEntity
  8
1
  6
Continuous
 62
     7
370
    50
100
AcDbEllipse
 10
698.6735459627339
 20
200.1015210372541
 30
0.0000000000000008
 11
-1.163016208730478
 21
0.3847314624906394
 31
0.0000000000000001
210
0.0000000000000001
220
0.0
230
1.0
 40
0.1747108866277669
 41
2.881153416559667
 42
6.022746070149453
  0
ELLIPSE
  5
B79
330
2
100
AcDbEntity
  8
1
  6
Continuous
 62
     7
370
    50
100
AcDbEllipse
 10
697.1273668368117
 20
195.4275300581777
 30
0.0000000000000005
 11
1.661452109805995
 21
-0.5496165017008402
 31
-0.0000000000000001
210
0.0000000000000001
220
0.0
230
0.9999999999999998
 40
0.174710886627767
 41
2.881153416559662
 42
3.141611082496436
  0
ELLIPSE
  5
B7A
330
2
100
AcDbEntity
  8
1
  6
Continuous
 62
     7
370
    50
100
AcDbEllipse
 10
695.4265676794264
 20
190.2861335759951
 30
0.0000000000000001
 11
1.661451726757825
 21
-0.5496163749866279
 31
-0.0000000000000001
210
0.0000000000000001
220
0.0
230
1.0
 40
0.1747108866277669
 41
0.0000184289066434
 42
2.881153416559665
  0
ELLIPSE
  5
B7B
330
2
100
AcDbEntity
  8
1
  6
Continuous
 62
     7
370
    50
100
AcDbEllipse
 10
695.1173315921076
 20
189.3513345877663
 30
0.0000000000000002
 11
1.56651162808595
 21
-0.5182097249873921
 31
-0.0000000000000001
210
0.0000000000000001
220
0.0
230
1.0
 40
0.1747108866277669
 41
6.022746070149456
 42
9.164338723739248
  0
ELLIPSE
  5
B7C
330
2
100
AcDbEntity
  8
1
  6
Continuous
 62
     7
370
    50
100
AcDbEllipse
 10
695.1173315921076
 20
189.3513345877663
 30
0.0000000000000002
 11
1.56651162808595
 21
-0.5182097249873921
 31
-0.0000000000000001
210
0.0000000000000001
220
0.0
230
1.0
 40
0.1747108866277669
 41
2.88115341655966
 42
6.022746070149456
  0
ELLIPSE
  5
B7D
330
2
100
AcDbEntity
  8
1
  6
Continuous
 62
     7
370
    50
100
AcDbEllipse
 10
695.1173315921076
 20
189.3513345877663
 30
0.0000000000000002
 11
-1.661451726757825
 21
0.5496163749866279
 31
0.0000000000000001
210
0.0000000000000001
220
0.0
230
1.0
 40
0.1747108866277669
 41
6.022746070149454
 42
9.164338723739252
  0
ELLIPSE
  5
B7E
330
2
100
AcDbEntity
  8
1
  6
Continuous
 62
     7
370
    50
100
AcDbEllipse
 10
695.1173315921076
 20
189.3513345877663
 30
0.0000000000000002
 11
-1.661451726757825
 21
0.5496163749866279
 31
0.0000000000000001
210
0.0000000000000001
220
0.0
230
1.0
 40
0.1747108866277669
 41
2.881153416559665
 42
6.022746070149457
  0
ELLIPSE
  5
B7F
330
2
100
AcDbEntity
  8
1
  6
Continuous
 62
     7
370
    50
100
AcDbEllipse
 10
696.9792996299676
 20
194.9799332839851
 30
0.0000000000000005
 11
-1.068076110058602
 21
0.3533248124914037
 31
0.0000000000000001
210
0.0000000000000001
220
0.0
230
1.0
 40
0.1747108866277669
 41
1.57287642588036
 42
2.200605907975771
  0
ELLIPSE
  5
B80
330
2
100
AcDbEntity
  8
1
  6
Continuous
 62
     7
370
    50
100
AcDbEllipse
 10
698.0550737880965
 20
198.2319230607965
 30
0.0000000000000006
 11
-1.210486395556767
 21
0.40043483297274
 31
0.0000000000000001
210
0.0000000000000001
220
0.0
230
0.9999999999999998
 40
0.1747108866277669
 41
3.141611082496408
 42
6.022746070149456
  0
ELLIPSE
  5
B81
330
2
100
AcDbEntity
  8
1
  6
Continuous
 62
     7
370
    50
100
AcDbEllipse
 10
695.4265676794264
 20
190.2861335759951
 30
0.0000000000000001
 11
1.661451726757825
 21
-0.5496163749866279
 31
-0.0000000000000001
210
0.0000000000000001
220
0.0
230
1.0
 40
0.1747108866277669
 41
2.881153416559665
 42
3.141611082394108
  0
ELLIPSE
  5
B82
330
2
100
AcDbEntity
  8
1
  6
Continuous
 62
     7
370
    50
100
AcDbEllipse
 10
696.6635113951626
 20
194.0253276137679
 30
0.0000000000000005
 11
1.519043425090933
 21
-0.5025070107664014
 31
-0.0000000000000001
210
0.0000000000000001
220
0.0
230
1.0
 40
0.1747108866277669
 41
2.881153416559662
 42
3.141611082394118
  0
ELLIPSE
  5
B83
330
2
100
AcDbEntity
  8
1
  6
Continuous
 62
     7
370
    50
100
AcDbEllipse
 10
696.6635113951626
 20
194.0253276137679
 30
0.0000000000000005
 11
-1.661452109805995
 21
0.5496165017008402
 31
0.0000000000000001
210
0.0000000000000001
220
0.0
230
0.9999999999999998
 40
0.174710886627767
 41
2.72451557034708
 42
2.881153416559662
  0
ELLIPSE
  5
B84
330
2
100
AcDbEntity
  8
1
  6
Continuous
 62
     7
370
    50
100
AcDbEllipse
 10
696.6635113951626
 20
194.0253276137679
 30
0.0000000000000005
 11
-1.661452109805995
 21
0.5496165017008402
 31
0.0000000000000001
210
0.0000000000000001
220
0.0
230
0.9999999999999998
 40
0.174710886627767
 41
6.022746070149456
 42
6.700250161034812
  0
ELLIPSE
  5
B85
330
2
100
AcDbEntity
  8
1
  6
Continuous
 62
     7
370
    50
100
AcDbEllipse
 10
697.1273668368117
 20
195.4275300581777
 30
0.0000000000000005
 11
1.661452109805995
 21
-0.5496165017008402
 31
-0.0000000000000001
210
0.0000000000000001
220
0.0
230
0.9999999999999998
 40
0.174710886627767
 41
0.0000184289066363
 42
2.881153416559662
  0
ELLIPSE
  5
B86
330
2
100
AcDbEntity
  8
1
  6
Continuous
 62
     7
370
    50
100
AcDbEllipse
 10
696.6635113951626
 20
194.0253276137679
 30
0.0000000000000005
 11
-1.661452109805995
 21
0.5496165017008402
 31
0.0000000000000001
210
0.0000000000000001
220
0.0
230
0.9999999999999998
 40
0.174710886627767
 41
2.88115341655966
 42
6.022746070149456
  0
ELLIPSE
  5
B87
330
2
100
AcDbEntity
  8
1
  6
Continuous
 62
     7
370
    50
100
AcDbEllipse
 10
696.6635113951626
 20
194.0253276137679
 30
0.0000000000000005
 11
1.519043425090933
 21
-0.5025070107664014
 31
-0.0000000000000001
210
0.0000000000000001
220
0.0
230
1.0
 40
0.1747108866277669
 41
0.0000184289066318
 42
2.881153416559662
  0
SPLINE
  5
B88
330
2
100
AcDbEntity
  8
1
  6
Continuous
 62
     7
370
    50
100
AcDbSpline
210
0.0
220
0.0
230
1.0
 70
     8
 71
     3
 72
     8
 73
     4
 74
     0
 42
0.0000000001
 43
0.0000000001
 40
0.0
 40
0.0
 40
0.0
 40
0.0
 40
1.0
 40
1.0
 40
1.0
 40
1.0
 10
697.3745603434864
 20
199.0425472322428
 30
0.0000000000000011
 10
697.315923183067
 20
198.9185365091365
 30
0.0000000000000011
 10
697.2575334642431
 20
198.7943996130278
 30
0.0000000000000012
 10
697.1994055004155
 20
198.6701327778632
 30
0.0000000000000011
  0
SPLINE
  5
B89
330
2
100
AcDbEntity
  8
1
  6
Continuous
 62
     7
370
    50
100
AcDbSpline
210
0.000000000000005
220
0.0000000000000014
230
1.0
 70
     8
 71
     2
 72
     8
 73
     5
 74
     0
 42
0.0000000001
 43
0.0000000001
 40
0.0
 40
0.0
 40
0.0
 40
0.5
 40
0.5
 40
1.0
 40
1.0
 40
1.0
 10
700.7792342336976
 20
208.2673020479366
 30
0.0000000000000015
 10
700.6901987195349
 20
208.532285902552
 30
0.000000000000002
 10
700.6719972262422
 20
208.7064080960057
 30
0.000000000000002
 10
700.6511919855507
 20
208.905438696754
 30
0.0000000000000013
 10
700.7275586882457
 20
208.9258213977658
 30
0.0000000000000009
  0
SPLINE
  5
B8A
330
2
100
AcDbEntity
  8
1
  6
Continuous
 62
     7
370
    50
100
AcDbSpline
210
0.0000000000002504
220
-0.0000000000000607
230
-1.0
 70
     8
 71
     3
 72
     8
 73
     4
 74
     0
 42
0.0000000001
 43
0.0000000001
 40
0.0
 40
0.0
 40
0.0
 40
0.0
 40
1.0
 40
1.0
 40
1.0
 40
1.0
 10
697.0748778832995
 20
198.6798613887213
 30
0.000000000000001
 10
697.0836883042673
 20
198.7033190190743
 30
0.0000000000000009
 10
697.089342238802
 20
198.7282758701788
 30
0.0000000000000007
 10
697.0918165743657
 20
198.754672210506
 30
0.0000000000000007
  0
SPLINE
  5
B8B
330
2
100
AcDbEntity
  8
1
  6
Continuous
 62
     7
370
    50
100
AcDbSpline
210
-0.0000000000008844
220
0.0000000000030105
230
1.0
 70
     8
 71
     3
 72
     8
 73
     4
 74
     0
 42
0.0000000001
 43
0.0000000001
 40
0.0
 40
0.0
 40
0.0
 40
0.0
 40
1.0
 40
1.0
 40
1.0
 40
1.0
 10
699.0784787778023
 20
198.1014387319221
 30
0.0000000000000007
 10
699.053164524739
 20
198.092835219991
 30
0.0000000000000008
 10
699.0261475998964
 20
198.0848904478934
 30
0.0000000000000009
 10
698.9974428263806
 20
198.0775881195833
 30
0.000000000000001
  0
SPLINE
  5
B8C
330
2
100
AcDbEntity
  8
1
  6
Continuous
 62
     7
370
    50
100
AcDbSpline
210
0.0000000186706919
220
-0.0000000086034197
230
0.9999999999999998
 70
     8
 71
     3
 72
     8
 73
     4
 74
     0
 42
0.0000000001
 43
0.0000000001
 40
0.0
 40
0.0
 40
0.0
 40
0.0
 40
1.0
 40
1.0
 40
1.0
 40
1.0
 10
697.7417554581371
 20
200.1503861558124
 30
0.0000000000000011
 10
697.5269535926968
 20
199.6840890594434
 30
0.0000000000000009
 10
697.3121807161978
 20
199.2180544996964
 30
0.000000000000001
 10
697.0975077868954
 20
198.7522554366428
 30
0.0000000000000009
  0
SPLINE
  5
B8D
330
2
100
AcDbEntity
  8
1
  6
Continuous
 62
     7
370
    50
100
AcDbSpline
210
0.000000000457635
220
0.000000001004045
230
1.0
 70
     8
 71
     3
 72
     8
 73
     4
 74
     0
 42
0.0000000001
 43
0.0000000001
 40
0.0
 40
0.0
 40
0.0
 40
0.0
 40
1.0
 40
1.0
 40
1.0
 40
1.0
 10
697.1611456262539
 20
198.7231292818889
 30
0.000000000000001
 10
697.1399455207262
 20
198.7328616153705
 30
0.0000000000000007
 10
697.1187188088972
 20
198.7425365885233
 30
0.0000000000000006
 10
697.0974658083678
 20
198.7521540431135
 30
0.0000000000000007
  0
SPLINE
  5
B8E
330
2
100
AcDbEntity
  8
1
  6
Continuous
 62
     7
370
    50
100
AcDbSpline
210
0.0000000003710227
220
-0.0000000001737997
230
1.0
 70
     8
 71
     3
 72
     8
 73
     4
 74
     0
 42
0.0000000001
 43
0.0000000001
 40
0.0
 40
0.0
 40
0.0
 40
0.0
 40
1.0
 40
1.0
 40
1.0
 40
1.0
 10
697.5500429813879
 20
199.5678291109023
 30
0.000000000000001
 10
697.4189093059814
 20
199.2869897521533
 30
0.0000000000000009
 10
697.2874275715557
 20
199.0063054160872
 30
0.0000000000000008
 10
697.1555983268011
 20
198.7257783851277
 30
0.0000000000000007
  0
SPLINE
  5
B8F
330
2
100
AcDbEntity
  8
1
  6
Continuous
 62
     7
370
    50
100
AcDbSpline
210
-0.000000021927018
220
0.0000000068581517
230
0.9999999999999998
 70
     8
 71
     3
 72
     8
 73
     4
 74
     0
 42
0.0000000001
 43
0.0000000001
 40
0.0
 40
0.0
 40
0.0
 40
0.0
 40
1.0
 40
1.0
 40
1.0
 40
1.0
 10
697.1466039832522
 20
198.6766364756319
 30
0.0000000000000009
 10
697.1514686843701
 20
198.6921714807805
 30
0.0000000000000009
 10
697.1563158430365
 20
198.7076691111481
 30
0.0000000000000009
 10
697.1611456262427
 20
198.723129281894
 30
0.0000000000000008
  0
SPLINE
  5
B90
330
2
100
AcDbEntity
  8
1
  6
Continuous
 62
     7
370
    50
100
AcDbSpline
210
-0.0000000000598742
220
0.0000000000278088
230
1.0
 70
     8
 71
     3
 72
     8
 73
     4
 74
     0
 42
0.0000000001
 43
0.0000000001
 40
0.0
 40
0.0
 40
0.0
 40
0.0
 40
1.0
 40
1.0
 40
1.0
 40
1.0
 10
697.4856024477884
 20
199.3837489462244
 30
0.000000000000001
 10
697.3836568279515
 20
199.1655024978457
 30
0.000000000000001
 10
697.2821860965345
 20
198.9470327618615
 30
0.0000000000000011
 10
697.1811976977014
 20
198.7283403180003
 30
0.0000000000000011
  0
SPLINE
  5
B91
330
2
100
AcDbEntity
  8
1
  6
Continuous
 62
     7
370
    50
100
AcDbSpline
210
0.000000000000007
220
0.0000000000000016
230
1.0
 70
     8
 71
     2
 72
    12
 73
     9
 74
     0
 42
0.0000000001
 43
0.0000000001
 40
0.0
 40
0.0
 40
0.0
 40
0.2880962241388622
 40
0.2880962241388622
 40
0.5761924482777246
 40
0.5761924482777246
 40
0.8642886724165867
 40
0.8642886724165867
 40
1.0
 40
1.0
 40
1.0
 10
700.5048016748413
 20
209.4061914269981
 30
0.0000000000000012
 10
700.4378514765322
 20
209.3883220437897
 30
0.0000000000000012
 10
700.4226838261057
 20
209.2683370221716
 30
0.0000000000000013
 10
700.4101690804917
 20
209.1693380354579
 30
0.0000000000000016
 10
700.4354806998199
 20
209.0085935729557
 30
0.0000000000000015
 10
700.4593619485311
 20
208.8569328499408
 30
0.0000000000000018
 10
700.5148474911196
 20
208.6633613457067
 30
0.000000000000002
 10
700.5418040682297
 20
208.5693183763708
 30
0.0000000000000019
 10
700.575311654251
 20
208.4688584350072
 30
0.0000000000000017
  0
SPLINE
  5
B92
330
2
100
AcDbEntity
  8
1
  6
Continuous
 62
     7
370
    50
100
AcDbSpline
210
0.0000000008225792
220
-0.000000003065388
230
1.0
 70
     8
 71
     3
 72
     8
 73
     4
 74
     0
 42
0.0000000001
 43
0.0000000001
 40
0.0
 40
0.0
 40
0.0
 40
0.0
 40
1.0
 40
1.0
 40
1.0
 40
1.0
 10
699.0187017465943
 20
198.124197346133
 30
0.0000000000000009
 10
698.9999300450488
 20
198.1191419503398
 30
0.0000000000000009
 10
698.9811649008503
 20
198.114106423992
 30
0.0000000000000008
 10
698.9624062691824
 20
198.1090907867971
 30
0.0000000000000008
  0
SPLINE
  5
B93
330
2
100
AcDbEntity
  8
1
  6
Continuous
 62
     7
370
    50
100
AcDbSpline
210
-0.0000000906353999
220
0.0000000297832704
230
-0.9999999999999955
 70
     8
 71
     3
 72
     8
 73
     4
 74
     0
 42
0.0000000001
 43
0.0000000001
 40
0.0
 40
0.0
 40
0.0
 40
0.0
 40
1.0
 40
1.0
 40
1.0
 40
1.0
 10
699.0910346966812
 20
198.3443186848879
 30
0.0000000000000009
 10
699.0669275622242
 20
198.2709343297019
 30
0.0000000000000009
 10
699.0428123633583
 20
198.1975480630829
 30
0.0000000000000008
 10
699.0186894098488
 20
198.1241599645089
 30
0.0000000000000008
  0
SPLINE
  5
B94
330
2
100
AcDbEntity
  8
1
  6
Continuous
 62
     7
370
    50
100
AcDbSpline
210
-0.0000003377010119
220
0.0000012498383459
230
0.999999999999162
 70
     8
 71
     3
 72
     8
 73
     4
 74
     0
 42
0.0000000001
 43
0.0000000001
 40
0.0
 40
0.0
 40
0.0
 40
0.0
 40
1.0
 40
1.0
 40
1.0
 40
1.0
 10
699.2497821673826
 20
198.1454302651753
 30
0.0000000000000007
 10
699.1938611664708
 20
198.130317534059
 30
0.0000000000000006
 10
699.1379223690808
 20
198.115204060373
 30
0.0000000000000008
 10
699.0819703131871
 20
198.1000878973024
 30
0.000000000000001
  0
SPLINE
  5
B95
330
2
100
AcDbEntity
  8
1
  6
Continuous
 62
     7
370
    50
100
AcDbSpline
210
-0.000000000178116
220
0.0000000006658157
230
1.0
 70
     8
 71
     3
 72
     8
 73
     4
 74
     0
 42
0.0000000001
 43
0.0000000001
 40
0.0
 40
0.0
 40
0.0
 40
0.0
 40
1.0
 40
1.0
 40
1.0
 40
1.0
 10
699.18674339189
 20
198.1690363988052
 30
0.0000000000000006
 10
699.1307447332982
 20
198.1541381462795
 30
0.0000000000000007
 10
699.0747173351537
 20
198.1391498659441
 30
0.0000000000000007
 10
699.0186607246883
 20
198.1240717533279
 30
0.0000000000000008
  0
SPLINE
  5
B96
330
2
100
AcDbEntity
  8
1
  6
Continuous
 62
     7
370
    50
100
AcDbSpline
210
0.0000000000000018
220
0.0000000000000004
230
1.0
 70
     8
 71
     3
 72
    16
 73
    12
 74
     0
 42
0.0000000001
 43
0.0000000001
 40
0.0
 40
0.0
 40
0.0
 40
0.0
 40
0.0627464797847868
 40
0.1287954253806228
 40
0.1984765009237816
 40
0.30751828453089
 40
0.4323086079889182
 40
0.5390380860379485
 40
0.7088674160651128
 40
0.8681077199096353
 40
1.0
 40
1.0
 40
1.0
 40
1.0
 10
701.2307375623672
 20
208.3878108171799
 30
0.0000000000000009
 10
701.2466439347554
 20
208.360013101745
 30
0.000000000000001
 10
701.2792938619703
 20
208.3029546245791
 30
0.0000000000000009
 10
701.3223885277271
 20
208.2093151141787
 30
0.0000000000000008
 10
701.368062926856
 20
208.0899217894333
 30
0.0000000000000006
 10
701.4112926820565
 20
207.9362253453173
 30
0.0000000000000009
 10
701.4411412574461
 20
207.7592419726838
 30
0.0000000000000011
 10
701.4549784482244
 20
207.5481841763115
 30
0.0000000000000015
 10
701.4446973949319
 20
207.3186659498911
 30
0.0000000000000011
 10
701.4057075791867
 20
207.079157911085
 30
0.0000000000000009
 10
701.3620981679641
 20
206.9340435979317
 30
0.0000000000000013
 10
701.3423417236603
 20
206.8683022186025
 30
0.0000000000000014
  0
SPLINE
  5
B97
330
2
100
AcDbEntity
  8
1
  6
Continuous
 62
     7
370
    50
100
AcDbSpline
210
0.0000000000000128
220
0.0000000000000116
230
-1.0
 70
     8
 71
     2
 72
     8
 73
     5
 74
     0
 42
0.0000000001
 43
0.0000000001
 40
0.0
 40
0.0
 40
0.0
 40
0.5
 40
0.5
 40
1.0
 40
1.0
 40
1.0
 10
700.7275586882457
 20
208.9258213977658
 30
0.0000000000000009
 10
700.8031364396957
 20
208.9459935232679
 30
0.0000000000000012
 10
700.9519616423641
 20
208.7811321679686
 30
0.0000000000000013
 10
701.0797764289021
 20
208.6395451346023
 30
0.0000000000000008
 10
701.2307375623578
 20
208.3878108171925
 30
0.0000000000000008
  0
SPLINE
  5
B98
330
2
100
AcDbEntity
  8
1
  6
Continuous
 62
     7
370
    50
100
AcDbSpline
210
0.0000000000013335
220
0.0000000000037273
230
1.0
 70
     8
 71
     3
 72
     8
 73
     4
 74
     0
 42
0.0000000001
 43
0.0000000001
 40
0.0
 40
0.0
 40
0.0
 40
0.0
 40
1.0
 40
1.0
 40
1.0
 40
1.0
 10
699.1867093698648
 20
198.1689310115879
 30
0.0000000000000006
 10
699.2070894357055
 20
198.1610838123819
 30
0.0000000000000008
 10
699.2282127155236
 20
198.1535077104378
 30
0.0000000000000008
 10
699.2500222381866
 20
198.1462735191238
 30
0.0000000000000007
  0
SPLINE
  5
B99
330
2
100
AcDbEntity
  8
1
  6
Continuous
 62
     7
370
    50
100
AcDbSpline
210
0.0
220
0.0
230
1.0
 70
     8
 71
     2
 72
    13
 73
    10
 74
     0
 42
0.0000000001
 43
0.0000000001
 40
0.0
 40
0.0
 40
0.0
 40
0.158691765695922
 40
0.3690188242719414
 40
0.3690188242719414
 40
0.5793458828479611
 40
0.5793458828479611
 40
0.7896729414239805
 40
0.7896729414239805
 40
1.0
 40
1.0
 40
1.0
 10
700.4531780344446
 20
208.4238995450745
 30
0.0000000000000015
 10
700.4709729939352
 20
208.4718379925411
 30
0.0000000000000013
 10
700.5527746453041
 20
208.4939568830392
 30
0.0000000000000007
 10
700.6255517921
 20
208.4372108471306
 30
0.0000000000000015
 10
700.7054569006847
 20
208.3749069734467
 30
0.0000000000000011
 10
700.8076225281854
 20
208.2355278463812
 30
0.0000000000000005
 10
700.9202823468577
 20
208.0818320529317
 30
0.000000000000001
 10
701.0435679579201
 20
207.8564226786415
 30
0.0000000000000009
 10
701.1852844876391
 20
207.5973151151929
 30
0.0000000000000013
 10
701.3138659493263
 20
207.2931926541161
 30
0.0000000000000011
  0
SPLINE
  5
B9A
330
2
100
AcDbEntity
  8
1
  6
Continuous
 62
     7
370
    50
100
AcDbSpline
210
0.0
220
0.0
230
1.0
 70
     8
 71
     3
 72
    11
 73
     7
 74
     0
 42
0.0000000001
 43
0.0000000001
 40
0.0
 40
0.0
 40
0.0
 40
0.0
 40
0.0482295902901234
 40
0.3795124171898835
 40
0.7107793390311245
 40
1.0
 40
1.0
 40
1.0
 40
1.0
 10
700.4516744379229
 20
208.4214385914331
 30
0.0000000000000014
 10
700.4152052287754
 20
208.3236273822556
 30
0.0000000000000016
 10
700.1278592221337
 20
207.5541058064503
 30
0.0000000000000011
 10
699.5814126727736
 20
206.1160174564888
 30
0.0000000000000012
 10
698.8441921842271
 20
204.1924729314313
 30
0.0000000000000011
 10
698.3572969180823
 20
202.9409068159661
 30
0.0000000000000009
 10
698.1292027300415
 20
202.3579742565508
 30
0.0000000000000012
  0
SPLINE
  5
B9B
330
2
100
AcDbEntity
  8
1
  6
Continuous
 62
     7
370
    50
100
AcDbSpline
210
0.0
220
0.0
230
1.0
 70
     8
 71
     3
 72
     8
 73
     4
 74
     0
 42
0.0000000001
 43
0.0000000001
 40
0.0
 40
0.0
 40
0.0
 40
0.0
 40
1.0
 40
1.0
 40
1.0
 40
1.0
 10
699.2092087267576
 20
198.2564677582324
 30
0.0000000000000006
 10
699.2015841254185
 20
198.227369560475
 30
0.0000000000000006
 10
699.1939493160464
 20
198.1982752506531
 30
0.0000000000000006
 10
699.1863043391958
 20
198.1691848636026
 30
0.0000000000000006
  0
SPLINE
  5
B9C
330
2
100
AcDbEntity
  8
1
  6
Continuous
 62
     7
370
    50
100
AcDbSpline
210
-0.0000000000000012
220
0.0000000000000017
230
1.0
 70
     8
 71
     3
 72
     8
 73
     4
 74
     0
 42
0.0000000001
 43
0.0000000001
 40
0.0
 40
0.0
 40
0.0
 40
0.0
 40
1.0
 40
1.0
 40
1.0
 40
1.0
 10
699.2365318894854
 20
198.2176472680194
 30
0.0000000000000006
 10
699.2386125335817
 20
198.1951444952861
 30
0.0000000000000006
 10
699.2218674966298
 20
198.1776815827107
 30
0.0000000000000005
 10
699.1867093698648
 20
198.1689310115879
 30
0.0000000000000007
  0
SPLINE
  5
B9D
330
2
100
AcDbEntity
  8
1
  6
Continuous
 62
     7
370
    50
100
AcDbSpline
210
-0.0000000000000071
220
0.0000000000000072
230
1.0
 70
     8
 71
     3
 72
    10
 73
     6
 74
     0
 42
0.0000000001
 43
0.0000000001
 40
0.0
 40
0.0
 40
0.0
 40
0.0
 40
0.5
 40
0.5
 40
1.0
 40
1.0
 40
1.0
 40
1.0
 10
699.2975437677642
 20
198.2072996477393
 30
0.0000000000000005
 10
699.3032960635092
 20
198.1936842136226
 30
0.0000000000000006
 10
699.3020590008081
 20
198.1812937356711
 30
0.0000000000000005
 10
699.2858328368649
 20
198.1602982130358
 30
0.0000000000000007
 10
699.2708447810364
 20
198.1516953644579
 30
0.0000000000000005
 10
699.2494567412478
 20
198.1455555745454
 30
0.0000000000000007
  0
SPLINE
  5
B9E
330
2
100
AcDbEntity
  8
1
  6
Continuous
 62
     7
370
    50
100
AcDbSpline
210
0.000000000000007
220
0.000000000000006
230
-1.0
 70
     8
 71
     3
 72
    19
 73
    15
 74
     0
 42
0.0000000001
 43
0.0000000001
 40
0.0
 40
0.0
 40
0.0
 40
0.0
 40
0.0410764124207954
 40
0.0824920225670144
 40
0.1243939112859004
 40
0.1669241146648501
 40
0.2102184852726498
 40
0.2544058280036149
 40
0.3653529195023205
 40
0.4856607904632086
 40
0.6010852712709151
 40
0.7280306007877361
 40
0.8549219085317394
 40
1.0
 40
1.0
 40
1.0
 40
1.0
 10
700.5048016748396
 20
209.4061914269971
 30
0.0000000000000012
 10
700.5123562475128
 20
209.4075872693442
 30
0.0000000000000014
 10
700.5275277764439
 20
209.4103904805208
 30
0.0000000000000013
 10
700.5535906145793
 20
209.4072987815655
 30
0.0000000000000014
 10
700.5820824369472
 20
209.3988531910971
 30
0.0000000000000009
 10
700.6131779773169
 20
209.3844950003644
 30
0.0000000000000012
 10
700.6467281408267
 20
209.3643437870649
 30
0.0000000000000016
 10
700.7004399410333
 20
209.3254950815358
 30
0.0000000000000011
 10
700.7800808362434
 20
209.252857892129
 30
0.0000000000000012
 10
700.8852228401726
 20
209.1344002316292
 30
0.0000000000000008
 10
700.9968936410324
 20
208.9890446171251
 30
0.0000000000000012
 10
701.1103695409836
 20
208.8243717159106
 30
0.0000000000000013
 10
701.2306659851113
 20
208.6330843461934
 30
0.0000000000000013
 10
701.3092384843031
 20
208.49409297278
 30
0.0000000000000011
 10
701.3511518328551
 20
208.4199500609534
 30
0.0000000000000009
  0
SPLINE
  5
B9F
330
2
100
AcDbEntity
  8
1
  6
Continuous
 62
     7
370
    50
100
AcDbSpline
210
0.0000000000000008
220
0.0000000000000002
230
1.0
 70
     8
 71
     3
 72
    18
 73
    14
 74
     0
 42
0.0000000001
 43
0.0000000001
 40
0.0
 40
0.0
 40
0.0
 40
0.0
 40
0.0539856342139968
 40
0.1082894951745284
 40
0.1630383627668202
 40
0.2183559623935633
 40
0.3419423252804591
 40
0.4669322609350462
 40
0.5999745483302598
 40
0.7329332951518303
 40
0.822108920016605
 40
0.9109825200239464
 40
1.0
 40
1.0
 40
1.0
 40
1.0
 10
701.3511518328619
 20
208.4199500609409
 30
0.000000000000001
 10
701.3643033285038
 20
208.3952118895584
 30
0.0000000000000008
 10
701.3906838433317
 20
208.3455897237814
 30
0.000000000000001
 10
701.425515173137
 20
208.2679737831969
 30
0.0000000000000008
 10
701.4568551566513
 20
208.1879769250095
 30
0.0000000000000012
 10
701.4954677859726
 20
208.0718933679973
 30
0.0000000000000011
 10
701.5335519549363
 20
207.9168541401591
 30
0.0000000000000006
 10
701.5601553472183
 20
207.7181482381138
 30
0.0000000000000014
 10
701.5662371713509
 20
207.5128791355184
 30
0.0000000000000009
 10
701.5525441821144
 20
207.3270762544602
 30
0.0000000000000013
 10
701.5272015625923
 20
207.1666025837883
 30
0.0000000000000009
 10
701.4970947825664
 20
207.0307047933313
 30
0.0000000000000016
 10
701.4698237337839
 20
206.94271568006
 30
0.000000000000001
 10
701.4561771808529
 20
206.8986855402155
 30
0.0000000000000008
  0
SPLINE
  5
BA0
330
2
100
AcDbEntity
  8
1
  6
Continuous
 62
     7
370
    50
100
AcDbSpline
210
-0.0000000000000041
220
-0.0000000000000032
230
1.0
 70
     8
 71
     3
 72
    10
 73
     6
 74
     0
 42
0.0000000001
 43
0.0000000001
 40
0.0
 40
0.0
 40
0.0
 40
0.0
 40
0.3332916640623045
 40
0.3332916640623045
 40
1.0
 40
1.0
 40
1.0
 40
1.0
 10
699.6788435421298
 20
199.7856211018101
 30
0.0000000000000008
 10
699.6806154889473
 20
199.7931183443024
 30
0.0000000000000008
 10
699.6796304544897
 20
199.8012671869896
 30
0.0000000000000007
 10
699.6682854173143
 20
199.8271744443883
 30
0.0000000000000008
 10
699.6495335805048
 20
199.8463830617276
 30
0.0000000000000008
 10
699.6202154633167
 20
199.866038606
 30
0.0000000000000008
  0
SPLINE
  5
BA1
330
2
100
AcDbEntity
  8
1
  6
Continuous
 62
     7
370
    50
100
AcDbSpline
210
0.0000000000003714
220
-0.0000000000000724
230
1.0
 70
     8
 71
     3
 72
     8
 73
     4
 74
     0
 42
0.0000000001
 43
0.0000000001
 40
0.0
 40
0.0
 40
0.0
 40
0.0
 40
1.0
 40
1.0
 40
1.0
 40
1.0
 10
699.6202154633167
 20
199.866038606
 30
0.0000000000000008
 10
699.5237255228033
 20
199.3121500161705
 30
0.0000000000000006
 10
699.416381825545
 20
198.7587206859053
 30
0.0000000000000006
 10
699.2975437677642
 20
198.2072996477393
 30
0.0000000000000005
  0
SPLINE
  5
BA2
330
2
100
AcDbEntity
  8
1
  6
Continuous
 62
     7
370
    50
100
AcDbSpline
210
0.0000000000000628
220
0.000000000000101
230
1.0
 70
     8
 71
     3
 72
     9
 73
     5
 74
     0
 42
0.0000000001
 43
0.0000000001
 40
0.0
 40
0.0
 40
0.0
 40
0.0
 40
0.5164850850174348
 40
1.0
 40
1.0
 40
1.0
 40
1.0
 10
699.6204294658067
 20
199.8661214520629
 30
0.0000000000000006
 10
699.5946341456523
 20
199.8868398329875
 30
0.0000000000000008
 10
699.544690166818
 20
199.9269540231658
 30
0.0000000000000006
 10
699.4521122675958
 20
199.9764812972317
 30
0.0000000000000007
 10
699.4073494725238
 20
200.0004284729409
 30
0.0000000000000005
  0
SPLINE
  5
BA3
330
2
100
AcDbEntity
  8
1
  6
Continuous
 62
     7
370
    50
100
AcDbSpline
210
-0.0000000000000068
220
-0.0000000000000094
230
-1.0
 70
     8
 71
     3
 72
     9
 73
     5
 74
     0
 42
0.0000000001
 43
0.0000000001
 40
0.0
 40
0.0
 40
0.0
 40
0.0
 40
0.3919260971286364
 40
1.0
 40
1.0
 40
1.0
 40
1.0
 10
699.023078918977
 20
198.3805621364073
 30
0.0000000000000003
 10
699.0694518712918
 20
198.3553160953941
 30
0.0000000000000005
 10
699.1877725257586
 20
198.290900785472
 30
0.0000000000000004
 10
699.2179960673655
 20
198.24487140885
 30
0.0000000000000005
 10
699.2363742142689
 20
198.2168821461606
 30
0.0000000000000004
  0
SPLINE
  5
BA4
330
2
100
AcDbEntity
  8
1
  6
Continuous
 62
     7
370
    50
100
AcDbSpline
210
0.0
220
0.0
230
1.0
 70
    24
 71
     3
 72
     8
 73
     4
 74
     0
 42
0.0000000001
 43
0.0000000001
 40
0.0
 40
0.0
 40
0.0
 40
0.0
 40
1.0
 40
1.0
 40
1.0
 40
1.0
 10
699.2363742142689
 20
198.2168821461606
 30
0.0000000000000006
 10
699.2593392008793
 20
198.213341389911
 30
0.0000000000000004
 10
699.2823041874897
 20
198.2098006336613
 30
0.0000000000000005
 10
699.3052691741
 20
198.2062598774117
 30
0.0000000000000007
  0
SPLINE
  5
BA5
330
2
100
AcDbEntity
  8
1
  6
Continuous
 62
     7
370
    50
100
AcDbSpline
210
0.0000000000000178
220
0.0000000000000236
230
1.0
 70
     8
 71
     3
 72
     9
 73
     5
 74
     0
 42
0.0000000001
 43
0.0000000001
 40
0.0
 40
0.0
 40
0.0
 40
0.0
 40
0.4723090223325804
 40
1.0
 40
1.0
 40
1.0
 40
1.0
 10
699.0749370148654
 20
198.3890371126802
 30
0.0000000000000004
 10
699.1341307046377
 20
198.3554432926748
 30
0.0000000000000003
 10
699.2594590108388
 20
198.2843165125015
 30
0.0000000000000003
 10
699.2857334535716
 20
198.2337221540199
 30
0.0000000000000005
 10
699.2995982399451
 20
198.2070239675283
 30
0.0000000000000006
  0
SPLINE
  5
BA6
330
2
100
AcDbEntity
  8
1
  6
Continuous
 62
     7
370
    50
100
AcDbSpline
210
-0.0000000006274782
220
0.0000000001294416
230
-1.0
 70
     8
 71
     3
 72
     8
 73
     4
 74
     0
 42
0.0000000001
 43
0.0000000001
 40
0.0
 40
0.0
 40
0.0
 40
0.0
 40
1.0
 40
1.0
 40
1.0
 40
1.0
 10
699.4073494725238
 20
200.0004284729409
 30
0.0000000000000005
 10
699.2967634583181
 20
199.4633457230872
 30
0.0000000000000006
 10
699.1859624821572
 20
198.9262132058914
 30
0.0000000000000004
 10
699.0749370148654
 20
198.3890371126802
 30
0.0000000000000004
  0
SPLINE
  5
BA7
330
2
100
AcDbEntity
  8
1
  6
Continuous
 62
     7
370
    50
100
AcDbSpline
210
0.0000000000002298
220
0.0000000000005376
230
1.0
 70
     8
 71
     3
 72
     9
 73
     5
 74
     0
 42
0.0000000001
 43
0.0000000001
 40
0.0
 40
0.0
 40
0.0
 40
0.0
 40
0.5051679823565394
 40
1.0
 40
1.0
 40
1.0
 40
1.0
 10
699.4045141798559
 20
199.9997311631979
 30
0.0000000000000006
 10
699.3660147702382
 20
200.0177165123214
 30
0.0000000000000006
 10
699.2898036662842
 20
200.0533192222154
 30
0.0000000000000005
 10
699.1995326915847
 20
200.0889837712579
 30
0.0000000000000004
 10
699.1548637230397
 20
200.106631732019
 30
0.0000000000000006
  0
SPLINE
  5
BA8
330
2
100
AcDbEntity
  8
1
  6
Continuous
 62
     7
370
    50
100
AcDbSpline
210
0.0
220
0.0
230
1.0
 70
    24
 71
     3
 72
     8
 73
     4
 74
     0
 42
0.0000000001
 43
0.0000000001
 40
0.0
 40
0.0
 40
0.0
 40
0.0
 40
1.0
 40
1.0
 40
1.0
 40
1.0
 10
699.0230810904306
 20
198.3805661859646
 30
0.0000000000000004
 10
699.0410490703133
 20
198.3835425311066
 30
0.0000000000000003
 10
699.0590170501961
 20
198.3865188762486
 30
0.0000000000000004
 10
699.0769850300787
 20
198.3894952213906
 30
0.0000000000000005
  0
SPLINE
  5
BA9
330
2
100
AcDbEntity
  8
1
  6
Continuous
 62
     7
370
    50
100
AcDbSpline
210
-0.0000000000000732
220
-0.0000000000001605
230
-1.0
 70
     8
 71
     3
 72
    10
 73
     6
 74
     0
 42
0.0000000001
 43
0.0000000001
 40
0.0
 40
0.0
 40
0.0
 40
0.0
 40
0.3243842369683936
 40
0.6574288598933732
 40
1.0
 40
1.0
 40
1.0
 40
1.0
 10
698.712571251583
 20
198.5551384231586
 30
0.0000000000000004
 10
698.7579127762581
 20
198.5376663023436
 30
0.0000000000000001
 10
698.849806350223
 20
198.5022555913464
 30
0.0000000000000004
 10
698.9745290302742
 20
198.4452637337079
 30
0.0000000000000003
 10
699.0411715034448
 20
198.4080564356719
 30
0.0000000000000004
 10
699.074962585984
 20
198.3891904659804
 30
0.0000000000000004
  0
SPLINE
  5
BAA
330
2
100
AcDbEntity
  8
1
  6
Continuous
 62
     7
370
    50
100
AcDbSpline
210
0.0000000000001532
220
0.0000000000003439
230
1.0
 70
     8
 71
     3
 72
     9
 73
     5
 74
     0
 42
0.0000000001
 43
0.0000000001
 40
0.0
 40
0.0
 40
0.0
 40
0.0
 40
0.4625116178727551
 40
1.0
 40
1.0
 40
1.0
 40
1.0
 10
698.6884689399822
 20
198.5303898378308
 30
0.0000000000000003
 10
698.7479591647597
 20
198.5072430478923
 30
0.0
 10
698.8765834467852
 20
198.45719719165
 30
0.0000000000000002
 10
698.9718671870385
 20
198.4073555105184
 30
0.0000000000000004
 10
699.0230810904306
 20
198.3805661859646
 30
0.0000000000000004
  0
SPLINE
  5
BAB
330
2
100
AcDbEntity
  8
1
  6
Continuous
 62
     7
370
    50
100
AcDbSpline
210
-0.0000000000186349
220
-0.0000000000308098
230
1.0
 70
     8
 71
     3
 72
     8
 73
     4
 74
     0
 42
0.0000000001
 43
0.0000000001
 40
0.0
 40
0.0
 40
0.0
 40
0.0
 40
1.0
 40
1.0
 40
1.0
 40
1.0
 10
697.5139819897131
 20
198.8173066714336
 30
0.0000000000000004
 10
697.4961250276447
 20
198.8279751776854
 30
0.0000000000000005
 10
697.4785246849214
 20
198.8386215701505
 30
0.0000000000000006
 10
697.4611978865238
 20
198.8492333435885
 30
0.0000000000000004
  0
SPLINE
  5
BAC
330
2
100
AcDbEntity
  8
1
  6
Continuous
 62
     7
370
    50
100
AcDbSpline
210
-0.0000000000002784
220
-0.0000000000110492
230
1.0
 70
     8
 71
     3
 72
     8
 73
     4
 74
     0
 42
0.0000000001
 43
0.0000000001
 40
0.0
 40
0.0
 40
0.0
 40
0.0
 40
1.0
 40
1.0
 40
1.0
 40
1.0
 10
697.5137481910629
 20
198.8173225233963
 30
0.0000000000000004
 10
697.6221623292993
 20
198.8144379000514
 30
0.0000000000000004
 10
697.7306438309143
 20
198.8117048002705
 30
0.0000000000000005
 10
697.8391937317558
 20
198.8091225061653
 30
0.0000000000000003
  0
SPLINE
  5
BAD
330
2
100
AcDbEntity
  8
1
  6
Continuous
 62
     7
370
    50
100
AcDbSpline
210
0.0000000004011465
220
0.0000000006443938
230
1.0
 70
     8
 71
     3
 72
     8
 73
     4
 74
     0
 42
0.0000000001
 43
0.0000000001
 40
0.0
 40
0.0
 40
0.0
 40
0.0
 40
1.0
 40
1.0
 40
1.0
 40
1.0
 10
697.8391937317317
 20
198.8091225061802
 30
0.0000000000000004
 10
697.8216646822822
 20
198.8199577129185
 30
0.0000000000000004
 10
697.8041628557686
 20
198.830852940408
 30
0.0000000000000003
 10
697.7866885110594
 20
198.8418080056934
 30
0.0000000000000002
  0
SPLINE
  5
BAE
330
2
100
AcDbEntity
  8
1
  6
Continuous
 62
     7
370
    50
100
AcDbSpline
210
-0.0000000000000436
220
-0.0000000000003142
230
1.0
 70
     8
 71
     3
 72
     9
 73
     5
 74
     0
 42
0.0000000001
 43
0.0000000001
 40
0.0
 40
0.0
 40
0.0
 40
0.0
 40
0.4992643031914645
 40
1.0
 40
1.0
 40
1.0
 40
1.0
 10
697.8390387273057
 20
198.8087848770452
 30
0.0000000000000002
 10
697.8540836515918
 20
198.8079145941318
 30
0.0000000000000003
 10
697.8842178394152
 20
198.8061714634738
 30
0.0000000000000003
 10
697.9264687392133
 20
198.7980552948733
 30
0.0000000000000002
 10
697.9476252729642
 20
198.7939912395337
 30
0.0
  0
SPLINE
  5
BAF
330
2
100
AcDbEntity
  8
1
  6
Continuous
 62
     7
370
    50
100
AcDbSpline
210
0.0000001158528024
220
-0.0000000330267941
230
0.9999999999999927
 70
     8
 71
     3
 72
     8
 73
     4
 74
     0
 42
0.0000000001
 43
0.0000000001
 40
0.0
 40
0.0
 40
0.0
 40
0.0
 40
1.0
 40
1.0
 40
1.0
 40
1.0
 10
699.1548637230397
 20
200.106631732019
 30
0.0000000000000006
 10
699.0074634570156
 20
199.5894990914944
 30
0.0000000000000004
 10
698.8600319207296
 20
199.0723349347316
 30
0.0000000000000003
 10
698.712571251583
 20
198.5551384231586
 30
0.0000000000000004
  0
SPLINE
  5
BB0
330
2
100
AcDbEntity
  8
1
  6
Continuous
 62
     7
370
    50
100
AcDbSpline
210
0.0
220
0.0
230
1.0
 70
    24
 71
     1
 72
     4
 73
     2
 74
     0
 42
0.0000000001
 43
0.0000000001
 40
0.0
 40
0.0
 40
1.0
 40
1.0
 10
698.6884717538916
 20
198.5304009756589
 30
0.0000000000000004
 10
698.7129112646166
 20
198.5555173892273
 30
0.0000000000000004
  0
SPLINE
  5
BB1
330
2
100
AcDbEntity
  8
1
  6
Continuous
 62
     7
370
    50
100
AcDbSpline
210
0.0000000000000065
220
0.0000000000000694
230
1.0
 70
     8
 71
     3
 72
    10
 73
     6
 74
     0
 42
0.0000000001
 43
0.0000000001
 40
0.0
 40
0.0
 40
0.0
 40
0.0
 40
0.5
 40
0.5
 40
1.0
 40
1.0
 40
1.0
 40
1.0
 10
697.7882933076475
 20
198.8408401387624
 30
0.0000000000000003
 10
697.804743313631
 20
198.8429829940561
 30
0.0000000000000004
 10
697.8245349269342
 20
198.8431520120145
 30
0.0000000000000001
 10
697.8691900510192
 20
198.8391702782804
 30
0.0000000000000004
 10
697.8940489091418
 20
198.8350189897021
 30
0.0000000000000003
 10
697.9204410884777
 20
198.8286851997866
 30
0.0000000000000005
  0
SPLINE
  5
BB2
330
2
100
AcDbEntity
  8
1
  6
Continuous
 62
     7
370
    50
100
AcDbSpline
210
-0.0000000000000685
220
-0.0000000000003457
230
1.0
 70
     8
 71
     3
 72
     9
 73
     5
 74
     0
 42
0.0000000001
 43
0.0000000001
 40
0.0
 40
0.0
 40
0.0
 40
0.0
 40
0.4791583915121951
 40
1.0
 40
1.0
 40
1.0
 40
1.0
 10
698.4369670625634
 20
200.3714339847502
 30
0.0000000000000006
 10
698.4144863621256
 20
200.3766664601649
 30
0.0000000000000004
 10
698.3675693074817
 20
200.387586597446
 30
0.0000000000000007
 10
698.3300608482068
 20
200.3933531337187
 30
0.0000000000000004
 10
698.310524881946
 20
200.3963565857463
 30
0.0000000000000007
  0
SPLINE
  5
BB3
330
2
100
AcDbEntity
  8
1
  6
Continuous
 62
     7
370
    50
100
AcDbSpline
210
0.0
220
0.0
230
1.0
 70
     8
 71
     3
 72
     8
 73
     4
 74
     0
 42
0.0000000001
 43
0.0000000001
 40
0.0
 40
0.0
 40
0.0
 40
0.0
 40
1.0
 40
1.0
 40
1.0
 40
1.0
 10
697.4611975279904
 20
198.8492335631513
 30
0.0000000000000005
 10
697.7070196889142
 20
199.3686720212295
 30
0.0000000000000004
 10
697.9540405674637
 20
199.8879587412883
 30
0.0000000000000005
 10
698.2024072488193
 20
200.4069802269135
 30
0.0000000000000006
  0
SPLINE
  5
BB4
330
2
100
AcDbEntity
  8
1
  6
Continuous
 62
     7
370
    50
100
AcDbSpline
210
-0.0000000000000047
220
-0.0000000000001717
230
1.0
 70
     8
 71
     3
 72
     8
 73
     4
 74
     0
 42
0.0000000001
 43
0.0000000001
 40
0.0
 40
0.0
 40
0.0
 40
0.0
 40
1.0
 40
1.0
 40
1.0
 40
1.0
 10
697.4637371491342
 20
198.8476126388183
 30
0.0000000000000004
 10
697.5678510748886
 20
198.8477207379835
 30
0.0000000000000005
 10
697.6772267233017
 20
198.8447813775121
 30
0.0000000000000005
 10
697.7915682095892
 20
198.8386629132191
 30
0.0000000000000002
  0
SPLINE
  5
BB5
330
2
100
AcDbEntity
  8
1
  6
Continuous
 62
     7
370
    50
100
AcDbSpline
210
0.0000000000173037
220
-0.0000000000058101
230
1.0
 70
     8
 71
     3
 72
     8
 73
     4
 74
     0
 42
0.0000000001
 43
0.0000000001
 40
0.0
 40
0.0
 40
0.0
 40
0.0
 40
1.0
 40
1.0
 40
1.0
 40
1.0
 10
698.310524881946
 20
200.3963565857463
 30
0.0000000000000007
 10
698.1342339207802
 20
199.8794574273589
 30
0.0000000000000005
 10
697.9599782076242
 20
199.3609078117557
 30
0.0000000000000004
 10
697.7882932256164
 20
198.8408401280766
 30
0.0000000000000002
  0
SPLINE
  5
BB6
330
2
100
AcDbEntity
  8
1
  6
Continuous
 62
     7
370
    50
100
AcDbSpline
210
0.0000000000000689
220
0.0000000000015639
230
1.0
 70
     8
 71
     3
 72
     8
 73
     4
 74
     0
 42
0.0000000001
 43
0.0000000001
 40
0.0
 40
0.0
 40
0.0
 40
0.0
 40
1.0
 40
1.0
 40
1.0
 40
1.0
 10
698.3070717201269
 20
200.3987499733044
 30
0.0000000000000006
 10
698.2739114693588
 20
200.4004428166828
 30
0.0000000000000004
 10
698.2411269331453
 20
200.4018849427726
 30
0.0000000000000006
 10
698.2087249192102
 20
200.4030789491217
 30
0.0000000000000005
  0
SPLINE
  5
BB7
330
2
100
AcDbEntity
  8
1
  6
Continuous
 62
     7
370
    50
100
AcDbSpline
210
-0.0000000000495009
220
0.0000000000167196
230
-1.0
 70
     8
 71
     3
 72
     8
 73
     4
 74
     0
 42
0.0000000001
 43
0.0000000001
 40
0.0
 40
0.0
 40
0.0
 40
0.0
 40
1.0
 40
1.0
 40
1.0
 40
1.0
 10
698.4374901756321
 20
200.3693080633894
 30
0.0000000000000005
 10
698.3393068120773
 20
200.080638934427
 30
0.0000000000000004
 10
698.2413366640646
 20
199.7909454827821
 30
0.0000000000000004
 10
698.1439755894593
 20
199.5001835011089
 30
0.0000000000000003
  0
SPLINE
  5
BB8
330
2
100
AcDbEntity
  8
1
  6
Continuous
 62
     7
370
    50
100
AcDbSpline
210
0.0
220
0.0
230
1.0
 70
     8
 71
     3
 72
     8
 73
     4
 74
     0
 42
0.0000000001
 43
0.0000000001
 40
0.0
 40
0.0
 40
0.0
 40
0.0
 40
1.0
 40
1.0
 40
1.0
 40
1.0
 10
698.1439755894593
 20
199.5001835011089
 30
0.0000000000000003
 10
698.0691911177119
 20
199.2768632862106
 30
0.0000000000000001
 10
697.9947661752717
 20
199.0529130392523
 30
0.0000000000000002
 10
697.9208714872323
 20
198.8283288893674
 30
0.0000000000000003
  0
SPLINE
  5
BB9
330
2
100
AcDbEntity
  8
1
  6
Continuous
 62
     7
370
    50
100
AcDbSpline
210
0.0
220
0.0
230
1.0
 70
    24
 71
     1
 72
     4
 73
     2
 74
     0
 42
0.0000000001
 43
0.0000000001
 40
0.0
 40
0.0
 40
1.0
 40
1.0
 10
698.5756230820655
 20
200.3253139698019
 30
0.0000000000000007
 10
698.1643441378222
 20
198.7631460082186
 30
0.0000000000000004
  0
SPLINE
  5
BBA
330
2
100
AcDbEntity
  8
1
  6
Continuous
 62
     7
370
    50
100
AcDbSpline
210
0.000000000000012
220
0.000000000000038
230
-1.0
 70
     8
 71
     3
 72
    10
 73
     6
 74
     0
 42
0.0000000001
 43
0.0000000001
 40
0.0
 40
0.0
 40
0.0
 40
0.0
 40
0.4999999999999997
 40
0.4999999999999997
 40
1.0
 40
1.0
 40
1.0
 40
1.0
 10
698.5758096745812
 20
200.3255314722306
 30
0.0000000000000006
 10
698.5537109883542
 20
200.3350142182948
 30
0.0000000000000005
 10
698.530770230977
 20
200.3435141239553
 30
0.0000000000000006
 10
698.4842944940826
 20
200.3582045918757
 30
0.0000000000000005
 10
698.460761260101
 20
200.3643946962943
 30
0.0000000000000006
 10
698.4374915083177
 20
200.3693119816218
 30
0.0000000000000006
  0
SPLINE
  5
BBB
330
2
100
AcDbEntity
  8
1
  6
Continuous
 62
     7
370
    50
100
AcDbSpline
210
0.0
220
0.0
230
1.0
 70
    24
 71
     3
 72
     8
 73
     4
 74
     0
 42
0.0000000001
 43
0.0000000001
 40
0.0
 40
0.0
 40
0.0
 40
0.0
 40
1.0
 40
1.0
 40
1.0
 40
1.0
 10
698.1408372217404
 20
198.7376738433326
 30
0.0000000000000003
 10
698.1486856831442
 20
198.7462123797854
 30
0.0000000000000003
 10
698.1565341445482
 20
198.7547509162381
 30
0.0000000000000005
 10
698.1643826059517
 20
198.7632894526908
 30
0.0000000000000003
  0
SPLINE
  5
BBC
330
2
100
AcDbEntity
  8
1
  6
Continuous
 62
     7
370
    50
100
AcDbSpline
210
0.0000000000000067
220
0.0000000000000249
230
1.0
 70
     8
 71
     3
 72
     9
 73
     5
 74
     0
 42
0.0000000001
 43
0.0000000001
 40
0.0
 40
0.0
 40
0.0
 40
0.0
 40
0.5146641449284407
 40
1.0
 40
1.0
 40
1.0
 40
1.0
 10
697.9208714872323
 20
198.8283288893674
 30
0.0000000000000001
 10
697.9610688120763
 20
198.8207720488959
 30
0.0000000000000002
 10
698.0391728052137
 20
198.8060889967618
 30
0.0000000000000002
 10
698.1233168206231
 20
198.7770298242953
 30
0.0000000000000003
 10
698.1641549282908
 20
198.7629263659787
 30
0.0000000000000001
  0
SPLINE
  5
BBD
330
2
100
AcDbEntity
  8
1
  6
Continuous
 62
     7
370
    50
100
AcDbSpline
210
0.0000000000045517
220
0.0000000000035766
230
-1.0
 70
     8
 71
     3
 72
     8
 73
     4
 74
     0
 42
0.0000000001
 43
0.0000000001
 40
0.0
 40
0.0
 40
0.0
 40
0.0
 40
1.0
 40
1.0
 40
1.0
 40
1.0
 10
697.9476252723157
 20
198.7939912403096
 30
0.0000000000000003
 10
697.9381049618522
 20
198.8053895289548
 30
0.0000000000000002
 10
697.9287971935417
 20
198.817242639624
 30
0.0000000000000002
 10
697.9196984070857
 20
198.8295408394983
 30
0.0000000000000004
  0
SPLINE
  5
BBE
330
2
100
AcDbEntity
  8
1
  6
Continuous
 62
     7
370
    50
100
AcDbSpline
210
0.0000000000000227
220
0.0000000000000785
230
1.0
 70
     8
 71
     3
 72
     9
 73
     5
 74
     0
 42
0.0000000001
 43
0.0000000001
 40
0.0
 40
0.0
 40
0.0
 40
0.0
 40
0.5603025560718153
 40
1.0
 40
1.0
 40
1.0
 40
1.0
 10
697.9474191222838
 20
198.793551513644
 30
0.0000000000000001
 10
697.9823063987358
 20
198.7857006735749
 30
0.0000000000000002
 10
698.0445714661964
 20
198.7716888865787
 30
0.0000000000000001
 10
698.111436871626
 20
198.7480625140193
 30
0.0000000000000003
 10
698.1408374194805
 20
198.7376740583956
 30
0.0000000000000001
  0
SPLINE
  5
BBF
330
2
100
AcDbEntity
  8
1
  6
Continuous
 62
     7
370
    50
100
AcDbSpline
210
0.0000000000000001
220
-0.0000000000000002
230
1.0
 70
     8
 71
     3
 72
    23
 73
    19
 74
     0
 42
0.0000000001
 43
0.0000000001
 40
0.0
 40
0.0
 40
0.0
 40
0.0
 40
0.0308594917604066
 40
0.0615612972726419
 40
0.0923983482265667
 40
0.1236597746927088
 40
0.1863713047883315
 40
0.2491604951108783
 40
0.372168853028703
 40
0.4952120741517505
 40
0.5261772437950421
 40
0.5575660181301513
 40
0.6207947045615116
 40
0.7464831830788611
 40
0.8103566593162
 40
0.8742432845722161
 40
0.9374126269734237
 40
1.0
 40
1.0
 40
1.0
 40
1.0
 10
697.1995918269596
 20
194.2110253391404
 30
0.0
 10
697.1865298079721
 20
194.2164335318737
 30
-0.0000000000000002
 10
697.1604725144776
 20
194.2272222824838
 30
0.0
 10
697.1230113846598
 20
194.2481705803841
 30
-0.0000000000000001
 10
697.0871181383667
 20
194.2724991839908
 30
0.0
 10
697.0417447241153
 20
194.3096461445413
 30
-0.0000000000000001
 10
696.9907300727184
 20
194.3638577492427
 30
-0.0000000000000002
 10
696.9274244311687
 20
194.4631718859946
 30
-0.0000000000000003
 10
696.8838735730291
 20
194.6049360292357
 30
0.0000000000000001
 10
696.8970779013368
 20
194.7368972384638
 30
-0.0000000000000003
 10
696.9271966630312
 20
194.817667598031
 30
0.0
 10
696.9532413818103
 20
194.8699878904685
 30
0.0000000000000002
 10
697.0122325871591
 20
194.9544639409784
 30
-0.0000000000000002
 10
697.1089136996092
 20
195.0276681843991
 30
-0.0000000000000001
 10
697.2196901571524
 20
195.0689887203612
 30
0.0
 10
697.3075048711964
 20
195.0817862795669
 30
0.0000000000000001
 10
697.3955444703847
 20
195.0783414085466
 30
-0.0000000000000001
 10
697.4505358557693
 20
195.0609833122947
 30
0.0000000000000002
 10
697.4779043055465
 20
195.0523444285463
 30
0.0000000000000001
  0
SPLINE
  5
BC0
330
2
100
AcDbEntity
  8
1
  6
Continuous
 62
     7
370
    50
100
AcDbSpline
210
0.0
220
0.0
230
1.0
 70
     8
 71
     3
 72
    24
 73
    20
 74
     0
 42
0.0000000001
 43
0.0000000001
 40
0.0
 40
0.0
 40
0.0
 40
0.0
 40
0.0299258474607747
 40
0.0597061869177281
 40
0.0896083530605921
 40
0.1198964549237073
 40
0.1808115444705341
 40
0.2417964683441694
 40
0.3604340387165259
 40
0.4797401412625454
 40
0.5107033682026652
 40
0.5425683335326325
 40
0.6079572809469941
 40
0.6734831901082427
 40
0.7398969182642473
 40
0.8053718113184839
 40
0.8708430795086925
 40
0.9356767703531827
 40
1.0
 40
1.0
 40
1.0
 40
1.0
 10
697.4779043055465
 20
195.0523444285463
 30
0.0000000000000001
 10
697.4905237059462
 20
195.04709064813
 30
-0.0000000000000001
 10
697.5157011476225
 20
195.0366086326758
 30
-0.0000000000000001
 10
697.5511836068083
 20
195.0161913422514
 30
-0.0000000000000001
 10
697.5846783071546
 20
194.9924452628952
 30
0.0
 10
697.6263558459578
 20
194.9560868536671
 30
0.0
 10
697.6719942818995
 20
194.9028722720868
 30
-0.0000000000000001
 10
697.7264617678088
 20
194.8055202855311
 30
-0.0000000000000001
 10
697.761198574808
 20
194.6665894909846
 30
-0.0000000000000001
 10
697.7488101859086
 20
194.5367598072785
 30
0.0000000000000002
 10
697.7230917871986
 20
194.4559087196051
 30
0.0
 10
697.700024080963
 20
194.4014298360669
 30
0.0000000000000001
 10
697.6618698556205
 20
194.3378174375169
 30
0.0000000000000002
 10
697.6025576101077
 20
194.2735768778698
 30
-0.0000000000000001
 10
697.5321489461531
 20
194.2251257767947
 30
-0.0000000000000002
 10
697.4535514632989
 20
194.193038208191
 30
-0.0000000000000002
 10
697.3697431482922
 20
194.1803325336351
 30
0.0
 10
697.2834854881909
 20
194.184185260039
 30
-0.0000000000000001
 10
697.2274826014575
 20
194.2021022502833
 30
0.0
 10
697.1995918269596
 20
194.2110253391404
 30
0.0
  0
SPLINE
  5
BC1
330
2
100
AcDbEntity
  8
1
  6
Continuous
 62
     7
370
    50
100
AcDbSpline
210
0.000000000000001
220
0.0000000000000065
230
1.0
 70
     8
 71
     3
 72
    11
 73
     7
 74
     0
 42
0.0000000001
 43
0.0000000001
 40
0.0
 40
0.0
 40
0.0
 40
0.0
 40
0.2625713974223881
 40
0.5240643331161036
 40
0.7871406329204053
 40
1.0
 40
1.0
 40
1.0
 40
1.0
 10
697.2919692305666
 20
195.002717314802
 30
0.0000000000000002
 10
697.278137643108
 20
195.0075305253759
 30
0.0
 10
697.2505312787875
 20
195.017137177183
 30
0.0
 10
697.2070843048303
 20
195.0258131721729
 30
0.0000000000000002
 10
697.1656301299859
 20
195.0298282265014
 30
0.0
 10
697.1386542547842
 20
195.0298639985051
 30
0.0000000000000001
 10
697.1265820441287
 20
195.0293935220897
 30
0.0000000000000001
  0
SPLINE
  5
BC2
330
2
100
AcDbEntity
  8
1
  6
Continuous
 62
     7
370
    50
100
AcDbSpline
210
-0.0000000000000002
220
-0.0000000000000002
230
1.0
 70
     8
 71
     3
 72
    17
 73
    13
 74
     0
 42
0.0000000001
 43
0.0000000001
 40
0.0
 40
0.0
 40
0.0
 40
0.0
 40
0.1657837012792965
 40
0.2545063214538005
 40
0.2975829821117196
 40
0.3394030962503808
 40
0.5013564359101794
 40
0.6647720702310708
 40
0.7494891299902964
 40
0.8339226211723689
 40
0.9174425222177939
 40
1.0
 40
1.0
 40
1.0
 40
1.0
 10
697.3503865504912
 20
194.1830584109222
 30
0.0
 10
697.3937252187753
 20
194.2089520508406
 30
0.0000000000000001
 10
697.4533201638323
 20
194.2631987663747
 30
0.0000000000000002
 10
697.5031790512529
 20
194.3477587997335
 30
0.0000000000000001
 10
697.526013842109
 20
194.4016533483556
 30
-0.0000000000000001
 10
697.5519597806446
 20
194.481895515929
 30
0.0000000000000001
 10
697.5665703269267
 20
194.6120382571297
 30
0.0000000000000002
 10
697.5363871262246
 20
194.7510212006221
 30
0.0000000000000003
 10
697.4851714692225
 20
194.8498071639154
 30
0.0000000000000001
 10
697.432013899129
 20
194.9146284775304
 30
0.0000000000000002
 10
697.3678344239433
 20
194.9682783301352
 30
0.0000000000000003
 10
697.3171597412697
 20
194.9912820890648
 30
0.0000000000000001
 10
697.2919692305666
 20
195.002717314802
 30
0.0000000000000002
  0
LINE
  5
BC3
330
2
100
AcDbEntity
  8
1
  6
Continuous
 62
     7
370
    50
100
AcDbLine
 10
710.1023917269388
 20
221.4300301868896
 30
0.0
 11
710.1023917269388
 21
221.5800286456096
 31
0.0
  0
LINE
  5
BC4
330
2
100
AcDbEntity
  8
1
  6
Continuous
 62
     7
370
    50
100
AcDbLine
 10
710.1023917269388
 20
221.5800286456096
 30
0.0
 11
711.6023959653546
 21
221.5800286456096
 31
0.0
  0
LINE
  5
BC5
330
2
100
AcDbEntity
  8
1
  6
Continuous
 62
     7
370
    50
100
AcDbLine
 10
711.6023959653546
 20
221.5800286456096
 30
0.0
 11
711.6023959653546
 21
221.1050283869647
 31
0.0
  0
LINE
  5
BC6
330
2
100
AcDbEntity
  8
1
  6
Continuous
 62
     7
370
    50
100
AcDbLine
 10
711.6023959653546
 20
221.1050283869647
 30
0.0
 11
713.5609800398234
 21
221.1050283869647
 31
0.0
  0
LINE
  5
BC7
330
2
100
AcDbEntity
  8
1
  6
Continuous
 62
     7
370
    50
100
AcDbLine
 10
714.0291716537426
 20
218.5550280973286
 30
0.0
 11
711.6023959653546
 21
218.5550280973286
 31
0.0
  0
LINE
  5
BC8
330
2
100
AcDbEntity
  8
1
  6
Continuous
 62
     7
370
    50
100
AcDbLine
 10
711.6023959653546
 20
218.5550280973286
 30
0.0
 11
711.6023959653546
 21
218.0800278386837
 31
0.0
  0
LINE
  5
BC9
330
2
100
AcDbEntity
  8
1
  6
Continuous
 62
     7
370
    50
100
AcDbLine
 10
711.6023959653546
 20
218.0800278386837
 30
0.0
 11
710.1023917269388
 21
218.0800278386837
 31
0.0
  0
LINE
  5
BCA
330
2
100
AcDbEntity
  8
1
  6
Continuous
 62
     7
370
    50
100
AcDbLine
 10
710.1023917269388
 20
218.0800278386837
 30
0.0
 11
710.1023917269388
 21
218.2300262974037
 31
0.0
  0
LINE
  5
BCB
330
2
100
AcDbEntity
  8
1
  6
Continuous
 62
     7
370
    50
100
AcDbLine
 10
710.1023917269388
 20
218.2300262974037
 30
0.0
 11
706.1023937756599
 21
218.2300262974037
 31
0.0
  0
LINE
  5
BCC
330
2
100
AcDbEntity
  8
1
  6
Continuous
 62
     7
370
    50
100
AcDbLine
 10
706.1023937756599
 20
218.2300262974037
 30
0.0
 11
706.1023937756599
 21
218.0800282421467
 31
0.0
  0
LINE
  5
BCD
330
2
100
AcDbEntity
  8
1
  6
Continuous
 62
     7
370
    50
100
AcDbLine
 10
706.1023937756599
 20
218.0800282421467
 30
0.0
 11
705.1023937756599
 21
218.0800282421467
 31
0.0
  0
LINE
  5
BCE
330
2
100
AcDbEntity
  8
1
  6
Continuous
 62
     7
370
    50
100
AcDbLine
 10
705.1023937756599
 20
218.0800282421467
 30
0.0
 11
705.1023937756599
 21
218.1800282421467
 31
0.0
  0
LINE
  5
BCF
330
2
100
AcDbEntity
  8
1
  6
Continuous
 62
     7
370
    50
100
AcDbLine
 10
705.1023937756599
 20
218.1800282421467
 30
0.0
 11
705.6142687756599
 21
218.7050282421466
 31
0.0
  0
LINE
  5
BD0
330
2
100
AcDbEntity
  8
1
  6
Continuous
 62
     7
370
    50
100
AcDbLine
 10
705.6142687756599
 20
218.7050282421466
 30
0.0
 11
707.5023917269378
 21
218.7050282421466
 31
0.0
  0
LINE
  5
BD1
330
2
100
AcDbEntity
  8
1
  6
Continuous
 62
     7
370
    50
100
AcDbLine
 10
707.5023917269378
 20
218.7050282421466
 30
0.0
 11
711.1235798991962
 21
218.7050282421466
 31
0.0
  0
LINE
  5
BD2
330
2
100
AcDbEntity
  8
1
  6
Continuous
 62
     7
370
    50
100
AcDbLine
 10
711.1235798991962
 20
218.7050282421466
 30
0.0
 11
711.7730989520342
 21
219.8300282421467
 31
0.0
  0
LINE
  5
BD3
330
2
100
AcDbEntity
  8
1
  6
Continuous
 62
     7
370
    50
100
AcDbLine
 10
711.7730989520342
 20
219.8300282421467
 30
0.0
 11
711.1235798991962
 21
220.9550282421467
 31
0.0
  0
LINE
  5
BD4
330
2
100
AcDbEntity
  8
1
  6
Continuous
 62
     7
370
    50
100
AcDbLine
 10
714.602391726938
 20
221.1050283869647
 30
0.0
 11
714.602391726938
 21
218.5550280973286
 31
0.0
  0
LINE
  5
BD5
330
2
100
AcDbEntity
  8
1
  6
Continuous
 62
     7
370
    50
100
AcDbLine
 10
713.5609713232644
 20
221.1050283869647
 30
0.0
 11
714.602391726938
 21
221.1050283869647
 31
0.0
  0
LINE
  5
BD6
330
2
100
AcDbEntity
  8
1
  6
Continuous
 62
     7
370
    50
100
AcDbLine
 10
714.602391726938
 20
218.5550280973286
 30
0.0
 11
714.0291581618066
 21
218.5550280973286
 31
0.0
  0
LINE
  5
BD7
330
2
100
AcDbEntity
  8
1
  6
Continuous
 62
     7
370
    50
100
AcDbLine
 10
714.8523924092469
 20
219.6875942862404
 30
0.0
 11
714.8523924092462
 21
220.2894285775369
 31
0.0
  0
LINE
  5
BD8
330
2
100
AcDbEntity
  8
1
  6
Continuous
 62
     7
370
    50
100
AcDbLine
 10
714.8728416714678
 20
219.6895784436065
 30
0.0
 11
714.8728478426428
 21
220.292438650253
 31
0.0
  0
LINE
  5
BD9
330
2
100
AcDbEntity
  8
1
  6
Continuous
 62
     7
370
    50
100
AcDbLine
 10
714.8528614511628
 20
218.7753090423
 30
0.0
 11
715.6305318431924
 21
218.7765467283495
 31
0.0
  0
LINE
  5
BDA
330
2
100
AcDbEntity
  8
1
  6
Continuous
 62
     7
370
    50
100
AcDbLine
 10
714.602391726938
 20
218.9300282421467
 30
0.0
 11
714.852266726938
 21
218.9300282421467
 31
0.0
  0
LINE
  5
BDB
330
2
100
AcDbEntity
  8
1
  6
Continuous
 62
     7
370
    50
100
AcDbLine
 10
716.6023917269378
 20
220.7300282421466
 30
0.0
 11
715.2451104769378
 21
220.7300282421466
 31
0.0
  0
LINE
  5
BDC
330
2
100
AcDbEntity
  8
1
  6
Continuous
 62
     7
370
    50
100
AcDbLine
 10
714.8547042269378
 20
220.7300282421466
 30
0.0
 11
714.602391726938
 21
220.7300282421466
 31
0.0
  0
LINE
  5
BDD
330
2
100
AcDbEntity
  8
1
  6
Continuous
 62
     7
370
    50
100
AcDbLine
 10
714.8516349883713
 20
218.8539887330506
 30
0.0
 11
714.8531465584669
 21
218.8026319257383
 31
0.0
  0
LINE
  5
BDE
330
2
100
AcDbEntity
  8
1
  6
Continuous
 62
     7
370
    50
100
AcDbLine
 10
714.8540825657947
 20
218.7756927703405
 30
0.0
 11
715.1975099959384
 21
218.7803082011559
 31
0.0
  0
LINE
  5
BDF
330
2
100
AcDbEntity
  8
1
  6
Continuous
 62
     7
370
    50
100
AcDbLine
 10
718.602391726938
 20
219.6272073346269
 30
0.0
 11
718.602391726938
 21
219.8300282421467
 31
0.0
  0
LINE
  5
BE0
330
2
100
AcDbEntity
  8
1
  6
Continuous
 62
     7
370
    50
100
AcDbLine
 10
716.6023917269378
 20
221.0550282421467
 30
0.0
 11
718.602391726938
 21
221.0550282421467
 31
0.0
  0
LINE
  5
BE1
330
2
100
AcDbEntity
  8
1
  6
Continuous
 62
     7
370
    50
100
AcDbLine
 10
716.6023917269378
 20
221.0550282421467
 30
0.0
 11
716.6023917269378
 21
218.6050282421466
 31
0.0
  0
LINE
  5
BE2
330
2
100
AcDbEntity
  8
1
  6
Continuous
 62
     7
370
    50
100
AcDbLine
 10
726.602391726938
 20
218.6050282421466
 30
0.0
 11
716.6023917269378
 21
218.6050282421466
 31
0.0
  0
LINE
  5
BE3
330
2
100
AcDbEntity
  8
1
  6
Continuous
 62
     7
370
    50
100
AcDbLine
 10
726.602391726938
 20
218.6050282421466
 30
0.0
 11
726.602391726938
 21
221.0550282421467
 31
0.0
  0
LINE
  5
BE4
330
2
100
AcDbEntity
  8
1
  6
Continuous
 62
     7
370
    50
100
AcDbLine
 10
726.1023917269279
 20
221.0550282421456
 30
0.0
 11
726.602391726938
 21
221.0550282421462
 31
0.0
  0
LINE
  5
BE5
330
2
100
AcDbEntity
  8
1
  6
Continuous
 62
     7
370
    50
100
AcDbLine
 10
718.602391726938
 20
219.6272073346269
 30
0.0
 11
723.8461436946678
 21
219.6272073346268
 31
0.0
  0
LINE
  5
BE6
330
2
100
AcDbEntity
  8
1
  6
Continuous
 62
     7
370
    50
100
AcDbLine
 10
718.602391726938
 20
221.0550282421467
 30
0.0
 11
718.602391726938
 21
219.8300282421467
 31
0.0
  0
LINE
  5
BE7
330
2
100
AcDbEntity
  8
1
  6
Continuous
 62
     7
370
    50
100
AcDbLine
 10
724.2138472687353
 20
219.8300282421467
 30
0.0
 11
718.6023917269348
 21
219.8300282421467
 31
0.0
  0
LINE
  5
BE8
330
2
100
AcDbEntity
  8
1
  6
Continuous
 62
     7
370
    50
100
AcDbLine
 10
714.8516434366451
 20
218.853920637408
 30
0.0
 11
714.8531586877667
 21
218.802461656012
 31
0.0
  0
LINE
  5
BE9
330
2
100
AcDbEntity
  8
1
  6
Continuous
 62
     7
370
    50
100
AcDbLine
 10
714.8532195258446
 20
218.7761680969508
 30
0.0
 11
714.8540672052655
 21
218.7757031500395
 31
0.0
  0
LINE
  5
BEA
330
2
100
AcDbEntity
  8
1
  6
Continuous
 62
     7
370
    50
100
AcDbLine
 10
714.9015210007711
 20
218.7763394252981
 30
0.0
 11
715.1995947039073
 21
218.7803456710907
 31
0.0
  0
LINE
  5
BEB
330
2
100
AcDbEntity
  8
1
  6
Continuous
 62
     7
370
    50
100
AcDbLine
 10
714.8523305645316
 20
218.8457798609689
 30
0.0
 11
714.8523960128089
 21
218.8281319256522
 31
0.0
  0
LINE
  5
BEC
330
2
100
AcDbEntity
  8
1
  6
Continuous
 62
     7
370
    50
100
AcDbLine
 10
714.8525470007307
 20
218.7874184771901
 30
0.0
 11
714.8525638672286
 21
218.7828704757454
 31
0.0
  0
LINE
  5
BED
330
2
100
AcDbEntity
  8
1
  6
Continuous
 62
     7
370
    50
100
AcDbLine
 10
705.1023937756599
 20
221.4800282421466
 30
0.0
 11
705.1023937756599
 21
218.1800282421467
 31
0.0
  0
LINE
  5
BEE
330
2
100
AcDbEntity
  8
1
  6
Continuous
 62
     7
370
    50
100
AcDbLine
 10
705.6142687756599
 20
218.7050282421466
 30
0.0
 11
705.6142687756599
 21
220.9550282421467
 31
0.0
  0
LINE
  5
BEF
330
2
100
AcDbEntity
  8
1
  6
Continuous
 62
     7
370
    50
100
AcDbLine
 10
711.1235798991962
 20
218.7050282421466
 30
0.0
 11
711.1235798991962
 21
220.9550282421467
 31
0.0
  0
LINE
  5
BF0
330
2
100
AcDbEntity
  8
1
  6
Continuous
 62
     7
370
    50
100
AcDbLine
 10
711.1235798991962
 20
220.9550282421467
 30
0.0
 11
705.6142687756599
 21
220.9550282421467
 31
0.0
  0
LINE
  5
BF1
330
2
100
AcDbEntity
  8
1
  6
Continuous
 62
     7
370
    50
100
AcDbLine
 10
705.6142687756599
 20
220.9550282421467
 30
0.0
 11
705.1023937756599
 21
221.4800282421466
 31
0.0
  0
LINE
  5
BF2
330
2
100
AcDbEntity
  8
1
  6
Continuous
 62
     7
370
    50
100
AcDbLine
 10
705.1023937756599
 20
221.4800282421466
 30
0.0
 11
705.1023937756599
 21
221.5800282421466
 31
0.0
  0
LINE
  5
BF3
330
2
100
AcDbEntity
  8
1
  6
Continuous
 62
     7
370
    50
100
AcDbLine
 10
705.1023937756599
 20
221.5800282421466
 30
0.0
 11
706.1023937756599
 21
221.5800282421466
 31
0.0
  0
LINE
  5
BF4
330
2
100
AcDbEntity
  8
1
  6
Continuous
 62
     7
370
    50
100
AcDbLine
 10
706.1023937756599
 20
221.5800282421466
 30
0.0
 11
706.1023937756599
 21
221.4300301868896
 31
0.0
  0
LINE
  5
BF5
330
2
100
AcDbEntity
  8
1
  6
Continuous
 62
     7
370
    50
100
AcDbLine
 10
706.1023937756599
 20
221.4300301868896
 30
0.0
 11
710.1023917269388
 21
221.4300301868896
 31
0.0
  0
ARC
  5
BF6
330
2
100
AcDbEntity
  8
1
  6
Continuous
 62
     7
370
    50
100
AcDbCircle
 10
744.4975025110379
 20
716.0486858728464
 30
0.0
 40
495.6705335777
100
AcDbArc
 50
267.0053570139967
 51
267.7716800142907
  0
SPLINE
  5
BF7
330
2
100
AcDbEntity
  8
1
  6
Continuous
 62
     7
370
    50
100
AcDbSpline
210
0.0
220
0.0
230
1.0
 70
     8
 71
     3
 72
     8
 73
     4
 74
     0
 42
0.0000000001
 43
0.0000000001
 40
0.0
 40
0.0
 40
0.0
 40
0.0
 40
1.0
 40
1.0
 40
1.0
 40
1.0
 10
714.8523726945503
 20
220.7099529606841
 30
0.0
 10
714.8549791648257
 20
220.7324523209727
 30
0.0
 10
714.8575645791748
 20
220.7548279535533
 30
0.0
 10
714.8601243567668
 20
220.7770575203026
 30
0.0
  0
SPLINE
  5
BF8
330
2
100
AcDbEntity
  8
1
  6
Continuous
 62
     7
370
    50
100
AcDbSpline
210
0.0
220
0.0
230
1.0
 70
     8
 71
     3
 72
     8
 73
     4
 74
     0
 42
0.0000000001
 43
0.0000000001
 40
0.0
 40
0.0
 40
0.0
 40
0.0
 40
1.0
 40
1.0
 40
1.0
 40
1.0
 10
714.8523871069503
 20
220.7100652954175
 30
0.0
 10
714.8522736389709
 20
220.6560455467269
 30
0.0
 10
714.8523294194228
 20
220.6020075779631
 30
0.0
 10
714.8525542675846
 20
220.5479499582039
 30
0.0
  0
SPLINE
  5
BF9
330
2
100
AcDbEntity
  8
1
  6
Continuous
 62
     7
370
    50
100
AcDbSpline
210
0.0
220
0.0
230
1.0
 70
     8
 71
     3
 72
     8
 73
     4
 74
     0
 42
0.0000000001
 43
0.0000000001
 40
0.0
 40
0.0
 40
0.0
 40
0.0
 40
1.0
 40
1.0
 40
1.0
 40
1.0
 10
714.8601244097159
 20
220.7770579802787
 30
0.0
 10
715.4410228278559
 20
220.706816901352
 30
0.0
 10
716.0218088922552
 20
220.6359356966604
 30
0.0
 10
716.6024414005819
 20
220.5642140515595
 30
0.0
  0
SPLINE
  5
BFA
330
2
100
AcDbEntity
  8
1
  6
Continuous
 62
     7
370
    50
100
AcDbSpline
210
0.0
220
0.0
230
1.0
 70
     8
 71
     3
 72
     8
 73
     4
 74
     0
 42
0.0000000001
 43
0.0000000001
 40
0.0
 40
0.0
 40
0.0
 40
0.0
 40
1.0
 40
1.0
 40
1.0
 40
1.0
 10
714.8597794461348
 20
220.7736442883609
 30
0.0
 10
714.8606917115297
 20
220.7251863274891
 30
0.0
 10
714.8609148187873
 20
220.6701479359868
 30
0.0
 10
714.8602940837962
 20
220.6086639076118
 30
0.0
  0
SPLINE
  5
BFB
330
2
100
AcDbEntity
  8
1
  6
Continuous
 62
     7
370
    50
100
AcDbSpline
210
0.0
220
0.0
230
1.0
 70
     8
 71
     3
 72
     8
 73
     4
 74
     0
 42
0.0000000001
 43
0.0000000001
 40
0.0
 40
0.0
 40
0.0
 40
0.0
 40
1.0
 40
1.0
 40
1.0
 40
1.0
 10
714.8525542675884
 20
220.5479499582346
 30
0.0
 10
714.8553498726161
 20
220.5703096665639
 30
0.0
 10
714.8582127666966
 20
220.5926615537828
 30
0.0
 10
714.8611429014257
 20
220.6150052609508
 30
0.0
  0
SPLINE
  5
BFC
330
2
100
AcDbEntity
  8
1
  6
Continuous
 62
     7
370
    50
100
AcDbSpline
210
0.0
220
0.0
230
1.0
 70
     8
 71
     3
 72
     9
 73
     5
 74
     0
 42
0.0000000001
 43
0.0000000001
 40
0.0
 40
0.0
 40
0.0
 40
0.0
 40
0.4991997263566046
 40
1.0
 40
1.0
 40
1.0
 40
1.0
 10
714.8521757724608
 20
220.5479268179846
 30
0.0
 10
714.8522330053777
 20
220.5395467936113
 30
0.0
 10
714.8523476653519
 20
220.5227377414725
 30
0.0
 10
714.8524701529183
 20
220.4896432828674
 30
0.0
 10
714.8525314995646
 20
220.4730595004121
 30
0.0
  0
SPLINE
  5
BFD
330
2
100
AcDbEntity
  8
1
  6
Continuous
 62
     7
370
    50
100
AcDbSpline
210
0.0
220
0.0
230
1.0
 70
     8
 71
     3
 72
     8
 73
     4
 74
     0
 42
0.0000000001
 43
0.0000000001
 40
0.0
 40
0.0
 40
0.0
 40
0.0
 40
1.0
 40
1.0
 40
1.0
 40
1.0
 10
716.6022227100637
 20
220.4973038399982
 30
0.0
 10
716.0222734042316
 20
220.5388906097895
 30
0.0
 10
715.4417678949896
 20
220.5775491851419
 30
0.0
 10
714.8608935270732
 20
220.612989749282
 30
0.0
  0
SPLINE
  5
BFE
330
2
100
AcDbEntity
  8
1
  6
Continuous
 62
     7
370
    50
100
AcDbSpline
210
0.0
220
0.0
230
1.0
 70
     8
 71
     3
 72
    10
 73
     6
 74
     0
 42
0.0000000001
 43
0.0000000001
 40
0.0
 40
0.0
 40
0.0
 40
0.0
 40
0.5
 40
0.5
 40
1.0
 40
1.0
 40
1.0
 40
1.0
 10
714.8608935391234
 20
220.6129897127082
 30
0.0
 10
714.8633100310328
 20
220.6056554083574
 30
0.0
 10
714.8652467311397
 20
220.5941376512519
 30
0.0
 10
714.8676122841467
 20
220.5636296030338
 30
0.0
 10
714.8680398704912
 20
220.5446423503329
 30
0.0
 10
714.8674954100148
 20
220.5226525432963
 30
0.0
  0
SPLINE
  5
BFF
330
2
100
AcDbEntity
  8
1
  6
Continuous
 62
     7
370
    50
100
AcDbSpline
210
0.0
220
0.0
230
1.0
 70
     8
 71
     3
 72
     8
 73
     4
 74
     0
 42
0.0000000001
 43
0.0000000001
 40
0.0
 40
0.0
 40
0.0
 40
0.0
 40
1.0
 40
1.0
 40
1.0
 40
1.0
 10
716.6016264627232
 20
218.9999154191945
 30
0.0
 10
716.0233520363258
 20
218.9398180357758
 30
0.0
 10
715.4429406710232
 20
218.8885367110435
 30
0.0
 10
714.8611179417099
 20
218.8479472949509
 30
0.0
  0
SPLINE
  5
C00
330
2
100
AcDbEntity
  8
1
  6
Continuous
 62
     7
370
    50
100
AcDbSpline
210
0.0
220
0.0
230
1.0
 70
     8
 71
     3
 72
     8
 73
     4
 74
     0
 42
0.0000000001
 43
0.0000000001
 40
0.0
 40
0.0
 40
0.0
 40
0.0
 40
1.0
 40
1.0
 40
1.0
 40
1.0
 10
716.6014177479895
 20
220.3947103549027
 30
0.0
 10
716.275433784004
 20
220.4208658082203
 30
0.0
 10
715.9488836161938
 20
220.4460018403719
 30
0.0
 10
715.6218280973446
 20
220.4697749534235
 30
0.0
  0
SPLINE
  5
C01
330
2
100
AcDbEntity
  8
1
  6
Continuous
 62
     7
370
    50
100
AcDbSpline
210
0.0
220
0.0
230
1.0
 70
     8
 71
     3
 72
     8
 73
     4
 74
     0
 42
0.0000000001
 43
0.0000000001
 40
0.0
 40
0.0
 40
0.0
 40
0.0
 40
1.0
 40
1.0
 40
1.0
 40
1.0
 10
715.6218280973446
 20
220.4697749534235
 30
0.0
 10
715.3706310477922
 20
220.4880389338666
 30
0.0
 10
715.1191361198109
 20
220.5054989898545
 30
0.0
 10
714.8673786546559
 20
220.5220196502088
 30
0.0
  0
SPLINE
  5
C02
330
2
100
AcDbEntity
  8
1
  6
Continuous
 62
     7
370
    50
100
AcDbSpline
210
0.0
220
0.0
230
1.0
 70
     8
 71
     3
 72
     9
 73
     5
 74
     0
 42
0.0000000001
 43
0.0000000001
 40
0.0
 40
0.0
 40
0.0
 40
0.0
 40
0.3919260971286364
 40
1.0
 40
1.0
 40
1.0
 40
1.0
 10
714.8521641320344
 20
219.2807108096523
 30
0.0
 10
714.852495435117
 20
219.2161655396637
 30
0.0
 10
714.8533407554078
 20
219.0514781905399
 30
0.0
 10
714.852571299287
 20
218.960480366041
 30
0.0
 10
714.8521034131004
 20
218.9051469637452
 30
0.0
  0
SPLINE
  5
C03
330
2
100
AcDbEntity
  8
1
  6
Continuous
 62
     7
370
    50
100
AcDbSpline
210
0.0
220
0.0
230
1.0
 70
    24
 71
     3
 72
     8
 73
     4
 74
     0
 42
0.0000000001
 43
0.0000000001
 40
0.0
 40
0.0
 40
0.0
 40
0.0
 40
1.0
 40
1.0
 40
1.0
 40
1.0
 10
714.8521034131004
 20
218.9051469637452
 30
0.0
 10
714.8555254767201
 20
218.8837143985894
 30
0.0
 10
714.8589475403398
 20
218.8622818334336
 30
0.0
 10
714.8623696039592
 20
218.8408492682777
 30
0.0
  0
SPLINE
  5
C04
330
2
100
AcDbEntity
  8
1
  6
Continuous
 62
     7
370
    50
100
AcDbSpline
210
0.0
220
0.0
230
1.0
 70
     8
 71
     3
 72
     9
 73
     5
 74
     0
 42
0.0000000001
 43
0.0000000001
 40
0.0
 40
0.0
 40
0.0
 40
0.0
 40
0.4723090223325804
 40
1.0
 40
1.0
 40
1.0
 40
1.0
 10
714.8687863532925
 20
219.2474506746782
 30
0.0
 10
714.8682720706867
 20
219.1640912027677
 30
0.0
 10
714.8671832017862
 20
218.9875977038741
 30
0.0
 10
714.8633927953559
 20
218.8950055510069
 30
0.0
 10
714.861392632081
 20
218.8461455073361
 30
0.0
  0
SPLINE
  5
C05
330
2
100
AcDbEntity
  8
1
  6
Continuous
 62
     7
370
    50
100
AcDbSpline
210
0.0
220
0.0
230
1.0
 70
     8
 71
     3
 72
     9
 73
     5
 74
     0
 42
0.0000000001
 43
0.0000000001
 40
0.0
 40
0.0
 40
0.0
 40
0.0
 40
0.5603025560718153
 40
1.0
 40
1.0
 40
1.0
 40
1.0
 10
714.8520251776033
 20
220.4730169317883
 30
0.0
 10
714.8522740071656
 20
220.4434317790091
 30
0.0
 10
714.8527181057332
 20
220.3906296768971
 30
0.0
 10
714.8524929885898
 20
220.3203363566037
 30
0.0
 10
714.8523940051571
 20
220.2894285633454
 30
0.0
  0
SPLINE
  5
C06
330
2
100
AcDbEntity
  8
1
  6
Continuous
 62
     7
370
    50
100
AcDbSpline
210
0.0
220
0.0
230
1.0
 70
     8
 71
     3
 72
     9
 73
     5
 74
     0
 42
0.0000000001
 43
0.0000000001
 40
0.0
 40
0.0
 40
0.0
 40
0.0
 40
0.5146641449284407
 40
1.0
 40
1.0
 40
1.0
 40
1.0
 10
714.8673786546559
 20
220.5220196502088
 30
0.0
 10
714.8690359135545
 20
220.4884778385472
 30
0.0
 10
714.8722559919588
 20
220.4233056053692
 30
0.0
 10
714.8725364336878
 20
220.3351748350301
 30
0.0
 10
714.8726725421144
 20
220.2924018122495
 30
0.0
  0
SPLINE
  5
C07
330
2
100
AcDbEntity
  8
1
  6
Continuous
 62
     7
370
    50
100
AcDbSpline
210
0.0
220
0.0
230
1.0
 70
     8
 71
     3
 72
     8
 73
     4
 74
     0
 42
0.0000000001
 43
0.0000000001
 40
0.0
 40
0.0
 40
0.0
 40
0.0
 40
1.0
 40
1.0
 40
1.0
 40
1.0
 10
714.8525319546774
 20
220.4729365552558
 30
0.0
 10
714.8570981431352
 20
220.4900457167268
 30
0.0
 10
714.8621859025355
 20
220.5070758315637
 30
0.0
 10
714.8677897717263
 20
220.5240198702716
 30
0.0
  0
SPLINE
  5
C08
330
2
100
AcDbEntity
  8
1
  6
Continuous
 62
     7
370
    50
100
AcDbSpline
210
0.0
220
0.0
230
1.0
 70
    24
 71
     3
 72
     8
 73
     4
 74
     0
 42
0.0000000001
 43
0.0000000001
 40
0.0
 40
0.0
 40
0.0
 40
0.0
 40
1.0
 40
1.0
 40
1.0
 40
1.0
 10
714.8523938321474
 20
220.2894285380841
 30
0.0
 10
714.8592636232303
 20
220.2904312688765
 30
0.0
 10
714.866133414313
 20
220.2914339996689
 30
0.0
 10
714.8730032053958
 20
220.2924367304613
 30
0.0
  0
SPLINE
  5
C09
330
2
100
AcDbEntity
  8
1
  6
Continuous
 62
     7
370
    50
100
AcDbSpline
210
0.0
220
0.0
230
1.0
 70
    24
 71
     1
 72
     4
 73
     2
 74
     0
 42
0.0000000001
 43
0.0000000001
 40
0.0
 40
0.0
 40
1.0
 40
1.0
 10
716.6023917269378
 20
220.2556049789254
 30
0.0
 10
714.8728457681998
 20
220.2924384343567
 30
0.0
  0
SPLINE
  5
C0A
330
2
100
AcDbEntity
  8
1
  6
Continuous
 62
     7
370
    50
100
AcDbSpline
210
0.0
220
0.0
230
1.0
 70
     8
 71
     3
 72
     8
 73
     4
 74
     0
 42
0.0000000001
 43
0.0000000001
 40
0.0
 40
0.0
 40
0.0
 40
0.0
 40
1.0
 40
1.0
 40
1.0
 40
1.0
 10
716.6027207955466
 20
219.6195018308897
 30
0.0
 10
716.0260199872883
 20
219.6428463708085
 30
0.0
 10
715.4492934254806
 20
219.666188831187
 30
0.0
 10
714.8725410730984
 20
219.68952686643
 30
0.0
  0
SPLINE
  5
C0B
330
2
100
AcDbEntity
  8
1
  6
Continuous
 62
     7
370
    50
100
AcDbSpline
210
0.0
220
0.0
230
1.0
 70
     8
 71
     3
 72
     8
 73
     4
 74
     0
 42
0.0000000001
 43
0.0000000001
 40
0.0
 40
0.0
 40
0.0
 40
0.0
 40
1.0
 40
1.0
 40
1.0
 40
1.0
 10
716.6030798900147
 20
219.323388096872
 30
0.0
 10
716.0250576894555
 20
219.2979479337221
 30
0.0
 10
715.4469594049007
 20
219.2726311389207
 30
0.0
 10
714.8687863532925
 20
219.2474506746782
 30
0.0
  0
SPLINE
  5
C0C
330
2
100
AcDbEntity
  8
1
  6
Continuous
 62
     7
370
    50
100
AcDbSpline
210
0.0
220
0.0
230
1.0
 70
    24
 71
     3
 72
     8
 73
     4
 74
     0
 42
0.0000000001
 43
0.0000000001
 40
0.0
 40
0.0
 40
0.0
 40
0.0
 40
1.0
 40
1.0
 40
1.0
 40
1.0
 10
714.8521691392678
 20
219.2807094516922
 30
0.0
 10
714.8579562302416
 20
219.2692130182726
 30
0.0
 10
714.8637433212153
 20
219.257716584853
 30
0.0
 10
714.8695304121892
 20
219.2462201514334
 30
0.0
  0
SPLINE
  5
C0D
330
2
100
AcDbEntity
  8
1
  6
Continuous
 62
     7
370
    50
100
AcDbSpline
210
0.0
220
0.0
230
1.0
 70
     8
 71
     3
 72
    10
 73
     6
 74
     0
 42
0.0000000001
 43
0.0000000001
 40
0.0
 40
0.0
 40
0.0
 40
0.0
 40
0.3243842369683936
 40
0.6574288598933732
 40
1.0
 40
1.0
 40
1.0
 40
1.0
 10
714.8725410730984
 20
219.68952686643
 30
0.0
 10
714.8725482045878
 20
219.6391581619133
 30
0.0
 10
714.8725626579627
 20
219.5370760129958
 30
0.0
 10
714.8712803138685
 20
219.385207340218
 30
0.0
 10
714.8696878039062
 20
219.2938742691579
 30
0.0
 10
714.8688803213352
 20
219.2475638128386
 30
0.0
  0
SPLINE
  5
C0E
330
2
100
AcDbEntity
  8
1
  6
Continuous
 62
     7
370
    50
100
AcDbSpline
210
0.0
220
0.0
230
1.0
 70
    24
 71
     1
 72
     4
 73
     2
 74
     0
 42
0.0000000001
 43
0.0000000001
 40
0.0
 40
0.0
 40
1.0
 40
1.0
 10
714.8523944561739
 20
219.6875942721897
 30
0.0
 10
714.8728437183946
 20
219.6895784295558
 30
0.0
  0
SPLINE
  5
C0F
330
2
100
AcDbEntity
  8
1
  6
Continuous
 62
     7
370
    50
100
AcDbSpline
210
0.0
220
0.0
230
1.0
 70
     8
 71
     3
 72
     9
 73
     5
 74
     0
 42
0.0000000001
 43
0.0000000001
 40
0.0
 40
0.0
 40
0.0
 40
0.0
 40
0.4625116178727551
 40
1.0
 40
1.0
 40
1.0
 40
1.0
 10
714.8523821648226
 20
219.6875944231817
 30
0.0
 10
714.8524602799476
 20
219.621029576362
 30
0.0
 10
714.8526291732722
 20
219.4771091984784
 30
0.0
 10
714.8523299619028
 20
219.3493685605202
 30
0.0
 10
714.8521691392678
 20
219.2807094516922
 30
0.0
  0
SPLINE
  5
C10
330
2
100
AcDbEntity
  8
1
  6
Continuous
 62
     7
370
    50
100
AcDbSpline
210
0.0
220
0.0
230
1.0
 70
     8
 71
     3
 72
     8
 73
     4
 74
     0
 42
0.0000000001
 43
0.0000000001
 40
0.0
 40
0.0
 40
0.0
 40
0.0
 40
1.0
 40
1.0
 40
1.0
 40
1.0
 10
714.8526001969304
 20
218.7796111181085
 30
0.0
 10
714.8526784518203
 20
218.7767433752271
 30
0.0
 10
714.8527702516422
 20
218.775309630185
 30
0.0
 10
714.8528597704794
 20
218.7753096902319
 30
0.0
  0
SPLINE
  5
C11
330
2
100
AcDbEntity
  8
1
  6
Continuous
 62
     7
370
    50
100
AcDbSpline
210
0.0
220
0.0
230
1.0
 70
     8
 71
     3
 72
     8
 73
     4
 74
     0
 42
0.0000000001
 43
0.0000000001
 40
0.0
 40
0.0
 40
0.0
 40
0.0
 40
1.0
 40
1.0
 40
1.0
 40
1.0
 10
716.602320467295
 20
218.7848066183197
 30
0.0
 10
716.0354338539974
 20
218.7760726823629
 30
0.0
 10
715.4684418262608
 20
218.7741912492657
 30
0.0
 10
714.9015097905971
 20
218.7791650193336
 30
0.0
  0
SPLINE
  5
C12
330
2
100
AcDbEntity
  8
1
  6
Continuous
 62
     7
370
    50
100
AcDbSpline
210
0.0
220
0.0
230
1.0
 70
    24
 71
     1
 72
     4
 73
     2
 74
     0
 42
0.0000000001
 43
0.0000000001
 40
0.0
 40
0.0
 40
1.0
 40
1.0
 10
714.9015171430529
 20
218.7765417681514
 30
0.0
 10
714.9015162185007
 20
218.7758971175109
 30
0.0
  0
SPLINE
  5
C13
330
2
100
AcDbEntity
  8
1
  6
Continuous
 62
     7
370
    50
100
AcDbSpline
210
0.0
220
0.0
230
1.0
 70
     8
 71
     3
 72
     8
 73
     4
 74
     0
 42
0.0000000001
 43
0.0000000001
 40
0.0
 40
0.0
 40
0.0
 40
0.0
 40
1.0
 40
1.0
 40
1.0
 40
1.0
 10
714.9014465849006
 20
218.8458972139777
 30
0.0
 10
714.8851131954808
 20
218.8458569889478
 30
0.0
 10
714.8687798053723
 20
218.8458167825317
 30
0.0
 10
714.8524464146298
 20
218.8457765946011
 30
0.0
  0
SPLINE
  5
C14
330
2
100
AcDbEntity
  8
1
  6
Continuous
 62
     7
370
    50
100
AcDbSpline
210
0.0
220
0.0
230
1.0
 70
     8
 71
     3
 72
     8
 73
     4
 74
     0
 42
0.0000000001
 43
0.0000000001
 40
0.0
 40
0.0
 40
0.0
 40
0.0
 40
1.0
 40
1.0
 40
1.0
 40
1.0
 10
714.853203791616
 20
218.7757888273027
 30
0.0
 10
714.8529904809922
 20
218.7757797923907
 30
0.0
 10
714.8527772390892
 20
218.7757774815268
 30
0.0
 10
714.8525639593258
 20
218.7757766719297
 30
0.0
  0
SPLINE
  5
C15
330
2
100
AcDbEntity
  8
1
  6
Continuous
 62
     7
370
    50
100
AcDbSpline
210
0.0
220
0.0
230
1.0
 70
     8
 71
     3
 72
     8
 73
     4
 74
     0
 42
0.0000000001
 43
0.0000000001
 40
0.0
 40
0.0
 40
0.0
 40
0.0
 40
1.0
 40
1.0
 40
1.0
 40
1.0
 10
714.8531464116352
 20
218.8026390251602
 30
0.0
 10
714.8534065710731
 20
218.7937477781006
 30
0.0
 10
714.8537213168283
 20
218.7848082860003
 30
0.0
 10
714.8540927889192
 20
218.7758254695666
 30
0.0
  0
SPLINE
  5
C16
330
2
100
AcDbEntity
  8
1
  6
Continuous
 62
     7
370
    50
100
AcDbSpline
210
0.0
220
0.0
230
1.0
 70
     8
 71
     3
 72
     8
 73
     4
 74
     0
 42
0.0000000001
 43
0.0000000001
 40
0.0
 40
0.0
 40
0.0
 40
0.0
 40
1.0
 40
1.0
 40
1.0
 40
1.0
 10
714.8528936987571
 20
218.9052312636138
 30
0.0
 10
714.8523408650543
 20
218.8769886607912
 30
0.0
 10
714.8515883793479
 20
218.8584141151497
 30
0.0
 10
714.8517462909735
 20
218.8503522743484
 30
0.0
  0
SPLINE
  5
C17
330
2
100
AcDbEntity
  8
1
  6
Continuous
 62
     7
370
    50
100
AcDbSpline
210
0.0
220
0.0
230
1.0
 70
     8
 71
     3
 72
    10
 73
     6
 74
     0
 42
0.0000000001
 43
0.0000000001
 40
0.0
 40
0.0
 40
0.0
 40
0.0
 40
0.539792854492085
 40
0.539792854492085
 40
1.0
 40
1.0
 40
1.0
 40
1.0
 10
714.8611179417099
 20
218.8479472949509
 30
0.0
 10
714.8609745054133
 20
218.822356902458
 30
0.0
 10
714.8599749768293
 20
218.803271286736
 30
0.0
 10
714.8572759222055
 20
218.7809036639183
 30
0.0
 10
714.8557023905125
 20
218.7757073250374
 30
0.0
 10
714.8540594039022
 20
218.7756939727779
 30
0.0
  0
SPLINE
  5
C18
330
2
100
AcDbEntity
  8
1
  6
Continuous
 62
     7
370
    50
100
AcDbSpline
210
0.0
220
0.0
230
1.0
 70
     8
 71
     3
 72
     8
 73
     4
 74
     0
 42
0.0000000001
 43
0.0000000001
 40
0.0
 40
0.0
 40
0.0
 40
0.0
 40
1.0
 40
1.0
 40
1.0
 40
1.0
 10
715.3851279816591
 20
218.7840098273114
 30
0.0
 10
715.3225823218289
 20
218.7830431753982
 30
0.0
 10
715.2600364193833
 20
218.7820765118956
 30
0.0
 10
715.197490617366
 20
218.7811098487635
 30
0.0
  0
SPLINE
  5
C19
330
2
100
AcDbEntity
  8
1
  6
Continuous
 62
     7
370
    50
100
AcDbSpline
210
0.0
220
0.0
230
1.0
 70
     8
 71
     3
 72
     9
 73
     5
 74
     0
 42
0.0000000001
 43
0.0000000001
 40
0.0
 40
0.0
 40
0.0
 40
0.0
 40
0.6879111070161658
 40
1.0
 40
1.0
 40
1.0
 40
1.0
 10
716.4818178166028
 20
218.8009589207939
 30
0.0
 10
716.2303291570943
 20
218.7970717812256
 30
0.0
 10
715.8647890795474
 20
218.791423047613
 30
0.0
 10
715.4992193359812
 20
218.7857731727909
 30
0.0
 10
715.3851282721118
 20
218.7840098710494
 30
0.0
  0
SPLINE
  5
C1A
330
2
100
AcDbEntity
  8
1
  6
Continuous
 62
     7
370
    50
100
AcDbSpline
210
0.0
220
0.0
230
1.0
 70
     8
 71
     3
 72
     8
 73
     4
 74
     0
 42
0.0000000001
 43
0.0000000001
 40
0.0
 40
0.0
 40
0.0
 40
0.0
 40
1.0
 40
1.0
 40
1.0
 40
1.0
 10
716.6023534547083
 20
218.8028219525498
 30
0.0
 10
716.5621854187602
 20
218.8022010483106
 30
0.0
 10
716.5220183151144
 20
218.8015801851145
 30
0.0
 10
716.4818519660651
 20
218.8009593554124
 30
0.0
  0
SPLINE
  5
C1B
330
2
100
AcDbEntity
  8
1
  6
Continuous
 62
     7
370
    50
100
AcDbSpline
210
0.0
220
0.0
230
1.0
 70
     8
 71
     3
 72
    18
 73
    14
 74
     0
 42
0.0000000001
 43
0.0000000001
 40
0.0
 40
0.0
 40
0.0
 40
0.0
 40
0.0539856342139968
 40
0.1082894951745284
 40
0.1630383627668202
 40
0.2183559623935633
 40
0.3419423252804591
 40
0.4669322609350462
 40
0.5999745483302598
 40
0.7329332951518303
 40
0.822108920016605
 40
0.9109825200239464
 40
1.0
 40
1.0
 40
1.0
 40
1.0
 10
725.260357257038
 20
220.2129937722494
 30
0.0
 10
725.2405450592281
 20
220.1936446421104
 30
0.0
 10
725.2008038775161
 20
220.154832325365
 30
0.0
 10
725.1372746191865
 20
220.0990335429942
 30
0.0
 10
725.0707336358458
 20
220.0451380054798
 30
0.0
 10
724.9725028061297
 20
219.9724781452625
 30
0.0
 10
724.8378264324278
 20
219.8866157644601
 30
0.0
 10
724.6587702187566
 20
219.7960211040836
 30
0.0
 10
724.4669588945687
 20
219.7220879341152
 30
0.0
 10
724.2866182939787
 20
219.6736424065937
 30
0.0
 10
724.1258001092525
 20
219.6452903887486
 30
0.0
 10
723.9862802088913
 20
219.6300425988126
 30
0.0
 10
723.8928810467806
 20
219.6281529321488
 30
0.0
 10
723.8461436946678
 20
219.6272073346268
 30
0.0
  0
SPLINE
  5
C1C
330
2
100
AcDbEntity
  8
1
  6
Continuous
 62
     7
370
    50
100
AcDbSpline
210
0.0
220
0.0
230
1.0
 70
     8
 71
     3
 72
    19
 73
    15
 74
     0
 42
0.0000000001
 43
0.0000000001
 40
0.0
 40
0.0
 40
0.0
 40
0.0
 40
0.0410764124207954
 40
0.0824920225670144
 40
0.1243939112859004
 40
0.1669241146648501
 40
0.2102184852726498
 40
0.2544058280036149
 40
0.3653529195023205
 40
0.4856607904632086
 40
0.6010852712709151
 40
0.7280306007877361
 40
0.8549219085317394
 40
1.0
 40
1.0
 40
1.0
 40
1.0
 10
726.1023917269279
 20
221.0550282421467
 30
0.0
 10
726.1019578623447
 20
221.054601269143
 30
0.0
 10
726.1010865504442
 20
221.05374379731
 30
0.0
 10
726.0940828224843
 20
221.0467981100337
 30
0.0
 10
726.0829192406203
 20
221.0356688127556
 30
0.0
 10
726.0671809682379
 20
221.019927148722
 30
0.0
 10
726.0469791282369
 20
220.9996832307318
 30
0.0
 10
726.010079515108
 20
220.9626704659948
 30
0.0
 10
725.9448515284628
 20
220.8974494471416
 30
0.0
 10
725.8430652277576
 20
220.7956702230503
 30
0.0
 10
725.7213073818205
 20
220.6741053732166
 30
0.0
 10
725.585969698616
 20
220.5385342311595
 30
0.0
 10
725.4307021930983
 20
220.3834670358251
 30
0.0
 10
725.3196150604533
 20
220.2722962168901
 30
0.0
 10
725.2603572570478
 20
220.2129937722593
 30
0.0
  0
SPLINE
  5
C1D
330
2
100
AcDbEntity
  8
1
  6
Continuous
 62
     7
370
    50
100
AcDbSpline
210
0.0
220
0.0
230
1.0
 70
    24
 71
     2
 72
    12
 73
     9
 74
     0
 42
0.0000000001
 43
0.0000000001
 40
0.0
 40
0.0
 40
0.0
 40
0.25
 40
0.25
 40
0.5
 40
0.5
 40
0.75
 40
0.75
 40
1.0
 40
1.0
 40
1.0
 10
725.2249427476963
 20
220.75297970543
 30
0.0
 10
725.2250596162655
 20
220.7530863857775
 30
0.0
 10
725.1701949465801
 20
220.7030046395703
 30
0.0
 10
725.1099567044714
 20
220.6480177715083
 30
0.0
 10
724.9899226807622
 20
220.5384479236246
 30
0.0
 10
724.8575590700601
 20
220.4176233420449
 30
0.0
 10
724.6714983733745
 20
220.2477828118102
 30
0.0
 10
724.4576220254026
 20
220.0525515083094
 30
0.0
 10
724.2138472687347
 20
219.83002824215
 30
0.0
  0
SPLINE
  5
C1E
330
2
100
AcDbEntity
  8
1
  6
Continuous
 62
     7
370
    50
100
AcDbSpline
210
0.0
220
0.0
230
1.0
 70
     8
 71
     3
 72
     8
 73
     4
 74
     0
 42
0.0000000001
 43
0.0000000001
 40
0.0
 40
0.0
 40
0.0
 40
0.0
 40
1.0
 40
1.0
 40
1.0
 40
1.0
 10
715.2483376507314
 20
220.7298416794753
 30
0.0
 10
715.1188798698361
 20
220.7456879874651
 30
0.0
 10
714.9894262441376
 20
220.7615511849561
 30
0.0
 10
714.8599767170355
 20
220.7774301707759
 30
0.0
  0
SPLINE
  5
C1F
330
2
100
AcDbEntity
  8
1
  6
Continuous
 62
     7
370
    50
100
AcDbSpline
210
0.0
220
0.0
230
1.0
 70
     8
 71
     3
 72
     8
 73
     4
 74
     0
 42
0.0000000001
 43
0.0000000001
 40
0.0
 40
0.0
 40
0.0
 40
0.0
 40
1.0
 40
1.0
 40
1.0
 40
1.0
 10
714.8545916237118
 20
220.7300243657147
 30
0.0
 10
714.8564175639736
 20
220.7457727039138
 30
0.0
 10
714.8582119436213
 20
220.7615244412489
 30
0.0
 10
714.8599747491602
 20
220.7772794533036
 30
0.0
  0
SPLINE
  5
C20
330
2
100
AcDbEntity
  8
1
  6
Continuous
 62
     7
370
    50
100
AcDbSpline
210
0.0
220
0.0
230
1.0
 70
     8
 71
     3
 72
    71
 73
    67
 74
     0
 42
0.0000000001
 43
0.0000000001
 40
0.0
 40
0.0
 40
0.0
 40
0.0
 40
0.0625007034334422
 40
0.0625007034334422
 40
0.0781258792918028
 40
0.0781258792918028
 40
0.0937510551501634
 40
0.0937510551501634
 40
0.1250014068668845
 40
0.1562517585836054
 40
0.1562517585836054
 40
0.171876934441966
 40
0.171876934441966
 40
0.1875021103003265
 40
0.1875021103003265
 40
0.2500028137337687
 40
0.2500028137337687
 40
0.265627989592129
 40
0.265627989592129
 40
0.2812531654504895
 40
0.2812531654504895
 40
0.3125035171672106
 40
0.3125035171672106
 40
0.3750042206006527
 40
0.3750042206006527
 40
0.3906293964590133
 40
0.3906293964590133
 40
0.4062545723173739
 40
0.4062545723173739
 40
0.4375049240340953
 40
0.4687552757508163
 40
0.4687552757508163
 40
0.484380451609177
 40
0.484380451609177
 40
0.5000056274675378
 40
0.5000056274675378
 40
0.5625063309009803
 40
0.5625063309009803
 40
0.5781315067593408
 40
0.5781315067593408
 40
0.5937566826177015
 40
0.5937566826177015
 40
0.6250070343344225
 40
0.656257386051144
 40
0.656257386051144
 40
0.6718825619095044
 40
0.6718825619095044
 40
0.6875077377678649
 40
0.6875077377678649
 40
0.7500084412013073
 40
0.7500084412013073
 40
0.7812587929180285
 40
0.7812587929180285
 40
0.7968839687763892
 40
0.7968839687763892
 40
0.8125091446347497
 40
0.8125091446347497
 40
0.8750098480681922
 40
0.8750098480681922
 40
0.8906350239265526
 40
0.8906350239265526
 40
0.9062601997849132
 40
0.9062601997849132
 40
0.9375105515016343
 40
0.9375105515016343
 40
1.0
 40
1.0
 40
1.0
 40
1.0
 10
713.560979439358
 20
221.1050291867311
 30
0.0
 10
713.5609806403135
 20
221.1050275871982
 30
0.0
 10
713.5674554029953
 20
221.096403957985
 30
0.0
 10
713.5828392959113
 20
221.0752258771808
 30
0.0
 10
713.5862736832891
 20
221.0704742943379
 30
0.0
 10
713.593751086708
 20
221.060050619352
 30
0.0
 10
713.5978016817958
 20
221.0543680974411
 30
0.0
 10
713.6108141276179
 20
221.0359521397093
 30
0.0
 10
713.6304556970635
 20
221.0077571068171
 30
0.0
 10
713.653967291416
 20
220.9725269556257
 30
0.0
 10
713.6728160857525
 20
220.9434614795589
 30
0.0
 10
713.679307124872
 20
220.9333221710728
 30
0.0
 10
713.692513437251
 20
220.9123816597437
 30
0.0
 10
713.6992451676563
 20
220.9015554008812
 30
0.0
 10
713.7334354765968
 20
220.8456786030095
 30
0.0
 10
713.7624622281073
 20
220.7954532620954
 30
0.0
 10
713.7993873570962
 20
220.7256649616508
 30
0.0
 10
713.8068059473227
 20
220.7113531677459
 30
0.0
 10
713.8216788077368
 20
220.6820033995174
 30
0.0
 10
713.8291489435852
 20
220.6669323950358
 30
0.0
 10
713.8514462191659
 20
220.6208452177864
 30
0.0
 10
713.8661126751182
 20
220.5890599413035
 30
0.0
 10
713.9091973927206
 20
220.4904787105027
 30
0.0
 10
713.9366986019113
 20
220.4204906031398
 30
0.0
 10
713.9686023372537
 20
220.32705233084
 30
0.0
 10
713.9748645095822
 20
220.3080451170047
 30
0.0
 10
713.9869990979117
 20
220.2697957374851
 30
0.0
 10
713.9928873434716
 20
220.2505088471138
 30
0.0
 10
714.0099993070323
 20
220.1921583411326
 30
0.0
 10
714.031340730132
 20
220.1130529961258
 30
0.0
 10
714.0495781807747
 20
220.0312643177937
 30
0.0
 10
714.0620357594782
 20
219.9688664518961
 30
0.0
 10
714.0659956393346
 20
219.9478275759557
 30
0.0
 10
714.0734361595516
 20
219.9057500700344
 30
0.0
 10
714.0769170620175
 20
219.8847203793944
 30
0.0
 10
714.0931582292778
 20
219.7796192113238
 30
0.0
 10
714.1024328209602
 20
219.695684961913
 30
0.0
 10
714.1098634226421
 20
219.5910279850867
 30
0.0
 10
714.1111411606758
 20
219.5701099280186
 30
0.0
 10
714.1132911375197
 20
219.528303702148
 30
0.0
 10
714.1141577783987
 20
219.507506647856
 30
0.0
 10
714.1161583583241
 20
219.4458914746084
 30
0.0
 10
714.1172504006324
 20
219.3654219051683
 30
0.0
 10
714.1156723643115
 20
219.2882379737232
 30
0.0
 10
714.1136476178232
 20
219.2315885448385
 30
0.0
 10
714.1128323215801
 20
219.2129122018831
 30
0.0
 10
714.1109459860025
 20
219.1759789077029
 30
0.0
 10
714.1098732778297
 20
219.1576970157843
 30
0.0
 10
714.1039489655915
 20
219.0676276964008
 30
0.0
 10
714.0975584056401
 20
219.0014992112262
 30
0.0
 10
714.0869485641217
 20
218.9107232507041
 30
0.0
 10
714.0832366152802
 20
218.8818790123787
 30
0.0
 10
714.0775605749711
 20
218.8407777327666
 30
0.0
 10
714.0756450663245
 20
218.827403293472
 30
0.0
 10
714.0718354660553
 20
218.8016113751788
 30
0.0
 10
714.0699412491906
 20
218.7891894767197
 30
0.0
 10
714.0605816588593
 20
218.7294043268628
 30
0.0
 10
714.0533896216631
 20
218.6889438207261
 30
0.0
 10
714.0460319120668
 20
218.6475725119173
 30
0.0
 10
714.0446350712037
 20
218.6397632653392
 30
0.0
 10
714.0419992752406
 20
218.6250939967641
 30
0.0
 10
714.0407610978027
 20
218.6182384695129
 30
0.0
 10
714.0373334474037
 20
218.5993325979969
 30
0.0
 10
714.0354146469027
 20
218.5888503663184
 30
0.0
 10
714.0307777409621
 20
218.5636242464394
 30
0.0
 10
714.0291717949716
 20
218.5550288338085
 30
0.0
 10
714.0291718500764
 20
218.5550291287346
 30
0.0
  0
HATCH
  5
C21
330
2
100
AcDbEntity
  8
1
  6
Continuous
 62
     1
370
    25
100
AcDbHatch
 10
0.0
 20
0.0
 30
0.0
210
0.0
220
0.0
230
1.0
  2
ANSI31
 70
     0
 71
     0
 91
        1
 92
        0
 93
       24
 72
     1
 10
705.6142687756599
 20
220.9550282421467
 11
705.1023937756599
 21
221.4800282421466
 72
     1
 10
705.1023937756599
 20
221.4800282421466
 11
705.1023937756599
 21
221.5800282421466
 72
     1
 10
705.1023937756599
 20
221.5800282421466
 11
706.1023937756599
 21
221.5800282421466
 72
     1
 10
706.1023937756599
 20
221.5800282421466
 11
706.1023937756599
 21
221.4300301868897
 72
     1
 10
706.1023937756599
 20
221.4300301868896
 11
710.1023917269388
 21
221.4300301868896
 72
     1
 10
710.1023917269388
 20
221.4300301868896
 11
710.1023917269388
 21
221.5800286456096
 72
     1
 10
710.1023917269388
 20
221.5800286456096
 11
711.6023959653546
 21
221.5800286456096
 72
     1
 10
711.6023959653546
 20
221.5800286456096
 11
711.6023959653546
 21
221.1050283869647
 72
     1
 10
711.6023959653546
 20
221.1050283869647
 11
713.5609800398238
 21
221.1050283869647
 72
     4
 94
        3
 73
     0
 74
     0
 95
       10
 96
        6
 40
0.0
 40
0.0
 40
0.0
 40
0.0
 40
0.9503490624113092
 40
0.9503490624113092
 40
1.0
 40
1.0
 40
1.0
 40
1.0
 10
713.5609800398275
 20
221.1050283869676
 10
714.0542951337177
 20
220.4410051210933
 10
714.2191121450256
 20
219.6396173058485
 10
714.0468795646567
 20
218.6518198725239
 10
714.0379906030277
 20
218.6032326309275
 10
714.0291716537426
 20
218.5550280781983
 72
     1
 10
714.0291716537426
 20
218.5550280781983
 11
711.6023959653545
 21
218.5550280973286
 72
     1
 10
711.6023959653546
 20
218.5550280973286
 11
711.6023959653546
 21
218.0800278386836
 72
     1
 10
711.6023959653546
 20
218.0800278386837
 11
710.1023917269388
 21
218.0800278386837
 72
     1
 10
710.1023917269388
 20
218.0800278386837
 11
710.1023917269388
 21
218.2300262974037
 72
     1
 10
710.1023917269388
 20
218.2300262974037
 11
706.1023937756599
 21
218.2300262974037
 72
     1
 10
706.1023937756599
 20
218.2300262974037
 11
706.1023937756599
 21
218.0800282421467
 72
     1
 10
706.1023937756599
 20
218.0800282421467
 11
705.1023937756599
 21
218.0800282421467
 72
     1
 10
705.1023937756599
 20
218.0800282421467
 11
705.1023937756599
 21
218.1800282421467
 72
     1
 10
705.1023937756599
 20
218.1800282421467
 11
705.6142687756599
 21
218.7050282421467
 72
     1
 10
705.6142687756599
 20
218.7050282421466
 11
707.5023917269378
 21
218.7050282421466
 72
     1
 10
707.5023917269378
 20
218.7050282421466
 11
711.1235798991962
 21
218.7050282421466
 72
     1
 10
711.1235798991962
 20
218.7050282421466
 11
711.7730989520342
 21
219.8300282421466
 72
     1
 10
711.7730989520342
 20
219.8300282421467
 11
711.1235798991962
 21
220.9550282421466
 72
     1
 10
711.1235798991962
 20
220.9550282421467
 11
705.6142687756599
 21
220.9550282421467
 97
        0
 75
     0
 76
     1
 52
0.0
 41
0.1
 77
     0
 78
     1
 53
45.0
 43
686.5695439140896
 44
189.70832281579
 45
-0.2245064030267288
 46
0.2245064030267288
 79
     0
 98
        0
1001
ACAD
1010
0.0
1020
0.0
1030
0.0
  0
DIMENSION
  5
C22
330
2
100
AcDbEntity
  8
0
100
AcDbDimension
  2
*D12
 10
726.6023917269379
 20
227.0579974894495
 30
0.0
 11
714.8093769488521
 21
227.0579974894495
 31
0.0
 70
   160
 71
     5
 42
21.49999795127792
 73
     0
 74
     0
 75
     0
  3
01
100
AcDbAlignedDimension
 13
705.1023937756599
 23
219.8300282421467
 33
0.0
 14
726.6023917269379
 24
219.8300282421467
 34
0.0
100
AcDbRotatedDimension
  0
DIMENSION
  5
C23
330
2
100
AcDbEntity
  8
0
100
AcDbDimension
  2
*D13
 10
711.1235798991962
 20
223.4419983692782
 30
0.0
 11
708.1173841451231
 21
223.4419983692782
 31
0.0
 70
   160
 71
     5
 42
6.021186123536153
 73
     0
 74
     0
 75
     0
  3
01
100
AcDbAlignedDimension
 13
705.1023937756599
 23
219.8300282421467
 33
0.0
 14
711.1235798991962
 24
219.8300282421467
 34
0.0
100
AcDbRotatedDimension
  0
DIMENSION
  5
C24
330
2
100
AcDbEntity
  8
0
100
AcDbDimension
  2
*D14
 10
694.5298433364296
 20
221.5800282421467
 30
0.0
 11
693.0167027319618
 21
227.4634710805174
 31
0.0
 70
    32
  1
{\fISOCPEUR|b0|i0|c0|p34;%%C}<>
 71
     5
 42
3.5
 73
     0
 74
     0
 75
     0
  3
01
100
AcDbAlignedDimension
 13
705.6023937756599
 23
218.0800282421467
 33
0.0
 14
705.6023937756599
 24
221.5800282421466
 34
0.0
 50
90.0
100
AcDbRotatedDimension
  0
DIMENSION
  5
C25
330
2
100
AcDbEntity
  8
0
100
AcDbDimension
  2
*D15
 10
701.7090328907283
 20
220.9550282421467
 30
0.0
 11
701.7090328907283
 21
227.5608758111349
 31
0.0
 70
   160
  1
{\fISOCPEUR|b0|i0|c0|p34;%%C}2.25
 71
     5
 42
2.25
 73
     0
 74
     0
 75
     0
  3
01
100
AcDbAlignedDimension
 13
707.2575508288523
 23
218.7050282421466
 33
0.0
 14
707.2575508288523
 24
220.9550282421467
 34
0.0
 50
90.0
100
AcDbRotatedDimension
  0
DIMENSION
  5
C26
330
2
100
AcDbEntity
  8
0
100
AcDbDimension
  2
*D16
 10
698.2711773732344
 20
218.2300262974037
 30
0.0
 11
696.7580367687665
 21
212.3544678217139
 31
0.0
 70
    32
  1
{\fISOCPEUR|b0|i0|c0|p34;%%C}<>
 71
     5
 42
3.200003889485969
 73
     0
 74
     0
 75
     0
  3
01
100
AcDbAlignedDimension
 13
708.3238794286174
 23
221.4300301868896
 33
0.0
 14
708.1023927512994
 24
218.2300262974037
 34
0.0
 50
90.0
100
AcDbRotatedDimension
  0
ENDSEC
  0
SECTION
  2
OBJECTS
  0
DICTIONARY
  5
B
330
0
100
AcDbDictionary
281
     1
  3
ACAD_COLOR
350
221
  3
ACAD_GROUP
350
20E
  3
ACAD_LAYOUT
350
1EF
  3
ACAD_MATERIAL
350
D
  3
ACAD_MLEADERSTYLE
350
283
  3
ACAD_MLINESTYLE
350
20F
  3
ACAD_PLOTSETTINGS
350
210
  3
ACAD_PLOTSTYLENAME
350
A
  3
ACAD_SCALELIST
350
222
  3
ACAD_TABLESTYLE
350
223
  3
ACAD_VISUALSTYLE
350
208
  3
ACDB_RECOMPOSE_DATA
350
273
  3
AcDbVariableDictionary
350
24B
  3
lxx_dict
350
9A7
  0
DICTIONARY
  5
209
330
205
100
AcDbDictionary
280
     1
281
     1
  0
DICTIONARY
  5
1FA
330
1F9
100
AcDbDictionary
280
     1
281
     1
  3
ACAD_LAYERFILTERS
360
6D9
  3
ACAD_LAYERSTATES
360
1FC
  3
ACLYDICTIONARY
360
6D8
  0
DICTIONARY
  5
7
330
6
100
AcDbDictionary
280
     1
281
     1
  3
ADSK_XREC_LAYER_RECONCILED
360
8
  0
DICTIONARY
  5
18
330
17
100
AcDbDictionary
280
     1
281
     1
  3
ADSK_XREC_LAYER_RECONCILED
360
19
  0
DICTIONARY
  5
26
330
25
100
AcDbDictionary
280
     1
281
     1
  3
ADSK_XREC_LAYER_RECONCILED
360
27
  0
DICTIONARY
  5
3
330
2
100
AcDbDictionary
280
     1
281
     1
  3
ACAD_SORTENTS
360
24A
  0
DICTIONARY
  5
DCD
330
293
100
AcDbDictionary
280
     1
281
     1
  0
DICTIONARY
  5
DD4
330
D38
100
AcDbDictionary
280
     1
281
     1
  3
ACAD_MTEXT_2008_RT
360
DD5
  0
DICTIONARY
  5
DD6
330
D7C
100
AcDbDictionary
280
     1
281
     1
  3
ACAD_MTEXT_2008_RT
360
DD7
  0
DICTIONARY
  5
DD8
330
D7D
100
AcDbDictionary
280
     1
281
     1
  3
ACAD_MTEXT_2008_RT
360
DD9
  0
DICTIONARY
  5
DDA
330
DA2
100
AcDbDictionary
280
     1
281
     1
  3
ACAD_MTEXT_2008_RT
360
DDB
  0
DICTIONARY
  5
DDC
330
DA5
100
AcDbDictionary
280
     1
281
     1
  3
ACAD_MTEXT_2008_RT
360
DDD
  0
DICTIONARY
  5
DDE
330
DA6
100
AcDbDictionary
280
     1
281
     1
  3
ACAD_MTEXT_2008_RT
360
DDF
  0
DICTIONARY
  5
DE0
330
DB0
100
AcDbDictionary
280
     1
281
     1
  3
ACAD_MTEXT_2008_RT
360
DE1
  0
DICTIONARY
  5
DE2
330
DB1
100
AcDbDictionary
280
     1
281
     1
  3
ACAD_MTEXT_2008_RT
360
DE3
  0
DICTIONARY
  5
DE4
330
DB2
100
AcDbDictionary
280
     1
281
     1
  3
ACAD_MTEXT_2008_RT
360
DE5
  0
DICTIONARY
  5
DE6
330
DC0
100
AcDbDictionary
280
     1
281
     1
  3
ACAD_MTEXT_2008_RT
360
DE7
  0
DICTIONARY
  5
DE8
330
DC1
100
AcDbDictionary
280
     1
281
     1
  3
ACAD_MTEXT_2008_RT
360
DE9
  0
DICTIONARY
  5
DEA
330
DC2
100
AcDbDictionary
280
     1
281
     1
  3
ACAD_MTEXT_2008_RT
360
DEB
  0
DICTIONARY
  5
DD2
330
480
100
AcDbDictionary
280
     1
281
     1
  3
ACAD_MTEXT_2008_RT
360
DD3
  0
DICTIONARY
  5
221
102
{ACAD_REACTORS
330
B
102
}
330
B
100
AcDbDictionary
281
     1
  0
DICTIONARY
  5
20E
102
{ACAD_REACTORS
330
B
102
}
330
B
100
AcDbDictionary
281
     1
  0
DICTIONARY
  5
1EF
102
{ACAD_REACTORS
330
B
102
}
330
B
100
AcDbDictionary
281
     1
  3
Layout1
350
1F4
  3
Layout2
350
1F8
  3
Model
350
1EE
  0
DICTIONARY
  5
D
102
{ACAD_REACTORS
330
B
102
}
330
B
100
AcDbDictionary
281
     1
  3
ByBlock
350
219
  3
ByLayer
350
211
  3
Global
350
C
  0
DICTIONARY
  5
283
102
{ACAD_REACTORS
330
B
102
}
330
B
100
AcDbDictionary
281
     1
  3
Standard
350
284
  0
DICTIONARY
  5
20F
102
{ACAD_REACTORS
330
B
102
}
330
B
100
AcDbDictionary
281
     1
  3
Standard
350
224
  0
DICTIONARY
  5
210
102
{ACAD_REACTORS
330
B
102
}
330
B
100
AcDbDictionary
281
     1
  0
ACDBDICTIONARYWDFLT
  5
A
102
{ACAD_REACTORS
330
B
102
}
330
B
100
AcDbDictionary
281
     1
  3
Normal
350
9
100
AcDbDictionaryWithDefault
340
9
  0
DICTIONARY
  5
222
102
{ACAD_REACTORS
330
B
102
}
330
B
100
AcDbDictionary
281
     1
  3
A0
350
229
  3
A1
350
22A
  3
A2
350
22B
  3
A3
350
22C
  3
A4
350
22D
  3
A5
350
22E
  3
A6
350
22F
  3
A7
350
230
  3
A8
350
231
  3
A9
350
232
  3
B0
350
233
  3
B1
350
234
  3
B2
350
235
  3
B3
350
236
  3
B4
350
237
  3
B5
350
238
  3
B6
350
239
  3
B7
350
23A
  3
B8
350
23B
  3
B9
350
23C
  3
C0
350
23D
  3
C1
350
23E
  3
C2
350
23F
  3
C3
350
240
  3
C4
350
241
  3
C5
350
242
  3
C6
350
243
  3
C7
350
244
  3
C8
350
245
  3
C9
350
246
  3
D0
350
247
  3
D1
350
248
  3
D2
350
249
  0
DICTIONARY
  5
223
102
{ACAD_REACTORS
330
B
102
}
330
B
100
AcDbDictionary
281
     1
  3
Standard
350
225
  0
DICTIONARY
  5
208
102
{ACAD_REACTORS
330
B
102
}
330
B
100
AcDbDictionary
281
     1
  3
2dWireframe
350
207
  3
3D Hidden
350
27B
  3
3dWireframe
350
228
  3
Basic
350
27A
  3
Brighten
350
27E
  3
ColorChange
350
282
  3
Conceptual
350
27C
  3
Dim
350
27D
  3
Facepattern
350
281
  3
Flat
350
276
  3
FlatWithEdges
350
277
  3
Gouraud
350
278
  3
GouraudWithEdges
350
279
  3
Linepattern
350
280
  3
Realistic
350
227
  3
Thicken
350
27F
  0
XRECORD
  5
273
102
{ACAD_REACTORS
330
B
102
}
330
B
100
AcDbXrecord
280
     1
 90
        1
330
225
330
480
330
D38
330
D7C
330
D7D
330
DA2
330
DA5
330
DA6
330
DB0
330
DB1
330
DB2
330
DC0
330
DC1
330
DC2
  0
DICTIONARY
  5
24B
102
{ACAD_REACTORS
330
B
102
}
330
B
100
AcDbDictionary
281
     1
  3
CANNOSCALE
350
24E
  3
CMLEADERSTYLE
350
24D
  3
CTABLESTYLE
350
24C
  3
DIMASSOC
350
5D8
  3
HIDETEXT
350
5D7
  3
INDEXCTL
350
5D6
  3
LIGHTINGUNITS
350
24F
  3
MSLTSCALE
350
5D4
  3
SORTENTS
350
5D5
  0
DICTIONARY
  5
9A7
102
{ACAD_REACTORS
330
B
102
}
330
B
100
AcDbDictionary
281
     1
  3
lxx_dimth
350
9A8
  0
DICTIONARY
  5
6D9
102
{ACAD_REACTORS
330
1FA
102
}
330
1FA
100
AcDbDictionary
281
     1
  0
DICTIONARY
  5
1FC
102
{ACAD_REACTORS
330
1FA
102
}
330
1FA
100
AcDbDictionary
281
     1
  0
DICTIONARY
  5
6D8
102
{ACAD_REACTORS
330
1FA
102
}
330
1FA
100
AcDbDictionary
281
     1
1001
ACAD
1000
<All
  0
XRECORD
  5
8
102
{ACAD_REACTORS
330
7
102
}
330
7
100
AcDbXrecord
280
     1
290
     1
  0
XRECORD
  5
19
102
{ACAD_REACTORS
330
18
102
}
330
18
100
AcDbXrecord
280
     1
290
     1
  0
XRECORD
  5
27
102
{ACAD_REACTORS
330
26
102
}
330
26
100
AcDbXrecord
280
     1
290
     1
  0
SORTENTSTABLE
  5
24A
102
{ACAD_REACTORS
330
3
102
}
330
3
100
AcDbSortentsTable
330
2
  0
XRECORD
  5
DD5
102
{ACAD_REACTORS
330
DD4
102
}
330
DD4
100
AcDbXrecord
280
     1
 40
1144.0
  1
\pxqc;GQ.WU
  0
XRECORD
  5
DD7
102
{ACAD_REACTORS
330
DD6
102
}
330
DD6
100
AcDbXrecord
280
     1
 40
3624820.0
  1
\pxqc;档案员{\H0.7x;\P\Fromans|c134;Filing Clerk\fFangSong_GB2312|b0|i0|c134|p49; }
  0
XRECORD
  5
DD9
102
{ACAD_REACTORS
330
DD8
102
}
330
DD8
100
AcDbXrecord
280
     1
 40
2054623.0
  1
\pxqc;日期{\Fromans|c134;/Date}
  0
XRECORD
  5
DDB
102
{ACAD_REACTORS
330
DDA
102
}
330
DDA
100
AcDbXrecord
280
     1
 40
1836818.0
  1
\pxsm0.7;{\fFangSong_GB2312|b0|i0|c134|p49;标准化}\PStand.
  0
XRECORD
  5
DDD
102
{ACAD_REACTORS
330
DDC
102
}
330
DDC
100
AcDbXrecord
280
     1
 40
1476476.0
  1
\pxsm0.7;签名\P{\Fromans|c134;Signature} 
  0
XRECORD
  5
DDF
102
{ACAD_REACTORS
330
DDE
102
}
330
DDE
100
AcDbXrecord
280
     1
 40
1354713.0
  1
\pxsm0.7,qc;处数\P{\Fromans|c134;Number }
  0
XRECORD
  5
DE1
102
{ACAD_REACTORS
330
DE0
102
}
330
DE0
100
AcDbXrecord
280
     1
 40
1692934.0
  1
\pxsm0.7;标记\P{\Fromans|c134;Mark}
  0
XRECORD
  5
DE3
102
{ACAD_REACTORS
330
DE2
102
}
330
DE2
100
AcDbXrecord
280
     1
 40
1391581.0
  1
\pxsm0.7;审核\P{\Fromans|c134;Checked}
  0
XRECORD
  5
DE5
102
{ACAD_REACTORS
330
DE4
102
}
330
DE4
100
AcDbXrecord
280
     1
 40
1546703.0
  1
\pxsm0.7;绘图\P{\Fromans|c134;Drawn\Ftxt|c134; }
  0
XRECORD
  5
DE7
102
{ACAD_REACTORS
330
DE6
102
}
330
DE6
100
AcDbXrecord
280
     1
 40
1293614.0
  1
\pxsm0.7;批准\P{\Fromans|c134;Approved}
  0
XRECORD
  5
DE9
102
{ACAD_REACTORS
330
DE8
102
}
330
DE8
100
AcDbXrecord
280
     1
 40
1583427.0
  1
\pxsm0.7;工艺\P{\Fromans|c134;Process}
  0
XRECORD
  5
DEB
102
{ACAD_REACTORS
330
DEA
102
}
330
DEA
100
AcDbXrecord
280
     1
 40
1435325.0
  1
\pxsm0.7;日期\P{\Fromans|c134;Date}
  0
XRECORD
  5
DD3
102
{ACAD_REACTORS
330
DD2
102
}
330
DD2
100
AcDbXrecord
280
     1
 40
322398333.0
  1
\A1;\pxql;{\f仿宋_GB2312|b0|i0|c134|p49;技术参数}:\P\pq*;- {\f仿宋_GB2312|b0|i0|c134|p49;材料}: {\f仿宋_GB2312|b0|i0|c134|p49;铜合金}\P- {\f仿宋_GB2312|b0|i0|c134|p49;表面处理}: {\f仿宋_GB2312|b0|i0|c134|p49;镀银}\P\pql;- {\f仿宋_GB2312|b0|i0|c134|p49;额定电流}: 10A\P- {\f仿宋_GB231
  1
2|b0|i0|c134|p49;接触电阻}: ≤3mΩ\P- {\f仿宋_GB2312|b0|i0|c134|p49;线径范围}: 2.5mm{\H0.7x;\S2^ ;}(14 AWG)\P\pq*;- {\f仿宋_GB2312|b0|i0|c134|p49;可插拔次数}: {\f仿宋_GB2312|b0|i0|c134|p49;≥}500\P\P\pql;Technical specification:\P- Material: copper alloy\P- Surface: hard-s
  1
ilver plated\P- Rated current: 10A\P- Contact resistance: ≤3mΩ\P- Wire gauge: 2.5mm{\H0.7x;\S2^ ;}(14 AWG)\P- Mating cycles: {\f仿宋_GB2312|b0|i0|c134|p49;≥}500
  0
LAYOUT
  5
1F4
102
{ACAD_REACTORS
330
1EF
102
}
330
1EF
100
AcDbPlotSettings
  1

  2
none_device
  4

  6

 40
0.0
 41
0.0
 42
0.0
 43
0.0
 44
0.0
 45
0.0
 46
0.0
 47
0.0
 48
0.0
 49
0.0
140
0.0
141
0.0
142
1.0
143
1.0
 70
   688
 72
     0
 73
     0
 74
     5
  7

 75
    16
147
1.0
 76
     0
 77
     2
 78
   300
148
0.0
149
0.0
100
AcDbLayout
  1
Layout1
 70
     1
 71
     1
 10
0.0
 20
0.0
 11
12.0
 21
9.0
 12
0.0
 22
0.0
 32
0.0
 14
1.000000000000000E+20
 24
1.000000000000000E+20
 34
1.000000000000000E+20
 15
-1.000000000000000E+20
 25
-1.000000000000000E+20
 35
-1.000000000000000E+20
146
0.0
 13
0.0
 23
0.0
 33
0.0
 16
1.0
 26
0.0
 36
0.0
 17
0.0
 27
1.0
 37
0.0
 76
     0
330
1F1
  0
LAYOUT
  5
1F8
102
{ACAD_REACTORS
330
1EF
102
}
330
1EF
100
AcDbPlotSettings
  1

  2
none_device
  4

  6

 40
0.0
 41
0.0
 42
0.0
 43
0.0
 44
0.0
 45
0.0
 46
0.0
 47
0.0
 48
0.0
 49
0.0
140
0.0
141
0.0
142
1.0
143
1.0
 70
   688
 72
     0
 73
     0
 74
     5
  7

 75
    16
147
1.0
 76
     0
 77
     2
 78
   300
148
0.0
149
0.0
100
AcDbLayout
  1
Layout2
 70
     1
 71
     2
 10
0.0
 20
0.0
 11
0.0
 21
0.0
 12
0.0
 22
0.0
 32
0.0
 14
0.0
 24
0.0
 34
0.0
 15
0.0
 25
0.0
 35
0.0
146
0.0
 13
0.0
 23
0.0
 33
0.0
 16
1.0
 26
0.0
 36
0.0
 17
0.0
 27
1.0
 37
0.0
 76
     0
330
1F5
  0
LAYOUT
  5
1EE
102
{ACAD_REACTORS
330
1EF
102
}
330
1EF
100
AcDbPlotSettings
  1

  2
Adobe PDF Converter.pc3
  4
A4
  6

 40
3.174999952316281
 41
3.174999952316281
 42
3.17498779296875
 43
3.175003051757812
 44
297.0318298339844
 45
209.9733276367186
 46
0.0000000000000076
 47
1.630241740247063
 48
246.9897427644609
 49
39.36804549891383
140
544.952097801264
141
244.7492402188181
142
1.0
143
1.025046328645055
 70
  3764
 72
     1
 73
     0
 74
     4
  7
monochrome.ctb
 75
     0
147
0.9755656618192436
 76
     1
 77
     2
 78
   300
148
-246.9897427644609
149
-39.36804549891383
100
AcDbLayout
  1
Model
 70
     1
 71
     0
 10
0.0
 20
0.0
 11
12.0
 21
9.0
 12
0.0
 22
0.0
 32
0.0
 14
1.000000000000000E+20
 24
1.000000000000000E+20
 34
1.000000000000000E+20
 15
-1.000000000000000E+20
 25
-1.000000000000000E+20
 35
-1.000000000000000E+20
146
0.0
 13
0.0
 23
0.0
 33
0.0
 16
1.0
 26
0.0
 36
0.0
 17
0.0
 27
1.0
 37
0.0
 76
     0
330
2
331
206
1001
ACAD_PSEXT
1000
Adobe PDF Converter.pc3
1000
Adobe PDF Converter
1000
桌面\*.pdf
1000

1070
     0
  0
MATERIAL
  5
219
102
{ACAD_XDICTIONARY
360
21A
102
}
102
{ACAD_REACTORS
330
D
102
}
330
D
100
AcDbMaterial
  1
ByBlock
 72
     0
 43
0.0208333333333333
 43
0.0
 43
0.0
 43
0.0
 43
0.0
 43
0.0208333333333333
 43
0.0
 43
0.0
 43
0.0
 43
0.0
 43
1.0
 43
0.0
 43
0.0
 43
0.0
 43
0.0
 43
1.0
 77
     0
 47
0.0208333333333333
 47
0.0
 47
0.0
 47
0.0
 47
0.0
 47
0.0208333333333333
 47
0.0
 47
0.0
 47
0.0
 47
0.0
 47
1.0
 47
0.0
 47
0.0
 47
0.0
 47
0.0
 47
1.0
171
     0
 49
0.0208333333333333
 49
0.0
 49
0.0
 49
0.0
 49
0.0
 49
0.0208333333333333
 49
0.0
 49
0.0
 49
0.0
 49
0.0
 49
1.0
 49
0.0
 49
0.0
 49
0.0
 49
0.0
 49
1.0
175
     0
142
0.0208333333333333
142
0.0
142
0.0
142
0.0
142
0.0
142
0.0208333333333333
142
0.0
142
0.0
142
0.0
142
0.0
142
1.0
142
0.0
142
0.0
142
0.0
142
0.0
142
1.0
179
     0
144
0.0208333333333333
144
0.0
144
0.0
144
0.0
144
0.0
144
0.0208333333333333
144
0.0
144
0.0
144
0.0
144
0.0
144
1.0
144
0.0
144
0.0
144
0.0
144
0.0
144
1.0
147
0.0208333333333333
147
0.0
147
0.0
147
0.0
147
0.0
147
0.0208333333333333
147
0.0
147
0.0
147
0.0
147
0.0
147
1.0
147
0.0
147
0.0
147
0.0
147
0.0
147
1.0
  0
MATERIAL
  5
211
102
{ACAD_XDICTIONARY
360
212
102
}
102
{ACAD_REACTORS
330
D
102
}
330
D
100
AcDbMaterial
  1
ByLayer
 72
     0
 43
0.0208333333333333
 43
0.0
 43
0.0
 43
0.0
 43
0.0
 43
0.0208333333333333
 43
0.0
 43
0.0
 43
0.0
 43
0.0
 43
1.0
 43
0.0
 43
0.0
 43
0.0
 43
0.0
 43
1.0
 77
     0
 47
0.0208333333333333
 47
0.0
 47
0.0
 47
0.0
 47
0.0
 47
0.0208333333333333
 47
0.0
 47
0.0
 47
0.0
 47
0.0
 47
1.0
 47
0.0
 47
0.0
 47
0.0
 47
0.0
 47
1.0
171
     0
 49
0.0208333333333333
 49
0.0
 49
0.0
 49
0.0
 49
0.0
 49
0.0208333333333333
 49
0.0
 49
0.0
 49
0.0
 49
0.0
 49
1.0
 49
0.0
 49
0.0
 49
0.0
 49
0.0
 49
1.0
175
     0
142
0.0208333333333333
142
0.0
142
0.0
142
0.0
142
0.0
142
0.0208333333333333
142
0.0
142
0.0
142
0.0
142
0.0
142
1.0
142
0.0
142
0.0
142
0.0
142
0.0
142
1.0
179
     0
144
0.0208333333333333
144
0.0
144
0.0
144
0.0
144
0.0
144
0.0208333333333333
144
0.0
144
0.0
144
0.0
144
0.0
144
1.0
144
0.0
144
0.0
144
0.0
144
0.0
144
1.0
147
0.0208333333333333
147
0.0
147
0.0
147
0.0
147
0.0
147
0.0208333333333333
147
0.0
147
0.0
147
0.0
147
0.0
147
1.0
147
0.0
147
0.0
147
0.0
147
0.0
147
1.0
  0
MATERIAL
  5
C
102
{ACAD_XDICTIONARY
360
E
102
}
102
{ACAD_REACTORS
330
D
102
}
330
D
100
AcDbMaterial
  1
Global
 72
     0
 43
0.0208333333333333
 43
0.0
 43
0.0
 43
0.0
 43
0.0
 43
0.0208333333333333
 43
0.0
 43
0.0
 43
0.0
 43
0.0
 43
1.0
 43
0.0
 43
0.0
 43
0.0
 43
0.0
 43
1.0
 77
     0
 47
0.0208333333333333
 47
0.0
 47
0.0
 47
0.0
 47
0.0
 47
0.0208333333333333
 47
0.0
 47
0.0
 47
0.0
 47
0.0
 47
1.0
 47
0.0
 47
0.0
 47
0.0
 47
0.0
 47
1.0
171
     0
 49
0.0208333333333333
 49
0.0
 49
0.0
 49
0.0
 49
0.0
 49
0.0208333333333333
 49
0.0
 49
0.0
 49
0.0
 49
0.0
 49
1.0
 49
0.0
 49
0.0
 49
0.0
 49
0.0
 49
1.0
175
     0
142
0.0208333333333333
142
0.0
142
0.0
142
0.0
142
0.0
142
0.0208333333333333
142
0.0
142
0.0
142
0.0
142
0.0
142
1.0
142
0.0
142
0.0
142
0.0
142
0.0
142
1.0
179
     0
144
0.0208333333333333
144
0.0
144
0.0
144
0.0
144
0.0
144
0.0208333333333333
144
0.0
144
0.0
144
0.0
144
0.0
144
1.0
144
0.0
144
0.0
144
0.0
144
0.0
144
1.0
147
0.0208333333333333
147
0.0
147
0.0
147
0.0
147
0.0
147
0.0208333333333333
147
0.0
147
0.0
147
0.0
147
0.0
147
1.0
147
0.0
147
0.0
147
0.0
147
0.0
147
1.0
  0
MLEADERSTYLE
  5
284
102
{ACAD_REACTORS
330
283
102
}
330
283
100
AcDbMLeaderStyle
170
     2
171
     1
172
     0
 90
        2
 40
0.0
 41
0.0
173
     1
 91
-1056964608
340
201
 92
       -2
290
     1
 42
0.09
291
     1
 43
0.36
  3
Standard
 44
0.18
300

342
46
174
     1
178
     6
175
     1
176
     0
 93
-1056964608
 45
0.18
292
     0
297
     0
 46
0.18
 94
-1056964608
 47
1.0
 49
1.0
140
1.0
293
     1
141
0.0
294
     1
177
     0
142
1.0
295
     0
296
     0
143
0.125
1001
ACAD_MLEADERVER
1070
     2
  0
MLINESTYLE
  5
224
102
{ACAD_REACTORS
330
20F
102
}
330
20F
100
AcDbMlineStyle
  2
STANDARD
 70
     0
  3

 62
   256
 51
90.0
 52
90.0
 71
     2
 49
0.5
 62
   256
  6
BYLAYER
 49
-0.5
 62
   256
  6
BYLAYER
  0
ACDBPLACEHOLDER
  5
9
102
{ACAD_REACTORS
330
A
102
}
330
A
  0
SCALE
  5
229
102
{ACAD_REACTORS
330
222
102
}
330
222
100
AcDbScale
 70
     0
300
1:1
140
1.0
141
1.0
290
     1
  0
SCALE
  5
22A
102
{ACAD_REACTORS
330
222
102
}
330
222
100
AcDbScale
 70
     0
300
1:2
140
1.0
141
2.0
290
     0
  0
SCALE
  5
22B
102
{ACAD_REACTORS
330
222
102
}
330
222
100
AcDbScale
 70
     0
300
1:4
140
1.0
141
4.0
290
     0
  0
SCALE
  5
22C
102
{ACAD_REACTORS
330
222
102
}
330
222
100
AcDbScale
 70
     0
300
1:5
140
1.0
141
5.0
290
     0
  0
SCALE
  5
22D
102
{ACAD_REACTORS
330
222
102
}
330
222
100
AcDbScale
 70
     0
300
1:8
140
1.0
141
8.0
290
     0
  0
SCALE
  5
22E
102
{ACAD_REACTORS
330
222
102
}
330
222
100
AcDbScale
 70
     0
300
1:10
140
1.0
141
10.0
290
     0
  0
SCALE
  5
22F
102
{ACAD_REACTORS
330
222
102
}
330
222
100
AcDbScale
 70
     0
300
1:16
140
1.0
141
16.0
290
     0
  0
SCALE
  5
230
102
{ACAD_REACTORS
330
222
102
}
330
222
100
AcDbScale
 70
     0
300
1:20
140
1.0
141
20.0
290
     0
  0
SCALE
  5
231
102
{ACAD_REACTORS
330
222
102
}
330
222
100
AcDbScale
 70
     0
300
1:30
140
1.0
141
30.0
290
     0
  0
SCALE
  5
232
102
{ACAD_REACTORS
330
222
102
}
330
222
100
AcDbScale
 70
     0
300
1:40
140
1.0
141
40.0
290
     0
  0
SCALE
  5
233
102
{ACAD_REACTORS
330
222
102
}
330
222
100
AcDbScale
 70
     0
300
1:50
140
1.0
141
50.0
290
     0
  0
SCALE
  5
234
102
{ACAD_REACTORS
330
222
102
}
330
222
100
AcDbScale
 70
     0
300
1:100
140
1.0
141
100.0
290
     0
  0
SCALE
  5
235
102
{ACAD_REACTORS
330
222
102
}
330
222
100
AcDbScale
 70
     0
300
2:1
140
2.0
141
1.0
290
     0
  0
SCALE
  5
236
102
{ACAD_REACTORS
330
222
102
}
330
222
100
AcDbScale
 70
     0
300
4:1
140
4.0
141
1.0
290
     0
  0
SCALE
  5
237
102
{ACAD_REACTORS
330
222
102
}
330
222
100
AcDbScale
 70
     0
300
8:1
140
8.0
141
1.0
290
     0
  0
SCALE
  5
238
102
{ACAD_REACTORS
330
222
102
}
330
222
100
AcDbScale
 70
     0
300
10:1
140
10.0
141
1.0
290
     0
  0
SCALE
  5
239
102
{ACAD_REACTORS
330
222
102
}
330
222
100
AcDbScale
 70
     0
300
100:1
140
100.0
141
1.0
290
     0
  0
SCALE
  5
23A
102
{ACAD_REACTORS
330
222
102
}
330
222
100
AcDbScale
 70
     0
300
1/128" = 1'-0"
140
0.0078125
141
12.0
290
     0
  0
SCALE
  5
23B
102
{ACAD_REACTORS
330
222
102
}
330
222
100
AcDbScale
 70
     0
300
1/64" = 1'-0"
140
0.015625
141
12.0
290
     0
  0
SCALE
  5
23C
102
{ACAD_REACTORS
330
222
102
}
330
222
100
AcDbScale
 70
     0
300
1/32" = 1'-0"
140
0.03125
141
12.0
290
     0
  0
SCALE
  5
23D
102
{ACAD_REACTORS
330
222
102
}
330
222
100
AcDbScale
 70
     0
300
1/16" = 1'-0"
140
0.0625
141
12.0
290
     0
  0
SCALE
  5
23E
102
{ACAD_REACTORS
330
222
102
}
330
222
100
AcDbScale
 70
     0
300
3/32" = 1'-0"
140
0.09375
141
12.0
290
     0
  0
SCALE
  5
23F
102
{ACAD_REACTORS
330
222
102
}
330
222
100
AcDbScale
 70
     0
300
1/8" = 1'-0"
140
0.125
141
12.0
290
     0
  0
SCALE
  5
240
102
{ACAD_REACTORS
330
222
102
}
330
222
100
AcDbScale
 70
     0
300
3/16" = 1'-0"
140
0.1875
141
12.0
290
     0
  0
SCALE
  5
241
102
{ACAD_REACTORS
330
222
102
}
330
222
100
AcDbScale
 70
     0
300
1/4" = 1'-0"
140
0.25
141
12.0
290
     0
  0
SCALE
  5
242
102
{ACAD_REACTORS
330
222
102
}
330
222
100
AcDbScale
 70
     0
300
3/8" = 1'-0"
140
0.375
141
12.0
290
     0
  0
SCALE
  5
243
102
{ACAD_REACTORS
330
222
102
}
330
222
100
AcDbScale
 70
     0
300
1/2" = 1'-0"
140
0.5
141
12.0
290
     0
  0
SCALE
  5
244
102
{ACAD_REACTORS
330
222
102
}
330
222
100
AcDbScale
 70
     0
300
3/4" = 1'-0"
140
0.75
141
12.0
290
     0
  0
SCALE
  5
245
102
{ACAD_REACTORS
330
222
102
}
330
222
100
AcDbScale
 70
     0
300
1" = 1'-0"
140
1.0
141
12.0
290
     0
  0
SCALE
  5
246
102
{ACAD_REACTORS
330
222
102
}
330
222
100
AcDbScale
 70
     0
300
1-1/2" = 1'-0"
140
1.5
141
12.0
290
     0
  0
SCALE
  5
247
102
{ACAD_REACTORS
330
222
102
}
330
222
100
AcDbScale
 70
     0
300
3" = 1'-0"
140
3.0
141
12.0
290
     0
  0
SCALE
  5
248
102
{ACAD_REACTORS
330
222
102
}
330
222
100
AcDbScale
 70
     0
300
6" = 1'-0"
140
6.0
141
12.0
290
     0
  0
SCALE
  5
249
102
{ACAD_REACTORS
330
222
102
}
330
222
100
AcDbScale
 70
     0
300
1'-0" = 1'-0"
140
12.0
141
12.0
290
     0
  0
TABLESTYLE
  5
225
102
{ACAD_XDICTIONARY
360
226
102
}
102
{ACAD_REACTORS
330
223
102
}
330
223
100
AcDbTableStyle
  3
Standard
 70
     0
 71
     0
 40
0.06
 41
0.06
280
     0
281
     0
  7
Standard
140
0.18
170
     2
 62
     0
 63
     7
283
     0
 90
      512
 91
        0
  1

274
    -2
284
     1
 64
     0
275
    -2
285
     1
 65
     0
276
    -2
286
     1
 66
     0
277
    -2
287
     1
 67
     0
278
    -2
288
     1
 68
     0
279
    -2
289
     1
 69
     0
  7
Standard
140
0.25
170
     5
 62
     0
 63
     7
283
     0
 90
      512
 91
        0
  1

274
    -2
284
     1
 64
     0
275
    -2
285
     1
 65
     0
276
    -2
286
     1
 66
     0
277
    -2
287
     1
 67
     0
278
    -2
288
     1
 68
     0
279
    -2
289
     1
 69
     0
  7
Standard
140
0.18
170
     5
 62
     0
 63
     7
283
     0
 90
      512
 91
        0
  1

274
    -2
284
     1
 64
     0
275
    -2
285
     1
 65
     0
276
    -2
286
     1
 66
     0
277
    -2
287
     1
 67
     0
278
    -2
288
     1
 68
     0
279
    -2
289
     1
 69
     0
  0
VISUALSTYLE
  5
207
102
{ACAD_REACTORS
330
208
102
}
330
208
100
AcDbVisualStyle
  2
2dWireframe
 70
     4
 71
     0
 72
     2
 73
     0
 90
        0
 40
-0.6
 41
-30.0
 62
     5
 63
     7
 74
     1
 91
        4
 64
     7
 65
   257
 75
     1
175
     1
 42
1.0
 92
        0
 66
   257
 43
1.0
 76
     1
 77
     6
 78
     2
 67
     7
 79
     5
170
     0
171
     0
290
     0
174
     0
 93
        1
 44
0.0
173
     0
291
     0
 45
0.0
1001
ACAD
1000
AcDbSavedByObjectVersion
1070
     0
1000
AcDbSavedByObjectVersion
1070
     0
1000
AcDbSavedByObjectVersion
1070
     0
1000
AcDbSavedByObjectVersion
1070
     0
1000
AcDbSavedByObjectVersion
1070
     0
1000
AcDbSavedByObjectVersion
1070
     0
1000
AcDbSavedByObjectVersion
1070
     0
1000
AcDbSavedByObjectVersion
1070
     0
1000
AcDbSavedByObjectVersion
1070
     0
1000
AcDbSavedByObjectVersion
1070
     0
1000
AcDbSavedByObjectVersion
1070
     0
1000
AcDbSavedByObjectVersion
1070
     0
1000
AcDbSavedByObjectVersion
1070
     0
1000
AcDbSavedByObjectVersion
1070
     0
1000
AcDbSavedByObjectVersion
1070
     0
1000
AcDbSavedByObjectVersion
1070
     0
1000
AcDbSavedByObjectVersion
1070
     0
1000
AcDbSavedByObjectVersion
1070
     0
1000
AcDbSavedByObjectVersion
1070
     0
1000
AcDbSavedByObjectVersion
1070
     0
1000
AcDbSavedByObjectVersion
1070
     0
1000
AcDbSavedByObjectVersion
1070
     0
1000
AcDbSavedByObjectVersion
1070
     0
1000
AcDbSavedByObjectVersion
1070
     0
1000
AcDbSavedByObjectVersion
1070
     0
1000
AcDbSavedByObjectVersion
1070
     0
1000
AcDbSavedByObjectVersion
1070
     0
1000
AcDbSavedByObjectVersion
1070
     0
1000
AcDbSavedByObjectVersion
1070
     0
1000
AcDbSavedByObjectVersion
1070
     0
  0
VISUALSTYLE
  5
27B
102
{ACAD_REACTORS
330
208
102
}
330
208
100
AcDbVisualStyle
  2
3D Hidden
 70
     6
 71
     1
 72
     2
 73
     2
 90
        0
 40
-0.6
 41
-30.0
 62
     5
 63
     7
 74
     2
 91
        2
 64
     7
 65
   257
 75
     2
175
     1
 42
40.0
 92
        0
 66
   257
 43
1.0
 76
     1
 77
     6
 78
     2
 67
     7
 79
     3
170
     0
171
     0
290
     0
174
     0
 93
        1
 44
0.0
173
     0
291
     0
 45
0.0
1001
ACAD
1000
AcDbSavedByObjectVersion
1070
     0
1000
AcDbSavedByObjectVersion
1070
     0
1000
AcDbSavedByObjectVersion
1070
     0
1000
AcDbSavedByObjectVersion
1070
     0
  0
VISUALSTYLE
  5
228
102
{ACAD_REACTORS
330
208
102
}
330
208
100
AcDbVisualStyle
  2
3dWireframe
 70
     5
 71
     0
 72
     2
 73
     0
 90
        0
 40
-0.6
 41
-30.0
 62
     5
 63
     7
 74
     1
 91
        4
 64
     7
 65
   257
 75
     1
175
     1
 42
1.0
 92
        0
 66
   257
 43
1.0
 76
     1
 77
     6
 78
     2
 67
     7
 79
     5
170
     0
171
     0
290
     0
174
     0
 93
        1
 44
0.0
173
     0
291
     0
 45
0.0
1001
ACAD
1000
AcDbSavedByObjectVersion
1070
     0
1000
AcDbSavedByObjectVersion
1070
     0
1000
AcDbSavedByObjectVersion
1070
     0
1000
AcDbSavedByObjectVersion
1070
     0
1000
AcDbSavedByObjectVersion
1070
     0
1000
AcDbSavedByObjectVersion
1070
     0
1000
AcDbSavedByObjectVersion
1070
     0
1000
AcDbSavedByObjectVersion
1070
     0
1000
AcDbSavedByObjectVersion
1070
     0
1000
AcDbSavedByObjectVersion
1070
     0
1000
AcDbSavedByObjectVersion
1070
     0
1000
AcDbSavedByObjectVersion
1070
     0
1000
AcDbSavedByObjectVersion
1070
     0
1000
AcDbSavedByObjectVersion
1070
     0
1000
AcDbSavedByObjectVersion
1070
     0
1000
AcDbSavedByObjectVersion
1070
     0
1000
AcDbSavedByObjectVersion
1070
     0
1000
AcDbSavedByObjectVersion
1070
     0
1000
AcDbSavedByObjectVersion
1070
     0
1000
AcDbSavedByObjectVersion
1070
     0
1000
AcDbSavedByObjectVersion
1070
     0
1000
AcDbSavedByObjectVersion
1070
     0
1000
AcDbSavedByObjectVersion
1070
     0
1000
AcDbSavedByObjectVersion
1070
     0
1000
AcDbSavedByObjectVersion
1070
     0
1000
AcDbSavedByObjectVersion
1070
     0
1000
AcDbSavedByObjectVersion
1070
     0
1000
AcDbSavedByObjectVersion
1070
     0
1000
AcDbSavedByObjectVersion
1070
     0
1000
AcDbSavedByObjectVersion
1070
     0
  0
VISUALSTYLE
  5
27A
102
{ACAD_REACTORS
330
208
102
}
330
208
100
AcDbVisualStyle
  2
Basic
 70
     7
 71
     1
 72
     0
 73
     1
 90
        0
 40
-0.6
 41
-30.0
 62
     5
 63
     7
 74
     0
 91
        4
 64
     7
 65
   257
 75
     1
175
     1
 42
1.0
 92
        8
 66
     7
 43
1.0
 76
     1
 77
     6
 78
     2
 67
     7
 79
     5
170
     0
171
     0
290
     0
174
     0
 93
        1
 44
0.0
173
     0
291
     1
 45
0.0
1001
ACAD
1000
AcDbSavedByObjectVersion
1070
     0
1000
AcDbSavedByObjectVersion
1070
     0
1000
AcDbSavedByObjectVersion
1070
     0
1000
AcDbSavedByObjectVersion
1070
     0
  0
VISUALSTYLE
  5
27E
102
{ACAD_REACTORS
330
208
102
}
330
208
100
AcDbVisualStyle
  2
Brighten
 70
    12
 71
     2
 72
     2
 73
     0
 90
        0
 40
-0.6
 41
-30.0
 62
     5
 63
     7
 74
     1
 91
        4
 64
     7
 65
   257
 75
     1
175
     1
 42
1.0
 92
        8
 66
     7
 43
1.0
 76
     1
 77
     6
 78
     2
 67
     7
 79
     5
170
     0
171
     0
290
     0
174
     0
 93
        1
 44
50.0
173
     0
291
     1
 45
0.0
1001
ACAD
1000
AcDbSavedByObjectVersion
1070
     0
1000
AcDbSavedByObjectVersion
1070
     0
1000
AcDbSavedByObjectVersion
1070
     0
1000
AcDbSavedByObjectVersion
1070
     0
  0
VISUALSTYLE
  5
282
102
{ACAD_REACTORS
330
208
102
}
330
208
100
AcDbVisualStyle
  2
ColorChange
 70
    16
 71
     2
 72
     2
 73
     3
 90
        0
 40
-0.6
 41
-30.0
 62
     5
 63
     8
 74
     1
 91
        4
 64
     7
 65
   257
 75
     1
175
     1
 42
1.0
 92
        8
 66
     8
 43
1.0
 76
     1
 77
     6
 78
     2
 67
     7
 79
     5
170
     0
171
     0
290
     0
174
     0
 93
        1
 44
0.0
173
     0
291
     1
 45
0.0
1001
ACAD
1000
AcDbSavedByObjectVersion
1070
     0
1000
AcDbSavedByObjectVersion
1070
     0
1000
AcDbSavedByObjectVersion
1070
     0
1000
AcDbSavedByObjectVersion
1070
     0
  0
VISUALSTYLE
  5
27C
102
{ACAD_REACTORS
330
208
102
}
330
208
100
AcDbVisualStyle
  2
Conceptual
 70
     9
 71
     3
 72
     2
 73
     0
 90
        0
 40
-0.6
 41
-30.0
 62
     5
 63
     7
 74
     2
 91
        2
 64
     7
 65
   257
 75
     1
175
     1
 42
40.0
 92
        8
 66
     7
 43
1.0
 76
     1
 77
     6
 78
     2
 67
     7
 79
     3
170
     0
171
     0
290
     0
174
     0
 93
        1
 44
0.0
173
     0
291
     0
 45
0.0
1001
ACAD
1000
AcDbSavedByObjectVersion
1070
     0
1000
AcDbSavedByObjectVersion
1070
     0
1000
AcDbSavedByObjectVersion
1070
     0
1000
AcDbSavedByObjectVersion
1070
     0
  0
VISUALSTYLE
  5
27D
102
{ACAD_REACTORS
330
208
102
}
330
208
100
AcDbVisualStyle
  2
Dim
 70
    11
 71
     2
 72
     2
 73
     0
 90
        0
 40
-0.6
 41
-30.0
 62
     5
 63
     7
 74
     1
 91
        4
 64
     7
 65
   257
 75
     1
175
     1
 42
1.0
 92
        8
 66
     7
 43
1.0
 76
     1
 77
     6
 78
     2
 67
     7
 79
     5
170
     0
171
     0
290
     0
174
     0
 93
        1
 44
-50.0
173
     0
291
     1
 45
0.0
1001
ACAD
1000
AcDbSavedByObjectVersion
1070
     0
1000
AcDbSavedByObjectVersion
1070
     0
1000
AcDbSavedByObjectVersion
1070
     0
1000
AcDbSavedByObjectVersion
1070
     0
  0
VISUALSTYLE
  5
281
102
{ACAD_REACTORS
330
208
102
}
330
208
100
AcDbVisualStyle
  2
Facepattern
 70
    15
 71
     2
 72
     2
 73
     0
 90
        0
 40
-0.6
 41
-30.0
 62
     5
 63
     7
 74
     1
 91
        4
 64
     7
 65
   257
 75
     1
175
     1
 42
1.0
 92
        8
 66
     7
 43
1.0
 76
     1
 77
     6
 78
     2
 67
     7
 79
     5
170
     0
171
     0
290
     0
174
     0
 93
        1
 44
0.0
173
     0
291
     1
 45
0.0
1001
ACAD
1000
AcDbSavedByObjectVersion
1070
     0
1000
AcDbSavedByObjectVersion
1070
     0
1000
AcDbSavedByObjectVersion
1070
     0
1000
AcDbSavedByObjectVersion
1070
     0
  0
VISUALSTYLE
  5
276
102
{ACAD_REACTORS
330
208
102
}
330
208
100
AcDbVisualStyle
  2
Flat
 70
     0
 71
     2
 72
     1
 73
     1
 90
        2
 40
-0.6
 41
30.0
 62
     5
 63
     7
 74
     0
 91
        4
 64
     7
 65
   257
 75
     1
175
     1
 42
1.0
 92
        8
 66
     7
 43
1.0
 76
     1
 77
     6
 78
     2
 67
     7
 79
     5
170
     0
171
     0
290
     0
174
     0
 93
       13
 44
0.0
173
     0
291
     1
 45
0.0
1001
ACAD
1000
AcDbSavedByObjectVersion
1070
     0
1000
AcDbSavedByObjectVersion
1070
     0
1000
AcDbSavedByObjectVersion
1070
     0
1000
AcDbSavedByObjectVersion
1070
     0
  0
VISUALSTYLE
  5
277
102
{ACAD_REACTORS
330
208
102
}
330
208
100
AcDbVisualStyle
  2
FlatWithEdges
 70
     1
 71
     2
 72
     1
 73
     1
 90
        2
 40
-0.6
 41
30.0
 62
     5
 63
     7
 74
     1
 91
        4
 64
     7
 65
   257
 75
     1
175
     1
 42
1.0
 92
        0
 66
   257
 43
1.0
 76
     1
 77
     6
 78
     2
 67
     7
 79
     5
170
     0
171
     0
290
     0
174
     0
 93
       13
 44
0.0
173
     0
291
     1
 45
0.0
1001
ACAD
1000
AcDbSavedByObjectVersion
1070
     0
1000
AcDbSavedByObjectVersion
1070
     0
1000
AcDbSavedByObjectVersion
1070
     0
1000
AcDbSavedByObjectVersion
1070
     0
  0
VISUALSTYLE
  5
278
102
{ACAD_REACTORS
330
208
102
}
330
208
100
AcDbVisualStyle
  2
Gouraud
 70
     2
 71
     2
 72
     2
 73
     1
 90
        2
 40
-0.6
 41
30.0
 62
     5
 63
     7
 74
     0
 91
        4
 64
     7
 65
   257
 75
     1
175
     1
 42
1.0
 92
        0
 66
     7
 43
1.0
 76
     1
 77
     6
 78
     2
 67
     7
 79
     5
170
     0
171
     0
290
     0
174
     0
 93
       13
 44
0.0
173
     0
291
     1
 45
0.0
1001
ACAD
1000
AcDbSavedByObjectVersion
1070
     0
1000
AcDbSavedByObjectVersion
1070
     0
1000
AcDbSavedByObjectVersion
1070
     0
1000
AcDbSavedByObjectVersion
1070
     0
  0
VISUALSTYLE
  5
279
102
{ACAD_REACTORS
330
208
102
}
330
208
100
AcDbVisualStyle
  2
GouraudWithEdges
 70
     3
 71
     2
 72
     2
 73
     1
 90
        2
 40
-0.6
 41
30.0
 62
     5
 63
     7
 74
     1
 91
        4
 64
     7
 65
   257
 75
     1
175
     1
 42
1.0
 92
        0
 66
   257
 43
1.0
 76
     1
 77
     6
 78
     2
 67
     7
 79
     5
170
     0
171
     0
290
     0
174
     0
 93
       13
 44
0.0
173
     0
291
     1
 45
0.0
1001
ACAD
1000
AcDbSavedByObjectVersion
1070
     0
1000
AcDbSavedByObjectVersion
1070
     0
1000
AcDbSavedByObjectVersion
1070
     0
1000
AcDbSavedByObjectVersion
1070
     0
  0
VISUALSTYLE
  5
280
102
{ACAD_REACTORS
330
208
102
}
330
208
100
AcDbVisualStyle
  2
Linepattern
 70
    14
 71
     2
 72
     2
 73
     0
 90
        0
 40
-0.6
 41
-30.0
 62
     5
 63
     7
 74
     1
 91
        4
 64
     7
 65
   257
 75
     7
175
     7
 42
1.0
 92
        8
 66
     7
 43
1.0
 76
     1
 77
     6
 78
     2
 67
     7
 79
     5
170
     0
171
     0
290
     0
174
     0
 93
        1
 44
0.0
173
     0
291
     1
 45
0.0
1001
ACAD
1000
AcDbSavedByObjectVersion
1070
     0
1000
AcDbSavedByObjectVersion
1070
     0
1000
AcDbSavedByObjectVersion
1070
     0
1000
AcDbSavedByObjectVersion
1070
     0
  0
VISUALSTYLE
  5
227
102
{ACAD_REACTORS
330
208
102
}
330
208
100
AcDbVisualStyle
  2
Realistic
 70
     8
 71
     2
 72
     2
 73
     0
 90
        0
 40
-0.6
 41
-30.0
 62
     5
 63
     7
 74
     1
 91
        0
 64
     7
 65
   257
 75
     1
175
     1
 42
1.0
 92
        8
 66
     8
 43
1.0
 76
     1
 77
     6
 78
     2
 67
     7
 79
     5
170
     0
171
     0
290
     0
174
     0
 93
       13
 44
0.0
173
     0
291
     0
 45
0.0
1001
ACAD
1000
AcDbSavedByObjectVersion
1070
     0
1000
AcDbSavedByObjectVersion
1070
     0
1000
AcDbSavedByObjectVersion
1070
     0
1000
AcDbSavedByObjectVersion
1070
     0
1000
AcDbSavedByObjectVersion
1070
     0
1000
AcDbSavedByObjectVersion
1070
     0
1000
AcDbSavedByObjectVersion
1070
     0
1000
AcDbSavedByObjectVersion
1070
     0
1000
AcDbSavedByObjectVersion
1070
     0
1000
AcDbSavedByObjectVersion
1070
     0
1000
AcDbSavedByObjectVersion
1070
     0
1000
AcDbSavedByObjectVersion
1070
     0
1000
AcDbSavedByObjectVersion
1070
     0
1000
AcDbSavedByObjectVersion
1070
     0
1000
AcDbSavedByObjectVersion
1070
     0
1000
AcDbSavedByObjectVersion
1070
     0
1000
AcDbSavedByObjectVersion
1070
     0
1000
AcDbSavedByObjectVersion
1070
     0
1000
AcDbSavedByObjectVersion
1070
     0
1000
AcDbSavedByObjectVersion
1070
     0
1000
AcDbSavedByObjectVersion
1070
     0
1000
AcDbSavedByObjectVersion
1070
     0
1000
AcDbSavedByObjectVersion
1070
     0
1000
AcDbSavedByObjectVersion
1070
     0
1000
AcDbSavedByObjectVersion
1070
     0
1000
AcDbSavedByObjectVersion
1070
     0
1000
AcDbSavedByObjectVersion
1070
     0
1000
AcDbSavedByObjectVersion
1070
     0
1000
AcDbSavedByObjectVersion
1070
     0
1000
AcDbSavedByObjectVersion
1070
     0
  0
VISUALSTYLE
  5
27F
102
{ACAD_REACTORS
330
208
102
}
330
208
100
AcDbVisualStyle
  2
Thicken
 70
    13
 71
     2
 72
     2
 73
     0
 90
        0
 40
-0.6
 41
-30.0
 62
     5
 63
     7
 74
     1
 91
        4
 64
     7
 65
   257
 75
     1
175
     1
 42
1.0
 92
       12
 66
     7
 43
1.0
 76
     1
 77
     6
 78
     2
 67
     7
 79
     5
170
     0
171
     0
290
     0
174
     0
 93
        1
 44
0.0
173
     0
291
     1
 45
0.0
1001
ACAD
1000
AcDbSavedByObjectVersion
1070
     0
1000
AcDbSavedByObjectVersion
1070
     0
1000
AcDbSavedByObjectVersion
1070
     0
1000
AcDbSavedByObjectVersion
1070
     0
  0
DICTIONARYVAR
  5
24E
102
{ACAD_REACTORS
330
24B
102
}
330
24B
100
DictionaryVariables
280
     0
  1
1:1
  0
DICTIONARYVAR
  5
24D
102
{ACAD_REACTORS
330
24B
102
}
330
24B
100
DictionaryVariables
280
     0
  1
STANDARD
  0
DICTIONARYVAR
  5
24C
102
{ACAD_REACTORS
330
24B
102
}
330
24B
100
DictionaryVariables
280
     0
  1
STANDARD
  0
DICTIONARYVAR
  5
5D8
102
{ACAD_REACTORS
330
24B
102
}
330
24B
100
DictionaryVariables
280
     0
  1
1
  0
DICTIONARYVAR
  5
5D7
102
{ACAD_REACTORS
330
24B
102
}
330
24B
100
DictionaryVariables
280
     0
  1
1
  0
DICTIONARYVAR
  5
5D6
102
{ACAD_REACTORS
330
24B
102
}
330
24B
100
DictionaryVariables
280
     0
  1
0
  0
DICTIONARYVAR
  5
24F
102
{ACAD_REACTORS
330
24B
102
}
330
24B
100
DictionaryVariables
280
     0
  1
0
  0
DICTIONARYVAR
  5
5D4
102
{ACAD_REACTORS
330
24B
102
}
330
24B
100
DictionaryVariables
280
     0
  1
1
  0
DICTIONARYVAR
  5
5D5
102
{ACAD_REACTORS
330
24B
102
}
330
24B
100
DictionaryVariables
280
     0
  1
127
  0
VLO-VL
  5
9A8
102
{ACAD_REACTORS
330
9A7
102
}
330
9A7
100
vlo_VL
 90
   -64512
 91
       12
 92
        1
 40
2.5
300
(&VLO-R . 0)
  0
DICTIONARY
  5
21A
330
219
100
AcDbDictionary
280
     1
281
     1
  3
ACAD_XREC_ROUNDTRIP
360
5FF
  3
BUMPTILE
360
21B
  3
DIFFUSETILE
360
21C
  3
OPACITYTILE
360
21D
  3
REFLECTIONTILE
360
21E
  3
REFRACTIONTILE
360
21F
  3
SPECULARTILE
360
220
  0
DICTIONARY
  5
212
330
211
100
AcDbDictionary
280
     1
281
     1
  3
ACAD_XREC_ROUNDTRIP
360
5FE
  3
BUMPTILE
360
213
  3
DIFFUSETILE
360
214
  3
OPACITYTILE
360
215
  3
REFLECTIONTILE
360
216
  3
REFRACTIONTILE
360
217
  3
SPECULARTILE
360
218
  0
DICTIONARY
  5
E
330
C
100
AcDbDictionary
280
     1
281
     1
  3
ACAD_XREC_ROUNDTRIP
360
5F7
  3
BUMPTILE
360
F
  3
DIFFUSETILE
360
10
  3
OPACITYTILE
360
11
  3
REFLECTIONTILE
360
12
  3
REFRACTIONTILE
360
13
  3
SPECULARTILE
360
14
  0
DICTIONARY
  5
226
330
225
100
AcDbDictionary
280
     1
281
     1
  3
ACAD_ROUNDTRIP_2008_TABLESTYLE_CELLSTYLEMAP
360
DD1
  0
XRECORD
  5
5FF
102
{ACAD_REACTORS
330
21A
102
}
330
21A
100
AcDbXrecord
280
     1
102
MATERIAL
148
0.0
149
0.0
149
0.0
 93
        0
 94
      127
282
     0
 72
     0
 77
     0
171
     0
175
     0
179
     0
273
     0
  0
XRECORD
  5
21B
102
{ACAD_REACTORS
330
21A
102
}
330
21A
100
AcDbXrecord
280
     1
270
     1
271
     1
  0
XRECORD
  5
21C
102
{ACAD_REACTORS
330
21A
102
}
330
21A
100
AcDbXrecord
280
     1
270
     1
271
     1
  0
XRECORD
  5
21D
102
{ACAD_REACTORS
330
21A
102
}
330
21A
100
AcDbXrecord
280
     1
270
     1
271
     1
  0
XRECORD
  5
21E
102
{ACAD_REACTORS
330
21A
102
}
330
21A
100
AcDbXrecord
280
     1
270
     1
271
     1
  0
XRECORD
  5
21F
102
{ACAD_REACTORS
330
21A
102
}
330
21A
100
AcDbXrecord
280
     1
270
     1
271
     1
  0
XRECORD
  5
220
102
{ACAD_REACTORS
330
21A
102
}
330
21A
100
AcDbXrecord
280
     1
270
     1
271
     1
  0
XRECORD
  5
5FE
102
{ACAD_REACTORS
330
212
102
}
330
212
100
AcDbXrecord
280
     1
102
MATERIAL
148
0.0
149
0.0
149
0.0
 93
        0
 94
      127
282
     0
 72
     0
 77
     0
171
     0
175
     0
179
     0
273
     0
  0
XRECORD
  5
213
102
{ACAD_REACTORS
330
212
102
}
330
212
100
AcDbXrecord
280
     1
270
     1
271
     1
  0
XRECORD
  5
214
102
{ACAD_REACTORS
330
212
102
}
330
212
100
AcDbXrecord
280
     1
270
     1
271
     1
  0
XRECORD
  5
215
102
{ACAD_REACTORS
330
212
102
}
330
212
100
AcDbXrecord
280
     1
270
     1
271
     1
  0
XRECORD
  5
216
102
{ACAD_REACTORS
330
212
102
}
330
212
100
AcDbXrecord
280
     1
270
     1
271
     1
  0
XRECORD
  5
217
102
{ACAD_REACTORS
330
212
102
}
330
212
100
AcDbXrecord
280
     1
270
     1
271
     1
  0
XRECORD
  5
218
102
{ACAD_REACTORS
330
212
102
}
330
212
100
AcDbXrecord
280
     1
270
     1
271
     1
  0
XRECORD
  5
5F7
102
{ACAD_REACTORS
330
E
102
}
330
E
100
AcDbXrecord
280
     1
102
MATERIAL
148
0.0
149
0.0
149
0.0
 93
        0
 94
      127
282
     0
 72
     0
 77
     0
171
     0
175
     0
179
     0
273
     0
  0
XRECORD
  5
F
102
{ACAD_REACTORS
330
E
102
}
330
E
100
AcDbXrecord
280
     1
270
     1
271
     1
  0
XRECORD
  5
10
102
{ACAD_REACTORS
330
E
102
}
330
E
100
AcDbXrecord
280
     1
270
     1
271
     1
  0
XRECORD
  5
11
102
{ACAD_REACTORS
330
E
102
}
330
E
100
AcDbXrecord
280
     1
270
     1
271
     1
  0
XRECORD
  5
12
102
{ACAD_REACTORS
330
E
102
}
330
E
100
AcDbXrecord
280
     1
270
     1
271
     1
  0
XRECORD
  5
13
102
{ACAD_REACTORS
330
E
102
}
330
E
100
AcDbXrecord
280
     1
270
     1
271
     1
  0
XRECORD
  5
14
102
{ACAD_REACTORS
330
E
102
}
330
E
100
AcDbXrecord
280
     1
270
     1
271
     1
  0
CELLSTYLEMAP
  5
DD1
102
{ACAD_REACTORS
330
226
102
}
330
226
100
AcDbCellStyleMap
 90
        3
300
CELLSTYLE
  1
TABLEFORMAT_BEGIN
 90
        5
170
     1
 91
        0
 92
    32768
 62
   257
 93
        1
300
CONTENTFORMAT
  1
CONTENTFORMAT_BEGIN
 90
        0
 91
        0
 92
      512
 93
        0
300

 40
0.0
140
1.0
 94
        5
 62
     0
340
46
144
0.25
309
CONTENTFORMAT_END
171
     1
301
MARGIN
  1
CELLMARGIN_BEGIN
 40
0.06
 40
0.06
 40
0.06
 40
0.06
 40
0.18
 40
0.18
309
CELLMARGIN_END
 94
        6
 95
        1
302
GRIDFORMAT
  1
GRIDFORMAT_BEGIN
 90
        0
 91
        1
 62
     0
 92
       -2
340
0
 93
        0
 40
0.045
309
GRIDFORMAT_END
 95
        2
302
GRIDFORMAT
  1
GRIDFORMAT_BEGIN
 90
        0
 91
        1
 62
     0
 92
       -2
340
0
 93
        0
 40
0.045
309
GRIDFORMAT_END
 95
        4
302
GRIDFORMAT
  1
GRIDFORMAT_BEGIN
 90
        0
 91
        1
 62
     0
 92
       -2
340
0
 93
        0
 40
0.045
309
GRIDFORMAT_END
 95
        8
302
GRIDFORMAT
  1
GRIDFORMAT_BEGIN
 90
        0
 91
        1
 62
     0
 92
       -2
340
0
 93
        0
 40
0.045
309
GRIDFORMAT_END
 95
       16
302
GRIDFORMAT
  1
GRIDFORMAT_BEGIN
 90
        0
 91
        1
 62
     0
 92
       -2
340
0
 93
        0
 40
0.045
309
GRIDFORMAT_END
 95
       32
302
GRIDFORMAT
  1
GRIDFORMAT_BEGIN
 90
        0
 91
        1
 62
     0
 92
       -2
340
0
 93
        0
 40
0.045
309
GRIDFORMAT_END
309
TABLEFORMAT_END
  1
CELLSTYLE_BEGIN
 90
        1
 91
        1
300
_TITLE
309
CELLSTYLE_END
300
CELLSTYLE
  1
TABLEFORMAT_BEGIN
 90
        5
170
     1
 91
        0
 92
        0
 62
   257
 93
        1
300
CONTENTFORMAT
  1
CONTENTFORMAT_BEGIN
 90
        0
 91
        0
 92
      512
 93
        0
300

 40
0.0
140
1.0
 94
        5
 62
     0
340
46
144
0.18
309
CONTENTFORMAT_END
171
     1
301
MARGIN
  1
CELLMARGIN_BEGIN
 40
0.06
 40
0.06
 40
0.06
 40
0.06
 40
0.18
 40
0.18
309
CELLMARGIN_END
 94
        6
 95
        1
302
GRIDFORMAT
  1
GRIDFORMAT_BEGIN
 90
        0
 91
        1
 62
     0
 92
       -2
340
0
 93
        0
 40
0.045
309
GRIDFORMAT_END
 95
        2
302
GRIDFORMAT
  1
GRIDFORMAT_BEGIN
 90
        0
 91
        1
 62
     0
 92
       -2
340
0
 93
        0
 40
0.045
309
GRIDFORMAT_END
 95
        4
302
GRIDFORMAT
  1
GRIDFORMAT_BEGIN
 90
        0
 91
        1
 62
     0
 92
       -2
340
0
 93
        0
 40
0.045
309
GRIDFORMAT_END
 95
        8
302
GRIDFORMAT
  1
GRIDFORMAT_BEGIN
 90
        0
 91
        1
 62
     0
 92
       -2
340
0
 93
        0
 40
0.045
309
GRIDFORMAT_END
 95
       16
302
GRIDFORMAT
  1
GRIDFORMAT_BEGIN
 90
        0
 91
        1
 62
     0
 92
       -2
340
0
 93
        0
 40
0.045
309
GRIDFORMAT_END
 95
       32
302
GRIDFORMAT
  1
GRIDFORMAT_BEGIN
 90
        0
 91
        1
 62
     0
 92
       -2
340
0
 93
        0
 40
0.045
309
GRIDFORMAT_END
309
TABLEFORMAT_END
  1
CELLSTYLE_BEGIN
 90
        2
 91
        1
300
_HEADER
309
CELLSTYLE_END
300
CELLSTYLE
  1
TABLEFORMAT_BEGIN
 90
        5
170
     1
 91
        0
 92
        0
 62
   257
 93
        1
300
CONTENTFORMAT
  1
CONTENTFORMAT_BEGIN
 90
        0
 91
        0
 92
      512
 93
        0
300

 40
0.0
140
1.0
 94
        2
 62
     0
340
46
144
0.18
309
CONTENTFORMAT_END
171
     1
301
MARGIN
  1
CELLMARGIN_BEGIN
 40
0.06
 40
0.06
 40
0.06
 40
0.06
 40
0.18
 40
0.18
309
CELLMARGIN_END
 94
        6
 95
        1
302
GRIDFORMAT
  1
GRIDFORMAT_BEGIN
 90
        0
 91
        1
 62
     0
 92
       -2
340
0
 93
        0
 40
0.045
309
GRIDFORMAT_END
 95
        2
302
GRIDFORMAT
  1
GRIDFORMAT_BEGIN
 90
        0
 91
        1
 62
     0
 92
       -2
340
0
 93
        0
 40
0.045
309
GRIDFORMAT_END
 95
        4
302
GRIDFORMAT
  1
GRIDFORMAT_BEGIN
 90
        0
 91
        1
 62
     0
 92
       -2
340
0
 93
        0
 40
0.045
309
GRIDFORMAT_END
 95
        8
302
GRIDFORMAT
  1
GRIDFORMAT_BEGIN
 90
        0
 91
        1
 62
     0
 92
       -2
340
0
 93
        0
 40
0.045
309
GRIDFORMAT_END
 95
       16
302
GRIDFORMAT
  1
GRIDFORMAT_BEGIN
 90
        0
 91
        1
 62
     0
 92
       -2
340
0
 93
        0
 40
0.045
309
GRIDFORMAT_END
 95
       32
302
GRIDFORMAT
  1
GRIDFORMAT_BEGIN
 90
        0
 91
        1
 62
     0
 92
       -2
340
0
 93
        0
 40
0.045
309
GRIDFORMAT_END
309
TABLEFORMAT_END
  1
CELLSTYLE_BEGIN
 90
        3
 91
        2
300
_DATA
309
CELLSTYLE_END
  0
ENDSEC
  0
EOF
