  0
SECTION
  2
HEADER
  9
$ACADVER
  1
AC1021
  9
$ACADMAINTVER
 70
    25
  9
$DWGCODEPAGE
  3
ANSI_936
  9
$LASTSAVEDBY
  1
zb.ye
  9
$INSBASE
 10
0.0
 20
0.0
 30
0.0
  9
$EXTMIN
 10
655.7804061145666
 20
157.8221798107604
 30
-0.0000000349181948
  9
$EXTMAX
 10
804.3823348317546
 20
262.8753981738632
 30
0.0000000814935746
  9
$LIMMIN
 10
0.0
 20
0.0
  9
$LIMMAX
 10
12.0
 20
9.0
  9
$ORTHOMODE
 70
     0
  9
$REGENMODE
 70
     1
  9
$FILLMODE
 70
     1
  9
$QTEXTMODE
 70
     0
  9
$MIRRTEXT
 70
     1
  9
$LTSCALE
 40
1.0
  9
$ATTMODE
 70
     1
  9
$TEXTSIZE
 40
0.2
  9
$TRACEWID
 40
0.05
  9
$TEXTSTYLE
  7
Standard
  9
$CLAYER
  8
DIM
  9
$CELTYPE
  6
ByLayer
  9
$CECOLOR
 62
   256
  9
$CELTSCALE
 40
1.0
  9
$DISPSILH
 70
     0
  9
$DIMSCALE
 40
1.0
  9
$DIMASZ
 40
1.0
  9
$DIMEXO
 40
0.2
  9
$DIMDLI
 40
0.2
  9
$DIMRND
 40
0.0
  9
$DIMDLE
 40
0.0
  9
$DIMEXE
 40
0.5
  9
$DIMTP
 40
0.0
  9
$DIMTM
 40
0.0
  9
$DIMTXT
 40
1.5
  9
$DIMCEN
 40
0.0
  9
$DIMTSZ
 40
0.0
  9
$DIMTOL
 70
     0
  9
$DIMLIM
 70
     0
  9
$DIMTIH
 70
     0
  9
$DIMTOH
 70
     0
  9
$DIMSE1
 70
     0
  9
$DIMSE2
 70
     0
  9
$DIMTAD
 70
     1
  9
$DIMZIN
 70
     8
  9
$DIMBLK
  1

  9
$DIMASO
 70
     1
  9
$DIMSHO
 70
     1
  9
$DIMPOST
  1

  9
$DIMAPOST
  1

  9
$DIMALT
 70
     0
  9
$DIMALTD
 70
     2
  9
$DIMALTF
 40
25.4
  9
$DIMLFAC
 40
1.0
  9
$DIMTOFL
 70
     0
  9
$DIMTVP
 40
0.0
  9
$DIMTIX
 70
     0
  9
$DIMSOXD
 70
     0
  9
$DIMSAH
 70
     0
  9
$DIMBLK1
  1

  9
$DIMBLK2
  1

  9
$DIMSTYLE
  2
01
  9
$DIMCLRD
 70
     1
  9
$DIMCLRE
 70
     6
  9
$DIMCLRT
 70
     4
  9
$DIMTFAC
 40
1.0
  9
$DIMGAP
 40
0.5
  9
$DIMJUST
 70
     0
  9
$DIMSD1
 70
     0
  9
$DIMSD2
 70
     0
  9
$DIMTOLJ
 70
     1
  9
$DIMTZIN
 70
     0
  9
$DIMALTZ
 70
     0
  9
$DIMALTTZ
 70
     0
  9
$DIMUPT
 70
     0
  9
$DIMDEC
 70
     1
  9
$DIMTDEC
 70
     1
  9
$DIMALTU
 70
     2
  9
$DIMALTTD
 70
     2
  9
$DIMTXSTY
  7
Romans字体
  9
$DIMAUNIT
 70
     0
  9
$DIMADEC
 70
     2
  9
$DIMALTRND
 40
0.0
  9
$DIMAZIN
 70
     2
  9
$DIMDSEP
 70
    46
  9
$DIMATFIT
 70
     3
  9
$DIMFRAC
 70
     0
  9
$DIMLDRBLK
  1

  9
$DIMLUNIT
 70
     2
  9
$DIMLWD
 70
    -2
  9
$DIMLWE
 70
    -2
  9
$DIMTMOVE
 70
     0
  9
$DIMFXL
 40
1.0
  9
$DIMFXLON
 70
     0
  9
$DIMJOGANG
 40
0.7853981633974483
  9
$DIMTFILL
 70
     0
  9
$DIMTFILLCLR
 70
     0
  9
$DIMARCSYM
 70
     0
  9
$DIMLTYPE
  6

  9
$DIMLTEX1
  6

  9
$DIMLTEX2
  6

  9
$LUNITS
 70
     2
  9
$LUPREC
 70
     4
  9
$SKETCHINC
 40
0.1
  9
$FILLETRAD
 40
0.5
  9
$AUNITS
 70
     0
  9
$AUPREC
 70
     0
  9
$MENU
  1
.
  9
$ELEVATION
 40
0.0
  9
$PELEVATION
 40
0.0
  9
$THICKNESS
 40
0.0
  9
$LIMCHECK
 70
     0
  9
$CHAMFERA
 40
0.5
  9
$CHAMFERB
 40
0.5
  9
$CHAMFERC
 40
1.0
  9
$CHAMFERD
 40
0.0
  9
$SKPOLY
 70
     0
  9
$TDCREATE
 40
2456524.383632987
  9
$TDUCREATE
 40
2456524.050299653
  9
$TDUPDATE
 40
2460290.647710521
  9
$TDUUPDATE
 40
2460290.314377187
  9
$TDINDWG
 40
1.3989473611
  9
$TDUSRTIMER
 40
1.3989281250
  9
$USRTIMER
 70
     1
  9
$ANGBASE
 50
0.0
  9
$ANGDIR
 70
     0
  9
$PDMODE
 70
     0
  9
$PDSIZE
 40
0.0
  9
$PLINEWID
 40
0.0
  9
$SPLFRAME
 70
     0
  9
$SPLINETYPE
 70
     6
  9
$SPLINESEGS
 70
     8
  9
$HANDSEED
  5
2F91
  9
$SURFTAB1
 70
     6
  9
$SURFTAB2
 70
     6
  9
$SURFTYPE
 70
     6
  9
$SURFU
 70
     6
  9
$SURFV
 70
     6
  9
$UCSBASE
  2

  9
$UCSNAME
  2

  9
$UCSORG
 10
0.0
 20
0.0
 30
0.0
  9
$UCSXDIR
 10
1.0
 20
0.0
 30
0.0
  9
$UCSYDIR
 10
0.0
 20
1.0
 30
0.0
  9
$UCSORTHOREF
  2

  9
$UCSORTHOVIEW
 70
     0
  9
$UCSORGTOP
 10
0.0
 20
0.0
 30
0.0
  9
$UCSORGBOTTOM
 10
0.0
 20
0.0
 30
0.0
  9
$UCSORGLEFT
 10
0.0
 20
0.0
 30
0.0
  9
$UCSORGRIGHT
 10
0.0
 20
0.0
 30
0.0
  9
$UCSORGFRONT
 10
0.0
 20
0.0
 30
0.0
  9
$UCSORGBACK
 10
0.0
 20
0.0
 30
0.0
  9
$PUCSBASE
  2

  9
$PUCSNAME
  2

  9
$PUCSORG
 10
0.0
 20
0.0
 30
0.0
  9
$PUCSXDIR
 10
1.0
 20
0.0
 30
0.0
  9
$PUCSYDIR
 10
0.0
 20
1.0
 30
0.0
  9
$PUCSORTHOREF
  2

  9
$PUCSORTHOVIEW
 70
     0
  9
$PUCSORGTOP
 10
0.0
 20
0.0
 30
0.0
  9
$PUCSORGBOTTOM
 10
0.0
 20
0.0
 30
0.0
  9
$PUCSORGLEFT
 10
0.0
 20
0.0
 30
0.0
  9
$PUCSORGRIGHT
 10
0.0
 20
0.0
 30
0.0
  9
$PUCSORGFRONT
 10
0.0
 20
0.0
 30
0.0
  9
$PUCSORGBACK
 10
0.0
 20
0.0
 30
0.0
  9
$USERI1
 70
     0
  9
$USERI2
 70
     0
  9
$USERI3
 70
     0
  9
$USERI4
 70
     0
  9
$USERI5
 70
     0
  9
$USERR1
 40
0.0
  9
$USERR2
 40
0.0
  9
$USERR3
 40
0.0
  9
$USERR4
 40
0.0
  9
$USERR5
 40
0.0
  9
$WORLDVIEW
 70
     1
  9
$SHADEDGE
 70
     3
  9
$SHADEDIF
 70
    70
  9
$TILEMODE
 70
     1
  9
$MAXACTVP
 70
    64
  9
$PINSBASE
 10
0.0
 20
0.0
 30
0.0
  9
$PLIMCHECK
 70
     0
  9
$PEXTMIN
 10
1.000000000000000E+20
 20
1.000000000000000E+20
 30
1.000000000000000E+20
  9
$PEXTMAX
 10
-1.000000000000000E+20
 20
-1.000000000000000E+20
 30
-1.000000000000000E+20
  9
$PLIMMIN
 10
0.0
 20
0.0
  9
$PLIMMAX
 10
12.0
 20
9.0
  9
$UNITMODE
 70
     0
  9
$VISRETAIN
 70
     1
  9
$PLINEGEN
 70
     0
  9
$PSLTSCALE
 70
     1
  9
$TREEDEPTH
 70
  3020
  9
$CMLSTYLE
  2
Standard
  9
$CMLJUST
 70
     0
  9
$CMLSCALE
 40
1.0
  9
$PROXYGRAPHICS
 70
     1
  9
$MEASUREMENT
 70
     0
  9
$CELWEIGHT
370
    -1
  9
$ENDCAPS
280
     0
  9
$JOINSTYLE
280
     0
  9
$LWDISPLAY
290
     0
  9
$INSUNITS
 70
     4
  9
$HYPERLINKBASE
  1

  9
$STYLESHEET
  1
MONOCHROME.CTB
  9
$XEDIT
290
     1
  9
$CEPSNTYPE
380
     0
  9
$PSTYLEMODE
290
     1
  9
$FINGERPRINTGUID
  2
{8BA79343-A0ED-4B91-9B49-FE5C278F362A}
  9
$VERSIONGUID
  2
{C92C22A6-DE1B-41EC-8361-D5FBEFB6FDCD}
  9
$EXTNAMES
290
     1
  9
$PSVPSCALE
 40
0.0
  9
$OLESTARTUP
290
     0
  9
$SORTENTS
280
   127
  9
$INDEXCTL
280
     0
  9
$HIDETEXT
280
     1
  9
$XCLIPFRAME
290
     0
  9
$HALOGAP
280
     0
  9
$OBSCOLOR
 70
   257
  9
$OBSLTYPE
280
     0
  9
$INTERSECTIONDISPLAY
280
     0
  9
$INTERSECTIONCOLOR
 70
   257
  9
$DIMASSOC
280
     1
  9
$PROJECTNAME
  1

  9
$CAMERADISPLAY
290
     0
  9
$LENSLENGTH
 40
50.0
  9
$CAMERAHEIGHT
 40
0.0
  9
$STEPSPERSEC
 40
2.0
  9
$STEPSIZE
 40
6.0
  9
$3DDWFPREC
 40
2.0
  9
$PSOLWIDTH
 40
0.25
  9
$PSOLHEIGHT
 40
4.0
  9
$LOFTANG1
 40
1.570795999999999
  9
$LOFTANG2
 40
1.570795999999999
  9
$LOFTMAG1
 40
0.0
  9
$LOFTMAG2
 40
0.0
  9
$LOFTPARAM
 70
     7
  9
$LOFTNORMALS
280
     1
  9
$LATITUDE
 40
37.795
  9
$LONGITUDE
 40
-122.394
  9
$NORTHDIRECTION
 40
0.0
  9
$TIMEZONE
 70
 -8000
  9
$LIGHTGLYPHDISPLAY
280
     1
  9
$TILEMODELIGHTSYNCH
280
     1
  9
$CMATERIAL
347
228
  9
$SOLIDHIST
280
     1
  9
$SHOWHIST
280
     1
  9
$DWFFRAME
280
     2
  9
$DGNFRAME
280
     0
  9
$REALWORLDSCALE
290
     1
  9
$INTERFERECOLOR
 62
     1
  9
$INTERFEREOBJVS
345
23E
  9
$INTERFEREVPVS
346
23F
  9
$CSHADOW
280
     0
  9
$SHADOWPLANELOCATION
 40
0.0
  0
ENDSEC
  0
SECTION
  2
CLASSES
  0
CLASS
  1
ACDBDICTIONARYWDFLT
  2
AcDbDictionaryWithDefault
  3
ObjectDBX Classes
 90
        0
 91
        1
280
     0
281
     0
  0
CLASS
  1
VISUALSTYLE
  2
AcDbVisualStyle
  3
ObjectDBX Classes
 90
     4095
 91
       16
280
     0
281
     0
  0
CLASS
  1
MATERIAL
  2
AcDbMaterial
  3
ObjectDBX Classes
 90
     1153
 91
        3
280
     0
281
     0
  0
CLASS
  1
TABLESTYLE
  2
AcDbTableStyle
  3
ObjectDBX Classes
 90
     4095
 91
        1
280
     0
281
     0
  0
CLASS
  1
SCALE
  2
AcDbScale
  3
ObjectDBX Classes
 90
     1153
 91
       33
280
     0
281
     0
  0
CLASS
  1
MLEADERSTYLE
  2
AcDbMLeaderStyle
  3
ACDB_MLEADERSTYLE_CLASS
 90
     4095
 91
        1
280
     0
281
     0
  0
CLASS
  1
CELLSTYLEMAP
  2
AcDbCellStyleMap
  3
ObjectDBX Classes
 90
     1152
 91
        2
280
     0
281
     0
  0
CLASS
  1
DICTIONARYVAR
  2
AcDbDictionaryVar
  3
ObjectDBX Classes
 90
        0
 91
       11
280
     0
281
     0
  0
CLASS
  1
SORTENTSTABLE
  2
AcDbSortentsTable
  3
ObjectDBX Classes
 90
        0
 91
        2
280
     0
281
     0
  0
CLASS
  1
ACAD_EVALUATION_GRAPH
  2
AcDbEvalGraph
  3
ObjectDBX Classes
 90
     1153
 91
        1
280
     0
281
     0
  0
CLASS
  1
ACAECUSTOBJ
  2
AcAeEditorObj
  3
AcAeEditorObj
 90
     1024
 91
        1
280
     1
281
     0
  0
CLASS
  1
ACDB_DYNAMICBLOCKPURGEPREVENTER_VERSION
  2
AcDbDynamicBlockPurgePreventer
  3
ObjectDBX Classes
 90
     1153
 91
        1
280
     0
281
     0
  0
CLASS
  1
MENTALRAYRENDERSETTINGS
  2
AcDbMentalRayRenderSettings
  3
SCENEOE
 90
     1024
 91
        0
280
     0
281
     0
  0
CLASS
  1
ACDB_BLOCKREPRESENTATION_DATA
  2
AcDbBlockRepresentationData
  3
ObjectDBX Classes
 90
     1153
 91
        0
280
     0
281
     0
  0
CLASS
  1
DIMASSOC
  2
AcDbDimAssoc
  3
"AcDbDimAssoc|Product Desc:     AcDim ARX App For Dimension|Company:          Autodesk, Inc.|WEB Address:      www.autodesk.com"
 90
        0
 91
        4
280
     0
281
     0
  0
ENDSEC
  0
SECTION
  2
TABLES
  0
TABLE
  2
VPORT
  5
21C
102
{ACAD_XDICTIONARY
360
220
102
}
330
0
100
AcDbSymbolTable
 70
     1
  0
VPORT
  5
21D
330
21C
100
AcDbSymbolTableRecord
100
AcDbViewportTableRecord
  2
*Active
 70
     0
 10
0.0
 20
0.0
 11
1.0
 21
1.0
 12
625.115873601252
 22
61.846558223714
 13
0.0
 23
0.0
 14
0.5
 24
0.5
 15
0.5
 25
0.5
 16
0.0
 26
0.0
 36
1.0
 17
104.9654968719086
 27
148.5022307685978
 37
0.0
 40
106.1179469275937
 41
2.426395939086294
 42
50.0
 43
0.0
 44
0.0
 50
0.0
 51
0.0
 71
     0
 72
   100
 73
     1
 74
     3
 75
     0
 76
     0
 77
     0
 78
     0
281
     0
 65
     1
110
0.0
120
0.0
130
0.0
111
1.0
121
0.0
131
0.0
112
0.0
122
1.0
132
0.0
 79
     0
146
0.0
348
21E
 60
     3
 61
     5
292
     1
282
     1
141
0.0
142
0.0
 63
   250
421
  3355443
  0
ENDTAB
  0
TABLE
  2
LTYPE
  5
217
330
0
100
AcDbSymbolTable
 70
     2
  0
LTYPE
  5
218
330
217
100
AcDbSymbolTableRecord
100
AcDbLinetypeTableRecord
  2
ByBlock
 70
     0
  3

 72
    65
 73
     0
 40
0.0
  0
LTYPE
  5
219
330
217
100
AcDbSymbolTableRecord
100
AcDbLinetypeTableRecord
  2
ByLayer
 70
     0
  3

 72
    65
 73
     0
 40
0.0
  0
LTYPE
  5
15
330
217
100
AcDbSymbolTableRecord
100
AcDbLinetypeTableRecord
  2
Continuous
 70
     0
  3
Solid line
 72
    65
 73
     0
 40
0.0
  0
LTYPE
  5
163
330
217
100
AcDbSymbolTableRecord
100
AcDbLinetypeTableRecord
  2
CENTER
 70
     0
  3
Center ____ _ ____ _ ____ _ ____ _ ____ _ ____
 72
    65
 73
     4
 40
2.0
 49
1.25
 74
     0
 49
-0.25
 74
     0
 49
0.25
 74
     0
 49
-0.25
 74
     0
  0
ENDTAB
  0
TABLE
  2
LAYER
  5
210
102
{ACAD_XDICTIONARY
360
211
102
}
330
0
100
AcDbSymbolTable
 70
     9
  0
LAYER
  5
6
102
{ACAD_XDICTIONARY
360
7
102
}
330
210
100
AcDbSymbolTableRecord
100
AcDbLayerTableRecord
  2
0
 70
     0
 62
     7
  6
Continuous
370
    30
390
9
347
C
  0
LAYER
  5
17
102
{ACAD_XDICTIONARY
360
18
102
}
330
210
100
AcDbSymbolTableRecord
100
AcDbLayerTableRecord
  2
图层 1
 70
     0
 62
     7
  6
Continuous
370
    -3
390
9
347
C
  0
LAYER
  5
25
102
{ACAD_XDICTIONARY
360
26
102
}
330
210
100
AcDbSymbolTableRecord
100
AcDbLayerTableRecord
  2
图框
 70
     0
 62
     7
  6
Continuous
370
    20
390
9
347
C
  0
LAYER
  5
113
330
210
100
AcDbSymbolTableRecord
100
AcDbLayerTableRecord
  2
Defpoints
 70
     0
 62
     7
  6
Continuous
290
     0
370
    -3
390
9
347
C
  0
LAYER
  5
107
330
210
100
AcDbSymbolTableRecord
100
AcDbLayerTableRecord
  2
DIM
 70
     0
 62
     3
  6
Continuous
370
    15
390
9
347
C
1001
AcAecLayerStandard
1000

1000

  0
LAYER
  5
EC
330
210
100
AcDbSymbolTableRecord
100
AcDbLayerTableRecord
  2
打标文字
 70
     0
 62
     3
  6
Continuous
370
    20
390
9
347
C
  0
LAYER
  5
184
330
210
100
AcDbSymbolTableRecord
100
AcDbLayerTableRecord
  2
CEN
 70
     0
 62
     1
  6
CENTER
370
    15
390
9
347
C
1001
AcAecLayerStandard
1000

1000

  0
LAYER
  5
9D1
102
{ACAD_XDICTIONARY
360
9D2
102
}
330
210
100
AcDbSymbolTableRecord
100
AcDbLayerTableRecord
  2
02___PRT_ALL_AXES
 70
     0
 62
     7
  6
Continuous
370
    -3
390
9
347
C
  0
LAYER
  5
9D3
330
210
100
AcDbSymbolTableRecord
100
AcDbLayerTableRecord
  2
Hat
 70
     0
 62
     6
  6
Continuous
370
    20
390
9
347
C
  0
ENDTAB
  0
TABLE
  2
STYLE
  5
215
330
0
100
AcDbSymbolTable
 70
     4
  0
STYLE
  5
46
330
215
100
AcDbSymbolTableRecord
100
AcDbTextStyleTableRecord
  2
Standard
 70
     0
 40
0.0
 41
0.75
 50
0.0
 71
     0
 42
0.2
  3
SIMFANG.TTF
  4

1001
ACAD
1000
FangSong_GB2312
1071
    34353
  0
STYLE
  5
28
330
215
100
AcDbSymbolTableRecord
100
AcDbTextStyleTableRecord
  2
Romans字体
 70
     0
 40
0.0
 41
0.75
 50
0.0
 71
     0
 42
0.2
  3
romans.shx
  4

  0
STYLE
  5
48
330
215
100
AcDbSymbolTableRecord
100
AcDbTextStyleTableRecord
  2
工程字
 70
     0
 40
0.0
 41
1.0
 50
0.0
 71
     0
 42
3.5
  3
gbenor.shx
  4
gbcbig.shx
  0
STYLE
  5
4A
330
215
100
AcDbSymbolTableRecord
100
AcDbTextStyleTableRecord
  2
Chinese
 70
     0
 40
0.0
 41
1.0
 50
0.0
 71
     0
 42
2.5
  3
PMingLiU.ttf
  4

1001
ACAD
1000
PMingLiU
1071
    34834
  0
ENDTAB
  0
TABLE
  2
VIEW
  5
21A
330
0
100
AcDbSymbolTable
 70
     0
  0
ENDTAB
  0
TABLE
  2
UCS
  5
21B
330
0
100
AcDbSymbolTable
 70
     0
  0
ENDTAB
  0
TABLE
  2
APPID
  5
221
330
0
100
AcDbSymbolTable
 70
    12
  0
APPID
  5
29
330
221
100
AcDbSymbolTableRecord
100
AcDbRegAppTableRecord
  2
ACAD
 70
     0
  0
APPID
  5
35
330
221
100
AcDbSymbolTableRecord
100
AcDbRegAppTableRecord
  2
AcDbBlockRepETag
 70
     0
  0
APPID
  5
207
330
221
100
AcDbSymbolTableRecord
100
AcDbRegAppTableRecord
  2
ACAD_PSEXT
 70
     0
  0
APPID
  5
108
330
221
100
AcDbSymbolTableRecord
100
AcDbRegAppTableRecord
  2
AcAecLayerStandard
 70
     0
  0
APPID
  5
118
330
221
100
AcDbSymbolTableRecord
100
AcDbRegAppTableRecord
  2
ACAD_DSTYLE_DIMJAG
 70
     0
  0
APPID
  5
119
330
221
100
AcDbSymbolTableRecord
100
AcDbRegAppTableRecord
  2
ACAD_DSTYLE_DIMTALN
 70
     0
  0
APPID
  5
29D
330
221
100
AcDbSymbolTableRecord
100
AcDbRegAppTableRecord
  2
ACAD_MLEADERVER
 70
     0
  0
APPID
  5
391
330
221
100
AcDbSymbolTableRecord
100
AcDbRegAppTableRecord
  2
AcDbDynamicBlockGUID
 70
     0
  0
APPID
  5
9D5
330
221
100
AcDbSymbolTableRecord
100
AcDbRegAppTableRecord
  2
ACAD_DSTYLE_DIMINSPECT
 70
     0
  0
APPID
  5
1638
330
221
100
AcDbSymbolTableRecord
100
AcDbRegAppTableRecord
  2
ACAD_EXEMPT_FROM_CAD_STANDARDS
 70
     0
  0
APPID
  5
2F6F
330
221
100
AcDbSymbolTableRecord
100
AcDbRegAppTableRecord
  2
ACAUTHENVIRON
 70
     0
  0
APPID
  5
2F72
330
221
100
AcDbSymbolTableRecord
100
AcDbRegAppTableRecord
  2
AcDbDynamicBlockTrueName
 70
     0
  0
ENDTAB
  0
TABLE
  2
DIMSTYLE
  5
222
330
0
100
AcDbSymbolTable
 70
     2
100
AcDbDimStyleTable
 71
     2
340
117
340
223
  0
DIMSTYLE
105
223
330
222
100
AcDbSymbolTableRecord
100
AcDbDimStyleTableRecord
  2
Standard
 70
     0
340
46
  0
DIMSTYLE
105
117
102
{ACAD_REACTORS
330
239C
330
2399
330
2383
330
2384
330
2382
330
23FD
330
23FB
330
23FA
330
23E9
330
23F7
102
}
330
222
100
AcDbSymbolTableRecord
100
AcDbDimStyleTableRecord
  2
01
 70
     0
 41
1.0
 42
0.2
 43
0.2
 44
0.5
 73
     0
 74
     0
 77
     1
 78
     8
 79
     2
140
1.5
141
0.0
147
0.5
176
     1
177
     6
178
     4
179
     2
271
     1
272
     1
340
28
1001
ACAD_DSTYLE_DIMJAG
1070
   388
1040
1.5
1001
ACAD_DSTYLE_DIMTALN
1070
   392
1070
     0
  0
ENDTAB
  0
TABLE
  2
BLOCK_RECORD
  5
1
330
0
100
AcDbSymbolTable
 70
    14
  0
BLOCK_RECORD
  5
2
102
{ACAD_XDICTIONARY
360
3
102
}
330
1
100
AcDbSymbolTableRecord
100
AcDbBlockTableRecord
  2
*Model_Space
340
205
 70
     0
280
     1
281
     0
  0
BLOCK_RECORD
  5
208
330
1
100
AcDbSymbolTableRecord
100
AcDbBlockTableRecord
  2
*Paper_Space
340
20B
 70
     0
280
     1
281
     0
  0
BLOCK_RECORD
  5
20C
330
1
100
AcDbSymbolTableRecord
100
AcDbBlockTableRecord
  2
*Paper_Space0
340
20F
 70
     0
280
     1
281
     0
  0
BLOCK_RECORD
  5
2AC
102
{ACAD_XDICTIONARY
360
2F6E
102
}
330
1
100
AcDbSymbolTableRecord
100
AcDbBlockTableRecord
  2
A4图框-NEW
340
0
310
2800000020000000200000000100080000000000000400000000000000000000000000000000000000000000000080000080000000808000800000008000800080800000C0C0C000C0DCC000F0CAA6000020400000206000002080000020A0000020C0000020E00000400000004020000040400000406000004080000040A0
310
000040C0000040E00000600000006020000060400000606000006080000060A0000060C0000060E00000800000008020000080400000806000008080000080A0000080C0000080E00000A0000000A0200000A0400000A0600000A0800000A0A00000A0C00000A0E00000C0000000C0200000C0400000C0600000C0800000C0
310
A00000C0C00000C0E00000E0000000E0200000E0400000E0600000E0800000E0A00000E0C00000E0E00040000000400020004000400040006000400080004000A0004000C0004000E00040200000402020004020400040206000402080004020A0004020C0004020E000404000004040200040404000404060004040800040
310
40A0004040C0004040E00040600000406020004060400040606000406080004060A0004060C0004060E00040800000408020004080400040806000408080004080A0004080C0004080E00040A0000040A0200040A0400040A0600040A0800040A0A00040A0C00040A0E00040C0000040C0200040C0400040C0600040C08000
310
40C0A00040C0C00040C0E00040E0000040E0200040E0400040E0600040E0800040E0A00040E0C00040E0E00080000000800020008000400080006000800080008000A0008000C0008000E00080200000802020008020400080206000802080008020A0008020C0008020E00080400000804020008040400080406000804080
310
008040A0008040C0008040E00080600000806020008060400080606000806080008060A0008060C0008060E00080800000808020008080400080806000808080008080A0008080C0008080E00080A0000080A0200080A0400080A0600080A0800080A0A00080A0C00080A0E00080C0000080C0200080C0400080C0600080C0
310
800080C0A00080C0C00080C0E00080E0000080E0200080E0400080E0600080E0800080E0A00080E0C00080E0E000C0000000C0002000C0004000C0006000C0008000C000A000C000C000C000E000C0200000C0202000C0204000C0206000C0208000C020A000C020C000C020E000C0400000C0402000C0404000C0406000C0
310
408000C040A000C040C000C040E000C0600000C0602000C0604000C0606000C0608000C060A000C060C000C060E000C0800000C0802000C0804000C0806000C0808000C080A000C080C000C080E000C0A00000C0A02000C0A04000C0A06000C0A08000C0A0A000C0A0C000C0A0E000C0C00000C0C02000C0C04000C0C06000
310
C0C08000C0C0A000F0FBFF00A4A0A000808080000000FF0000FF000000FFFF00FF000000FF00FF00FFFF0000FFFFFF0000000000000000000000000000000000000000000000000000000000000000000000000000000000000000000000000000000000000000000000000000000000000000000000000000000000000000
310
000000000000000000000000000000000000000000000000000000000000000000000000000000000000000000000000000000000000000000000000000000000000000000000000000000000000000000000000000000000000000000000000000000000000000000000000000000000000F9F9F9F9F9F9F9F9F9F9F9F9F9
310
F9F9F9F9F9F9F9F9F9F9F9F9F9F9FF00000000F9FF000000000000000000FFFFFFFFFFFFFFFFFFFFFFFFF9FAFAFAFF00000000F9FF000000000000000000FFFFFFFFFFFFFFFFFFFFFFFFFFFFFFFFFF00000000F9FD000000000000000000FFFFFFFFFFFFFFFFFFFFFFFFFFFFFFFFFF00000000F9FF000000000000000000FF
310
FFFFFFFFFFFFFFFFFFFFFFFFFFFFFFFF00000000F9FD000000000000000000FFFFFFFFFFFFFFFFFFFFFFFFFFFFFFFFFF00000000F9FF00000000000000000000000000000000000000000000000000FF00000000F9FD00000000000000000000000000000000000000000000000000FF00000000F9FF000000000000000000
310
00000000000000000000000000000000FF00000000F9FD00000000000000000000000000000000000000000000000000FF00000000F9FF00000000000000000000000000000000000000000000000000FF00000000F9FD00000000000000000000000000000000000000000000000000FF00000000F9FD0000000000000000
310
0000000000000000000000000000000000FF00000000F9FF00000000000000000000000000000000000000000000000000FF00000000F9FD00000000000000000000000000000000000000000000000000FF00000000F9FF00000000000000000000000000000000000000000000000000FF00000000F9FD00000000000000
310
000000000000000000000000000000000000FF00000000F9FF00000000000000000000000000000000000000000000000000FF00000000F9FFFFFFFFFFFFFFFFFFFFFFFFFFFFFFFFFFFFFFFFFFFFFFFFFFFFFF00000000F9FFFFFFF9F9F9F9F9F9F9F9F9F9F9F9F9F9F9F9F9F9F9F9F9F9F9F9000000000000000000000000
310
00000000000000000000000000000000000000000000000000000000000000000000000000000000000000000000000000000000000000000000000000000000000000000000000000000000000000000000000000000000000000000000000000000000000000000000000000000000000000000000000000000000000000
310
0000000000000000000000000000000000000000000000000000000000000000000000000000000000000000000000000000000000000000
102
{BLKREFS
331
565
102
}
 70
     4
280
     1
281
     0
1001
AcDbDynamicBlockGUID
1000
{C60DE23F-1F2F-4E45-9689-6368B70B8DF6}
1001
AcDbBlockRepETag
1070
     1
1071
      149
  0
BLOCK_RECORD
  5
2093
102
{ACAD_XDICTIONARY
360
2094
102
}
330
1
100
AcDbSymbolTableRecord
100
AcDbBlockTableRecord
  2
A$C29E74B87
340
0
102
{BLKREFS
331
237E
102
}
 70
     1
280
     1
281
     0
  0
BLOCK_RECORD
  5
2400
330
1
100
AcDbSymbolTableRecord
100
AcDbBlockTableRecord
  2
*D3
340
0
 70
     0
280
     1
281
     0
  0
BLOCK_RECORD
  5
240C
330
1
100
AcDbSymbolTableRecord
100
AcDbBlockTableRecord
  2
*D4
340
0
 70
     0
280
     1
281
     0
  0
BLOCK_RECORD
  5
2419
330
1
100
AcDbSymbolTableRecord
100
AcDbBlockTableRecord
  2
*D5
340
0
 70
     0
280
     1
281
     0
  0
BLOCK_RECORD
  5
2426
330
1
100
AcDbSymbolTableRecord
100
AcDbBlockTableRecord
  2
*D6
340
0
 70
     0
280
     1
281
     0
  0
BLOCK_RECORD
  5
2432
330
1
100
AcDbSymbolTableRecord
100
AcDbBlockTableRecord
  2
*D7
340
0
 70
     0
280
     1
281
     0
  0
BLOCK_RECORD
  5
243E
330
1
100
AcDbSymbolTableRecord
100
AcDbBlockTableRecord
  2
*D8
340
0
 70
     0
280
     1
281
     0
  0
BLOCK_RECORD
  5
244B
330
1
100
AcDbSymbolTableRecord
100
AcDbBlockTableRecord
  2
*D9
340
0
 70
     0
280
     1
281
     0
  0
BLOCK_RECORD
  5
2457
330
1
100
AcDbSymbolTableRecord
100
AcDbBlockTableRecord
  2
*D10
340
0
 70
     0
280
     1
281
     0
  0
BLOCK_RECORD
  5
249D
330
1
100
AcDbSymbolTableRecord
100
AcDbBlockTableRecord
  2
*D11
340
0
 70
     0
280
     1
281
     0
  0
BLOCK_RECORD
  5
24AA
330
1
100
AcDbSymbolTableRecord
100
AcDbBlockTableRecord
  2
*D12
340
0
 70
     0
280
     1
281
     0
  0
ENDTAB
  0
ENDSEC
  0
SECTION
  2
BLOCKS
  0
BLOCK
  5
5
330
2
100
AcDbEntity
  8
0
100
AcDbBlockBegin
  2
*Model_Space
 70
     0
 10
0.0
 20
0.0
 30
0.0
  3
*Model_Space
  1

  0
ENDBLK
  5
204
330
2
100
AcDbEntity
  8
0
100
AcDbBlockEnd
  0
BLOCK
  5
209
330
208
100
AcDbEntity
 67
     1
  8
0
100
AcDbBlockBegin
  2
*Paper_Space
 70
     0
 10
0.0
 20
0.0
 30
0.0
  3
*Paper_Space
  1

  0
ENDBLK
  5
20A
330
208
100
AcDbEntity
 67
     1
  8
0
100
AcDbBlockEnd
  0
BLOCK
  5
20D
330
20C
100
AcDbEntity
 67
     1
  8
0
100
AcDbBlockBegin
  2
*Paper_Space0
 70
     0
 10
0.0
 20
0.0
 30
0.0
  3
*Paper_Space0
  1

  0
ENDBLK
  5
20E
330
20C
100
AcDbEntity
 67
     1
  8
0
100
AcDbBlockEnd
  0
BLOCK
  5
2AE
330
2AC
100
AcDbEntity
  8
0
100
AcDbBlockBegin
  2
A4图框-NEW
 70
     0
 10
0.0
 20
0.0
 30
0.0
  3
A4图框-NEW
  1

  0
MTEXT
  5
2ED9
102
{ACAD_XDICTIONARY
360
2F79
102
}
330
2AC
100
AcDbEntity
  8
图框
 62
     3
100
AcDbMText
 10
967.6594956750133
 20
499.7664151964293
 30
0.0
 40
2.985513575034151
 41
15.50176341157864
 46
6.292658374511018
 71
     5
 72
     5
  1
BQ LUO
  7
Romans字体
 73
     1
 44
1.0
1001
AcDbBlockRepETag
1070
     1
1071
        0
1005
2ED9
1001
ACAD
1000
ACAD_MTEXT_DEFINED_HEIGHT_BEGIN
1070
    46
1040
6.292658374511018
1000
ACAD_MTEXT_DEFINED_HEIGHT_END
  0
MTEXT
  5
2EDA
330
2AC
100
AcDbEntity
  8
图框
 62
     3
100
AcDbMText
 10
983.041569333247
 20
499.7664151964293
 30
0.0
 40
2.487927979195124
 41
15.26238390489062
 46
6.292658374511042
 71
     5
 72
     5
  1
{\W0.7;18.10.2010}
  7
Romans字体
 73
     1
 44
1.0
1001
AcDbBlockRepETag
1070
     1
1071
        1
1005
2EDA
1001
ACAD
1000
ACAD_MTEXT_DEFINED_HEIGHT_BEGIN
1070
    46
1040
6.292658374511042
1000
ACAD_MTEXT_DEFINED_HEIGHT_END
  0
MTEXT
  5
2EDB
330
2AC
100
AcDbEntity
  8
图框
 62
     3
100
AcDbMText
 10
1012.477254728976
 20
487.1810984474071
 30
0.0
 40
2.985513575034151
 41
17.64876416884615
 46
6.292658374511455
 71
     5
 72
     5
  1
YY LIN
  7
Romans字体
 73
     1
 44
1.0
1001
AcDbBlockRepETag
1070
     1
1071
        2
1005
2EDB
1001
ACAD
1000
ACAD_MTEXT_DEFINED_HEIGHT_BEGIN
1070
    46
1040
6.292658374511455
1000
ACAD_MTEXT_DEFINED_HEIGHT_END
  0
MTEXT
  5
2EDC
330
2AC
100
AcDbEntity
  8
图框
 62
     3
100
AcDbMText
 10
1028.977802139886
 20
487.1810984474071
 30
0.0
 40
2.487927979195124
 41
15.35233065297276
 46
6.292658374511495
 71
     5
 72
     5
  1
{\W0.7;18.10.2010}
  7
Romans字体
 73
     1
 44
1.0
1001
AcDbBlockRepETag
1070
     1
1071
        3
1005
2EDC
1001
ACAD
1000
ACAD_MTEXT_DEFINED_HEIGHT_BEGIN
1070
    46
1040
6.292658374511495
1000
ACAD_MTEXT_DEFINED_HEIGHT_END
  0
MTEXT
  5
2EDD
330
2AC
100
AcDbEntity
  8
图框
 62
     3
100
AcDbMText
 10
1063.722665487208
 20
525.4145966538831
 30
0.0
 40
2.985513575034151
 41
32.4973914334545
 46
11.82914190181707
 71
     5
 72
     5
  1
-
  7
Romans字体
 73
     1
 44
1.0
1001
AcDbBlockRepETag
1070
     1
1071
        4
1005
2EDD
1001
ACAD
1000
ACAD_MTEXT_DEFINED_HEIGHT_BEGIN
1070
    46
1040
11.82914190181707
1000
ACAD_MTEXT_DEFINED_HEIGHT_END
  0
MTEXT
  5
2EDE
330
2AC
100
AcDbEntity
  8
图框
 62
     3
100
AcDbMText
 10
1063.727338552349
 20
513.5854547520641
 30
0.0
 40
2.985513575034151
 41
32.48804530317308
 46
11.82914190182139
 71
     5
 72
     5
  1
-
  7
Romans字体
 73
     1
 44
1.0
1001
AcDbBlockRepETag
1070
     1
1071
        5
1005
2EDE
1001
ACAD
1000
ACAD_MTEXT_DEFINED_HEIGHT_BEGIN
1070
    46
1040
11.82914190182139
1000
ACAD_MTEXT_DEFINED_HEIGHT_END
  0
MTEXT
  5
2EDF
330
2AC
100
AcDbEntity
  8
图框
 62
     3
100
AcDbMText
 10
1110.122306614152
 20
526.8006839312707
 30
0.0
 40
2.985513575034151
 41
33.61239199242139
 46
9.05696734704178
 71
     5
 72
     5
  1
-
  7
Romans字体
 73
     1
 44
1.0
1001
AcDbBlockRepETag
1070
     1
1071
        6
1005
2EDF
1001
ACAD
1000
ACAD_MTEXT_DEFINED_HEIGHT_BEGIN
1070
    46
1040
9.05696734704178
1000
ACAD_MTEXT_DEFINED_HEIGHT_END
  0
MTEXT
  5
2EE0
330
2AC
100
AcDbEntity
  8
图框
 62
     3
100
AcDbMText
 10
1110.122306614152
 20
500.2775205517162
 30
0.0
 40
2.985513575034151
 41
33.61239199242139
 46
8.871557304763419
 71
     5
 72
     5
  1
-
  7
Romans字体
 73
     1
 44
1.0
1001
AcDbBlockRepETag
1070
     1
1071
        7
1005
2EE0
1001
ACAD
1000
ACAD_MTEXT_DEFINED_HEIGHT_BEGIN
1070
    46
1040
8.871557304763419
1000
ACAD_MTEXT_DEFINED_HEIGHT_END
  0
MTEXT
  5
2EE1
330
2AC
100
AcDbEntity
  8
图框
 62
     3
100
AcDbMText
 10
967.6594956750133
 20
493.4737568219182
 30
0.0
 40
2.985513575034151
 41
15.50176341157864
 46
6.292658374510335
 71
     5
 72
     5
  1
P RAO
  7
Romans字体
 73
     1
 44
1.0
1001
AcDbBlockRepETag
1070
     1
1071
        8
1005
2EE1
1001
ACAD
1000
ACAD_MTEXT_DEFINED_HEIGHT_BEGIN
1070
    46
1040
6.292658374510335
1000
ACAD_MTEXT_DEFINED_HEIGHT_END
  0
MTEXT
  5
2EE2
330
2AC
100
AcDbEntity
  8
图框
 62
     3
100
AcDbMText
 10
983.041569333247
 20
493.2441970450405
 30
0.0
 40
2.487927979195124
 41
15.26238390489051
 46
6.751777928266487
 71
     5
 72
     5
  1
{\W0.7;18.10.2010}
  7
Romans字体
 73
     1
 44
1.0
1001
AcDbBlockRepETag
1070
     1
1071
        9
1005
2EE2
1001
ACAD
1000
ACAD_MTEXT_DEFINED_HEIGHT_BEGIN
1070
    46
1040
6.751777928266487
1000
ACAD_MTEXT_DEFINED_HEIGHT_END
  0
MTEXT
  5
2EE3
330
2AC
100
AcDbEntity
  8
图框
 62
     3
100
AcDbMText
 10
1012.477254728976
 20
499.7664151964291
 30
0.0
 40
2.985513575034151
 41
17.64876416884615
 46
6.292658374511397
 71
     5
 72
     5
  1
-
  7
Romans字体
 73
     1
 44
1.0
1001
AcDbBlockRepETag
1070
     1
1071
       10
1005
2EE3
1001
ACAD
1000
ACAD_MTEXT_DEFINED_HEIGHT_BEGIN
1070
    46
1040
6.292658374511397
1000
ACAD_MTEXT_DEFINED_HEIGHT_END
  0
MTEXT
  5
2EE4
330
2AC
100
AcDbEntity
  8
图框
 62
     3
100
AcDbMText
 10
1028.977802139886
 20
499.7664151964289
 30
0.0
 40
2.487927979195124
 41
15.35233065297265
 46
6.292658374511382
 71
     5
 72
     5
  1
-
  7
Romans字体
 73
     1
 44
1.0
1001
AcDbBlockRepETag
1070
     1
1071
       11
1005
2EE4
1001
ACAD
1000
ACAD_MTEXT_DEFINED_HEIGHT_BEGIN
1070
    46
1040
6.292658374511382
1000
ACAD_MTEXT_DEFINED_HEIGHT_END
  0
MTEXT
  5
2EE5
330
2AC
100
AcDbEntity
  8
图框
 62
     3
100
AcDbMText
 10
967.6594956750133
 20
487.1810984474071
 30
0.0
 40
2.985513575034151
 41
15.50176341157863
 46
6.292658374511478
 71
     5
 72
     5
  1
-
  7
Romans字体
 73
     1
 44
1.0
1001
AcDbBlockRepETag
1070
     1
1071
       12
1005
2EE5
1001
ACAD
1000
ACAD_MTEXT_DEFINED_HEIGHT_BEGIN
1070
    46
1040
6.292658374511478
1000
ACAD_MTEXT_DEFINED_HEIGHT_END
  0
MTEXT
  5
2EE6
330
2AC
100
AcDbEntity
  8
图框
 62
     3
100
AcDbMText
 10
983.041569333247
 20
487.1810984474071
 30
0.0
 40
2.487927979195124
 41
15.26238390489062
 46
6.292658374511495
 71
     5
 72
     5
  1
-
  7
Romans字体
 73
     1
 44
1.0
1001
AcDbBlockRepETag
1070
     1
1071
       13
1005
2EE6
1001
ACAD
1000
ACAD_MTEXT_DEFINED_HEIGHT_BEGIN
1070
    46
1040
6.292658374511495
1000
ACAD_MTEXT_DEFINED_HEIGHT_END
  0
MTEXT
  5
2EE7
330
2AC
100
AcDbEntity
  8
图框
 62
     3
100
AcDbMText
 10
1074.556686986741
 20
495.8417418993361
 30
0.0
 40
2.985513575034151
 41
10.82934843438978
 46
7.886094601210427
 71
     5
 72
     5
  1
-
  7
Romans字体
 73
     1
 44
1.0
1001
AcDbBlockRepETag
1070
     1
1071
       14
1005
2EE7
1001
ACAD
1000
ACAD_MTEXT_DEFINED_HEIGHT_BEGIN
1070
    46
1040
7.886094601210427
1000
ACAD_MTEXT_DEFINED_HEIGHT_END
  0
LINE
  5
2EE8
330
2AC
100
AcDbEntity
  8
图框
370
    -3
100
AcDbLine
 10
1036.653967466372
 20
499.7847891999413
 30
0.0
 11
1079.971361203936
 21
499.7847891999413
 31
0.0
1001
AcDbBlockRepETag
1070
     1
1071
       15
1005
2EE8
  0
MTEXT
  5
2EE9
330
2AC
100
AcDbEntity
  8
图框
 62
     1
370
    20
100
AcDbMText
 10
1108.26336443907
 20
491.5162596080882
 30
0.0
 40
2.699054613030988
 41
82.30831305643079
 46
0.0
 71
     5
 72
     5
  1
{\fSimHei|b0|i0|c134|p2;厦门唯恩电气有限公司}
 73
     1
 44
1.0
1001
AcDbBlockRepETag
1070
     1
1071
       16
1005
2EE9
  0
MTEXT
  5
2EEA
330
2AC
100
AcDbEntity
  8
图框
 62
     3
370
    20
100
AcDbMText
 10
1108.435451459908
 20
487.298967726064
 30
0.0
 40
1.652482416141417
 41
68.08558693693567
 46
0.0
 71
     5
 72
     5
  1
{\fArial Narrow|b0|i0|c0|p34;XIAMEN WAIN ELECTRICAL CO.LTD}
  7
工程字
 73
     1
 44
1.0
1001
AcDbBlockRepETag
1070
     1
1071
       17
1005
2EEA
  0
MTEXT
  5
2EEB
330
2AC
100
AcDbEntity
  8
图框
 62
     1
370
    20
100
AcDbMText
 10
1085.711816899387
 20
491.0944802995856
 30
0.0
 40
2.005930044038334
 41
5.047240019334847
 46
0.0
 71
     1
 72
     5
  1
{\fArial|b0|i0|c0|p34;A}
  7
Chinese
 73
     1
 44
1.0
1001
AcDbBlockRepETag
1070
     1
1071
       18
1005
2EEB
  0
MTEXT
  5
2EEC
330
2AC
100
AcDbEntity
  8
图框
 62
     1
370
    20
100
AcDbMText
 10
1088.213485935716
 20
491.0944802995856
 30
0.0
 40
2.005930044038334
 41
5.047240019334847
 46
0.0
 71
     1
 72
     5
  1
{\fArial|b0|i0|c0|p34;I}
  7
Chinese
 73
     1
 44
1.0
1001
AcDbBlockRepETag
1070
     1
1071
       19
1005
2EEC
  0
MTEXT
  5
2EED
330
2AC
100
AcDbEntity
  8
图框
 62
     1
370
    20
100
AcDbMText
 10
1089.142375222864
 20
491.0822866326808
 30
0.0
 40
2.005930044038334
 41
5.047240019334847
 46
0.0
 71
     1
 72
     5
  1
{\fArial|b0|i0|c0|p34;N}
  7
Chinese
 73
     1
 44
1.0
1001
AcDbBlockRepETag
1070
     1
1071
       20
1005
2EED
  0
MTEXT
  5
2EEE
330
2AC
100
AcDbEntity
  8
图框
100
AcDbMText
 10
1069.142012769545
 20
487.9667319294409
 30
0.0
 40
2.252848170144607
 41
21.65869686878327
 46
7.863925338579296
 71
     5
 72
     5
  1
{\W0.5;\C1;All Dimensions in mm\POriginal Size DIN A 4}
  7
Romans字体
 73
     1
 44
1.0
1001
AcDbBlockRepETag
1070
     1
1071
       21
1005
2EEE
1001
ACAD
1000
ACAD_MTEXT_DEFINED_HEIGHT_BEGIN
1070
    46
1040
7.863925338579296
1000
ACAD_MTEXT_DEFINED_HEIGHT_END
  0
MTEXT
  5
2EEF
330
2AC
100
AcDbEntity
  8
图框
  6
ByBlock
 62
     6
370
    18
100
AcDbMText
 10
1127.40434942308
 20
508.7896535755975
 30
0.0
 40
2.651776162684904
 41
2.557913877927211
 46
0.0
 71
     1
 72
     5
  1
A
  7
Romans字体
 11
0.0000000000000001
 21
1.0
 31
0.0
 73
     1
 44
1.0
1001
AcDbBlockRepETag
1070
     1
1071
       22
1005
2EEF
  0
MTEXT
  5
2EF0
330
2AC
100
AcDbEntity
  8
图框
 62
     6
100
AcDbMText
 10
1127.40434942308
 20
556.3746573232886
 30
0.0
 40
2.651776162684904
 41
2.557913877927211
 46
0.0
 71
     1
 72
     5
  1
B
  7
Romans字体
 11
0.0000000000000001
 21
1.0
 31
0.0
 73
     1
 44
1.0
1001
AcDbBlockRepETag
1070
     1
1071
       23
1005
2EF0
  0
MTEXT
  5
2EF1
330
2AC
100
AcDbEntity
  8
图框
 62
     6
100
AcDbMText
 10
1127.40434942308
 20
607.5539372630998
 30
0.0
 40
2.651776162684904
 41
2.557913877927211
 46
0.0
 71
     1
 72
     5
  1
C
  7
Romans字体
 11
0.0000000000000001
 21
1.0
 31
0.0
 73
     1
 44
1.0
1001
AcDbBlockRepETag
1070
     1
1071
       24
1005
2EF1
  0
MTEXT
  5
2EF2
330
2AC
100
AcDbEntity
  8
图框
 62
     6
100
AcDbMText
 10
1127.40434942308
 20
658.7332172029115
 30
0.0
 40
2.651776162684904
 41
2.557913877927211
 46
0.0
 71
     1
 72
     5
  1
D
  7
Romans字体
 11
0.0000000000000001
 21
1.0
 31
0.0
 73
     1
 44
1.0
1001
AcDbBlockRepETag
1070
     1
1071
       25
1005
2EF2
  0
LINE
  5
2EF3
330
2AC
100
AcDbEntity
  8
图框
 62
     6
100
AcDbLine
 10
1130.411601781241
 20
634.0726090796082
 30
0.0
 11
1126.928502610363
 21
634.0726090796082
 31
0.0
1001
AcDbBlockRepETag
1070
     1
1071
       26
1005
2EF3
  0
LINE
  5
2EF4
330
2AC
100
AcDbEntity
  8
图框
 62
     6
100
AcDbLine
 10
1130.411601781241
 20
582.89332913979
 30
0.0
 11
1126.928502610363
 21
582.89332913979
 31
0.0
1001
AcDbBlockRepETag
1070
     1
1071
       27
1005
2EF4
  0
MTEXT
  5
2EF5
330
2AC
100
AcDbEntity
  8
图框
 62
     6
100
AcDbMText
 10
1105.329704038389
 20
483.6164543011163
 30
0.0
 40
2.651776162684904
 41
2.557913877927211
 46
0.0
 71
     1
 72
     5
  1
6
  7
Romans字体
 73
     1
 44
1.0
1001
AcDbBlockRepETag
1070
     1
1071
       28
1005
2EF5
  0
LINE
  5
2EF6
330
2AC
100
AcDbEntity
  8
图框
 62
     6
100
AcDbLine
 10
1081.088565155284
 20
484.0347692601515
 30
0.0
 11
1081.088565155284
 21
480.5347692601475
 31
0.0
1001
AcDbBlockRepETag
1070
     1
1071
       29
1005
2EF6
  0
MTEXT
  5
2EF7
330
2AC
100
AcDbEntity
  8
图框
 62
     6
100
AcDbMText
 10
1055.900596365941
 20
483.520053108993
 30
0.0
 40
2.651776162684904
 41
2.557913877927211
 46
0.0
 71
     1
 72
     5
  1
5
  7
Romans字体
 73
     1
 44
1.0
1001
AcDbBlockRepETag
1070
     1
1071
       30
1005
2EF7
  0
LINE
  5
2EF8
330
2AC
100
AcDbEntity
  8
图框
 62
     6
100
AcDbLine
 10
1031.553386436349
 20
484.0347692601515
 30
0.0
 11
1031.553386436349
 21
480.5347692601475
 31
0.0
1001
AcDbBlockRepETag
1070
     1
1071
       31
1005
2EF8
  0
MTEXT
  5
2EF9
330
2AC
100
AcDbEntity
  8
图框
 62
     6
100
AcDbMText
 10
1006.383180575197
 20
483.5687958215896
 30
0.0
 40
2.651776162684904
 41
2.557913877927211
 46
0.0
 71
     1
 72
     5
  1
4
  7
Romans字体
 73
     1
 44
1.0
1001
AcDbBlockRepETag
1070
     1
1071
       32
1005
2EF9
  0
LINE
  5
2EFA
330
2AC
100
AcDbEntity
  8
图框
 62
     6
100
AcDbLine
 10
982.0182077173887
 20
484.0347692601515
 30
0.0
 11
982.0182077173887
 21
480.5347692601475
 31
0.0
1001
AcDbBlockRepETag
1070
     1
1071
       33
1005
2EFA
  0
MTEXT
  5
2EFB
330
2AC
100
AcDbEntity
  8
图框
 62
     6
100
AcDbMText
 10
956.8302389280352
 20
483.5989680297948
 30
0.0
 40
2.651776162684904
 41
2.557913877927211
 46
0.0
 71
     1
 72
     5
  1
3
  7
Romans字体
 73
     1
 44
1.0
1001
AcDbBlockRepETag
1070
     1
1071
       34
1005
2EFB
  0
LINE
  5
2EFC
330
2AC
100
AcDbEntity
  8
图框
 62
     6
100
AcDbLine
 10
932.4830289984245
 20
484.0347692601515
 30
0.0
 11
932.4830289984245
 21
480.5347692601475
 31
0.0
1001
AcDbBlockRepETag
1070
     1
1071
       35
1005
2EFC
  0
MTEXT
  5
2EFD
330
2AC
100
AcDbEntity
  8
图框
 62
     6
100
AcDbMText
 10
906.0252349826365
 20
483.6475250013156
 30
0.0
 40
2.651776162684904
 41
2.557913877927211
 46
0.0
 71
     1
 72
     5
  1
2
  7
Romans字体
 73
     1
 44
1.0
1001
AcDbBlockRepETag
1070
     1
1071
       36
1005
2EFD
  0
LINE
  5
2EFE
330
2AC
100
AcDbEntity
  8
图框
 62
     6
100
AcDbLine
 10
882.9478502794648
 20
484.0347692601515
 30
0.0
 11
882.9478502794648
 21
480.5347692601475
 31
0.0
1001
AcDbBlockRepETag
1070
     1
1071
       37
1005
2EFE
  0
MTEXT
  5
2EFF
330
2AC
100
AcDbEntity
  8
图框
 62
     6
100
AcDbMText
 10
857.7598814901191
 20
483.651829494754
 30
0.0
 40
2.651776162684904
 41
2.557913877927211
 46
0.0
 71
     1
 72
     5
  1
1
  7
Romans字体
 73
     1
 44
1.0
1001
AcDbBlockRepETag
1070
     1
1071
       38
1005
2EFF
  0
LINE
  5
2F00
330
2AC
100
AcDbEntity
  8
图框
370
    50
100
AcDbLine
 10
836.8548209370597
 20
484.0347692601515
 30
0.0
 11
1126.928502610363
 21
484.0347692601515
 31
0.0
1001
AcDbBlockRepETag
1070
     1
1071
       39
1005
2F00
  0
LINE
  5
2F01
330
2AC
100
AcDbEntity
  8
图框
370
    50
100
AcDbLine
 10
836.9128518455362
 20
484.0178684310246
 30
0.0
 11
836.9128518455394
 21
675.0207195125422
 31
0.0
1001
AcDbBlockRepETag
1070
     1
1071
       40
1005
2F01
  0
MTEXT
  5
2F02
330
2AC
100
AcDbEntity
  8
图框
 62
     6
100
AcDbMText
 10
833.8475685789031
 20
658.7332172029115
 30
0.0
 40
2.651776162684904
 41
2.557913877927211
 46
0.0
 71
     1
 72
     5
  1
D
  7
Romans字体
 11
0.0000000000000001
 21
1.0
 31
0.0
 73
     1
 44
1.0
1001
AcDbBlockRepETag
1070
     1
1071
       41
1005
2F02
  0
LINE
  5
2F03
330
2AC
100
AcDbEntity
  8
图框
 62
     6
100
AcDbLine
 10
836.9128518455386
 20
634.0726090796082
 30
0.0
 11
833.4128518455365
 21
634.0726090796082
 31
0.0
1001
AcDbBlockRepETag
1070
     1
1071
       42
1005
2F03
  0
MTEXT
  5
2F04
330
2AC
100
AcDbEntity
  8
图框
 62
     6
100
AcDbMText
 10
833.9039177480142
 20
607.5539372630998
 30
0.0
 40
2.651776162684904
 41
2.557913877927211
 46
0.0
 71
     1
 72
     5
  1
C
  7
Romans字体
 11
0.0000000000000001
 21
1.0
 31
0.0
 73
     1
 44
1.0
1001
AcDbBlockRepETag
1070
     1
1071
       43
1005
2F04
  0
LINE
  5
2F05
330
2AC
100
AcDbEntity
  8
图框
 62
     6
100
AcDbLine
 10
836.9128518455378
 20
582.89332913979
 30
0.0
 11
833.4128518455365
 21
582.89332913979
 31
0.0
1001
AcDbBlockRepETag
1070
     1
1071
       44
1005
2F05
  0
MTEXT
  5
2F06
330
2AC
100
AcDbEntity
  8
图框
 62
     6
100
AcDbMText
 10
833.9039177480142
 20
556.3746573232886
 30
0.0
 40
2.651776162684904
 41
2.557913877927211
 46
0.0
 71
     1
 72
     5
  1
B
  7
Romans字体
 11
0.0000000000000001
 21
1.0
 31
0.0
 73
     1
 44
1.0
1001
AcDbBlockRepETag
1070
     1
1071
       45
1005
2F06
  0
LINE
  5
2F07
330
2AC
100
AcDbEntity
  8
图框
 62
     6
100
AcDbLine
 10
836.9128518455367
 20
531.714049199969
 30
0.0
 11
833.4128518455365
 21
531.714049199969
 31
0.0
1001
AcDbBlockRepETag
1070
     1
1071
       46
1005
2F07
  0
MTEXT
  5
2F08
330
2AC
100
AcDbEntity
  8
图框
 62
     6
100
AcDbMText
 10
833.9039177480142
 20
508.7896535755975
 30
0.0
 40
2.651776162684904
 41
2.557913877927211
 46
0.0
 71
     1
 72
     5
  1
A
  7
Romans字体
 11
0.0000000000000001
 21
1.0
 31
0.0
 73
     1
 44
1.0
1001
AcDbBlockRepETag
1070
     1
1071
       47
1005
2F08
  0
LINE
  5
2F09
330
2AC
100
AcDbEntity
  8
图框
370
    -3
100
AcDbLine
 10
836.9128518455394
 20
675.0207195125422
 30
0.0
 11
836.9128518455394
 21
684.5021384922564
 31
0.0
1001
AcDbBlockRepETag
1070
     1
1071
       48
1005
2F09
  0
LINE
  5
2F0A
330
2AC
100
AcDbEntity
  8
图框
370
    -3
100
AcDbLine
 10
842.6237321475781
 20
675.5347692601515
 30
0.0
 11
842.6237321475781
 21
685.0161882398658
 31
0.0
1001
AcDbBlockRepETag
1070
     1
1071
       49
1005
2F0A
  0
LINE
  5
2F0B
330
2AC
100
AcDbEntity
  8
图框
370
    -3
100
AcDbLine
 10
848.3346124496179
 20
675.5347692601515
 30
0.0
 11
848.3346124496179
 21
685.0161882398658
 31
0.0
1001
AcDbBlockRepETag
1070
     1
1071
       50
1005
2F0B
  0
LINE
  5
2F0C
330
2AC
100
AcDbEntity
  8
图框
370
    -3
100
AcDbLine
 10
854.0454927516588
 20
675.5347692601515
 30
0.0
 11
854.0454927516588
 21
685.0161882398658
 31
0.0
1001
AcDbBlockRepETag
1070
     1
1071
       51
1005
2F0C
  0
LINE
  5
2F0D
330
2AC
100
AcDbEntity
  8
图框
370
    -3
100
AcDbLine
 10
861.5351874539182
 20
675.5347692601515
 30
0.0
 11
861.5351874539182
 21
686.7901958362482
 31
0.0
1001
AcDbBlockRepETag
1070
     1
1071
       52
1005
2F0D
  0
MTEXT
  5
2F0E
330
2AC
100
AcDbEntity
  8
图框
 62
     6
100
AcDbMText
 10
1105.329704038389
 20
678.859919059449
 30
0.0
 40
2.651776162684904
 41
2.557913877927211
 46
0.0
 71
     1
 72
     5
  1
6
  7
Romans字体
 73
     1
 44
1.0
1001
AcDbBlockRepETag
1070
     1
1071
       53
1005
2F0E
  0
LINE
  5
2F0F
330
2AC
100
AcDbEntity
  8
图框
 62
     6
100
AcDbLine
 10
1081.088565155284
 20
679.0347692601516
 30
0.0
 11
1081.088565155284
 21
675.5347692601515
 31
0.0
1001
AcDbBlockRepETag
1070
     1
1071
       54
1005
2F0F
  0
MTEXT
  5
2F10
330
2AC
100
AcDbEntity
  8
图框
 62
     6
100
AcDbMText
 10
1055.900596365941
 20
678.859919059449
 30
0.0
 40
2.651776162684904
 41
2.557913877927211
 46
0.0
 71
     1
 72
     5
  1
5
  7
Romans字体
 73
     1
 44
1.0
1001
AcDbBlockRepETag
1070
     1
1071
       55
1005
2F10
  0
LINE
  5
2F11
330
2AC
100
AcDbEntity
  8
图框
 62
     6
100
AcDbLine
 10
1031.553386436349
 20
679.0347692601516
 30
0.0
 11
1031.553386436349
 21
675.5347692601515
 31
0.0
1001
AcDbBlockRepETag
1070
     1
1071
       56
1005
2F11
  0
MTEXT
  5
2F12
330
2AC
100
AcDbEntity
  8
图框
 62
     6
100
AcDbMText
 10
1006.36541764698
 20
678.7312083656147
 30
0.0
 40
2.651776162684904
 41
2.557913877927211
 46
0.0
 71
     1
 72
     5
  1
4
  7
Romans字体
 73
     1
 44
1.0
1001
AcDbBlockRepETag
1070
     1
1071
       57
1005
2F12
  0
LINE
  5
2F13
330
2AC
100
AcDbEntity
  8
图框
 62
     6
100
AcDbLine
 10
982.0182077173887
 20
679.0347692601516
 30
0.0
 11
982.0182077173887
 21
675.5347692601515
 31
0.0
1001
AcDbBlockRepETag
1070
     1
1071
       58
1005
2F13
  0
MTEXT
  5
2F14
330
2AC
100
AcDbEntity
  8
图框
 62
     6
100
AcDbMText
 10
956.8302389280352
 20
678.859919059449
 30
0.0
 40
2.651776162684904
 41
2.557913877927211
 46
0.0
 71
     1
 72
     5
  1
3
  7
Romans字体
 73
     1
 44
1.0
1001
AcDbBlockRepETag
1070
     1
1071
       59
1005
2F14
  0
LINE
  5
2F15
330
2AC
100
AcDbEntity
  8
图框
 62
     6
100
AcDbLine
 10
932.4830289984245
 20
679.0347692601516
 30
0.0
 11
932.4830289984245
 21
675.5347692601515
 31
0.0
1001
AcDbBlockRepETag
1070
     1
1071
       60
1005
2F15
  0
MTEXT
  5
2F16
330
2AC
100
AcDbEntity
  8
图框
 62
     6
100
AcDbMText
 10
907.295060209082
 20
678.859919059449
 30
0.0
 40
2.651776162684904
 41
2.557913877927211
 46
0.0
 71
     1
 72
     5
  1
2
  7
Romans字体
 73
     1
 44
1.0
1001
AcDbBlockRepETag
1070
     1
1071
       61
1005
2F16
  0
LINE
  5
2F17
330
2AC
100
AcDbEntity
  8
图框
 62
     6
100
AcDbLine
 10
882.9478502794648
 20
678.7962435131815
 30
0.0
 11
882.9478502794648
 21
675.5347692601515
 31
0.0
1001
AcDbBlockRepETag
1070
     1
1071
       62
1005
2F17
  0
MTEXT
  5
2F18
330
2AC
100
AcDbEntity
  8
图框
 62
     6
100
AcDbMText
 10
862.6286629643733
 20
678.859919059449
 30
0.0
 40
2.651776162684904
 41
2.557913877927211
 46
0.0
 71
     1
 72
     5
  1
1
  7
Romans字体
 73
     1
 44
1.0
1001
AcDbBlockRepETag
1070
     1
1071
       63
1005
2F18
  0
LINE
  5
2F19
330
2AC
100
AcDbEntity
  8
图框
370
    -3
100
AcDbLine
 10
836.9128518455394
 20
675.0207195125422
 30
0.0
 11
836.9128518455394
 21
686.7901958362482
 31
0.0
1001
AcDbBlockRepETag
1070
     1
1071
       64
1005
2F19
  0
LINE
  5
2F1A
330
2AC
100
AcDbEntity
  8
图框
370
    50
100
AcDbLine
 10
836.9128518455394
 20
675.5347692601515
 30
0.0
 11
1126.928502610363
 21
675.5347692601515
 31
0.0
1001
AcDbBlockRepETag
1070
     1
1071
       65
1005
2F1A
  0
LINE
  5
2F1B
330
2AC
100
AcDbEntity
  8
图框
370
    -3
100
AcDbLine
 10
842.6237321475781
 20
675.5347692601515
 30
0.0
 11
842.6237321475781
 21
686.7901958362482
 31
0.0
1001
AcDbBlockRepETag
1070
     1
1071
       66
1005
2F1B
  0
LINE
  5
2F1C
330
2AC
100
AcDbEntity
  8
图框
370
    -3
100
AcDbLine
 10
848.3346124496179
 20
675.5347692601515
 30
0.0
 11
848.3346124496179
 21
686.7901958362482
 31
0.0
1001
AcDbBlockRepETag
1070
     1
1071
       67
1005
2F1C
  0
MTEXT
  5
2F1D
102
{ACAD_XDICTIONARY
360
2F7B
102
}
330
2AC
100
AcDbEntity
  8
图框
100
AcDbMText
 10
857.7903401027889
 20
686.7901958362482
 30
0.0
 40
1.958998408821398
 41
11.25542657609672
 46
7.489694702258906
 71
     4
 72
     5
  1
\pi2.6646;{\fSimSun|b0|i0|c134|p2;档案员\fFangSong_GB2312|b0|i0|c134|p49;\H0.7x;\P\pi1.4159;\Fromans|c134;Filing Clerk\fFangSong_GB2312|b0|i0|c134|p49; }
 11
-0.0000000000000002
 21
-1.0
 31
0.0
 73
     1
 44
1.0
1001
AcDbBlockRepETag
1070
     1
1071
       68
1005
2F1D
1001
ACAD
1000
ACAD_MTEXT_DEFINED_HEIGHT_BEGIN
1070
    46
1040
7.489694702258906
1000
ACAD_MTEXT_DEFINED_HEIGHT_END
  0
MTEXT
  5
2F1E
102
{ACAD_XDICTIONARY
360
2F7D
102
}
330
2AC
100
AcDbEntity
  8
图框
100
AcDbMText
 10
845.479172298598
 20
686.7901958362482
 30
0.0
 40
1.958998408821398
 41
11.25542657609672
 46
5.710880302039671
 71
     4
 72
     5
  1
\pi0.63465;{\fSimSun|b0|i0|c134|p2;日期\Fromans|c134;/Date}
 11
-0.0000000000000002
 21
-1.0
 31
0.0
 73
     1
 44
1.0
1001
AcDbBlockRepETag
1070
     1
1071
       69
1005
2F1E
1001
ACAD
1000
ACAD_MTEXT_DEFINED_HEIGHT_BEGIN
1070
    46
1040
5.710880302039671
1000
ACAD_MTEXT_DEFINED_HEIGHT_END
  0
LINE
  5
2F1F
330
2AC
100
AcDbEntity
  8
图框
370
    -3
100
AcDbLine
 10
854.0454927516588
 20
675.5347692601515
 30
0.0
 11
854.0454927516588
 21
686.7901958362482
 31
0.0
1001
AcDbBlockRepETag
1070
     1
1071
       70
1005
2F1F
  0
LINE
  5
2F20
330
2AC
100
AcDbEntity
  8
图框
370
    -3
100
AcDbLine
 10
1036.653967466372
 20
531.3291676047914
 30
0.0
 11
1036.653967466372
 21
484.0126019753161
 31
0.0
1001
AcDbBlockRepETag
1070
     1
1071
       71
1005
2F20
  0
LINE
  5
2F21
330
2AC
100
AcDbEntity
  8
图框
370
    -3
100
AcDbLine
 10
1047.483315900763
 20
507.6708838011533
 30
0.0
 11
1047.483315900763
 21
491.8986945987308
 31
0.0
1001
AcDbBlockRepETag
1070
     1
1071
       72
1005
2F21
  0
LINE
  5
2F22
330
2AC
100
AcDbEntity
  8
图框
370
    -3
100
AcDbLine
 10
1058.312664335153
 20
507.6708838011533
 30
0.0
 11
1058.312664335153
 21
484.0347692601515
 31
0.0
1001
AcDbBlockRepETag
1070
     1
1071
       73
1005
2F22
  0
LINE
  5
2F23
330
2AC
100
AcDbEntity
  8
图框
370
    25
100
AcDbLine
 10
1048.474135214456
 20
488.1095628329926
 30
0.0
 11
1054.946420288459
 21
488.1095628329926
 31
0.0
1001
AcDbBlockRepETag
1070
     1
1071
       74
1005
2F23
  0
LINE
  5
2F24
330
2AC
100
AcDbEntity
  8
图框
370
    25
100
AcDbLine
 10
1054.232527365989
 20
487.0761716842634
 30
0.0
 11
1049.156490914508
 21
486.4576273751
 31
0.0
1001
AcDbBlockRepETag
1070
     1
1071
       75
1005
2F24
  0
LINE
  5
2F25
330
2AC
100
AcDbEntity
  8
图框
370
    25
100
AcDbLine
 10
1054.232527365989
 20
489.1429539817209
 30
0.0
 11
1049.156490914508
 21
489.7614982908846
 31
0.0
1001
AcDbBlockRepETag
1070
     1
1071
       76
1005
2F25
  0
LINE
  5
2F26
330
2AC
100
AcDbEntity
  8
图框
370
    25
100
AcDbLine
 10
1049.156490914508
 20
489.7614982908846
 30
0.0
 11
1049.156490914508
 21
486.4576273751
 31
0.0
1001
AcDbBlockRepETag
1070
     1
1071
       77
1005
2F26
  0
LINE
  5
2F27
330
2AC
100
AcDbEntity
  8
图框
370
    25
100
AcDbLine
 10
1054.232527365989
 20
489.1429539817209
 30
0.0
 11
1054.232527365989
 21
487.0761716842634
 31
0.0
1001
AcDbBlockRepETag
1070
     1
1071
       78
1005
2F27
  0
CIRCLE
  5
2F28
330
2AC
100
AcDbEntity
  8
图框
370
    25
100
AcDbCircle
 10
1042.502700458579
 20
488.1095628329926
 30
0.0
 40
1.651935457891863
1001
AcDbBlockRepETag
1070
     1
1071
       79
1005
2F28
  0
CIRCLE
  5
2F29
330
2AC
100
AcDbEntity
  8
图框
370
    25
100
AcDbCircle
 10
1042.502700458579
 20
488.1095628329926
 30
0.0
 40
1.033391148728775
1001
AcDbBlockRepETag
1070
     1
1071
       80
1005
2F29
  0
LINE
  5
2F2A
330
2AC
100
AcDbEntity
  8
图框
370
    25
100
AcDbLine
 10
1040.136872078216
 20
488.1095628329926
 30
0.0
 11
1044.868528838943
 21
488.1095628329926
 31
0.0
1001
AcDbBlockRepETag
1070
     1
1071
       81
1005
2F2A
  0
LINE
  5
2F2B
330
2AC
100
AcDbEntity
  8
图框
370
    25
100
AcDbLine
 10
1042.502700458579
 20
490.475391213355
 30
0.0
 11
1042.502700458579
 21
485.743734452629
 31
0.0
1001
AcDbBlockRepETag
1070
     1
1071
       82
1005
2F2B
  0
LINE
  5
2F2C
330
2AC
100
AcDbEntity
  8
图框
370
    -3
100
AcDbLine
 10
1069.142012769546
 20
507.6708838011533
 30
0.0
 11
1069.142012769546
 21
491.8986945987308
 31
0.0
1001
AcDbBlockRepETag
1070
     1
1071
       83
1005
2F2C
  0
MTEXT
  5
2F2D
330
2AC
100
AcDbEntity
  8
图框
100
AcDbMText
 10
1086.643735910939
 20
526.8006839312707
 30
0.0
 40
2.154898249703542
 41
13.34474941400573
 46
9.056967347041775
 71
     5
 72
     5
  1
图号{\Ftxt|c134;\P\Fromans|c134;\W0.65;Drawing No.}
 73
     1
 44
1.0
1001
AcDbBlockRepETag
1070
     1
1071
       84
1005
2F2D
1001
ACAD
1000
ACAD_MTEXT_DEFINED_HEIGHT_BEGIN
1070
    46
1040
9.056967347041775
1000
ACAD_MTEXT_DEFINED_HEIGHT_END
  0
LINE
  5
2F2E
330
2AC
100
AcDbEntity
  8
图框
370
    -3
100
AcDbLine
 10
1093.316110617942
 20
531.3291676047914
 30
0.0
 11
1093.316110617942
 21
495.8417418993347
 31
0.0
1001
AcDbBlockRepETag
1070
     1
1071
       85
1005
2F2E
  0
LINE
  5
2F2F
330
2AC
100
AcDbEntity
  8
图框
370
    -3
100
AcDbLine
 10
1047.473969770481
 20
531.3291676047914
 30
0.0
 11
1047.473969770481
 21
507.6708838011533
 31
0.0
1001
AcDbBlockRepETag
1070
     1
1071
       86
1005
2F2F
  0
MTEXT
  5
2F30
330
2AC
100
AcDbEntity
  8
图框
100
AcDbMText
 10
1063.72733855235
 20
503.7278365005473
 30
0.0
 40
2.252848170144607
 41
10.82934843439208
 46
7.886094601212128
 71
     5
 72
     5
  1
重量\P{\Fromans|c134;Weight}
 73
     1
 44
1.0
1001
AcDbBlockRepETag
1070
     1
1071
       87
1005
2F30
1001
ACAD
1000
ACAD_MTEXT_DEFINED_HEIGHT_BEGIN
1070
    46
1040
7.886094601212128
1000
ACAD_MTEXT_DEFINED_HEIGHT_END
  0
LINE
  5
2F31
330
2AC
100
AcDbEntity
  8
图框
370
    -3
100
AcDbLine
 10
1036.653967466372
 20
519.5000257029746
 30
0.0
 11
1079.971361203936
 21
519.5000257029746
 31
0.0
1001
AcDbBlockRepETag
1070
     1
1071
       88
1005
2F31
  0
MTEXT
  5
2F32
330
2AC
100
AcDbEntity
  8
图框
100
AcDbMText
 10
1074.556686986741
 20
503.7278365005473
 30
0.0
 40
2.252848170144607
 41
10.82934843438984
 46
7.886094601212141
 71
     5
 72
     5
  1
数量\P{\Fromans|c134;Qty.}
 73
     1
 44
1.0
1001
AcDbBlockRepETag
1070
     1
1071
       89
1005
2F32
1001
ACAD
1000
ACAD_MTEXT_DEFINED_HEIGHT_BEGIN
1070
    46
1040
7.886094601212141
1000
ACAD_MTEXT_DEFINED_HEIGHT_END
  0
LINE
  5
2F33
330
2AC
100
AcDbEntity
  8
图框
370
    -3
100
AcDbLine
 10
1079.971361203936
 20
495.8417418993347
 30
0.0
 11
1126.928502610363
 21
495.8417418993342
 31
0.0
1001
AcDbBlockRepETag
1070
     1
1071
       90
1005
2F33
  0
LINE
  5
2F34
330
2AC
100
AcDbEntity
  8
图框
370
    -3
100
AcDbLine
 10
1079.971361203936
 20
504.7132992040975
 30
0.0
 11
1126.928502610363
 21
504.7132992040975
 31
0.0
1001
AcDbBlockRepETag
1070
     1
1071
       91
1005
2F34
  0
MTEXT
  5
2F35
330
2AC
100
AcDbEntity
  8
图框
100
AcDbMText
 10
1052.893317052817
 20
503.7278365005473
 30
0.0
 40
2.252848170144607
 41
10.83869456467139
 46
7.886094601212101
 71
     5
 72
     5
  1
版本\P{\Fromans|c134;REV.}
 73
     1
 44
1.0
1001
AcDbBlockRepETag
1070
     1
1071
       92
1005
2F35
1001
ACAD
1000
ACAD_MTEXT_DEFINED_HEIGHT_BEGIN
1070
    46
1040
7.886094601212101
1000
ACAD_MTEXT_DEFINED_HEIGHT_END
  0
MTEXT
  5
2F36
330
2AC
100
AcDbEntity
  8
图框
100
AcDbMText
 10
1042.068641683568
 20
503.7278365005473
 30
0.0
 40
2.252848170144607
 41
10.8293484343908
 46
7.886094601212136
 71
     5
 72
     5
  1
比例\P{\Fromans|c134;Scale}
 73
     1
 44
1.0
1001
AcDbBlockRepETag
1070
     1
1071
       93
1005
2F36
1001
ACAD
1000
ACAD_MTEXT_DEFINED_HEIGHT_BEGIN
1070
    46
1040
7.886094601212136
1000
ACAD_MTEXT_DEFINED_HEIGHT_END
  0
LINE
  5
2F37
330
2AC
100
AcDbEntity
  8
图框
370
    -3
100
AcDbLine
 10
1036.653967466372
 20
507.6708838011533
 30
0.0
 11
1079.971361203936
 21
507.6708838011533
 31
0.0
1001
AcDbBlockRepETag
1070
     1
1071
       94
1005
2F37
  0
LINE
  5
2F38
330
2AC
100
AcDbEntity
  8
图框
370
    -3
100
AcDbLine
 10
1036.653967466372
 20
491.8986945987308
 30
0.0
 11
1079.971361203936
 21
491.8986945987308
 31
0.0
1001
AcDbBlockRepETag
1070
     1
1071
       95
1005
2F38
  0
LINE
  5
2F39
330
2AC
100
AcDbEntity
  8
图框
370
    -3
100
AcDbLine
 10
1079.971361203936
 20
531.3291676047914
 30
0.0
 11
1079.971361203936
 21
484.0125999975168
 31
0.0
1001
AcDbBlockRepETag
1070
     1
1071
       96
1005
2F39
  0
MTEXT
  5
2F3A
330
2AC
100
AcDbEntity
  8
图框
100
AcDbMText
 10
1042.063968618426
 20
525.4145966538832
 30
0.0
 40
2.252848170144607
 41
10.82000230410933
 46
11.82914190181708
 71
     5
 72
     5
  1
表面处理\P{\Fromans|c134;Finish}
 73
     1
 44
1.0
1001
AcDbBlockRepETag
1070
     1
1071
       97
1005
2F3A
1001
ACAD
1000
ACAD_MTEXT_DEFINED_HEIGHT_BEGIN
1070
    46
1040
11.82914190181708
1000
ACAD_MTEXT_DEFINED_HEIGHT_END
  0
MTEXT
  5
2F3B
330
2AC
100
AcDbEntity
  8
图框
100
AcDbMText
 10
1042.063968618426
 20
513.5854547520639
 30
0.0
 40
2.252848170144607
 41
10.82000230410933
 46
11.8291419018212
 71
     5
 72
     5
  1
材料\P{\Fromans|c134;Material}
 73
     1
 44
1.0
1001
AcDbBlockRepETag
1070
     1
1071
       98
1005
2F3B
1001
ACAD
1000
ACAD_MTEXT_DEFINED_HEIGHT_BEGIN
1070
    46
1040
11.8291419018212
1000
ACAD_MTEXT_DEFINED_HEIGHT_END
  0
LINE
  5
2F3C
330
2AC
100
AcDbEntity
  8
图框
370
    -3
100
AcDbLine
 10
1079.971361203936
 20
522.27220025775
 30
0.0
 11
1126.928502610363
 21
522.27220025775
 31
0.0
1001
AcDbBlockRepETag
1070
     1
1071
       99
1005
2F3C
  0
LINE
  5
2F3D
330
2AC
100
AcDbEntity
  8
图框
370
    -3
100
AcDbLine
 10
1079.971361203936
 20
513.5854547520641
 30
0.0
 11
1126.928502610363
 21
513.5854547520639
 31
0.0
1001
AcDbBlockRepETag
1070
     1
1071
      100
1005
2F3D
  0
MTEXT
  5
2F3E
330
2AC
100
AcDbEntity
  8
图框
100
AcDbMText
 10
1086.643735910939
 20
517.9288275049072
 30
0.0
 40
1.958998408821398
 41
13.34474941400573
 46
8.686745505685811
 71
     5
 72
     5
  1
产品代号\P{\Fromans|c134;Part Code}
 73
     1
 44
1.0
1001
AcDbBlockRepETag
1070
     1
1071
      101
1005
2F3E
1001
ACAD
1000
ACAD_MTEXT_DEFINED_HEIGHT_BEGIN
1070
    46
1040
8.686745505685811
1000
ACAD_MTEXT_DEFINED_HEIGHT_END
  0
LINE
  5
2F3F
330
2AC
100
AcDbEntity
  8
图框
370
    -3
100
AcDbLine
 10
946.9285026103634
 20
525.7982263931411
 30
0.0
 11
1036.653967466372
 21
525.7982263931411
 31
0.0
1001
AcDbBlockRepETag
1070
     1
1071
      102
1005
2F3F
  0
LINE
  5
2F40
330
2AC
100
AcDbEntity
  8
图框
370
    -3
100
AcDbLine
 10
946.9285026103634
 20
520.2672851814959
 30
0.0
 11
1036.653967466372
 21
520.2672851814959
 31
0.0
1001
AcDbBlockRepETag
1070
     1
1071
      103
1005
2F40
  0
LINE
  5
2F41
330
2AC
100
AcDbEntity
  8
图框
370
    35
100
AcDbLine
 10
946.9285026103634
 20
531.3291676047914
 30
0.0
 11
1126.928502610363
 21
531.3291676047914
 31
0.0
1001
AcDbBlockRepETag
1070
     1
1071
      104
1005
2F41
  0
LINE
  5
2F42
330
2AC
100
AcDbEntity
  8
图框
370
    -3
100
AcDbLine
 10
990.6727612856927
 20
509.2054027581959
 30
0.0
 11
990.6727612856927
 21
484.0347692601515
 31
0.0
1001
AcDbBlockRepETag
1070
     1
1071
      105
1005
2F42
  0
MTEXT
  5
2F43
102
{ACAD_XDICTIONARY
360
2F7F
102
}
330
2AC
100
AcDbEntity
  8
图框
100
AcDbMText
 10
997.1628169651232
 20
499.816589978722
 30
0.0
 40
2.252848170144607
 41
12.98011135886052
 46
6.19230880992475
 71
     5
 72
     5
  1
{\fSimSun|b0|i0|c134|p2;标准化}\PStand.
  7
Romans字体
 73
     1
 44
1.0
1001
AcDbBlockRepETag
1070
     1
1071
      106
1005
2F43
1001
ACAD
1000
ACAD_MTEXT_DEFINED_HEIGHT_BEGIN
1070
    46
1040
6.19230880992475
1000
ACAD_MTEXT_DEFINED_HEIGHT_END
  0
LINE
  5
2F44
330
2AC
100
AcDbEntity
  8
图框
370
    -3
100
AcDbLine
 10
975.4103773808022
 20
509.2054027581959
 30
0.0
 11
975.4103773808022
 21
484.0347692601515
 31
0.0
1001
AcDbBlockRepETag
1070
     1
1071
      107
1005
2F44
  0
MTEXT
  5
2F45
330
2AC
100
AcDbEntity
  8
图框
100
AcDbMText
 10
984.5089229802068
 20
511.9708733640202
 30
0.0
 40
2.448748011026752
 41
38.287899328693
 46
5.530941211648832
 71
     5
 72
     5
  1
  变更描述{\Fromans|c134;/Description}
 73
     1
 44
1.0
1001
AcDbBlockRepETag
1070
     1
1071
      108
1005
2F45
1001
ACAD
1000
ACAD_MTEXT_DEFINED_HEIGHT_BEGIN
1070
    46
1040
5.530941211648832
1000
ACAD_MTEXT_DEFINED_HEIGHT_END
  0
MTEXT
  5
2F46
102
{ACAD_XDICTIONARY
360
2F81
102
}
330
2AC
100
AcDbEntity
  8
图框
100
AcDbMText
 10
1012.466086049227
 20
511.9708733640202
 30
0.0
 40
1.958998408821398
 41
17.6264268093469
 46
5.530941211648825
 71
     5
 72
     5
  1
{\fSimSun|b0|i0|c134|p2;签名\P\Fromans|c134;Signature} 
 73
     1
 44
1.0
1001
AcDbBlockRepETag
1070
     1
1071
      109
1005
2F46
1001
ACAD
1000
ACAD_MTEXT_DEFINED_HEIGHT_BEGIN
1070
    46
1040
5.530941211648825
1000
ACAD_MTEXT_DEFINED_HEIGHT_END
  0
MTEXT
  5
2F47
102
{ACAD_XDICTIONARY
360
2F83
102
}
330
2AC
100
AcDbEntity
  8
图框
100
AcDbMText
 10
960.7558556394856
 20
511.9708733640202
 30
0.0
 40
1.958998408821398
 41
9.218235352749283
 46
5.530941211648841
 71
     5
 72
     5
  1
{\fSimSun|b0|i0|c134|p2;处数\P\Fromans|c134;Number }
 73
     1
 44
1.0
1001
AcDbBlockRepETag
1070
     1
1071
      110
1005
2F47
1001
ACAD
1000
ACAD_MTEXT_DEFINED_HEIGHT_BEGIN
1070
    46
1040
5.530941211648841
1000
ACAD_MTEXT_DEFINED_HEIGHT_END
  0
LINE
  5
2F48
330
2AC
100
AcDbEntity
  8
图框
370
    -3
100
AcDbLine
 10
946.9285026103634
 20
514.7363439698449
 30
0.0
 11
1036.653967466372
 21
514.7363439698449
 31
0.0
1001
AcDbBlockRepETag
1070
     1
1071
      111
1005
2F48
  0
LINE
  5
2F49
330
2AC
100
AcDbEntity
  8
图框
370
    -3
100
AcDbLine
 10
946.9285026103634
 20
509.2054027581959
 30
0.0
 11
1036.653967466372
 21
509.2054027581959
 31
0.0
1001
AcDbBlockRepETag
1070
     1
1071
      112
1005
2F49
  0
LINE
  5
2F4A
330
2AC
100
AcDbEntity
  8
图框
370
    -3
100
AcDbLine
 10
946.9285026103634
 20
502.9127443836848
 30
0.0
 11
1036.653967466372
 21
502.9127443836848
 31
0.0
1001
AcDbBlockRepETag
1070
     1
1071
      113
1005
2F4A
  0
LINE
  5
2F4B
330
2AC
100
AcDbEntity
  8
图框
370
    -3
100
AcDbLine
 10
946.9285026103634
 20
496.620086009173
 30
0.0
 11
1036.653967466372
 21
496.620086009173
 31
0.0
1001
AcDbBlockRepETag
1070
     1
1071
      114
1005
2F4B
  0
LINE
  5
2F4C
330
2AC
100
AcDbEntity
  8
图框
370
    35
380
     1
100
AcDbLine
 10
946.9285026103634
 20
531.3291676047914
 30
0.0
 11
946.9285026103634
 21
484.0347692601515
 31
0.0
1001
AcDbBlockRepETag
1070
     1
1071
      115
1005
2F4C
  0
LINE
  5
2F4D
330
2AC
100
AcDbEntity
  8
图框
370
    -3
100
AcDbLine
 10
1021.301636813399
 20
531.3291676047914
 30
0.0
 11
1021.301636813399
 21
484.0347692601515
 31
0.0
1001
AcDbBlockRepETag
1070
     1
1071
      116
1005
2F4D
  0
LINE
  5
2F4E
330
2AC
100
AcDbEntity
  8
图框
370
    -3
100
AcDbLine
 10
1003.652872644553
 20
531.3291676047914
 30
0.0
 11
1003.652872644553
 21
484.0347692601515
 31
0.0
1001
AcDbBlockRepETag
1070
     1
1071
      117
1005
2F4E
  0
LINE
  5
2F4F
330
2AC
100
AcDbEntity
  8
图框
370
    -3
100
AcDbLine
 10
965.3649733158603
 20
531.3291676047914
 30
0.0
 11
965.3649733158603
 21
509.2054027581959
 31
0.0
1001
AcDbBlockRepETag
1070
     1
1071
      118
1005
2F4F
  0
LINE
  5
2F50
330
2AC
100
AcDbEntity
  8
图框
370
    -3
100
AcDbLine
 10
956.1467379631109
 20
531.3291676047914
 30
0.0
 11
956.1467379631109
 21
509.2054027581959
 31
0.0
1001
AcDbBlockRepETag
1070
     1
1071
      119
1005
2F50
  0
MTEXT
  5
2F51
102
{ACAD_XDICTIONARY
360
2F85
102
}
330
2AC
100
AcDbEntity
  8
图框
100
AcDbMText
 10
951.537620286737
 20
511.9708733640202
 30
0.0
 40
1.958998408821398
 41
9.218235352747692
 46
5.530941211648832
 71
     5
 72
     5
  1
{\fSimSun|b0|i0|c134|p2;标记\P\Fromans|c134;Mark}
 73
     1
 44
1.0
1001
AcDbBlockRepETag
1070
     1
1071
      120
1005
2F51
1001
ACAD
1000
ACAD_MTEXT_DEFINED_HEIGHT_BEGIN
1070
    46
1040
5.530941211648832
1000
ACAD_MTEXT_DEFINED_HEIGHT_END
  0
MTEXT
  5
2F52
102
{ACAD_XDICTIONARY
360
2F87
102
}
330
2AC
100
AcDbEntity
  8
图框
100
AcDbMText
 10
953.4185582897936
 20
493.4737568219182
 30
0.0
 40
2.252848170144607
 41
12.98011135886041
 46
6.292658374510382
 71
     5
 72
     5
  1
{\fSimSun|b0|i0|c134|p2;审核\P\Fromans|c134;Checked}
 73
     1
 44
1.0
1001
AcDbBlockRepETag
1070
     1
1071
      121
1005
2F52
1001
ACAD
1000
ACAD_MTEXT_DEFINED_HEIGHT_BEGIN
1070
    46
1040
6.292658374510382
1000
ACAD_MTEXT_DEFINED_HEIGHT_END
  0
MTEXT
  5
2F53
102
{ACAD_XDICTIONARY
360
2F89
102
}
330
2AC
100
AcDbEntity
  8
图框
100
AcDbMText
 10
953.4185582897936
 20
499.8775635376777
 30
0.0
 40
2.252848170144607
 41
12.98011135886041
 46
6.070361692014189
 71
     5
 72
     5
  1
{\fSimSun|b0|i0|c134|p2;绘图\P\Fromans|c134;Drawn\Ftxt|c134; }
 73
     1
 44
1.0
1001
AcDbBlockRepETag
1070
     1
1071
      122
1005
2F53
1001
ACAD
1000
ACAD_MTEXT_DEFINED_HEIGHT_BEGIN
1070
    46
1040
6.070361692014189
1000
ACAD_MTEXT_DEFINED_HEIGHT_END
  0
ARC
  5
2F54
330
2AC
100
AcDbEntity
  8
图框
 62
     4
370
    35
100
AcDbCircle
 10
1086.900627017421
 20
490.0179944151195
 30
0.0
 40
4.063310408393665
100
AcDbArc
 50
18.95237904564806
 51
161.0476209543519
1001
AcDbBlockRepETag
1070
     1
1071
      123
1005
2F54
  0
ARC
  5
2F55
330
2AC
100
AcDbEntity
  8
图框
 62
     4
370
    35
100
AcDbCircle
 10
1086.900627017421
 20
490.0179944151195
 30
0.0
 40
4.063310408393665
100
AcDbArc
 50
198.952379045648
 51
341.0476209543519
1001
AcDbBlockRepETag
1070
     1
1071
      124
1005
2F55
  0
LINE
  5
2F56
330
2AC
100
AcDbEntity
  8
图框
 62
     4
370
    35
100
AcDbLine
 10
1083.057593369548
 20
488.6983035966752
 30
0.0
 11
1090.74366066529
 21
488.6983035966752
 31
0.0
1001
AcDbBlockRepETag
1070
     1
1071
      125
1005
2F56
  0
LINE
  5
2F57
330
2AC
100
AcDbEntity
  8
图框
 62
     4
370
    35
100
AcDbLine
 10
1083.057593369548
 20
491.3376852335652
 30
0.0
 11
1090.74366066529
 21
491.3376852335652
 31
0.0
1001
AcDbBlockRepETag
1070
     1
1071
      126
1005
2F57
  0
MTEXT
  5
2F58
330
2AC
100
AcDbEntity
  8
图框
 62
     1
370
    20
100
AcDbMText
 10
1083.034582879669
 20
491.0506288081688
 30
0.0
 40
2.005930044038334
 41
5.047240019334847
 46
0.0
 71
     1
 72
     5
  1
{\fArial|b0|i0|c0|p34;W}
  7
Chinese
 73
     1
 44
1.0
1001
AcDbBlockRepETag
1070
     1
1071
      127
1005
2F58
  0
LINE
  5
2F59
330
2AC
100
AcDbEntity
  8
图框
370
    -3
100
AcDbLine
 10
946.9285026103634
 20
490.327427634663
 30
0.0
 11
1036.653967466372
 21
490.327427634663
 31
0.0
1001
AcDbBlockRepETag
1070
     1
1071
      128
1005
2F59
  0
LINE
  5
2F5A
330
2AC
100
AcDbEntity
  8
图框
370
    -3
100
AcDbLine
 10
959.9086139692238
 20
509.2054027581959
 30
0.0
 11
959.9086139692238
 21
484.0347692601515
 31
0.0
1001
AcDbBlockRepETag
1070
     1
1071
      129
1005
2F5A
  0
MTEXT
  5
2F5B
330
2AC
100
AcDbEntity
  8
图框
100
AcDbMText
 10
967.6594956750129
 20
506.0590735709403
 30
0.0
 40
2.252848170144607
 41
15.50176341157869
 46
6.292658374511246
 71
     5
 72
     5
  1
姓名{\Fromans|c134;/Name\Ftxt|c134; }
 73
     1
 44
1.0
1001
AcDbBlockRepETag
1070
     1
1071
      130
1005
2F5B
1001
ACAD
1000
ACAD_MTEXT_DEFINED_HEIGHT_BEGIN
1070
    46
1040
6.292658374511246
1000
ACAD_MTEXT_DEFINED_HEIGHT_END
  0
MTEXT
  5
2F5C
330
2AC
100
AcDbEntity
  8
图框
100
AcDbMText
 10
983.0415693332477
 20
506.0590735709403
 30
0.0
 40
2.252848170144607
 41
15.26238390489042
 46
6.2926583745112
 71
     5
 72
     5
  1
日期{\Fromans|c134;/Date}
 73
     1
 44
1.0
1001
AcDbBlockRepETag
1070
     1
1071
      131
1005
2F5C
1001
ACAD
1000
ACAD_MTEXT_DEFINED_HEIGHT_BEGIN
1070
    46
1040
6.2926583745112
1000
ACAD_MTEXT_DEFINED_HEIGHT_END
  0
LINE
  5
2F5D
330
2AC
100
AcDbEntity
  8
图框
370
    -3
100
AcDbLine
 10
946.9285026103634
 20
509.2054027581959
 30
0.0
 11
959.9086139692238
 21
502.9127443836848
 31
0.0
1001
AcDbBlockRepETag
1070
     1
1071
      132
1005
2F5D
  0
MTEXT
  5
2F5E
330
2AC
100
AcDbEntity
  8
图框
100
AcDbMText
 10
1012.931405110086
 20
506.0185715840725
 30
0.0
 40
2.252848170144607
 41
16.93492221063566
 46
0.0
 71
     5
 72
     5
  1
姓名{\Fromans|c134;/Name}
 73
     1
 44
1.0
1001
AcDbBlockRepETag
1070
     1
1071
      133
1005
2F5E
  0
MTEXT
  5
2F5F
330
2AC
100
AcDbEntity
  8
图框
100
AcDbMText
 10
1028.977802139886
 20
506.0590735709403
 30
0.0
 40
2.252848170144607
 41
15.35233065297283
 46
6.292658374511256
 71
     5
 72
     5
  1
日期{\Fromans|c134;/Date}
 73
     1
 44
1.0
1001
AcDbBlockRepETag
1070
     1
1071
      134
1005
2F5F
1001
ACAD
1000
ACAD_MTEXT_DEFINED_HEIGHT_BEGIN
1070
    46
1040
6.292658374511256
1000
ACAD_MTEXT_DEFINED_HEIGHT_END
  0
LINE
  5
2F60
330
2AC
100
AcDbEntity
  8
图框
370
    -3
100
AcDbLine
 10
1003.652872644553
 20
502.9127443836848
 30
0.0
 11
990.6727612856927
 21
509.2054027581959
 31
0.0
1001
AcDbBlockRepETag
1070
     1
1071
      135
1005
2F60
  0
MTEXT
  5
2F61
102
{ACAD_XDICTIONARY
360
2F8B
102
}
330
2AC
100
AcDbEntity
  8
图框
100
AcDbMText
 10
997.1628169651232
 20
487.1810984474071
 30
0.0
 40
2.252848170144607
 41
12.98011135886052
 46
6.292658374511517
 71
     5
 72
     5
  1
{\fSimSun|b0|i0|c134|p2;批准\P\Fromans|c134;Approved}
 73
     1
 44
1.0
1001
AcDbBlockRepETag
1070
     1
1071
      136
1005
2F61
1001
ACAD
1000
ACAD_MTEXT_DEFINED_HEIGHT_BEGIN
1070
    46
1040
6.292658374511517
1000
ACAD_MTEXT_DEFINED_HEIGHT_END
  0
MTEXT
  5
2F62
102
{ACAD_XDICTIONARY
360
2F8D
102
}
330
2AC
100
AcDbEntity
  8
图框
100
AcDbMText
 10
953.4185582897936
 20
487.1810984474071
 30
0.0
 40
2.252848170144607
 41
12.98011135886041
 46
6.292658374511495
 71
     5
 72
     5
  1
{\fSimSun|b0|i0|c134|p2;工艺\P\Fromans|c134;Process}
 73
     1
 44
1.0
1001
AcDbBlockRepETag
1070
     1
1071
      137
1005
2F62
1001
ACAD
1000
ACAD_MTEXT_DEFINED_HEIGHT_BEGIN
1070
    46
1040
6.292658374511495
1000
ACAD_MTEXT_DEFINED_HEIGHT_END
  0
MTEXT
  5
2F63
102
{ACAD_XDICTIONARY
360
2F8F
102
}
330
2AC
100
AcDbEntity
  8
图框
100
AcDbMText
 10
1028.977802139886
 20
511.8287965307664
 30
0.0
 40
1.958998408821398
 41
15.3523306529728
 46
5.246787545140668
 71
     5
 72
     5
  1
{\fSimSun|b0|i0|c134|p2;日期\P\Fromans|c134;Date}
 73
     1
 44
1.0
1001
AcDbBlockRepETag
1070
     1
1071
      138
1005
2F63
1001
ACAD
1000
ACAD_MTEXT_DEFINED_HEIGHT_BEGIN
1070
    46
1040
5.246787545140668
1000
ACAD_MTEXT_DEFINED_HEIGHT_END
  0
MTEXT
  5
2F64
330
2AC
100
AcDbEntity
  8
图框
100
AcDbMText
 10
1086.643735910939
 20
509.1493769780809
 30
0.0
 40
2.154898249703542
 41
13.34474941400573
 46
8.87215554796615
 71
     5
 72
     5
  1
产品料号\P{\Fromans|c134;Part No.}
 73
     1
 44
1.0
1001
AcDbBlockRepETag
1070
     1
1071
      139
1005
2F64
1001
ACAD
1000
ACAD_MTEXT_DEFINED_HEIGHT_BEGIN
1070
    46
1040
8.87215554796615
1000
ACAD_MTEXT_DEFINED_HEIGHT_END
  0
MTEXT
  5
2F65
330
2AC
100
AcDbEntity
  8
图框
100
AcDbMText
 10
1086.643735910939
 20
500.2775205517163
 30
0.0
 40
1.958998408821398
 41
13.34474941400573
 46
8.871557304763321
 71
     5
 72
     5
  1
产品名称\P{\Fromans|c134;Part Name}
 73
     1
 44
1.0
1001
AcDbBlockRepETag
1070
     1
1071
      140
1005
2F65
1001
ACAD
1000
ACAD_MTEXT_DEFINED_HEIGHT_BEGIN
1070
    46
1040
8.871557304763321
1000
ACAD_MTEXT_DEFINED_HEIGHT_END
  0
LINE
  5
2F66
330
2AC
100
AcDbEntity
  8
图框
 62
     1
370
    18
100
AcDbLine
 10
833.4128518455365
 20
690.5347692601515
 30
0.0
 11
833.4128518455365
 21
480.5347692601515
 31
0.0
1001
AcDbBlockRepETag
1070
     1
1071
      141
1005
2F66
  0
LINE
  5
2F67
330
2AC
100
AcDbEntity
  8
图框
 62
     1
370
    18
100
AcDbLine
 10
833.4128518455365
 20
480.5347692601515
 30
0.0
 11
1130.411601781236
 21
480.5347692601515
 31
0.0
1001
AcDbBlockRepETag
1070
     1
1071
      142
1005
2F67
  0
LINE
  5
2F68
330
2AC
100
AcDbEntity
  8
图框
 62
     1
370
    18
100
AcDbLine
 10
833.4128518455365
 20
690.5347692601515
 30
0.0
 11
1130.411601781236
 21
690.5347692601515
 31
0.0
1001
AcDbBlockRepETag
1070
     1
1071
      143
1005
2F68
  0
LINE
  5
2F69
330
2AC
100
AcDbEntity
  8
图框
 62
     1
370
    18
100
AcDbLine
 10
1130.411601781236
 20
480.5347692601515
 30
0.0
 11
1130.411601781236
 21
690.5347692601515
 31
0.0
1001
AcDbBlockRepETag
1070
     1
1071
      144
1005
2F69
  0
LINE
  5
2F6A
330
2AC
100
AcDbEntity
  8
图框
370
    18
100
AcDbLine
 10
836.9128518455394
 20
686.7901958362482
 30
0.0
 11
861.5351874539182
 21
686.7901958362482
 31
0.0
1001
AcDbBlockRepETag
1070
     1
1071
      145
1005
2F6A
  0
LINE
  5
2F6B
330
2AC
100
AcDbEntity
  8
图框
370
    50
100
AcDbLine
 10
1126.928502610363
 20
484.3410054693078
 30
0.0
 11
1126.928502610363
 21
675.5347692601515
 31
0.0
1001
AcDbBlockRepETag
1070
     1
1071
      146
1005
2F6B
  0
MTEXT
  5
2F6C
330
2AC
100
AcDbEntity
  8
图框
 62
     3
100
AcDbMText
 10
1052.897990117958
 20
495.8417418993364
 30
0.0
 40
2.985513575034151
 41
10.82934843439114
 46
7.886094601211307
 71
     5
 72
     5
  1
V1.1
  7
Romans字体
 73
     1
 44
1.0
1001
AcDbBlockRepETag
1070
     1
1071
      147
1005
2F6C
1001
ACAD
1000
ACAD_MTEXT_DEFINED_HEIGHT_BEGIN
1070
    46
1040
7.886094601211307
1000
ACAD_MTEXT_DEFINED_HEIGHT_END
  0
LINE
  5
2F6D
330
2AC
100
AcDbEntity
  8
图框
 62
     6
100
AcDbLine
 10
1126.911601781236
 20
531.714049199969
 30
0.0
 11
1130.411601781236
 21
531.714049199969
 31
0.0
1001
AcDbBlockRepETag
1070
     1
1071
      148
1005
2F6D
  0
ENDBLK
  5
344
330
2AC
100
AcDbEntity
  8
0
100
AcDbBlockEnd
  0
BLOCK
  5
2096
330
2093
100
AcDbEntity
  8
0
 48
2.0
100
AcDbBlockBegin
  2
A$C29E74B87
 70
     0
 10
0.0
 20
0.0
 30
0.0
  3
A$C29E74B87
  1

  0
LINE
  5
2097
330
2093
100
AcDbEntity
  8
0
100
AcDbLine
 10
0.5000144510131577
 20
0.0
 30
0.0
 11
2.899990058969706
 21
0.0
 31
0.0
  0
LINE
  5
2098
330
2093
100
AcDbEntity
  8
0
100
AcDbLine
 10
0.2761308031213048
 20
2.499463934533195
 30
0.0
 11
0.0000084878865891
 21
2.400001950508339
 31
0.0
  0
LINE
  5
2099
330
2093
100
AcDbEntity
  8
0
100
AcDbLine
 10
0.0000029794737202
 20
2.399999966345149
 30
0.0
 11
0.4112287361949713
 21
1.258337400609889
 31
0.0
  0
LWPOLYLINE
  5
209A
330
2093
100
AcDbEntity
  8
0
100
AcDbPolyline
 90
        4
 70
     0
 43
0.0
 10
0.4112397191556738
 20
1.258341331894824
 10
0.4597284020328516
 20
1.095050485661886
 10
0.4903671082920483
 20
0.919332565150853
 10
0.5000030002702262
 20
0.7500000708819245
  0
LINE
  5
209B
330
2093
100
AcDbEntity
  8
0
100
AcDbLine
 10
0.5000030904393498
 20
0.0
 30
0.0
 11
0.4999994747495295
 21
0.750000100091711
 31
0.0
  0
LINE
  5
209C
330
2093
100
AcDbEntity
  8
0
100
AcDbLine
 10
0.5000030904393498
 20
2.800000006773188
 30
0.0
 11
0.5000030904393498
 21
3.200000007831476
 31
0.0
  0
LINE
  5
209D
330
2093
100
AcDbEntity
  8
0
100
AcDbLine
 10
0.1792409655545271
 20
2.360392840951589
 30
0.0
 11
0.5949394690351256
 21
1.324511902234916
 31
0.0
  0
LINE
  5
209E
330
2093
100
AcDbEntity
  8
0
100
AcDbLine
 10
0.7138738534140431
 20
0.75000016655531
 30
0.0
 11
0.717459945225528
 21
0.6501181810408525
 31
0.0
  0
LINE
  5
209F
330
2093
100
AcDbEntity
  8
0
100
AcDbLine
 10
0.7174616133706877
 20
0.6500000016139893
 30
0.0
 11
0.8812185265333026
 21
0.6500000016139893
 31
0.0
  0
LINE
  5
20A0
330
2093
100
AcDbEntity
  8
0
100
AcDbLine
 10
2.518787659850203
 20
0.6500000016139893
 30
0.0
 11
2.682544573223821
 21
0.6500000016139893
 31
0.0
  0
LINE
  5
20A1
330
2093
100
AcDbEntity
  8
0
100
AcDbLine
 10
0.3493788823952855
 20
2.419685519477296
 30
0.0
 11
0.7544937741758986
 21
1.38198486929923
 31
0.0
  0
LINE
  5
20A2
330
2093
100
AcDbEntity
  8
0
100
AcDbLine
 10
0.8812206611910369
 20
0.6500000752739652
 30
0.0
 11
0.8785737248563235
 21
0.7500000605100468
 31
0.0
  0
LINE
  5
20A3
330
2093
100
AcDbEntity
  8
0
100
AcDbLine
 10
2.900003186113281
 20
0.7500000719401215
 30
0.0
 11
2.521434354461233
 21
0.7500000905670277
 31
0.0
  0
LINE
  5
20A4
330
2093
100
AcDbEntity
  8
0
100
AcDbLine
 10
0.8785718319213629
 20
0.7500000905670277
 30
0.0
 11
0.5000030002702262
 21
0.7500000708819245
 31
0.0
  0
LINE
  5
20A5
330
2093
100
AcDbEntity
  8
0
100
AcDbLine
 10
1.039134292062954
 20
2.550000006217486
 30
0.0
 11
1.039134292062954
 21
0.8500000021431333
 31
0.0
  0
LINE
  5
20A6
330
2093
100
AcDbEntity
  8
0
100
AcDbLine
 10
0.7544937741758986
 20
1.38198486929923
 30
0.0
 11
0.4112287361949713
 21
1.258337400609889
 31
0.0
  0
LINE
  5
20A7
330
2093
100
AcDbEntity
  8
0
100
AcDbLine
 10
2.988777550517625
 20
1.258337365049555
 30
0.0
 11
2.645512412206699
 21
1.38198486929923
 31
0.0
  0
LINE
  5
20A8
330
2093
100
AcDbEntity
  8
0
100
AcDbLine
 10
2.360871894319643
 20
0.8500000021431333
 30
0.0
 11
2.360871894319643
 21
2.550000006217486
 31
0.0
  0
LINE
  5
20A9
330
2093
100
AcDbEntity
  8
0
100
AcDbLine
 10
2.521432576672849
 20
0.7500001428484211
 30
0.0
 11
2.518785530271087
 21
0.6500000750625077
 31
0.0
  0
LINE
  5
20AA
330
2093
100
AcDbEntity
  8
0
100
AcDbLine
 10
2.682546237347195
 20
0.6501178959260871
 30
0.0
 11
2.686132465895751
 21
0.7500000638970051
 31
0.0
  0
LINE
  5
20AB
330
2093
100
AcDbEntity
  8
0
100
AcDbLine
 10
3.050627309702576
 20
2.419685517360449
 30
0.0
 11
2.645510650505456
 21
1.381985558697579
 31
0.0
  0
LINE
  5
20AC
330
2093
100
AcDbEntity
  8
0
100
AcDbLine
 10
2.90000309615516
 20
2.800000006773188
 30
0.0
 11
2.90000309615516
 21
3.200000007831476
 31
0.0
  0
LINE
  5
20AD
330
2093
100
AcDbEntity
  8
0
100
AcDbLine
 10
2.90000309615516
 20
0.0
 30
0.0
 11
2.900006911658238
 21
0.7500001013618203
 31
0.0
  0
LWPOLYLINE
  5
20AE
330
2093
100
AcDbEntity
  8
0
100
AcDbPolyline
 90
        4
 70
     0
 43
0.0
 10
2.900003186113281
 20
0.7500000719401215
 10
2.909639078302461
 20
0.9193325662090499
 10
2.940277784772661
 20
1.095050486296712
 10
2.988766467438836
 20
1.258341332529653
  0
LINE
  5
20AF
330
2093
100
AcDbEntity
  8
0
100
AcDbLine
 10
3.220765227812988
 20
2.360392838411826
 30
0.0
 11
2.805068904499421
 21
1.324511045620055
 31
0.0
  0
LINE
  5
20B0
330
2093
100
AcDbEntity
  8
0
100
AcDbLine
 10
0.5000038321195463
 20
2.800000006773188
 30
0.0
 11
0.8240469660295275
 21
2.800000006773188
 31
0.0
  0
LINE
  5
20B1
330
2093
100
AcDbEntity
  8
0
100
AcDbLine
 10
2.575959220564981
 20
2.800000006773188
 30
0.0
 11
2.900002354474962
 21
2.800000006773188
 31
0.0
  0
LINE
  5
20B2
330
2093
100
AcDbEntity
  8
0
100
AcDbLine
 10
2.988777550517625
 20
1.258337365049555
 30
0.0
 11
3.400003207967528
 21
2.399999965921779
 31
0.0
  0
LINE
  5
20B3
330
2093
100
AcDbEntity
  8
0
100
AcDbLine
 10
3.39999769955466
 20
2.40000195008497
 30
0.0
 11
3.12387538389612
 21
2.499463934321738
 31
0.0
  0
LINE
  5
20B4
330
2093
100
AcDbEntity
  8
0
100
AcDbLine
 10
2.899991735581352
 20
3.200000007831476
 30
0.0
 11
0.5000161274128914
 21
3.200000007831476
 31
0.0
  0
SPLINE
  5
20B5
330
2093
100
AcDbEntity
  8
0
100
AcDbSpline
210
0.0
220
0.0
230
1.0
 70
     8
 71
     3
 72
    19
 73
    15
 74
    13
 42
0.0000000001
 43
0.0000000001
 44
0.0000000001
 12
-0.782220663648427
 22
-0.6230014713958663
 32
0.0
 13
0.9999998497379257
 23
0.0005482008080977
 33
0.0
 40
0.0
 40
0.0
 40
0.0
 40
0.0
 40
0.0558617542835814
 40
0.1098901813344795
 40
0.1626134016687664
 40
0.2155513032754817
 40
0.2663139518756628
 40
0.3165045652671021
 40
0.3674617446524295
 40
0.4171857735641875
 40
0.4641570439762942
 40
0.512314018277034
 40
0.5610551720096777
 40
0.6046793217904697
 40
0.6046793217904697
 40
0.6046793217904697
 40
0.6046793217904697
 10
2.360871894319643
 20
0.8500000021431333
 30
0.0
 10
2.34630648815022
 20
0.838399350438658
 30
0.0
 10
2.320159466878484
 20
0.8122623410795444
 30
0.0
 10
2.290333385267337
 20
0.7665643509420289
 30
0.0
 10
2.271013316877371
 20
0.7165456110854779
 30
0.0
 10
2.262594084271858
 20
0.6647048834842019
 30
0.0
 10
2.26491420468668
 20
0.6131001166610515
 30
0.0
 10
2.27746634674556
 20
0.5637044243705525
 30
0.0
 10
2.299166837131569
 20
0.5179726690108025
 30
0.0
 10
2.328780542411368
 20
0.4782731949238986
 30
0.0
 10
2.364458074738459
 20
0.445362943021349
 30
0.0
 10
2.405431145324826
 20
0.4198223552629401
 30
0.0
 10
2.449853371337515
 20
0.403837213622745
 30
0.0
 10
2.480717238485199
 20
0.3999939126585991
 30
0.0
 10
2.495258619560444
 20
0.4000018842566533
 30
0.0
 11
2.360871894319643
 21
0.8500000021431333
 31
0.0
 11
2.32127146330822
 21
0.8106002374820491
 31
0.0
 11
2.291801158534326
 21
0.7653169948184769
 31
0.0
 11
2.27280618991699
 21
0.7161343847856188
 31
0.0
 11
2.264338959773339
 21
0.6638780221087473
 31
0.0
 11
2.266647108367577
 21
0.6131678757574264
 31
0.0
 11
2.278927333814863
 21
0.5645027574942107
 31
0.0
 11
2.300807299420739
 21
0.5184820965255314
 31
0.0
 11
2.330502190783589
 21
0.4785986102415336
 31
0.0
 11
2.365058741853316
 21
0.4467843835136593
 31
0.0
 11
2.40601457698085
 21
0.4214523140599339
 31
0.0
 11
2.451934655642616
 21
0.4051107583541125
 31
0.0
 11
2.495258619560444
 21
0.4000018842566533
 31
0.0
  0
SPLINE
  5
20B6
330
2093
100
AcDbEntity
  8
0
100
AcDbSpline
210
0.0
220
0.0
230
1.0
 70
     8
 71
     3
 72
    13
 73
     9
 74
     7
 42
0.0000000001
 43
0.0000000001
 44
0.0000000001
 12
0.0
 22
-1.0
 32
0.0
 13
-0.87160580592195
 23
-0.4902074245491886
 33
0.0
 40
0.0
 40
0.0
 40
0.0
 40
0.0
 40
0.059290627896481
 40
0.1156645749612821
 40
0.1672206182142849
 40
0.2133967435492815
 40
0.2564891091745008
 40
0.2648507947973098
 40
0.2648507947973098
 40
0.2648507947973098
 40
0.2648507947973098
 10
2.518787659850203
 20
0.6500000016139893
 30
0.0
 10
2.518787659850203
 20
0.630236458981829
 30
0.0
 10
2.516300124156116
 20
0.5916371076202143
 30
0.0
 10
2.505412196874841
 20
0.53678118642847
 30
0.0
 10
2.487321506535635
 20
0.4884074432037242
 30
0.0
 10
2.46238274570347
 20
0.4482067401969881
 30
0.0
 10
2.438128878542374
 20
0.4256489674674927
 30
0.0
 10
2.423460364022866
 20
0.4167411909864792
 30
0.0
 10
2.421030999444155
 20
0.4153748708617968
 30
0.0
 11
2.518787659850203
 21
0.6500000016139893
 31
0.0
 11
2.5149121248769
 21
0.5908361715737556
 31
0.0
 11
2.503559102513462
 21
0.5356172364981831
 31
0.0
 11
2.48506629147414
 21
0.487491967296137
 31
0.0
 11
2.460132760085798
 21
0.4486261267229567
 31
0.0
 11
2.428178053789451
 21
0.4197150783038525
 31
0.0
 11
2.421030999444155
 21
0.4153748708617968
 31
0.0
  0
SPLINE
  5
20B7
330
2093
100
AcDbEntity
  8
0
100
AcDbSpline
210
0.0
220
0.0
230
1.0
 70
     8
 71
     3
 72
    13
 73
     9
 74
     7
 42
0.0000000001
 43
0.0000000001
 44
0.0000000001
 12
-0.8769912966866051
 22
0.480506259622023
 32
0.0
 13
0.0
 23
1.0
 33
0.0
 40
0.0
 40
0.0
 40
0.0
 40
0.0
 40
0.0182673065644305
 40
0.059269757190285
 40
0.1031927179485816
 40
0.1520822752373437
 40
0.2066911159845436
 40
0.2663350117710037
 40
0.2663350117710037
 40
0.2663350117710037
 40
0.2663350117710037
 10
0.9802217643318725
 20
0.4146847037536645
 30
0.0
 10
0.9748816747082354
 20
0.4176105554705457
 30
0.0
 10
0.9582300585514095
 20
0.4283784424210228
 30
0.0
 10
0.9339215257932846
 20
0.4533872651541147
 30
0.0
 10
0.9111383339757461
 20
0.4920749658606581
 30
0.0
 10
0.8942543251501218
 20
0.5384712758630368
 30
0.0
 10
0.8836886252122202
 20
0.5919880830920521
 30
0.0
 10
0.8812185265333026
 20
0.6301187030185026
 30
0.0
 10
0.8812185265333026
 20
0.6500000016139893
 30
0.0
 11
0.9802217643318725
 21
0.4146847037536645
 31
0.0
 11
0.9648729161935987
 21
0.4245896191973772
 31
0.0
 11
0.9359022952494342
 21
0.4536052025869141
 31
0.0
 11
0.9131423603994337
 21
0.4911713022966069
 31
0.0
 11
0.8960586247349056
 21
0.5369788866864838
 31
0.0
 11
0.8851408239643204
 21
0.5904852144813049
 31
0.0
 11
0.8812185265333026
 21
0.6500000016139893
 31
0.0
  0
SPLINE
  5
20B8
330
2093
100
AcDbEntity
  8
0
100
AcDbSpline
210
0.0
220
0.0
230
1.0
 70
     8
 71
     3
 72
    19
 73
    15
 74
    13
 42
0.0000000001
 43
0.0000000001
 44
0.0000000001
 12
0.9999999973751766
 22
-0.0000724544476464
 32
0.0
 13
-0.7822206635819559
 23
0.6230014714793255
 33
0.0
 40
0.0
 40
0.0
 40
0.0
 40
0.0
 40
0.0238058426803247
 40
0.0753681052501751
 40
0.1283025853549627
 40
0.1810420026707538
 40
0.2362400233090916
 40
0.2924454087851264
 40
0.3459246485484143
 40
0.3975730212903341
 40
0.4487669641631098
 40
0.4981878680707246
 40
0.5495710670729141
 40
0.6046300415466087
 40
0.6046300415466087
 40
0.6046300415466087
 40
0.6046300415466087
 10
0.9047475873549045
 20
0.4000207289400352
 30
0.0
 10
0.9126828682275174
 20
0.4000201539936411
 30
0.0
 10
0.937820080223102
 20
0.401689727255053
 30
0.0
 10
0.9796021443134748
 20
0.4128675720110548
 30
0.0
 10
1.026082253380503
 20
0.4380010222965104
 30
0.0
 10
1.067034379328924
 20
0.4731968491516244
 30
0.0
 10
1.100634734811335
 20
0.5169061355768997
 30
0.0
 10
1.124056160403602
 20
0.5671140803378924
 30
0.0
 10
1.136165427846839
 20
0.6199217172588061
 30
0.0
 10
1.136795460893696
 20
0.6724027034111088
 30
0.0
 10
1.127109174408207
 20
0.7225723389631097
 30
0.0
 10
1.107767697338849
 20
0.7697540852596734
 30
0.0
 10
1.078852743841504
 20
0.8132938168918249
 30
0.0
 10
1.053490381245939
 20
0.8385660614380483
 30
0.0
 10
1.039134292062954
 20
0.8500000021431333
 30
0.0
 11
0.9047475873549045
 21
0.4000207289400352
 31
0.0
 11
0.9285033943997403
 21
0.4015633816452464
 31
0.0
 11
0.9783908417339262
 21
0.4145983162366065
 31
0.0
 11
1.025051603235624
 21
0.4395949664130967
 31
0.0
 11
1.065123622078316
 21
0.4738831487020434
 31
0.0
 11
1.098715003626238
 21
0.5176831551871146
 31
0.0
 11
1.12251397437285
 21
0.5686012693304292
 31
0.0
 11
1.134370530571686
 21
0.6207496265506052
 31
0.0
 11
1.13504267637927
 21
0.6723936254943511
 31
0.0
 11
1.125338872209795
 21
0.7226594784315239
 31
0.0
 11
1.106605622229835
 21
0.7683923013078129
 31
0.0
 11
1.07822601250882
 21
0.8112272273820051
 31
0.0
 11
1.039134292062954
 21
0.8500000021431333
 31
0.0
  0
SPLINE
  5
20B9
330
2093
100
AcDbEntity
  8
0
100
AcDbSpline
210
0.0
220
0.0
230
1.0
 70
     8
 71
     3
 72
    15
 73
    11
 74
     9
 42
0.0000000001
 43
0.0000000001
 44
0.0000000001
 12
0.3636505140358754
 22
-0.9315354548493813
 32
0.0
 13
0.0265095347786154
 23
-0.9996485605280597
 33
0.0
 40
0.0
 40
0.0
 40
0.0
 40
0.0
 40
0.0806103549483843
 40
0.1612813820928693
 40
0.2420384116428812
 40
0.3228944525724156
 40
0.4038516064371694
 40
0.4849021708780744
 40
0.5660297330231633
 40
0.6472099987845568
 40
0.6472099987845568
 40
0.6472099987845568
 40
0.6472099987845568
 10
0.7545072044258632
 20
1.38199021176615
 30
0.0
 10
0.7642785367637279
 20
1.356959743878679
 30
0.0
 10
0.7826399077209932
 20
1.306407127553714
 30
0.0
 10
0.8066519818580429
 20
1.229355918140181
 30
0.0
 10
0.827184797719083
 20
1.151220250295276
 30
0.0
 10
0.8442799700648711
 20
1.072165374384805
 30
0.0
 10
0.8579797765370294
 20
0.9923537438952719
 30
0.0
 10
0.8683261021881616
 20
0.9119479603753845
 30
0.0
 10
0.875361030319908
 20
0.8311125921221783
 30
0.0
 10
0.8778702270224368
 20
0.7770510865775969
 30
0.0
 10
0.8785875773819498
 20
0.7500005079737094
 30
0.0
 11
0.7545072044258632
 21
1.38199021176615
 31
0.0
 11
0.7820431903992358
 21
1.306228751897833
 31
0.0
 11
0.8060604749925913
 21
1.229215865565038
 31
0.0
 11
0.8266004894185241
 21
1.151114613147909
 31
0.0
 11
0.8437045503751503
 21
1.072088348820215
 31
0.0
 11
0.8574139737129371
 21
0.9923004269671762
 31
0.0
 11
0.8677700763428218
 21
0.9119142021863806
 31
0.0
 11
0.8748141743280939
 21
0.8310930290745091
 31
0.0
 11
0.8785875773819498
 21
0.7500005079737094
 31
0.0
  0
SPLINE
  5
20BA
330
2093
100
AcDbEntity
  8
0
100
AcDbSpline
210
0.0
220
0.0
230
1.0
 70
     8
 71
     3
 72
    13
 73
     9
 74
     7
 42
0.0000000001
 43
0.0000000001
 44
0.0000000001
 12
0.9408244675406638
 22
0.3388942626791228
 32
0.0
 13
0.3636637397358258
 23
-0.9315302917250484
 33
0.0
 40
0.0
 40
0.0
 40
0.0
 40
0.0
 40
0.0101163667837307
 40
0.0240492741124724
 40
0.0420461529613852
 40
0.0637892755299437
 40
0.0886628595654302
 40
0.1144449778635002
 40
0.1144449778635002
 40
0.1144449778635002
 40
0.1144449778635002
 10
0.2761308031213048
 20
2.499463934533195
 30
0.0
 10
0.2793033782522212
 20
2.500606727420583
 30
0.0
 10
0.2878820839064747
 20
2.500084659955894
 30
0.0
 10
0.3001753467782001
 20
2.492973917334261
 30
0.0
 10
0.3134261925975208
 20
2.480819526016522
 30
0.0
 10
0.3267838003907689
 20
2.463827790408616
 30
0.0
 10
0.3392381505764266
 20
2.443096220453408
 30
0.0
 10
0.3462535418757563
 20
2.427691127537126
 30
0.0
 10
0.3493788823952855
 20
2.419685519477296
 30
0.0
 11
0.2761308031213048
 21
2.499463934533195
 31
0.0
 11
0.2862468823122981
 21
2.4995402149666
 31
0.0
 11
0.2987105480424361
 21
2.493312619668357
 31
0.0
 11
0.3121740786364171
 21
2.481370216549747
 31
0.0
 11
0.3257846627420804
 21
2.464413938086181
 31
0.0
 11
0.3386723029452696
 21
2.443139448368127
 31
0.0
 11
0.3493788823952855
 21
2.419685519477296
 31
0.0
  0
SPLINE
  5
20BB
330
2093
100
AcDbEntity
  8
0
100
AcDbSpline
210
0.0
220
0.0
230
1.0
 70
     8
 71
     3
 72
    13
 73
     9
 74
     7
 42
0.0000000001
 43
0.0000000001
 44
0.0000000001
 12
0.3636636902241859
 22
0.9315303110540888
 32
0.0
 13
0.9408244680879287
 23
-0.3388942611598287
 33
0.0
 40
0.0
 40
0.0
 40
0.0
 40
0.0
 40
0.0257929626927862
 40
0.0506508419988039
 40
0.0723526630995125
 40
0.0903646397208294
 40
0.1043172351681665
 40
0.1144446004869554
 40
0.1144446004869554
 40
0.1144446004869554
 40
0.1144446004869554
 10
3.050627309702576
 20
2.419685517360449
 30
0.0
 10
3.053753964367467
 20
2.427694492880521
 30
0.0
 10
3.060769043306432
 20
2.44309797934293
 30
0.0
 10
3.073215783665097
 20
2.463816119497978
 30
0.0
 10
3.086562209762865
 20
2.480798297908779
 30
0.0
 10
3.099806619920778
 20
2.492956311579724
 30
0.0
 10
3.112109119465262
 20
2.500081515726633
 30
0.0
 10
3.120699359533059
 20
2.500607969650807
 30
0.0
 10
3.12387538389612
 20
2.499463934321738
 30
0.0
 11
3.050627309702576
 21
2.419685517360449
 31
0.0
 11
3.061338953489211
 21
2.443149055283356
 31
0.0
 11
3.074218742552146
 21
2.464409939490905
 31
0.0
 11
3.08780041722457
 21
2.481336461643421
 31
0.0
 11
3.101270104143623
 21
2.49329467372172
 31
0.0
 11
3.113748284068606
 21
2.499537264968693
 31
0.0
 11
3.12387538389612
 21
2.499463934321738
 31
0.0
  0
SPLINE
  5
20BC
330
2093
100
AcDbEntity
  8
0
100
AcDbSpline
210
0.0
220
0.0
230
1.0
 70
     8
 71
     3
 72
    15
 73
    11
 74
     9
 42
0.0000000001
 43
0.0000000001
 44
0.0000000001
 12
-0.3636503405446474
 22
-0.9315355225764406
 32
0.0
 13
-0.0265094147015347
 23
-0.9996485637123589
 33
0.0
 40
0.0
 40
0.0
 40
0.0
 40
0.0
 40
0.0806100389692121
 40
0.1612810659118288
 40
0.2420380954618397
 40
0.3228941361842585
 40
0.403851290049012
 40
0.4849018542801927
 40
0.5660294164252817
 40
0.6472099284038061
 40
0.6472099284038061
 40
0.6472099284038061
 40
0.6472099284038061
 10
2.645498867233071
 20
1.381989917761074
 30
0.0
 10
2.635727577858914
 20
1.356959546169044
 30
0.0
 10
2.617366247584548
 20
1.306407027466446
 30
0.0
 10
2.593354204688455
 20
1.229355918711867
 30
0.0
 10
2.572821388916376
 20
1.151220250993319
 30
0.0
 10
2.555726216494599
 20
1.072165375167361
 30
0.0
 10
2.542026410091041
 20
0.9923537448094119
 30
0.0
 10
2.531680084359107
 20
0.9119479613632544
 30
0.0
 10
2.524645149268962
 20
0.8311125114036029
 30
0.0
 10
2.52213595172546
 20
0.7770509235971116
 30
0.0
 10
2.521418602439553
 20
0.750000262863523
 30
0.0
 11
2.645498867233071
 21
1.381989917761074
 31
0.0
 11
2.617962996195274
 21
1.306228752321202
 31
0.0
 11
2.593945711601918
 21
1.229215866199865
 31
0.0
 11
2.573405697175985
 21
1.151114613782737
 31
0.0
 11
2.556301636219358
 21
1.072088349666955
 31
0.0
 11
2.542592212881571
 21
0.9923004278139158
 31
0.0
 11
2.532236110251687
 21
0.9119142032445779
 31
0.0
 11
2.525192012266415
 21
0.831093030132706
 31
0.0
 11
2.521418602439553
 21
0.750000262863523
 31
0.0
  0
SPLINE
  5
20BD
330
2093
100
AcDbEntity
  8
0
100
AcDbSpline
210
0.0
220
0.0
230
1.0
 70
     8
 71
     3
 72
    14
 73
    10
 74
     8
 42
0.0000000001
 43
0.0000000001
 44
0.0000000001
 12
0.3723927613713492
 22
-0.9280752293204583
 32
0.0
 13
0.0359261705596322
 23
-0.9993544467649705
 33
0.0
 40
0.0
 40
0.0
 40
0.0
 40
0.0
 40
0.0733238308255412
 40
0.1467367165299278
 40
0.293860996512412
 40
0.3676197512207005
 40
0.4414934085418047
 40
0.5154707622336342
 40
0.5895353562939686
 40
0.5895353562939686
 40
0.5895353562939686
 40
0.5895353562939686
 10
0.5949487336856693
 20
1.324515302871531
 30
0.0
 10
0.6040504882974856
 20
1.301831959168842
 30
0.0
 10
0.6212052229308427
 20
1.256003244982368
 30
0.0
 10
0.6513185852475122
 20
1.16276773704741
 30
0.0
 10
0.6751709515051761
 20
1.067456642836571
 30
0.0
 10
0.6928441411929269
 20
0.9707856630466464
 30
0.0
 10
0.7030549924073756
 20
0.8976010663859492
 30
0.0
 10
0.7102282351538857
 20
0.8239582320761403
 30
0.0
 10
0.7129981750028982
 20
0.7746725044991717
 30
0.0
 10
0.7138851274157787
 20
0.7500002440251592
 30
0.0
 11
0.5949487336856693
 21
1.324515302871531
 31
0.0
 11
0.6206659763602147
 21
1.25584938995871
 31
0.0
 11
0.6432414174632868
 21
1.185993815761321
 31
0.0
 11
0.6790503877136871
 21
1.04329388089809
 31
0.0
 11
0.6923256630325341
 21
0.9707396187122867
 31
0.0
 11
0.7025426293303099
 21
0.8975758924152613
 31
0.0
 11
0.7097221596923191
 21
0.8239477510355753
 31
0.0
 11
0.7138851274157787
 21
0.7500002440251592
 31
0.0
  0
SPLINE
  5
20BE
330
2093
100
AcDbEntity
  8
0
100
AcDbSpline
210
0.0
220
0.0
230
1.0
 70
     8
 71
     3
 72
    11
 73
     7
 74
     5
 42
0.0000000001
 43
0.0000000001
 44
0.0000000001
 13
0.9999999996551808
 23
0.000026260973092
 33
0.0
 40
0.0
 40
0.0
 40
0.0
 40
0.0
 40
0.0221039538779204
 40
0.06588553878734
 40
0.130532836828905
 40
0.2146813700989126
 40
0.2146813700989126
 40
0.2146813700989126
 40
0.2146813700989126
 10
0.502775930975986
 20
0.6496757623581289
 30
0.0
 10
0.5101425483620283
 20
0.6498287873162181
 30
0.0
 10
0.5321003192748784
 20
0.6502849107712029
 30
0.0
 10
0.5756142262990619
 20
0.6500064942110797
 30
0.0
 10
0.6398052482816162
 20
0.6501582910432271
 30
0.0
 10
0.6894043002573607
 20
0.6501174440100268
 30
0.0
 10
0.7174538113376912
 20
0.6501181806174828
 30
0.0
 11
0.502775930975986
 21
0.6496757623581289
 31
0.0
 11
0.5248764100697372
 21
0.6500676818191096
 31
0.0
 11
0.5686579810226249
 21
0.6501026400510455
 31
0.0
 11
0.6333052782229061
 21
0.6501130695023676
 31
0.0
 11
0.7174538113376912
 21
0.6501181806174828
 31
0.0
  0
SPLINE
  5
20BF
330
2093
100
AcDbEntity
  8
0
100
AcDbSpline
210
0.0
220
0.0
230
1.0
 70
     8
 71
     3
 72
    11
 73
     7
 74
     5
 42
0.0000000001
 43
0.0000000001
 44
0.0000000001
 12
0.9999999996371908
 22
-0.0000269373077264
 32
0.0
 40
0.0
 40
0.0
 40
0.0
 40
0.0
 40
0.0841484361285535
 40
0.1487957342561692
 40
0.1925773207019484
 40
0.2146816256302193
 40
0.2146816256302193
 40
0.2146816256302193
 40
0.2146816256302193
 10
2.682552472200768
 20
0.6501178955027172
 30
0.0
 10
2.710601950900109
 20
0.6501171399252775
 30
0.0
 10
2.760201015091625
 20
0.6501599904475583
 30
0.0
 10
2.824391858872171
 20
0.6500008125585469
 30
0.0
 10
2.86790618236068
 20
0.6502926936494765
 30
0.0
 10
2.889863659131282
 20
0.6498141025340046
 30
0.0
 10
2.897230255406611
 20
0.6496535382048024
 30
0.0
 11
2.682552472200768
 21
0.6501178955027172
 31
0.0
 11
2.766700908160601
 21
0.650112566794178
 31
0.0
 11
2.831348205359971
 21
0.6501016115626044
 31
0.0
 11
2.875129776313768
 21
0.6500647805041809
 31
0.0
 11
2.897230255406611
 21
0.6496535382048024
 31
0.0
  0
LINE
  5
20C0
330
2093
100
AcDbEntity
  8
0
100
AcDbLine
 10
0.1792409655545271
 20
2.360392840951589
 30
0.0
 11
0.3493788823952855
 21
2.419685519477296
 31
0.0
  0
SPLINE
  5
20C1
330
2093
100
AcDbEntity
  8
0
100
AcDbSpline
210
0.0
220
0.0
230
1.0
 70
     8
 71
     3
 72
    13
 73
     9
 74
     7
 42
0.0000000001
 43
0.0000000001
 44
0.0000000001
 12
-0.3724255572000457
 22
0.9280620692304129
 32
0.0
 13
-0.9408244677260565
 23
-0.3388942621644432
 33
0.0
 40
0.0
 40
0.0
 40
0.0
 40
0.0
 40
0.0255161470875307
 40
0.049932622746337
 40
0.0712549782912834
 40
0.0889496123238379
 40
0.1027694903070671
 40
0.1129856199919571
 40
0.1129856199919571
 40
0.1129856199919571
 40
0.1129856199919571
 10
0.1792409655545271
 20
2.360392840951589
 30
0.0
 10
0.1760733437889698
 20
2.368286363706536
 30
0.0
 10
0.169023924735347
 20
2.383409297116068
 30
0.0
 10
0.1565931749684124
 20
2.403708183751451
 30
0.0
 10
0.1433257443255098
 20
2.420269165683579
 30
0.0
 10
0.1301537205061249
 20
2.43209544156609
 30
0.0
 10
0.1178318588917569
 20
2.438966774487729
 30
0.0
 10
0.1092741844286974
 20
2.43936053311869
 30
0.0
 10
0.1060703228376951
 20
2.438206470541444
 30
0.0
 11
0.1792409655545271
 21
2.360392840951589
 31
0.0
 11
0.1684347893169615
 21
2.383507778055444
 31
0.0
 11
0.1556011010434304
 21
2.404279410848629
 31
0.0
 11
0.1420992475641469
 21
2.420782222688103
 31
0.0
 11
0.1287309900417313
 21
2.432374882622752
 31
0.0
 11
0.1162849451384318
 21
2.438381961258528
 31
0.0
 11
0.1060703228376951
 21
2.438206470541444
 31
0.0
  0
SPLINE
  5
20C2
330
2093
100
AcDbEntity
  8
0
100
AcDbSpline
210
0.0
220
0.0
230
1.0
 70
     8
 71
     3
 72
    15
 73
    11
 74
     9
 42
0.0000000001
 43
0.0000000001
 44
0.0000000001
 12
0.9999998497379962
 22
0.0005482006795297
 32
0.0
 13
0.0
 23
1.0
 33
0.0
 40
0.0
 40
0.0
 40
0.0
 40
0.0
 40
0.0042853514371566
 40
0.0509261956818267
 40
0.0968181200220352
 40
0.1424133905481545
 40
0.1915959212070168
 40
0.2439031592342806
 40
0.2970242657581543
 40
0.3480371101943919
 40
0.3480371101943919
 40
0.3480371101943919
 40
0.3480371101943919
 10
2.495258619560444
 20
0.4000018842566533
 30
0.0
 10
2.496687069824855
 20
0.4000026673341766
 30
0.0
 10
2.513658477236731
 20
0.4002197400227185
 30
0.0
 10
2.546008307312831
 20
0.405452207490051
 30
0.0
 10
2.588039501017861
 20
0.4257775235140148
 30
0.0
 10
2.623180716768694
 20
0.4576675134712229
 30
0.0
 10
2.650482802990258
 20
0.4989044448308939
 30
0.0
 10
2.669553984092529
 20
0.5471188366340952
 30
0.0
 10
2.680232254640499
 20
0.5983625850815184
 30
0.0
 10
2.682552472200768
 20
0.6331136140239713
 30
0.0
 10
2.682552472200768
 20
0.6501178955027172
 30
0.0
 11
2.495258619560444
 21
0.4000018842566533
 31
0.0
 11
2.499543614598223
 21
0.4000571514816329
 31
0.0
 11
2.545557068528978
 21
0.4076814815648504
 31
0.0
 11
2.58687566899789
 21
0.4276525099544415
 31
0.0
 11
2.620876522040815
 21
0.4580312967423197
 31
0.0
 11
2.648418602531818
 21
0.4987787521749853
 31
0.0
 11
2.66802385800929
 21
0.547272886951305
 31
0.0
 11
2.679130279392666
 21
0.5992199692791475
 31
0.0
 11
2.682552472200768
 21
0.6501178955027172
 31
0.0
  0
SPLINE
  5
20C3
330
2093
100
AcDbEntity
  8
0
100
AcDbSpline
210
0.0
220
0.0
230
1.0
 70
     8
 71
     3
 72
    14
 73
    10
 74
     8
 42
0.0000000001
 43
0.0000000001
 44
0.0000000001
 12
-0.3723928934998178
 22
-0.9280751763035327
 32
0.0
 13
-0.0359262494880323
 23
-0.9993544439275405
 33
0.0
 40
0.0
 40
0.0
 40
0.0
 40
0.0
 40
0.0733240528459062
 40
0.1467369383488022
 40
0.2938612181777666
 40
0.3676199728856077
 40
0.4414936302067115
 40
0.5154709837086479
 40
0.5895354337656067
 40
0.5895354337656067
 40
0.5895354337656067
 40
0.5895354337656067
 10
2.805057535671039
 20
1.324515509670163
 30
0.0
 10
2.795955750270232
 20
1.301832098579411
 30
0.0
 10
2.778800986729581
 20
1.256003316076194
 30
0.0
 10
2.748687601512607
 20
1.162767737906955
 30
0.0
 10
2.724835235061785
 20
1.067456643849012
 30
0.0
 10
2.707162045381571
 20
0.9707856641059258
 30
0.0
 10
2.696951194294821
 20
0.8976010675006669
 30
0.0
 10
2.689777955729921
 20
0.8239582810744414
 30
0.0
 10
2.687008016896147
 20
0.7746726016625408
 30
0.0
 10
2.686121064259167
 20
0.7500003892287169
 30
0.0
 11
2.805057535671039
 21
1.324515509670163
 31
0.0
 11
2.779340210445296
 21
1.255849390593994
 31
0.0
 11
2.756764769343134
 21
1.185993816608061
 31
0.0
 11
2.720955798880821
 21
1.043293881956286
 31
0.0
 11
2.707680523561975
 21
0.9707396197709384
 31
0.0
 11
2.6974635572642
 21
0.8975758934739133
 31
0.0
 11
2.690284026690278
 21
0.8239477523056848
 31
0.0
 11
2.686121064259167
 21
0.7500003892287169
 31
0.0
  0
SPLINE
  5
20C4
330
2093
100
AcDbEntity
  8
0
100
AcDbSpline
210
0.0
220
0.0
230
1.0
 70
     8
 71
     3
 72
    15
 73
    11
 74
     9
 42
0.0000000001
 43
0.0000000001
 44
0.0000000001
 12
0.0
 22
-1.0
 32
0.0
 13
0.9999999973751833
 23
-0.0000724543519101
 33
0.0
 40
0.0
 40
0.0
 40
0.0
 40
0.0
 40
0.0502708975045139
 40
0.0997514522912929
 40
0.1479582456578141
 40
0.1924701424239588
 40
0.2355530442882122
 40
0.2788516444976181
 40
0.3241129187826056
 40
0.3481556602809585
 40
0.3481556602809585
 40
0.3481556602809585
 40
0.3481556602809585
 10
0.7174538113376912
 20
0.6501181806174828
 30
0.0
 10
0.7174538113376912
 20
0.6333612147826449
 30
0.0
 10
0.7196428898915195
 20
0.6000706982273635
 30
0.0
 10
0.7294099060185108
 20
0.5515696056101227
 30
0.0
 10
0.7459247396648947
 20
0.5068865651251033
 30
0.0
 10
0.7692680033548517
 20
0.4677752319785256
 30
0.0
 10
0.7993354962139195
 20
0.435588864974382
 30
0.0
 10
0.8370115844646665
 20
0.412064069810903
 30
0.0
 10
0.8736127170131837
 20
0.4015775331128828
 30
0.0
 10
0.8967333402098228
 20
0.4000213096071196
 30
0.0
 10
0.9047475873549045
 20
0.4000207289400352
 30
0.0
 11
0.7174538113376912
 21
0.6501181806174828
 31
0.0
 11
0.7207766450601412
 21
0.5999572205791992
 31
0.0
 11
0.7307503087795341
 21
0.5514922710381143
 31
0.0
 11
0.7477512677487539
 21
0.5063828227948762
 31
0.0
 11
0.7708214089889225
 21
0.4683160717268038
 31
0.0
 11
0.8004997789212211
 21
0.4370857852854897
 31
0.0
 11
0.8372722501262613
 21
0.4142263421258578
 31
0.0
 11
0.8807629021785031
 21
0.4016905480157221
 31
0.0
 11
0.9047475873549045
 21
0.4000207289400352
 31
0.0
  0
LINE
  5
20C5
330
2093
100
AcDbEntity
  8
0
100
AcDbLine
 10
3.050627309702576
 20
2.419685517360449
 30
0.0
 11
3.220765227812988
 21
2.360392838411826
 31
0.0
  0
SPLINE
  5
20C6
330
2093
100
AcDbEntity
  8
0
100
AcDbSpline
210
0.0
220
0.0
230
1.0
 70
     8
 71
     3
 72
    13
 73
     9
 74
     7
 42
0.0000000001
 43
0.0000000001
 44
0.0000000001
 12
-0.9408244675815732
 22
0.3388942625655522
 32
0.0
 13
-0.3724254949085317
 23
-0.928062094227609
 33
0.0
 40
0.0
 40
0.0
 40
0.0
 40
0.0
 40
0.0102161298931308
 40
0.0240360072059057
 40
0.0417306407157251
 40
0.063052995783792
 40
0.0874694710245105
 40
0.1129856180596803
 40
0.1129856180596803
 40
0.1129856180596803
 40
0.1129856180596803
 10
3.293935864603553
 20
2.438206470329986
 30
0.0
 10
3.290732002947737
 20
2.439360532932122
 30
0.0
 10
3.282174328587682
 20
2.438966774094733
 30
0.0
 10
3.269852467519418
 20
2.432095440873061
 30
0.0
 10
3.256680444850264
 20
2.420269164511395
 30
0.0
 10
3.243413015453642
 20
2.403708182203274
 30
0.0
 10
3.23098226710485
 20
2.383409295063548
 30
0.0
 10
3.223932849042232
 20
2.368286361363185
 30
0.0
 10
3.220765227812988
 20
2.360392838411826
 30
0.0
 11
3.293935864603553
 21
2.438206470329986
 31
0.0
 11
3.283721242090904
 21
2.438381960835158
 31
0.0
 11
3.271275198034345
 21
2.432374881987469
 31
0.0
 11
3.257906941570581
 21
2.420782221629905
 31
0.0
 11
3.244405089361861
 21
2.404279409367063
 31
0.0
 11
3.231571402568988
 21
2.383507776150509
 31
0.0
 11
3.220765227812988
 21
2.360392838411826
 31
0.0
  0
ARC
  5
20C7
330
2093
100
AcDbEntity
  8
0
100
AcDbCircle
 10
2.6045833893495
 20
2.557848107212976
 30
0.0
 40
0.2438378262272364
100
AcDbArc
 50
96.74150684535485
 51
181.8444256306601
  0
ARC
  5
20C8
330
2093
100
AcDbEntity
  8
0
100
AcDbCircle
 10
0.7954244736447436
 20
2.557848107212976
 30
0.0
 40
0.2438378262272364
100
AcDbArc
 50
358.1555743693398
 51
83.25849315467143
  0
ENDBLK
  5
20C9
330
2093
100
AcDbEntity
  8
0
 48
2.0
100
AcDbBlockEnd
  0
BLOCK
  5
2401
330
2400
100
AcDbEntity
  8
0
100
AcDbBlockBegin
  2
*D3
 70
     1
 10
0.0
 20
0.0
 30
0.0
  3
*D3
  1

  0
LINE
  5
274C
330
2400
100
AcDbEntity
  8
DIM
 62
     6
370
    -2
100
AcDbLine
 10
737.8436347114342
 20
215.0425725799474
 30
0.0
 11
737.8436347114342
 21
217.9056278411934
 31
0.0
  0
LINE
  5
274D
330
2400
100
AcDbEntity
  8
DIM
 62
     6
370
    -2
100
AcDbLine
 10
739.8736347121142
 20
214.6675725799471
 30
0.0
 11
739.8736347121142
 21
217.9056278411934
 31
0.0
  0
LINE
  5
274E
330
2400
100
AcDbEntity
  8
DIM
 62
     1
370
    -2
100
AcDbLine
 10
736.8436347114339
 20
217.4056278411934
 30
0.0
 11
735.8436347114341
 21
217.4056278411934
 31
0.0
  0
LINE
  5
274F
330
2400
100
AcDbEntity
  8
DIM
 62
     1
370
    -2
100
AcDbLine
 10
740.8736347121141
 20
217.4056278411934
 30
0.0
 11
741.8736347121141
 21
217.4056278411934
 31
0.0
  0
SOLID
  5
2750
330
2400
100
AcDbEntity
  8
DIM
 62
     1
100
AcDbTrace
 10
736.8436347114339
 20
217.57229450786
 30
0.0
 11
736.8436347114339
 21
217.2389611745267
 31
0.0
 12
737.8436347114342
 22
217.4056278411934
 32
0.0
 13
737.8436347114342
 23
217.4056278411934
 33
0.0
  0
SOLID
  5
2751
330
2400
100
AcDbEntity
  8
DIM
 62
     1
100
AcDbTrace
 10
740.8736347121141
 20
217.57229450786
 30
0.0
 11
740.8736347121141
 21
217.2389611745267
 31
0.0
 12
739.8736347121142
 22
217.4056278411934
 32
0.0
 13
739.8736347121142
 23
217.4056278411934
 33
0.0
  0
MTEXT
  5
2752
330
2400
100
AcDbEntity
  8
DIM
 62
     4
100
AcDbMText
 10
738.8586347117741
 20
218.6556278411934
 30
0.0
 40
1.5
 41
0.0
 46
0.0
 71
     5
 72
     1
  1
\A1;2
  7
Romans字体
 73
     1
 44
1.0
  0
POINT
  5
2753
330
2400
100
AcDbEntity
  8
Defpoints
 62
     0
100
AcDbPoint
 10
737.8436347114342
 20
214.8425725799474
 30
0.0
  0
POINT
  5
2754
330
2400
100
AcDbEntity
  8
Defpoints
 62
     0
100
AcDbPoint
 10
739.8736347121142
 20
214.4675725799471
 30
0.0
  0
POINT
  5
2755
330
2400
100
AcDbEntity
  8
Defpoints
 62
     0
100
AcDbPoint
 10
739.8736347121142
 20
217.4056278411934
 30
0.0
  0
ENDBLK
  5
2402
330
2400
100
AcDbEntity
  8
0
100
AcDbBlockEnd
  0
BLOCK
  5
240D
330
240C
100
AcDbEntity
  8
0
100
AcDbBlockBegin
  2
*D4
 70
     1
 10
0.0
 20
0.0
 30
0.0
  3
*D4
  1

  0
LINE
  5
2756
330
240C
100
AcDbEntity
  8
DIM
 62
     6
370
    -2
100
AcDbLine
 10
732.5529585534532
 20
214.8425725799474
 30
0.0
 11
729.1803825593026
 21
214.8425725799474
 31
0.0
  0
LINE
  5
2757
330
240C
100
AcDbEntity
  8
DIM
 62
     6
370
    -2
100
AcDbLine
 10
732.5529585534532
 20
212.5925725799473
 30
0.0
 11
729.1803825593026
 21
212.5925725799473
 31
0.0
  0
LINE
  5
2758
330
240C
100
AcDbEntity
  8
DIM
 62
     1
370
    -2
100
AcDbLine
 10
729.6803825593026
 20
215.8425725799474
 30
0.0
 11
729.6803825593026
 21
216.8425725799474
 31
0.0
  0
LINE
  5
2759
330
240C
100
AcDbEntity
  8
DIM
 62
     1
370
    -2
100
AcDbLine
 10
729.6803825593026
 20
211.5925725799472
 30
0.0
 11
729.6803825593026
 21
201.6640011513758
 31
0.0
  0
SOLID
  5
275A
330
240C
100
AcDbEntity
  8
DIM
 62
     1
100
AcDbTrace
 10
729.5137158926358
 20
215.8425725799474
 30
0.0
 11
729.8470492259692
 21
215.8425725799474
 31
0.0
 12
729.6803825593026
 22
214.8425725799474
 32
0.0
 13
729.6803825593026
 23
214.8425725799474
 33
0.0
  0
SOLID
  5
275B
330
240C
100
AcDbEntity
  8
DIM
 62
     1
100
AcDbTrace
 10
729.5137158926358
 20
211.5925725799472
 30
0.0
 11
729.8470492259692
 21
211.5925725799472
 31
0.0
 12
729.6803825593026
 22
212.5925725799473
 32
0.0
 13
729.6803825593026
 23
212.5925725799473
 33
0.0
  0
MTEXT
  5
275C
330
240C
100
AcDbEntity
  8
DIM
 62
     4
100
AcDbMText
 10
728.4303825593026
 20
206.1282868656616
 30
0.0
 40
1.5
 41
0.0
 46
0.0
 71
     5
 72
     1
  1
\A1;{\Fromand,hztxt|c134;%%Cd=}%%C2.25
  7
Romans字体
 11
0.0000000000000001
 21
1.0
 31
0.0
 73
     1
 44
1.0
  0
POINT
  5
275D
330
240C
100
AcDbEntity
  8
Defpoints
 62
     0
100
AcDbPoint
 10
732.7529585534533
 20
214.8425725799474
 30
0.0
  0
POINT
  5
275E
330
240C
100
AcDbEntity
  8
Defpoints
 62
     0
100
AcDbPoint
 10
732.7529585534533
 20
212.5925725799473
 30
0.0
  0
POINT
  5
275F
330
240C
100
AcDbEntity
  8
Defpoints
 62
     0
100
AcDbPoint
 10
729.6803825593026
 20
212.5925725799473
 30
0.0
  0
ENDBLK
  5
240E
330
240C
100
AcDbEntity
  8
0
100
AcDbBlockEnd
  0
BLOCK
  5
241A
330
2419
100
AcDbEntity
  8
0
100
AcDbBlockBegin
  2
*D5
 70
     1
 10
0.0
 20
0.0
 30
0.0
  3
*D5
  1

  0
LINE
  5
2760
330
2419
100
AcDbEntity
  8
DIM
 62
     6
370
    -2
100
AcDbLine
 10
732.643634711434
 20
215.2175725799473
 30
0.0
 11
725.6919108365034
 21
215.2175725799473
 31
0.0
  0
LINE
  5
2761
330
2419
100
AcDbEntity
  8
DIM
 62
     6
370
    -2
100
AcDbLine
 10
732.643634711434
 20
212.2175725799473
 30
0.0
 11
725.6919108365034
 21
212.2175725799473
 31
0.0
  0
LINE
  5
2762
330
2419
100
AcDbEntity
  8
DIM
 62
     1
370
    -2
100
AcDbLine
 10
726.1919108365034
 20
214.2175725799473
 30
0.0
 11
726.1919108365034
 21
213.2175725799473
 31
0.0
  0
LINE
  5
2763
330
2419
100
AcDbEntity
  8
DIM
 62
     1
370
    -2
100
AcDbLine
 10
726.1919108365034
 20
212.2175725799473
 30
0.0
 11
726.1919108365034
 21
203.306858294233
 31
0.0
  0
SOLID
  5
2764
330
2419
100
AcDbEntity
  8
DIM
 62
     1
100
AcDbTrace
 10
726.0252441698369
 20
214.2175725799473
 30
0.0
 11
726.3585775031701
 21
214.2175725799473
 31
0.0
 12
726.1919108365034
 22
215.2175725799473
 32
0.0
 13
726.1919108365034
 23
215.2175725799473
 33
0.0
  0
SOLID
  5
2765
330
2419
100
AcDbEntity
  8
DIM
 62
     1
100
AcDbTrace
 10
726.0252441698369
 20
213.2175725799473
 30
0.0
 11
726.3585775031701
 21
213.2175725799473
 31
0.0
 12
726.1919108365034
 22
212.2175725799473
 32
0.0
 13
726.1919108365034
 23
212.2175725799473
 33
0.0
  0
MTEXT
  5
2766
330
2419
100
AcDbEntity
  8
DIM
 62
     4
100
AcDbMText
 10
724.9419108365034
 20
207.2622154370903
 30
0.0
 40
1.5
 41
0.0
 46
0.0
 71
     5
 72
     1
  1
\A1;{\Fromand,hztxt|c134;%%CD=}%%C3.2
  7
Romans字体
 11
0.0000000000000001
 21
1.0
 31
0.0
 73
     1
 44
1.0
  0
POINT
  5
2767
330
2419
100
AcDbEntity
  8
Defpoints
 62
     0
100
AcDbPoint
 10
732.8436347114339
 20
215.2175725799473
 30
0.0
  0
POINT
  5
2768
330
2419
100
AcDbEntity
  8
Defpoints
 62
     0
100
AcDbPoint
 10
732.8436347114339
 20
212.2175725799473
 30
0.0
  0
POINT
  5
2769
330
2419
100
AcDbEntity
  8
Defpoints
 62
     0
100
AcDbPoint
 10
726.1919108365034
 20
212.2175725799473
 30
0.0
  0
ENDBLK
  5
241B
330
2419
100
AcDbEntity
  8
0
100
AcDbBlockEnd
  0
BLOCK
  5
2427
330
2426
100
AcDbEntity
  8
0
100
AcDbBlockBegin
  2
*D6
 70
     1
 10
0.0
 20
0.0
 30
0.0
  3
*D6
  1

  0
LINE
  5
276A
330
2426
100
AcDbEntity
  8
DIM
 62
     6
370
    -2
100
AcDbLine
 10
680.7415472997413
 20
209.1435585826761
 30
0.0
 11
680.7415472997413
 21
202.9253473453334
 31
0.0
  0
LINE
  5
276B
330
2426
100
AcDbEntity
  8
DIM
 62
     6
370
    -2
100
AcDbLine
 10
702.2425132524325
 20
210.8936372068282
 30
0.0
 11
702.2425132524325
 21
202.9253473453334
 31
0.0
  0
LINE
  5
276C
330
2426
100
AcDbEntity
  8
DIM
 62
     1
370
    -2
100
AcDbLine
 10
681.7415472997413
 20
203.4253473453334
 30
0.0
 11
701.2425132524326
 21
203.4253473453334
 31
0.0
  0
SOLID
  5
276D
330
2426
100
AcDbEntity
  8
DIM
 62
     1
100
AcDbTrace
 10
681.7415472997413
 20
203.5920140120001
 30
0.0
 11
681.7415472997413
 21
203.2586806786668
 31
0.0
 12
680.7415472997413
 22
203.4253473453334
 32
0.0
 13
680.7415472997413
 23
203.4253473453334
 33
0.0
  0
SOLID
  5
276E
330
2426
100
AcDbEntity
  8
DIM
 62
     1
100
AcDbTrace
 10
701.2425132524326
 20
203.5920140120001
 30
0.0
 11
701.2425132524326
 21
203.2586806786668
 31
0.0
 12
702.2425132524325
 22
203.4253473453334
 32
0.0
 13
702.2425132524325
 23
203.4253473453334
 33
0.0
  0
MTEXT
  5
276F
330
2426
100
AcDbEntity
  8
DIM
 62
     4
100
AcDbMText
 10
691.492030276087
 20
204.6753473453335
 30
0.0
 40
1.5
 41
0.0
 46
0.0
 71
     5
 72
     1
  1
\A1;21.5
  7
Romans字体
 73
     1
 44
1.0
  0
POINT
  5
2770
330
2426
100
AcDbEntity
  8
Defpoints
 62
     0
100
AcDbPoint
 10
680.7415472997413
 20
209.3435585826761
 30
0.0
  0
POINT
  5
2771
330
2426
100
AcDbEntity
  8
Defpoints
 62
     0
100
AcDbPoint
 10
702.2425132524325
 20
211.0936372068282
 30
0.0
  0
POINT
  5
2772
330
2426
100
AcDbEntity
  8
Defpoints
 62
     0
100
AcDbPoint
 10
702.2425132524325
 20
203.4253473453334
 30
0.0
  0
ENDBLK
  5
2428
330
2426
100
AcDbEntity
  8
0
100
AcDbBlockEnd
  0
BLOCK
  5
2433
330
2432
100
AcDbEntity
  8
0
100
AcDbBlockBegin
  2
*D7
 70
     1
 10
0.0
 20
0.0
 30
0.0
  3
*D7
  1

  0
LINE
  5
2773
330
2432
100
AcDbEntity
  8
DIM
 62
     6
370
    -2
100
AcDbLine
 10
680.5415472997412
 20
212.8437158309803
 30
0.0
 11
675.174864520428
 21
212.8437158309803
 31
0.0
  0
LINE
  5
2774
330
2432
100
AcDbEntity
  8
DIM
 62
     6
370
    -2
100
AcDbLine
 10
680.5415472997412
 20
209.3435585826761
 30
0.0
 11
675.174864520428
 21
209.3435585826761
 31
0.0
  0
LINE
  5
2775
330
2432
100
AcDbEntity
  8
DIM
 62
     1
370
    -2
100
AcDbLine
 10
675.6748645204281
 20
211.8437158309804
 30
0.0
 11
675.6748645204281
 21
210.3435585826761
 31
0.0
  0
SOLID
  5
2776
330
2432
100
AcDbEntity
  8
DIM
 62
     1
100
AcDbTrace
 10
675.5081978537613
 20
211.8437158309804
 30
0.0
 11
675.8415311870947
 21
211.8437158309804
 31
0.0
 12
675.6748645204281
 22
212.8437158309803
 32
0.0
 13
675.6748645204281
 23
212.8437158309803
 33
0.0
  0
SOLID
  5
2777
330
2432
100
AcDbEntity
  8
DIM
 62
     1
100
AcDbTrace
 10
675.5081978537613
 20
210.3435585826761
 30
0.0
 11
675.8415311870947
 21
210.3435585826761
 31
0.0
 12
675.6748645204281
 22
209.3435585826761
 32
0.0
 13
675.6748645204281
 23
209.3435585826761
 33
0.0
  0
MTEXT
  5
2778
330
2432
100
AcDbEntity
  8
DIM
 62
     4
100
AcDbMText
 10
674.424864520428
 20
211.0936372068283
 30
0.0
 40
1.5
 41
0.0
 46
0.0
 71
     5
 72
     1
  1
\A1;%%C3.5
  7
Romans字体
 11
0.0000000000000001
 21
1.0
 31
0.0
 73
     1
 44
1.0
  0
POINT
  5
2779
330
2432
100
AcDbEntity
  8
Defpoints
 62
     0
100
AcDbPoint
 10
680.7415472997413
 20
212.8437158309803
 30
0.0
  0
POINT
  5
277A
330
2432
100
AcDbEntity
  8
Defpoints
 62
     0
100
AcDbPoint
 10
680.7415472997413
 20
209.3435585826761
 30
0.0
  0
POINT
  5
277B
330
2432
100
AcDbEntity
  8
Defpoints
 62
     0
100
AcDbPoint
 10
675.6748645204281
 20
209.3435585826761
 30
0.0
  0
ENDBLK
  5
2434
330
2432
100
AcDbEntity
  8
0
100
AcDbBlockEnd
  0
BLOCK
  5
243F
330
243E
100
AcDbEntity
  8
0
100
AcDbBlockBegin
  2
*D8
 70
     1
 10
0.0
 20
0.0
 30
0.0
  3
*D8
  1

  0
LINE
  5
277C
330
243E
100
AcDbEntity
  8
DIM
 62
     6
370
    -2
100
AcDbLine
 10
681.9271203410838
 20
211.9436753955389
 30
0.0
 11
678.0828168561969
 21
211.9436753955389
 31
0.0
  0
LINE
  5
277D
330
243E
100
AcDbEntity
  8
DIM
 62
     6
370
    -2
100
AcDbLine
 10
681.9271203410838
 20
210.243599018118
 30
0.0
 11
678.0828168561969
 21
210.243599018118
 31
0.0
  0
LINE
  5
277E
330
243E
100
AcDbEntity
  8
DIM
 62
     1
370
    -2
100
AcDbLine
 10
678.5828168561969
 20
212.9436753955388
 30
0.0
 11
678.5828168561969
 21
213.9436753955389
 31
0.0
  0
LINE
  5
277F
330
243E
100
AcDbEntity
  8
DIM
 62
     1
370
    -2
100
AcDbLine
 10
678.5828168561969
 20
209.243599018118
 30
0.0
 11
678.5828168561969
 21
208.243599018118
 31
0.0
  0
SOLID
  5
2780
330
243E
100
AcDbEntity
  8
DIM
 62
     1
100
AcDbTrace
 10
678.4161501895304
 20
212.9436753955388
 30
0.0
 11
678.7494835228637
 21
212.9436753955388
 31
0.0
 12
678.5828168561969
 22
211.9436753955389
 32
0.0
 13
678.5828168561969
 23
211.9436753955389
 33
0.0
  0
SOLID
  5
2781
330
243E
100
AcDbEntity
  8
DIM
 62
     1
100
AcDbTrace
 10
678.4161501895304
 20
209.243599018118
 30
0.0
 11
678.7494835228637
 21
209.243599018118
 31
0.0
 12
678.5828168561969
 22
210.243599018118
 32
0.0
 13
678.5828168561969
 23
210.243599018118
 33
0.0
  0
MTEXT
  5
2782
330
243E
100
AcDbEntity
  8
DIM
 62
     4
100
AcDbMText
 10
677.3328168561969
 20
211.0936372068286
 30
0.0
 40
1.5
 41
0.0
 46
0.0
 71
     5
 72
     1
  1
\A1;%%Cd
  7
Romans字体
 11
0.0000000000000001
 21
1.0
 31
0.0
 73
     1
 44
1.0
  0
POINT
  5
2783
330
243E
100
AcDbEntity
  8
Defpoints
 62
     0
100
AcDbPoint
 10
682.1271203410837
 20
211.9436753955389
 30
0.0
  0
POINT
  5
2784
330
243E
100
AcDbEntity
  8
Defpoints
 62
     0
100
AcDbPoint
 10
682.1271203410837
 20
210.243599018118
 30
0.0
  0
POINT
  5
2785
330
243E
100
AcDbEntity
  8
Defpoints
 62
     0
100
AcDbPoint
 10
678.5828168561969
 20
210.243599018118
 30
0.0
  0
ENDBLK
  5
2440
330
243E
100
AcDbEntity
  8
0
100
AcDbBlockEnd
  0
BLOCK
  5
244C
330
244B
100
AcDbEntity
  8
0
100
AcDbBlockBegin
  2
*D9
 70
     1
 10
0.0
 20
0.0
 30
0.0
  3
*D9
  1

  0
LINE
  5
2739
330
244B
100
AcDbEntity
  8
DIM
 62
     6
370
    -2
100
AcDbLine
 10
737.8436347114342
 20
215.0425725799474
 30
0.0
 11
737.8436347114342
 21
217.9056278411934
 31
0.0
  0
LINE
  5
273A
330
244B
100
AcDbEntity
  8
DIM
 62
     6
370
    -2
100
AcDbLine
 10
731.843634711434
 20
215.3749103743497
 30
0.0
 11
731.843634711434
 21
217.9056278411934
 31
0.0
  0
LINE
  5
273B
330
244B
100
AcDbEntity
  8
DIM
 62
     1
370
    -2
100
AcDbLine
 10
736.8436347114339
 20
217.4056278411934
 30
0.0
 11
732.8436347114339
 21
217.4056278411934
 31
0.0
  0
SOLID
  5
273C
330
244B
100
AcDbEntity
  8
DIM
 62
     1
100
AcDbTrace
 10
736.8436347114339
 20
217.57229450786
 30
0.0
 11
736.8436347114339
 21
217.2389611745267
 31
0.0
 12
737.8436347114342
 22
217.4056278411934
 32
0.0
 13
737.8436347114342
 23
217.4056278411934
 33
0.0
  0
SOLID
  5
273D
330
244B
100
AcDbEntity
  8
DIM
 62
     1
100
AcDbTrace
 10
732.8436347114339
 20
217.57229450786
 30
0.0
 11
732.8436347114339
 21
217.2389611745267
 31
0.0
 12
731.843634711434
 22
217.4056278411934
 32
0.0
 13
731.843634711434
 23
217.4056278411934
 33
0.0
  0
MTEXT
  5
273E
330
244B
100
AcDbEntity
  8
DIM
 62
     4
100
AcDbMText
 10
734.8436347114342
 20
218.6556278411934
 30
0.0
 40
1.5
 41
0.0
 46
0.0
 71
     5
 72
     1
  1
\A1;6
  7
Romans字体
 73
     1
 44
1.0
  0
POINT
  5
273F
330
244B
100
AcDbEntity
  8
Defpoints
 62
     0
100
AcDbPoint
 10
737.8436347114342
 20
214.8425725799474
 30
0.0
  0
POINT
  5
2740
330
244B
100
AcDbEntity
  8
Defpoints
 62
     0
100
AcDbPoint
 10
731.843634711434
 20
215.1749103743497
 30
0.0
  0
POINT
  5
2741
330
244B
100
AcDbEntity
  8
Defpoints
 62
     0
100
AcDbPoint
 10
731.843634711434
 20
217.4056278411934
 30
0.0
  0
ENDBLK
  5
244D
330
244B
100
AcDbEntity
  8
0
100
AcDbBlockEnd
  0
BLOCK
  5
2458
330
2457
100
AcDbEntity
  8
0
100
AcDbBlockBegin
  2
*D10
 70
     1
 10
0.0
 20
0.0
 30
0.0
  3
*D10
  1

  0
LINE
  5
2742
330
2457
100
AcDbEntity
  8
DIM
 62
     6
370
    -2
100
AcDbLine
 10
739.0771984239004
 20
212.9675725799473
 30
0.0
 11
739.6301530922962
 21
212.9675725799473
 31
0.0
  0
LINE
  5
2743
330
2457
100
AcDbEntity
  8
DIM
 62
     6
370
    -2
100
AcDbLine
 10
739.2275680833108
 20
214.4675725799474
 30
0.0
 11
739.6301530922962
 21
214.4675725799474
 31
0.0
  0
LINE
  5
2744
330
2457
100
AcDbEntity
  8
DIM
 62
     1
370
    -2
100
AcDbLine
 10
739.1301530922962
 20
215.4675725799473
 30
0.0
 11
739.1301530922962
 21
216.4675725799474
 31
0.0
  0
LINE
  5
2745
330
2457
100
AcDbEntity
  8
DIM
 62
     1
370
    -2
100
AcDbLine
 10
739.1301530922962
 20
211.9675725799473
 30
0.0
 11
739.1301530922962
 21
206.5925725799473
 31
0.0
  0
SOLID
  5
2746
330
2457
100
AcDbEntity
  8
DIM
 62
     1
100
AcDbTrace
 10
738.9634864256297
 20
215.4675725799473
 30
0.0
 11
739.296819758963
 21
215.4675725799473
 31
0.0
 12
739.1301530922962
 22
214.4675725799474
 32
0.0
 13
739.1301530922962
 23
214.4675725799474
 33
0.0
  0
SOLID
  5
2747
330
2457
100
AcDbEntity
  8
DIM
 62
     1
100
AcDbTrace
 10
738.9634864256297
 20
211.9675725799473
 30
0.0
 11
739.296819758963
 21
211.9675725799473
 31
0.0
 12
739.1301530922962
 22
212.9675725799473
 32
0.0
 13
739.1301530922962
 23
212.9675725799473
 33
0.0
  0
MTEXT
  5
2748
330
2457
100
AcDbEntity
  8
DIM
 62
     4
100
AcDbMText
 10
737.8801530922962
 20
208.7800725799474
 30
0.0
 40
1.5
 41
0.0
 46
0.0
 71
     5
 72
     1
  1
\A1;%%C1.5
  7
Romans字体
 11
0.0000000000000001
 21
1.0
 31
0.0
 73
     1
 44
1.0
  0
POINT
  5
2749
330
2457
100
AcDbEntity
  8
Defpoints
 62
     0
100
AcDbPoint
 10
738.8771984239005
 20
212.9675725799473
 30
0.0
  0
POINT
  5
274A
330
2457
100
AcDbEntity
  8
Defpoints
 62
     0
100
AcDbPoint
 10
739.0275680833108
 20
214.4675725799474
 30
0.0
  0
POINT
  5
274B
330
2457
100
AcDbEntity
  8
Defpoints
 62
     0
100
AcDbPoint
 10
739.1301530922962
 20
214.4675725799474
 30
0.0
  0
ENDBLK
  5
2459
330
2457
100
AcDbEntity
  8
0
100
AcDbBlockEnd
  0
BLOCK
  5
249E
330
249D
100
AcDbEntity
  8
0
100
AcDbBlockBegin
  2
*D11
 70
     1
 10
0.0
 20
0.0
 30
0.0
  3
*D11
  1

  0
LINE
  5
2786
330
249D
100
AcDbEntity
  8
DIM
 62
     6
370
    -2
100
AcDbLine
 10
683.5166809608632
 20
212.5937045985957
 30
0.0
 11
683.0326026713637
 21
212.5937045985957
 31
0.0
  0
LINE
  5
2787
330
249D
100
AcDbEntity
  8
DIM
 62
     6
370
    -2
100
AcDbLine
 10
683.5166809608632
 20
209.5935698144254
 30
0.0
 11
683.0326026713637
 21
209.5935698144254
 31
0.0
  0
LINE
  5
2788
330
249D
100
AcDbEntity
  8
DIM
 62
     1
370
    -2
100
AcDbLine
 10
683.5326026713637
 20
210.5935698144254
 30
0.0
 11
683.5326026713637
 21
211.5937045985957
 31
0.0
  0
LINE
  5
2789
330
249D
100
AcDbEntity
  8
DIM
 62
     1
370
    -2
100
AcDbLine
 10
683.5326026713637
 20
212.5937045985957
 30
0.0
 11
683.5326026713637
 21
216.4151331700243
 31
0.0
  0
SOLID
  5
278A
330
249D
100
AcDbEntity
  8
DIM
 62
     1
100
AcDbTrace
 10
683.3659360046971
 20
210.5935698144254
 30
0.0
 11
683.6992693380302
 21
210.5935698144254
 31
0.0
 12
683.5326026713637
 22
209.5935698144254
 32
0.0
 13
683.5326026713637
 23
209.5935698144254
 33
0.0
  0
SOLID
  5
278B
330
249D
100
AcDbEntity
  8
DIM
 62
     1
100
AcDbTrace
 10
683.3659360046971
 20
211.5937045985957
 30
0.0
 11
683.6992693380302
 21
211.5937045985957
 31
0.0
 12
683.5326026713637
 22
212.5937045985957
 32
0.0
 13
683.5326026713637
 23
212.5937045985957
 33
0.0
  0
MTEXT
  5
278C
330
249D
100
AcDbEntity
  8
DIM
 62
     4
100
AcDbMText
 10
682.2826026713637
 20
215.0044188843101
 30
0.0
 40
1.5
 41
0.0
 46
0.0
 71
     5
 72
     1
  1
\A1;%%CD
  7
Romans字体
 11
0.0000000000000001
 21
1.0
 31
0.0
 73
     1
 44
1.0
  0
POINT
  5
278D
330
249D
100
AcDbEntity
  8
Defpoints
 62
     0
100
AcDbPoint
 10
683.7166809608633
 20
212.5937045985957
 30
0.0
  0
POINT
  5
278E
330
249D
100
AcDbEntity
  8
Defpoints
 62
     0
100
AcDbPoint
 10
683.7166809608633
 20
209.5935698144254
 30
0.0
  0
POINT
  5
278F
330
249D
100
AcDbEntity
  8
Defpoints
 62
     0
100
AcDbPoint
 10
683.5326026713637
 20
209.5935698144254
 30
0.0
  0
ENDBLK
  5
249F
330
249D
100
AcDbEntity
  8
0
100
AcDbBlockEnd
  0
BLOCK
  5
24AB
330
24AA
100
AcDbEntity
  8
0
100
AcDbBlockBegin
  2
*D12
 70
     1
 10
0.0
 20
0.0
 30
0.0
  3
*D12
  1

  0
LINE
  5
2790
330
24AA
100
AcDbEntity
  8
DIM
 62
     6
370
    -2
100
AcDbLine
 10
680.7415472997413
 20
208.4786520740912
 30
0.0
 11
680.7415472997413
 21
205.6811181452756
 31
0.0
  0
LINE
  5
2791
330
24AA
100
AcDbEntity
  8
DIM
 62
     6
370
    -2
100
AcDbLine
 10
688.7419067239838
 20
210.0435990181176
 30
0.0
 11
688.7419067239838
 21
205.6811181452756
 31
0.0
  0
LINE
  5
2792
330
24AA
100
AcDbEntity
  8
DIM
 62
     1
370
    -2
100
AcDbLine
 10
681.7415472997413
 20
206.1811181452756
 30
0.0
 11
687.7419067239839
 21
206.1811181452756
 31
0.0
  0
SOLID
  5
2793
330
24AA
100
AcDbEntity
  8
DIM
 62
     1
100
AcDbTrace
 10
681.7415472997413
 20
206.3477848119423
 30
0.0
 11
681.7415472997413
 21
206.014451478609
 31
0.0
 12
680.7415472997413
 22
206.1811181452756
 32
0.0
 13
680.7415472997413
 23
206.1811181452756
 33
0.0
  0
SOLID
  5
2794
330
24AA
100
AcDbEntity
  8
DIM
 62
     1
100
AcDbTrace
 10
687.7419067239839
 20
206.3477848119423
 30
0.0
 11
687.7419067239839
 21
206.014451478609
 31
0.0
 12
688.7419067239838
 22
206.1811181452756
 32
0.0
 13
688.7419067239838
 23
206.1811181452756
 33
0.0
  0
MTEXT
  5
2795
330
24AA
100
AcDbEntity
  8
DIM
 62
     4
100
AcDbMText
 10
684.7417270118626
 20
207.4311181452756
 30
0.0
 40
1.5
 41
0.0
 46
0.0
 71
     5
 72
     1
  1
\A1;8
  7
Romans字体
 73
     1
 44
1.0
  0
POINT
  5
2796
330
24AA
100
AcDbEntity
  8
Defpoints
 62
     0
100
AcDbPoint
 10
680.7415472997413
 20
208.6786520740912
 30
0.0
  0
POINT
  5
2797
330
24AA
100
AcDbEntity
  8
Defpoints
 62
     0
100
AcDbPoint
 10
688.7419067239838
 20
210.2435990181176
 30
0.0
  0
POINT
  5
2798
330
24AA
100
AcDbEntity
  8
Defpoints
 62
     0
100
AcDbPoint
 10
688.7419067239838
 20
206.1811181452756
 30
0.0
  0
ENDBLK
  5
24AC
330
24AA
100
AcDbEntity
  8
0
100
AcDbBlockEnd
  0
ENDSEC
  0
SECTION
  2
ENTITIES
  0
HATCH
  5
16
330
2
100
AcDbEntity
  8
图层 1
 62
     7
100
AcDbHatch
 10
0.0
 20
0.0
 30
0.0
210
0.0
220
0.0
230
1.0
  2
SOLID
 70
     1
 71
     0
 91
        1
 92
        1
 93
        2
 72
     4
 94
        3
 73
     0
 74
     0
 95
       17
 96
       13
 40
0.0
 40
0.0
 40
0.0
 40
0.0
 40
0.3527780104152769
 40
0.3527780104152769
 40
0.3527780104152769
 40
0.7055560208305538
 40
0.7055560208305538
 40
0.7055560208305538
 40
1.058334031245828
 40
1.058334031245828
 40
1.058334031245828
 40
1.411112041661104
 40
1.411112041661104
 40
1.411112041661104
 40
1.411112041661104
 10
11.07013262565829
 20
29.50312817963231
 10
11.07013262565829
 20
29.50312817963231
 10
10.9431807732774
 20
29.50312817963231
 10
10.9431807732774
 20
29.50312817963231
 10
10.9431807732774
 20
29.50312817963231
 10
10.85843136843155
 20
29.22786486877117
 10
10.85843136843155
 20
29.22786486877117
 10
10.85843136843155
 20
29.22786486877117
 10
10.90080607085448
 20
29.2068497724476
 10
10.90080607085448
 20
29.2068497724476
 10
10.94455881238059
 20
29.31571486159919
 10
11.00346998404173
 20
29.40907701083995
 10
11.07013262565829
 20
29.50312817963231
 72
     1
 10
11.07013262565829
 20
29.50312817963231
 11
11.07013262565829
 21
29.50312817963231
 97
        0
 75
     0
 76
     1
 98
        0
450
        0
451
        0
460
0.0
461
0.0
452
        0
462
0.0
453
        0
470

  0
HATCH
  5
1A
330
2
100
AcDbEntity
  8
图层 1
 62
     7
100
AcDbHatch
 10
0.0
 20
0.0
 30
0.0
210
0.0
220
0.0
230
1.0
  2
SOLID
 70
     1
 71
     0
 91
        1
 92
        1
 93
        2
 72
     4
 94
        3
 73
     0
 74
     0
 95
       47
 96
       43
 40
0.0
 40
0.0
 40
0.0
 40
0.0
 40
0.3527780104152769
 40
0.3527780104152769
 40
0.3527780104152769
 40
0.7055560208305538
 40
0.7055560208305538
 40
0.7055560208305538
 40
1.058334031245828
 40
1.058334031245828
 40
1.058334031245828
 40
1.411112041661104
 40
1.411112041661104
 40
1.411112041661104
 40
1.763890052076384
 40
1.763890052076384
 40
1.763890052076384
 40
2.116668062491659
 40
2.116668062491659
 40
2.116668062491659
 40
2.469446072906936
 40
2.469446072906936
 40
2.469446072906936
 40
2.822224083322215
 40
2.822224083322215
 40
2.822224083322215
 40
3.175002093737492
 40
3.175002093737492
 40
3.175002093737492
 40
3.527780104152768
 40
3.527780104152768
 40
3.527780104152768
 40
3.880558114568044
 40
3.880558114568044
 40
3.880558114568044
 40
4.233336124983321
 40
4.233336124983321
 40
4.233336124983321
 40
4.586114135398599
 40
4.586114135398599
 40
4.586114135398599
 40
4.938892145813873
 40
4.938892145813873
 40
4.938892145813873
 40
4.938892145813873
 10
162.8986914070121
 20
257.4895347631509
 10
162.8986914070121
 20
257.4895347631509
 10
162.9200510131114
 20
257.4471600607279
 10
162.9200510131114
 20
257.4471600607279
 10
162.9200510131114
 20
257.4471600607279
 10
162.9200510131114
 20
257.404785358305
 10
162.9200510131114
 20
257.404785358305
 10
162.9200510131114
 20
257.404785358305
 10
162.8986914070121
 20
257.36258291077
 10
162.8986914070121
 20
257.36258291077
 10
162.8986914070121
 20
257.36258291077
 10
162.8986914070121
 20
257.320208208347
 10
162.8986914070121
 20
257.320208208347
 10
162.8986914070121
 20
257.320208208347
 10
162.8563167045891
 20
257.2990208571356
 10
162.8563167045891
 20
257.2990208571356
 10
162.8563167045891
 20
257.2990208571356
 10
162.8139420021662
 20
257.2563016449369
 10
162.8139420021662
 20
257.2563016449369
 10
162.8139420021662
 20
257.2563016449369
 10
162.7295371070961
 20
257.2563016449369
 10
162.7295371070961
 20
257.2563016449369
 10
162.7295371070961
 20
257.2563016449369
 10
162.6658027985738
 20
257.2778335059241
 10
162.6658027985738
 20
257.2778335059241
 10
162.6658027985738
 20
257.2778335059241
 10
162.6237726059267
 20
257.2990208571356
 10
162.6237726059267
 20
257.2990208571356
 10
162.6237726059267
 20
257.2990208571356
 10
162.5813979035038
 20
257.3413955595585
 10
162.5813979035038
 20
257.3413955595585
 10
162.5813979035038
 20
257.3413955595585
 10
162.5813979035038
 20
257.4895347631509
 10
162.5813979035038
 20
257.4895347631509
 10
162.5813979035038
 20
257.4895347631509
 10
162.6447877022503
 20
257.5525800521216
 10
162.6447877022503
 20
257.5525800521216
 10
162.6447877022503
 20
257.5525800521216
 10
162.7081775009967
 20
257.5525800521216
 10
162.7081775009967
 20
257.5525800521216
 10
162.8749202324821
 20
257.5424170137356
 10
162.7918933765152
 20
257.5939212252171
 10
162.8986914070121
 20
257.4895347631509
 72
     1
 10
162.8986914070121
 20
257.4895347631509
 11
162.8986914070121
 21
257.4895347631509
 97
        0
 75
     0
 76
     1
 98
        0
450
        0
451
        0
460
0.0
461
0.0
452
        0
462
0.0
453
        0
470

  0
HATCH
  5
1B
330
2
100
AcDbEntity
  8
图层 1
 62
     7
100
AcDbHatch
 10
0.0
 20
0.0
 30
0.0
210
0.0
220
0.0
230
1.0
  2
SOLID
 70
     1
 71
     0
 91
        1
 92
        1
 93
        2
 72
     4
 94
        3
 73
     0
 74
     0
 95
       56
 96
       52
 40
0.0
 40
0.0
 40
0.0
 40
0.0
 40
0.3527780104152769
 40
0.3527780104152769
 40
0.3527780104152769
 40
0.7055560208305538
 40
0.7055560208305538
 40
0.7055560208305538
 40
1.058334031245828
 40
1.058334031245828
 40
1.058334031245828
 40
1.411112041661104
 40
1.411112041661104
 40
1.411112041661104
 40
1.763890052076384
 40
1.763890052076384
 40
1.763890052076384
 40
2.116668062491659
 40
2.116668062491659
 40
2.116668062491659
 40
2.469446072906936
 40
2.469446072906936
 40
2.469446072906936
 40
2.822224083322215
 40
2.822224083322215
 40
2.822224083322215
 40
3.175002093737492
 40
3.175002093737492
 40
3.175002093737492
 40
3.527780104152768
 40
3.527780104152768
 40
3.527780104152768
 40
3.880558114568044
 40
3.880558114568044
 40
3.880558114568044
 40
4.233336124983321
 40
4.233336124983321
 40
4.233336124983321
 40
4.586114135398599
 40
4.586114135398599
 40
4.586114135398599
 40
4.938892145813873
 40
4.938892145813873
 40
4.938892145813873
 40
5.291670156229153
 40
5.291670156229153
 40
5.291670156229153
 40
5.64444816664443
 40
5.64444816664443
 40
5.64444816664443
 40
5.997226177059705
 40
5.997226177059705
 40
5.997226177059705
 40
5.997226177059705
 10
185.4837187788815
 20
241.4451977396596
 10
185.4837187788815
 20
241.4451977396596
 10
185.4837187788815
 20
241.4028230372367
 10
185.4837187788815
 20
241.4028230372367
 10
185.4837187788815
 20
241.4028230372367
 10
185.5047338752051
 20
241.3604483348137
 10
185.5047338752051
 20
241.3604483348137
 10
185.4520238795082
 20
241.2782827532863
 10
185.4671823096433
 20
241.1897437409066
 10
185.335579575289
 20
241.2119646214456
 10
185.335579575289
 20
241.2119646214456
 10
185.2932048728662
 20
241.2119646214456
 10
185.2932048728662
 20
241.2119646214456
 10
185.2932048728662
 20
241.2119646214456
 10
185.2294705643439
 20
241.2334964824328
 10
185.2294705643439
 20
241.2334964824328
 10
185.2294705643439
 20
241.2334964824328
 10
185.1660807655974
 20
241.2543393238685
 10
185.1660807655974
 20
241.2543393238685
 10
185.1660807655974
 20
241.2543393238685
 10
185.1450656692739
 20
241.2758711848558
 10
185.1450656692739
 20
241.2758711848558
 10
185.1450656692739
 20
241.2758711848558
 10
185.1450656692739
 20
241.2967140262914
 10
185.1450656692739
 20
241.2967140262914
 10
185.1450656692739
 20
241.2967140262914
 10
185.1237060631745
 20
241.3604483348137
 10
185.1237060631745
 20
241.3604483348137
 10
185.1237060631745
 20
241.3604483348137
 10
185.1237060631745
 20
241.4028230372367
 10
185.1237060631745
 20
241.4028230372367
 10
185.1237060631745
 20
241.4028230372367
 10
185.1660807655974
 20
241.4875724420825
 10
185.1660807655974
 20
241.4875724420825
 10
185.1660807655974
 20
241.4875724420825
 10
185.2084554680203
 20
241.5085875384061
 10
185.2084554680203
 20
241.5085875384061
 10
185.2084554680203
 20
241.5085875384061
 10
185.2718452667668
 20
241.5297748896175
 10
185.2718452667668
 20
241.5297748896175
 10
185.2718452667668
 20
241.5297748896175
 10
185.3565946716127
 20
241.5297748896175
 10
185.3565946716127
 20
241.5297748896175
 10
185.3565946716127
 20
241.5297748896175
 10
185.4199844703592
 20
241.5085875384061
 10
185.4199844703592
 20
241.5085875384061
 10
185.4199844703592
 20
241.5085875384061
 10
185.4623591727821
 20
241.4875724420825
 10
185.4623591727821
 20
241.4875724420825
 10
185.4623591727821
 20
241.4875724420825
 10
185.4837187788815
 20
241.4451977396596
 10
185.4837187788815
 20
241.4451977396596
 72
     1
 10
185.4837187788815
 20
241.4451977396596
 11
185.4837187788815
 21
241.4451977396596
 97
        0
 75
     0
 76
     1
 98
        0
450
        0
451
        0
460
0.0
461
0.0
452
        0
462
0.0
453
        0
470

  0
HATCH
  5
1C
330
2
100
AcDbEntity
  8
图层 1
 62
     7
100
AcDbHatch
 10
0.0
 20
0.0
 30
0.0
210
0.0
220
0.0
230
1.0
  2
SOLID
 70
     1
 71
     0
 91
        1
 92
        1
 93
        2
 72
     4
 94
        3
 73
     0
 74
     0
 95
       38
 96
       34
 40
0.0
 40
0.0
 40
0.0
 40
0.0
 40
0.3527780104152769
 40
0.3527780104152769
 40
0.3527780104152769
 40
0.7055560208305538
 40
0.7055560208305538
 40
0.7055560208305538
 40
1.058334031245828
 40
1.058334031245828
 40
1.058334031245828
 40
1.411112041661104
 40
1.411112041661104
 40
1.411112041661104
 40
1.763890052076384
 40
1.763890052076384
 40
1.763890052076384
 40
2.116668062491659
 40
2.116668062491659
 40
2.116668062491659
 40
2.469446072906936
 40
2.469446072906936
 40
2.469446072906936
 40
2.822224083322215
 40
2.822224083322215
 40
2.822224083322215
 40
3.175002093737492
 40
3.175002093737492
 40
3.175002093737492
 40
3.527780104152768
 40
3.527780104152768
 40
3.527780104152768
 40
3.880558114568044
 40
3.880558114568044
 40
3.880558114568044
 40
3.880558114568044
 10
185.907121293335
 20
220.1937677098971
 10
185.9005756075949
 20
220.0449394867532
 10
185.9329595265197
 20
220.1136691870245
 10
185.864746590912
 20
219.9817219428946
 10
185.864746590912
 20
219.9817219428946
 10
185.822371888489
 20
219.9605345916831
 10
185.822371888489
 20
219.9605345916831
 10
185.822371888489
 20
219.9605345916831
 10
185.6528730787974
 20
219.9605345916831
 10
185.6528730787974
 20
219.9605345916831
 10
185.6528730787974
 20
219.9605345916831
 10
185.5894832800509
 20
220.002909294106
 10
185.5894832800509
 20
220.002909294106
 10
185.5894832800509
 20
220.002909294106
 10
185.5681236739515
 20
220.0240966453175
 10
185.5681236739515
 20
220.0240966453175
 10
185.5681236739515
 20
220.0240966453175
 10
185.5681236739515
 20
220.045283996529
 10
185.5681236739515
 20
220.045283996529
 10
185.5681236739515
 20
220.045283996529
 10
185.547108577628
 20
220.0876586989519
 10
185.547108577628
 20
220.0876586989519
 10
185.547108577628
 20
220.0876586989519
 10
185.547108577628
 20
220.1513930074742
 10
185.547108577628
 20
220.1513930074742
 10
185.547108577628
 20
220.1513930074742
 10
185.5894832800509
 20
220.23614241232
 10
185.5894832800509
 20
220.23614241232
 10
185.5894832800509
 20
220.23614241232
 10
185.6318579824738
 20
220.2573297635315
 10
185.6318579824738
 20
220.2573297635315
 10
185.7055830744942
 20
220.2566407439799
 10
185.8416644359337
 20
220.3310548555519
 10
185.907121293335
 20
220.1937677098971
 72
     1
 10
185.907121293335
 20
220.1937677098971
 11
185.907121293335
 21
220.1937677098971
 97
        0
 75
     0
 76
     1
 98
        0
450
        0
451
        0
460
0.0
461
0.0
452
        0
462
0.0
453
        0
470

  0
HATCH
  5
1D
330
2
100
AcDbEntity
  8
图层 1
 62
     7
100
AcDbHatch
 10
0.0
 20
0.0
 30
0.0
210
0.0
220
0.0
230
1.0
  2
SOLID
 70
     1
 71
     0
 91
        1
 92
        1
 93
        2
 72
     4
 94
        3
 73
     0
 74
     0
 95
       50
 96
       46
 40
0.0
 40
0.0
 40
0.0
 40
0.0
 40
0.3527780104152769
 40
0.3527780104152769
 40
0.3527780104152769
 40
0.7055560208305538
 40
0.7055560208305538
 40
0.7055560208305538
 40
1.058334031245828
 40
1.058334031245828
 40
1.058334031245828
 40
1.411112041661104
 40
1.411112041661104
 40
1.411112041661104
 40
1.763890052076384
 40
1.763890052076384
 40
1.763890052076384
 40
2.116668062491659
 40
2.116668062491659
 40
2.116668062491659
 40
2.469446072906936
 40
2.469446072906936
 40
2.469446072906936
 40
2.822224083322215
 40
2.822224083322215
 40
2.822224083322215
 40
3.175002093737492
 40
3.175002093737492
 40
3.175002093737492
 40
3.527780104152768
 40
3.527780104152768
 40
3.527780104152768
 40
3.880558114568044
 40
3.880558114568044
 40
3.880558114568044
 40
4.233336124983321
 40
4.233336124983321
 40
4.233336124983321
 40
4.586114135398599
 40
4.586114135398599
 40
4.586114135398599
 40
4.938892145813873
 40
4.938892145813873
 40
4.938892145813873
 40
5.291670156229153
 40
5.291670156229153
 40
5.291670156229153
 40
5.291670156229153
 10
180.9117295442905
 20
208.9327766684477
 10
180.9117295442905
 20
208.9327766684477
 10
180.9117295442905
 20
208.7637946234197
 10
180.9117295442905
 20
208.7637946234197
 10
181.2273004989198
 20
208.6749111012643
 10
181.3833634273555
 20
208.6776671794706
 10
181.6948002646751
 20
208.5097186637701
 10
181.9542161258496
 20
208.4294478860095
 10
182.1388733656765
 20
208.2134402565853
 10
182.3297317814676
 20
208.02292635057
 10
182.3297317814676
 20
208.02292635057
 10
182.435496282637
 20
208.065301052993
 10
182.435496282637
 20
208.065301052993
 10
182.288390608372
 20
208.2733849575739
 10
182.3752070718726
 20
208.2134402565853
 10
182.1605774815516
 20
208.3824223016133
 10
182.1605774815516
 20
208.3824223016133
 10
182.1182027791287
 20
208.4247970040363
 10
182.1182027791287
 20
208.4247970040363
 10
182.1182027791287
 20
208.4247970040363
 10
182.0968431730294
 20
208.467516216235
 10
182.0968431730294
 20
208.467516216235
 10
182.0968431730294
 20
208.467516216235
 10
182.0544684706064
 20
208.4883590576707
 10
182.0544684706064
 20
208.4883590576707
 10
182.0544684706064
 20
208.4883590576707
 10
181.9910786718599
 20
208.5305615052057
 10
181.9910786718599
 20
208.5305615052057
 10
181.9910786718599
 20
208.5305615052057
 10
181.948703969437
 20
208.552093366193
 10
181.948703969437
 20
208.552093366193
 10
181.948703969437
 20
208.552093366193
 10
181.9063292670141
 20
208.5729362076286
 10
181.9063292670141
 20
208.5729362076286
 10
181.9063292670141
 20
208.5729362076286
 10
181.8639545645911
 20
208.6156554198274
 10
181.8639545645911
 20
208.6156554198274
 10
181.8639545645911
 20
208.6156554198274
 10
181.821924371944
 20
208.6368427710388
 10
181.821924371944
 20
208.6368427710388
 10
181.6637943848536
 20
208.6742220817127
 10
181.5452830219797
 20
208.8092699138248
 10
181.3771622513911
 20
208.8061693258427
 10
181.2803550043924
 20
208.8573290275484
 10
181.0126709085988
 20
208.8971199066528
 10
180.9117295442905
 20
208.9327766684477
 72
     1
 10
180.9117295442905
 20
208.9327766684477
 11
180.9117295442905
 21
208.9327766684477
 97
        0
 75
     0
 76
     1
 98
        0
450
        0
451
        0
460
0.0
461
0.0
452
        0
462
0.0
453
        0
470

  0
HATCH
  5
1E
330
2
100
AcDbEntity
  8
图层 1
 62
     7
100
AcDbHatch
 10
0.0
 20
0.0
 30
0.0
210
0.0
220
0.0
230
1.0
  2
SOLID
 70
     1
 71
     0
 91
        1
 92
        1
 93
        2
 72
     4
 94
        3
 73
     0
 74
     0
 95
       38
 96
       34
 40
0.0
 40
0.0
 40
0.0
 40
0.0
 40
0.3527780104152769
 40
0.3527780104152769
 40
0.3527780104152769
 40
0.7055560208305538
 40
0.7055560208305538
 40
0.7055560208305538
 40
1.058334031245828
 40
1.058334031245828
 40
1.058334031245828
 40
1.411112041661104
 40
1.411112041661104
 40
1.411112041661104
 40
1.763890052076384
 40
1.763890052076384
 40
1.763890052076384
 40
2.116668062491659
 40
2.116668062491659
 40
2.116668062491659
 40
2.469446072906936
 40
2.469446072906936
 40
2.469446072906936
 40
2.822224083322215
 40
2.822224083322215
 40
2.822224083322215
 40
3.175002093737492
 40
3.175002093737492
 40
3.175002093737492
 40
3.527780104152768
 40
3.527780104152768
 40
3.527780104152768
 40
3.880558114568044
 40
3.880558114568044
 40
3.880558114568044
 40
3.880558114568044
 10
189.145513185819
 20
166.8326485368285
 10
189.207869455238
 20
166.740492171803
 10
189.1317327947871
 20
166.6833035490209
 10
189.103138483396
 20
166.6209472796017
 10
189.103138483396
 20
166.6209472796017
 10
189.0607637809731
 20
166.5997599283903
 10
189.0607637809731
 20
166.5997599283903
 10
189.0607637809731
 20
166.5997599283903
 10
188.9973739822266
 20
166.5785725771788
 10
188.9973739822266
 20
166.5785725771788
 10
188.9973739822266
 20
166.5785725771788
 10
188.9549992798037
 20
166.5997599283903
 10
188.9549992798037
 20
166.5997599283903
 10
188.9549992798037
 20
166.5997599283903
 10
188.8916094810572
 20
166.5997599283903
 10
188.8916094810572
 20
166.5997599283903
 10
188.8916094810572
 20
166.5997599283903
 10
188.8492347786343
 20
166.6209472796017
 10
188.8492347786343
 20
166.6209472796017
 10
188.8492347786343
 20
166.6209472796017
 10
188.8278751725349
 20
166.6633219820247
 10
188.8278751725349
 20
166.6633219820247
 10
188.8278751725349
 20
166.6633219820247
 10
188.8068600762114
 20
166.6845093332361
 10
188.8068600762114
 20
166.6845093332361
 10
188.8068600762114
 20
166.6845093332361
 10
188.8068600762114
 20
166.8326485368285
 10
188.8068600762114
 20
166.8326485368285
 10
188.8068600762114
 20
166.8326485368285
 10
188.8702498749578
 20
166.896038335575
 10
188.8702498749578
 20
166.896038335575
 10
189.0228677056355
 20
166.8819134347673
 10
189.0686875058164
 20
166.9411691162043
 10
189.145513185819
 20
166.8326485368285
 72
     1
 10
189.145513185819
 20
166.8326485368285
 11
189.145513185819
 21
166.8326485368285
 97
        0
 75
     0
 76
     1
 98
        0
450
        0
451
        0
460
0.0
461
0.0
452
        0
462
0.0
453
        0
470

  0
HATCH
  5
1F
330
2
100
AcDbEntity
  8
图层 1
 62
     7
100
AcDbHatch
 10
0.0
 20
0.0
 30
0.0
210
0.0
220
0.0
230
1.0
  2
SOLID
 70
     1
 71
     0
 91
        1
 92
        1
 93
        2
 72
     4
 94
        3
 73
     0
 74
     0
 95
       68
 96
       64
 40
0.0
 40
0.0
 40
0.0
 40
0.0
 40
0.3527780104152769
 40
0.3527780104152769
 40
0.3527780104152769
 40
0.7055560208305538
 40
0.7055560208305538
 40
0.7055560208305538
 40
1.058334031245828
 40
1.058334031245828
 40
1.058334031245828
 40
1.411112041661104
 40
1.411112041661104
 40
1.411112041661104
 40
1.763890052076384
 40
1.763890052076384
 40
1.763890052076384
 40
2.116668062491659
 40
2.116668062491659
 40
2.116668062491659
 40
2.469446072906936
 40
2.469446072906936
 40
2.469446072906936
 40
2.822224083322215
 40
2.822224083322215
 40
2.822224083322215
 40
3.175002093737492
 40
3.175002093737492
 40
3.175002093737492
 40
3.527780104152768
 40
3.527780104152768
 40
3.527780104152768
 40
3.880558114568044
 40
3.880558114568044
 40
3.880558114568044
 40
4.233336124983321
 40
4.233336124983321
 40
4.233336124983321
 40
4.586114135398599
 40
4.586114135398599
 40
4.586114135398599
 40
4.938892145813873
 40
4.938892145813873
 40
4.938892145813873
 40
5.291670156229153
 40
5.291670156229153
 40
5.291670156229153
 40
5.64444816664443
 40
5.64444816664443
 40
5.64444816664443
 40
5.997226177059705
 40
5.997226177059705
 40
5.997226177059705
 40
6.350004187474984
 40
6.350004187474984
 40
6.350004187474984
 40
6.702782197890257
 40
6.702782197890257
 40
6.702782197890257
 40
7.055560208305537
 40
7.055560208305537
 40
7.055560208305537
 40
7.408338218720808
 40
7.408338218720808
 40
7.408338218720808
 40
7.408338218720808
 10
174.7732543591544
 20
135.4846705078077
 10
174.7732543591544
 20
135.4846705078077
 10
174.7732543591544
 20
135.3789060066383
 10
174.7732543591544
 20
135.3789060066383
 10
174.7732543591544
 20
135.3789060066383
 10
174.8156290615773
 20
135.3789060066383
 10
174.8156290615773
 20
135.3789060066383
 10
174.8156290615773
 20
135.3789060066383
 10
174.8580037640002
 20
135.3578909103147
 10
174.8580037640002
 20
135.3578909103147
 10
174.8580037640002
 20
135.3578909103147
 10
174.9213935627468
 20
135.3578909103147
 10
174.9213935627468
 20
135.3578909103147
 10
174.9213935627468
 20
135.3578909103147
 10
174.9637682651697
 20
135.3365313042154
 10
174.9637682651697
 20
135.3365313042154
 10
174.9637682651697
 20
135.3365313042154
 10
174.9847833614933
 20
135.3365313042154
 10
174.9847833614933
 20
135.3365313042154
 10
174.9847833614933
 20
135.3365313042154
 10
175.0271580639162
 20
135.3155162078918
 10
175.0271580639162
 20
135.3155162078918
 10
175.0271580639162
 20
135.3155162078918
 10
175.0485176700155
 20
135.2941566017924
 10
175.0485176700155
 20
135.2941566017924
 10
175.0485176700155
 20
135.2941566017924
 10
175.0695327663391
 20
135.2941566017924
 10
175.0695327663391
 20
135.2941566017924
 10
175.0695327663391
 20
135.2941566017924
 10
175.0908923724385
 20
135.2731415054689
 10
175.0908923724385
 20
135.2731415054689
 10
175.0908923724385
 20
135.2731415054689
 10
175.1332670748614
 20
135.2731415054689
 10
175.1332670748614
 20
135.2731415054689
 10
175.1332670748614
 20
135.2731415054689
 10
175.154282171185
 20
135.2517818993695
 10
175.154282171185
 20
135.2517818993695
 10
175.154282171185
 20
135.2517818993695
 10
175.154282171185
 20
135.3578909103147
 10
175.154282171185
 20
135.3578909103147
 10
175.154282171185
 20
135.3578909103147
 10
175.1332670748614
 20
135.3789060066383
 10
175.1332670748614
 20
135.3789060066383
 10
175.1332670748614
 20
135.3789060066383
 10
175.0908923724385
 20
135.3789060066383
 10
175.0908923724385
 20
135.3789060066383
 10
175.0908923724385
 20
135.3789060066383
 10
175.0908923724385
 20
135.3999211029619
 10
175.0908923724385
 20
135.3999211029619
 10
175.0908923724385
 20
135.3999211029619
 10
175.0695327663391
 20
135.3999211029619
 10
175.0695327663391
 20
135.3999211029619
 10
175.0695327663391
 20
135.3999211029619
 10
175.0271580639162
 20
135.4212807090612
 10
175.0271580639162
 20
135.4212807090612
 10
175.0271580639162
 20
135.4212807090612
 10
175.0061429675926
 20
135.4212807090612
 10
175.0061429675926
 20
135.4212807090612
 10
175.0061429675926
 20
135.4212807090612
 10
174.9637682651697
 20
135.4422958053848
 10
174.9637682651697
 20
135.4422958053848
 10
174.8996894468716
 20
135.4498750204523
 10
174.8394002361073
 20
135.4860485469109
 10
174.7732543591544
 20
135.4846705078077
 72
     1
 10
174.7732543591544
 20
135.4846705078077
 11
174.7732543591544
 21
135.4846705078077
 97
        0
 75
     0
 76
     1
 98
        0
450
        0
451
        0
460
0.0
461
0.0
452
        0
462
0.0
453
        0
470

  0
HATCH
  5
20
330
2
100
AcDbEntity
  8
图层 1
 62
     7
100
AcDbHatch
 10
0.0
 20
0.0
 30
0.0
210
0.0
220
0.0
230
1.0
  2
SOLID
 70
     1
 71
     0
 91
        1
 92
        1
 93
        2
 72
     4
 94
        3
 73
     0
 74
     0
 95
       29
 96
       25
 40
0.0
 40
0.0
 40
0.0
 40
0.0
 40
0.3527780104152769
 40
0.3527780104152769
 40
0.3527780104152769
 40
0.7055560208305538
 40
0.7055560208305538
 40
0.7055560208305538
 40
1.058334031245828
 40
1.058334031245828
 40
1.058334031245828
 40
1.411112041661104
 40
1.411112041661104
 40
1.411112041661104
 40
1.763890052076384
 40
1.763890052076384
 40
1.763890052076384
 40
2.116668062491659
 40
2.116668062491659
 40
2.116668062491659
 40
2.469446072906936
 40
2.469446072906936
 40
2.469446072906936
 40
2.822224083322215
 40
2.822224083322215
 40
2.822224083322215
 40
2.822224083322215
 10
175.4929352807925
 20
164.0174869039101
 10
175.4929352807925
 20
164.0174869039101
 10
175.5139503771161
 20
163.9751122014871
 10
175.5139503771161
 20
163.9751122014871
 10
175.5139503771161
 20
163.9751122014871
 10
175.5139503771161
 20
163.9327374990642
 10
175.5139503771161
 20
163.9327374990642
 10
175.5139503771161
 20
163.9327374990642
 10
175.4929352807925
 20
163.8903627966413
 10
175.4929352807925
 20
163.8903627966413
 10
175.4929352807925
 20
163.8903627966413
 10
175.471920184469
 20
163.8691754454298
 10
175.471920184469
 20
163.8691754454298
 10
175.471920184469
 20
163.8691754454298
 10
175.4505605783696
 20
163.8269729978948
 10
175.4505605783696
 20
163.8269729978948
 10
175.3571984291289
 20
163.7715069239916
 10
175.272449024283
 20
163.8195660377152
 10
175.1966568736079
 20
163.8691754454298
 10
175.208370205985
 20
163.9930267098286
 10
175.1563492298397
 20
164.0216210212197
 10
175.2600466723544
 20
164.0596893514451
 10
175.3330827448232
 20
164.1094710140476
 10
175.4357466580104
 20
164.0753645462439
 10
175.4929352807925
 20
164.0174869039101
 72
     1
 10
175.4929352807925
 20
164.0174869039101
 11
175.4929352807925
 21
164.0174869039101
 97
        0
 75
     0
 76
     1
 98
        0
450
        0
451
        0
460
0.0
461
0.0
452
        0
462
0.0
453
        0
470

  0
HATCH
  5
21
330
2
100
AcDbEntity
  8
图层 1
 62
     7
100
AcDbHatch
 10
0.0
 20
0.0
 30
0.0
210
0.0
220
0.0
230
1.0
  2
SOLID
 70
     1
 71
     0
 91
        1
 92
        1
 93
        2
 72
     4
 94
        3
 73
     0
 74
     0
 95
       11
 96
        7
 40
0.0
 40
0.0
 40
0.0
 40
0.0
 40
0.3527780104152769
 40
0.3527780104152769
 40
0.3527780104152769
 40
0.7055560208305538
 40
0.7055560208305538
 40
0.7055560208305538
 40
0.7055560208305538
 10
174.9213935627468
 20
174.5369206529582
 10
174.9213935627468
 20
174.5369206529582
 10
174.9213935627468
 20
174.3043765542958
 10
174.9213935627468
 20
174.3043765542958
 10
174.9213935627468
 20
174.3043765542958
 10
174.9213935627468
 20
174.5369206529582
 10
174.9213935627468
 20
174.5369206529582
 72
     1
 10
174.9213935627468
 20
174.5369206529582
 11
174.9213935627468
 21
174.5369206529582
 97
        0
 75
     0
 76
     1
 98
        0
450
        0
451
        0
460
0.0
461
0.0
452
        0
462
0.0
453
        0
470

  0
HATCH
  5
22
330
2
100
AcDbEntity
  8
图层 1
 62
     7
100
AcDbHatch
 10
0.0
 20
0.0
 30
0.0
210
0.0
220
0.0
230
1.0
  2
SOLID
 70
     1
 71
     0
 91
        1
 92
        1
 93
        2
 72
     4
 94
        3
 73
     0
 74
     0
 95
      131
 96
      127
 40
0.0
 40
0.0
 40
0.0
 40
0.0
 40
0.3527780104152769
 40
0.3527780104152769
 40
0.3527780104152769
 40
0.7055560208305538
 40
0.7055560208305538
 40
0.7055560208305538
 40
1.058334031245828
 40
1.058334031245828
 40
1.058334031245828
 40
1.411112041661104
 40
1.411112041661104
 40
1.411112041661104
 40
1.763890052076384
 40
1.763890052076384
 40
1.763890052076384
 40
2.116668062491659
 40
2.116668062491659
 40
2.116668062491659
 40
2.469446072906936
 40
2.469446072906936
 40
2.469446072906936
 40
2.822224083322215
 40
2.822224083322215
 40
2.822224083322215
 40
3.175002093737492
 40
3.175002093737492
 40
3.175002093737492
 40
3.527780104152768
 40
3.527780104152768
 40
3.527780104152768
 40
3.880558114568044
 40
3.880558114568044
 40
3.880558114568044
 40
4.233336124983321
 40
4.233336124983321
 40
4.233336124983321
 40
4.586114135398599
 40
4.586114135398599
 40
4.586114135398599
 40
4.938892145813873
 40
4.938892145813873
 40
4.938892145813873
 40
5.291670156229153
 40
5.291670156229153
 40
5.291670156229153
 40
5.64444816664443
 40
5.64444816664443
 40
5.64444816664443
 40
5.997226177059705
 40
5.997226177059705
 40
5.997226177059705
 40
6.350004187474984
 40
6.350004187474984
 40
6.350004187474984
 40
6.702782197890257
 40
6.702782197890257
 40
6.702782197890257
 40
7.055560208305537
 40
7.055560208305537
 40
7.055560208305537
 40
7.408338218720808
 40
7.408338218720808
 40
7.408338218720808
 40
7.76111622913609
 40
7.76111622913609
 40
7.76111622913609
 40
8.113894239551369
 40
8.113894239551369
 40
8.113894239551369
 40
8.466672249966642
 40
8.466672249966642
 40
8.466672249966642
 40
8.819450260381922
 40
8.819450260381922
 40
8.819450260381922
 40
9.172228270797198
 40
9.172228270797198
 40
9.172228270797198
 40
9.525006281212476
 40
9.525006281212476
 40
9.525006281212476
 40
9.877784291627751
 40
9.877784291627751
 40
9.877784291627751
 40
10.23056230204303
 40
10.23056230204303
 40
10.23056230204303
 40
10.58334031245831
 40
10.58334031245831
 40
10.58334031245831
 40
10.93611832287358
 40
10.93611832287358
 40
10.93611832287358
 40
11.28889633328886
 40
11.28889633328886
 40
11.28889633328886
 40
11.64167434370414
 40
11.64167434370414
 40
11.64167434370414
 40
11.99445235411941
 40
11.99445235411941
 40
11.99445235411941
 40
12.34723036453469
 40
12.34723036453469
 40
12.34723036453469
 40
12.70000837494997
 40
12.70000837494997
 40
12.70000837494997
 40
13.05278638536524
 40
13.05278638536524
 40
13.05278638536524
 40
13.40556439578052
 40
13.40556439578052
 40
13.40556439578052
 40
13.7583424061958
 40
13.7583424061958
 40
13.7583424061958
 40
14.11112041661107
 40
14.11112041661107
 40
14.11112041661107
 40
14.46389842702635
 40
14.46389842702635
 40
14.46389842702635
 40
14.81667643744163
 40
14.81667643744163
 40
14.81667643744163
 40
14.81667643744163
 10
173.3972823146245
 20
126.8274843518258
 10
173.3972823146245
 20
126.8274843518258
 10
173.3972823146245
 20
126.7217198506564
 10
173.3972823146245
 20
126.7217198506564
 10
173.3972823146245
 20
126.7217198506564
 10
173.4186419207238
 20
126.7217198506564
 10
173.4186419207238
 20
126.7217198506564
 10
173.4186419207238
 20
126.7217198506564
 10
173.4820317194703
 20
126.7007047543328
 10
173.4820317194703
 20
126.7007047543328
 10
173.4820317194703
 20
126.7007047543328
 10
173.5244064218933
 20
126.6793451482334
 10
173.5244064218933
 20
126.6793451482334
 10
173.5244064218933
 20
126.6793451482334
 10
173.5877962206398
 20
126.6793451482334
 10
173.5877962206398
 20
126.6793451482334
 10
173.5877962206398
 20
126.6793451482334
 10
173.6301709230627
 20
126.6583300519099
 10
173.6301709230627
 20
126.6583300519099
 10
173.7955356154449
 20
126.5911506456296
 10
173.759706598762
 20
126.6380039751379
 10
173.9478089363468
 20
126.5525655507404
 10
173.9478089363468
 20
126.5525655507404
 10
173.9688240326703
 20
126.4464565397952
 10
173.9688240326703
 20
126.4464565397952
 10
173.9688240326703
 20
126.4464565397952
 10
174.0325583411926
 20
126.5101908483175
 10
174.0325583411926
 20
126.5101908483175
 10
174.0325583411926
 20
126.5101908483175
 10
174.0749330436156
 20
126.5101908483175
 10
174.0749330436156
 20
126.5101908483175
 10
174.0749330436156
 20
126.5101908483175
 10
174.1593379386856
 20
126.4678161458946
 10
174.1593379386856
 20
126.4678161458946
 10
174.1593379386856
 20
126.4678161458946
 10
174.180697544785
 20
126.4464565397952
 10
174.180697544785
 20
126.4464565397952
 10
174.2464989119621
 20
126.3982251711837
 10
174.3298702777047
 20
126.3716979184474
 10
174.3922265471239
 20
126.3196769423022
 10
174.608234176548
 20
126.2059887162895
 10
174.7749769080334
 20
126.0278771622029
 10
174.9637682651697
 20
125.8749148217494
 10
174.9637682651697
 20
125.8749148217494
 10
175.0061429675926
 20
125.9172895241723
 10
175.0061429675926
 20
125.9172895241723
 10
174.961356696739
 20
125.9631093243532
 10
174.782211613325
 20
126.1246844092016
 10
174.7308796567315
 20
126.1501781326105
 10
174.7308796567315
 20
126.1501781326105
 10
174.6885049543085
 20
126.1925528350335
 10
174.6885049543085
 20
126.1925528350335
 10
174.6885049543085
 20
126.1925528350335
 10
174.667489857985
 20
126.2349275374564
 10
174.667489857985
 20
126.2349275374564
 10
174.667489857985
 20
126.2349275374564
 10
174.625115155562
 20
126.2559426337799
 10
174.625115155562
 20
126.2559426337799
 10
174.625115155562
 20
126.2559426337799
 10
174.5827404531391
 20
126.2983173362029
 10
174.5827404531391
 20
126.2983173362029
 10
174.5827404531391
 20
126.2983173362029
 10
174.5403657507162
 20
126.3196769423022
 10
174.5403657507162
 20
126.3196769423022
 10
174.5403657507162
 20
126.3196769423022
 10
174.4979910482932
 20
126.3620516447252
 10
174.4979910482932
 20
126.3620516447252
 10
174.4735308542117
 20
126.3875453681341
 10
174.3247026310678
 20
126.4695386947736
 10
174.2864620459544
 20
126.4888312422181
 10
174.2864620459544
 20
126.4888312422181
 10
174.2654469496308
 20
126.5101908483175
 10
174.2654469496308
 20
126.5101908483175
 10
174.2654469496308
 20
126.5101908483175
 10
174.2230722472079
 20
126.5312059446411
 10
174.2230722472079
 20
126.5312059446411
 10
174.2230722472079
 20
126.5312059446411
 10
174.2017126411085
 20
126.5525655507404
 10
174.2017126411085
 20
126.5525655507404
 10
174.2017126411085
 20
126.5525655507404
 10
174.1383228423621
 20
126.573580647064
 10
174.1383228423621
 20
126.573580647064
 10
174.1383228423621
 20
126.573580647064
 10
174.1169632362627
 20
126.5945957433876
 10
174.1169632362627
 20
126.5945957433876
 10
174.1169632362627
 20
126.5945957433876
 10
174.0959481399391
 20
126.7007047543328
 10
174.0959481399391
 20
126.7007047543328
 10
174.0959481399391
 20
126.7007047543328
 10
174.0325583411926
 20
126.6369704458105
 10
174.0325583411926
 20
126.6369704458105
 10
174.0325583411926
 20
126.6369704458105
 10
173.9901836387697
 20
126.6369704458105
 10
173.9901836387697
 20
126.6369704458105
 10
173.9901836387697
 20
126.6369704458105
 10
173.9054342339239
 20
126.6793451482334
 10
173.9054342339239
 20
126.6793451482334
 10
173.9054342339239
 20
126.6793451482334
 10
173.8420444351773
 20
126.7007047543328
 10
173.8420444351773
 20
126.7007047543328
 10
173.8420444351773
 20
126.7007047543328
 10
173.7996697327544
 20
126.7217198506564
 10
173.7996697327544
 20
126.7217198506564
 10
173.7996697327544
 20
126.7217198506564
 10
173.7572950303315
 20
126.7217198506564
 10
173.7572950303315
 20
126.7217198506564
 10
173.7572950303315
 20
126.7217198506564
 10
173.6725456254856
 20
126.7640945530793
 10
173.6725456254856
 20
126.7640945530793
 10
173.6725456254856
 20
126.7640945530793
 10
173.6515305291621
 20
126.7640945530793
 10
173.6515305291621
 20
126.7640945530793
 10
173.6515305291621
 20
126.7640945530793
 10
173.5667811243162
 20
126.7851096494029
 10
173.5667811243162
 20
126.7851096494029
 10
173.5667811243162
 20
126.7851096494029
 10
173.5033913255697
 20
126.8064692555022
 10
173.5033913255697
 20
126.8064692555022
 10
173.5033913255697
 20
126.8064692555022
 10
173.4396570170474
 20
126.8064692555022
 10
173.4396570170474
 20
126.8064692555022
 10
173.4396570170474
 20
126.8064692555022
 10
173.4186419207238
 20
126.8274843518258
 10
173.4186419207238
 20
126.8274843518258
 10
173.4186419207238
 20
126.8274843518258
 10
173.3972823146245
 20
126.8274843518258
 10
173.3972823146245
 20
126.8274843518258
 72
     1
 10
173.3972823146245
 20
126.8274843518258
 11
173.3972823146245
 21
126.8274843518258
 97
        0
 75
     0
 76
     1
 98
        0
450
        0
451
        0
460
0.0
461
0.0
452
        0
462
0.0
453
        0
470

  0
HATCH
  5
23
330
2
100
AcDbEntity
  8
图层 1
 62
     7
100
AcDbHatch
 10
0.0
 20
0.0
 30
0.0
210
0.0
220
0.0
230
1.0
  2
SOLID
 70
     1
 71
     0
 91
        1
 92
        1
 93
        2
 72
     4
 94
        3
 73
     0
 74
     0
 95
       47
 96
       43
 40
0.0
 40
0.0
 40
0.0
 40
0.0
 40
0.3527780104152769
 40
0.3527780104152769
 40
0.3527780104152769
 40
0.7055560208305538
 40
0.7055560208305538
 40
0.7055560208305538
 40
1.058334031245828
 40
1.058334031245828
 40
1.058334031245828
 40
1.411112041661104
 40
1.411112041661104
 40
1.411112041661104
 40
1.763890052076384
 40
1.763890052076384
 40
1.763890052076384
 40
2.116668062491659
 40
2.116668062491659
 40
2.116668062491659
 40
2.469446072906936
 40
2.469446072906936
 40
2.469446072906936
 40
2.822224083322215
 40
2.822224083322215
 40
2.822224083322215
 40
3.175002093737492
 40
3.175002093737492
 40
3.175002093737492
 40
3.527780104152768
 40
3.527780104152768
 40
3.527780104152768
 40
3.880558114568044
 40
3.880558114568044
 40
3.880558114568044
 40
4.233336124983321
 40
4.233336124983321
 40
4.233336124983321
 40
4.586114135398599
 40
4.586114135398599
 40
4.586114135398599
 40
4.938892145813873
 40
4.938892145813873
 40
4.938892145813873
 40
4.938892145813873
 10
180.1920486226523
 20
255.6479577566324
 10
180.1920486226523
 20
255.6479577566324
 10
180.2130637189759
 20
255.6055830542095
 10
180.2130637189759
 20
255.6055830542095
 10
180.2130637189759
 20
255.6055830542095
 10
180.2130637189759
 20
255.5210059042515
 10
180.2130637189759
 20
255.5210059042515
 10
180.2130637189759
 20
255.5210059042515
 10
180.1920486226523
 20
255.4786312018286
 10
180.1920486226523
 20
255.4786312018286
 10
180.1920486226523
 20
255.4786312018286
 10
180.1496739202294
 20
255.4359119896299
 10
180.1496739202294
 20
255.4359119896299
 10
180.1496739202294
 20
255.4359119896299
 10
180.1283143141301
 20
255.4147246384184
 10
180.1283143141301
 20
255.4147246384184
 10
180.1283143141301
 20
255.4147246384184
 10
180.0225498129606
 20
255.4147246384184
 10
180.0225498129606
 20
255.4147246384184
 10
180.0225498129606
 20
255.4147246384184
 10
179.9591600142141
 20
255.4359119896299
 10
179.9591600142141
 20
255.4359119896299
 10
179.9591600142141
 20
255.4359119896299
 10
179.9167853117912
 20
255.4570993408414
 10
179.9167853117912
 20
255.4570993408414
 10
179.9167853117912
 20
255.4570993408414
 10
179.8957702154676
 20
255.4786312018286
 10
179.8957702154676
 20
255.4786312018286
 10
179.8957702154676
 20
255.4786312018286
 10
179.8744106093683
 20
255.4994740432643
 10
179.8744106093683
 20
255.4994740432643
 10
179.8744106093683
 20
255.4994740432643
 10
179.8744106093683
 20
255.6479577566324
 10
179.8744106093683
 20
255.6479577566324
 10
179.9608825630931
 20
255.7323626517025
 10
180.045631967939
 20
255.7085914771726
 10
180.1496739202294
 20
255.7115198102668
 10
180.1496739202294
 20
255.7115198102668
 10
180.170689016553
 20
255.6688005980681
 10
180.170689016553
 20
255.6688005980681
 10
180.170689016553
 20
255.6688005980681
 10
180.1920486226523
 20
255.6479577566324
 10
180.1920486226523
 20
255.6479577566324
 72
     1
 10
180.1920486226523
 20
255.6479577566324
 11
180.1920486226523
 21
255.6479577566324
 97
        0
 75
     0
 76
     1
 98
        0
450
        0
451
        0
460
0.0
461
0.0
452
        0
462
0.0
453
        0
470

  0
MTEXT
  5
481
330
2
100
AcDbEntity
  8
图框
100
AcDbMText
 10
662.1309990783685
 20
248.5973114002738
 30
0.0
 40
1.200004709114095
 41
9.110347256148225
 46
2.7044443736324
 71
     5
 72
     5
  1
{\C4;CDSF-0.37B}
  7
Romans字体
 73
     1
 44
1.0
1001
ACAD
1000
ACAD_MTEXT_DEFINED_HEIGHT_BEGIN
1070
    46
1040
2.7044443736324
1000
ACAD_MTEXT_DEFINED_HEIGHT_END
  0
MTEXT
  5
482
330
2
100
AcDbEntity
  8
图框
100
AcDbMText
 10
672.753006704626
 20
248.5973114002738
 30
0.0
 40
1.200004709114095
 41
12.13366799636652
 46
2.704444373632686
 71
     5
 72
     5
  1
{\C4;1010171200303}
  7
Romans字体
 73
     1
 44
1.0
1001
ACAD
1000
ACAD_MTEXT_DEFINED_HEIGHT_BEGIN
1070
    46
1040
2.704444373632686
1000
ACAD_MTEXT_DEFINED_HEIGHT_END
  0
MTEXT
  5
483
330
2
100
AcDbEntity
  8
图框
100
AcDbMText
 10
672.753006704626
 20
245.892867026641
 30
0.0
 40
1.200004709114095
 41
12.13366799636652
 46
2.704444373632686
 71
     5
 72
     5
  1
{\C4;1010171200403}
  7
Romans字体
 73
     1
 44
1.0
1001
ACAD
1000
ACAD_MTEXT_DEFINED_HEIGHT_BEGIN
1070
    46
1040
2.704444373632686
1000
ACAD_MTEXT_DEFINED_HEIGHT_END
  0
MTEXT
  5
484
330
2
100
AcDbEntity
  8
图框
100
AcDbMText
 10
672.753006704626
 20
243.1884226530104
 30
0.0
 40
1.200004709114095
 41
12.13366799636652
 46
2.704444373632686
 71
     5
 72
     5
  1
{\C4;1010171200603}
  7
Romans字体
 73
     1
 44
1.0
1001
ACAD
1000
ACAD_MTEXT_DEFINED_HEIGHT_BEGIN
1070
    46
1040
2.704444373632686
1000
ACAD_MTEXT_DEFINED_HEIGHT_END
  0
MTEXT
  5
485
330
2
100
AcDbEntity
  8
图框
100
AcDbMText
 10
672.753006704626
 20
240.48397827938
 30
0.0
 40
1.200004709114095
 41
12.13366799636652
 46
2.704444373632686
 71
     5
 72
     5
  1
{\C4;1010171200803}
  7
Romans字体
 73
     1
 44
1.0
1001
ACAD
1000
ACAD_MTEXT_DEFINED_HEIGHT_BEGIN
1070
    46
1040
2.704444373632686
1000
ACAD_MTEXT_DEFINED_HEIGHT_END
  0
MTEXT
  5
486
330
2
100
AcDbEntity
  8
图框
100
AcDbMText
 10
672.753006704626
 20
237.7795339057497
 30
0.0
 40
1.200004709114095
 41
12.13366799636652
 46
2.704444373632686
 71
     5
 72
     5
  1
{\C4;1010171200903}
  7
Romans字体
 73
     1
 44
1.0
1001
ACAD
1000
ACAD_MTEXT_DEFINED_HEIGHT_BEGIN
1070
    46
1040
2.704444373632686
1000
ACAD_MTEXT_DEFINED_HEIGHT_END
  0
LINE
  5
487
330
2
100
AcDbEntity
  8
图框
370
    -3
100
AcDbLine
 10
678.8198407028089
 20
252.6539779607209
 30
0.0
 11
692.538972551523
 21
252.6539779607208
 31
0.0
  0
LINE
  5
488
330
2
100
AcDbEntity
  8
图框
370
    -3
100
AcDbLine
 10
657.5758254502942
 20
249.9495335870902
 30
0.0
 11
721.7473154377346
 21
249.9495335870919
 31
0.0
  0
LINE
  5
489
330
2
100
AcDbEntity
  8
图框
370
    -3
100
AcDbLine
 10
657.5758254502942
 20
247.245089213458
 30
0.0
 11
721.7473154377346
 21
247.2450892134579
 31
0.0
  0
MTEXT
  5
48A
330
2
100
AcDbEntity
  8
图框
100
AcDbMText
 10
685.6795247712895
 20
254.0062001476058
 30
0.0
 40
1.200004709114095
 41
13.71936813429338
 46
2.704444373770122
 71
     5
 72
     5
  1
{\fFangSong_GB2312|b0|i0|c134|p49;\C4;线径\Fromans|c134;/Wire Gauge}
  7
Romans字体
 73
     1
 44
1.0
1001
ACAD
1000
ACAD_MTEXT_DEFINED_HEIGHT_BEGIN
1070
    46
1040
2.704444373770122
1000
ACAD_MTEXT_DEFINED_HEIGHT_END
  0
LINE
  5
48B
330
2
100
AcDbEntity
  8
图框
370
    -3
100
AcDbLine
 10
657.5758254502942
 20
244.540644839828
 30
0.0
 11
721.7473154377345
 21
244.5406448398277
 31
0.0
  0
MTEXT
  5
48C
330
2
100
AcDbEntity
  8
图框
100
AcDbMText
 10
689.5890678735256
 20
251.3016857059876
 30
0.0
 40
1.200004709114095
 41
5.899809355995848
 46
2.704304237791748
 71
     5
 72
     5
  1
{\C4;AWG}
  7
Romans字体
 73
     1
 44
1.0
1001
ACAD
1000
ACAD_MTEXT_DEFINED_HEIGHT_BEGIN
1070
    46
1040
2.704304237791748
1000
ACAD_MTEXT_DEFINED_HEIGHT_END
  0
MTEXT
  5
48D
330
2
100
AcDbEntity
  8
图框
100
AcDbMText
 10
682.7295019491685
 20
251.301755773906
 30
0.0
 40
1.200004709114095
 41
7.819322492718732
 46
2.704444373629514
 71
     5
 72
     5
  1
\A1;{\C4;mm\H0.7x;\S2^  ;}
  7
Romans字体
 73
     1
 44
1.0
1001
ACAD
1000
ACAD_MTEXT_DEFINED_HEIGHT_BEGIN
1070
    46
1040
2.704444373629514
1000
ACAD_MTEXT_DEFINED_HEIGHT_END
  0
MTEXT
  5
48E
330
2
100
AcDbEntity
  8
图框
100
AcDbMText
 10
682.7295019498359
 20
248.5973114002743
 30
0.0
 40
1.200004709114095
 41
7.819322494052451
 46
2.704444373633
 71
     5
 72
     5
  1
{\C4;0.14-0.37}
  7
Romans字体
 73
     1
 44
1.0
1001
ACAD
1000
ACAD_MTEXT_DEFINED_HEIGHT_BEGIN
1070
    46
1040
2.704444373633
1000
ACAD_MTEXT_DEFINED_HEIGHT_END
  0
MTEXT
  5
48F
330
2
100
AcDbEntity
  8
图框
100
AcDbMText
 10
682.7295019498359
 20
245.892867026643
 30
0.0
 40
1.200004709114095
 41
7.819322494052451
 46
2.704444373630458
 71
     5
 72
     5
  1
{\C4;0.5}
  7
Romans字体
 73
     1
 44
1.0
1001
ACAD
1000
ACAD_MTEXT_DEFINED_HEIGHT_BEGIN
1070
    46
1040
2.704444373630458
1000
ACAD_MTEXT_DEFINED_HEIGHT_END
  0
MTEXT
  5
490
330
2
100
AcDbEntity
  8
图框
100
AcDbMText
 10
689.5890678741928
 20
248.5973114002748
 30
0.0
 40
1.200004709114095
 41
5.899809357329702
 46
2.70444437363327
 71
     5
 72
     5
  1
{\C4;26-22}
  7
Romans字体
 73
     1
 44
1.0
1001
ACAD
1000
ACAD_MTEXT_DEFINED_HEIGHT_BEGIN
1070
    46
1040
2.70444437363327
1000
ACAD_MTEXT_DEFINED_HEIGHT_END
  0
MTEXT
  5
491
330
2
100
AcDbEntity
  8
图框
100
AcDbMText
 10
689.5890678748594
 20
245.892867026643
 30
0.0
 40
1.200004709114095
 41
5.899809355996246
 46
2.704444373630328
 71
     5
 72
     5
  1
{\C4;20}
  7
Romans字体
 73
     1
 44
1.0
1001
ACAD
1000
ACAD_MTEXT_DEFINED_HEIGHT_BEGIN
1070
    46
1040
2.704444373630328
1000
ACAD_MTEXT_DEFINED_HEIGHT_END
  0
MTEXT
  5
492
330
2
100
AcDbEntity
  8
图框
100
AcDbMText
 10
672.753006703293
 20
252.6538978893032
 30
0.0
 40
1.200004709114095
 41
12.13366799636652
 46
5.408728604425678
 71
     5
 72
     5
  1
{\fFangSong_GB2312|b0|i0|c134|p49;\C4;产品料号\Fromans|c134;\PPart NO.}
  7
Romans字体
 73
     1
 44
1.0
1001
ACAD
1000
ACAD_MTEXT_DEFINED_HEIGHT_BEGIN
1070
    46
1040
5.408728604425678
1000
ACAD_MTEXT_DEFINED_HEIGHT_END
  0
MTEXT
  5
493
330
2
100
AcDbEntity
  8
图框
100
AcDbMText
 10
694.9718762772524
 20
252.6538978893038
 30
0.0
 40
1.200004709114095
 41
4.86580745145943
 46
5.40872860442487
 71
     5
 72
     5
  1
{\C4;d}
  7
Romans字体
 73
     1
 44
1.0
1001
ACAD
1000
ACAD_MTEXT_DEFINED_HEIGHT_BEGIN
1070
    46
1040
5.40872860442487
1000
ACAD_MTEXT_DEFINED_HEIGHT_END
  0
MTEXT
  5
494
330
2
100
AcDbEntity
  8
图框
100
AcDbMText
 10
694.9718762772524
 20
248.5973114002748
 30
0.0
 40
1.200004709114095
 41
4.86580745145896
 46
2.704444373633334
 71
     5
 72
     5
  1
{\C4;0.9}
  7
Romans字体
 73
     1
 44
1.0
1001
ACAD
1000
ACAD_MTEXT_DEFINED_HEIGHT_BEGIN
1070
    46
1040
2.704444373633334
1000
ACAD_MTEXT_DEFINED_HEIGHT_END
  0
MTEXT
  5
495
330
2
100
AcDbEntity
  8
图框
100
AcDbMText
 10
694.9718762772524
 20
245.8928670266426
 30
0.0
 40
1.200004709114095
 41
4.86580745145894
 46
2.704444373630392
 71
     5
 72
     5
  1
{\C4;1.15}
  7
Romans字体
 73
     1
 44
1.0
1001
ACAD
1000
ACAD_MTEXT_DEFINED_HEIGHT_BEGIN
1070
    46
1040
2.704444373630392
1000
ACAD_MTEXT_DEFINED_HEIGHT_END
  0
MTEXT
  5
497
330
2
100
AcDbEntity
  8
图框
100
AcDbMText
 10
699.8376837280456
 20
252.6538978893038
 30
0.0
 40
1.200004709114095
 41
4.865807450125148
 46
5.40872860442487
 71
     5
 72
     5
  1
{\C4;D}
  7
Romans字体
 73
     1
 44
1.0
1001
ACAD
1000
ACAD_MTEXT_DEFINED_HEIGHT_BEGIN
1070
    46
1040
5.40872860442487
1000
ACAD_MTEXT_DEFINED_HEIGHT_END
  0
MTEXT
  5
498
330
2
100
AcDbEntity
  8
图框
100
AcDbMText
 10
699.8376837280456
 20
248.5973114002748
 30
0.0
 40
1.200004709114095
 41
4.86580745012519
 46
2.70444437363364
 71
     5
 72
     5
  1
{\C4;2.6}
  7
Romans字体
 73
     1
 44
1.0
1001
ACAD
1000
ACAD_MTEXT_DEFINED_HEIGHT_BEGIN
1070
    46
1040
2.70444437363364
1000
ACAD_MTEXT_DEFINED_HEIGHT_END
  0
LINE
  5
499
330
2
100
AcDbEntity
  8
图框
370
    35
380
     1
100
AcDbLine
 10
697.4047800029827
 20
255.3584223344908
 30
0.0
 11
697.4047800029831
 21
233.7111284216114
 31
0.0
  0
LINE
  5
49A
330
2
100
AcDbEntity
  8
图框
370
    -3
100
AcDbLine
 10
692.5389725528563
 20
255.3584223344908
 30
0.0
 11
692.538972552859
 21
233.7111284216112
 31
0.0
  0
LINE
  5
49B
330
2
100
AcDbEntity
  8
图框
370
    -3
100
AcDbLine
 10
686.6391631968613
 20
252.6539979678577
 30
0.0
 11
686.639163196861
 21
233.711128421611
 31
0.0
  0
LINE
  5
49C
330
2
100
AcDbEntity
  8
图框
370
    -3
100
AcDbLine
 10
666.6861727064421
 20
233.7111284216106
 30
0.0
 11
666.6861727064421
 21
252.6539979678562
 31
0.0
  0
LINE
  5
49D
330
2
100
AcDbEntity
  8
图框
370
    -3
100
AcDbLine
 10
678.8198407028086
 20
233.7111284216109
 30
0.0
 11
678.8198407028086
 21
255.3584223344903
 31
0.0
  0
MTEXT
  5
49E
330
2
100
AcDbEntity
  8
图框
100
AcDbMText
 10
682.7295019505022
 20
243.1884226530124
 30
0.0
 40
1.19999583169232
 41
7.819322492718756
 46
2.704444373630558
 71
     5
 72
     5
  1
{\C4;0.75}
  7
Romans字体
 73
     1
 44
1.0
1001
ACAD
1000
ACAD_MTEXT_DEFINED_HEIGHT_BEGIN
1070
    46
1040
2.704444373630558
1000
ACAD_MTEXT_DEFINED_HEIGHT_END
  0
MTEXT
  5
49F
330
2
100
AcDbEntity
  8
图框
100
AcDbMText
 10
689.5890678748594
 20
243.1884226530124
 30
0.0
 40
1.19999583169232
 41
5.899809355996548
 46
2.70444437363042
 71
     5
 72
     5
  1
{\C4;18}
  7
Romans字体
 73
     1
 44
1.0
1001
ACAD
1000
ACAD_MTEXT_DEFINED_HEIGHT_BEGIN
1070
    46
1040
2.70444437363042
1000
ACAD_MTEXT_DEFINED_HEIGHT_END
  0
MTEXT
  5
4A0
330
2
100
AcDbEntity
  8
图框
100
AcDbMText
 10
694.97187627792
 20
243.1884226530124
 30
0.0
 40
1.19999583169232
 41
4.86580745012525
 46
2.70444437363049
 71
     5
 72
     5
  1
{\C4;1.3}
  7
Romans字体
 73
     1
 44
1.0
1001
ACAD
1000
ACAD_MTEXT_DEFINED_HEIGHT_BEGIN
1070
    46
1040
2.70444437363049
1000
ACAD_MTEXT_DEFINED_HEIGHT_END
  0
MTEXT
  5
4A1
330
2
100
AcDbEntity
  8
图框
100
AcDbMText
 10
682.7295019505022
 20
240.4796262331324
 30
0.0
 40
1.19999583169232
 41
7.819322492718756
 46
2.695740281131214
 71
     5
 72
     5
  1
{\C4;1.0}
  7
Romans字体
 73
     1
 44
1.0
1001
ACAD
1000
ACAD_MTEXT_DEFINED_HEIGHT_BEGIN
1070
    46
1040
2.695740281131214
1000
ACAD_MTEXT_DEFINED_HEIGHT_END
  0
MTEXT
  5
4A2
330
2
100
AcDbEntity
  8
图框
100
AcDbMText
 10
689.5890678741928
 20
240.4795461616452
 30
0.0
 40
1.19999583169232
 41
5.89980935466336
 46
2.695580138156738
 71
     5
 72
     5
  1
{\C4;18}
  7
Romans字体
 73
     1
 44
1.0
1001
ACAD
1000
ACAD_MTEXT_DEFINED_HEIGHT_BEGIN
1070
    46
1040
2.695580138156738
1000
ACAD_MTEXT_DEFINED_HEIGHT_END
  0
MTEXT
  5
4A3
330
2
100
AcDbEntity
  8
图框
100
AcDbMText
 10
694.971876277254
 20
240.4839782793818
 30
0.0
 40
1.19999583169232
 41
4.86580745145846
 46
2.70444437363049
 71
     5
 72
     5
  1
{\C4;1.45}
  7
Romans字体
 73
     1
 44
1.0
1001
ACAD
1000
ACAD_MTEXT_DEFINED_HEIGHT_BEGIN
1070
    46
1040
2.70444437363049
1000
ACAD_MTEXT_DEFINED_HEIGHT_END
  0
MTEXT
  5
4A4
330
2
100
AcDbEntity
  8
图框
100
AcDbMText
 10
699.8376837280456
 20
237.7765991748282
 30
0.0
 40
1.19999583169232
 41
4.865807450125188
 46
2.71031383547714
 71
     5
 72
     5
  1
{\C4;3.0}
  7
Romans字体
 73
     1
 44
1.0
1001
ACAD
1000
ACAD_MTEXT_DEFINED_HEIGHT_BEGIN
1070
    46
1040
2.71031383547714
1000
ACAD_MTEXT_DEFINED_HEIGHT_END
  0
LINE
  5
4A5
330
2
100
AcDbEntity
  8
图框
370
    -3
100
AcDbLine
 10
692.538972551523
 20
255.3582621915161
 30
0.0
 11
692.5389725515247
 21
233.7111284216113
 31
0.0
  0
LINE
  5
4A6
330
2
100
AcDbEntity
  8
图框
370
    -3
100
AcDbLine
 10
686.6391631955273
 20
252.653837824883
 30
0.0
 11
686.6391631955273
 21
233.7111284216111
 31
0.0
  0
LINE
  5
4A7
330
2
100
AcDbEntity
  8
图框
370
    -3
100
AcDbLine
 10
666.6861727051092
 20
233.7111284216105
 30
0.0
 11
666.6861727051092
 21
255.3582621915161
 31
0.0
  0
LINE
  5
4A8
330
2
100
AcDbEntity
  8
图框
370
    -3
100
AcDbLine
 10
678.8198407014752
 20
233.7111284216108
 30
0.0
 11
678.8198407014755
 21
255.3582621915161
 31
0.0
  0
LINE
  5
4A9
330
2
100
AcDbEntity
  8
图框
370
    35
380
     1
100
AcDbLine
 10
713.9279929450156
 20
255.3582621915168
 30
0.0
 11
713.9279660167342
 21
233.7111284216118
 31
0.0
  0
LINE
  5
4AA
330
2
100
AcDbEntity
  8
图框
370
    -3
100
AcDbLine
 10
657.5758254502942
 20
241.8362004661974
 30
0.0
 11
721.7473154377345
 21
241.8362004661974
 31
0.0
  0
LINE
  5
4AB
330
2
100
AcDbEntity
  8
图框
370
    -3
100
AcDbLine
 10
657.5758254502942
 20
239.131756092567
 30
0.0
 11
721.7473154377345
 21
239.1317560925667
 31
0.0
  0
MTEXT
  5
4AC
102
{ACAD_XDICTIONARY
360
2F75
102
}
330
2
100
AcDbEntity
  8
打标文字
 62
     3
100
AcDbMText
 10
762.037879947409
 20
224.8490931824469
 30
0.0
 40
1.5
 41
43.12740902174064
 46
53.91180554791946
 71
     1
 72
     5
  3
\A1;{\f仿宋_GB2312|b0|i0|c134|p49;技术参数}:\P- {\f仿宋_GB2312|b0|i0|c134|p49;材料}: {\f仿宋_GB2312|b0|i0|c134|p49;铜合金}\P- {\f仿宋_GB2312|b0|i0|c134|p49;表面处理}: {\f仿宋_GB2312|b0|i0|c134|p49;镀银}\P- {\f仿宋_GB2312|b0|i0|c134|p49;额定电流}: 10A\P- {\f仿宋_GB2312|b0|i0|c134|p49
  3
;接触电阻}: ≤3mΩ\P- {\f仿宋_GB2312|b0|i0|c134|p49;线径范围}: 0.75mm{\H0.7x;\S2^ ;}(18 AWG)\P- {\f仿宋_GB2312|b0|i0|c134|p49;可插拔次数}: {\f仿宋_GB2312|b0|i0|c134|p49;≥}500\P\PTechnical specification:\P- Material: copper alloy\P- Surface: hard-silver plated\P- Rated cur
  1
rent: 10A\P- Contact resistance: ≤3mΩ\P- Wire gauge: 0.75mm{\H0.7x;\S2^ ;}(18 AWG)\P- Mating cycles: {\f仿宋_GB2312|b0|i0|c134|p49;≥}500
  7
Romans字体
 73
     1
 44
1.0
1001
ACAD
1000
ACAD_MTEXT_DEFINED_HEIGHT_BEGIN
1070
    46
1040
53.91180554791946
1000
ACAD_MTEXT_DEFINED_HEIGHT_END
  0
MTEXT
  5
4AD
330
2
100
AcDbEntity
  8
图框
100
AcDbMText
 10
662.1309990777021
 20
252.6539879642882
 30
0.0
 40
1.200004709114095
 41
9.110347254814604
 46
5.408548454455798
 71
     5
 72
     5
  1
{\fFangSong_GB2312|b0|i0|c134|p49;\C4;产品代号\P\Fromans|c134;Part Code}
  7
Romans字体
 73
     1
 44
1.0
1001
ACAD
1000
ACAD_MTEXT_DEFINED_HEIGHT_BEGIN
1070
    46
1040
5.408548454455798
1000
ACAD_MTEXT_DEFINED_HEIGHT_END
  0
MTEXT
  5
4B1
330
2
100
AcDbEntity
  8
图框
100
AcDbMText
 10
708.0992901990613
 20
252.6538978893038
 30
0.0
 40
1.200004709114095
 41
11.65740549190756
 46
5.408728604424518
 71
     5
 72
     5
  1
{\fFangSong_GB2312|b0|i0|c134|p49;\C4;剥线长度\Fromans|c134;\PStripping Length}
  7
Romans字体
 73
     1
 44
1.0
1001
ACAD
1000
ACAD_MTEXT_DEFINED_HEIGHT_BEGIN
1070
    46
1040
5.408728604424518
1000
ACAD_MTEXT_DEFINED_HEIGHT_END
  0
LINE
  5
4B2
330
2
100
AcDbEntity
  8
图框
370
    35
380
     1
100
AcDbLine
 10
702.2705874531077
 20
255.3582621915161
 30
0.0
 11
702.2705874531077
 21
233.7111284216114
 31
0.0
  0
MTEXT
  5
4B3
330
2
100
AcDbEntity
  8
图框
100
AcDbMText
 10
708.0992901990613
 20
248.5973114002748
 30
0.0
 40
1.200004709114095
 41
11.6574054919075
 46
2.70444437363364
 71
     5
 72
     5
  1
{\C4;8}
  7
Romans字体
 73
     1
 44
1.0
1001
ACAD
1000
ACAD_MTEXT_DEFINED_HEIGHT_BEGIN
1070
    46
1040
2.70444437363364
1000
ACAD_MTEXT_DEFINED_HEIGHT_END
  0
MTEXT
  5
4B9
330
2
100
AcDbEntity
  8
图框
100
AcDbMText
 10
682.7295019498352
 20
237.7795339057498
 30
0.0
 40
1.200004709114095
 41
7.819322494052451
 46
2.704444373633
 71
     5
 72
     5
  1
{\C4;1.5}
  7
Romans字体
 73
     1
 44
1.0
1001
ACAD
1000
ACAD_MTEXT_DEFINED_HEIGHT_BEGIN
1070
    46
1040
2.704444373633
1000
ACAD_MTEXT_DEFINED_HEIGHT_END
  0
MTEXT
  5
4BA
330
2
100
AcDbEntity
  8
图框
100
AcDbMText
 10
689.5890678728592
 20
237.7795339057498
 30
0.0
 40
1.200004709114095
 41
5.899809357329702
 46
2.70444437363327
 71
     5
 72
     5
  1
{\C4;16}
  7
Romans字体
 73
     1
 44
1.0
1001
ACAD
1000
ACAD_MTEXT_DEFINED_HEIGHT_BEGIN
1070
    46
1040
2.70444437363327
1000
ACAD_MTEXT_DEFINED_HEIGHT_END
  0
MTEXT
  5
4BB
330
2
100
AcDbEntity
  8
图框
100
AcDbMText
 10
694.9718762772524
 20
237.7795339057498
 30
0.0
 40
1.200004709114095
 41
4.86580745145896
 46
2.704444373633334
 71
     5
 72
     5
  1
{\C4;1.75}
  7
Romans字体
 73
     1
 44
1.0
1001
ACAD
1000
ACAD_MTEXT_DEFINED_HEIGHT_BEGIN
1070
    46
1040
2.704444373633334
1000
ACAD_MTEXT_DEFINED_HEIGHT_END
  0
MTEXT
  5
4BC
330
2
100
AcDbEntity
  8
图框
100
AcDbMText
 10
662.1309990770344
 20
245.8928670266416
 30
0.0
 40
1.200004709114095
 41
9.110347256148225
 46
2.7044443736324
 71
     5
 72
     5
  1
{\C4;CDSF-0.50B}
  7
Romans字体
 73
     1
 44
1.0
1001
ACAD
1000
ACAD_MTEXT_DEFINED_HEIGHT_BEGIN
1070
    46
1040
2.7044443736324
1000
ACAD_MTEXT_DEFINED_HEIGHT_END
  0
MTEXT
  5
4BD
330
2
100
AcDbEntity
  8
图框
100
AcDbMText
 10
662.1309990783685
 20
243.1884226530112
 30
0.0
 40
1.200004709114095
 41
9.110347256148225
 46
2.7044443736324
 71
     5
 72
     5
  1
{\C4;CDSF-0.75B}
  7
Romans字体
 73
     1
 44
1.0
1001
ACAD
1000
ACAD_MTEXT_DEFINED_HEIGHT_BEGIN
1070
    46
1040
2.7044443736324
1000
ACAD_MTEXT_DEFINED_HEIGHT_END
  0
MTEXT
  5
4BE
330
2
100
AcDbEntity
  8
图框
100
AcDbMText
 10
662.1309990770344
 20
240.4751140439061
 30
0.0
 40
1.200004709114095
 41
9.110347256148225
 46
2.7044443736324
 71
     5
 72
     5
  1
{\C4;CDSF-1.0B}
  7
Romans字体
 73
     1
 44
1.0
1001
ACAD
1000
ACAD_MTEXT_DEFINED_HEIGHT_BEGIN
1070
    46
1040
2.7044443736324
1000
ACAD_MTEXT_DEFINED_HEIGHT_END
  0
MTEXT
  5
4BF
330
2
100
AcDbEntity
  8
图框
100
AcDbMText
 10
662.1309990770344
 20
237.7795339057502
 30
0.0
 40
1.200004709114095
 41
9.110347256148225
 46
2.7044443736324
 71
     5
 72
     5
  1
{\C4;CDSF-1.5B}
  7
Romans字体
 73
     1
 44
1.0
1001
ACAD
1000
ACAD_MTEXT_DEFINED_HEIGHT_BEGIN
1070
    46
1040
2.7044443736324
1000
ACAD_MTEXT_DEFINED_HEIGHT_END
  0
MTEXT
  5
4C0
330
2
100
AcDbEntity
  8
图框
100
AcDbMText
 10
699.8376837280456
 20
245.8928670266443
 30
0.0
 40
1.200004709114095
 41
4.86580745012519
 46
2.70444437363364
 71
     5
 72
     5
  1
{\C4;2.6}
  7
Romans字体
 73
     1
 44
1.0
1001
ACAD
1000
ACAD_MTEXT_DEFINED_HEIGHT_BEGIN
1070
    46
1040
2.70444437363364
1000
ACAD_MTEXT_DEFINED_HEIGHT_END
  0
MTEXT
  5
4C1
330
2
100
AcDbEntity
  8
图框
100
AcDbMText
 10
699.8376837280456
 20
243.1884226530138
 30
0.0
 40
1.200004709114095
 41
4.86580745012519
 46
2.70444437363364
 71
     5
 72
     5
  1
{\C4;2.6}
  7
Romans字体
 73
     1
 44
1.0
1001
ACAD
1000
ACAD_MTEXT_DEFINED_HEIGHT_BEGIN
1070
    46
1040
2.70444437363364
1000
ACAD_MTEXT_DEFINED_HEIGHT_END
  0
MTEXT
  5
4C2
330
2
100
AcDbEntity
  8
图框
100
AcDbMText
 10
699.8376837280456
 20
240.4839782793836
 30
0.0
 40
1.200004709114095
 41
4.86580745012519
 46
2.70444437363364
 71
     5
 72
     5
  1
{\C4;2.6}
  7
Romans字体
 73
     1
 44
1.0
1001
ACAD
1000
ACAD_MTEXT_DEFINED_HEIGHT_BEGIN
1070
    46
1040
2.70444437363364
1000
ACAD_MTEXT_DEFINED_HEIGHT_END
  0
MTEXT
  5
560
330
2
100
AcDbEntity
  8
图框
100
AcDbMText
 10
708.0992901990613
 20
245.8928670266443
 30
0.0
 40
1.200004709114095
 41
11.6574054919075
 46
2.70444437363364
 71
     5
 72
     5
  1
{\C4;8}
  7
Romans字体
 73
     1
 44
1.0
1001
ACAD
1000
ACAD_MTEXT_DEFINED_HEIGHT_BEGIN
1070
    46
1040
2.70444437363364
1000
ACAD_MTEXT_DEFINED_HEIGHT_END
  0
MTEXT
  5
561
330
2
100
AcDbEntity
  8
图框
100
AcDbMText
 10
708.0992901990613
 20
243.1884226530138
 30
0.0
 40
1.200004709114095
 41
11.6574054919075
 46
2.70444437363364
 71
     5
 72
     5
  1
{\C4;8}
  7
Romans字体
 73
     1
 44
1.0
1001
ACAD
1000
ACAD_MTEXT_DEFINED_HEIGHT_BEGIN
1070
    46
1040
2.70444437363364
1000
ACAD_MTEXT_DEFINED_HEIGHT_END
  0
MTEXT
  5
562
330
2
100
AcDbEntity
  8
图框
100
AcDbMText
 10
708.0992700138522
 20
240.4839782793836
 30
0.0
 40
1.200004709114095
 41
11.6574054919075
 46
2.70444437363364
 71
     5
 72
     5
  1
{\C4;8}
  7
Romans字体
 73
     1
 44
1.0
1001
ACAD
1000
ACAD_MTEXT_DEFINED_HEIGHT_BEGIN
1070
    46
1040
2.70444437363364
1000
ACAD_MTEXT_DEFINED_HEIGHT_END
  0
MTEXT
  5
563
330
2
100
AcDbEntity
  8
图框
100
AcDbMText
 10
708.0992901990613
 20
237.7736644439066
 30
0.0
 40
1.200004709114095
 41
11.6574054919075
 46
2.70444437363364
 71
     5
 72
     5
  1
{\C4;8}
  7
Romans字体
 73
     1
 44
1.0
1001
ACAD
1000
ACAD_MTEXT_DEFINED_HEIGHT_BEGIN
1070
    46
1040
2.70444437363364
1000
ACAD_MTEXT_DEFINED_HEIGHT_END
  0
MTEXT
  5
564
330
2
100
AcDbEntity
  8
图框
 62
     3
100
AcDbMText
 10
794.1805534864641
 20
172.1655663494526
 30
0.0
 40
1.492756789270166
 41
16.80619601594785
 46
4.436077779192768
 71
     5
 72
     5
  1
{\C4;1010171200603}
  7
Romans字体
 73
     1
 44
1.0
1001
ACAD
1000
ACAD_MTEXT_DEFINED_HEIGHT_BEGIN
1070
    46
1040
4.436077779192768
1000
ACAD_MTEXT_DEFINED_HEIGHT_END
  0
INSERT
  5
565
330
2
100
AcDbEntity
  8
DIM
100
AcDbBlockReference
  2
A4图框-NEW
 10
239.1193995275251
 20
-82.40912243855957
 30
0.0
 41
0.5
 42
0.5
 43
0.5
  0
MTEXT
  5
566
330
2
100
AcDbEntity
  8
图框
 62
     3
100
AcDbMText
 10
770.9683577769204
 20
165.3059901221842
 30
0.0
 40
1.492756789270166
 41
5.414673575202384
 46
3.943047602182616
 71
     5
 72
     5
  1
0.7g
  7
Romans字体
 73
     1
 44
1.0
1001
ACAD
1000
ACAD_MTEXT_DEFINED_HEIGHT_BEGIN
1070
    46
1040
3.943047602182616
1000
ACAD_MTEXT_DEFINED_HEIGHT_END
  0
MTEXT
  5
567
330
2
100
AcDbEntity
  8
图框
 62
     3
100
AcDbMText
 10
760.1537203693087
 20
165.511748511108
 30
0.0
 40
1.492756787517073
 41
5.414674217195232
 46
3.943047300605248
 71
     5
 72
     5
  1
2:1
  7
Romans字体
 73
     1
 44
1.0
1001
ACAD
1000
ACAD_MTEXT_DEFINED_HEIGHT_BEGIN
1070
    46
1040
3.943047300605248
1000
ACAD_MTEXT_DEFINED_HEIGHT_END
  0
MTEXT
  5
568
330
2
100
AcDbEntity
  8
图框
 62
     3
100
AcDbMText
 10
794.1805528346011
 20
176.5552913138938
 30
0.0
 40
1.492756787517073
 41
16.80619599621068
 46
4.343372752842928
 71
     5
 72
     5
  1
CDSF-0.75B
  7
Romans字体
 73
     1
 44
1.0
1001
ACAD
1000
ACAD_MTEXT_DEFINED_HEIGHT_BEGIN
1070
    46
1040
4.343372752842928
1000
ACAD_MTEXT_DEFINED_HEIGHT_END
  0
MTEXT
  5
DEE
102
{ACAD_XDICTIONARY
360
2F77
102
}
330
2
100
AcDbEntity
  8
0
 62
     4
 48
2.0
100
AcDbMText
 10
715.8266092253627
 20
200.3326527059407
 30
0.0
 40
1.439999999999999
 41
36.10666730595875
 46
5.470970788750941
 71
     1
 72
     5
  1
\pi13.631;{\f仿宋_GB2312|b0|i0|c134|p49;尺寸差异部分\P\pi6.8162;}Part of the size difference
  7
Romans字体
 73
     1
 44
1.0
1001
ACAD
1000
ACAD_MTEXT_DEFINED_HEIGHT_BEGIN
1070
    46
1040
5.470970788750941
1000
ACAD_MTEXT_DEFINED_HEIGHT_END
  0
MTEXT
  5
DEF
330
2
100
AcDbEntity
  8
图框
 62
     4
100
AcDbMText
 10
722.1503257443911
 20
221.0585232340745
 30
0.0
 40
1.5075
 41
36.10666730595879
 46
5.099532894216438
 71
     5
 72
     5
  1
CDSF-2.5B
  7
Romans字体
 73
     1
 44
1.0
1001
ACAD
1000
ACAD_MTEXT_DEFINED_HEIGHT_BEGIN
1070
    46
1040
5.099532894216438
1000
ACAD_MTEXT_DEFINED_HEIGHT_END
  0
LWPOLYLINE
  5
E59
330
2
100
AcDbEntity
  8
DIM
 48
2.0
100
AcDbPolyline
 90
        4
 70
     1
 43
0.0
 10
715.8266092253627
 20
223.6082896811827
 10
751.9332765313214
 20
223.6082896811827
 10
751.9332765313214
 20
194.8616819171897
 10
715.8266092253627
 20
194.8616819171897
  0
MTEXT
  5
FCF
330
2
100
AcDbEntity
  8
图框
100
AcDbMText
 10
717.8376541913754
 20
254.0059599331445
 30
0.0
 40
1.200004709114095
 41
7.819322492718882
 46
2.704284230795454
 71
     5
 72
     5
  1
{\fFangSong_GB2312|b0|i0|c134|p49;\C4;重量\Fromans|c134;/Weight}
  7
Romans字体
 73
     1
 44
1.0
1001
ACAD
1000
ACAD_MTEXT_DEFINED_HEIGHT_BEGIN
1070
    46
1040
2.704284230795454
1000
ACAD_MTEXT_DEFINED_HEIGHT_END
  0
MTEXT
  5
FD0
330
2
100
AcDbEntity
  8
图框
100
AcDbMText
 10
717.8376541913754
 20
251.3015956309317
 30
0.0
 40
1.200004709114095
 41
7.819322492718762
 46
2.704444373629934
 71
     5
 72
     5
  1
{\C4;g}
  7
Romans字体
 73
     1
 44
1.0
1001
ACAD
1000
ACAD_MTEXT_DEFINED_HEIGHT_BEGIN
1070
    46
1040
2.704444373629934
1000
ACAD_MTEXT_DEFINED_HEIGHT_END
  0
LINE
  5
FD1
330
2
100
AcDbEntity
  8
图框
370
    -3
100
AcDbLine
 10
721.747315437735
 20
255.3581020485419
 30
0.0
 11
721.7473154377342
 21
233.7111284216121
 31
0.0
  0
MTEXT
  5
FD2
330
2
100
AcDbEntity
  8
图框
100
AcDbMText
 10
717.8376541900417
 20
248.5969911143252
 30
0.0
 40
1.200004709114095
 41
7.8193224927189
 46
2.704444373633056
 71
     5
 72
     5
  1
{\C4;0.74}
  7
Romans字体
 73
     1
 44
1.0
1001
ACAD
1000
ACAD_MTEXT_DEFINED_HEIGHT_BEGIN
1070
    46
1040
2.704444373633056
1000
ACAD_MTEXT_DEFINED_HEIGHT_END
  0
MTEXT
  5
FD3
330
2
100
AcDbEntity
  8
图框
100
AcDbMText
 10
717.8376541900417
 20
245.8925467406921
 30
0.0
 40
1.200004709114095
 41
7.8193224927189
 46
2.704444373633056
 71
     5
 72
     5
  1
{\C4;0.72}
  7
Romans字体
 73
     1
 44
1.0
1001
ACAD
1000
ACAD_MTEXT_DEFINED_HEIGHT_BEGIN
1070
    46
1040
2.704444373633056
1000
ACAD_MTEXT_DEFINED_HEIGHT_END
  0
MTEXT
  5
FD4
330
2
100
AcDbEntity
  8
图框
100
AcDbMText
 10
717.8376541900417
 20
243.1881023670619
 30
0.0
 40
1.200004709114095
 41
7.8193224927189
 46
2.704444373633056
 71
     5
 72
     5
  1
{\C4;0.7}
  7
Romans字体
 73
     1
 44
1.0
1001
ACAD
1000
ACAD_MTEXT_DEFINED_HEIGHT_BEGIN
1070
    46
1040
2.704444373633056
1000
ACAD_MTEXT_DEFINED_HEIGHT_END
  0
MTEXT
  5
FD5
330
2
100
AcDbEntity
  8
图框
100
AcDbMText
 10
717.8376541900417
 20
240.4836579934315
 30
0.0
 40
1.200004709114095
 41
7.8193224927189
 46
2.704444373633056
 71
     5
 72
     5
  1
{\C4;0.68}
  7
Romans字体
 73
     1
 44
1.0
1001
ACAD
1000
ACAD_MTEXT_DEFINED_HEIGHT_BEGIN
1070
    46
1040
2.704444373633056
1000
ACAD_MTEXT_DEFINED_HEIGHT_END
  0
MTEXT
  5
FD6
330
2
100
AcDbEntity
  8
图框
100
AcDbMText
 10
717.8376541900417
 20
237.7792136198011
 30
0.0
 40
1.200004709114095
 41
7.8193224927189
 46
2.704444373633056
 71
     5
 72
     5
  1
{\C4;0.67}
  7
Romans字体
 73
     1
 44
1.0
1001
ACAD
1000
ACAD_MTEXT_DEFINED_HEIGHT_BEGIN
1070
    46
1040
2.704444373633056
1000
ACAD_MTEXT_DEFINED_HEIGHT_END
  0
MTEXT
  5
1053
330
2
100
AcDbEntity
  8
图框
100
AcDbMText
 10
672.753006704626
 20
235.069220070273
 30
0.0
 40
1.200004709114095
 41
12.13366799636652
 46
2.704444373632686
 71
     5
 72
     5
  1
{\C4;1010171201003}
  7
Romans字体
 73
     1
 44
1.0
1001
ACAD
1000
ACAD_MTEXT_DEFINED_HEIGHT_BEGIN
1070
    46
1040
2.704444373632686
1000
ACAD_MTEXT_DEFINED_HEIGHT_END
  0
MTEXT
  5
1054
330
2
100
AcDbEntity
  8
图框
100
AcDbMText
 10
699.8376837280456
 20
235.0662853393515
 30
0.0
 40
1.19999583169232
 41
4.865807450125188
 46
2.71031383547714
 71
     5
 72
     5
  1
{\C4;3.2}
  7
Romans字体
 73
     1
 44
1.0
1001
ACAD
1000
ACAD_MTEXT_DEFINED_HEIGHT_BEGIN
1070
    46
1040
2.71031383547714
1000
ACAD_MTEXT_DEFINED_HEIGHT_END
  0
MTEXT
  5
1055
330
2
100
AcDbEntity
  8
图框
100
AcDbMText
 10
682.7295019498352
 20
235.0692200702731
 30
0.0
 40
1.200004709114095
 41
7.819322494052451
 46
2.704444373633
 71
     5
 72
     5
  1
{\C4;2.5}
  7
Romans字体
 73
     1
 44
1.0
1001
ACAD
1000
ACAD_MTEXT_DEFINED_HEIGHT_BEGIN
1070
    46
1040
2.704444373633
1000
ACAD_MTEXT_DEFINED_HEIGHT_END
  0
MTEXT
  5
1056
330
2
100
AcDbEntity
  8
图框
100
AcDbMText
 10
689.5890678728592
 20
235.0692200702731
 30
0.0
 40
1.200004709114095
 41
5.899809357329702
 46
2.70444437363327
 71
     5
 72
     5
  1
{\C4;14}
  7
Romans字体
 73
     1
 44
1.0
1001
ACAD
1000
ACAD_MTEXT_DEFINED_HEIGHT_BEGIN
1070
    46
1040
2.70444437363327
1000
ACAD_MTEXT_DEFINED_HEIGHT_END
  0
MTEXT
  5
1057
330
2
100
AcDbEntity
  8
图框
100
AcDbMText
 10
694.9718762772524
 20
235.0692200702731
 30
0.0
 40
1.200004709114095
 41
4.86580745145896
 46
2.704444373633334
 71
     5
 72
     5
  1
{\C4;2.25}
  7
Romans字体
 73
     1
 44
1.0
1001
ACAD
1000
ACAD_MTEXT_DEFINED_HEIGHT_BEGIN
1070
    46
1040
2.704444373633334
1000
ACAD_MTEXT_DEFINED_HEIGHT_END
  0
MTEXT
  5
1058
330
2
100
AcDbEntity
  8
图框
100
AcDbMText
 10
662.1309990770344
 20
235.0692200702735
 30
0.0
 40
1.200004709114095
 41
9.110347256148225
 46
2.7044443736324
 71
     5
 72
     5
  1
{\C4;CDSF-2.5B}
  7
Romans字体
 73
     1
 44
1.0
1001
ACAD
1000
ACAD_MTEXT_DEFINED_HEIGHT_BEGIN
1070
    46
1040
2.7044443736324
1000
ACAD_MTEXT_DEFINED_HEIGHT_END
  0
MTEXT
  5
1059
330
2
100
AcDbEntity
  8
图框
100
AcDbMText
 10
708.0992901990613
 20
235.0633506084299
 30
0.0
 40
1.200004709114095
 41
11.6574054919075
 46
2.70444437363364
 71
     5
 72
     5
  1
{\C4;6}
  7
Romans字体
 73
     1
 44
1.0
1001
ACAD
1000
ACAD_MTEXT_DEFINED_HEIGHT_BEGIN
1070
    46
1040
2.70444437363364
1000
ACAD_MTEXT_DEFINED_HEIGHT_END
  0
MTEXT
  5
105A
330
2
100
AcDbEntity
  8
图框
100
AcDbMText
 10
717.8376541900417
 20
235.0688997843244
 30
0.0
 40
1.200004709114095
 41
7.8193224927189
 46
2.704444373633056
 71
     5
 72
     5
  1
{\C4;0.63}
  7
Romans字体
 73
     1
 44
1.0
1001
ACAD
1000
ACAD_MTEXT_DEFINED_HEIGHT_BEGIN
1070
    46
1040
2.704444373633056
1000
ACAD_MTEXT_DEFINED_HEIGHT_END
  0
LINE
  5
105B
330
2
100
AcDbEntity
  8
图框
370
    35
100
AcDbLine
 10
657.5758254502949
 20
233.7111284216104
 30
0.0
 11
721.7473154377345
 21
233.711128421612
 31
0.0
  0
LINE
  5
105C
330
2
100
AcDbEntity
  8
图框
370
    35
100
AcDbLine
 10
657.5758254502949
 20
236.4214422570884
 30
0.0
 11
721.7473154377345
 21
236.4214422570899
 31
0.0
  0
LINE
  5
22A9
330
2
100
AcDbEntity
  8
0
100
AcDbLine
 10
672.9132852891729
 20
182.9884837980431
 30
0.0
 11
672.8368608115922
 21
182.9285493205027
 31
0.0
  0
LINE
  5
22AA
330
2
100
AcDbEntity
  8
0
100
AcDbLine
 10
671.4850939824936
 20
178.3668550326826
 30
0.0
 11
671.461190822274
 21
178.3481094212028
 31
0.0
  0
LINE
  5
22AB
330
2
100
AcDbEntity
  8
0
100
AcDbLine
 10
667.1320446113943
 20
171.7066170323828
 30
0.0
 11
666.7568418083333
 21
170.4924603217629
 31
0.0
  0
LINE
  5
22AC
330
2
100
AcDbEntity
  8
0
100
AcDbLine
 10
665.8006798319124
 20
167.3983190297432
 30
0.0
 11
665.5586135088346
 21
166.6149921204031
 31
0.0
  0
LINE
  5
22AD
330
2
100
AcDbEntity
  8
0
100
AcDbLine
 10
666.9956970202349
 20
170.4186484805628
 30
0.0
 11
666.1911512277533
 21
167.8151373375831
 31
0.0
  0
LINE
  5
22AE
330
2
100
AcDbEntity
  8
0
100
AcDbLine
 10
668.1907142085541
 20
173.4389779288427
 30
0.0
 11
667.8162750844343
 21
172.227292473123
 31
0.0
  0
LINE
  5
22AF
330
2
100
AcDbEntity
  8
0
100
AcDbLine
 10
671.2646354063921
 20
183.3015158059628
 30
0.0
 11
671.1436022423152
 21
182.909852352563
 31
0.0
  0
LINE
  5
22B0
330
2
100
AcDbEntity
  8
0
100
AcDbLine
 10
669.6912043038322
 20
178.2098908939832
 30
0.0
 11
669.0134185981935
 21
176.0165755473229
 31
0.0
  0
LINE
  5
22B1
330
2
100
AcDbEntity
  8
0
100
AcDbLine
 10
669.0373041181122
 20
176.0091943632032
 30
0.0
 11
668.8812546283351
 21
175.5042180300027
 31
0.0
  0
LINE
  5
22B2
330
2
100
AcDbEntity
  8
0
100
AcDbLine
 10
668.3595184124738
 20
173.8158790165428
 30
0.0
 11
668.2930270138324
 21
173.6007127692033
 31
0.0
  0
LINE
  5
22B3
330
2
100
AcDbEntity
  8
0
100
AcDbLine
 10
671.219908515913
 20
182.9884837980431
 30
0.0
 11
669.7925185792342
 21
178.3694482736232
 31
0.0
  0
LINE
  5
22B4
330
2
100
AcDbEntity
  8
0
100
AcDbLine
 10
669.0638147559751
 20
175.6116896616433
 30
0.0
 11
668.6523020052121
 21
174.2800339175432
 31
0.0
  0
LINE
  5
22B5
330
2
100
AcDbEntity
  8
0
100
AcDbLine
 10
671.3551561346737
 20
182.9285493205027
 30
0.0
 11
669.9896578877735
 21
178.5097953741827
 31
0.0
  0
LINE
  5
22B6
330
2
100
AcDbEntity
  8
0
100
AcDbLine
 10
671.1553844488743
 20
182.8633048231031
 30
0.0
 11
669.7549686111544
 21
178.3315575112027
 31
0.0
  0
LINE
  5
22B7
330
2
100
AcDbEntity
  8
0
100
AcDbLine
 10
668.8826563882952
 20
175.5084133124429
 30
0.0
 11
668.8581087259319
 21
175.4350215262831
 31
0.0
  0
LINE
  5
22B8
330
2
100
AcDbEntity
  8
0
100
AcDbLine
 10
668.9113062751147
 20
175.5738814060429
 30
0.0
 11
668.8839732411337
 21
175.4953389926429
 31
0.0
  0
LWPOLYLINE
  5
22B9
330
2
100
AcDbEntity
  8
0
100
AcDbPolyline
 90
        4
 70
     0
 43
0.0
 10
668.858191593434
 20
175.4352314522027
 10
668.8451975782747
 20
175.3993543560627
 10
668.8264524747922
 20
175.3546616844628
 10
668.8082662703721
 20
175.316380031283
  0
LINE
  5
22BA
330
2
100
AcDbEntity
  8
0
100
AcDbLine
 10
668.858191593434
 20
175.4352314522027
 30
0.0
 11
668.8839773457751
 21
175.4953518094828
 31
0.0
  0
LINE
  5
22BB
330
2
100
AcDbEntity
  8
0
100
AcDbLine
 10
668.9113032448942
 20
175.5738758790031
 30
0.0
 11
668.8826561038125
 21
175.5084124513831
 31
0.0
  0
LINE
  5
22BC
330
2
100
AcDbEntity
  8
0
100
AcDbLine
 10
668.0041487752336
 20
174.2289297601625
 30
0.0
 11
668.6361256951752
 21
175.043740134603
 31
0.0
  0
LINE
  5
22BD
330
2
100
AcDbEntity
  8
0
100
AcDbLine
 10
668.1729251102741
 20
174.1286424499431
 30
0.0
 11
668.8011297974748
 21
174.9336036746628
 31
0.0
  0
LINE
  5
22BE
330
2
100
AcDbEntity
  8
0
100
AcDbLine
 10
671.0353049277927
 20
173.357956292563
 30
0.0
 11
671.2327596230521
 21
173.3519244580434
 31
0.0
  0
LINE
  5
22BF
330
2
100
AcDbEntity
  8
0
100
AcDbLine
 10
670.7212968816929
 20
175.5739752311029
 30
0.0
 11
670.6054917386548
 21
175.5026018635627
 31
0.0
  0
LINE
  5
22C0
330
2
100
AcDbEntity
  8
0
100
AcDbLine
 10
670.5833749604347
 20
175.4249780310027
 30
0.0
 11
670.7005454347538
 21
175.4953397927431
 31
0.0
  0
LINE
  5
22C1
330
2
100
AcDbEntity
  8
0
100
AcDbLine
 10
668.6361256951752
 20
175.043740134603
 30
0.0
 11
668.8011279864533
 21
174.9336049395831
 31
0.0
  0
LINE
  5
22C2
330
2
100
AcDbEntity
  8
0
100
AcDbLine
 10
670.6054902121126
 20
175.5026008755028
 30
0.0
 11
670.5833735024737
 21
175.4249774874432
 31
0.0
  0
LINE
  5
22C3
330
2
100
AcDbEntity
  8
0
100
AcDbLine
 10
669.8697029536937
 20
174.2800339175432
 30
0.0
 11
670.2812157019124
 21
175.6116896616433
 31
0.0
  0
LINE
  5
22C4
330
2
100
AcDbEntity
  8
0
100
AcDbLine
 10
672.8368608115922
 20
182.9285493205027
 30
0.0
 11
671.4267877186129
 21
178.3655511160629
 31
0.0
  0
LINE
  5
22C5
330
2
100
AcDbEntity
  8
0
100
AcDbLine
 10
672.9132852891729
 20
182.9884837980431
 30
0.0
 11
671.4850939824936
 21
178.3668550326826
 31
0.0
  0
LINE
  5
22C6
330
2
100
AcDbEntity
  8
0
100
AcDbLine
 10
670.5428714879748
 20
174.9336049395831
 30
0.0
 11
670.6717917178142
 21
175.043740134603
 31
0.0
  0
LINE
  5
22C7
330
2
100
AcDbEntity
  8
0
100
AcDbLine
 10
670.7005437177135
 20
175.4953388554831
 30
0.0
 11
670.721270536815
 21
175.5738811799828
 31
0.0
  0
LINE
  5
22C8
330
2
100
AcDbEntity
  8
0
100
AcDbLine
 10
671.1516936383734
 20
174.7168130262028
 30
0.0
 11
671.1752475333526
 21
174.7990854169029
 31
0.0
  0
LINE
  5
22C9
330
2
100
AcDbEntity
  8
0
100
AcDbLine
 10
670.7017408095547
 20
174.0455443941433
 30
0.0
 11
670.5518076727924
 21
173.5603605893031
 31
0.0
  0
LINE
  5
22CA
330
2
100
AcDbEntity
  8
0
100
AcDbLine
 10
670.7722977423543
 20
173.9781520803634
 30
0.0
 11
670.6120505952334
 21
173.4595921268833
 31
0.0
  0
LINE
  5
22CB
330
2
100
AcDbEntity
  8
0
100
AcDbLine
 10
673.4483944754932
 20
182.1547111298032
 30
0.0
 11
672.0427370353538
 21
177.6060019900032
 31
0.0
  0
LINE
  5
22CC
330
2
100
AcDbEntity
  8
0
100
AcDbLine
 10
671.3303141447343
 20
175.300600672443
 30
0.0
 11
671.1741413735147
 21
174.7952253992227
 31
0.0
  0
LINE
  5
22CD
330
2
100
AcDbEntity
  8
0
100
AcDbLine
 10
670.6525284390931
 20
173.1072853232429
 30
0.0
 11
670.5898690419338
 21
172.9045194422629
 31
0.0
  0
LINE
  5
22CE
330
2
100
AcDbEntity
  8
0
100
AcDbLine
 10
673.6054164728543
 20
182.5781597469632
 30
0.0
 11
673.4843833113123
 21
182.1864962910229
 31
0.0
  0
LINE
  5
22CF
330
2
100
AcDbEntity
  8
0
100
AcDbLine
 10
672.0319853702942
 20
177.4865348349828
 30
0.0
 11
671.3541996671941
 21
175.2932194857828
 31
0.0
  0
LINE
  5
22D0
330
2
100
AcDbEntity
  8
0
100
AcDbLine
 10
670.5792663199347
 20
172.7008595016029
 30
0.0
 11
670.2033348797747
 21
171.4843449140631
 31
0.0
  0
LINE
  5
22D1
330
2
100
AcDbEntity
  8
0
100
AcDbLine
 10
668.8839710567338
 20
175.4953397927431
 30
0.0
 11
669.012816285455
 21
175.4466585515229
 31
0.0
  0
LINE
  5
22D2
330
2
100
AcDbEntity
  8
0
100
AcDbLine
 10
669.0372208924735
 20
175.5256318860829
 30
0.0
 11
668.9113356222723
 21
175.5739752311029
 31
0.0
  0
LINE
  5
22D3
330
2
100
AcDbEntity
  8
0
100
AcDbLine
 10
670.8055781279147
 20
174.2289297576229
 30
0.0
 11
670.671789939813
 21
175.0437385623428
 31
0.0
  0
LINE
  5
22D4
330
2
100
AcDbEntity
  8
0
100
AcDbLine
 10
671.0232443956551
 20
173.3903430375431
 30
0.0
 11
670.9701976411922
 21
173.7363794066833
 31
0.0
  0
LINE
  5
22D5
330
2
100
AcDbEntity
  8
0
100
AcDbLine
 10
670.6609396668739
 20
174.1286424474027
 30
0.0
 11
670.5428714879748
 21
174.9336049395831
 31
0.0
  0
LWPOLYLINE
  5
22D6
330
2
100
AcDbEntity
  8
0
100
AcDbPolyline
 90
        4
 70
     0
 43
0.0
 10
671.124313568673
 20
174.4753062067033
 10
671.1217650114133
 20
174.539638262443
 10
671.1305429643942
 20
174.6246514452229
 10
671.1516824420535
 20
174.716832312423
  0
LINE
  5
22D7
330
2
100
AcDbEntity
  8
0
100
AcDbLine
 10
669.8619595528747
 20
169.5329063658429
 30
0.0
 11
669.0561959878728
 21
166.925454509383
 31
0.0
  0
LINE
  5
22D8
330
2
100
AcDbEntity
  8
0
100
AcDbLine
 10
670.476017565294
 20
170.673251232723
 30
0.0
 11
670.1008147647739
 21
169.4590945221032
 31
0.0
  0
LINE
  5
22D9
330
2
100
AcDbEntity
  8
0
100
AcDbLine
 10
669.1446527858146
 20
166.3649532300828
 30
0.0
 11
668.9025864627341
 21
165.581626318203
 31
0.0
  0
LWPOLYLINE
  5
22DA
330
2
100
AcDbEntity
  8
0
100
AcDbPolyline
 90
        4
 70
     0
 43
0.0
 10
671.2395672472332
 20
173.5401220902826
 10
671.2043008483736
 20
173.8225677458632
 10
671.1653316730725
 20
174.1387363794632
 10
671.1242853340329
 20
174.4755316774231
  0
LINE
  5
22DB
330
2
100
AcDbEntity
  8
0
100
AcDbLine
 10
671.219908515913
 20
182.9884837980431
 30
0.0
 11
671.3551561346737
 21
182.9285493205027
 31
0.0
  0
ARC
  5
22DC
330
2
100
AcDbEntity
  8
0
100
AcDbCircle
 10
669.1224745497533
 20
175.7303683092233
 30
0.0
 40
2.867621648539998
100
AcDbArc
 50
269.138074048988
 51
269.5578748028152
  0
ARC
  5
22DD
330
2
100
AcDbEntity
  8
0
100
AcDbCircle
 10
667.4111103448533
 20
176.0184518758032
 30
0.0
 40
1.763244167179998
100
AcDbArc
 50
322.0299011770982
 51
327.4436376714059
  0
ARC
  5
22DE
330
2
100
AcDbEntity
  8
0
100
AcDbCircle
 10
669.8101270911323
 20
174.7447308418428
 30
0.0
 40
1.671638886839999
100
AcDbArc
 50
89.71113453999072
 51
89.99980280809475
  0
ARC
  5
22DF
330
2
100
AcDbEntity
  8
0
100
AcDbCircle
 10
672.0674821903334
 20
181.6126035170427
 30
0.0
 40
1.564300798239998
100
AcDbArc
 50
59.10475816380738
 51
59.57347886729456
  0
ARC
  5
22E0
330
2
100
AcDbEntity
  8
0
100
AcDbCircle
 10
667.4486415524937
 20
175.9970470646633
 30
0.0
 40
1.520489057059999
100
AcDbArc
 50
333.4066418571037
 51
340.7338568560041
  0
ARC
  5
22E1
330
2
100
AcDbEntity
  8
0
100
AcDbCircle
 10
667.7573607343946
 20
170.4376160550229
 30
0.0
 40
1.047676832759999
100
AcDbArc
 50
206.1563174904025
 51
208.8677714796038
  0
ARC
  5
22E2
330
2
100
AcDbEntity
  8
0
100
AcDbCircle
 10
670.5202591074924
 20
173.4498169038627
 30
0.0
 40
0.7249546943600001
100
AcDbArc
 50
354.3353102186969
 51
7.155732326697212
  0
ARC
  5
22E3
330
2
100
AcDbEntity
  8
0
100
AcDbCircle
 10
670.4085345023926
 20
173.4373448612428
 30
0.0
 40
0.6373696726799999
100
AcDbArc
 50
355.2267238891993
 51
7.091800163199715
  0
ARC
  5
22E4
330
2
100
AcDbEntity
  8
0
100
AcDbCircle
 10
669.9723315825734
 20
172.8775520184227
 30
0.0
 40
0.6058193598599999
100
AcDbArc
 50
18.70845544260011
 51
21.69702958860341
  0
ARC
  5
22E5
330
2
100
AcDbEntity
  8
0
100
AcDbCircle
 10
670.0774139327344
 20
178.0903815038427
 30
0.0
 40
0.40427137078
100
AcDbArc
 50
156.5606998882117
 51
162.8237941817045
  0
ARC
  5
22E6
330
2
100
AcDbEntity
  8
0
100
AcDbCircle
 10
673.0982109315149
 20
182.3059922699629
 30
0.0
 40
0.4042318229800001
100
AcDbArc
 50
336.6210676055894
 51
342.8240510251056
  0
ARC
  5
22E7
330
2
100
AcDbEntity
  8
0
100
AcDbCircle
 10
671.6469287693136
 20
177.6055558491631
 30
0.0
 40
0.4030255642800001
100
AcDbArc
 50
342.8417197572959
 51
349.4630524759001
  0
ARC
  5
22E8
330
2
100
AcDbEntity
  8
0
100
AcDbCircle
 10
671.5286588458342
 20
182.7908313358429
 30
0.0
 40
0.4030255642800001
100
AcDbArc
 50
162.8417197573954
 51
169.4630524756006
  0
ARC
  5
22E9
330
2
100
AcDbEntity
  8
0
100
AcDbCircle
 10
669.3975635068121
 20
175.8977891758033
 30
0.0
 40
0.40208522834
100
AcDbArc
 50
162.8353416479015
 51
167.4311607167005
  0
ARC
  5
22EA
330
2
100
AcDbEntity
  8
0
100
AcDbCircle
 10
669.3973714599545
 20
175.8978347611829
 30
0.0
 40
0.40188828182
100
AcDbArc
 50
162.2715407909062
 51
162.8334709831034
  0
ARC
  5
22EB
330
2
100
AcDbEntity
  8
0
100
AcDbCircle
 10
670.9702472931134
 20
175.411960119523
 30
0.0
 40
0.4018877712800001
100
AcDbArc
 50
342.2743734286943
 51
342.8334712440989
  0
SPLINE
  5
22EC
330
2
100
AcDbEntity
  8
0
100
AcDbSpline
210
0.0
220
0.0
230
1.0
 70
     8
 71
     3
 72
    15
 73
    11
 74
     0
 42
0.0000000001
 43
0.0000000001
 40
0.0
 40
0.0
 40
0.0
 40
0.0
 40
0.1105356361
 40
0.2252905245
 40
0.3458209998
 40
0.4720382201
 40
0.6027395909000001
 40
0.7358523286
 40
0.8690880256999998
 40
1.0
 40
1.0
 40
1.0
 40
1.0
 10
669.8697029536937
 20
174.2800339175432
 30
0.0
 10
669.8654483393924
 20
174.2662659821629
 30
0.0
 10
669.8609155544525
 20
174.2367833284029
 30
0.0
 10
669.8661320210342
 20
174.1915562255627
 30
0.0
 10
669.8821601042943
 20
174.1468729443428
 30
0.0
 10
669.9071188732731
 20
174.1042030576229
 30
0.0
 10
669.9392714454937
 20
174.0646034949631
 30
0.0
 10
669.9767660923747
 20
174.028741697243
 30
0.0
 10
670.0180705030343
 20
173.9973405433831
 30
0.0
 10
670.0475777135137
 20
173.9794373914827
 30
0.0
 10
670.0626421588744
 20
173.971416368663
 30
0.0
  0
SPLINE
  5
22ED
330
2
100
AcDbEntity
  8
0
100
AcDbSpline
210
0.0
220
0.0
230
1.0
 70
     8
 71
     3
 72
    12
 73
     8
 74
     0
 42
0.0000000001
 43
0.0000000001
 40
0.0
 40
0.0
 40
0.0
 40
0.0
 40
0.2056133117
 40
0.4637390732
 40
0.7428908076000002
 40
0.8772003701
 40
1.0
 40
1.0
 40
1.0
 40
1.0
 10
668.4490241211946
 20
173.971416368663
 30
0.0
 10
668.4660391747942
 20
173.990392345443
 30
0.0
 10
668.5033447466151
 20
174.0341555065828
 30
0.0
 10
668.5600749735134
 20
174.106721284743
 30
0.0
 10
668.6060587093342
 20
174.1763896366428
 30
0.0
 10
668.6362233099147
 20
174.235703279763
 30
0.0
 10
668.6478077825539
 20
174.2654906014429
 30
0.0
 10
668.6523020052121
 20
174.2800339175432
 30
0.0
  0
SPLINE
  5
22EE
330
2
100
AcDbEntity
  8
0
100
AcDbSpline
210
0.0
220
0.0
230
1.0
 70
     8
 71
     3
 72
    16
 73
    12
 74
     0
 42
0.0000000001
 43
0.0000000001
 40
0.0
 40
0.0
 40
0.0
 40
0.0
 40
0.1578833643
 40
0.3185399967
 40
0.4747582201
 40
0.6190664997999999
 40
0.7449749896000001
 40
0.8488875761999999
 40
0.9317660507999999
 40
0.9671553138
 40
1.0
 40
1.0
 40
1.0
 40
1.0
 10
669.0638147559751
 20
175.6116896616433
 30
0.0
 10
669.0760898698539
 20
175.6255981022028
 30
0.0
 10
669.1000719072328
 20
175.6543646105827
 30
0.0
 10
669.1329073330536
 20
175.6995247031433
 30
0.0
 10
669.1607141278343
 20
175.7461485392826
 30
0.0
 10
669.181196388114
 20
175.7920325013629
 30
0.0
 10
669.1927073861737
 20
175.834730079163
 30
0.0
 10
669.1945745173151
 20
175.8717335510027
 30
0.0
 10
669.1881266282534
 20
175.8977261101429
 30
0.0
 10
669.1782579992735
 20
175.912670951983
 30
0.0
 10
669.1722743536351
 20
175.918157217363
 30
0.0
 10
669.1691094653752
 20
175.9203654070033
 30
0.0
  0
SPLINE
  5
22EF
330
2
100
AcDbEntity
  8
0
100
AcDbSpline
210
0.0
220
0.0
230
1.0
 70
     8
 71
     3
 72
    15
 73
    11
 74
     0
 42
0.0000000001
 43
0.0000000001
 40
0.0
 40
0.0
 40
0.0
 40
0.0
 40
0.1558560429
 40
0.3032301519
 40
0.44111566
 40
0.569084736
 40
0.6873827243
 40
0.7971118506
 40
0.9003286156999998
 40
1.0
 40
1.0
 40
1.0
 40
1.0
 10
669.8177588919738
 20
176.400829477823
 30
0.0
 10
669.7694137943528
 20
176.400829477823
 30
0.0
 10
669.6752817296327
 20
176.3966793743632
 30
0.0
 10
669.5396198165546
 20
176.3770483493632
 30
0.0
 10
669.4153271542931
 20
176.344468958083
 30
0.0
 10
669.3045810994346
 20
176.2994426244626
 30
0.0
 10
669.2093273453146
 20
176.2426096012233
 30
0.0
 10
669.131338215035
 20
176.1747329551632
 30
0.0
 10
669.0723179063545
 20
176.096866359563
 30
0.0
 10
669.0464395837127
 20
176.0387513068829
 30
0.0
 10
669.0373112910732
 20
176.009212455623
 30
0.0
  0
SPLINE
  5
22F0
330
2
100
AcDbEntity
  8
0
100
AcDbSpline
210
0.0
220
0.0
230
1.0
 70
     8
 71
     3
 72
    11
 73
     7
 74
     0
 42
0.0000000001
 43
0.0000000001
 40
0.0
 40
0.0
 40
0.0
 40
0.0
 40
0.2356597317
 40
0.4777376667000002
 40
0.7313333075
 40
1.0
 40
1.0
 40
1.0
 40
1.0
 10
671.0410280532553
 20
173.5160341755429
 30
0.0
 10
671.0352277930736
 20
173.5623661834632
 30
0.0
 10
671.0128233293723
 20
173.6552749156033
 30
0.0
 10
670.9487739324535
 20
173.7863941606028
 30
0.0
 10
670.8559886062125
 20
173.907222704823
 30
0.0
 10
670.7788776504528
 20
173.9770860499828
 30
0.0
 10
670.736798984295
 20
174.0096929367631
 30
0.0
  0
SPLINE
  5
22F1
330
2
100
AcDbEntity
  8
0
100
AcDbSpline
210
0.0
220
0.0
230
1.0
 70
     8
 71
     3
 72
     9
 73
     5
 74
     0
 42
0.0000000001
 43
0.0000000001
 40
0.0
 40
0.0
 40
0.0
 40
0.0
 40
0.5080182695000001
 40
1.0
 40
1.0
 40
1.0
 40
1.0
 10
668.4490241211946
 20
173.971416368663
 30
0.0
 10
668.4286115458148
 20
173.9486513189431
 30
0.0
 10
668.3926612341751
 20
173.8997675813027
 30
0.0
 10
668.3682433404141
 20
173.8441240400626
 30
0.0
 10
668.3595040259141
 20
173.8158317827031
 30
0.0
  0
SPLINE
  5
22F2
330
2
100
AcDbEntity
  8
0
100
AcDbSpline
210
0.0
220
0.0
230
1.0
 70
     8
 71
     3
 72
     9
 73
     5
 74
     0
 42
0.0000000001
 43
0.0000000001
 40
0.0
 40
0.0
 40
0.0
 40
0.0
 40
0.4861016089
 40
1.0
 40
1.0
 40
1.0
 40
1.0
 10
670.5428506040938
 20
174.9336156075829
 30
0.0
 10
670.5311953772137
 20
175.0130990401828
 30
0.0
 10
670.5283724745526
 20
175.1800437380427
 30
0.0
 10
670.5600854870725
 20
175.3433147119833
 30
0.0
 10
670.5833533602733
 20
175.424992285483
 30
0.0
  0
SPLINE
  5
22F3
330
2
100
AcDbEntity
  8
0
100
AcDbSpline
210
0.0
220
0.0
230
1.0
 70
     8
 71
     3
 72
    12
 73
     8
 74
     0
 42
0.0000000001
 43
0.0000000001
 40
0.0
 40
0.0
 40
0.0
 40
0.0
 40
0.3900306964
 40
0.689339175
 40
0.8020619419
 40
0.8899431848999999
 40
1.0
 40
1.0
 40
1.0
 40
1.0
 10
671.0232443956551
 20
173.3903430375431
 30
0.0
 10
671.0239449047947
 20
173.3857732625832
 30
0.0
 10
671.0254263420141
 20
173.3777225497032
 30
0.0
 10
671.0279205737537
 20
173.3685528195031
 30
0.0
 10
671.0302647194329
 20
173.363042253943
 30
0.0
 10
671.0320382287147
 20
173.359940240843
 30
0.0
 10
671.0340008740125
 20
173.3579952307634
 30
0.0
 10
671.0353048414348
 20
173.3579566608625
 30
0.0
  0
SPLINE
  5
22F4
330
2
100
AcDbEntity
  8
0
100
AcDbSpline
210
0.0
220
0.0
230
1.0
 70
     8
 71
     3
 72
    11
 73
     7
 74
     0
 42
0.0000000001
 43
0.0000000001
 40
0.0
 40
0.0
 40
0.0
 40
0.0
 40
0.2410057934
 40
0.5108322788000002
 40
0.7743672083
 40
1.0
 40
1.0
 40
1.0
 40
1.0
 10
670.736798984295
 20
174.0096929367631
 30
0.0
 10
670.7276803004722
 20
174.0167590338826
 30
0.0
 10
670.7100822203527
 20
174.0339580063432
 30
0.0
 10
670.6875237767746
 20
174.0635150846428
 30
0.0
 10
670.6699125369143
 20
174.0954211549433
 30
0.0
 10
670.6625069891128
 20
174.1179565861233
 30
0.0
 10
670.6609396668739
 20
174.1286424474027
 30
0.0
  0
SPLINE
  5
22F5
330
2
100
AcDbEntity
  8
0
100
AcDbSpline
210
0.0
220
0.0
230
1.0
 70
     8
 71
     3
 72
    12
 73
     8
 74
     0
 42
0.0000000001
 43
0.0000000001
 40
0.0
 40
0.0
 40
0.0
 40
0.0
 40
0.393310864
 40
0.6902194649000001
 40
0.8007529818000001
 40
0.8867809986000001
 40
1.0
 40
1.0
 40
1.0
 40
1.0
 10
671.241673549854
 20
173.378259165343
 30
0.0
 10
671.2413038477746
 20
173.3744870469027
 30
0.0
 10
671.2404546216337
 20
173.3678829910234
 30
0.0
 10
671.2388024506947
 20
173.3603306769431
 30
0.0
 10
671.2370332517926
 20
173.3558721285829
 30
0.0
 10
671.2356207171544
 20
173.3533116206228
 30
0.0
 10
671.2338501390326
 20
173.3518923448231
 30
0.0
 10
671.2327595671735
 20
173.3519246815629
 30
0.0
  0
SPLINE
  5
22F6
330
2
100
AcDbEntity
  8
0
100
AcDbSpline
210
0.0
220
0.0
230
1.0
 70
     8
 71
     3
 72
    17
 73
    13
 74
     0
 42
0.0000000001
 43
0.0000000001
 40
0.0
 40
0.0
 40
0.0
 40
0.0
 40
0.1139422999
 40
0.2338081646
 40
0.296358648
 40
0.3604025409
 40
0.4257343876000001
 40
0.4921022743
 40
0.6259196931000001
 40
0.7582984439000002
 40
0.8842990852999999
 40
1.0
 40
1.0
 40
1.0
 40
1.0
 10
670.2157761553728
 20
175.746171373883
 30
0.0
 10
670.2299540188127
 20
175.7659937320029
 30
0.0
 10
670.2675088078144
 20
175.8011862371831
 30
0.0
 10
670.3282565527146
 20
175.8243463127833
 30
0.0
 10
670.3810699726139
 20
175.8287124254627
 30
0.0
 10
670.4221180972747
 20
175.8240172786429
 30
0.0
 10
670.4623266960529
 20
175.8114616497028
 30
0.0
 10
670.5126064405525
 20
175.784432920423
 30
0.0
 10
670.565056452493
 20
175.7340808570434
 30
0.0
 10
670.6041871616337
 20
175.6583757989029
 30
0.0
 10
670.6189515415529
 20
175.5786616809626
 30
0.0
 10
670.6127982188331
 20
175.5262456466033
 30
0.0
 10
670.6054917386548
 20
175.5026018635627
 30
0.0
  0
SPLINE
  5
22F7
330
2
100
AcDbEntity
  8
0
100
AcDbSpline
210
0.0
220
0.0
230
1.0
 70
     8
 71
     3
 72
    11
 73
     7
 74
     0
 42
0.0000000001
 43
0.0000000001
 40
0.0
 40
0.0
 40
0.0
 40
0.0
 40
0.2338943526
 40
0.4758219772
 40
0.7310779287000001
 40
1.0
 40
1.0
 40
1.0
 40
1.0
 10
670.2224195177526
 20
175.8029633837429
 30
0.0
 10
670.2177669286323
 20
175.7873733031632
 30
0.0
 10
670.2135609197725
 20
175.7538571878229
 30
0.0
 10
670.2231517413332
 20
175.703221525823
 30
0.0
 10
670.2464964241328
 20
175.654798874383
 30
0.0
 10
670.2687100982743
 20
175.6256009901828
 30
0.0
 10
670.2812157019124
 20
175.6116896616433
 30
0.0
  0
SPLINE
  5
22F8
330
2
100
AcDbEntity
  8
0
100
AcDbSpline
210
0.0
220
0.0
230
1.0
 70
     8
 71
     3
 72
     9
 73
     5
 74
     0
 42
0.0000000001
 43
0.0000000001
 40
0.0
 40
0.0
 40
0.0
 40
0.0
 40
0.255461019
 40
1.0
 40
1.0
 40
1.0
 40
1.0
 10
668.6361289743135
 20
175.0437489103027
 30
0.0
 10
668.6529712215537
 20
175.0654647419028
 30
0.0
 10
668.7168528971941
 20
175.1520348126032
 30
0.0
 10
668.7724467534942
 20
175.2447557727026
 30
0.0
 10
668.808272196194
 20
175.3163918778429
 30
0.0
  0
SPLINE
  5
22F9
330
2
100
AcDbEntity
  8
0
100
AcDbSpline
210
0.0
220
0.0
230
1.0
 70
     8
 71
     3
 72
    12
 73
     8
 74
     0
 42
0.0000000001
 43
0.0000000001
 40
0.0
 40
0.0
 40
0.0
 40
0.0
 40
0.0801670326
 40
0.1800650687
 40
0.4285257340000002
 40
0.7150532826
 40
1.0
 40
1.0
 40
1.0
 40
1.0
 10
667.9455293623727
 20
174.111710401003
 30
0.0
 10
667.9455716127326
 20
174.1152507774628
 30
0.0
 10
667.9466949023328
 20
174.1231815845631
 30
0.0
 10
667.9519168984933
 20
174.141399678683
 30
0.0
 10
667.9635543682351
 20
174.1670528252432
 30
0.0
 10
667.9818825484933
 20
174.1983138523828
 30
0.0
 10
667.9964358798128
 20
174.2189854239429
 30
0.0
 10
668.0041487752336
 20
174.2289297601625
 30
0.0
  0
SPLINE
  5
22FA
330
2
100
AcDbEntity
  8
0
100
AcDbSpline
210
0.0
220
0.0
230
1.0
 70
     8
 71
     3
 72
    12
 73
     8
 74
     0
 42
0.0000000001
 43
0.0000000001
 40
0.0
 40
0.0
 40
0.0
 40
0.0
 40
0.3022842098
 40
0.5706637498
 40
0.6913758481000001
 40
0.8029847196999998
 40
1.0
 40
1.0
 40
1.0
 40
1.0
 10
668.2156292057127
 20
173.4903560734832
 30
0.0
 10
668.1738794009747
 20
173.5456884342428
 30
0.0
 10
668.0995971365339
 20
173.6537092773829
 30
0.0
 10
668.024853768114
 20
173.7940757200429
 30
0.0
 10
667.9828463387942
 20
173.9010995496827
 30
0.0
 10
667.9550132143738
 20
173.9955507450832
 30
0.0
 10
667.9449902854734
 20
174.0665365187829
 30
0.0
 10
667.9455293623727
 20
174.111710401003
 30
0.0
  0
SPLINE
  5
22FB
330
2
100
AcDbEntity
  8
0
100
AcDbSpline
210
0.0
220
0.0
230
1.0
 70
     8
 71
     3
 72
    19
 73
    15
 74
     0
 42
0.0000000001
 43
0.0000000001
 40
0.0
 40
0.0
 40
0.0
 40
0.0
 40
0.042685474
 40
0.0867743163
 40
0.1334575533
 40
0.1835866476
 40
0.2376469076
 40
0.2957926541
 40
0.3579037163
 40
0.4236415851000002
 40
0.5637169546000002
 40
0.7107572771
 40
0.8583462029000001
 40
1.0
 40
1.0
 40
1.0
 40
1.0
 10
671.3303087573924
 20
175.3005855569028
 30
0.0
 10
671.3390701622723
 20
175.3289362495028
 30
0.0
 10
671.3503093015926
 20
175.3888163634228
 30
0.0
 10
671.3469977537337
 20
175.4821899638233
 30
0.0
 10
671.3240340658533
 20
175.5780069527828
 30
0.0
 10
671.2820850870132
 20
175.6746277196631
 30
0.0
 10
671.2220279884326
 20
175.7705956125627
 30
0.0
 10
671.1449207156751
 20
175.8644497022228
 30
0.0
 10
671.0520417574127
 20
175.9547483938628
 30
0.0
 10
670.9061298622948
 20
176.0709029215231
 30
0.0
 10
670.6942991175536
 20
176.1970215059626
 30
0.0
 10
670.4131820648525
 20
176.3107538439031
 30
0.0
 10
670.1175490467742
 20
176.3829033236827
 30
0.0
 10
669.9162322459527
 20
176.400829477823
 30
0.0
 10
669.8177588919738
 20
176.400829477823
 30
0.0
  0
SPLINE
  5
22FC
330
2
100
AcDbEntity
  8
0
100
AcDbSpline
210
0.0
220
0.0
230
1.0
 70
     8
 71
     3
 72
    15
 73
    11
 74
     0
 42
0.0000000001
 43
0.0000000001
 40
0.0
 40
0.0
 40
0.0
 40
0.0
 40
0.0957468326
 40
0.1960120285
 40
0.3043512427
 40
0.4229205376
 40
0.552507477
 40
0.6927804984
 40
0.8425478787999999
 40
1.0
 40
1.0
 40
1.0
 40
1.0
 10
670.6525428256529
 20
173.1073325570827
 30
0.0
 10
670.6631362537931
 20
173.1416272510027
 30
0.0
 10
670.6750664382147
 20
173.2152146298632
 30
0.0
 10
670.6631940565734
 20
173.3298037783827
 30
0.0
 10
670.6229171521139
 20
173.4466158612431
 30
0.0
 10
670.5558003749943
 20
173.562952760903
 30
0.0
 10
670.4636999368934
 20
173.6763983353831
 30
0.0
 10
670.3488421274927
 20
173.7844797626031
 30
0.0
 10
670.2139540558939
 20
173.8847507711033
 30
0.0
 10
670.1147427353934
 20
173.943675560543
 30
0.0
 10
670.0626421588744
 20
173.971416368663
 30
0.0
  0
SPLINE
  5
22FD
330
2
100
AcDbEntity
  8
0
100
AcDbSpline
210
0.0
220
0.0
230
1.0
 70
     8
 71
     3
 72
    15
 73
    11
 74
     0
 42
0.0000000001
 43
0.0000000001
 40
0.0
 40
0.0
 40
0.0
 40
0.0
 40
0.1310910552
 40
0.2675090501000001
 40
0.4055613400000002
 40
0.5414045534000002
 40
0.67138222
 40
0.7923685802
 40
0.9021651586
 40
1.0
 40
1.0
 40
1.0
 40
1.0
 10
669.0431466565947
 20
173.8941833684432
 30
0.0
 10
669.1205610128121
 20
173.8941833684432
 30
0.0
 10
669.278672726053
 20
173.8830656004829
 30
0.0
 10
669.5142638347546
 20
173.8371701703026
 30
0.0
 10
669.7456588329727
 20
173.763440449843
 30
0.0
 10
669.9634493676742
 20
173.6648434715229
 30
0.0
 10
670.1588811789937
 20
173.5453651633631
 30
0.0
 10
670.3241721438152
 20
173.4096507738827
 30
0.0
 10
670.4527376118525
 20
173.2630301425628
 30
0.0
 10
670.5138779086744
 20
173.1552076150028
 30
0.0
 10
670.5352296947734
 20
173.1015225788629
 30
0.0
  0
LINE
  5
22FE
330
2
100
AcDbEntity
  8
0
100
AcDbLine
 10
670.8055781279147
 20
174.2289297576229
 30
0.0
 11
670.6609396668739
 21
174.1286424474027
 31
0.0
  0
SPLINE
  5
22FF
330
2
100
AcDbEntity
  8
0
100
AcDbSpline
210
0.0
220
0.0
230
1.0
 70
     8
 71
     3
 72
    11
 73
     7
 74
     0
 42
0.0000000001
 43
0.0000000001
 40
0.0
 40
0.0
 40
0.0
 40
0.0
 40
0.2269671024
 40
0.4903818038
 40
0.7593601161
 40
1.0
 40
1.0
 40
1.0
 40
1.0
 10
670.8055781279147
 20
174.2289297576229
 30
0.0
 10
670.8073220334949
 20
174.2183084834632
 30
0.0
 10
670.8149002327139
 20
174.1960209105627
 30
0.0
 10
670.8325777335548
 20
174.1645154998626
 30
0.0
 10
670.8550951154924
 20
174.135439985243
 30
0.0
 10
670.8726525835523
 20
174.1186028129228
 30
0.0
 10
670.8817479603352
 20
174.1117103984632
 30
0.0
  0
SPLINE
  5
2300
330
2
100
AcDbEntity
  8
0
100
AcDbSpline
210
0.0
220
0.0
230
1.0
 70
     8
 71
     3
 72
    13
 73
     9
 74
     0
 42
0.0000000001
 43
0.0000000001
 40
0.0
 40
0.0
 40
0.0
 40
0.0
 40
0.2766901677
 40
0.5325098745
 40
0.6537512922
 40
0.7713687959000001
 40
0.8863856842
 40
1.0
 40
1.0
 40
1.0
 40
1.0
 10
670.6717917787726
 20
175.043740088883
 30
0.0
 10
670.7338156704738
 20
175.0120029438232
 30
0.0
 10
670.8482753348747
 20
174.9403815554428
 30
0.0
 10
670.9675594295535
 20
174.8246584848829
 30
0.0
 10
671.0393038072746
 20
174.7224468401832
 30
0.0
 10
671.0805561199926
 20
174.6431395159429
 30
0.0
 10
671.1096485687923
 20
174.5606509966429
 30
0.0
 10
671.1208298596123
 20
174.5039310161029
 30
0.0
 10
671.1242861519125
 20
174.4755318349031
 30
0.0
  0
LINE
  5
2301
330
2
100
AcDbEntity
  8
0
100
AcDbLine
 10
671.0436936384724
 20
173.3843073879434
 30
0.0
 11
671.241673549854
 21
173.378259165343
 31
0.0
  0
LINE
  5
2302
330
2
100
AcDbEntity
  8
0
100
AcDbLine
 10
670.8817479603352
 20
174.1117103984632
 30
0.0
 11
670.736798984295
 21
174.0096929367631
 31
0.0
  0
SPLINE
  5
2303
330
2
100
AcDbEntity
  8
0
100
AcDbSpline
210
0.0
220
0.0
230
1.0
 70
     8
 71
     3
 72
    11
 73
     7
 74
     0
 42
0.0000000001
 43
0.0000000001
 40
0.0
 40
0.0
 40
0.0
 40
0.0
 40
0.2691400986
 40
0.5228610446000001
 40
0.7647381648
 40
1.0
 40
1.0
 40
1.0
 40
1.0
 10
670.8817479603352
 20
174.1117103984632
 30
0.0
 10
670.9312072797541
 20
174.0742304708829
 30
0.0
 10
671.0218789373747
 20
173.9937536950827
 30
0.0
 10
671.1311042078725
 20
173.8539707031227
 30
0.0
 10
671.2064914993127
 20
173.7018941594232
 30
0.0
 10
671.2327990971947
 20
173.593943001183
 30
0.0
 10
671.2395673031148
 20
173.5401220979032
 30
0.0
  0
SPLINE
  5
2304
330
2
100
AcDbEntity
  8
0
100
AcDbSpline
210
0.0
220
0.0
230
1.0
 70
     8
 71
     3
 72
    15
 73
    11
 74
     0
 42
0.0000000001
 43
0.0000000001
 40
0.0
 40
0.0
 40
0.0
 40
0.0
 40
0.098863852
 40
0.2016523588
 40
0.3115664546
 40
0.4300539617
 40
0.5581507862000002
 40
0.6963983223000003
 40
0.8440531543
 40
1.0
 40
1.0
 40
1.0
 40
1.0
 10
671.1752471625126
 20
174.7990852289431
 30
0.0
 10
671.1839362256536
 20
174.8293860548028
 30
0.0
 10
671.1941630555932
 20
174.8935943338029
 30
0.0
 10
671.1866913433335
 20
174.9934044008829
 30
0.0
 10
671.1575521432926
 20
175.0955755097229
 30
0.0
 10
671.1071211316342
 20
175.1980349365029
 30
0.0
 10
671.0364397743922
 20
175.2988092231431
 30
0.0
 10
670.9475783900137
 20
175.3968277647232
 30
0.0
 10
670.8416457545347
 20
175.490088792323
 30
0.0
 10
670.7628973420545
 20
175.5466684759633
 30
0.0
 10
670.7212788553136
 20
175.5738757418429
 30
0.0
  0
SPLINE
  5
2305
330
2
100
AcDbEntity
  8
0
100
AcDbSpline
210
0.0
220
0.0
230
1.0
 70
     8
 71
     3
 72
    13
 73
     9
 74
     0
 42
0.0000000001
 43
0.0000000001
 40
0.0
 40
0.0
 40
0.0
 40
0.0
 40
0.1112934455
 40
0.1969140869
 40
0.3073739167
 40
0.4434911236
 40
0.6051582606000001
 40
1.0
 40
1.0
 40
1.0
 40
1.0
 10
671.0353048414348
 20
173.3579566608625
 30
0.0
 10
671.0363708260937
 20
173.3579251293029
 30
0.0
 10
671.0380935861725
 20
173.3593641840831
 30
0.0
 10
671.0394306142323
 20
173.3619142170833
 30
0.0
 10
671.0405676122149
 20
173.364921018283
 30
0.0
 10
671.0415531576138
 20
173.368702969063
 30
0.0
 10
671.0427989869733
 20
173.3752288742233
 30
0.0
 10
671.0433800881731
 20
173.3805368900233
 30
0.0
 10
671.0436936384724
 20
173.3843073879434
 30
0.0
  0
SPLINE
  5
2306
330
2
100
AcDbEntity
  8
0
100
AcDbSpline
210
0.0
220
0.0
230
1.0
 70
     8
 71
     3
 72
    17
 73
    13
 74
     0
 42
0.0000000001
 43
0.0000000001
 40
0.0
 40
0.0
 40
0.0
 40
0.0
 40
0.0326780441
 40
0.0667049915
 40
0.1043880832
 40
0.1470988091
 40
0.2497139432
 40
0.3764315578000001
 40
0.5241754479000002
 40
0.6861672256999999
 40
0.8504128452999999
 40
1.0
 40
1.0
 40
1.0
 40
1.0
 10
669.1691094653752
 20
175.9203654070033
 30
0.0
 10
669.1649221051938
 20
175.9232869912027
 30
0.0
 10
669.1552136257536
 20
175.9277493749628
 30
0.0
 10
669.1386817004735
 20
175.9290685747628
 30
0.0
 10
669.1210130413727
 20
175.9252554658031
 30
0.0
 10
669.0949231646749
 20
175.9131337526832
 30
0.0
 10
669.0619520901531
 20
175.8853221903231
 30
0.0
 10
669.0255889726334
 20
175.8387124308629
 30
0.0
 10
668.9913903770722
 20
175.7795174870229
 30
0.0
 10
668.9605299587341
 20
175.712123557803
 30
0.0
 10
668.9338492627943
 20
175.6426972475828
 30
0.0
 10
668.918203921973
 20
175.5962064845828
 30
0.0
 10
668.9113032448942
 20
175.5738758790031
 30
0.0
  0
LINE
  5
2307
330
2
100
AcDbEntity
  8
0
100
AcDbLine
 10
668.1729251102741
 20
174.1286424499431
 30
0.0
 11
668.0041487752336
 21
174.2289297601625
 31
0.0
  0
SPLINE
  5
2308
330
2
100
AcDbEntity
  8
0
100
AcDbSpline
210
0.0
220
0.0
230
1.0
 70
     8
 71
     3
 72
    12
 73
     8
 74
     0
 42
0.0000000001
 43
0.0000000001
 40
0.0
 40
0.0
 40
0.0
 40
0.0
 40
0.2833768741
 40
0.5699048215
 40
0.8190410652
 40
0.9193534028
 40
1.0
 40
1.0
 40
1.0
 40
1.0
 10
668.1729251102741
 20
174.1286424499431
 30
0.0
 10
668.1651166371941
 20
174.1186368184431
 30
0.0
 10
668.1503614977931
 20
174.0977555394031
 30
0.0
 10
668.1317847861532
 20
174.0660940863426
 30
0.0
 10
668.1200301741527
 20
174.0399941944233
 30
0.0
 10
668.1148665700542
 20
174.0214063347231
 30
0.0
 10
668.1138318172327
 20
174.0133048904233
 30
0.0
 10
668.1138525360124
 20
174.0096929367631
 30
0.0
  0
SPLINE
  5
2309
330
2
100
AcDbEntity
  8
0
100
AcDbSpline
210
0.0
220
0.0
230
1.0
 70
     8
 71
     3
 72
    11
 73
     7
 74
     0
 42
0.0000000001
 43
0.0000000001
 40
0.0
 40
0.0
 40
0.0
 40
0.0
 40
0.2223491541
 40
0.4602889663000001
 40
0.7184187248000002
 40
1.0
 40
1.0
 40
1.0
 40
1.0
 10
668.8011278289726
 20
174.933604871003
 30
0.0
 10
668.7962645062132
 20
174.921191436343
 30
0.0
 10
668.7888076046937
 20
174.894417951663
 30
0.0
 10
668.7846789108919
 20
174.851361527743
 30
0.0
 10
668.7872239908926
 20
174.804655263523
 30
0.0
 10
668.7930968391922
 20
174.7727455229231
 30
0.0
 10
668.7969939408739
 20
174.7563177605032
 30
0.0
  0
SPLINE
  5
230A
330
2
100
AcDbEntity
  8
0
100
AcDbSpline
210
0.0
220
0.0
230
1.0
 70
     8
 71
     3
 72
    15
 73
    11
 74
     0
 42
0.0000000001
 43
0.0000000001
 40
0.0
 40
0.0
 40
0.0
 40
0.0
 40
0.1557728833
 40
0.30328945
 40
0.4414361619
 40
0.5697115372
 40
0.6882232854000003
 40
0.7979815268000002
 40
0.9009383681999999
 40
1.0
 40
1.0
 40
1.0
 40
1.0
 10
670.7005269283121
 20
175.4953518094828
 30
0.0
 10
670.7419925502321
 20
175.4678902032428
 30
0.0
 10
670.8204189643724
 20
175.4108100126032
 30
0.0
 10
670.9258741890728
 20
175.3169306778826
 30
0.0
 10
671.0143515813346
 20
175.2183320485634
 30
0.0
 10
671.0843185991327
 20
175.116817425583
 30
0.0
 10
671.1343784685334
 20
175.0140217459829
 30
0.0
 10
671.1634346537532
 20
174.9116671729425
 30
0.0
 10
671.170672378675
 20
174.811630860443
 30
0.0
 10
671.1603695163752
 20
174.7472439965828
 30
0.0
 10
671.1516824420535
 20
174.716832312423
 30
0.0
  0
LINE
  5
230B
330
2
100
AcDbEntity
  8
0
100
AcDbLine
 10
668.1138525360124
 20
174.0096929367631
 30
0.0
 11
667.9455293623727
 21
174.111710401003
 31
0.0
  0
SPLINE
  5
230C
330
2
100
AcDbEntity
  8
0
100
AcDbSpline
210
0.0
220
0.0
230
1.0
 70
     8
 71
     3
 72
    11
 73
     7
 74
     0
 42
0.0000000001
 43
0.0000000001
 40
0.0
 40
0.0
 40
0.0
 40
0.0
 40
0.2053163048
 40
0.4397913383
 40
0.7049320369
 40
1.0
 40
1.0
 40
1.0
 40
1.0
 10
668.1138525360124
 20
174.0096929367631
 30
0.0
 10
668.1140335770536
 20
173.9781325630029
 30
0.0
 10
668.1225180431932
 20
173.9105225864632
 30
0.0
 10
668.1542150816525
 20
173.8065365765031
 30
0.0
 10
668.2049387851346
 20
173.6950981176432
 30
0.0
 10
668.2486919285151
 20
173.6207579589832
 30
0.0
 10
668.2732846377742
 20
173.5826464096025
 30
0.0
  0
SPLINE
  5
230D
330
2
100
AcDbEntity
  8
0
100
AcDbSpline
210
0.0
220
0.0
230
1.0
 70
     8
 71
     3
 72
     9
 73
     5
 74
     0
 42
0.0000000001
 43
0.0000000001
 40
0.0
 40
0.0
 40
0.0
 40
0.0
 40
0.4863275344
 40
1.0
 40
1.0
 40
1.0
 40
1.0
 10
670.6717740825927
 20
175.0437491439832
 30
0.0
 10
670.6598255695337
 20
175.1165371416631
 30
0.0
 10
670.6543226900134
 20
175.269660678443
 30
0.0
 10
670.6806507501336
 20
175.4200202151628
 30
0.0
 10
670.7005269283121
 20
175.4953518094828
 30
0.0
  0
SPLINE
  5
230E
330
2
100
AcDbEntity
  8
0
100
AcDbSpline
210
0.0
220
0.0
230
1.0
 70
     8
 71
     3
 72
    11
 73
     7
 74
     0
 42
0.0000000001
 43
0.0000000001
 40
0.0
 40
0.0
 40
0.0
 40
0.0
 40
0.4473720909
 40
0.576365089
 40
0.7117885953
 40
1.0
 40
1.0
 40
1.0
 40
1.0
 10
668.3765434330337
 20
173.6833355579826
 30
0.0
 10
668.4529548651719
 20
173.757180238843
 30
0.0
 10
668.5813682557949
 20
173.821620844023
 30
0.0
 10
668.7444211935939
 20
173.8648098534032
 30
0.0
 10
668.8738615316136
 20
173.8879470690033
 30
0.0
 10
668.9746888813926
 20
173.8941833684432
 30
0.0
 10
669.0431466565947
 20
173.8941833684432
 30
0.0
  0
SPLINE
  5
230F
330
2
100
AcDbEntity
  8
0
100
AcDbSpline
210
0.0
220
0.0
230
1.0
 70
     8
 71
     3
 72
    21
 73
    17
 74
     0
 42
0.0000000001
 43
0.0000000001
 40
0.0
 40
0.0
 40
0.0
 40
0.0
 40
0.1173858847
 40
0.2469690806
 40
0.3138755979
 40
0.380986624
 40
0.4478523646000001
 40
0.5141539818
 40
0.5797071364999999
 40
0.644315769
 40
0.7077549043000002
 40
0.7697484652
 40
0.8300444395999997
 40
0.8883625824999999
 40
0.9448214715
 40
1.0
 40
1.0
 40
1.0
 40
1.0
 10
670.7212788553136
 20
175.5738757418429
 30
0.0
 10
670.7302793402326
 20
175.6030013274829
 30
0.0
 10
670.7324679337729
 20
175.6696009834628
 30
0.0
 10
670.7044695290127
 20
175.7477482414427
 30
0.0
 10
670.6668315270722
 20
175.8052226680233
 30
0.0
 10
670.6313783543922
 20
175.8438115138833
 30
0.0
 10
670.5905026804941
 20
175.876311542863
 30
0.0
 10
670.5453150898947
 20
175.9017030364027
 30
0.0
 10
670.4971669972131
 20
175.9192562779031
 30
0.0
 10
670.4475023619733
 20
175.9284976335634
 30
0.0
 10
670.3978807035348
 20
175.9289683946227
 30
0.0
 10
670.3501169865134
 20
175.9204025418033
 30
0.0
 10
670.3061604069127
 20
175.9030530718026
 30
0.0
 10
670.2683736651132
 20
175.8769911249431
 30
0.0
 10
670.2390055907528
 20
175.843389490343
 30
0.0
 10
670.2265173530926
 20
175.8166945627831
 30
0.0
 10
670.2224195177526
 20
175.8029633837429
 30
0.0
  0
SPLINE
  5
2310
330
2
100
AcDbEntity
  8
0
100
AcDbSpline
210
0.0
220
0.0
230
1.0
 70
     8
 71
     3
 72
    10
 73
     6
 74
     0
 42
0.0000000001
 43
0.0000000001
 40
0.0
 40
0.0
 40
0.0
 40
0.0
 40
0.5246559797
 40
0.7658830592000001
 40
1.0
 40
1.0
 40
1.0
 40
1.0
 10
669.0845230483139
 20
166.8816361286431
 30
0.0
 10
669.1254428826534
 20
166.7982502730632
 30
0.0
 10
669.1691367144934
 20
166.6660797042828
 30
0.0
 10
669.1729620535538
 20
166.4880682594433
 30
0.0
 10
669.1569051666951
 20
166.4046509866033
 30
0.0
 10
669.1446706470927
 20
166.365049760243
 30
0.0
  0
SPLINE
  5
2311
330
2
100
AcDbEntity
  8
0
100
AcDbSpline
210
0.0
220
0.0
230
1.0
 70
     8
 71
     3
 72
    19
 73
    15
 74
     0
 42
0.0000000001
 43
0.0000000001
 40
0.0
 40
0.0
 40
0.0
 40
0.0
 40
0.1137033005
 40
0.178343165
 40
0.247246348
 40
0.3933754201
 40
0.5422374494
 40
0.6831312648000001
 40
0.7478115355
 40
0.8075229162000001
 40
0.8619674193999998
 40
0.9114134127999999
 40
0.9568428196999999
 40
1.0
 40
1.0
 40
1.0
 40
1.0
 10
669.0845230483139
 20
166.8816361286431
 30
0.0
 10
669.0200246403548
 20
167.0130700669427
 30
0.0
 10
668.8751532511527
 20
167.1981205934632
 30
0.0
 10
668.6347098610724
 20
167.4068792564629
 30
0.0
 10
668.3363043948933
 20
167.6100184564828
 30
0.0
 10
667.9091083455536
 20
167.8103736361626
 30
0.0
 10
667.3631436792942
 20
167.9523159253029
 30
0.0
 10
666.9038367696142
 20
167.9815894176829
 30
0.0
 10
666.5636687174131
 20
167.9424712764631
 30
0.0
 10
666.3397436128132
 20
167.8852757545828
 30
0.0
 10
666.1456320807928
 20
167.8006853344829
 30
0.0
 10
665.9864515812736
 20
167.6901708336428
 30
0.0
 10
665.8671764832737
 20
167.5558520090631
 30
0.0
 10
665.8170649934532
 20
167.4513165082029
 30
0.0
 10
665.8006619731726
 20
167.3982224970433
 30
0.0
  0
SPLINE
  5
2312
330
2
100
AcDbEntity
  8
0
100
AcDbSpline
210
0.0
220
0.0
230
1.0
 70
     8
 71
     3
 72
    10
 73
     6
 74
     0
 42
0.0000000001
 43
0.0000000001
 40
0.0
 40
0.0
 40
0.0
 40
0.0
 40
0.5246559797
 40
0.7658830592000001
 40
1.0
 40
1.0
 40
1.0
 40
1.0
 10
670.415887827793
 20
171.1899341312827
 30
0.0
 10
670.4568076621328
 20
171.1065482757028
 30
0.0
 10
670.5005014914344
 20
170.9743777069231
 30
0.0
 10
670.5043268304947
 20
170.7963662620829
 30
0.0
 10
670.488269946174
 20
170.7129489892429
 30
0.0
 10
670.4760354240337
 20
170.6733477628832
 30
0.0
  0
SPLINE
  5
2313
330
2
100
AcDbEntity
  8
0
100
AcDbSpline
210
0.0
220
0.0
230
1.0
 70
     8
 71
     3
 72
    19
 73
    15
 74
     0
 42
0.0000000001
 43
0.0000000001
 40
0.0
 40
0.0
 40
0.0
 40
0.0
 40
0.1137033005
 40
0.178343165
 40
0.247246348
 40
0.3933754201
 40
0.5422374494
 40
0.6831312648000001
 40
0.7478115355
 40
0.8075229162000001
 40
0.8619674193999998
 40
0.9114134127999999
 40
0.9568428196999999
 40
1.0
 40
1.0
 40
1.0
 40
1.0
 10
670.415887827793
 20
171.1899341312827
 30
0.0
 10
670.3513894198339
 20
171.3213680695829
 30
0.0
 10
670.2065180306348
 20
171.5064185961027
 30
0.0
 10
669.9660746380135
 20
171.7151772591031
 30
0.0
 10
669.6676691743748
 20
171.918316459123
 30
0.0
 10
669.2404731250324
 20
172.1186716388029
 30
0.0
 10
668.6945084587732
 20
172.260613927943
 30
0.0
 10
668.2352015490936
 20
172.2898874203231
 30
0.0
 10
667.8950334968951
 20
172.2507692791026
 30
0.0
 10
667.6711083922922
 20
172.1935737572231
 30
0.0
 10
667.4769968577337
 20
172.1089833371231
 30
0.0
 10
667.3178163607524
 20
171.998468836283
 30
0.0
 10
667.1985412627531
 20
171.8641500117026
 30
0.0
 10
667.148429772935
 20
171.759614510843
 30
0.0
 10
667.1320267526547
 20
171.7065204996828
 30
0.0
  0
SPLINE
  5
2314
330
2
100
AcDbEntity
  8
0
100
AcDbSpline
210
0.0
220
0.0
230
1.0
 70
     8
 71
     3
 72
    16
 73
    12
 74
     0
 42
0.0000000001
 43
0.0000000001
 40
0.0
 40
0.0
 40
0.0
 40
0.0
 40
0.1227057559
 40
0.2549013906
 40
0.3966217104
 40
0.5424550788
 40
0.6826734993000001
 40
0.8067448929000001
 40
0.9099564202999999
 40
0.9557258924999999
 40
1.0
 40
1.0
 40
1.0
 40
1.0
 10
669.1016825542545
 20
172.8660816603633
 30
0.0
 10
669.0911179805151
 20
172.8318946878431
 30
0.0
 10
669.0536708468747
 20
172.7651772241227
 30
0.0
 10
668.9649342374528
 20
172.6885404101627
 30
0.0
 10
668.8544000719327
 20
172.6337098264027
 30
0.0
 10
668.7333987213539
 20
172.6007785765427
 30
0.0
 10
668.6136206779541
 20
172.589862873203
 30
0.0
 10
668.5062907224327
 20
172.6009464045033
 30
0.0
 10
668.4305900127741
 20
172.6315273441032
 30
0.0
 10
668.3880749873136
 20
172.6693266766827
 30
0.0
 10
668.3733623725924
 20
172.6914989793028
 30
0.0
 10
668.3676780532536
 20
172.7030910236831
 30
0.0
  0
SPLINE
  5
2315
330
2
100
AcDbEntity
  8
0
100
AcDbSpline
210
0.0
220
0.0
230
1.0
 70
     8
 71
     3
 72
    10
 73
     6
 74
     0
 42
0.0000000001
 43
0.0000000001
 40
0.0
 40
0.0
 40
0.0
 40
0.0
 40
0.5246511981000001
 40
0.7658962709999999
 40
1.0
 40
1.0
 40
1.0
 40
1.0
 10
670.5363165074344
 20
173.0699187152229
 30
0.0
 10
670.5655401192947
 20
173.0103672544429
 30
0.0
 10
670.5967504200937
 20
172.9159742860026
 30
0.0
 10
670.5994863937942
 20
172.7888446698026
 30
0.0
 10
670.5880349053935
 20
172.7292663205829
 30
0.0
 10
670.579298643975
 20
172.7009855008427
 30
0.0
  0
SPLINE
  5
2316
330
2
100
AcDbEntity
  8
0
100
AcDbSpline
210
0.0
220
0.0
230
1.0
 70
     8
 71
     3
 72
    18
 73
    14
 74
     0
 42
0.0000000001
 43
0.0000000001
 40
0.0
 40
0.0
 40
0.0
 40
0.0
 40
0.1137400984
 40
0.1783975493
 40
0.2473220826
 40
0.393496056
 40
0.5424035254000002
 40
0.6833365593999999
 40
0.8074719319999999
 40
0.8619296348
 40
0.9113878373
 40
0.9568303523
 40
1.0
 40
1.0
 40
1.0
 40
1.0
 10
670.5363165074344
 20
173.0699187152229
 30
0.0
 10
670.4902438030334
 20
173.1638050146228
 30
0.0
 10
670.3867582848337
 20
173.295987226763
 30
0.0
 10
670.2150083794139
 20
173.4451051708427
 30
0.0
 10
670.0018452116336
 20
173.5902061252427
 30
0.0
 10
669.6967522683547
 20
173.733303591143
 30
0.0
 10
669.3065104326327
 20
173.8347319862029
 30
0.0
 10
668.9242971559138
 20
173.8590071624433
 30
0.0
 10
668.6302797276947
 20
173.810492169303
 30
0.0
 10
668.4370569746945
 20
173.7263634831031
 30
0.0
 10
668.323370143393
 20
173.6473975475628
 30
0.0
 10
668.238175289653
 20
173.5514550521228
 30
0.0
 10
668.2023974363941
 20
173.4767772284028
 30
0.0
 10
668.1906818870551
 20
173.4388519296029
 30
0.0
  0
SPLINE
  5
2317
330
2
100
AcDbEntity
  8
0
100
AcDbSpline
210
0.0
220
0.0
230
1.0
 70
     8
 71
     3
 72
     9
 73
     5
 74
     0
 42
0.0000000001
 43
0.0000000001
 40
0.0
 40
0.0
 40
0.0
 40
0.0
 40
0.5246844734
 40
1.0
 40
1.0
 40
1.0
 40
1.0
 10
671.9898945553144
 20
177.8482128644831
 30
0.0
 10
672.0149366134339
 20
177.7971825118831
 30
0.0
 10
672.0515080719127
 20
177.6934557216228
 30
0.0
 10
672.0525774500141
 20
177.582481041363
 30
0.0
 10
672.0431581902142
 20
177.5318547468829
 30
0.0
  0
SPLINE
  5
2318
330
2
100
AcDbEntity
  8
0
100
AcDbSpline
210
0.0
220
0.0
230
1.0
 70
     8
 71
     3
 72
    17
 73
    13
 74
     0
 42
0.0000000001
 43
0.0000000001
 40
0.0
 40
0.0
 40
0.0
 40
0.0
 40
0.1126594709
 40
0.2444232738
 40
0.3890329547
 40
0.5370383768
 40
0.6782612034000001
 40
0.8040295408
 40
0.8596355722
 40
0.9102482174999998
 40
0.9565657440999999
 40
1.0
 40
1.0
 40
1.0
 40
1.0
 10
671.9898945553144
 20
177.8482128644831
 30
0.0
 10
671.9459043537347
 20
177.937855469043
 30
0.0
 10
671.8103988538545
 20
178.1125988914632
 30
0.0
 10
671.5343492103727
 20
178.323146103083
 30
0.0
 10
671.193660036535
 20
178.4880283895233
 30
0.0
 10
670.8209358061139
 20
178.5909196417027
 30
0.0
 10
670.4523241227124
 20
178.6221806485227
 30
0.0
 10
670.1653084178546
 20
178.584276662863
 30
0.0
 10
669.9720535440121
 20
178.5115376973433
 30
0.0
 10
669.8553393349724
 20
178.4415257037627
 30
0.0
 10
669.764195285614
 20
178.3552132017629
 30
0.0
 10
669.7218125687543
 20
178.2865135906232
 30
0.0
 10
669.7065022259923
 20
178.251191479403
 30
0.0
  0
SPLINE
  5
2319
330
2
100
AcDbEntity
  8
0
100
AcDbSpline
210
0.0
220
0.0
230
1.0
 70
     8
 71
     3
 72
    10
 73
     6
 74
     0
 42
0.0000000001
 43
0.0000000001
 40
0.0
 40
0.0
 40
0.0
 40
0.0
 40
0.5246511981000001
 40
0.7658962709999999
 40
1.0
 40
1.0
 40
1.0
 40
1.0
 10
673.5633256578742
 20
182.9398377764626
 30
0.0
 10
673.5919647979539
 20
182.8814773445433
 30
0.0
 10
673.6225508912124
 20
182.7889722361828
 30
0.0
 10
673.6252321456929
 20
182.6643852107828
 30
0.0
 10
673.6140096890928
 20
182.605998431443
 30
0.0
 10
673.6054481491922
 20
182.5782832265229
 30
0.0
  0
SPLINE
  5
231A
330
2
100
AcDbEntity
  8
0
100
AcDbSpline
210
0.0
220
0.0
230
1.0
 70
     8
 71
     3
 72
    18
 73
    14
 74
     0
 42
0.0000000001
 43
0.0000000001
 40
0.0
 40
0.0
 40
0.0
 40
0.0
 40
0.1137400984
 40
0.1783975493
 40
0.2473220826
 40
0.393496056
 40
0.5424035254000002
 40
0.6833365593999999
 40
0.8074719319999999
 40
0.8619296348
 40
0.9113878373
 40
0.9568303523
 40
1.0
 40
1.0
 40
1.0
 40
1.0
 10
673.5633256578742
 20
182.9398377764626
 30
0.0
 10
673.5181744070536
 20
183.0318463503833
 30
0.0
 10
673.4167585976932
 20
183.1613849178229
 30
0.0
 10
673.2484436917522
 20
183.3075205031233
 30
0.0
 10
673.0395437895126
 20
183.4497194389433
 30
0.0
 10
672.7405527034727
 20
183.5899549547628
 30
0.0
 10
672.3581157060928
 20
183.689354781363
 30
0.0
 10
671.9835466939928
 20
183.7131444569227
 30
0.0
 10
671.6954096146931
 20
183.6655997615632
 30
0.0
 10
671.506051316753
 20
183.5831536475631
 30
0.0
 10
671.3946382197948
 20
183.5057670306833
 30
0.0
 10
671.3111472640925
 20
183.4117433858628
 30
0.0
 10
671.2760849694726
 20
183.3385591202432
 30
0.0
 10
671.2646037275128
 20
183.3013923264032
 30
0.0
  0
SPLINE
  5
231B
330
2
100
AcDbEntity
  8
0
100
AcDbSpline
210
0.0
220
0.0
230
1.0
 70
     8
 71
     3
 72
     9
 73
     5
 74
     0
 42
0.0000000001
 43
0.0000000001
 40
0.0
 40
0.0
 40
0.0
 40
0.0
 40
0.5003036947
 40
1.0
 40
1.0
 40
1.0
 40
1.0
 10
669.0859288900532
 20
173.055378828123
 30
0.0
 10
669.1001350948138
 20
173.0264136993627
 30
0.0
 10
669.1184500086536
 20
172.9628170422031
 30
0.0
 10
669.1111960709124
 20
172.8968674077826
 30
0.0
 10
669.1016825542545
 20
172.8660816603633
 30
0.0
  0
SPLINE
  5
231C
330
2
100
AcDbEntity
  8
0
100
AcDbSpline
210
0.0
220
0.0
230
1.0
 70
     8
 71
     3
 72
     9
 73
     5
 74
     0
 42
0.0000000001
 43
0.0000000001
 40
0.0
 40
0.0
 40
0.0
 40
0.0
 40
0.5186604909
 40
1.0
 40
1.0
 40
1.0
 40
1.0
 10
668.6770356311337
 20
172.8670453160428
 30
0.0
 10
668.6358404455535
 20
172.8314324688028
 30
0.0
 10
668.5666586103332
 20
172.7507003544228
 30
0.0
 10
668.5177105217925
 20
172.6564416656229
 30
0.0
 10
668.5013693073345
 20
172.6086202372627
 30
0.0
  0
SPLINE
  5
231D
330
2
100
AcDbEntity
  8
0
100
AcDbSpline
210
0.0
220
0.0
230
1.0
 70
     8
 71
     3
 72
    17
 73
    13
 74
     0
 42
0.0000000001
 43
0.0000000001
 40
0.0
 40
0.0
 40
0.0
 40
0.0
 40
0.1137658663
 40
0.2471373552
 40
0.3933412907
 40
0.5422809545
 40
0.6832498863
 40
0.8074177703
 40
0.8618935675999999
 40
0.9113653625999999
 40
0.9568206338999999
 40
1.0
 40
1.0
 40
1.0
 40
1.0
 10
668.1043439190132
 20
166.3922743209826
 30
0.0
 10
668.0730162473548
 20
166.4561134008229
 30
0.0
 10
667.9756955529922
 20
166.5803364620028
 30
0.0
 10
667.7775184969752
 20
166.7287414509429
 30
0.0
 10
667.5335321574138
 20
166.8433867664831
 30
0.0
 10
667.2681367268122
 20
166.9123186682426
 30
0.0
 10
667.0082547802341
 20
166.9288661992827
 30
0.0
 10
666.8083250861131
 20
166.8958780839029
 30
0.0
 10
666.6769200276153
 20
166.8387041952028
 30
0.0
 10
666.5996051962132
 20
166.7850138072832
 30
0.0
 10
666.5416664144538
 20
166.7197849181831
 30
0.0
 10
666.5173094629133
 20
166.6690195206028
 30
0.0
 10
666.5093353132538
 20
166.6432342915029
 30
0.0
  0
SPLINE
  5
231E
330
2
100
AcDbEntity
  8
0
100
AcDbSpline
210
0.0
220
0.0
230
1.0
 70
     8
 71
     3
 72
     9
 73
     5
 74
     0
 42
0.0000000001
 43
0.0000000001
 40
0.0
 40
0.0
 40
0.0
 40
0.0
 40
0.2473499755
 40
1.0
 40
1.0
 40
1.0
 40
1.0
 10
673.4692555615332
 20
182.1455888772828
 30
0.0
 10
673.4661760299721
 20
182.1384636438826
 30
0.0
 10
673.4529069632933
 20
182.110016126483
 30
0.0
 10
673.4363814769142
 20
182.0831049915826
 30
0.0
 10
673.4224562190122
 20
182.0640271862033
 30
0.0
  0
SPLINE
  5
231F
330
2
100
AcDbEntity
  8
0
100
AcDbSpline
210
0.0
220
0.0
230
1.0
 70
     8
 71
     3
 72
     9
 73
     5
 74
     0
 42
0.0000000001
 43
0.0000000001
 40
0.0
 40
0.0
 40
0.0
 40
0.0
 40
0.5259999189000001
 40
1.0
 40
1.0
 40
1.0
 40
1.0
 10
668.1043439190132
 20
166.3922743209826
 30
0.0
 10
668.1242220910937
 20
166.3517668607227
 30
0.0
 10
668.1520569884336
 20
166.268665474983
 30
0.0
 10
668.1455621042927
 20
166.1801604856229
 30
0.0
 10
668.133548833934
 20
166.141314350463
 30
0.0
  0
SPLINE
  5
2320
330
2
100
AcDbEntity
  8
0
100
AcDbSpline
210
0.0
220
0.0
230
1.0
 70
     8
 71
     3
 72
     9
 73
     5
 74
     0
 42
0.0000000001
 43
0.0000000001
 40
0.0
 40
0.0
 40
0.0
 40
0.0
 40
0.247439251
 40
1.0
 40
1.0
 40
1.0
 40
1.0
 10
671.3530556029349
 20
175.2896017206028
 30
0.0
 10
671.3496951397522
 20
175.2790882288028
 30
0.0
 10
671.3343784876349
 20
175.2371654449827
 30
0.0
 10
671.3120640389937
 20
175.1978649774829
 30
0.0
 10
671.2922725748942
 20
175.1707503809631
 30
0.0
  0
SPLINE
  5
2321
330
2
100
AcDbEntity
  8
0
100
AcDbSpline
210
0.0
220
0.0
230
1.0
 70
     8
 71
     3
 72
    11
 73
     7
 74
     0
 42
0.0000000001
 43
0.0000000001
 40
0.0
 40
0.0
 40
0.0
 40
0.0
 40
0.2312529289
 40
0.4707543639000001
 40
0.7254054988
 40
1.0
 40
1.0
 40
1.0
 40
1.0
 10
670.1008326235136
 20
169.4591910548031
 30
0.0
 10
670.0874968056331
 20
169.4160250984627
 30
0.0
 10
670.0497033023532
 20
169.331084673983
 30
0.0
 10
669.9633640236727
 20
169.2173312845229
 30
0.0
 10
669.8493153668326
 20
169.1182190164032
 30
0.0
 10
669.7600014890724
 20
169.0650591252629
 30
0.0
 10
669.7120278004125
 20
169.0410492926629
 30
0.0
  0
SPLINE
  5
2322
330
2
100
AcDbEntity
  8
0
100
AcDbSpline
210
0.0
220
0.0
230
1.0
 70
     8
 71
     3
 72
    19
 73
    15
 74
     0
 42
0.0000000001
 43
0.0000000001
 40
0.0
 40
0.0
 40
0.0
 40
0.0
 40
0.0431571803
 40
0.0885865872
 40
0.1380325806
 40
0.1924770838
 40
0.2521884645
 40
0.3168687352
 40
0.4577625506000002
 40
0.6066245799000001
 40
0.752753652
 40
0.8216568349999999
 40
0.8862966995
 40
1.0
 40
1.0
 40
1.0
 40
1.0
 10
668.902604324015
 20
165.5817228509029
 30
0.0
 10
668.8862013011934
 20
165.5286288397433
 30
0.0
 10
668.8360898113727
 20
165.424093338883
 30
0.0
 10
668.7168147133727
 20
165.2897745143027
 30
0.0
 10
668.5576342163947
 20
165.179260016003
 30
0.0
 10
668.3635226818336
 20
165.0946695933633
 30
0.0
 10
668.1395975772333
 20
165.0374740740227
 30
0.0
 10
667.7994295275732
 20
164.998355932803
 30
0.0
 10
667.3401226153522
 20
165.0276294226431
 30
0.0
 10
666.7941579490927
 20
165.1695717117828
 30
0.0
 10
666.3669618997536
 20
165.3699268914633
 30
0.0
 10
666.068556436115
 20
165.5730660914832
 30
0.0
 10
665.8281130434938
 20
165.7818247544829
 30
0.0
 10
665.6832416542946
 20
165.9668752810027
 30
0.0
 10
665.6187432463329
 20
166.098309219303
 30
0.0
  0
SPLINE
  5
2323
330
2
100
AcDbEntity
  8
0
100
AcDbSpline
210
0.0
220
0.0
230
1.0
 70
     8
 71
     3
 72
    10
 73
     6
 74
     0
 42
0.0000000001
 43
0.0000000001
 40
0.0
 40
0.0
 40
0.0
 40
0.0
 40
0.2341169408
 40
0.4753440203000002
 40
1.0
 40
1.0
 40
1.0
 40
1.0
 10
665.5585956500947
 20
166.6148955877032
 30
0.0
 10
665.5463611279546
 20
166.5752943613429
 30
0.0
 10
665.5303042436337
 20
166.4918770885028
 30
0.0
 10
665.534129582694
 20
166.3138656436633
 30
0.0
 10
665.5778234119927
 20
166.181695074883
 30
0.0
 10
665.6187432463329
 20
166.098309219303
 30
0.0
  0
LINE
  5
2324
330
2
100
AcDbEntity
  8
0
100
AcDbLine
 10
671.1324294249329
 20
182.8645324381233
 30
0.0
 11
671.125445895594
 21
182.7919037441629
 31
0.0
  0
SPLINE
  5
2325
330
2
100
AcDbEntity
  8
0
100
AcDbSpline
210
0.0
220
0.0
230
1.0
 70
     8
 71
     3
 72
    10
 73
     6
 74
     0
 42
0.0000000001
 43
0.0000000001
 40
0.0
 40
0.0
 40
0.0
 40
0.0
 40
0.2341169408
 40
0.4753440203000002
 40
1.0
 40
1.0
 40
1.0
 40
1.0
 10
666.7568239495935
 20
170.4923637916033
 30
0.0
 10
666.7445894299943
 20
170.4527625652431
 30
0.0
 10
666.7285325431325
 20
170.369345292403
 30
0.0
 10
666.7323578821927
 20
170.1913338475628
 30
0.0
 10
666.7760517114942
 20
170.0591632787832
 30
0.0
 10
666.816971548372
 20
169.9757774232032
 30
0.0
  0
LINE
  5
2326
330
2
100
AcDbEntity
  8
0
100
AcDbLine
 10
669.0051141469332
 20
175.9852879263829
 30
0.0
 11
668.9952622514728
 21
175.8986269414632
 31
0.0
  0
SPLINE
  5
2327
330
2
100
AcDbEntity
  8
0
100
AcDbSpline
210
0.0
220
0.0
230
1.0
 70
     8
 71
     3
 72
    10
 73
     6
 74
     0
 42
0.0000000001
 43
0.0000000001
 40
0.0
 40
0.0
 40
0.0
 40
0.0
 40
0.5246511981000001
 40
0.7658962709999999
 40
1.0
 40
1.0
 40
1.0
 40
1.0
 10
671.312108849673
 20
175.6548975178227
 30
0.0
 10
671.3407479897527
 20
175.5965370859026
 30
0.0
 10
671.3713340830138
 20
175.5040319775429
 30
0.0
 10
671.3740153374947
 20
175.3794449521429
 30
0.0
 10
671.3627928808945
 20
175.3210581702633
 30
0.0
 10
671.3542313435348
 20
175.2933429678829
 30
0.0
  0
SPLINE
  5
2328
330
2
100
AcDbEntity
  8
0
100
AcDbSpline
210
0.0
220
0.0
230
1.0
 70
     8
 71
     3
 72
     9
 73
     5
 74
     0
 42
0.0000000001
 43
0.0000000001
 40
0.0
 40
0.0
 40
0.0
 40
0.0
 40
0.4740000811
 40
1.0
 40
1.0
 40
1.0
 40
1.0
 10
666.5093353132538
 20
166.6432342915029
 30
0.0
 10
666.497322042895
 20
166.604388156343
 30
0.0
 10
666.4908271587541
 20
166.5158831669829
 30
0.0
 10
666.5186620535528
 20
166.4327817812432
 30
0.0
 10
666.5385402281742
 20
166.3922743209826
 30
0.0
  0
SPLINE
  5
2329
330
2
100
AcDbEntity
  8
0
100
AcDbSpline
210
0.0
220
0.0
230
1.0
 70
     8
 71
     3
 72
    10
 73
     6
 74
     0
 42
0.0000000001
 43
0.0000000001
 40
0.0
 40
0.0
 40
0.0
 40
0.0
 40
0.5246511981000001
 40
0.7658962709999999
 40
1.0
 40
1.0
 40
1.0
 40
1.0
 10
673.4422924963322
 20
182.548174320523
 30
0.0
 10
673.4709316338737
 20
182.4898138911428
 30
0.0
 10
673.5015177296729
 20
182.3973087802432
 30
0.0
 10
673.5041989841541
 20
182.2727217573831
 30
0.0
 10
673.492976525013
 20
182.2143349755027
 30
0.0
 10
673.4844149876534
 20
182.186619773123
 30
0.0
  0
SPLINE
  5
232A
330
2
100
AcDbEntity
  8
0
100
AcDbSpline
210
0.0
220
0.0
230
1.0
 70
     8
 71
     3
 72
    13
 73
     9
 74
     0
 42
0.0000000001
 43
0.0000000001
 40
0.0
 40
0.0
 40
0.0
 40
0.0
 40
0.1003172449
 40
0.2119803053
 40
0.3338769547
 40
0.463837129
 40
0.7353203849
 40
1.0
 40
1.0
 40
1.0
 40
1.0
 10
671.312108849673
 20
175.6548975178227
 30
0.0
 10
671.2863792135533
 20
175.7073290030032
 30
0.0
 10
671.2183589025542
 20
175.8115922819031
 30
0.0
 10
671.083658785875
 20
175.9528210494827
 30
0.0
 10
670.9157108845346
 20
176.0827821230632
 30
0.0
 10
670.6520290877922
 20
176.2368105399228
 30
0.0
 10
670.2851371799724
 20
176.3722003148629
 30
0.0
 10
669.9726486279139
 20
176.415572117883
 30
0.0
 10
669.8185548797148
 20
176.4163484841234
 30
0.0
  0
SPLINE
  5
232B
330
2
100
AcDbEntity
  8
0
100
AcDbSpline
210
0.0
220
0.0
230
1.0
 70
     8
 71
     3
 72
    13
 73
     9
 74
     0
 42
0.0000000001
 43
0.0000000001
 40
0.0
 40
0.0
 40
0.0
 40
0.0
 40
0.3029027465
 40
0.5684650457
 40
0.6869637318999999
 40
0.7968900772
 40
0.9002667388999999
 40
1.0
 40
1.0
 40
1.0
 40
1.0
 10
669.810132844232
 20
176.4163697286828
 30
0.0
 10
669.7146890422321
 20
176.4163697286828
 30
0.0
 10
669.5350333741128
 20
176.4013445568028
 30
0.0
 10
669.3258223955328
 20
176.335973074643
 30
0.0
 10
669.1912539397528
 20
176.2564243742026
 30
0.0
 10
669.1115583587337
 20
176.1877627589229
 30
0.0
 10
669.0509591987537
 20
176.109006546103
 30
0.0
 10
669.0241380154124
 20
176.0501455208228
 30
0.0
 10
669.0145687127349
 20
176.0202122405828
 30
0.0
  0
SPLINE
  5
232C
330
2
100
AcDbEntity
  8
0
100
AcDbSpline
210
0.0
220
0.0
230
1.0
 70
     8
 71
     3
 72
    19
 73
    15
 74
     0
 42
0.0000000001
 43
0.0000000001
 40
0.0
 40
0.0
 40
0.0
 40
0.0
 40
0.1137033005
 40
0.178343165
 40
0.247246348
 40
0.3933754201
 40
0.5422374494
 40
0.6831312648000001
 40
0.7478115355
 40
0.8075229162000001
 40
0.8619674193999998
 40
0.9114134127999999
 40
0.9568428196999999
 40
1.0
 40
1.0
 40
1.0
 40
1.0
 10
670.0406850272724
 20
169.9757774232032
 30
0.0
 10
669.9761866193132
 20
170.1072113589631
 30
0.0
 10
669.8313152301145
 20
170.2922618880231
 30
0.0
 10
669.5908718374933
 20
170.5010205510229
 30
0.0
 10
669.2924663713132
 20
170.7041597510428
 30
0.0
 10
668.8652703219738
 20
170.904514928183
 30
0.0
 10
668.3193056582524
 20
171.0464572198629
 30
0.0
 10
667.859998746035
 20
171.0757307097033
 30
0.0
 10
667.5198306963745
 20
171.0366125684828
 30
0.0
 10
667.2959055892338
 20
170.9794170491428
 30
0.0
 10
667.1017940572133
 20
170.8948266265033
 30
0.0
 10
666.942613557694
 20
170.7843121282028
 30
0.0
 10
666.8233384596946
 20
170.6499933010828
 30
0.0
 10
666.773226972415
 20
170.5454578002232
 30
0.0
 10
666.7568239495935
 20
170.4923637916033
 30
0.0
  0
SPLINE
  5
232D
330
2
100
AcDbEntity
  8
0
100
AcDbSpline
210
0.0
220
0.0
230
1.0
 70
     8
 71
     3
 72
    22
 73
    18
 74
     0
 42
0.0000000001
 43
0.0000000001
 40
0.0
 40
0.0
 40
0.0
 40
0.0
 40
0.0572457157
 40
0.1209798578
 40
0.1905821499
 40
0.2647796392
 40
0.4196864858
 40
0.4967000183
 40
0.5707389195000001
 40
0.6401202115000002
 40
0.7035929992000001
 40
0.7605698067000001
 40
0.8114182898000001
 40
0.8577543312999999
 40
0.9024477511
 40
0.9489208773999999
 40
1.0
 40
1.0
 40
1.0
 40
1.0
 10
668.6121914783727
 20
166.098309219303
 30
0.0
 10
668.5805247522747
 20
166.1628392197826
 30
0.0
 10
668.4967232231532
 20
166.2911416555828
 30
0.0
 10
668.3306617036139
 20
166.4647915953028
 30
0.0
 10
668.1235853308728
 20
166.6244865464226
 30
0.0
 10
667.7986951170545
 20
166.8133797221031
 30
0.0
 10
667.433994815213
 20
166.9468892696629
 30
0.0
 10
667.0558347028531
 20
167.0178965673227
 30
0.0
 10
666.7789259221521
 20
167.0366126563828
 30
0.0
 10
666.5188221446727
 20
167.0201642310628
 30
0.0
 10
666.2848836691932
 20
166.9689936501431
 30
0.0
 10
666.085443207014
 20
166.8844380153429
 30
0.0
 10
665.9278251656327
 20
166.7682538636628
 30
0.0
 10
665.8196154938126
 20
166.622787484543
 30
0.0
 10
665.7688301826322
 20
166.4539866207233
 30
0.0
 10
665.7785310649336
 20
166.2725953350431
 30
0.0
 10
665.8207529566137
 20
166.1558879535233
 30
0.0
 10
665.8490084957342
 20
166.098309219303
 30
0.0
  0
SPLINE
  5
232E
330
2
100
AcDbEntity
  8
0
100
AcDbSpline
210
0.0
220
0.0
230
1.0
 70
     8
 71
     3
 72
    11
 73
     7
 74
     0
 42
0.0000000001
 43
0.0000000001
 40
0.0
 40
0.0
 40
0.0
 40
0.0
 40
0.2206365173
 40
0.4874281689
 40
0.7567485566
 40
1.0
 40
1.0
 40
1.0
 40
1.0
 10
669.0793372674751
 20
172.8630711329828
 30
0.0
 10
669.0497463589147
 20
172.8634850361429
 30
0.0
 10
668.9843694259129
 20
172.8644034823631
 30
0.0
 10
668.8828712341923
 20
172.8630929185629
 30
0.0
 10
668.7783334219332
 20
172.8623115053431
 30
0.0
 10
668.7095860791125
 20
172.8648098010828
 30
0.0
 10
668.6770356311337
 20
172.8670453160428
 30
0.0
  0
SPLINE
  5
232F
330
2
100
AcDbEntity
  8
0
100
AcDbSpline
210
0.0
220
0.0
230
1.0
 70
     8
 71
     3
 72
    22
 73
    18
 74
     0
 42
0.0000000001
 43
0.0000000001
 40
0.0
 40
0.0
 40
0.0
 40
0.0
 40
0.0572457157
 40
0.1209798578
 40
0.1905821499
 40
0.2647796392
 40
0.4196864858
 40
0.4967000183
 40
0.5707389195000001
 40
0.6401202115000002
 40
0.7035929992000001
 40
0.7605698067000001
 40
0.8114182898000001
 40
0.8577543312999999
 40
0.9024477511
 40
0.9489208773999999
 40
1.0
 40
1.0
 40
1.0
 40
1.0
 10
665.8490084957342
 20
166.098309219303
 30
0.0
 10
665.8806752192933
 20
166.0337792188227
 30
0.0
 10
665.9644767484128
 20
165.9054767830232
 30
0.0
 10
666.130538267954
 20
165.7318268433033
 30
0.0
 10
666.3376146432336
 20
165.5721318921827
 30
0.0
 10
666.6625048545141
 20
165.383238716503
 30
0.0
 10
667.0272051588939
 20
165.2497291714828
 30
0.0
 10
667.4053652712537
 20
165.1787218712827
 30
0.0
 10
667.6822740494128
 20
165.1600057822231
 30
0.0
 10
667.9423778268932
 20
165.1764542075431
 30
0.0
 10
668.1763163023727
 20
165.2276247884628
 30
0.0
 10
668.3757567645547
 20
165.3121804232631
 30
0.0
 10
668.5333748059332
 20
165.4283645749433
 30
0.0
 10
668.6415844777524
 20
165.5738309540629
 30
0.0
 10
668.6923697889332
 20
165.7426318178828
 30
0.0
 10
668.6826689091725
 20
165.9240231035628
 30
0.0
 10
668.6404470149549
 20
166.0407304876232
 30
0.0
 10
668.6121914783727
 20
166.098309219303
 30
0.0
  0
SPLINE
  5
2330
330
2
100
AcDbEntity
  8
0
100
AcDbSpline
210
0.0
220
0.0
230
1.0
 70
     8
 71
     3
 72
    15
 73
    11
 74
     0
 42
0.0000000001
 43
0.0000000001
 40
0.0
 40
0.0
 40
0.0
 40
0.0
 40
0.1421394179
 40
0.2878536578
 40
0.4321029242
 40
0.5699993494
 40
0.6973649637000002
 40
0.8113760110999999
 40
0.9113958353000001
 40
1.0
 40
1.0
 40
1.0
 40
1.0
 10
672.8596956579727
 20
182.961467781463
 30
0.0
 10
672.7927607270729
 20
183.0007804917627
 30
0.0
 10
672.6512070020524
 20
183.0705003167632
 30
0.0
 10
672.4271325302146
 20
183.1464435938831
 30
0.0
 10
672.1973492229539
 20
183.1924895114432
 30
0.0
 10
671.9733648068134
 20
183.2062976778829
 30
0.0
 10
671.7661555057133
 20
183.187170494903
 30
0.0
 10
671.5855582316537
 20
183.1356130618232
 30
0.0
 10
671.4400437068327
 20
183.0532976282831
 30
0.0
 10
671.3690223020152
 20
182.9751511348433
 30
0.0
 10
671.3443409111928
 20
182.9335300141233
 30
0.0
  0
SPLINE
  5
2331
330
2
100
AcDbEntity
  8
0
100
AcDbSpline
210
0.0
220
0.0
230
1.0
 70
     8
 71
     3
 72
    17
 73
    13
 74
     0
 42
0.0000000001
 43
0.0000000001
 40
0.0
 40
0.0
 40
0.0
 40
0.0
 40
0.1111540907
 40
0.2407217369
 40
0.3831088966
 40
0.529704291
 40
0.6710502690000001
 40
0.7987608856000002
 40
0.8558582493999999
 40
0.9080757466999999
 40
0.9557923703
 40
1.0
 40
1.0
 40
1.0
 40
1.0
 10
673.4422924963322
 20
182.548174320523
 30
0.0
 10
673.399861102915
 20
182.6346404061628
 30
0.0
 10
673.2706725500126
 20
182.803578686523
 30
0.0
 10
673.0074132771927
 20
183.0094188260226
 30
0.0
 10
672.681559135913
 20
183.1735177586833
 30
0.0
 10
672.3223842154522
 20
183.280647346303
 30
0.0
 10
671.9626220495346
 20
183.3213684231031
 30
0.0
 10
671.6781826184146
 20
183.2958350680232
 30
0.0
 10
671.4810635536744
 20
183.2357270754629
 30
0.0
 10
671.3583080232146
 20
183.175369599023
 30
0.0
 10
671.2581747182741
 20
183.0992721947028
 30
0.0
 10
671.2069103224542
 20
183.0370328398827
 30
0.0
 10
671.1867723032931
 20
183.0044469766833
 30
0.0
  0
SPLINE
  5
2332
330
2
100
AcDbEntity
  8
0
100
AcDbSpline
210
0.0
220
0.0
230
1.0
 70
     8
 71
     3
 72
     9
 73
     5
 74
     0
 42
0.0000000001
 43
0.0000000001
 40
0.0
 40
0.0
 40
0.0
 40
0.0
 40
0.2526429003
 40
1.0
 40
1.0
 40
1.0
 40
1.0
 10
671.1867723032931
 20
183.0044469766833
 30
0.0
 10
671.1821563587549
 20
182.9969777968034
 30
0.0
 10
671.1647957762537
 20
182.9668619667628
 30
0.0
 10
671.1512367279336
 20
182.9345455874032
 30
0.0
 10
671.1435705659741
 20
182.909728870463
 30
0.0
  0
SPLINE
  5
2333
330
2
100
AcDbEntity
  8
0
100
AcDbSpline
210
0.0
220
0.0
230
1.0
 70
     8
 71
     3
 72
    15
 73
    11
 74
     0
 42
0.0000000001
 43
0.0000000001
 40
0.0
 40
0.0
 40
0.0
 40
0.0
 40
0.1202015986
 40
0.2523505559
 40
0.3881570364
 40
0.5215771491
 40
0.649389766
 40
0.7709817377000002
 40
0.8874376879000001
 40
1.0
 40
1.0
 40
1.0
 40
1.0
 10
668.3648337587141
 20
172.8660816603633
 30
0.0
 10
668.3759487402925
 20
172.9020497520033
 30
0.0
 10
668.4103363118532
 20
172.9742408268231
 30
0.0
 10
668.4850476127725
 20
173.0711203358833
 30
0.0
 10
668.5819402434747
 20
173.1529347925232
 30
0.0
 10
668.6950549702539
 20
173.2081729523027
 30
0.0
 10
668.8156127936544
 20
173.2270933818228
 30
0.0
 10
668.9305888476723
 20
173.2048841374427
 30
0.0
 10
669.0259336658741
 20
173.1457959574231
 30
0.0
 10
669.0704049866329
 20
173.0870306215631
 30
0.0
 10
669.0859288900532
 20
173.055378828123
 30
0.0
  0
SPLINE
  5
2334
330
2
100
AcDbEntity
  8
0
100
AcDbSpline
210
0.0
220
0.0
230
1.0
 70
     8
 71
     3
 72
    19
 73
    15
 74
     0
 42
0.0000000001
 43
0.0000000001
 40
0.0
 40
0.0
 40
0.0
 40
0.0
 40
0.1137033005
 40
0.178343165
 40
0.247246348
 40
0.3933754201
 40
0.5422374494
 40
0.6831312648000001
 40
0.7478115355
 40
0.8075229162000001
 40
0.8619674193999998
 40
0.9114134127999999
 40
0.9568428196999999
 40
1.0
 40
1.0
 40
1.0
 40
1.0
 10
668.8424567252326
 20
166.098309219303
 30
0.0
 10
668.7779583172741
 20
166.2297431576032
 30
0.0
 10
668.6330869280749
 20
166.4147936841231
 30
0.0
 10
668.3926435354536
 20
166.6235523471228
 30
0.0
 10
668.0942380718151
 20
166.8266915471425
 30
0.0
 10
667.6670420224722
 20
167.0270467268232
 30
0.0
 10
667.1210773562128
 20
167.1689890159627
 30
0.0
 10
666.6617704465332
 20
167.1982625083427
 30
0.0
 10
666.3216023943354
 20
167.1591443645833
 30
0.0
 10
666.0976772897322
 20
167.1019488452426
 30
0.0
 10
665.9035657577144
 20
167.0173584226031
 30
0.0
 10
665.7443852581922
 20
166.9068439243033
 30
0.0
 10
665.6251101601932
 20
166.7725250997231
 30
0.0
 10
665.5749986703751
 20
166.6679895988627
 30
0.0
 10
665.5585956500947
 20
166.6148955877032
 30
0.0
  0
SPLINE
  5
2335
330
2
100
AcDbEntity
  8
0
100
AcDbSpline
210
0.0
220
0.0
230
1.0
 70
     8
 71
     3
 72
     9
 73
     5
 74
     0
 42
0.0000000001
 43
0.0000000001
 40
0.0
 40
0.0
 40
0.0
 40
0.0
 40
0.4582830006
 40
1.0
 40
1.0
 40
1.0
 40
1.0
 10
668.3676780532536
 20
172.7030910236831
 30
0.0
 10
668.3565160105521
 20
172.7258538001032
 30
0.0
 10
668.345380223833
 20
172.782199826603
 30
0.0
 10
668.3559858465128
 20
172.8374498050028
 30
0.0
 10
668.3648337587141
 20
172.8660816603633
 30
0.0
  0
SPLINE
  5
2336
330
2
100
AcDbEntity
  8
0
100
AcDbSpline
210
0.0
220
0.0
230
1.0
 70
     8
 71
     3
 72
    10
 73
     6
 74
     0
 42
0.0000000001
 43
0.0000000001
 40
0.0
 40
0.0
 40
0.0
 40
0.0
 40
0.5246511981000001
 40
0.7658962709999999
 40
1.0
 40
1.0
 40
1.0
 40
1.0
 10
669.8104197778742
 20
169.9757774232032
 30
0.0
 10
669.8454881126139
 20
169.9043156712826
 30
0.0
 10
669.8829404735741
 20
169.7910441071231
 30
0.0
 10
669.8862236420126
 20
169.6384885651426
 30
0.0
 10
669.8724818559342
 20
169.5669945501432
 30
0.0
 10
669.861998341213
 20
169.5330575669626
 30
0.0
  0
SPLINE
  5
2337
330
2
100
AcDbEntity
  8
0
100
AcDbSpline
210
0.0
220
0.0
230
1.0
 70
     8
 71
     3
 72
    10
 73
     6
 74
     0
 42
0.0000000001
 43
0.0000000001
 40
0.0
 40
0.0
 40
0.0
 40
0.0
 40
0.5246559797
 40
0.7658830592000001
 40
1.0
 40
1.0
 40
1.0
 40
1.0
 10
668.8424567252326
 20
166.098309219303
 30
0.0
 10
668.8833765595731
 20
166.0149233637231
 30
0.0
 10
668.9270703914123
 20
165.8827527949427
 30
0.0
 10
668.9308957279347
 20
165.7047413501032
 30
0.0
 10
668.9148388436136
 20
165.6213240772632
 30
0.0
 10
668.902604324015
 20
165.5817228509029
 30
0.0
  0
SPLINE
  5
2338
330
2
100
AcDbEntity
  8
0
100
AcDbSpline
210
0.0
220
0.0
230
1.0
 70
     8
 71
     3
 72
    19
 73
    15
 74
     0
 42
0.0000000001
 43
0.0000000001
 40
0.0
 40
0.0
 40
0.0
 40
0.0
 40
0.1137068486
 40
0.1783453981
 40
0.2472497825
 40
0.3933810247
 40
0.5422449637
 40
0.6831367984000001
 40
0.7478174482
 40
0.807528214
 40
0.8619699971999999
 40
0.9114137413999999
 40
0.9568429721000001
 40
1.0
 40
1.0
 40
1.0
 40
1.0
 10
669.8104197778742
 20
169.9757774232032
 30
0.0
 10
669.7551325325941
 20
170.0884409799426
 30
0.0
 10
669.6309505635347
 20
170.2470595552625
 30
0.0
 10
669.4248487405342
 20
170.4260013259032
 30
0.0
 10
669.1690619165727
 20
170.600121366283
 30
0.0
 10
668.8028761262142
 20
170.771847492223
 30
0.0
 10
668.3348944459743
 20
170.8935234693431
 30
0.0
 10
667.9411925816124
 20
170.9185820806433
 30
0.0
 10
667.6496162026145
 20
170.8850565850826
 30
0.0
 10
667.4576807495549
 20
170.8360226318434
 30
0.0
 10
667.2913106631925
 20
170.763495134023
 30
0.0
 10
667.1548835954329
 20
170.6687557883227
 30
0.0
 10
667.0526504597932
 20
170.5536200445032
 30
0.0
 10
667.0097168956734
 20
170.4640076380034
 30
0.0
 10
666.995658231894
 20
170.4184972769032
 30
0.0
  0
SPLINE
  5
2339
330
2
100
AcDbEntity
  8
0
100
AcDbSpline
210
0.0
220
0.0
230
1.0
 70
     8
 71
     3
 72
    10
 73
     6
 74
     0
 42
0.0000000001
 43
0.0000000001
 40
0.0
 40
0.0
 40
0.0
 40
0.0
 40
0.5246559797
 40
0.7658830592000001
 40
1.0
 40
1.0
 40
1.0
 40
1.0
 10
670.0406850272724
 20
169.9757774232032
 30
0.0
 10
670.0816048616127
 20
169.8923915650828
 30
0.0
 10
670.1252986909142
 20
169.7602209963032
 30
0.0
 10
670.1291240299741
 20
169.582209551463
 30
0.0
 10
670.1130671456532
 20
169.4987922786229
 30
0.0
 10
670.1008326235136
 20
169.4591910548031
 30
0.0
  0
SPLINE
  5
233A
330
2
100
AcDbEntity
  8
0
100
AcDbSpline
210
0.0
220
0.0
230
1.0
 70
     8
 71
     3
 72
    17
 73
    13
 74
     0
 42
0.0000000001
 43
0.0000000001
 40
0.0
 40
0.0
 40
0.0
 40
0.0
 40
0.0431793661
 40
0.0886346374
 40
0.1381064324
 40
0.1925822297
 40
0.3167501137
 40
0.4577190455000001
 40
0.6066587093
 40
0.7528626448000001
 40
0.8862341337
 40
1.0
 40
1.0
 40
1.0
 40
1.0
 10
668.133548833934
 20
166.141314350463
 30
0.0
 10
668.1255746842741
 20
166.1155291213631
 30
0.0
 10
668.1012177327342
 20
166.0647637237828
 30
0.0
 10
668.0432789509743
 20
165.9995348346827
 30
0.0
 10
667.9659641195724
 20
165.9458444467631
 30
0.0
 10
667.8345590610746
 20
165.8886705580631
 30
0.0
 10
667.6346293669532
 20
165.8556824426832
 30
0.0
 10
667.3747474203727
 20
165.8722299737232
 30
0.0
 10
667.1093519897744
 20
165.9411618754829
 30
0.0
 10
666.8653656502128
 20
166.0558071910231
 30
0.0
 10
666.6671885941926
 20
166.2042121799631
 30
0.0
 10
666.5698678998332
 20
166.3284352411432
 30
0.0
 10
666.5385402281742
 20
166.3922743209826
 30
0.0
  0
SPLINE
  5
233B
330
2
100
AcDbEntity
  8
0
100
AcDbSpline
210
0.0
220
0.0
230
1.0
 70
     8
 71
     3
 72
     9
 73
     5
 74
     0
 42
0.0000000001
 43
0.0000000001
 40
0.0
 40
0.0
 40
0.0
 40
0.0
 40
0.5050465082
 40
1.0
 40
1.0
 40
1.0
 40
1.0
 10
671.219908515913
 20
182.9884837980431
 30
0.0
 10
671.2056026669546
 20
182.9694750857429
 30
0.0
 10
671.1802680668742
 20
182.9294633090231
 30
0.0
 10
671.1622837213329
 20
182.8856226778833
 30
0.0
 10
671.1553976822727
 20
182.8633476881428
 30
0.0
  0
SPLINE
  5
233C
330
2
100
AcDbEntity
  8
0
100
AcDbSpline
210
0.0
220
0.0
230
1.0
 70
     8
 71
     3
 72
    14
 73
    10
 74
     0
 42
0.0000000001
 43
0.0000000001
 40
0.0
 40
0.0
 40
0.0
 40
0.0
 40
0.0969803763
 40
0.198161789
 40
0.3069174357
 40
0.4253868127000002
 40
0.554478461
 40
0.6940704784000002
 40
1.0
 40
1.0
 40
1.0
 40
1.0
 10
673.4485277315137
 20
182.155147471323
 30
0.0
 10
673.4586218413741
 20
182.1879378858029
 30
0.0
 10
673.470357230652
 20
182.2579981114428
 30
0.0
 10
673.4608343972738
 20
182.3671398286433
 30
0.0
 10
673.4252790861148
 20
182.4786077210229
 30
0.0
 10
673.3649894530742
 20
182.5899980189427
 30
0.0
 10
673.2815134884547
 20
182.6991959488827
 30
0.0
 10
673.1374651659337
 20
182.8432319651028
 30
0.0
 10
673.0070415989934
 20
182.9344160270826
 30
0.0
 10
672.9132852891729
 20
182.9884837980431
 30
0.0
  0
SPLINE
  5
233D
330
2
100
AcDbEntity
  8
0
100
AcDbSpline
210
0.0
220
0.0
230
1.0
 70
     8
 71
     3
 72
     9
 73
     5
 74
     0
 42
0.0000000001
 43
0.0000000001
 40
0.0
 40
0.0
 40
0.0
 40
0.0
 40
0.2422142266
 40
1.0
 40
1.0
 40
1.0
 40
1.0
 10
672.0313280208337
 20
177.7299548790028
 30
0.0
 10
672.0296320145729
 20
177.7398845721229
 30
0.0
 10
672.021371876155
 20
177.7806618769026
 30
0.0
 10
672.0082223063126
 20
177.8203936694227
 30
0.0
 10
671.9961333210933
 20
177.8494985718429
 30
0.0
  0
SPLINE
  5
233E
330
2
100
AcDbEntity
  8
0
100
AcDbSpline
210
0.0
220
0.0
230
1.0
 70
     8
 71
     3
 72
    11
 73
     7
 74
     0
 42
0.0000000001
 43
0.0000000001
 40
0.0
 40
0.0
 40
0.0
 40
0.0
 40
0.2156404448
 40
0.4554273175
 40
0.7181236162000002
 40
1.0
 40
1.0
 40
1.0
 40
1.0
 10
671.9961333210933
 20
177.8494985718429
 30
0.0
 10
671.9757649569545
 20
177.898536533203
 30
0.0
 10
671.919780593434
 20
177.9968819600827
 30
0.0
 10
671.8045412633339
 20
178.1320070517828
 30
0.0
 10
671.6577230352526
 20
178.258485790443
 30
0.0
 10
671.5452220816945
 20
178.3321801134633
 30
0.0
 10
671.4850939824936
 20
178.3668550326826
 30
0.0
  0
LINE
  5
233F
330
2
100
AcDbEntity
  8
0
100
AcDbLine
 10
670.0454325412732
 20
179.2714974652026
 30
0.0
 11
670.0425245130531
 21
179.2620623354826
 31
0.0
  0
LINE
  5
2340
330
2
100
AcDbEntity
  8
0
100
AcDbLine
 10
670.0425245130531
 20
179.2620623354826
 30
0.0
 11
670.0379349032337
 21
179.2471476637632
 31
0.0
  0
LINE
  5
2341
330
2
100
AcDbEntity
  8
0
100
AcDbLine
 10
670.0379349032337
 20
179.2471476637632
 30
0.0
 11
669.9924159493151
 21
179.0999257103028
 31
0.0
  0
LINE
  5
2342
330
2
100
AcDbEntity
  8
0
100
AcDbLine
 10
669.9924159493151
 20
179.0999257103028
 30
0.0
 11
669.9896043471146
 21
179.0908385301033
 31
0.0
  0
LINE
  5
2343
330
2
100
AcDbEntity
  8
0
100
AcDbLine
 10
670.8375716783536
 20
181.8348606544428
 30
0.0
 11
670.8926152919132
 21
182.0129809738426
 31
0.0
  0
LINE
  5
2344
330
2
100
AcDbEntity
  8
0
100
AcDbLine
 10
680.7415472997413
 20
209.3435585826761
 30
0.0
 11
680.7415472997413
 21
212.8437158309803
 31
0.0
  0
LINE
  5
2345
330
2
100
AcDbEntity
  8
0
100
AcDbLine
 10
681.7415922280092
 20
212.8437158309803
 30
0.0
 11
681.7415922280092
 21
212.5937045985957
 31
0.0
  0
LINE
  5
2346
330
2
100
AcDbEntity
  8
0
100
AcDbLine
 10
681.7415922280092
 20
209.5935698144254
 30
0.0
 11
681.7415922280092
 21
209.3435585826761
 31
0.0
  0
LINE
  5
2347
330
2
100
AcDbEntity
  8
Hat
100
AcDbLine
 10
680.9943421301517
 20
212.8437158309803
 30
0.0
 11
680.8383644934632
 21
212.6877381942919
 31
0.0
  0
LINE
  5
2348
330
2
100
AcDbEntity
  8
Hat
100
AcDbLine
 10
681.7415922280092
 20
212.6928999698221
 30
0.0
 11
681.4077157033647
 21
212.3590234454938
 31
0.0
  0
LINE
  5
2349
330
2
100
AcDbEntity
  8
Hat
100
AcDbLine
 10
682.540462815165
 20
212.5937045985957
 30
0.0
 11
681.9770669132654
 21
212.0303086966965
 31
0.0
  0
LINE
  5
234A
330
2
100
AcDbEntity
  8
Hat
100
AcDbLine
 10
683.4385287735462
 20
212.5937045985957
 30
0.0
 11
682.7884995704883
 21
211.9436753955389
 31
0.0
  0
LINE
  5
234B
330
2
100
AcDbEntity
  8
0
100
AcDbLine
 10
685.6917696937174
 20
212.8437158309803
 30
0.0
 11
685.6917696937174
 21
212.5937045985957
 31
0.0
  0
LINE
  5
234C
330
2
100
AcDbEntity
  8
0
100
AcDbLine
 10
685.6917696937174
 20
209.5935698144254
 30
0.0
 11
685.6917696937174
 21
209.3435585826761
 31
0.0
  0
LINE
  5
234D
330
2
100
AcDbEntity
  8
Hat
100
AcDbLine
 10
684.3365947325622
 20
212.5937045985957
 30
0.0
 11
683.6865655295055
 21
211.9436753955389
 31
0.0
  0
LINE
  5
234E
330
2
100
AcDbEntity
  8
Hat
100
AcDbLine
 10
681.7943838242475
 20
210.0514936907803
 30
0.0
 11
681.0864487166423
 21
209.3435585826761
 31
0.0
  0
LINE
  5
234F
330
2
100
AcDbEntity
  8
Hat
100
AcDbLine
 10
685.2346606909436
 20
212.5937045985957
 30
0.0
 11
684.5846314878867
 21
211.9436753955389
 31
0.0
  0
LINE
  5
2350
330
2
100
AcDbEntity
  8
Hat
100
AcDbLine
 10
682.8845551104655
 20
210.2435990181176
 30
0.0
 11
682.2345259067729
 21
209.5935698144254
 31
0.0
  0
LINE
  5
2351
330
2
100
AcDbEntity
  8
Hat
100
AcDbLine
 10
686.3827378817091
 20
212.8437158309803
 30
0.0
 11
685.482697446268
 21
211.9436753955389
 31
0.0
  0
LINE
  5
2352
330
2
100
AcDbEntity
  8
Hat
100
AcDbLine
 10
683.7826210688468
 20
210.2435990181176
 30
0.0
 11
683.1325918657888
 21
209.5935698144254
 31
0.0
  0
LINE
  5
2353
330
2
100
AcDbEntity
  8
0
100
AcDbLine
 10
687.2418393322162
 20
212.8437158309803
 30
0.0
 11
687.2418393322162
 21
212.3436933668464
 31
0.0
  0
LINE
  5
2354
330
2
100
AcDbEntity
  8
0
100
AcDbLine
 10
687.2418393322162
 20
209.84358104681
 30
0.0
 11
687.2418393322162
 21
209.3435585826761
 31
0.0
  0
LINE
  5
2355
330
2
100
AcDbEntity
  8
Hat
100
AcDbLine
 10
687.2418393322162
 20
212.8047513224711
 30
0.0
 11
686.3807634052841
 21
211.9436753955389
 31
0.0
  0
LINE
  5
2356
330
2
100
AcDbEntity
  8
Hat
100
AcDbLine
 10
684.680687027228
 20
210.2435990181176
 30
0.0
 11
684.0306578241702
 21
209.5935698144254
 31
0.0
  0
LINE
  5
2357
330
2
100
AcDbEntity
  8
Hat
100
AcDbLine
 10
687.6788473349728
 20
212.3436933668464
 30
0.0
 11
687.2788293636652
 21
211.9436753955389
 31
0.0
  0
LINE
  5
2358
330
2
100
AcDbEntity
  8
Hat
100
AcDbLine
 10
685.5787529862441
 20
210.2435990181176
 30
0.0
 11
684.9287237831872
 21
209.5935698144254
 31
0.0
  0
LINE
  5
2359
330
2
100
AcDbEntity
  8
Hat
100
AcDbLine
 10
688.5769132933542
 20
212.3436933668464
 30
0.0
 11
688.1768953220467
 21
211.9436753955389
 31
0.0
  0
LINE
  5
235A
330
2
100
AcDbEntity
  8
Hat
100
AcDbLine
 10
686.4768189446253
 20
210.2435990181176
 30
0.0
 11
685.6917696937174
 21
209.4585497665749
 31
0.0
  0
LINE
  5
235B
330
2
100
AcDbEntity
  8
0
100
AcDbLine
 10
688.7419067239838
 20
210.2435990181176
 30
0.0
 11
688.7419067239838
 21
210.8290501887419
 31
0.0
  0
LINE
  5
235C
330
2
100
AcDbEntity
  8
0
100
AcDbLine
 10
688.7419067239838
 20
211.3582242249146
 30
0.0
 11
688.7419067239838
 21
211.9436753955389
 31
0.0
  0
LINE
  5
235D
330
2
100
AcDbEntity
  8
Hat
100
AcDbLine
 10
689.4749792523703
 20
212.3436933668464
 30
0.0
 11
688.8638131526573
 21
211.7325272671329
 31
0.0
  0
LINE
  5
235E
330
2
100
AcDbEntity
  8
Hat
100
AcDbLine
 10
687.3748849036415
 20
210.2435990181176
 30
0.0
 11
686.4748444681993
 21
209.3435585826761
 31
0.0
  0
LINE
  5
235F
330
2
100
AcDbEntity
  8
0
100
AcDbLine
 10
689.6419471594249
 20
212.3436933668464
 30
0.0
 11
689.6419471594249
 21
212.063680786931
 31
0.0
  0
LINE
  5
2360
330
2
100
AcDbEntity
  8
0
100
AcDbLine
 10
689.6419471594249
 20
210.1235936267254
 30
0.0
 11
689.6419471594249
 21
209.84358104681
 31
0.0
  0
LINE
  5
2361
330
2
100
AcDbEntity
  8
0
100
AcDbLine
 10
688.7419067239838
 20
210.2435990181176
 30
0.0
 11
689.2326765011216
 21
211.0936372068282
 31
0.0
  0
LINE
  5
2362
330
2
100
AcDbEntity
  8
Hat
100
AcDbLine
 10
689.7039147978062
 20
211.6745629539015
 30
0.0
 11
689.1925281076552
 21
211.1631762637499
 31
0.0
  0
LINE
  5
2363
330
2
100
AcDbEntity
  8
Hat
100
AcDbLine
 10
688.2729508620228
 20
210.2435990181176
 30
0.0
 11
687.8729328907152
 21
209.84358104681
 31
0.0
  0
LINE
  5
2364
330
2
100
AcDbEntity
  8
0
100
AcDbLine
 10
680.7415472997413
 20
209.3435585826761
 30
0.0
 11
681.7415922280092
 21
209.3435585826761
 31
0.0
  0
LINE
  5
2365
330
2
100
AcDbEntity
  8
0
100
AcDbLine
 10
685.6917696937174
 20
209.3435585826761
 30
0.0
 11
687.2418393322162
 21
209.3435585826761
 31
0.0
  0
LINE
  5
2366
102
{ACAD_REACTORS
330
239B
102
}
330
2
100
AcDbEntity
  8
0
100
AcDbLine
 10
681.7415922280092
 20
209.5935698144254
 30
0.0
 11
685.6917696937174
 21
209.5935698144254
 31
0.0
  0
LINE
  5
2367
330
2
100
AcDbEntity
  8
0
100
AcDbLine
 10
688.7419067239838
 20
211.9436753955389
 30
0.0
 11
689.2326765011216
 21
211.0936372068282
 31
0.0
  0
LINE
  5
2368
330
2
100
AcDbEntity
  8
Hat
100
AcDbLine
 10
689.7039147978062
 20
210.7764969952533
 30
0.0
 11
688.7709988490963
 21
209.84358104681
 31
0.0
  0
LINE
  5
2369
330
2
100
AcDbEntity
  8
0
100
AcDbLine
 10
687.2418393322162
 20
209.84358104681
 30
0.0
 11
689.6419471594249
 21
209.84358104681
 31
0.0
  0
LINE
  5
236A
330
2
100
AcDbEntity
  8
0
100
AcDbLine
 10
692.9420954214415
 20
209.8685821701757
 30
0.0
 11
695.7422212199576
 21
209.8685821701757
 31
0.0
  0
LINE
  5
236B
330
2
100
AcDbEntity
  8
0
100
AcDbLine
 10
689.6419471594249
 20
210.1235936267254
 30
0.0
 11
689.7039147978062
 21
210.1235936267254
 31
0.0
  0
LINE
  5
236C
330
2
100
AcDbEntity
  8
0
100
AcDbLine
 10
690.1039147988645
 20
210.1235936267259
 30
0.0
 11
691.434880180484
 21
210.1235936267259
 31
0.0
  0
LINE
  5
236D
330
2
100
AcDbEntity
  8
0
100
AcDbLine
 10
692.9039148056376
 20
210.1235936267254
 30
0.0
 11
692.9420954214415
 21
210.1235936267254
 31
0.0
  0
LINE
  5
236E
102
{ACAD_REACTORS
330
239E
102
}
330
2
100
AcDbEntity
  8
0
100
AcDbLine
 10
682.1271203410837
 20
210.2435990181176
 30
0.0
 11
688.7419067239838
 21
210.2435990181176
 31
0.0
  0
LINE
  5
236F
330
2
100
AcDbEntity
  8
0
100
AcDbLine
 10
692.9420954214415
 20
212.3186922434807
 30
0.0
 11
692.9420954214415
 21
212.063680786931
 31
0.0
  0
LINE
  5
2370
330
2
100
AcDbEntity
  8
0
100
AcDbLine
 10
692.9420954214415
 20
210.1235936267254
 30
0.0
 11
692.9420954214415
 21
209.8685821701757
 31
0.0
  0
LINE
  5
2371
330
2
100
AcDbEntity
  8
0
100
AcDbLine
 10
682.1271203410837
 20
211.9436753955389
 30
0.0
 11
688.7419067239838
 21
211.9436753955389
 31
0.0
  0
LINE
  5
2372
330
2
100
AcDbEntity
  8
0
100
AcDbLine
 10
695.7422212199576
 20
212.3186922434807
 30
0.0
 11
692.9420954214415
 21
212.3186922434807
 31
0.0
  0
LINE
  5
2373
330
2
100
AcDbEntity
  8
0
100
AcDbLine
 10
689.6419471594249
 20
212.3436933668464
 30
0.0
 11
687.2418393322162
 21
212.3436933668464
 31
0.0
  0
LINE
  5
2374
102
{ACAD_REACTORS
330
239B
102
}
330
2
100
AcDbEntity
  8
0
100
AcDbLine
 10
685.6917696937174
 20
212.5937045985957
 30
0.0
 11
681.7415922280092
 21
212.5937045985957
 31
0.0
  0
LINE
  5
2375
330
2
100
AcDbEntity
  8
0
100
AcDbLine
 10
687.2418393322162
 20
212.8437158309803
 30
0.0
 11
685.6917696937174
 21
212.8437158309803
 31
0.0
  0
LINE
  5
2376
330
2
100
AcDbEntity
  8
0
100
AcDbLine
 10
681.7415922280092
 20
212.8437158309803
 30
0.0
 11
680.7415472997413
 21
212.8437158309803
 31
0.0
  0
CIRCLE
  5
2377
330
2
100
AcDbEntity
  8
0
100
AcDbCircle
 10
688.4418932455032
 20
211.0936372068282
 30
0.0
 40
0.4000179713073792
  0
LINE
  5
2378
330
2
100
AcDbEntity
  8
CEN
100
AcDbLine
 10
703.269341180848
 20
211.0936372068282
 30
0.0
 11
680.2470590797325
 21
211.0936372068282
 31
0.0
  0
LINE
  5
2379
330
2
100
AcDbEntity
  8
CEN
 48
2.0
100
AcDbLine
 10
688.4418932455032
 20
211.6779594790297
 30
0.0
 11
688.4418932455032
 21
210.3950856438242
 31
0.0
  0
LINE
  5
237A
330
2
100
AcDbEntity
  8
0
100
AcDbLine
 10
680.7415472997413
 20
212.8436372056782
 30
0.0
 11
680.7415472997413
 21
209.3436372079783
 31
0.0
  0
LINE
  5
237B
330
2
100
AcDbEntity
  8
0
100
AcDbLine
 10
680.7415472997413
 20
212.7436355717988
 30
0.0
 11
682.1271203410837
 21
211.9436753955389
 31
0.0
  0
LINE
  5
237C
330
2
100
AcDbEntity
  8
0
100
AcDbLine
 10
680.7415472997413
 20
209.4436388418581
 30
0.0
 11
682.1271203410837
 21
210.2435990181176
 31
0.0
  0
LINE
  5
237D
330
2
100
AcDbEntity
  8
0
100
AcDbLine
 10
682.1271203410837
 20
211.9436753955389
 30
0.0
 11
682.1271203410837
 21
210.2435990181176
 31
0.0
  0
INSERT
  5
237E
330
2
100
AcDbEntity
  8
DIM
 48
2.0
100
AcDbBlockReference
  2
A$C29E74B87
 10
692.9039148056376
 20
209.4030837884917
 30
0.0
 50
90.0
  0
LINE
  5
237F
330
2
100
AcDbEntity
  8
0
100
AcDbLine
 10
689.6419471594249
 20
212.063680786931
 30
0.0
 11
689.7039147978062
 21
212.063680786931
 31
0.0
  0
LINE
  5
2380
330
2
100
AcDbEntity
  8
0
100
AcDbLine
 10
690.1039147988645
 20
212.063680786931
 30
0.0
 11
691.434880180484
 21
212.063680786931
 31
0.0
  0
LINE
  5
2381
330
2
100
AcDbEntity
  8
0
100
AcDbLine
 10
692.9039148056376
 20
212.063680786931
 30
0.0
 11
692.9420954214415
 21
212.063680786931
 31
0.0
  0
DIMENSION
  5
2382
330
2
100
AcDbEntity
  8
DIM
100
AcDbDimension
  2
*D6
 10
702.2425132524325
 20
203.4253473453334
 30
0.0
 11
691.492030276087
 21
204.6753473453335
 31
0.0
 70
    32
 71
     5
 42
21.50096595269133
 73
     0
 74
     0
 75
     0
  3
01
100
AcDbAlignedDimension
 13
680.7415472997413
 23
209.3435585826761
 33
0.0
 14
702.2425132524325
 24
211.0936372068282
 34
0.0
100
AcDbRotatedDimension
  0
DIMENSION
  5
2383
330
2
100
AcDbEntity
  8
DIM
100
AcDbDimension
  2
*D7
 10
675.6748645204281
 20
209.3435585826761
 30
0.0
 11
675.6748645204281
 21
211.0936372068283
 31
0.0
 70
   160
  1
%%C<>
 71
     5
 42
3.500157248304276
 73
     0
 74
     0
 75
     0
  3
01
100
AcDbAlignedDimension
 13
680.7415472997413
 23
212.8437158309803
 33
0.0
 14
680.7415472997413
 24
209.3435585826761
 34
0.0
 50
90.0
100
AcDbRotatedDimension
  0
DIMENSION
  5
2384
330
2
100
AcDbEntity
  8
DIM
100
AcDbDimension
  2
*D8
 10
678.5828168561969
 20
210.243599018118
 30
0.0
 11
678.5828168561969
 21
211.0936372068286
 31
0.0
 70
   160
  1
%%Cd
 71
     5
 42
1.700076377420828
 73
     0
 74
     0
 75
     0
  3
01
100
AcDbAlignedDimension
 13
682.1271203410837
 23
211.9436753955389
 33
0.0
 14
682.1271203410837
 24
210.243599018118
 34
0.0
 50
90.0
100
AcDbRotatedDimension
  0
LINE
  5
2385
330
2
100
AcDbEntity
  8
0
100
AcDbLine
 10
702.2425132524325
 20
209.8685821695404
 30
0.0
 11
701.7424907882981
 21
209.8685821695404
 31
0.0
  0
LINE
  5
2386
330
2
100
AcDbEntity
  8
0
100
AcDbLine
 10
695.7422212199576
 20
209.8685821695404
 30
0.0
 11
692.9420954214415
 21
209.8685821695404
 31
0.0
  0
LINE
  5
2387
330
2
100
AcDbEntity
  8
0
100
AcDbLine
 10
701.7424907882981
 20
210.0435900324638
 30
0.0
 11
695.7422212199576
 21
210.0435900324638
 31
0.0
  0
LINE
  5
2388
330
2
100
AcDbEntity
  8
0
100
AcDbLine
 10
701.3798399525117
 20
210.6186158660594
 30
0.0
 11
696.1048720557442
 21
210.6186158660594
 31
0.0
  0
LINE
  5
2389
330
2
100
AcDbEntity
  8
0
100
AcDbLine
 10
701.3798399525117
 20
211.568658547597
 30
0.0
 11
696.1048720557442
 21
211.568658547597
 31
0.0
  0
LINE
  5
238A
330
2
100
AcDbEntity
  8
0
100
AcDbLine
 10
692.9420954214415
 20
209.8685821695404
 30
0.0
 11
692.9420954214415
 21
212.3186922434807
 31
0.0
  0
LINE
  5
238B
330
2
100
AcDbEntity
  8
0
100
AcDbLine
 10
701.7424907882981
 20
212.1436843811926
 30
0.0
 11
695.7422212199576
 21
212.1436843811926
 31
0.0
  0
LINE
  5
238C
330
2
100
AcDbEntity
  8
0
100
AcDbLine
 10
702.2425132524325
 20
212.3186922434807
 30
0.0
 11
701.7424907882981
 21
212.3186922434807
 31
0.0
  0
LINE
  5
238D
330
2
100
AcDbEntity
  8
0
100
AcDbLine
 10
695.7422212199576
 20
212.3186922434807
 30
0.0
 11
692.9420954214415
 21
212.3186922434807
 31
0.0
  0
LINE
  5
238E
330
2
100
AcDbEntity
  8
0
100
AcDbLine
 10
695.7422212199576
 20
209.8685821695404
 30
0.0
 11
695.7422212199576
 21
212.3186922434807
 31
0.0
  0
LINE
  5
238F
330
2
100
AcDbEntity
  8
0
100
AcDbLine
 10
701.7424907882981
 20
209.8685821695404
 30
0.0
 11
701.7424907882981
 21
212.3186922434807
 31
0.0
  0
LINE
  5
2390
330
2
100
AcDbEntity
  8
0
100
AcDbLine
 10
702.2425132524325
 20
209.8685821695404
 30
0.0
 11
702.2425132524325
 21
212.3186922434807
 31
0.0
  0
SPLINE
  5
2391
330
2
100
AcDbEntity
  8
0
100
AcDbSpline
210
0.0
220
0.0
230
1.0
 70
     8
 71
     3
 72
    14
 73
    10
 74
     8
 42
0.0000000001
 43
0.0000000001
 44
0.0000000001
 12
0.6855979273355972
 22
0.7279804132208046
 32
0.0
 13
0.0
 23
1.0
 33
0.0
 40
0.0
 40
0.0
 40
0.0
 40
0.0
 40
0.0746610495960565
 40
0.147938818264925
 40
0.2209702141982604
 40
0.2947607053431325
 40
0.3698132720819316
 40
0.4459926375421211
 40
0.5229108261117945
 40
0.5229108261117945
 40
0.5229108261117945
 40
0.5229108261117945
 10
701.054985335308
 20
210.6186158660594
 30
0.0
 10
701.0720478222599
 20
210.6367331266382
 30
0.0
 10
701.1040015063437
 20
210.6744385448808
 30
0.0
 10
701.1453848131127
 20
210.7355348542006
 30
0.0
 10
701.1798135734543
 20
210.8004847295992
 30
0.0
 10
701.2072501990931
 20
210.8693198027018
 30
0.0
 10
701.2273657893756
 20
210.941734407823
 30
0.0
 10
701.2396987085668
 20
211.0169215943878
 30
0.0
 10
701.2424683241638
 20
211.0679978106383
 30
0.0
 10
701.2424683241638
 20
211.0936372068282
 30
0.0
 11
701.054985335308
 21
210.6186158660594
 31
0.0
 11
701.1032184084329
 21
210.6756057158901
 31
0.0
 11
701.1442985017869
 21
210.7362856739579
 31
0.0
 11
701.1785045757837
 21
210.8008110898318
 31
0.0
 11
701.205840650789
 21
210.8693514107145
 31
0.0
 11
701.2259488539353
 21
210.9416601096401
 31
0.0
 11
701.2382954621593
 21
211.0168322919104
 31
0.0
 11
701.2424683241638
 21
211.0936372068282
 31
0.0
  0
SPLINE
  5
2392
330
2
100
AcDbEntity
  8
0
100
AcDbSpline
210
0.0
220
0.0
230
1.0
 70
     8
 71
     3
 72
    15
 73
    11
 74
     9
 42
0.0000000001
 43
0.0000000001
 44
0.0000000001
 12
0.0
 22
-1.0
 32
0.0
 13
0.6855979278066902
 23
-0.7279804127771383
 33
0.0
 40
0.0
 40
0.0
 40
0.0
 40
0.0
 40
0.0668754425546511
 40
0.133498705986872
 40
0.1991918414332596
 40
0.2635514225258889
 40
0.3266819988796445
 40
0.3900497813335471
 40
0.4548943070314656
 40
0.522970230996376
 40
0.522970230996376
 40
0.522970230996376
 40
0.522970230996376
 10
696.2422436840919
 20
211.0936372068282
 30
0.0
 10
696.2422436840919
 20
211.0713453926433
 30
0.0
 10
696.2443428145348
 20
211.0268171604135
 30
0.0
 10
696.2537219453406
 20
210.9609902623498
 30
0.0
 10
696.2690732961516
 20
210.8971527523955
 30
0.0
 10
696.289975527304
 20
210.8361455539558
 30
0.0
 10
696.3161544984213
 20
210.7780621660709
 30
0.0
 10
696.3477138688721
 20
210.7225278891344
 30
0.0
 10
696.3853133177788
 20
210.6688667299105
 30
0.0
 10
696.4141691021463
 20
210.6351351791355
 30
0.0
 10
696.4297266729476
 20
210.6186158660594
 30
0.0
 11
696.2422436840919
 21
211.0936372068282
 31
0.0
 11
696.2453974326275
 21
211.0268361687595
 31
0.0
 11
696.2548045909483
 21
210.9608803911302
 31
0.0
 11
696.2701776962452
 21
210.8970113401093
 31
0.0
 11
696.2910496012113
 21
210.8361301503911
 31
0.0
 11
696.316996934232
 21
210.7785783860405
 31
0.0
 11
696.3483038864474
 21
210.7234843700668
 31
0.0
 11
696.3855022193197
 21
210.670370374317
 31
0.0
 11
696.4297266729476
 21
210.6186158660594
 31
0.0
  0
SPLINE
  5
2393
330
2
100
AcDbEntity
  8
0
100
AcDbSpline
210
0.0
220
0.0
230
1.0
 70
     8
 71
     3
 72
    14
 73
    10
 74
     8
 42
0.0000000001
 43
0.0000000001
 44
0.0000000001
 12
-0.6855979276970644
 22
-0.7279804128803818
 32
0.0
 13
0.0
 23
-1.0
 33
0.0
 40
0.0
 40
0.0
 40
0.0
 40
0.0
 40
0.0753012764312091
 40
0.1489769242321949
 40
0.2221868639677233
 40
0.2958620809854975
 40
0.3705877293077884
 40
0.4463743617594402
 40
0.5229108650064955
 40
0.5229108650064955
 40
0.5229108650064955
 40
0.5229108650064955
 10
696.4297266729476
 20
211.568658547597
 30
0.0
 10
696.4125178732563
 20
211.5503859294947
 30
0.0
 10
696.3803558003903
 20
211.5123998491823
 30
0.0
 10
696.3388196242313
 20
211.4509146295303
 30
0.0
 10
696.3044269823834
 20
211.3857705633182
 30
0.0
 10
696.2771401054112
 20
211.3169712841718
 30
0.0
 10
696.2571972303826
 20
211.2447996273162
 30
0.0
 10
696.2449855858722
 20
211.1699668046412
 30
0.0
 10
696.2422436840919
 20
211.1191493745772
 30
0.0
 10
696.2422436840919
 20
211.0936372068282
 30
0.0
 11
696.4297266729476
 21
211.568658547597
 31
0.0
 11
696.3811064908772
 21
211.5111575899737
 31
0.0
 11
696.3398785203349
 21
211.4500973285604
 31
0.0
 11
696.3056964828024
 21
211.3853572050958
 31
0.0
 11
696.2785194037
 21
211.3168776900999
 31
0.0
 11
696.2585964733022
 21
211.2448568642122
 31
0.0
 11
696.2463752038342
 21
211.1700621168635
 31
0.0
 11
696.2422436840919
 21
211.0936372068282
 31
0.0
  0
SPLINE
  5
2394
330
2
100
AcDbEntity
  8
0
100
AcDbSpline
210
0.0
220
0.0
230
1.0
 70
     8
 71
     3
 72
    15
 73
    11
 74
     9
 42
0.0000000001
 43
0.0000000001
 44
0.0000000001
 12
0.0
 22
1.0
 32
0.0
 13
-0.6855979279212824
 23
0.7279804126692176
 33
0.0
 40
0.0
 40
0.0
 40
0.0
 40
0.0
 40
0.0665041458296285
 40
0.1326452302363608
 40
0.1979968244967791
 40
0.2619675381850848
 40
0.3250647993261281
 40
0.3886099570957958
 40
0.4540176413647191
 40
0.5229701437791236
 40
0.5229701437791236
 40
0.5229701437791236
 40
0.5229701437791236
 10
701.2424683241638
 20
211.0936372068282
 30
0.0
 10
701.2424683241638
 20
211.115805255438
 30
0.0
 10
701.2403942065775
 20
211.1600485355313
 30
0.0
 10
701.2311283935905
 20
211.2254871415218
 30
0.0
 10
701.2159652643775
 20
211.2889524910714
 30
0.0
 10
701.1952690697219
 20
211.3497592821693
 30
0.0
 10
701.1692605371865
 20
211.4078295725386
 30
0.0
 10
701.1377102900053
 20
211.4636409780146
 30
0.0
 10
701.0998919894857
 20
211.5178098713982
 30
0.0
 10
701.0707432329014
 20
211.5519265238762
 30
0.0
 10
701.054985335308
 20
211.568658547597
 30
0.0
 11
701.2424683241638
 21
211.0936372068282
 31
0.0
 11
701.2393495187092
 21
211.160068182021
 31
0.0
 11
701.2300675073652
 21
211.2255547250043
 31
0.0
 11
701.2148679839415
 21
211.289114188187
 31
0.0
 11
701.1942447447168
 21
211.3496694044253
 31
0.0
 11
701.1684466122846
 21
211.4072516996776
 31
0.0
 11
701.1371767006481
 21
211.4625705906843
 31
0.0
 11
701.0997462242062
 21
211.5162094254475
 31
0.0
 11
701.054985335308
 21
211.568658547597
 31
0.0
  0
SPLINE
  5
2395
330
2
100
AcDbEntity
  8
0
100
AcDbSpline
210
0.0
220
0.0
230
1.0
 70
     8
 71
     3
 72
    10
 73
     6
 74
     4
 42
0.0000000001
 43
0.0000000001
 44
0.0000000001
 12
0.4646098793144005
 22
-0.8855154770208471
 32
0.0
 13
0.0
 23
-1.0
 33
0.0
 40
0.0
 40
0.0
 40
0.0
 40
0.0
 40
0.1653717719037745
 40
0.3306786553223139
 40
0.4923929709129466
 40
0.4923929709129466
 40
0.4923929709129466
 40
0.4923929709129466
 10
701.3798399525117
 20
211.568658547597
 30
0.0
 10
701.4054510721738
 20
211.5198454597693
 30
0.0
 10
701.4477863334713
 20
211.4173372673922
 30
0.0
 10
701.4845080111735
 20
211.2567286924947
 30
0.0
 10
701.492479555914
 20
211.1475419786918
 30
0.0
 10
701.492479555914
 20
211.0936372068282
 30
0.0
 11
701.3798399525117
 21
211.568658547597
 31
0.0
 11
701.443374428592
 21
211.4159785119283
 31
0.0
 11
701.4805810060392
 21
211.2549131950528
 31
0.0
 11
701.492479555914
 21
211.0936372068282
 31
0.0
  0
SPLINE
  5
2396
330
2
100
AcDbEntity
  8
0
100
AcDbSpline
210
0.0
220
0.0
230
1.0
 70
     8
 71
     3
 72
    11
 73
     7
 74
     5
 42
0.0000000001
 43
0.0000000001
 44
0.0000000001
 12
0.0
 22
-1.0
 32
0.0
 13
-0.4646098798884551
 23
-0.8855154767196536
 33
0.0
 40
0.0
 40
0.0
 40
0.0
 40
0.0
 40
0.1204435975287708
 40
0.2440256628315257
 40
0.3683987056849243
 40
0.4926268024321038
 40
0.4926268024321038
 40
0.4926268024321038
 40
0.4926268024321038
 10
701.492479555914
 20
211.0936372068282
 30
0.0
 10
701.492479555914
 20
211.0534893409853
 30
0.0
 10
701.4880491084471
 20
210.9720785732958
 30
0.0
 10
701.4676524839213
 20
210.8507129236568
 30
0.0
 10
701.4325695132951
 20
210.7314005829364
 30
0.0
 10
701.3990791528811
 20
210.6552845001638
 30
0.0
 10
701.3798399525117
 20
210.6186158660594
 30
0.0
 11
701.492479555914
 21
211.0936372068282
 31
0.0
 11
701.485894058594
 21
210.9733737817534
 31
0.0
 11
701.4653004574206
 21
210.8515196457743
 31
0.0
 11
701.4300387774042
 21
210.7322499190578
 31
0.0
 11
701.3798399525117
 21
210.6186158660594
 31
0.0
  0
SPLINE
  5
2397
330
2
100
AcDbEntity
  8
0
100
AcDbSpline
210
0.0
220
0.0
230
1.0
 70
     8
 71
     3
 72
    11
 73
     7
 74
     5
 42
0.0000000001
 43
0.0000000001
 44
0.0000000001
 12
-0.4646098798884551
 22
0.8855154767196536
 32
0.0
 13
0.0
 23
1.0
 33
0.0
 40
0.0
 40
0.0
 40
0.0
 40
0.0
 40
0.1242280967472714
 40
0.2486011396003798
 40
0.3721832049031537
 40
0.4926268024319246
 40
0.4926268024319246
 40
0.4926268024319246
 40
0.4926268024319246
 10
696.1048720557442
 20
210.6186158660594
 30
0.0
 10
696.0856328553748
 20
210.6552845001638
 30
0.0
 10
696.0521424949599
 20
210.7314005829362
 30
0.0
 10
696.0170595243361
 20
210.8507129236569
 30
0.0
 10
695.996662899809
 20
210.9720785732958
 30
0.0
 10
695.9922324523427
 20
211.0534893409853
 30
0.0
 10
695.9922324523427
 20
211.0936372068282
 30
0.0
 11
696.1048720557442
 21
210.6186158660594
 31
0.0
 11
696.0546732308515
 21
210.7322499190578
 31
0.0
 11
696.0194115508361
 21
210.8515196457743
 31
0.0
 11
695.9988179496626
 21
210.9733737817534
 31
0.0
 11
695.9922324523427
 21
211.0936372068282
 31
0.0
  0
SPLINE
  5
2398
330
2
100
AcDbEntity
  8
0
100
AcDbSpline
210
0.0
220
0.0
230
1.0
 70
     8
 71
     3
 72
    10
 73
     6
 74
     4
 42
0.0000000001
 43
0.0000000001
 44
0.0000000001
 12
0.0
 22
1.0
 32
0.0
 13
0.4646098793144005
 23
0.8855154770208471
 33
0.0
 40
0.0
 40
0.0
 40
0.0
 40
0.0
 40
0.1617143155905658
 40
0.3270211990093355
 40
0.4923929709128043
 40
0.4923929709128043
 40
0.4923929709128043
 40
0.4923929709128043
 10
695.9922324523427
 20
211.0936372068282
 30
0.0
 10
695.9922324523427
 20
211.1475419786917
 30
0.0
 10
696.0002039970813
 20
211.256728692495
 30
0.0
 10
696.036925674786
 20
211.4173372673918
 30
0.0
 10
696.0792609360822
 20
211.5198454597694
 30
0.0
 10
696.1048720557442
 20
211.568658547597
 30
0.0
 11
695.9922324523427
 21
211.0936372068282
 31
0.0
 11
696.0041310022164
 21
211.2549131950528
 31
0.0
 11
696.0413375796647
 21
211.4159785119283
 31
0.0
 11
696.1048720557442
 21
211.568658547597
 31
0.0
  0
DIMENSION
  5
2399
102
{ACAD_XDICTIONARY
360
239A
102
}
102
{ACAD_REACTORS
330
239B
102
}
330
2
100
AcDbEntity
  8
DIM
100
AcDbDimension
  2
*D11
 10
683.5326026713637
 20
209.5935698144254
 30
0.0
 11
683.5326026713637
 21
215.0044188843101
 31
0.0
 70
   160
  1
%%CD
 71
     5
 42
3.000134784170312
 73
     0
 74
     0
 75
     0
  3
01
100
AcDbAlignedDimension
 13
683.7166809608633
 23
212.5937045985957
 33
0.0
 14
683.7166809608633
 24
209.5935698144254
 34
0.0
 50
90.0
100
AcDbRotatedDimension
  0
DIMENSION
  5
239C
102
{ACAD_XDICTIONARY
360
239D
102
}
102
{ACAD_REACTORS
330
239E
102
}
330
2
100
AcDbEntity
  8
DIM
100
AcDbDimension
  2
*D12
 10
688.7419067239838
 20
206.1811181452756
 30
0.0
 11
684.7417270118626
 21
207.4311181452756
 31
0.0
 70
    32
 71
     5
 42
8.000359424242558
 73
     0
 74
     0
 75
     0
  3
01
100
AcDbAlignedDimension
 13
680.7415472997413
 23
208.6786520740912
 33
0.0
 14
688.7419067239838
 24
210.2435990181176
 34
0.0
100
AcDbRotatedDimension
  0
LINE
  5
23A2
102
{ACAD_REACTORS
330
23EB
102
}
330
2
100
AcDbEntity
  8
0
100
AcDbLine
 10
731.843634711434
 20
215.4675725787972
 30
0.0
 11
731.843634711434
 21
211.9675725810973
 31
0.0
  0
LINE
  5
23A3
102
{ACAD_REACTORS
330
23EB
102
}
330
2
100
AcDbEntity
  8
0
100
AcDbLine
 10
732.8436347114339
 20
215.4675725787972
 30
0.0
 11
732.8436347114339
 21
215.2175725799474
 31
0.0
  0
LINE
  5
23A4
330
2
100
AcDbEntity
  8
0
100
AcDbLine
 10
732.8436347114339
 20
212.2175725799473
 30
0.0
 11
732.8436347114339
 21
211.9675725810973
 31
0.0
  0
LINE
  5
23A5
102
{ACAD_REACTORS
330
23EB
102
}
330
2
100
AcDbEntity
  8
0
100
AcDbLine
 10
737.8436347114342
 20
214.8425725799474
 30
0.0
 11
737.8436347114342
 21
212.5925725799473
 31
0.0
  0
LINE
  5
23A6
330
2
100
AcDbEntity
  8
0
100
AcDbLine
 10
738.3736347121141
 20
211.9675725810973
 30
0.0
 11
738.3736347121141
 21
212.4425725799473
 31
0.0
  0
LINE
  5
23A7
330
2
100
AcDbEntity
  8
0
100
AcDbLine
 10
738.3736347121141
 20
214.9925725799473
 30
0.0
 11
738.3736347121141
 21
215.4675725787972
 31
0.0
  0
LINE
  5
23A8
330
2
100
AcDbEntity
  8
0
100
AcDbLine
 10
736.7736347121137
 20
215.2175725799473
 30
0.0
 11
736.7736347121137
 21
215.4675725787972
 31
0.0
  0
LINE
  5
23A9
330
2
100
AcDbEntity
  8
0
100
AcDbLine
 10
738.3736347121141
 20
215.4675725787972
 30
0.0
 11
737.5136347108738
 21
215.4675725787972
 31
0.0
  0
LINE
  5
23AA
330
2
100
AcDbEntity
  8
0
100
AcDbLine
 10
737.5136347108738
 20
215.4675725787972
 30
0.0
 11
736.7736347121137
 21
215.4675725787972
 31
0.0
  0
LINE
  5
23AB
330
2
100
AcDbEntity
  8
0
100
AcDbLine
 10
732.8436347114339
 20
215.4675725787972
 30
0.0
 11
732.2436347114343
 21
215.4675725787972
 31
0.0
  0
LINE
  5
23AC
330
2
100
AcDbEntity
  8
0
100
AcDbLine
 10
732.2436347114343
 20
215.4675725787972
 30
0.0
 11
731.843634711434
 21
215.4675725787972
 31
0.0
  0
LINE
  5
23AD
330
2
100
AcDbEntity
  8
0
100
AcDbLine
 10
741.3636347138142
 20
214.9925725799473
 30
0.0
 11
738.3736347121141
 21
214.9925725799473
 31
0.0
  0
LINE
  5
23AE
330
2
100
AcDbEntity
  8
0
100
AcDbLine
 10
742.5233729571003
 20
214.5925725799473
 30
0.0
 11
741.3636347138142
 21
214.5925725799473
 31
0.0
  0
LINE
  5
23AF
330
2
100
AcDbEntity
  8
0
100
AcDbLine
 10
741.3636347138142
 20
212.4425725799473
 30
0.0
 11
741.3636347138142
 21
212.8425725799473
 31
0.0
  0
LINE
  5
23B0
330
2
100
AcDbEntity
  8
0
100
AcDbLine
 10
741.3636347138142
 20
214.5925725799473
 30
0.0
 11
741.3636347138142
 21
214.9925725799473
 31
0.0
  0
LINE
  5
23B1
330
2
100
AcDbEntity
  8
Hat
 62
     6
100
AcDbLine
 10
742.5563314646986
 20
214.5086773644807
 30
0.0
 11
742.4724362491299
 21
214.5925725799473
 31
0.0
  0
LINE
  5
23B2
330
2
100
AcDbEntity
  8
Hat
 62
     6
100
AcDbLine
 10
742.6380221486722
 20
213.9527559126028
 30
0.0
 11
741.9982054805497
 21
214.5925725799473
 31
0.0
  0
LINE
  5
23B3
330
2
100
AcDbEntity
  8
Hat
 62
     6
100
AcDbLine
 10
742.5477481735936
 20
213.5687991198025
 30
0.0
 11
741.5239747119714
 21
214.5925725799473
 31
0.0
  0
LINE
  5
23B4
330
2
100
AcDbEntity
  8
Hat
 62
     6
100
AcDbLine
 10
741.3636347138142
 20
214.7529125806373
 30
0.0
 11
741.1239747119099
 21
214.9925725799473
 31
0.0
  0
LINE
  5
23B5
330
2
100
AcDbEntity
  8
Hat
100
AcDbLine
 10
742.430510113789
 20
213.2118064095425
 30
0.0
 11
740.6547439446542
 21
214.9875725786774
 31
0.0
  0
LINE
  5
23B6
330
2
100
AcDbEntity
  8
Hat
100
AcDbLine
 10
742.3255131747984
 20
212.8425725799473
 30
0.0
 11
740.175513172258
 21
214.9925725799473
 31
0.0
  0
LINE
  5
23B7
330
2
100
AcDbEntity
  8
Hat
100
AcDbLine
 10
741.8512824062182
 20
212.8425725799473
 30
0.0
 11
740.1436347114342
 21
214.5502202727139
 31
0.0
  0
LINE
  5
23B8
330
2
100
AcDbEntity
  8
Hat
 62
     6
100
AcDbLine
 10
740.0762824041215
 20
214.6175725799474
 30
0.0
 11
739.7012824036784
 21
214.9925725799473
 31
0.0
  0
LINE
  5
23B9
330
2
100
AcDbEntity
  8
Hat
100
AcDbLine
 10
741.3770516376323
 20
212.8425725799473
 30
0.0
 11
740.1436347114342
 21
214.0759895032561
 31
0.0
  0
LINE
  5
23BA
330
2
100
AcDbEntity
  8
Hat
 62
     6
100
AcDbLine
 10
740.5020516351044
 20
213.7175725799473
 30
0.0
 11
739.2270516351041
 21
214.9925725799473
 31
0.0
  0
LINE
  5
23BB
330
2
100
AcDbEntity
  8
0
100
AcDbLine
 10
738.3736347121141
 20
211.9675725810973
 30
0.0
 11
737.5136347108738
 21
211.9675725810974
 31
0.0
  0
LINE
  5
23BC
330
2
100
AcDbEntity
  8
0
100
AcDbLine
 10
737.5136347108738
 20
211.9675725810974
 30
0.0
 11
736.7736347121142
 21
211.9675725810973
 31
0.0
  0
LINE
  5
23BD
330
2
100
AcDbEntity
  8
0
100
AcDbLine
 10
732.8436347114339
 20
211.9675725810973
 30
0.0
 11
732.2436347114343
 21
211.9675725810973
 31
0.0
  0
LINE
  5
23BE
330
2
100
AcDbEntity
  8
0
100
AcDbLine
 10
732.2436347114343
 20
211.9675725810973
 30
0.0
 11
731.843634711434
 21
211.9675725810973
 31
0.0
  0
LINE
  5
23BF
330
2
100
AcDbEntity
  8
Hat
 62
     6
100
AcDbLine
 10
739.2778208690645
 20
214.4675725799473
 30
0.0
 11
738.7528208665001
 21
214.9925725799473
 31
0.0
  0
LINE
  5
23C0
330
2
100
AcDbEntity
  8
Hat
100
AcDbLine
 10
741.3028208639717
 20
212.4425725799473
 30
0.0
 11
740.1578340809447
 21
213.5875593658181
 31
0.0
  0
LINE
  5
23C1
330
2
100
AcDbEntity
  8
Hat
 62
     6
100
AcDbLine
 10
738.8035900979446
 20
214.4675725799474
 30
0.0
 11
737.8035900990937
 21
215.4675725787973
 31
0.0
  0
LINE
  5
23C2
330
2
100
AcDbEntity
  8
Hat
100
AcDbLine
 10
740.8285900953857
 20
212.4425725799473
 30
0.0
 11
740.0087761857871
 21
213.2623864926079
 31
0.0
  0
LINE
  5
23C3
330
2
100
AcDbEntity
  8
Hat
 62
     6
100
AcDbLine
 10
738.329359329364
 20
214.4675725799474
 30
0.0
 11
737.3293593305141
 21
215.4675725787972
 31
0.0
  0
LINE
  5
23C4
330
2
100
AcDbEntity
  8
Hat
100
AcDbLine
 10
740.3543593267998
 20
212.4425725799473
 30
0.0
 11
739.8293593293649
 21
212.9675725799473
 31
0.0
  0
LINE
  5
23C5
330
2
100
AcDbEntity
  8
Hat
 62
     6
100
AcDbLine
 10
737.4801285598316
 20
214.8425725799474
 30
0.0
 11
736.8551285593942
 21
215.4675725787972
 31
0.0
  0
LINE
  5
23C6
330
2
100
AcDbEntity
  8
Hat
100
AcDbLine
 10
739.8801285582443
 20
212.4425725799473
 30
0.0
 11
739.3551285582446
 21
212.9675725799473
 31
0.0
  0
LINE
  5
23C7
330
2
100
AcDbEntity
  8
Hat
 62
     6
100
AcDbLine
 10
737.0058977922045
 20
214.8425725799474
 30
0.0
 11
736.6308977922045
 21
215.2175725799473
 31
0.0
  0
LINE
  5
23C8
330
2
100
AcDbEntity
  8
Hat
100
AcDbLine
 10
739.4058977871002
 20
212.4425725799473
 30
0.0
 11
738.8808977896643
 21
212.9675725799473
 31
0.0
  0
LINE
  5
23C9
330
2
100
AcDbEntity
  8
Hat
100
AcDbLine
 10
738.9316670185446
 20
212.4425725799473
 30
0.0
 11
738.406667018545
 21
212.9675725799473
 31
0.0
  0
LINE
  5
23CA
330
2
100
AcDbEntity
  8
Hat
 62
     6
100
AcDbLine
 10
736.5316670210843
 20
214.8425725799474
 30
0.0
 11
736.1566670210843
 21
215.2175725799473
 31
0.0
  0
LINE
  5
23CB
330
2
100
AcDbEntity
  8
Hat
100
AcDbLine
 10
738.4574362499644
 20
212.4425725799473
 30
0.0
 11
738.0133978568506
 21
212.8866109730614
 31
0.0
  0
LINE
  5
23CC
330
2
100
AcDbEntity
  8
Hat
 62
     6
100
AcDbLine
 10
736.0574362525043
 20
214.8425725799474
 30
0.0
 11
735.6824362525046
 21
215.2175725799473
 31
0.0
  0
LINE
  5
23CD
330
2
100
AcDbEntity
  8
Hat
100
AcDbLine
 10
738.3736347121141
 20
212.0521433492175
 30
0.0
 11
737.8332054813848
 21
212.5925725799473
 31
0.0
  0
LINE
  5
23CE
330
2
100
AcDbEntity
  8
Hat
 62
     6
100
AcDbLine
 10
735.5832054839245
 20
214.8425725799474
 30
0.0
 11
735.208205483924
 21
215.2175725799473
 31
0.0
  0
LINE
  5
23CF
330
2
100
AcDbEntity
  8
Hat
100
AcDbLine
 10
737.983974711654
 20
211.9675725810973
 30
0.0
 11
737.3589747128045
 21
212.5925725799473
 31
0.0
  0
LINE
  5
23D0
330
2
100
AcDbEntity
  8
Hat
 62
     6
100
AcDbLine
 10
735.1089747136128
 20
214.8425725799474
 30
0.0
 11
734.7339747118804
 21
215.2175725799473
 31
0.0
  0
LINE
  5
23D1
330
2
100
AcDbEntity
  8
Hat
100
AcDbLine
 10
737.5097439430748
 20
211.9675725810973
 30
0.0
 11
736.8847439426373
 21
212.5925725799473
 31
0.0
  0
LINE
  5
23D2
330
2
100
AcDbEntity
  8
Hat
 62
     6
100
AcDbLine
 10
734.6347439442244
 20
214.8425725799474
 30
0.0
 11
734.2597439442243
 21
215.2175725799473
 31
0.0
  0
LINE
  5
23D3
330
2
100
AcDbEntity
  8
Hat
 62
     6
100
AcDbLine
 10
734.160513173104
 20
214.8425725799475
 30
0.0
 11
733.785513173104
 21
215.2175725799473
 31
0.0
  0
LINE
  5
23D4
330
2
100
AcDbEntity
  8
Hat
100
AcDbLine
 10
736.3112824045245
 20
212.2175725799473
 30
0.0
 11
735.9362824045248
 21
212.5925725799473
 31
0.0
  0
LINE
  5
23D5
330
2
100
AcDbEntity
  8
Hat
 62
     6
100
AcDbLine
 10
733.6862824045239
 20
214.8425725799475
 30
0.0
 11
733.3112824045239
 21
215.2175725799473
 31
0.0
  0
LINE
  5
23D6
330
2
100
AcDbEntity
  8
Hat
100
AcDbLine
 10
735.8370516359448
 20
212.2175725799473
 30
0.0
 11
735.4620516359448
 21
212.5925725799473
 31
0.0
  0
LINE
  5
23D7
330
2
100
AcDbEntity
  8
Hat
 62
     6
100
AcDbLine
 10
733.2120516359448
 20
214.8425725799475
 30
0.0
 11
732.5870516370944
 21
215.4675725787972
 31
0.0
  0
LINE
  5
23D8
330
2
100
AcDbEntity
  8
Hat
100
AcDbLine
 10
735.3628208648244
 20
212.2175725799473
 30
0.0
 11
734.9878208648243
 21
212.5925725799473
 31
0.0
  0
LINE
  5
23D9
330
2
100
AcDbEntity
  8
Hat
 62
     6
100
AcDbLine
 10
732.737820867451
 20
214.8425725799475
 30
0.0
 11
732.112820865974
 21
215.4675725787972
 31
0.0
  0
LINE
  5
23DA
330
2
100
AcDbEntity
  8
Hat
100
AcDbLine
 10
734.8885900962442
 20
212.2175725799473
 30
0.0
 11
734.5135900962447
 21
212.5925725799473
 31
0.0
  0
LINE
  5
23DB
330
2
100
AcDbEntity
  8
Hat
100
AcDbLine
 10
734.4143593276651
 20
212.2175725799473
 30
0.0
 11
734.0393593276651
 21
212.5925725799473
 31
0.0
  0
LINE
  5
23DC
330
2
100
AcDbEntity
  8
Hat
100
AcDbLine
 10
733.9401285590849
 20
212.2175725799473
 30
0.0
 11
733.5651285590849
 21
212.5925725799473
 31
0.0
  0
LINE
  5
23DD
330
2
100
AcDbEntity
  8
Hat
100
AcDbLine
 10
733.4658977879646
 20
212.2175725799473
 30
0.0
 11
733.0908977879646
 21
212.5925725799473
 31
0.0
  0
LINE
  5
23DE
330
2
100
AcDbEntity
  8
Hat
100
AcDbLine
 10
732.9916670193854
 20
212.2175725799474
 30
0.0
 11
732.6665531831747
 21
212.5426864161574
 31
0.0
  0
LINE
  5
23DF
330
2
100
AcDbEntity
  8
Hat
100
AcDbLine
 10
732.7674362496546
 20
211.9675725810974
 30
0.0
 11
732.3659029231514
 21
212.3691059076009
 31
0.0
  0
LINE
  5
23E0
330
2
100
AcDbEntity
  8
Hat
100
AcDbLine
 10
732.2436347114343
 20
212.0171433507375
 30
0.0
 11
732.0652526631277
 21
212.1955253990443
 31
0.0
  0
LINE
  5
23E1
330
2
100
AcDbEntity
  8
0
100
AcDbLine
 10
731.843634711434
 20
212.067574214977
 30
0.0
 11
732.7529585534533
 21
212.5925725799471
 31
0.0
  0
LINE
  5
23E2
330
2
100
AcDbEntity
  8
0
100
AcDbLine
 10
732.8436347114339
 20
215.2175725799473
 30
0.0
 11
736.7736347121137
 21
215.2175725799473
 31
0.0
  0
LINE
  5
23E3
330
2
100
AcDbEntity
  8
Hat
 62
     6
100
AcDbLine
 10
738.3736347121141
 20
215.371758732481
 30
0.0
 11
738.2778208653295
 21
215.4675725787973
 31
0.0
  0
LINE
  5
23E4
330
2
100
AcDbEntity
  8
Hat
100
AcDbLine
 10
737.0355131744943
 20
211.9675725810973
 30
0.0
 11
736.4105131740573
 21
212.5925725799473
 31
0.0
  0
LINE
  5
23E5
330
2
100
AcDbEntity
  8
0
100
AcDbLine
 10
732.7529585534533
 20
212.5925725799473
 30
0.0
 11
737.8436347114342
 21
212.5925725799473
 31
0.0
  0
LINE
  5
23E6
330
2
100
AcDbEntity
  8
0
100
AcDbLine
 10
732.7529585534533
 20
214.8425725799474
 30
0.0
 11
737.8436347114342
 21
214.8425725799474
 31
0.0
  0
LINE
  5
23E7
330
2
100
AcDbEntity
  8
0
100
AcDbLine
 10
731.843634711434
 20
215.3675709449176
 30
0.0
 11
732.7529585534533
 21
214.8425725799474
 31
0.0
  0
LINE
  5
23E8
330
2
100
AcDbEntity
  8
0
100
AcDbLine
 10
732.7529585534533
 20
214.8425725799474
 30
0.0
 11
732.7529585534533
 21
212.5925725799473
 31
0.0
  0
DIMENSION
  5
23E9
102
{ACAD_XDICTIONARY
360
23EA
102
}
102
{ACAD_REACTORS
330
23EB
102
}
330
2
100
AcDbEntity
  8
DIM
100
AcDbDimension
  2
*D9
 10
731.843634711434
 20
217.4056278411934
 30
0.0
 11
734.8436347114342
 21
218.6556278411934
 31
0.0
 70
    32
 71
     5
 42
6.0
 73
     0
 74
     0
 75
     0
  3
01
100
AcDbAlignedDimension
 13
737.8436347114342
 23
214.8425725799474
 33
0.0
 14
731.843634711434
 24
215.1749103743497
 34
0.0
100
AcDbRotatedDimension
  0
LINE
  5
23EC
330
2
100
AcDbEntity
  8
0
100
AcDbLine
 10
736.7736347121137
 20
212.2175725799473
 30
0.0
 11
736.7736347121137
 21
211.9675725810973
 31
0.0
  0
LINE
  5
23ED
330
2
100
AcDbEntity
  8
0
100
AcDbLine
 10
732.8436347114339
 20
212.2175725799473
 30
0.0
 11
736.7736347121137
 21
212.2175725799473
 31
0.0
  0
LINE
  5
23EE
330
2
100
AcDbEntity
  8
0
100
AcDbLine
 10
737.8436347114342
 20
214.8425725799474
 30
0.0
 11
738.0601410623805
 21
214.4675725799474
 31
0.0
  0
LINE
  5
23EF
330
2
100
AcDbEntity
  8
0
100
AcDbLine
 10
737.8436347114342
 20
212.5925725799472
 30
0.0
 11
738.0601410623805
 21
212.9675725799473
 31
0.0
  0
LINE
  5
23F0
330
2
100
AcDbEntity
  8
0
100
AcDbLine
 10
741.3636347138142
 20
212.4425725799473
 30
0.0
 11
738.3736347121141
 21
212.4425725799473
 31
0.0
  0
LINE
  5
23F1
330
2
100
AcDbEntity
  8
0
100
AcDbLine
 10
742.3636347127929
 20
212.8425725799473
 30
0.0
 11
741.3636347138142
 21
212.8425725799473
 31
0.0
  0
LINE
  5
23F2
330
2
100
AcDbEntity
  8
0
  6
Continuous
 62
     7
370
    25
100
AcDbLine
 10
739.8736347121142
 20
212.9675725799473
 30
0.0
 11
739.8736347121142
 21
214.4675725799474
 31
0.0
  0
LINE
  5
23F3
102
{ACAD_REACTORS
330
23F9
102
}
330
2
100
AcDbEntity
  8
0
  6
Continuous
 62
     7
370
    25
100
AcDbLine
 10
738.06014106238
 20
212.9675725799473
 30
0.0
 11
739.8736347121142
 21
212.9675725799473
 31
0.0
  0
LINE
  5
23F4
102
{ACAD_REACTORS
330
23F9
102
}
330
2
100
AcDbEntity
  8
0
  6
Continuous
 62
     7
370
    25
100
AcDbLine
 10
738.06014106238
 20
214.4675725799475
 30
0.0
 11
739.8736347121142
 21
214.4675725799473
 31
0.0
  0
LINE
  5
23F5
330
2
100
AcDbEntity
  8
0
100
AcDbLine
 10
739.8736347121142
 20
214.4675725799473
 30
0.0
 11
740.2174315985647
 21
213.7175725799473
 31
0.0
  0
LINE
  5
23F6
330
2
100
AcDbEntity
  8
0
100
AcDbLine
 10
739.8736347121142
 20
212.9675725799473
 30
0.0
 11
740.2174315985647
 21
213.7175725799473
 31
0.0
  0
DIMENSION
  5
23F7
102
{ACAD_XDICTIONARY
360
23F8
102
}
102
{ACAD_REACTORS
330
23F9
102
}
330
2
100
AcDbEntity
  8
DIM
100
AcDbDimension
  2
*D10
 10
739.1301530922962
 20
214.4675725799474
 30
0.0
 11
739.1301530922962
 21
208.7800725799474
 31
0.0
 70
   160
  1
%%C<>
 71
     5
 42
1.500000000000055
 73
     0
 74
     0
 75
     0
  3
01
100
AcDbAlignedDimension
 13
738.8771984239005
 23
212.9675725799473
 33
0.0
 14
739.0275680833108
 24
214.4675725799474
 34
0.0
 50
90.0
100
AcDbRotatedDimension
  0
DIMENSION
  5
23FA
330
2
100
AcDbEntity
  8
DIM
100
AcDbDimension
  2
*D3
 10
739.8736347121142
 20
217.4056278411934
 30
0.0
 11
738.8586347117741
 21
217.4056278411934
 31
0.0
 70
   160
  1
2
 71
     5
 42
2.030000000680046
 73
     0
 74
     0
 75
     0
  3
01
100
AcDbAlignedDimension
 13
737.8436347114342
 23
214.8425725799474
 33
0.0
 14
739.8736347121142
 24
214.4675725799471
 34
0.0
100
AcDbRotatedDimension
  0
DIMENSION
  5
23FB
330
2
100
AcDbEntity
  8
DIM
100
AcDbDimension
  2
*D4
 10
729.6803825593026
 20
212.5925725799473
 30
0.0
 11
729.6803825593026
 21
206.1282868656616
 31
0.0
 70
   160
  1
{\Fromand,hztxt|c134;%%Cd=}%%C2.25
 71
     5
 42
2.25000000000017
 73
     0
 74
     0
 75
     0
  3
01
100
AcDbAlignedDimension
 13
732.7529585534533
 23
214.8425725799474
 33
0.0
 14
732.7529585534533
 24
212.5925725799473
 34
0.0
 50
90.0
100
AcDbRotatedDimension
1001
ACAD_DSTYLE_DIMINSPECT
1070
   394
1070
     4
1070
   393
1070
     1
  0
SPLINE
  5
23FC
330
2
100
AcDbEntity
  8
DIM
 48
2.0
100
AcDbSpline
210
0.0
220
0.0
230
1.0
 70
     8
 71
     3
 72
    10
 73
     6
 74
     4
 42
0.0000000001
 43
0.0000000001
 44
0.0000000001
 40
0.0
 40
0.0
 40
0.0
 40
0.0
 40
1.642468542385291
 40
2.786057409537066
 40
3.638357876919374
 40
3.638357876919374
 40
3.638357876919374
 40
3.638357876919374
 10
741.9947310772461
 20
215.4640068878377
 30
0.0
 10
742.3419562458686
 20
214.9691850506307
 30
0.0
 10
742.9309411967851
 20
214.1298374403873
 30
0.0
 10
742.2031685962362
 20
212.9330727588875
 30
0.0
 10
742.4701975063364
 20
212.2927494684167
 30
0.0
 10
742.5842263059022
 20
212.0193135467444
 30
0.0
 11
741.9947310772461
 21
215.4640068878377
 31
0.0
 11
742.6380221486722
 21
213.9527559126027
 31
0.0
 11
742.3636347127942
 21
212.8425725799473
 31
0.0
 11
742.5842263059022
 21
212.0193135467444
 31
0.0
  0
DIMENSION
  5
23FD
330
2
100
AcDbEntity
  8
DIM
100
AcDbDimension
  2
*D5
 10
726.1919108365034
 20
212.2175725799473
 30
0.0
 11
724.9419108365034
 21
207.2622154370903
 31
0.0
 70
    32
  1
{\Fromand,hztxt|c134;%%CD=}%%C3.2
 71
     5
 42
3.0
 73
     0
 74
     0
 75
     0
  3
01
100
AcDbAlignedDimension
 13
732.8436347114339
 23
215.2175725799473
 33
0.0
 14
732.8436347114339
 24
212.2175725799473
 34
0.0
 50
90.0
100
AcDbRotatedDimension
1001
ACAD_DSTYLE_DIMINSPECT
1070
   394
1070
     4
1070
   393
1070
     1
  0
LINE
  5
23FE
330
2
100
AcDbEntity
  8
CEN
100
AcDbLine
 10
731.4887630374056
 20
213.7175725799473
 30
0.0
 11
743.2737081003011
 21
213.7175725799473
 31
0.0
  0
LINE
  5
23FF
330
2
100
AcDbEntity
  8
0
  6
Continuous
 62
     7
370
    25
100
AcDbLine
 10
738.0601410623805
 20
214.4675725799474
 30
0.0
 11
738.0601410623805
 21
212.9675725799473
 31
0.0
  0
ENDSEC
  0
SECTION
  2
OBJECTS
  0
DICTIONARY
  5
B
330
0
100
AcDbDictionary
281
     1
  3
ACAD_COLOR
350
238
  3
ACAD_GROUP
350
225
  3
ACAD_LAYOUT
350
206
  3
ACAD_MATERIAL
350
D
  3
ACAD_MLEADERSTYLE
350
29B
  3
ACAD_MLINESTYLE
350
226
  3
ACAD_PLOTSETTINGS
350
227
  3
ACAD_PLOTSTYLENAME
350
A
  3
ACAD_SCALELIST
350
239
  3
ACAD_TABLESTYLE
350
23A
  3
ACAD_VISUALSTYLE
350
21F
  3
ACDB_RECOMPOSE_DATA
350
28B
  3
AcDbVariableDictionary
350
262
  0
DICTIONARY
  5
220
330
21C
100
AcDbDictionary
280
     1
281
     1
  0
DICTIONARY
  5
211
330
210
100
AcDbDictionary
280
     1
281
     1
  3
ACAD_LAYERFILTERS
360
896
  3
ACAD_LAYERSTATES
360
213
  3
ACLYDICTIONARY
360
895
  0
DICTIONARY
  5
7
330
6
100
AcDbDictionary
280
     1
281
     1
  3
ADSK_XREC_LAYER_RECONCILED
360
8
  0
DICTIONARY
  5
18
330
17
100
AcDbDictionary
280
     1
281
     1
  3
ADSK_XREC_LAYER_RECONCILED
360
19
  0
DICTIONARY
  5
26
330
25
100
AcDbDictionary
280
     1
281
     1
  3
ADSK_XREC_LAYER_RECONCILED
360
27
  0
DICTIONARY
  5
9D2
330
9D1
100
AcDbDictionary
280
     1
281
     1
  0
DICTIONARY
  5
3
330
2
100
AcDbDictionary
280
     1
281
     1
  3
ACAD_SORTENTS
360
261
  0
DICTIONARY
  5
2F6E
330
2AC
100
AcDbDictionary
280
     1
281
     1
  0
DICTIONARY
  5
2094
330
2093
100
AcDbDictionary
280
     1
281
     1
  3
ACAD_SORTENTS
360
2095
  0
DICTIONARY
  5
2F79
330
2ED9
100
AcDbDictionary
280
     1
281
     1
  3
ACAD_MTEXT_2008_RT
360
2F7A
  0
DICTIONARY
  5
2F7B
330
2F1D
100
AcDbDictionary
280
     1
281
     1
  3
ACAD_MTEXT_2008_RT
360
2F7C
  0
DICTIONARY
  5
2F7D
330
2F1E
100
AcDbDictionary
280
     1
281
     1
  3
ACAD_MTEXT_2008_RT
360
2F7E
  0
DICTIONARY
  5
2F7F
330
2F43
100
AcDbDictionary
280
     1
281
     1
  3
ACAD_MTEXT_2008_RT
360
2F80
  0
DICTIONARY
  5
2F81
330
2F46
100
AcDbDictionary
280
     1
281
     1
  3
ACAD_MTEXT_2008_RT
360
2F82
  0
DICTIONARY
  5
2F83
330
2F47
100
AcDbDictionary
280
     1
281
     1
  3
ACAD_MTEXT_2008_RT
360
2F84
  0
DICTIONARY
  5
2F85
330
2F51
100
AcDbDictionary
280
     1
281
     1
  3
ACAD_MTEXT_2008_RT
360
2F86
  0
DICTIONARY
  5
2F87
330
2F52
100
AcDbDictionary
280
     1
281
     1
  3
ACAD_MTEXT_2008_RT
360
2F88
  0
DICTIONARY
  5
2F89
330
2F53
100
AcDbDictionary
280
     1
281
     1
  3
ACAD_MTEXT_2008_RT
360
2F8A
  0
DICTIONARY
  5
2F8B
330
2F61
100
AcDbDictionary
280
     1
281
     1
  3
ACAD_MTEXT_2008_RT
360
2F8C
  0
DICTIONARY
  5
2F8D
330
2F62
100
AcDbDictionary
280
     1
281
     1
  3
ACAD_MTEXT_2008_RT
360
2F8E
  0
DICTIONARY
  5
2F8F
330
2F63
100
AcDbDictionary
280
     1
281
     1
  3
ACAD_MTEXT_2008_RT
360
2F90
  0
DICTIONARY
  5
2F75
330
4AC
100
AcDbDictionary
280
     1
281
     1
  3
ACAD_MTEXT_2008_RT
360
2F76
  0
DICTIONARY
  5
2F77
330
DEE
100
AcDbDictionary
280
     1
281
     1
  3
ACAD_MTEXT_2008_RT
360
2F78
  0
DICTIONARY
  5
239A
330
2399
100
AcDbDictionary
280
     1
281
     1
  3
ACAD_DIMASSOC
360
239B
  0
DICTIONARY
  5
239D
330
239C
100
AcDbDictionary
280
     1
281
     1
  3
ACAD_DIMASSOC
360
239E
  0
DICTIONARY
  5
23EA
330
23E9
100
AcDbDictionary
280
     1
281
     1
  3
ACAD_DIMASSOC
360
23EB
  0
DICTIONARY
  5
23F8
330
23F7
100
AcDbDictionary
280
     1
281
     1
  3
ACAD_DIMASSOC
360
23F9
  0
DICTIONARY
  5
238
102
{ACAD_REACTORS
330
B
102
}
330
B
100
AcDbDictionary
281
     1
  0
DICTIONARY
  5
225
102
{ACAD_REACTORS
330
B
102
}
330
B
100
AcDbDictionary
281
     1
  0
DICTIONARY
  5
206
102
{ACAD_REACTORS
330
B
102
}
330
B
100
AcDbDictionary
281
     1
  3
Layout1
350
20B
  3
Layout2
350
20F
  3
Model
350
205
  0
DICTIONARY
  5
D
102
{ACAD_REACTORS
330
B
102
}
330
B
100
AcDbDictionary
281
     1
  3
ByBlock
350
230
  3
ByLayer
350
228
  3
Global
350
C
  0
DICTIONARY
  5
29B
102
{ACAD_REACTORS
330
B
102
}
330
B
100
AcDbDictionary
281
     1
  3
Standard
350
29C
  0
DICTIONARY
  5
226
102
{ACAD_REACTORS
330
B
102
}
330
B
100
AcDbDictionary
281
     1
  3
Standard
350
23B
  0
DICTIONARY
  5
227
102
{ACAD_REACTORS
330
B
102
}
330
B
100
AcDbDictionary
281
     1
  0
ACDBDICTIONARYWDFLT
  5
A
102
{ACAD_REACTORS
330
B
102
}
330
B
100
AcDbDictionary
281
     1
  3
Normal
350
9
100
AcDbDictionaryWithDefault
340
9
  0
DICTIONARY
  5
239
102
{ACAD_REACTORS
330
B
102
}
330
B
100
AcDbDictionary
281
     1
  3
A0
350
240
  3
A1
350
241
  3
A2
350
242
  3
A3
350
243
  3
A4
350
244
  3
A5
350
245
  3
A6
350
246
  3
A7
350
247
  3
A8
350
248
  3
A9
350
249
  3
B0
350
24A
  3
B1
350
24B
  3
B2
350
24C
  3
B3
350
24D
  3
B4
350
24E
  3
B5
350
24F
  3
B6
350
250
  3
B7
350
251
  3
B8
350
252
  3
B9
350
253
  3
C0
350
254
  3
C1
350
255
  3
C2
350
256
  3
C3
350
257
  3
C4
350
258
  3
C5
350
259
  3
C6
350
25A
  3
C7
350
25B
  3
C8
350
25C
  3
C9
350
25D
  3
D0
350
25E
  3
D1
350
25F
  3
D2
350
260
  0
DICTIONARY
  5
23A
102
{ACAD_REACTORS
330
B
102
}
330
B
100
AcDbDictionary
281
     1
  3
Standard
350
23C
  0
DICTIONARY
  5
21F
102
{ACAD_REACTORS
330
B
102
}
330
B
100
AcDbDictionary
281
     1
  3
2dWireframe
350
21E
  3
3D Hidden
350
293
  3
3dWireframe
350
23F
  3
Basic
350
292
  3
Brighten
350
296
  3
ColorChange
350
29A
  3
Conceptual
350
294
  3
Dim
350
295
  3
Facepattern
350
299
  3
Flat
350
28E
  3
FlatWithEdges
350
28F
  3
Gouraud
350
290
  3
GouraudWithEdges
350
291
  3
Linepattern
350
298
  3
Realistic
350
23E
  3
Thicken
350
297
  0
XRECORD
  5
28B
102
{ACAD_REACTORS
330
B
102
}
330
B
100
AcDbXrecord
280
     1
 90
        1
330
23C
330
4AC
330
DEE
330
2ED9
330
2F1D
330
2F1E
330
2F43
330
2F46
330
2F47
330
2F51
330
2F52
330
2F53
330
2F61
330
2F62
330
2F63
  0
DICTIONARY
  5
262
102
{ACAD_REACTORS
330
B
102
}
330
B
100
AcDbDictionary
281
     1
  3
CANNOSCALE
350
265
  3
CMLEADERSTYLE
350
264
  3
CTABLESTYLE
350
263
  3
DIMASSOC
350
625
  3
HIDETEXT
350
624
  3
INDEXCTL
350
623
  3
LIGHTINGUNITS
350
266
  3
MSLTSCALE
350
621
  3
SORTENTS
350
622
  0
DICTIONARY
  5
896
102
{ACAD_REACTORS
330
211
102
}
330
211
100
AcDbDictionary
281
     1
  0
DICTIONARY
  5
213
102
{ACAD_REACTORS
330
211
102
}
330
211
100
AcDbDictionary
281
     1
  0
DICTIONARY
  5
895
102
{ACAD_REACTORS
330
211
102
}
330
211
100
AcDbDictionary
281
     1
1001
ACAD
1000
<All
  0
XRECORD
  5
8
102
{ACAD_REACTORS
330
7
102
}
330
7
100
AcDbXrecord
280
     1
290
     1
  0
XRECORD
  5
19
102
{ACAD_REACTORS
330
18
102
}
330
18
100
AcDbXrecord
280
     1
290
     1
  0
XRECORD
  5
27
102
{ACAD_REACTORS
330
26
102
}
330
26
100
AcDbXrecord
280
     1
290
     1
  0
SORTENTSTABLE
  5
261
102
{ACAD_REACTORS
330
3
102
}
330
3
100
AcDbSortentsTable
330
2
331
4A9
  5
4AD
331
48F
  5
492
331
FD3
  5
FD9
331
49A
  5
49E
331
1E
  5
1E
331
4BF
  5
513
331
481
  5
481
331
4A7
  5
4AB
331
48D
  5
490
331
FD1
  5
FD7
331
566
  5
754
331
4C1
  5
515
331
498
  5
49C
331
1C
  5
1C
331
4BD
  5
511
331
4B2
  5
4BD
331
48B
  5
48D
331
FCF
  5
FD5
331
564
  5
752
331
1A
  5
1A
331
4BB
  5
4C1
331
4A5
  5
4A9
331
489
  5
48A
331
562
  5
568
331
568
  5
756
331
4A3
  5
4A7
331
DEE
  5
DFC
331
23
  5
23
331
4B9
  5
4BF
331
486
  5
486
331
49F
  5
4A3
331
494
  5
497
331
560
  5
566
331
4AC
  5
4B9
331
4A1
  5
4A5
331
484
  5
484
331
21
  5
21
331
49D
  5
4A1
331
FD6
  5
FDC
331
492
  5
495
331
4AA
  5
4B0
331
482
  5
482
331
1F
  5
1F
331
49B
  5
49F
331
FD4
  5
FDA
331
490
  5
493
331
4C2
  5
516
331
4A8
  5
4AC
331
16
  5
16
331
48E
  5
491
331
1D
  5
1D
331
4B3
  5
4BE
331
4BE
  5
512
331
499
  5
49D
331
FD2
  5
FD8
331
567
  5
755
331
4C0
  5
514
331
4A6
  5
4AA
331
48C
  5
48F
331
4B1
  5
4BC
331
FD0
  5
FD6
331
565
  5
753
331
4BC
  5
4C2
331
497
  5
49B
331
1B
  5
1B
331
4A4
  5
4A8
331
48A
  5
48C
331
4BA
  5
4C0
331
487
  5
487
331
495
  5
498
331
DEF
  5
DFF
331
563
  5
751
331
4A2
  5
4A6
331
488
  5
488
331
4AD
  5
4BA
331
485
  5
485
331
493
  5
496
331
49E
  5
4A2
331
22
  5
22
331
561
  5
567
331
E59
  5
FD3
331
4AB
  5
4B2
331
4A0
  5
4A4
331
483
  5
483
331
FD5
  5
FDB
331
491
  5
494
331
49C
  5
4A0
331
20
  5
20
  0
SORTENTSTABLE
  5
2095
102
{ACAD_REACTORS
330
2094
102
}
330
2094
100
AcDbSortentsTable
330
2093
  0
XRECORD
  5
2F7A
102
{ACAD_REACTORS
330
2F79
102
}
330
2F79
100
AcDbXrecord
280
     1
 40
1527.0
  1
\pxqc;BQ LUO
  0
XRECORD
  5
2F7C
102
{ACAD_REACTORS
330
2F7B
102
}
330
2F7B
100
AcDbXrecord
280
     1
 40
3624820.0
  1
\pxqc;档案员{\H0.7x;\P\Fromans|c134;Filing Clerk\fFangSong_GB2312|b0|i0|c134|p49; }
  0
XRECORD
  5
2F7E
102
{ACAD_REACTORS
330
2F7D
102
}
330
2F7D
100
AcDbXrecord
280
     1
 40
2054623.0
  1
\pxqc;日期{\Fromans|c134;/Date}
  0
XRECORD
  5
2F80
102
{ACAD_REACTORS
330
2F7F
102
}
330
2F7F
100
AcDbXrecord
280
     1
 40
1836818.0
  1
\pxsm0.7;{\fFangSong_GB2312|b0|i0|c134|p49;标准化}\PStand.
  0
XRECORD
  5
2F82
102
{ACAD_REACTORS
330
2F81
102
}
330
2F81
100
AcDbXrecord
280
     1
 40
1476476.0
  1
\pxsm0.7;签名\P{\Fromans|c134;Signature} 
  0
XRECORD
  5
2F84
102
{ACAD_REACTORS
330
2F83
102
}
330
2F83
100
AcDbXrecord
280
     1
 40
1354713.0
  1
\pxsm0.7,qc;处数\P{\Fromans|c134;Number }
  0
XRECORD
  5
2F86
102
{ACAD_REACTORS
330
2F85
102
}
330
2F85
100
AcDbXrecord
280
     1
 40
1692934.0
  1
\pxsm0.7;标记\P{\Fromans|c134;Mark}
  0
XRECORD
  5
2F88
102
{ACAD_REACTORS
330
2F87
102
}
330
2F87
100
AcDbXrecord
280
     1
 40
1391581.0
  1
\pxsm0.7;审核\P{\Fromans|c134;Checked}
  0
XRECORD
  5
2F8A
102
{ACAD_REACTORS
330
2F89
102
}
330
2F89
100
AcDbXrecord
280
     1
 40
1546703.0
  1
\pxsm0.7;绘图\P{\Fromans|c134;Drawn\Ftxt|c134; }
  0
XRECORD
  5
2F8C
102
{ACAD_REACTORS
330
2F8B
102
}
330
2F8B
100
AcDbXrecord
280
     1
 40
1293614.0
  1
\pxsm0.7;批准\P{\Fromans|c134;Approved}
  0
XRECORD
  5
2F8E
102
{ACAD_REACTORS
330
2F8D
102
}
330
2F8D
100
AcDbXrecord
280
     1
 40
1583427.0
  1
\pxsm0.7;工艺\P{\Fromans|c134;Process}
  0
XRECORD
  5
2F90
102
{ACAD_REACTORS
330
2F8F
102
}
330
2F8F
100
AcDbXrecord
280
     1
 40
1435325.0
  1
\pxsm0.7;日期\P{\Fromans|c134;Date}
  0
XRECORD
  5
2F76
102
{ACAD_REACTORS
330
2F75
102
}
330
2F75
100
AcDbXrecord
280
     1
 40
322815803.0
  1
\A1;\pxql;{\f仿宋_GB2312|b0|i0|c134|p49;技术参数}:\P\pq*;- {\f仿宋_GB2312|b0|i0|c134|p49;材料}: {\f仿宋_GB2312|b0|i0|c134|p49;铜合金}\P- {\f仿宋_GB2312|b0|i0|c134|p49;表面处理}: {\f仿宋_GB2312|b0|i0|c134|p49;镀银}\P\pql;- {\f仿宋_GB2312|b0|i0|c134|p49;额定电流}: 10A\P- {\f仿宋_GB231
  1
2|b0|i0|c134|p49;接触电阻}: ≤3mΩ\P- {\f仿宋_GB2312|b0|i0|c134|p49;线径范围}: 0.75mm{\H0.7x;\S2^ ;}(18 AWG)\P\pq*;- {\f仿宋_GB2312|b0|i0|c134|p49;可插拔次数}: {\f仿宋_GB2312|b0|i0|c134|p49;≥}500\P\P\pql;Technical specification:\P- Material: copper alloy\P- Surface: hard-
  1
silver plated\P- Rated current: 10A\P- Contact resistance: ≤3mΩ\P- Wire gauge: 0.75mm{\H0.7x;\S2^ ;}(18 AWG)\P- Mating cycles: {\f仿宋_GB2312|b0|i0|c134|p49;≥}500
  0
XRECORD
  5
2F78
102
{ACAD_REACTORS
330
2F77
102
}
330
2F77
100
AcDbXrecord
280
     1
 40
7309418.0
  1
\pxqc;{\f仿宋_GB2312|b0|i0|c134|p49;尺寸差异部分\P}Part of the size difference
  0
DIMASSOC
  5
239B
102
{ACAD_REACTORS
330
239A
102
}
330
239A
100
AcDbDimAssoc
330
2399
 90
        3
 70
     0
 71
     0
  1
AcDbOsnapPointRef
 72
     2
331
2374
 73
     2
 91
        0
 40
0.4999999999998849
 10
0.0
 20
0.0
 30
0.0
 75
     0
  1
AcDbOsnapPointRef
 72
     2
331
2366
 73
     2
 91
        0
 40
0.5000000000001151
 10
0.0
 20
0.0
 30
0.0
 75
     0
  0
DIMASSOC
  5
239E
102
{ACAD_REACTORS
330
239D
102
}
330
239D
100
AcDbDimAssoc
330
239C
 90
        2
 70
     0
 71
     0
  1
AcDbOsnapPointRef
 72
     1
331
236E
 73
     2
 91
        0
 40
1.0
 10
0.0
 20
0.0
 30
2.000000000000000E+50
 75
     0
  0
DIMASSOC
  5
23EB
102
{ACAD_REACTORS
330
23EA
102
}
330
23EA
100
AcDbDimAssoc
330
23E9
 90
        2
 70
     0
 71
     0
  1
AcDbOsnapPointRef
 72
    10
331
23A2
 73
     2
 91
        0
 40
0.0836177727542481
 10
0.0
 20
0.0
 30
0.0
 75
     0
  0
DIMASSOC
  5
23F9
102
{ACAD_REACTORS
330
23F8
102
}
330
23F8
100
AcDbDimAssoc
330
23F7
 90
        3
 70
     0
 71
     0
  1
AcDbOsnapPointRef
 72
    10
331
23F3
 73
     2
 91
        0
 40
0.4505432713481897
 10
0.0
 20
0.0
 30
0.0
 75
     0
  1
AcDbOsnapPointRef
 72
    10
331
23F4
 73
     2
 91
        0
 40
0.5334603851922912
 10
0.0
 20
0.0
 30
0.0
 75
     0
  0
LAYOUT
  5
20B
102
{ACAD_REACTORS
330
206
102
}
330
206
100
AcDbPlotSettings
  1

  2
none_device
  4

  6

 40
0.0
 41
0.0
 42
0.0
 43
0.0
 44
0.0
 45
0.0
 46
0.0
 47
0.0
 48
0.0
 49
0.0
140
0.0
141
0.0
142
1.0
143
1.0
 70
   688
 72
     0
 73
     0
 74
     5
  7

 75
    16
147
1.0
 76
     0
 77
     2
 78
   300
148
0.0
149
0.0
100
AcDbLayout
  1
Layout1
 70
     1
 71
     1
 10
0.0
 20
0.0
 11
12.0
 21
9.0
 12
0.0
 22
0.0
 32
0.0
 14
1.000000000000000E+20
 24
1.000000000000000E+20
 34
1.000000000000000E+20
 15
-1.000000000000000E+20
 25
-1.000000000000000E+20
 35
-1.000000000000000E+20
146
0.0
 13
0.0
 23
0.0
 33
0.0
 16
1.0
 26
0.0
 36
0.0
 17
0.0
 27
1.0
 37
0.0
 76
     0
330
208
  0
LAYOUT
  5
20F
102
{ACAD_REACTORS
330
206
102
}
330
206
100
AcDbPlotSettings
  1

  2
none_device
  4

  6

 40
0.0
 41
0.0
 42
0.0
 43
0.0
 44
0.0
 45
0.0
 46
0.0
 47
0.0
 48
0.0
 49
0.0
140
0.0
141
0.0
142
1.0
143
1.0
 70
   688
 72
     0
 73
     0
 74
     5
  7

 75
    16
147
1.0
 76
     0
 77
     2
 78
   300
148
0.0
149
0.0
100
AcDbLayout
  1
Layout2
 70
     1
 71
     2
 10
0.0
 20
0.0
 11
0.0
 21
0.0
 12
0.0
 22
0.0
 32
0.0
 14
0.0
 24
0.0
 34
0.0
 15
0.0
 25
0.0
 35
0.0
146
0.0
 13
0.0
 23
0.0
 33
0.0
 16
1.0
 26
0.0
 36
0.0
 17
0.0
 27
1.0
 37
0.0
 76
     0
330
20C
  0
LAYOUT
  5
205
102
{ACAD_REACTORS
330
206
102
}
330
206
100
AcDbPlotSettings
  1

  2
Adobe PDF Converter.pc3
  4
A4
  6

 40
3.174999952316281
 41
3.174999952316281
 42
3.17498779296875
 43
3.175003051757812
 44
297.0318298339844
 45
209.9733276367186
 46
0.0000000000000076
 47
1.630241740247063
 48
246.9897427644609
 49
39.36804549891383
140
544.952097801264
141
244.7492402188181
142
1.0
143
1.025046328645055
 70
  3764
 72
     1
 73
     0
 74
     4
  7
monochrome.ctb
 75
     0
147
0.9755656618192436
 76
     1
 77
     2
 78
   300
148
-246.9897427644609
149
-39.36804549891383
100
AcDbLayout
  1
Model
 70
     1
 71
     0
 10
0.0
 20
0.0
 11
12.0
 21
9.0
 12
0.0
 22
0.0
 32
0.0
 14
1.000000000000000E+20
 24
1.000000000000000E+20
 34
1.000000000000000E+20
 15
-1.000000000000000E+20
 25
-1.000000000000000E+20
 35
-1.000000000000000E+20
146
0.0
 13
0.0
 23
0.0
 33
0.0
 16
1.0
 26
0.0
 36
0.0
 17
0.0
 27
1.0
 37
0.0
 76
     0
330
2
331
21D
1001
ACAD_PSEXT
1000
Adobe PDF Converter.pc3
1000
Adobe PDF Converter
1000
桌面\*.pdf
1000

1070
     0
  0
MATERIAL
  5
230
102
{ACAD_XDICTIONARY
360
231
102
}
102
{ACAD_REACTORS
330
D
102
}
330
D
100
AcDbMaterial
  1
ByBlock
 72
     0
 43
0.0208333333333333
 43
0.0
 43
0.0
 43
0.0
 43
0.0
 43
0.0208333333333333
 43
0.0
 43
0.0
 43
0.0
 43
0.0
 43
1.0
 43
0.0
 43
0.0
 43
0.0
 43
0.0
 43
1.0
 77
     0
 47
0.0208333333333333
 47
0.0
 47
0.0
 47
0.0
 47
0.0
 47
0.0208333333333333
 47
0.0
 47
0.0
 47
0.0
 47
0.0
 47
1.0
 47
0.0
 47
0.0
 47
0.0
 47
0.0
 47
1.0
171
     0
 49
0.0208333333333333
 49
0.0
 49
0.0
 49
0.0
 49
0.0
 49
0.0208333333333333
 49
0.0
 49
0.0
 49
0.0
 49
0.0
 49
1.0
 49
0.0
 49
0.0
 49
0.0
 49
0.0
 49
1.0
175
     0
142
0.0208333333333333
142
0.0
142
0.0
142
0.0
142
0.0
142
0.0208333333333333
142
0.0
142
0.0
142
0.0
142
0.0
142
1.0
142
0.0
142
0.0
142
0.0
142
0.0
142
1.0
179
     0
144
0.0208333333333333
144
0.0
144
0.0
144
0.0
144
0.0
144
0.0208333333333333
144
0.0
144
0.0
144
0.0
144
0.0
144
1.0
144
0.0
144
0.0
144
0.0
144
0.0
144
1.0
147
0.0208333333333333
147
0.0
147
0.0
147
0.0
147
0.0
147
0.0208333333333333
147
0.0
147
0.0
147
0.0
147
0.0
147
1.0
147
0.0
147
0.0
147
0.0
147
0.0
147
1.0
  0
MATERIAL
  5
228
102
{ACAD_XDICTIONARY
360
229
102
}
102
{ACAD_REACTORS
330
D
102
}
330
D
100
AcDbMaterial
  1
ByLayer
 72
     0
 43
0.0208333333333333
 43
0.0
 43
0.0
 43
0.0
 43
0.0
 43
0.0208333333333333
 43
0.0
 43
0.0
 43
0.0
 43
0.0
 43
1.0
 43
0.0
 43
0.0
 43
0.0
 43
0.0
 43
1.0
 77
     0
 47
0.0208333333333333
 47
0.0
 47
0.0
 47
0.0
 47
0.0
 47
0.0208333333333333
 47
0.0
 47
0.0
 47
0.0
 47
0.0
 47
1.0
 47
0.0
 47
0.0
 47
0.0
 47
0.0
 47
1.0
171
     0
 49
0.0208333333333333
 49
0.0
 49
0.0
 49
0.0
 49
0.0
 49
0.0208333333333333
 49
0.0
 49
0.0
 49
0.0
 49
0.0
 49
1.0
 49
0.0
 49
0.0
 49
0.0
 49
0.0
 49
1.0
175
     0
142
0.0208333333333333
142
0.0
142
0.0
142
0.0
142
0.0
142
0.0208333333333333
142
0.0
142
0.0
142
0.0
142
0.0
142
1.0
142
0.0
142
0.0
142
0.0
142
0.0
142
1.0
179
     0
144
0.0208333333333333
144
0.0
144
0.0
144
0.0
144
0.0
144
0.0208333333333333
144
0.0
144
0.0
144
0.0
144
0.0
144
1.0
144
0.0
144
0.0
144
0.0
144
0.0
144
1.0
147
0.0208333333333333
147
0.0
147
0.0
147
0.0
147
0.0
147
0.0208333333333333
147
0.0
147
0.0
147
0.0
147
0.0
147
1.0
147
0.0
147
0.0
147
0.0
147
0.0
147
1.0
  0
MATERIAL
  5
C
102
{ACAD_XDICTIONARY
360
E
102
}
102
{ACAD_REACTORS
330
D
102
}
330
D
100
AcDbMaterial
  1
Global
 72
     0
 43
0.0208333333333333
 43
0.0
 43
0.0
 43
0.0
 43
0.0
 43
0.0208333333333333
 43
0.0
 43
0.0
 43
0.0
 43
0.0
 43
1.0
 43
0.0
 43
0.0
 43
0.0
 43
0.0
 43
1.0
 77
     0
 47
0.0208333333333333
 47
0.0
 47
0.0
 47
0.0
 47
0.0
 47
0.0208333333333333
 47
0.0
 47
0.0
 47
0.0
 47
0.0
 47
1.0
 47
0.0
 47
0.0
 47
0.0
 47
0.0
 47
1.0
171
     0
 49
0.0208333333333333
 49
0.0
 49
0.0
 49
0.0
 49
0.0
 49
0.0208333333333333
 49
0.0
 49
0.0
 49
0.0
 49
0.0
 49
1.0
 49
0.0
 49
0.0
 49
0.0
 49
0.0
 49
1.0
175
     0
142
0.0208333333333333
142
0.0
142
0.0
142
0.0
142
0.0
142
0.0208333333333333
142
0.0
142
0.0
142
0.0
142
0.0
142
1.0
142
0.0
142
0.0
142
0.0
142
0.0
142
1.0
179
     0
144
0.0208333333333333
144
0.0
144
0.0
144
0.0
144
0.0
144
0.0208333333333333
144
0.0
144
0.0
144
0.0
144
0.0
144
1.0
144
0.0
144
0.0
144
0.0
144
0.0
144
1.0
147
0.0208333333333333
147
0.0
147
0.0
147
0.0
147
0.0
147
0.0208333333333333
147
0.0
147
0.0
147
0.0
147
0.0
147
1.0
147
0.0
147
0.0
147
0.0
147
0.0
147
1.0
  0
MLEADERSTYLE
  5
29C
102
{ACAD_REACTORS
330
29B
102
}
330
29B
100
AcDbMLeaderStyle
170
     2
171
     1
172
     0
 90
        2
 40
0.0
 41
0.0
173
     1
 91
-1056964608
340
218
 92
       -2
290
     1
 42
0.09
291
     1
 43
0.36
  3
Standard
 44
0.18
300

342
46
174
     1
178
     6
175
     1
176
     0
 93
-1056964608
 45
0.18
292
     0
297
     0
 46
0.18
 94
-1056964608
 47
1.0
 49
1.0
140
1.0
293
     1
141
0.0
294
     1
177
     0
142
1.0
295
     0
296
     0
143
0.125
1001
ACAD_MLEADERVER
1070
     2
  0
MLINESTYLE
  5
23B
102
{ACAD_REACTORS
330
226
102
}
330
226
100
AcDbMlineStyle
  2
STANDARD
 70
     0
  3

 62
   256
 51
90.0
 52
90.0
 71
     2
 49
0.5
 62
   256
  6
BYLAYER
 49
-0.5
 62
   256
  6
BYLAYER
  0
ACDBPLACEHOLDER
  5
9
102
{ACAD_REACTORS
330
A
102
}
330
A
  0
SCALE
  5
240
102
{ACAD_REACTORS
330
239
102
}
330
239
100
AcDbScale
 70
     0
300
1:1
140
1.0
141
1.0
290
     1
  0
SCALE
  5
241
102
{ACAD_REACTORS
330
239
102
}
330
239
100
AcDbScale
 70
     0
300
1:2
140
1.0
141
2.0
290
     0
  0
SCALE
  5
242
102
{ACAD_REACTORS
330
239
102
}
330
239
100
AcDbScale
 70
     0
300
1:4
140
1.0
141
4.0
290
     0
  0
SCALE
  5
243
102
{ACAD_REACTORS
330
239
102
}
330
239
100
AcDbScale
 70
     0
300
1:5
140
1.0
141
5.0
290
     0
  0
SCALE
  5
244
102
{ACAD_REACTORS
330
239
102
}
330
239
100
AcDbScale
 70
     0
300
1:8
140
1.0
141
8.0
290
     0
  0
SCALE
  5
245
102
{ACAD_REACTORS
330
239
102
}
330
239
100
AcDbScale
 70
     0
300
1:10
140
1.0
141
10.0
290
     0
  0
SCALE
  5
246
102
{ACAD_REACTORS
330
239
102
}
330
239
100
AcDbScale
 70
     0
300
1:16
140
1.0
141
16.0
290
     0
  0
SCALE
  5
247
102
{ACAD_REACTORS
330
239
102
}
330
239
100
AcDbScale
 70
     0
300
1:20
140
1.0
141
20.0
290
     0
  0
SCALE
  5
248
102
{ACAD_REACTORS
330
239
102
}
330
239
100
AcDbScale
 70
     0
300
1:30
140
1.0
141
30.0
290
     0
  0
SCALE
  5
249
102
{ACAD_REACTORS
330
239
102
}
330
239
100
AcDbScale
 70
     0
300
1:40
140
1.0
141
40.0
290
     0
  0
SCALE
  5
24A
102
{ACAD_REACTORS
330
239
102
}
330
239
100
AcDbScale
 70
     0
300
1:50
140
1.0
141
50.0
290
     0
  0
SCALE
  5
24B
102
{ACAD_REACTORS
330
239
102
}
330
239
100
AcDbScale
 70
     0
300
1:100
140
1.0
141
100.0
290
     0
  0
SCALE
  5
24C
102
{ACAD_REACTORS
330
239
102
}
330
239
100
AcDbScale
 70
     0
300
2:1
140
2.0
141
1.0
290
     0
  0
SCALE
  5
24D
102
{ACAD_REACTORS
330
239
102
}
330
239
100
AcDbScale
 70
     0
300
4:1
140
4.0
141
1.0
290
     0
  0
SCALE
  5
24E
102
{ACAD_REACTORS
330
239
102
}
330
239
100
AcDbScale
 70
     0
300
8:1
140
8.0
141
1.0
290
     0
  0
SCALE
  5
24F
102
{ACAD_REACTORS
330
239
102
}
330
239
100
AcDbScale
 70
     0
300
10:1
140
10.0
141
1.0
290
     0
  0
SCALE
  5
250
102
{ACAD_REACTORS
330
239
102
}
330
239
100
AcDbScale
 70
     0
300
100:1
140
100.0
141
1.0
290
     0
  0
SCALE
  5
251
102
{ACAD_REACTORS
330
239
102
}
330
239
100
AcDbScale
 70
     0
300
1/128" = 1'-0"
140
0.0078125
141
12.0
290
     0
  0
SCALE
  5
252
102
{ACAD_REACTORS
330
239
102
}
330
239
100
AcDbScale
 70
     0
300
1/64" = 1'-0"
140
0.015625
141
12.0
290
     0
  0
SCALE
  5
253
102
{ACAD_REACTORS
330
239
102
}
330
239
100
AcDbScale
 70
     0
300
1/32" = 1'-0"
140
0.03125
141
12.0
290
     0
  0
SCALE
  5
254
102
{ACAD_REACTORS
330
239
102
}
330
239
100
AcDbScale
 70
     0
300
1/16" = 1'-0"
140
0.0625
141
12.0
290
     0
  0
SCALE
  5
255
102
{ACAD_REACTORS
330
239
102
}
330
239
100
AcDbScale
 70
     0
300
3/32" = 1'-0"
140
0.09375
141
12.0
290
     0
  0
SCALE
  5
256
102
{ACAD_REACTORS
330
239
102
}
330
239
100
AcDbScale
 70
     0
300
1/8" = 1'-0"
140
0.125
141
12.0
290
     0
  0
SCALE
  5
257
102
{ACAD_REACTORS
330
239
102
}
330
239
100
AcDbScale
 70
     0
300
3/16" = 1'-0"
140
0.1875
141
12.0
290
     0
  0
SCALE
  5
258
102
{ACAD_REACTORS
330
239
102
}
330
239
100
AcDbScale
 70
     0
300
1/4" = 1'-0"
140
0.25
141
12.0
290
     0
  0
SCALE
  5
259
102
{ACAD_REACTORS
330
239
102
}
330
239
100
AcDbScale
 70
     0
300
3/8" = 1'-0"
140
0.375
141
12.0
290
     0
  0
SCALE
  5
25A
102
{ACAD_REACTORS
330
239
102
}
330
239
100
AcDbScale
 70
     0
300
1/2" = 1'-0"
140
0.5
141
12.0
290
     0
  0
SCALE
  5
25B
102
{ACAD_REACTORS
330
239
102
}
330
239
100
AcDbScale
 70
     0
300
3/4" = 1'-0"
140
0.75
141
12.0
290
     0
  0
SCALE
  5
25C
102
{ACAD_REACTORS
330
239
102
}
330
239
100
AcDbScale
 70
     0
300
1" = 1'-0"
140
1.0
141
12.0
290
     0
  0
SCALE
  5
25D
102
{ACAD_REACTORS
330
239
102
}
330
239
100
AcDbScale
 70
     0
300
1-1/2" = 1'-0"
140
1.5
141
12.0
290
     0
  0
SCALE
  5
25E
102
{ACAD_REACTORS
330
239
102
}
330
239
100
AcDbScale
 70
     0
300
3" = 1'-0"
140
3.0
141
12.0
290
     0
  0
SCALE
  5
25F
102
{ACAD_REACTORS
330
239
102
}
330
239
100
AcDbScale
 70
     0
300
6" = 1'-0"
140
6.0
141
12.0
290
     0
  0
SCALE
  5
260
102
{ACAD_REACTORS
330
239
102
}
330
239
100
AcDbScale
 70
     0
300
1'-0" = 1'-0"
140
12.0
141
12.0
290
     0
  0
TABLESTYLE
  5
23C
102
{ACAD_XDICTIONARY
360
23D
102
}
102
{ACAD_REACTORS
330
23A
102
}
330
23A
100
AcDbTableStyle
  3
Standard
 70
     0
 71
     0
 40
0.06
 41
0.06
280
     0
281
     0
  7
Standard
140
0.18
170
     2
 62
     0
 63
     7
283
     0
 90
      512
 91
        0
  1

274
    -2
284
     1
 64
     0
275
    -2
285
     1
 65
     0
276
    -2
286
     1
 66
     0
277
    -2
287
     1
 67
     0
278
    -2
288
     1
 68
     0
279
    -2
289
     1
 69
     0
  7
Standard
140
0.25
170
     5
 62
     0
 63
     7
283
     0
 90
      512
 91
        0
  1

274
    -2
284
     1
 64
     0
275
    -2
285
     1
 65
     0
276
    -2
286
     1
 66
     0
277
    -2
287
     1
 67
     0
278
    -2
288
     1
 68
     0
279
    -2
289
     1
 69
     0
  7
Standard
140
0.18
170
     5
 62
     0
 63
     7
283
     0
 90
      512
 91
        0
  1

274
    -2
284
     1
 64
     0
275
    -2
285
     1
 65
     0
276
    -2
286
     1
 66
     0
277
    -2
287
     1
 67
     0
278
    -2
288
     1
 68
     0
279
    -2
289
     1
 69
     0
  0
VISUALSTYLE
  5
21E
102
{ACAD_REACTORS
330
21F
102
}
330
21F
100
AcDbVisualStyle
  2
2dWireframe
 70
     4
 71
     0
 72
     2
 73
     0
 90
        0
 40
-0.6
 41
-30.0
 62
     5
 63
     7
 74
     1
 91
        4
 64
     7
 65
   257
 75
     1
175
     1
 42
1.0
 92
        0
 66
   257
 43
1.0
 76
     1
 77
     6
 78
     2
 67
     7
 79
     5
170
     0
171
     0
290
     0
174
     0
 93
        1
 44
0.0
173
     0
291
     0
 45
0.0
1001
ACAD
1000
AcDbSavedByObjectVersion
1070
     0
1000
AcDbSavedByObjectVersion
1070
     0
1000
AcDbSavedByObjectVersion
1070
     0
1000
AcDbSavedByObjectVersion
1070
     0
1000
AcDbSavedByObjectVersion
1070
     0
1000
AcDbSavedByObjectVersion
1070
     0
1000
AcDbSavedByObjectVersion
1070
     0
1000
AcDbSavedByObjectVersion
1070
     0
1000
AcDbSavedByObjectVersion
1070
     0
1000
AcDbSavedByObjectVersion
1070
     0
1000
AcDbSavedByObjectVersion
1070
     0
1000
AcDbSavedByObjectVersion
1070
     0
1000
AcDbSavedByObjectVersion
1070
     0
1000
AcDbSavedByObjectVersion
1070
     0
1000
AcDbSavedByObjectVersion
1070
     0
1000
AcDbSavedByObjectVersion
1070
     0
1000
AcDbSavedByObjectVersion
1070
     0
1000
AcDbSavedByObjectVersion
1070
     0
1000
AcDbSavedByObjectVersion
1070
     0
1000
AcDbSavedByObjectVersion
1070
     0
1000
AcDbSavedByObjectVersion
1070
     0
1000
AcDbSavedByObjectVersion
1070
     0
1000
AcDbSavedByObjectVersion
1070
     0
1000
AcDbSavedByObjectVersion
1070
     0
1000
AcDbSavedByObjectVersion
1070
     0
1000
AcDbSavedByObjectVersion
1070
     0
1000
AcDbSavedByObjectVersion
1070
     0
1000
AcDbSavedByObjectVersion
1070
     0
1000
AcDbSavedByObjectVersion
1070
     0
1000
AcDbSavedByObjectVersion
1070
     0
1000
AcDbSavedByObjectVersion
1070
     0
1000
AcDbSavedByObjectVersion
1070
     0
1000
AcDbSavedByObjectVersion
1070
     0
1000
AcDbSavedByObjectVersion
1070
     0
1000
AcDbSavedByObjectVersion
1070
     0
  0
VISUALSTYLE
  5
293
102
{ACAD_REACTORS
330
21F
102
}
330
21F
100
AcDbVisualStyle
  2
3D Hidden
 70
     6
 71
     1
 72
     2
 73
     2
 90
        0
 40
-0.6
 41
-30.0
 62
     5
 63
     7
 74
     2
 91
        2
 64
     7
 65
   257
 75
     2
175
     1
 42
40.0
 92
        0
 66
   257
 43
1.0
 76
     1
 77
     6
 78
     2
 67
     7
 79
     3
170
     0
171
     0
290
     0
174
     0
 93
        1
 44
0.0
173
     0
291
     0
 45
0.0
1001
ACAD
1000
AcDbSavedByObjectVersion
1070
     0
1000
AcDbSavedByObjectVersion
1070
     0
1000
AcDbSavedByObjectVersion
1070
     0
1000
AcDbSavedByObjectVersion
1070
     0
  0
VISUALSTYLE
  5
23F
102
{ACAD_REACTORS
330
21F
102
}
330
21F
100
AcDbVisualStyle
  2
3dWireframe
 70
     5
 71
     0
 72
     2
 73
     0
 90
        0
 40
-0.6
 41
-30.0
 62
     5
 63
     7
 74
     1
 91
        4
 64
     7
 65
   257
 75
     1
175
     1
 42
1.0
 92
        0
 66
   257
 43
1.0
 76
     1
 77
     6
 78
     2
 67
     7
 79
     5
170
     0
171
     0
290
     0
174
     0
 93
        1
 44
0.0
173
     0
291
     0
 45
0.0
1001
ACAD
1000
AcDbSavedByObjectVersion
1070
     0
1000
AcDbSavedByObjectVersion
1070
     0
1000
AcDbSavedByObjectVersion
1070
     0
1000
AcDbSavedByObjectVersion
1070
     0
1000
AcDbSavedByObjectVersion
1070
     0
1000
AcDbSavedByObjectVersion
1070
     0
1000
AcDbSavedByObjectVersion
1070
     0
1000
AcDbSavedByObjectVersion
1070
     0
1000
AcDbSavedByObjectVersion
1070
     0
1000
AcDbSavedByObjectVersion
1070
     0
1000
AcDbSavedByObjectVersion
1070
     0
1000
AcDbSavedByObjectVersion
1070
     0
1000
AcDbSavedByObjectVersion
1070
     0
1000
AcDbSavedByObjectVersion
1070
     0
1000
AcDbSavedByObjectVersion
1070
     0
1000
AcDbSavedByObjectVersion
1070
     0
1000
AcDbSavedByObjectVersion
1070
     0
1000
AcDbSavedByObjectVersion
1070
     0
1000
AcDbSavedByObjectVersion
1070
     0
1000
AcDbSavedByObjectVersion
1070
     0
1000
AcDbSavedByObjectVersion
1070
     0
1000
AcDbSavedByObjectVersion
1070
     0
1000
AcDbSavedByObjectVersion
1070
     0
1000
AcDbSavedByObjectVersion
1070
     0
1000
AcDbSavedByObjectVersion
1070
     0
1000
AcDbSavedByObjectVersion
1070
     0
1000
AcDbSavedByObjectVersion
1070
     0
1000
AcDbSavedByObjectVersion
1070
     0
1000
AcDbSavedByObjectVersion
1070
     0
1000
AcDbSavedByObjectVersion
1070
     0
1000
AcDbSavedByObjectVersion
1070
     0
1000
AcDbSavedByObjectVersion
1070
     0
1000
AcDbSavedByObjectVersion
1070
     0
1000
AcDbSavedByObjectVersion
1070
     0
1000
AcDbSavedByObjectVersion
1070
     0
  0
VISUALSTYLE
  5
292
102
{ACAD_REACTORS
330
21F
102
}
330
21F
100
AcDbVisualStyle
  2
Basic
 70
     7
 71
     1
 72
     0
 73
     1
 90
        0
 40
-0.6
 41
-30.0
 62
     5
 63
     7
 74
     0
 91
        4
 64
     7
 65
   257
 75
     1
175
     1
 42
1.0
 92
        8
 66
     7
 43
1.0
 76
     1
 77
     6
 78
     2
 67
     7
 79
     5
170
     0
171
     0
290
     0
174
     0
 93
        1
 44
0.0
173
     0
291
     1
 45
0.0
1001
ACAD
1000
AcDbSavedByObjectVersion
1070
     0
1000
AcDbSavedByObjectVersion
1070
     0
1000
AcDbSavedByObjectVersion
1070
     0
1000
AcDbSavedByObjectVersion
1070
     0
  0
VISUALSTYLE
  5
296
102
{ACAD_REACTORS
330
21F
102
}
330
21F
100
AcDbVisualStyle
  2
Brighten
 70
    12
 71
     2
 72
     2
 73
     0
 90
        0
 40
-0.6
 41
-30.0
 62
     5
 63
     7
 74
     1
 91
        4
 64
     7
 65
   257
 75
     1
175
     1
 42
1.0
 92
        8
 66
     7
 43
1.0
 76
     1
 77
     6
 78
     2
 67
     7
 79
     5
170
     0
171
     0
290
     0
174
     0
 93
        1
 44
50.0
173
     0
291
     1
 45
0.0
1001
ACAD
1000
AcDbSavedByObjectVersion
1070
     0
1000
AcDbSavedByObjectVersion
1070
     0
1000
AcDbSavedByObjectVersion
1070
     0
1000
AcDbSavedByObjectVersion
1070
     0
  0
VISUALSTYLE
  5
29A
102
{ACAD_REACTORS
330
21F
102
}
330
21F
100
AcDbVisualStyle
  2
ColorChange
 70
    16
 71
     2
 72
     2
 73
     3
 90
        0
 40
-0.6
 41
-30.0
 62
     5
 63
     8
 74
     1
 91
        4
 64
     7
 65
   257
 75
     1
175
     1
 42
1.0
 92
        8
 66
     8
 43
1.0
 76
     1
 77
     6
 78
     2
 67
     7
 79
     5
170
     0
171
     0
290
     0
174
     0
 93
        1
 44
0.0
173
     0
291
     1
 45
0.0
1001
ACAD
1000
AcDbSavedByObjectVersion
1070
     0
1000
AcDbSavedByObjectVersion
1070
     0
1000
AcDbSavedByObjectVersion
1070
     0
1000
AcDbSavedByObjectVersion
1070
     0
  0
VISUALSTYLE
  5
294
102
{ACAD_REACTORS
330
21F
102
}
330
21F
100
AcDbVisualStyle
  2
Conceptual
 70
     9
 71
     3
 72
     2
 73
     0
 90
        0
 40
-0.6
 41
-30.0
 62
     5
 63
     7
 74
     2
 91
        2
 64
     7
 65
   257
 75
     1
175
     1
 42
40.0
 92
        8
 66
     7
 43
1.0
 76
     1
 77
     6
 78
     2
 67
     7
 79
     3
170
     0
171
     0
290
     0
174
     0
 93
        1
 44
0.0
173
     0
291
     0
 45
0.0
1001
ACAD
1000
AcDbSavedByObjectVersion
1070
     0
1000
AcDbSavedByObjectVersion
1070
     0
1000
AcDbSavedByObjectVersion
1070
     0
1000
AcDbSavedByObjectVersion
1070
     0
  0
VISUALSTYLE
  5
295
102
{ACAD_REACTORS
330
21F
102
}
330
21F
100
AcDbVisualStyle
  2
Dim
 70
    11
 71
     2
 72
     2
 73
     0
 90
        0
 40
-0.6
 41
-30.0
 62
     5
 63
     7
 74
     1
 91
        4
 64
     7
 65
   257
 75
     1
175
     1
 42
1.0
 92
        8
 66
     7
 43
1.0
 76
     1
 77
     6
 78
     2
 67
     7
 79
     5
170
     0
171
     0
290
     0
174
     0
 93
        1
 44
-50.0
173
     0
291
     1
 45
0.0
1001
ACAD
1000
AcDbSavedByObjectVersion
1070
     0
1000
AcDbSavedByObjectVersion
1070
     0
1000
AcDbSavedByObjectVersion
1070
     0
1000
AcDbSavedByObjectVersion
1070
     0
  0
VISUALSTYLE
  5
299
102
{ACAD_REACTORS
330
21F
102
}
330
21F
100
AcDbVisualStyle
  2
Facepattern
 70
    15
 71
     2
 72
     2
 73
     0
 90
        0
 40
-0.6
 41
-30.0
 62
     5
 63
     7
 74
     1
 91
        4
 64
     7
 65
   257
 75
     1
175
     1
 42
1.0
 92
        8
 66
     7
 43
1.0
 76
     1
 77
     6
 78
     2
 67
     7
 79
     5
170
     0
171
     0
290
     0
174
     0
 93
        1
 44
0.0
173
     0
291
     1
 45
0.0
1001
ACAD
1000
AcDbSavedByObjectVersion
1070
     0
1000
AcDbSavedByObjectVersion
1070
     0
1000
AcDbSavedByObjectVersion
1070
     0
1000
AcDbSavedByObjectVersion
1070
     0
  0
VISUALSTYLE
  5
28E
102
{ACAD_REACTORS
330
21F
102
}
330
21F
100
AcDbVisualStyle
  2
Flat
 70
     0
 71
     2
 72
     1
 73
     1
 90
        2
 40
-0.6
 41
30.0
 62
     5
 63
     7
 74
     0
 91
        4
 64
     7
 65
   257
 75
     1
175
     1
 42
1.0
 92
        8
 66
     7
 43
1.0
 76
     1
 77
     6
 78
     2
 67
     7
 79
     5
170
     0
171
     0
290
     0
174
     0
 93
       13
 44
0.0
173
     0
291
     1
 45
0.0
1001
ACAD
1000
AcDbSavedByObjectVersion
1070
     0
1000
AcDbSavedByObjectVersion
1070
     0
1000
AcDbSavedByObjectVersion
1070
     0
1000
AcDbSavedByObjectVersion
1070
     0
  0
VISUALSTYLE
  5
28F
102
{ACAD_REACTORS
330
21F
102
}
330
21F
100
AcDbVisualStyle
  2
FlatWithEdges
 70
     1
 71
     2
 72
     1
 73
     1
 90
        2
 40
-0.6
 41
30.0
 62
     5
 63
     7
 74
     1
 91
        4
 64
     7
 65
   257
 75
     1
175
     1
 42
1.0
 92
        0
 66
   257
 43
1.0
 76
     1
 77
     6
 78
     2
 67
     7
 79
     5
170
     0
171
     0
290
     0
174
     0
 93
       13
 44
0.0
173
     0
291
     1
 45
0.0
1001
ACAD
1000
AcDbSavedByObjectVersion
1070
     0
1000
AcDbSavedByObjectVersion
1070
     0
1000
AcDbSavedByObjectVersion
1070
     0
1000
AcDbSavedByObjectVersion
1070
     0
  0
VISUALSTYLE
  5
290
102
{ACAD_REACTORS
330
21F
102
}
330
21F
100
AcDbVisualStyle
  2
Gouraud
 70
     2
 71
     2
 72
     2
 73
     1
 90
        2
 40
-0.6
 41
30.0
 62
     5
 63
     7
 74
     0
 91
        4
 64
     7
 65
   257
 75
     1
175
     1
 42
1.0
 92
        0
 66
     7
 43
1.0
 76
     1
 77
     6
 78
     2
 67
     7
 79
     5
170
     0
171
     0
290
     0
174
     0
 93
       13
 44
0.0
173
     0
291
     1
 45
0.0
1001
ACAD
1000
AcDbSavedByObjectVersion
1070
     0
1000
AcDbSavedByObjectVersion
1070
     0
1000
AcDbSavedByObjectVersion
1070
     0
1000
AcDbSavedByObjectVersion
1070
     0
  0
VISUALSTYLE
  5
291
102
{ACAD_REACTORS
330
21F
102
}
330
21F
100
AcDbVisualStyle
  2
GouraudWithEdges
 70
     3
 71
     2
 72
     2
 73
     1
 90
        2
 40
-0.6
 41
30.0
 62
     5
 63
     7
 74
     1
 91
        4
 64
     7
 65
   257
 75
     1
175
     1
 42
1.0
 92
        0
 66
   257
 43
1.0
 76
     1
 77
     6
 78
     2
 67
     7
 79
     5
170
     0
171
     0
290
     0
174
     0
 93
       13
 44
0.0
173
     0
291
     1
 45
0.0
1001
ACAD
1000
AcDbSavedByObjectVersion
1070
     0
1000
AcDbSavedByObjectVersion
1070
     0
1000
AcDbSavedByObjectVersion
1070
     0
1000
AcDbSavedByObjectVersion
1070
     0
  0
VISUALSTYLE
  5
298
102
{ACAD_REACTORS
330
21F
102
}
330
21F
100
AcDbVisualStyle
  2
Linepattern
 70
    14
 71
     2
 72
     2
 73
     0
 90
        0
 40
-0.6
 41
-30.0
 62
     5
 63
     7
 74
     1
 91
        4
 64
     7
 65
   257
 75
     7
175
     7
 42
1.0
 92
        8
 66
     7
 43
1.0
 76
     1
 77
     6
 78
     2
 67
     7
 79
     5
170
     0
171
     0
290
     0
174
     0
 93
        1
 44
0.0
173
     0
291
     1
 45
0.0
1001
ACAD
1000
AcDbSavedByObjectVersion
1070
     0
1000
AcDbSavedByObjectVersion
1070
     0
1000
AcDbSavedByObjectVersion
1070
     0
1000
AcDbSavedByObjectVersion
1070
     0
  0
VISUALSTYLE
  5
23E
102
{ACAD_REACTORS
330
21F
102
}
330
21F
100
AcDbVisualStyle
  2
Realistic
 70
     8
 71
     2
 72
     2
 73
     0
 90
        0
 40
-0.6
 41
-30.0
 62
     5
 63
     7
 74
     1
 91
        0
 64
     7
 65
   257
 75
     1
175
     1
 42
1.0
 92
        8
 66
     8
 43
1.0
 76
     1
 77
     6
 78
     2
 67
     7
 79
     5
170
     0
171
     0
290
     0
174
     0
 93
       13
 44
0.0
173
     0
291
     0
 45
0.0
1001
ACAD
1000
AcDbSavedByObjectVersion
1070
     0
1000
AcDbSavedByObjectVersion
1070
     0
1000
AcDbSavedByObjectVersion
1070
     0
1000
AcDbSavedByObjectVersion
1070
     0
1000
AcDbSavedByObjectVersion
1070
     0
1000
AcDbSavedByObjectVersion
1070
     0
1000
AcDbSavedByObjectVersion
1070
     0
1000
AcDbSavedByObjectVersion
1070
     0
1000
AcDbSavedByObjectVersion
1070
     0
1000
AcDbSavedByObjectVersion
1070
     0
1000
AcDbSavedByObjectVersion
1070
     0
1000
AcDbSavedByObjectVersion
1070
     0
1000
AcDbSavedByObjectVersion
1070
     0
1000
AcDbSavedByObjectVersion
1070
     0
1000
AcDbSavedByObjectVersion
1070
     0
1000
AcDbSavedByObjectVersion
1070
     0
1000
AcDbSavedByObjectVersion
1070
     0
1000
AcDbSavedByObjectVersion
1070
     0
1000
AcDbSavedByObjectVersion
1070
     0
1000
AcDbSavedByObjectVersion
1070
     0
1000
AcDbSavedByObjectVersion
1070
     0
1000
AcDbSavedByObjectVersion
1070
     0
1000
AcDbSavedByObjectVersion
1070
     0
1000
AcDbSavedByObjectVersion
1070
     0
1000
AcDbSavedByObjectVersion
1070
     0
1000
AcDbSavedByObjectVersion
1070
     0
1000
AcDbSavedByObjectVersion
1070
     0
1000
AcDbSavedByObjectVersion
1070
     0
1000
AcDbSavedByObjectVersion
1070
     0
1000
AcDbSavedByObjectVersion
1070
     0
1000
AcDbSavedByObjectVersion
1070
     0
1000
AcDbSavedByObjectVersion
1070
     0
1000
AcDbSavedByObjectVersion
1070
     0
1000
AcDbSavedByObjectVersion
1070
     0
1000
AcDbSavedByObjectVersion
1070
     0
  0
VISUALSTYLE
  5
297
102
{ACAD_REACTORS
330
21F
102
}
330
21F
100
AcDbVisualStyle
  2
Thicken
 70
    13
 71
     2
 72
     2
 73
     0
 90
        0
 40
-0.6
 41
-30.0
 62
     5
 63
     7
 74
     1
 91
        4
 64
     7
 65
   257
 75
     1
175
     1
 42
1.0
 92
       12
 66
     7
 43
1.0
 76
     1
 77
     6
 78
     2
 67
     7
 79
     5
170
     0
171
     0
290
     0
174
     0
 93
        1
 44
0.0
173
     0
291
     1
 45
0.0
1001
ACAD
1000
AcDbSavedByObjectVersion
1070
     0
1000
AcDbSavedByObjectVersion
1070
     0
1000
AcDbSavedByObjectVersion
1070
     0
1000
AcDbSavedByObjectVersion
1070
     0
  0
DICTIONARYVAR
  5
265
102
{ACAD_REACTORS
330
262
102
}
330
262
100
DictionaryVariables
280
     0
  1
1:1
  0
DICTIONARYVAR
  5
264
102
{ACAD_REACTORS
330
262
102
}
330
262
100
DictionaryVariables
280
     0
  1
STANDARD
  0
DICTIONARYVAR
  5
263
102
{ACAD_REACTORS
330
262
102
}
330
262
100
DictionaryVariables
280
     0
  1
STANDARD
  0
DICTIONARYVAR
  5
625
102
{ACAD_REACTORS
330
262
102
}
330
262
100
DictionaryVariables
280
     0
  1
1
  0
DICTIONARYVAR
  5
624
102
{ACAD_REACTORS
330
262
102
}
330
262
100
DictionaryVariables
280
     0
  1
1
  0
DICTIONARYVAR
  5
623
102
{ACAD_REACTORS
330
262
102
}
330
262
100
DictionaryVariables
280
     0
  1
0
  0
DICTIONARYVAR
  5
266
102
{ACAD_REACTORS
330
262
102
}
330
262
100
DictionaryVariables
280
     0
  1
0
  0
DICTIONARYVAR
  5
621
102
{ACAD_REACTORS
330
262
102
}
330
262
100
DictionaryVariables
280
     0
  1
1
  0
DICTIONARYVAR
  5
622
102
{ACAD_REACTORS
330
262
102
}
330
262
100
DictionaryVariables
280
     0
  1
127
  0
DICTIONARY
  5
231
330
230
100
AcDbDictionary
280
     1
281
     1
  3
ACAD_XREC_ROUNDTRIP
360
64C
  3
BUMPTILE
360
232
  3
DIFFUSETILE
360
233
  3
OPACITYTILE
360
234
  3
REFLECTIONTILE
360
235
  3
REFRACTIONTILE
360
236
  3
SPECULARTILE
360
237
  0
DICTIONARY
  5
229
330
228
100
AcDbDictionary
280
     1
281
     1
  3
ACAD_XREC_ROUNDTRIP
360
64B
  3
BUMPTILE
360
22A
  3
DIFFUSETILE
360
22B
  3
OPACITYTILE
360
22C
  3
REFLECTIONTILE
360
22D
  3
REFRACTIONTILE
360
22E
  3
SPECULARTILE
360
22F
  0
DICTIONARY
  5
E
330
C
100
AcDbDictionary
280
     1
281
     1
  3
ACAD_XREC_ROUNDTRIP
360
644
  3
BUMPTILE
360
F
  3
DIFFUSETILE
360
10
  3
OPACITYTILE
360
11
  3
REFLECTIONTILE
360
12
  3
REFRACTIONTILE
360
13
  3
SPECULARTILE
360
14
  0
DICTIONARY
  5
23D
330
23C
100
AcDbDictionary
280
     1
281
     1
  3
ACAD_ROUNDTRIP_2008_TABLESTYLE_CELLSTYLEMAP
360
2F74
  0
XRECORD
  5
64C
102
{ACAD_REACTORS
330
231
102
}
330
231
100
AcDbXrecord
280
     1
102
MATERIAL
148
0.0
149
0.0
149
0.0
 93
        0
 94
      127
282
     0
 72
     0
 77
     0
171
     0
175
     0
179
     0
273
     0
  0
XRECORD
  5
232
102
{ACAD_REACTORS
330
231
102
}
330
231
100
AcDbXrecord
280
     1
270
     1
271
     1
  0
XRECORD
  5
233
102
{ACAD_REACTORS
330
231
102
}
330
231
100
AcDbXrecord
280
     1
270
     1
271
     1
  0
XRECORD
  5
234
102
{ACAD_REACTORS
330
231
102
}
330
231
100
AcDbXrecord
280
     1
270
     1
271
     1
  0
XRECORD
  5
235
102
{ACAD_REACTORS
330
231
102
}
330
231
100
AcDbXrecord
280
     1
270
     1
271
     1
  0
XRECORD
  5
236
102
{ACAD_REACTORS
330
231
102
}
330
231
100
AcDbXrecord
280
     1
270
     1
271
     1
  0
XRECORD
  5
237
102
{ACAD_REACTORS
330
231
102
}
330
231
100
AcDbXrecord
280
     1
270
     1
271
     1
  0
XRECORD
  5
64B
102
{ACAD_REACTORS
330
229
102
}
330
229
100
AcDbXrecord
280
     1
102
MATERIAL
148
0.0
149
0.0
149
0.0
 93
        0
 94
      127
282
     0
 72
     0
 77
     0
171
     0
175
     0
179
     0
273
     0
  0
XRECORD
  5
22A
102
{ACAD_REACTORS
330
229
102
}
330
229
100
AcDbXrecord
280
     1
270
     1
271
     1
  0
XRECORD
  5
22B
102
{ACAD_REACTORS
330
229
102
}
330
229
100
AcDbXrecord
280
     1
270
     1
271
     1
  0
XRECORD
  5
22C
102
{ACAD_REACTORS
330
229
102
}
330
229
100
AcDbXrecord
280
     1
270
     1
271
     1
  0
XRECORD
  5
22D
102
{ACAD_REACTORS
330
229
102
}
330
229
100
AcDbXrecord
280
     1
270
     1
271
     1
  0
XRECORD
  5
22E
102
{ACAD_REACTORS
330
229
102
}
330
229
100
AcDbXrecord
280
     1
270
     1
271
     1
  0
XRECORD
  5
22F
102
{ACAD_REACTORS
330
229
102
}
330
229
100
AcDbXrecord
280
     1
270
     1
271
     1
  0
XRECORD
  5
644
102
{ACAD_REACTORS
330
E
102
}
330
E
100
AcDbXrecord
280
     1
102
MATERIAL
148
0.0
149
0.0
149
0.0
 93
        0
 94
      127
282
     0
 72
     0
 77
     0
171
     0
175
     0
179
     0
273
     0
  0
XRECORD
  5
F
102
{ACAD_REACTORS
330
E
102
}
330
E
100
AcDbXrecord
280
     1
270
     1
271
     1
  0
XRECORD
  5
10
102
{ACAD_REACTORS
330
E
102
}
330
E
100
AcDbXrecord
280
     1
270
     1
271
     1
  0
XRECORD
  5
11
102
{ACAD_REACTORS
330
E
102
}
330
E
100
AcDbXrecord
280
     1
270
     1
271
     1
  0
XRECORD
  5
12
102
{ACAD_REACTORS
330
E
102
}
330
E
100
AcDbXrecord
280
     1
270
     1
271
     1
  0
XRECORD
  5
13
102
{ACAD_REACTORS
330
E
102
}
330
E
100
AcDbXrecord
280
     1
270
     1
271
     1
  0
XRECORD
  5
14
102
{ACAD_REACTORS
330
E
102
}
330
E
100
AcDbXrecord
280
     1
270
     1
271
     1
  0
CELLSTYLEMAP
  5
2F74
102
{ACAD_REACTORS
330
23D
102
}
330
23D
100
AcDbCellStyleMap
 90
        3
300
CELLSTYLE
  1
TABLEFORMAT_BEGIN
 90
        5
170
     1
 91
        0
 92
    32768
 62
   257
 93
        1
300
CONTENTFORMAT
  1
CONTENTFORMAT_BEGIN
 90
        0
 91
        0
 92
      512
 93
        0
300

 40
0.0
140
1.0
 94
        5
 62
     0
340
46
144
0.25
309
CONTENTFORMAT_END
171
     1
301
MARGIN
  1
CELLMARGIN_BEGIN
 40
0.06
 40
0.06
 40
0.06
 40
0.06
 40
0.18
 40
0.18
309
CELLMARGIN_END
 94
        6
 95
        1
302
GRIDFORMAT
  1
GRIDFORMAT_BEGIN
 90
        0
 91
        1
 62
     0
 92
       -2
340
0
 93
        0
 40
0.045
309
GRIDFORMAT_END
 95
        2
302
GRIDFORMAT
  1
GRIDFORMAT_BEGIN
 90
        0
 91
        1
 62
     0
 92
       -2
340
0
 93
        0
 40
0.045
309
GRIDFORMAT_END
 95
        4
302
GRIDFORMAT
  1
GRIDFORMAT_BEGIN
 90
        0
 91
        1
 62
     0
 92
       -2
340
0
 93
        0
 40
0.045
309
GRIDFORMAT_END
 95
        8
302
GRIDFORMAT
  1
GRIDFORMAT_BEGIN
 90
        0
 91
        1
 62
     0
 92
       -2
340
0
 93
        0
 40
0.045
309
GRIDFORMAT_END
 95
       16
302
GRIDFORMAT
  1
GRIDFORMAT_BEGIN
 90
        0
 91
        1
 62
     0
 92
       -2
340
0
 93
        0
 40
0.045
309
GRIDFORMAT_END
 95
       32
302
GRIDFORMAT
  1
GRIDFORMAT_BEGIN
 90
        0
 91
        1
 62
     0
 92
       -2
340
0
 93
        0
 40
0.045
309
GRIDFORMAT_END
309
TABLEFORMAT_END
  1
CELLSTYLE_BEGIN
 90
        1
 91
        1
300
_TITLE
309
CELLSTYLE_END
300
CELLSTYLE
  1
TABLEFORMAT_BEGIN
 90
        5
170
     1
 91
        0
 92
        0
 62
   257
 93
        1
300
CONTENTFORMAT
  1
CONTENTFORMAT_BEGIN
 90
        0
 91
        0
 92
      512
 93
        0
300

 40
0.0
140
1.0
 94
        5
 62
     0
340
46
144
0.18
309
CONTENTFORMAT_END
171
     1
301
MARGIN
  1
CELLMARGIN_BEGIN
 40
0.06
 40
0.06
 40
0.06
 40
0.06
 40
0.18
 40
0.18
309
CELLMARGIN_END
 94
        6
 95
        1
302
GRIDFORMAT
  1
GRIDFORMAT_BEGIN
 90
        0
 91
        1
 62
     0
 92
       -2
340
0
 93
        0
 40
0.045
309
GRIDFORMAT_END
 95
        2
302
GRIDFORMAT
  1
GRIDFORMAT_BEGIN
 90
        0
 91
        1
 62
     0
 92
       -2
340
0
 93
        0
 40
0.045
309
GRIDFORMAT_END
 95
        4
302
GRIDFORMAT
  1
GRIDFORMAT_BEGIN
 90
        0
 91
        1
 62
     0
 92
       -2
340
0
 93
        0
 40
0.045
309
GRIDFORMAT_END
 95
        8
302
GRIDFORMAT
  1
GRIDFORMAT_BEGIN
 90
        0
 91
        1
 62
     0
 92
       -2
340
0
 93
        0
 40
0.045
309
GRIDFORMAT_END
 95
       16
302
GRIDFORMAT
  1
GRIDFORMAT_BEGIN
 90
        0
 91
        1
 62
     0
 92
       -2
340
0
 93
        0
 40
0.045
309
GRIDFORMAT_END
 95
       32
302
GRIDFORMAT
  1
GRIDFORMAT_BEGIN
 90
        0
 91
        1
 62
     0
 92
       -2
340
0
 93
        0
 40
0.045
309
GRIDFORMAT_END
309
TABLEFORMAT_END
  1
CELLSTYLE_BEGIN
 90
        2
 91
        1
300
_HEADER
309
CELLSTYLE_END
300
CELLSTYLE
  1
TABLEFORMAT_BEGIN
 90
        5
170
     1
 91
        0
 92
        0
 62
   257
 93
        1
300
CONTENTFORMAT
  1
CONTENTFORMAT_BEGIN
 90
        0
 91
        0
 92
      512
 93
        0
300

 40
0.0
140
1.0
 94
        2
 62
     0
340
46
144
0.18
309
CONTENTFORMAT_END
171
     1
301
MARGIN
  1
CELLMARGIN_BEGIN
 40
0.06
 40
0.06
 40
0.06
 40
0.06
 40
0.18
 40
0.18
309
CELLMARGIN_END
 94
        6
 95
        1
302
GRIDFORMAT
  1
GRIDFORMAT_BEGIN
 90
        0
 91
        1
 62
     0
 92
       -2
340
0
 93
        0
 40
0.045
309
GRIDFORMAT_END
 95
        2
302
GRIDFORMAT
  1
GRIDFORMAT_BEGIN
 90
        0
 91
        1
 62
     0
 92
       -2
340
0
 93
        0
 40
0.045
309
GRIDFORMAT_END
 95
        4
302
GRIDFORMAT
  1
GRIDFORMAT_BEGIN
 90
        0
 91
        1
 62
     0
 92
       -2
340
0
 93
        0
 40
0.045
309
GRIDFORMAT_END
 95
        8
302
GRIDFORMAT
  1
GRIDFORMAT_BEGIN
 90
        0
 91
        1
 62
     0
 92
       -2
340
0
 93
        0
 40
0.045
309
GRIDFORMAT_END
 95
       16
302
GRIDFORMAT
  1
GRIDFORMAT_BEGIN
 90
        0
 91
        1
 62
     0
 92
       -2
340
0
 93
        0
 40
0.045
309
GRIDFORMAT_END
 95
       32
302
GRIDFORMAT
  1
GRIDFORMAT_BEGIN
 90
        0
 91
        1
 62
     0
 92
       -2
340
0
 93
        0
 40
0.045
309
GRIDFORMAT_END
309
TABLEFORMAT_END
  1
CELLSTYLE_BEGIN
 90
        3
 91
        2
300
_DATA
309
CELLSTYLE_END
  0
ENDSEC
  0
EOF
