  0
SECTION
  2
HEADER
  9
$ACADVER
  1
AC1018
  9
$ACADMAINTVER
 70
   104
  9
$DWGCODEPAGE
  3
ANSI_936
  9
$LASTSAVEDBY
  1
tc.chen
  9
$INSBASE
 10
0.0
 20
0.0
 30
0.0
  9
$EXTMIN
 10
690.7764290363206
 20
153.9731552171795
 30
-0.0015258207003583
  9
$EXTMAX
 10
913.6297894149283
 20
311.5498677663752
 30
0.0000000349246037
  9
$LIMMIN
 10
0.0
 20
0.0
  9
$LIMMAX
 10
12.0
 20
9.0
  9
$ORTHOMODE
 70
     0
  9
$REGENMODE
 70
     1
  9
$FILLMODE
 70
     1
  9
$QTEXTMODE
 70
     0
  9
$MIRRTEXT
 70
     1
  9
$LTSCALE
 40
1.0
  9
$ATTMODE
 70
     1
  9
$TEXTSIZE
 40
0.2
  9
$TRACEWID
 40
0.05
  9
$TEXTSTYLE
  7
Romans字体
  9
$CLAYER
  8
DIM
  9
$CELTYPE
  6
ByLayer
  9
$CECOLOR
 62
   256
  9
$CELTSCALE
 40
1.0
  9
$DISPSILH
 70
     0
  9
$DIMSCALE
 40
0.65
  9
$DIMASZ
 40
3.0
  9
$DIMEXO
 40
1.0
  9
$DIMDLI
 40
0.1
  9
$DIMRND
 40
0.0
  9
$DIMDLE
 40
0.0
  9
$DIMEXE
 40
1.0
  9
$DIMTP
 40
0.01
  9
$DIMTM
 40
0.000000001
  9
$DIMTXT
 40
3.5
  9
$DIMCEN
 40
0.0
  9
$DIMTSZ
 40
0.0
  9
$DIMTOL
 70
     0
  9
$DIMLIM
 70
     0
  9
$DIMTIH
 70
     0
  9
$DIMTOH
 70
     0
  9
$DIMSE1
 70
     0
  9
$DIMSE2
 70
     0
  9
$DIMTAD
 70
     1
  9
$DIMZIN
 70
     8
  9
$DIMBLK
  1

  9
$DIMASO
 70
     1
  9
$DIMSHO
 70
     1
  9
$DIMPOST
  1

  9
$DIMAPOST
  1

  9
$DIMALT
 70
     0
  9
$DIMALTD
 70
     2
  9
$DIMALTF
 40
25.4
  9
$DIMLFAC
 40
1.0
  9
$DIMTOFL
 70
     0
  9
$DIMTVP
 40
0.0
  9
$DIMTIX
 70
     0
  9
$DIMSOXD
 70
     0
  9
$DIMSAH
 70
     0
  9
$DIMBLK1
  1

  9
$DIMBLK2
  1

  9
$DIMSTYLE
  2
02
  9
$DIMCLRD
 70
     1
  9
$DIMCLRE
 70
     6
  9
$DIMCLRT
 70
     4
  9
$DIMTFAC
 40
0.7
  9
$DIMGAP
 40
1.0
  9
$DIMJUST
 70
     0
  9
$DIMSD1
 70
     0
  9
$DIMSD2
 70
     0
  9
$DIMTOLJ
 70
     1
  9
$DIMTZIN
 70
     8
  9
$DIMALTZ
 70
     0
  9
$DIMALTTZ
 70
     0
  9
$DIMUPT
 70
     0
  9
$DIMDEC
 70
     2
  9
$DIMTDEC
 70
     2
  9
$DIMALTU
 70
     2
  9
$DIMALTTD
 70
     2
  9
$DIMTXSTY
  7
Standard
  9
$DIMAUNIT
 70
     0
  9
$DIMADEC
 70
     2
  9
$DIMALTRND
 40
0.0
  9
$DIMAZIN
 70
     2
  9
$DIMDSEP
 70
    46
  9
$DIMATFIT
 70
     3
  9
$DIMFRAC
 70
     0
  9
$DIMLDRBLK
  1

  9
$DIMLUNIT
 70
     2
  9
$DIMLWD
 70
    -2
  9
$DIMLWE
 70
    -2
  9
$DIMTMOVE
 70
     0
  9
$LUNITS
 70
     2
  9
$LUPREC
 70
     4
  9
$SKETCHINC
 40
0.1
  9
$FILLETRAD
 40
0.5
  9
$AUNITS
 70
     0
  9
$AUPREC
 70
     0
  9
$MENU
  1
.
  9
$ELEVATION
 40
0.0
  9
$PELEVATION
 40
0.0
  9
$THICKNESS
 40
0.0
  9
$LIMCHECK
 70
     0
  9
$CHAMFERA
 40
0.5
  9
$CHAMFERB
 40
0.5
  9
$CHAMFERC
 40
1.0
  9
$CHAMFERD
 40
0.0
  9
$SKPOLY
 70
     0
  9
$TDCREATE
 40
2456524.383632987
  9
$TDUCREATE
 40
2456524.050299653
  9
$TDUPDATE
 40
2457942.617812732
  9
$TDUUPDATE
 40
2457942.284479398
  9
$TDINDWG
 40
1.5106226620
  9
$TDUSRTIMER
 40
1.5106039583
  9
$USRTIMER
 70
     1
  9
$ANGBASE
 50
0.0
  9
$ANGDIR
 70
     0
  9
$PDMODE
 70
     0
  9
$PDSIZE
 40
0.0
  9
$PLINEWID
 40
0.0
  9
$SPLFRAME
 70
     0
  9
$SPLINETYPE
 70
     6
  9
$SPLINESEGS
 70
     8
  9
$HANDSEED
  5
405B9
  9
$SURFTAB1
 70
     6
  9
$SURFTAB2
 70
     6
  9
$SURFTYPE
 70
     6
  9
$SURFU
 70
     6
  9
$SURFV
 70
     6
  9
$UCSBASE
  2

  9
$UCSNAME
  2

  9
$UCSORG
 10
0.0
 20
0.0
 30
0.0
  9
$UCSXDIR
 10
1.0
 20
0.0
 30
0.0
  9
$UCSYDIR
 10
0.0
 20
1.0
 30
0.0
  9
$UCSORTHOREF
  2

  9
$UCSORTHOVIEW
 70
     0
  9
$UCSORGTOP
 10
0.0
 20
0.0
 30
0.0
  9
$UCSORGBOTTOM
 10
0.0
 20
0.0
 30
0.0
  9
$UCSORGLEFT
 10
0.0
 20
0.0
 30
0.0
  9
$UCSORGRIGHT
 10
0.0
 20
0.0
 30
0.0
  9
$UCSORGFRONT
 10
0.0
 20
0.0
 30
0.0
  9
$UCSORGBACK
 10
0.0
 20
0.0
 30
0.0
  9
$PUCSBASE
  2

  9
$PUCSNAME
  2

  9
$PUCSORG
 10
0.0
 20
0.0
 30
0.0
  9
$PUCSXDIR
 10
1.0
 20
0.0
 30
0.0
  9
$PUCSYDIR
 10
0.0
 20
1.0
 30
0.0
  9
$PUCSORTHOREF
  2

  9
$PUCSORTHOVIEW
 70
     0
  9
$PUCSORGTOP
 10
0.0
 20
0.0
 30
0.0
  9
$PUCSORGBOTTOM
 10
0.0
 20
0.0
 30
0.0
  9
$PUCSORGLEFT
 10
0.0
 20
0.0
 30
0.0
  9
$PUCSORGRIGHT
 10
0.0
 20
0.0
 30
0.0
  9
$PUCSORGFRONT
 10
0.0
 20
0.0
 30
0.0
  9
$PUCSORGBACK
 10
0.0
 20
0.0
 30
0.0
  9
$USERI1
 70
     0
  9
$USERI2
 70
     0
  9
$USERI3
 70
     0
  9
$USERI4
 70
     0
  9
$USERI5
 70
     0
  9
$USERR1
 40
0.0
  9
$USERR2
 40
0.0
  9
$USERR3
 40
0.0
  9
$USERR4
 40
0.0
  9
$USERR5
 40
2.5
  9
$WORLDVIEW
 70
     1
  9
$SHADEDGE
 70
     3
  9
$SHADEDIF
 70
    70
  9
$TILEMODE
 70
     1
  9
$MAXACTVP
 70
    64
  9
$PINSBASE
 10
0.0
 20
0.0
 30
0.0
  9
$PLIMCHECK
 70
     0
  9
$PEXTMIN
 10
1.000000000000000E+20
 20
1.000000000000000E+20
 30
1.000000000000000E+20
  9
$PEXTMAX
 10
-1.000000000000000E+20
 20
-1.000000000000000E+20
 30
-1.000000000000000E+20
  9
$PLIMMIN
 10
0.0
 20
0.0
  9
$PLIMMAX
 10
12.0
 20
9.0
  9
$UNITMODE
 70
     0
  9
$VISRETAIN
 70
     1
  9
$PLINEGEN
 70
     0
  9
$PSLTSCALE
 70
     1
  9
$TREEDEPTH
 70
  3020
  9
$CMLSTYLE
  2
Standard
  9
$CMLJUST
 70
     0
  9
$CMLSCALE
 40
1.0
  9
$PROXYGRAPHICS
 70
     1
  9
$MEASUREMENT
 70
     0
  9
$CELWEIGHT
370
    -1
  9
$ENDCAPS
280
     0
  9
$JOINSTYLE
280
     0
  9
$LWDISPLAY
290
     0
  9
$INSUNITS
 70
     4
  9
$HYPERLINKBASE
  1

  9
$STYLESHEET
  1
yanxiu.ctb
  9
$XEDIT
290
     1
  9
$CEPSNTYPE
380
     0
  9
$PSTYLEMODE
290
     1
  9
$FINGERPRINTGUID
  2
{4A02065B-8BB3-4A96-9036-502DC906C165}
  9
$VERSIONGUID
  2
{479B954A-B4BC-4A42-951C-0E6D1EE3B943}
  9
$EXTNAMES
290
     1
  9
$PSVPSCALE
 40
0.0
  9
$OLESTARTUP
290
     0
  9
$SORTENTS
280
   127
  9
$INDEXCTL
280
     0
  9
$HIDETEXT
280
     0
  9
$XCLIPFRAME
290
     0
  9
$HALOGAP
280
     0
  9
$OBSCOLOR
 70
   257
  9
$OBSLTYPE
280
     0
  9
$INTERSECTIONDISPLAY
280
     0
  9
$INTERSECTIONCOLOR
 70
   257
  9
$DIMASSOC
280
     1
  9
$PROJECTNAME
  1

  0
ENDSEC
  0
SECTION
  2
CLASSES
  0
CLASS
  1
ACDBDICTIONARYWDFLT
  2
AcDbDictionaryWithDefault
  3
ObjectDBX Classes
 90
        0
 91
        1
280
     0
281
     0
  0
CLASS
  1
VISUALSTYLE
  2
AcDbVisualStyle
  3
ObjectDBX Classes
 90
     4095
 91
       16
280
     0
281
     0
  0
CLASS
  1
MATERIAL
  2
AcDbMaterial
  3
ObjectDBX Classes
 90
     1153
 91
        3
280
     0
281
     0
  0
CLASS
  1
TABLESTYLE
  2
AcDbTableStyle
  3
ObjectDBX Classes
 90
     4095
 91
        1
280
     0
281
     0
  0
CLASS
  1
SCALE
  2
AcDbScale
  3
ObjectDBX Classes
 90
     1153
 91
       33
280
     0
281
     0
  0
CLASS
  1
MLEADERSTYLE
  2
AcDbMLeaderStyle
  3
ACDB_MLEADERSTYLE_CLASS
 90
     4095
 91
        1
280
     0
281
     0
  0
CLASS
  1
CELLSTYLEMAP
  2
AcDbCellStyleMap
  3
ObjectDBX Classes
 90
     1152
 91
        3
280
     0
281
     0
  0
CLASS
  1
DICTIONARYVAR
  2
AcDbDictionaryVar
  3
ObjectDBX Classes
 90
        0
 91
        8
280
     0
281
     0
  0
CLASS
  1
SORTENTSTABLE
  2
AcDbSortentsTable
  3
ObjectDBX Classes
 90
        0
 91
        1
280
     0
281
     0
  0
CLASS
  1
ACAD_EVALUATION_GRAPH
  2
AcDbEvalGraph
  3
ObjectDBX Classes
 90
     1153
 91
        1
280
     0
281
     0
  0
CLASS
  1
ACAECUSTOBJ
  2
AcAeEditorObj
  3
AcAeEditorObj
 90
     1024
 91
        1
280
     0
281
     0
  0
CLASS
  1
ACDB_DYNAMICBLOCKPURGEPREVENTER_VERSION
  2
AcDbDynamicBlockPurgePreventer
  3
ObjectDBX Classes
 90
     1153
 91
        1
280
     0
281
     0
  0
CLASS
  1
MENTALRAYRENDERSETTINGS
  2
AcDbMentalRayRenderSettings
  3
SCENEOE
 90
     1024
 91
        1
280
     0
281
     0
  0
CLASS
  1
ACDB_BLOCKREPRESENTATION_DATA
  2
AcDbBlockRepresentationData
  3
ObjectDBX Classes
 90
     1153
 91
        0
280
     0
281
     0
  0
CLASS
  1
VLO-VL
  2
vlo_VL
  3
VL|AutoLISP based application
 90
      129
 91
        1
280
     0
281
     0
  0
CLASS
  1
DIMASSOC
  2
AcDbDimAssoc
  3
"AcDbDimAssoc|Product Desc:     AcDim ARX App For Dimension|Company:          Autodesk, Inc.|WEB Address:      www.autodesk.com"
 90
        0
 91
        3
280
     0
281
     0
  0
ENDSEC
  0
SECTION
  2
TABLES
  0
TABLE
  2
VPORT
  5
8
102
{ACAD_XDICTIONARY
360
50EE
102
}
330
0
100
AcDbSymbolTable
 70
     1
  0
VPORT
  5
29
330
8
100
AcDbSymbolTableRecord
100
AcDbViewportTableRecord
  2
*Active
 70
     0
 10
0.0
 20
0.0
 11
1.0
 21
1.0
 12
697.2376123537159
 22
84.25928072317951
 13
0.0
 23
0.0
 14
0.5
 24
0.5
 15
0.5
 25
0.5
 16
0.0
 26
0.0
 36
1.0
 17
104.9654968719086
 27
148.5022307685978
 37
0.0
 40
159.0114018895525
 41
2.036474164133738
 42
50.0
 43
0.0
 44
0.0
 50
0.0
 51
0.0
 71
     0
 72
 20000
 73
     1
 74
     3
 75
     0
 76
     0
 77
     0
 78
     0
281
     0
 65
     1
110
0.0
120
0.0
130
0.0
111
1.0
121
0.0
131
0.0
112
0.0
122
1.0
132
0.0
 79
     0
146
0.0
  0
ENDTAB
  0
TABLE
  2
LTYPE
  5
5
330
0
100
AcDbSymbolTable
 70
     2
  0
LTYPE
  5
14
330
5
100
AcDbSymbolTableRecord
100
AcDbLinetypeTableRecord
  2
ByBlock
 70
     0
  3

 72
    65
 73
     0
 40
0.0
  0
LTYPE
  5
15
330
5
100
AcDbSymbolTableRecord
100
AcDbLinetypeTableRecord
  2
ByLayer
 70
     0
  3

 72
    65
 73
     0
 40
0.0
  0
LTYPE
  5
16
330
5
100
AcDbSymbolTableRecord
100
AcDbLinetypeTableRecord
  2
Continuous
 70
     0
  3
Solid line
 72
    65
 73
     0
 40
0.0
  0
LTYPE
  5
67BA
330
5
100
AcDbSymbolTableRecord
100
AcDbLinetypeTableRecord
  2
CENTER
 70
     0
  3
Center ____ _ ____ _ ____ _ ____ _ ____ _ ____
 72
    65
 73
     4
 40
2.0
 49
1.25
 74
     0
 49
-0.25
 74
     0
 49
0.25
 74
     0
 49
-0.25
 74
     0
  0
ENDTAB
  0
TABLE
  2
LAYER
  5
2
102
{ACAD_XDICTIONARY
360
50B8
102
}
330
0
100
AcDbSymbolTable
 70
     9
  0
LAYER
  5
10
102
{ACAD_XDICTIONARY
360
50D0
102
}
330
2
100
AcDbSymbolTableRecord
100
AcDbLayerTableRecord
  2
0
 70
     0
 62
     7
  6
Continuous
370
    30
390
F
  0
LAYER
  5
3B
102
{ACAD_XDICTIONARY
360
50D2
102
}
330
2
100
AcDbSymbolTableRecord
100
AcDbLayerTableRecord
  2
图层 1
 70
     0
 62
     7
  6
Continuous
370
    -3
390
F
  0
LAYER
  5
50AE
102
{ACAD_XDICTIONARY
360
50AF
102
}
330
2
100
AcDbSymbolTableRecord
100
AcDbLayerTableRecord
  2
图框
 70
     0
 62
     7
  6
Continuous
370
    20
390
F
  0
LAYER
  5
5141
330
2
100
AcDbSymbolTableRecord
100
AcDbLayerTableRecord
  2
Defpoints
 70
     0
 62
     7
  6
Continuous
290
     0
370
    -3
390
F
  0
LAYER
  5
5144
330
2
100
AcDbSymbolTableRecord
100
AcDbLayerTableRecord
  2
DIM
 70
     0
 62
     3
  6
Continuous
370
    15
390
F
1001
AcAecLayerStandard
1000

1000

  0
LAYER
  5
67B7
330
2
100
AcDbSymbolTableRecord
100
AcDbLayerTableRecord
  2
CEN
 70
     0
 62
     1
  6
CENTER
370
    15
390
F
1001
AcAecLayerStandard
1000

1000

  0
LAYER
  5
13FDB
330
2
100
AcDbSymbolTableRecord
100
AcDbLayerTableRecord
  2
粗实线
 70
     0
 62
     7
  6
Continuous
370
    25
390
F
  0
LAYER
  5
204E1
330
2
100
AcDbSymbolTableRecord
100
AcDbLayerTableRecord
  2
Hat
 70
     0
 62
     6
  6
Continuous
370
    13
390
F
  0
LAYER
  5
3FEF2
330
2
100
AcDbSymbolTableRecord
100
AcDbLayerTableRecord
  2
hatch
 70
     0
 62
    56
  6
Continuous
370
     0
390
F
  0
ENDTAB
  0
TABLE
  2
STYLE
  5
3
330
0
100
AcDbSymbolTable
 70
     8
  0
STYLE
  5
11
330
3
100
AcDbSymbolTableRecord
100
AcDbTextStyleTableRecord
  2
Standard
 70
     0
 40
0.0
 41
0.75
 50
0.0
 71
     0
 42
0.2
  3
仿宋_GB2312.ttf
  4

1001
ACAD
1000
FangSong_GB2312
1071
    34353
  0
STYLE
  5
FD48
330
3
100
AcDbSymbolTableRecord
100
AcDbTextStyleTableRecord
  2
Romans字体
 70
     0
 40
0.0
 41
0.75
 50
0.0
 71
     0
 42
0.2
  3
romans.shx
  4

  0
STYLE
  5
11080
330
3
100
AcDbSymbolTableRecord
100
AcDbTextStyleTableRecord
  2
工程字
 70
     0
 40
0.0
 41
1.0
 50
0.0
 71
     0
 42
3.5
  3
gbenor.shx
  4
gbcbig.shx
  0
STYLE
  5
11081
330
3
100
AcDbSymbolTableRecord
100
AcDbTextStyleTableRecord
  2
Chinese
 70
     0
 40
0.0
 41
1.0
 50
0.0
 71
     0
 42
2.5
  3
PMingLiU.ttf
  4

1001
ACAD
1000
PMingLiU
1071
    34834
  0
STYLE
  5
3FEF3
330
3
100
AcDbSymbolTableRecord
100
AcDbTextStyleTableRecord
  2
样式 3
 70
     0
 40
3.0
 41
1.0
 50
0.0
 71
     0
 42
3.0
  3
SimSun.ttf
  4

1001
ACAD
1000
SimSun
1071
    34306
  0
ENDTAB
  0
TABLE
  2
VIEW
  5
6
330
0
100
AcDbSymbolTable
 70
     0
  0
ENDTAB
  0
TABLE
  2
UCS
  5
7
330
0
100
AcDbSymbolTable
 70
     0
  0
ENDTAB
  0
TABLE
  2
APPID
  5
9
330
0
100
AcDbSymbolTable
 70
    18
  0
APPID
  5
12
330
9
100
AcDbSymbolTableRecord
100
AcDbRegAppTableRecord
  2
ACAD
 70
     0
  0
APPID
  5
5024
330
9
100
AcDbSymbolTableRecord
100
AcDbRegAppTableRecord
  2
ACAD_MLEADERVER
 70
     0
  0
APPID
  5
50B5
330
9
100
AcDbSymbolTableRecord
100
AcDbRegAppTableRecord
  2
AcDbDynamicBlockGUID
 70
     0
  0
APPID
  5
50B6
330
9
100
AcDbSymbolTableRecord
100
AcDbRegAppTableRecord
  2
AcDbBlockRepETag
 70
     0
  0
APPID
  5
50B7
330
9
100
AcDbSymbolTableRecord
100
AcDbRegAppTableRecord
  2
ACAD_PSEXT
 70
     0
  0
APPID
  5
50CF
330
9
100
AcDbSymbolTableRecord
100
AcDbRegAppTableRecord
  2
AcadAnnoPO
 70
     0
  0
APPID
  5
5146
330
9
100
AcDbSymbolTableRecord
100
AcDbRegAppTableRecord
  2
AcAecLayerStandard
 70
     0
  0
APPID
  5
5147
330
9
100
AcDbSymbolTableRecord
100
AcDbRegAppTableRecord
  2
ACAD_DSTYLE_DIMJAG
 70
     0
  0
APPID
  5
5148
330
9
100
AcDbSymbolTableRecord
100
AcDbRegAppTableRecord
  2
ACAD_DSTYLE_DIMTALN
 70
     0
  0
APPID
  5
52AD
330
9
100
AcDbSymbolTableRecord
100
AcDbRegAppTableRecord
  2
ACAUTHENVIRON
 70
     0
  0
APPID
  5
52B0
330
9
100
AcDbSymbolTableRecord
100
AcDbRegAppTableRecord
  2
AcDbDynamicBlockTrueName
 70
     0
  0
APPID
  5
67C6
330
9
100
AcDbSymbolTableRecord
100
AcDbRegAppTableRecord
  2
ACAD_EXEMPT_FROM_CAD_STANDARDS
 70
     0
  0
APPID
  5
6838
330
9
100
AcDbSymbolTableRecord
100
AcDbRegAppTableRecord
  2
ACAD_NAV_VCDISPLAY
 70
     0
  0
APPID
  5
70A9
330
9
100
AcDbSymbolTableRecord
100
AcDbRegAppTableRecord
  2
DCO15
 70
     0
  0
APPID
  5
8725
330
9
100
AcDbSymbolTableRecord
100
AcDbRegAppTableRecord
  2
AcDbBlockRepBTag
 70
     0
  0
APPID
  5
FE64
330
9
100
AcDbSymbolTableRecord
100
AcDbRegAppTableRecord
  2
ACAD_DSTYLE_DIMRADIAL_EXTENSION
 70
     0
  0
APPID
  5
FF93
330
9
100
AcDbSymbolTableRecord
100
AcDbRegAppTableRecord
  2
ACAD_DSTYLE_DIMBREAK
 70
     0
  0
APPID
  5
11B91
330
9
100
AcDbSymbolTableRecord
100
AcDbRegAppTableRecord
  2
ACAD_DSTYLE_DIMINSPECT
 70
     0
  0
ENDTAB
  0
TABLE
  2
DIMSTYLE
  5
A
330
0
100
AcDbSymbolTable
 70
     8
100
AcDbDimStyleTable
 71
     4
340
13FDD
340
3FEF4
340
5145
340
27
  0
DIMSTYLE
105
27
330
A
100
AcDbSymbolTableRecord
100
AcDbDimStyleTableRecord
  2
Standard
 70
     0
340
11
  0
DIMSTYLE
105
5145
330
A
100
AcDbSymbolTableRecord
100
AcDbDimStyleTableRecord
  2
01
 70
     0
 41
3.0
 42
0.2
 43
0.2
 44
1.199999999999999
 73
     0
 74
     0
 77
     1
 78
     8
 79
     2
140
2.5
141
0.0
147
0.8
176
     1
177
     6
178
     4
179
     2
271
     1
272
     1
340
FD48
1001
ACAD_DSTYLE_DIMJAG
1070
   388
1040
1.5
1001
ACAD_DSTYLE_DIMTALN
1070
   392
1070
     0
  0
DIMSTYLE
105
13FDD
330
A
100
AcDbSymbolTableRecord
100
AcDbDimStyleTableRecord
  2
02
 70
     0
 40
0.65
 41
3.0
 42
1.0
 43
0.1
 44
1.0
 47
0.01
 48
0.000000001
 73
     0
 74
     0
 77
     1
 78
     8
 79
     2
140
3.5
141
0.0
146
0.7
147
1.0
176
     1
177
     6
178
     4
179
     2
271
     2
272
     2
284
     8
340
11
1001
ACAD_DSTYLE_DIMJAG
1070
   388
1040
1.5
1001
ACAD_DSTYLE_DIMTALN
1070
   392
1070
     0
  0
DIMSTYLE
105
3ECFD
330
A
100
AcDbSymbolTableRecord
100
AcDbDimStyleTableRecord
  2
02$3
 70
     0
 40
0.65
 41
2.0
 42
0.5
 43
5.0
 44
1.0
 47
0.01
 48
0.000000001
 73
     0
 77
     1
 78
     8
 79
     2
140
3.5
141
0.0
146
0.7
147
0.6
172
     1
176
     1
177
     6
178
     4
179
     2
271
     2
272
     2
284
     8
289
     0
340
11
1001
ACAD_DSTYLE_DIMBREAK
1070
   391
1040
0.375
1001
ACAD_DSTYLE_DIMJAG
1070
   388
1040
1.5
1001
ACAD_DSTYLE_DIMTALN
1070
   392
1070
     0
  0
DIMSTYLE
105
3FEF4
102
{ACAD_REACTORS
330
4005E
330
40063
330
40067
330
402C7
330
402EF
102
}
330
A
100
AcDbSymbolTableRecord
100
AcDbDimStyleTableRecord
  2
lin01-1-1
 70
     0
 41
1.5
 42
0.5
 44
0.8
 47
0.01
 48
0.01
 73
     0
 74
     0
 77
     1
 78
     8
 79
     2
140
1.5
147
0.3
176
     1
177
     6
178
     4
179
     1
271
     1
272
     1
284
     8
340
11
1001
ACAD_DSTYLE_DIMBREAK
1070
   391
1040
3.75
1001
ACAD_DSTYLE_DIMJAG
1070
   388
1040
1.5
1001
ACAD_DSTYLE_DIMTALN
1070
   392
1070
     0
  0
ENDTAB
  0
TABLE
  2
BLOCK_RECORD
  5
1
330
0
100
AcDbSymbolTable
 70
    43
  0
BLOCK_RECORD
  5
1F
102
{ACAD_XDICTIONARY
360
67C0
102
}
330
1
100
AcDbSymbolTableRecord
100
AcDbBlockTableRecord
  2
*Model_Space
340
22
  0
BLOCK_RECORD
  5
1B
330
1
100
AcDbSymbolTableRecord
100
AcDbBlockTableRecord
  2
*Paper_Space
340
1E
  0
BLOCK_RECORD
  5
23
330
1
100
AcDbSymbolTableRecord
100
AcDbBlockTableRecord
  2
*Paper_Space0
340
26
  0
BLOCK_RECORD
  5
10FE8
102
{ACAD_XDICTIONARY
360
404FF
102
}
330
1
100
AcDbSymbolTableRecord
100
AcDbBlockTableRecord
  2
A4图框-NEW
340
0
310
2800000020000000200000000100080000000000000400000000000000000000000000000000000000000000000080000080000000808000800000008000800080800000C0C0C000C0DCC000F0CAA6000020400000206000002080000020A0000020C0000020E00000400000004020000040400000406000004080000040A0
310
000040C0000040E00000600000006020000060400000606000006080000060A0000060C0000060E00000800000008020000080400000806000008080000080A0000080C0000080E00000A0000000A0200000A0400000A0600000A0800000A0A00000A0C00000A0E00000C0000000C0200000C0400000C0600000C0800000C0
310
A00000C0C00000C0E00000E0000000E0200000E0400000E0600000E0800000E0A00000E0C00000E0E00040000000400020004000400040006000400080004000A0004000C0004000E00040200000402020004020400040206000402080004020A0004020C0004020E000404000004040200040404000404060004040800040
310
40A0004040C0004040E00040600000406020004060400040606000406080004060A0004060C0004060E00040800000408020004080400040806000408080004080A0004080C0004080E00040A0000040A0200040A0400040A0600040A0800040A0A00040A0C00040A0E00040C0000040C0200040C0400040C0600040C08000
310
40C0A00040C0C00040C0E00040E0000040E0200040E0400040E0600040E0800040E0A00040E0C00040E0E00080000000800020008000400080006000800080008000A0008000C0008000E00080200000802020008020400080206000802080008020A0008020C0008020E00080400000804020008040400080406000804080
310
008040A0008040C0008040E00080600000806020008060400080606000806080008060A0008060C0008060E00080800000808020008080400080806000808080008080A0008080C0008080E00080A0000080A0200080A0400080A0600080A0800080A0A00080A0C00080A0E00080C0000080C0200080C0400080C0600080C0
310
800080C0A00080C0C00080C0E00080E0000080E0200080E0400080E0600080E0800080E0A00080E0C00080E0E000C0000000C0002000C0004000C0006000C0008000C000A000C000C000C000E000C0200000C0202000C0204000C0206000C0208000C020A000C020C000C020E000C0400000C0402000C0404000C0406000C0
310
408000C040A000C040C000C040E000C0600000C0602000C0604000C0606000C0608000C060A000C060C000C060E000C0800000C0802000C0804000C0806000C0808000C080A000C080C000C080E000C0A00000C0A02000C0A04000C0A06000C0A08000C0A0A000C0A0C000C0A0E000C0C00000C0C02000C0C04000C0C06000
310
C0C08000C0C0A000F0FBFF00A4A0A000808080000000FF0000FF000000FFFF00FF000000FF00FF00FFFF0000FFFFFF0000000000000000000000000000000000000000000000000000000000000000000000000000000000000000000000000000000000000000000000000000000000000000000000000000000000000000
310
000000000000000000000000000000000000000000000000000000000000000000000000000000000000000000000000000000000000000000000000000000000000000000000000000000000000000000000000000000000000000000000000000000000000000000000000000000000000F9F9F9F9F9F9F9F9F9F9F9F9F9
310
F9F9F9F9F9F9F9F9F9F9F9F9F9F9FF00000000F9FF000000000000000000FFFFFFFFFFFFFFFFFFFFFFFFF9FAFAFAFF00000000F9FF000000000000000000FFFFFFFFFFFFFFFFFFFFFFFFFFFFFFFFFF00000000F9FD000000000000000000FFFFFFFFFFFFFFFFFFFFFFFFFFFFFFFFFF00000000F9FF000000000000000000FF
310
FFFFFFFFFFFFFFFFFFFFFFFFFFFFFFFF00000000F9FD000000000000000000FFFFFFFFFFFFFFFFFFFFFFFFFFFFFFFFFF00000000F9FF00000000000000000000000000000000000000000000000000FF00000000F9FD00000000000000000000000000000000000000000000000000FF00000000F9FF000000000000000000
310
00000000000000000000000000000000FF00000000F9FD00000000000000000000000000000000000000000000000000FF00000000F9FF00000000000000000000000000000000000000000000000000FF00000000F9FD00000000000000000000000000000000000000000000000000FF00000000F9FD0000000000000000
310
0000000000000000000000000000000000FF00000000F9FF00000000000000000000000000000000000000000000000000FF00000000F9FD00000000000000000000000000000000000000000000000000FF00000000F9FF00000000000000000000000000000000000000000000000000FF00000000F9FD00000000000000
310
000000000000000000000000000000000000FF00000000F9FF00000000000000000000000000000000000000000000000000FF00000000F9FFFFFFFFFFFFFFFFFFFFFFFFFFFFFFFFFFFFFFFFFFFFFFFFFFFFFF00000000F9FFFFFFF9F9F9F9F9F9F9F9F9F9F9F9F9F9F9F9F9F9F9F9F9F9F9F9000000000000000000000000
310
00000000000000000000000000000000000000000000000000000000000000000000000000000000000000000000000000000000000000000000000000000000000000000000000000000000000000000000000000000000000000000000000000000000000000000000000000000000000000000000000000000000000000
310
0000000000000000000000000000000000000000000000000000000000000000000000000000000000000000000000000000000000000000
102
{BLKREFS
331
12DE1
102
}
1001
AcDbDynamicBlockGUID
1000
{B325FB82-2447-4532-9DAB-B6599F0790D5}
1001
AcDbBlockRepETag
1070
     1
1071
      152
1001
ACAD
1000
DesignCenter Data
1002
{
1070
     1
1070
     4
1002
}
  0
BLOCK_RECORD
  5
3F0E6
330
1
100
AcDbSymbolTableRecord
100
AcDbBlockTableRecord
  2
*D2
340
0
  0
BLOCK_RECORD
  5
3F18F
330
1
100
AcDbSymbolTableRecord
100
AcDbBlockTableRecord
  2
*D3
340
0
  0
BLOCK_RECORD
  5
3F19B
330
1
100
AcDbSymbolTableRecord
100
AcDbBlockTableRecord
  2
*D4
340
0
  0
BLOCK_RECORD
  5
3F1A7
330
1
100
AcDbSymbolTableRecord
100
AcDbBlockTableRecord
  2
*D5
340
0
  0
BLOCK_RECORD
  5
3F1B4
330
1
100
AcDbSymbolTableRecord
100
AcDbBlockTableRecord
  2
*D6
340
0
  0
BLOCK_RECORD
  5
3F1E5
330
1
100
AcDbSymbolTableRecord
100
AcDbBlockTableRecord
  2
*D7
340
0
  0
BLOCK_RECORD
  5
3F7E5
330
1
100
AcDbSymbolTableRecord
100
AcDbBlockTableRecord
  2
*D8
340
0
  0
BLOCK_RECORD
  5
3FE46
330
1
100
AcDbSymbolTableRecord
100
AcDbBlockTableRecord
  2
*D9
340
0
  0
BLOCK_RECORD
  5
3FE50
330
1
100
AcDbSymbolTableRecord
100
AcDbBlockTableRecord
  2
*D10
340
0
  0
BLOCK_RECORD
  5
3FE5D
330
1
100
AcDbSymbolTableRecord
100
AcDbBlockTableRecord
  2
*D11
340
0
  0
BLOCK_RECORD
  5
3FE67
330
1
100
AcDbSymbolTableRecord
100
AcDbBlockTableRecord
  2
*D12
340
0
  0
BLOCK_RECORD
  5
3FE73
330
1
100
AcDbSymbolTableRecord
100
AcDbBlockTableRecord
  2
*D13
340
0
  0
BLOCK_RECORD
  5
3FE81
330
1
100
AcDbSymbolTableRecord
100
AcDbBlockTableRecord
  2
*D14
340
0
  0
BLOCK_RECORD
  5
3FE8B
330
1
100
AcDbSymbolTableRecord
100
AcDbBlockTableRecord
  2
*D15
340
0
  0
BLOCK_RECORD
  5
3FE9B
330
1
100
AcDbSymbolTableRecord
100
AcDbBlockTableRecord
  2
*D16
340
0
  0
BLOCK_RECORD
  5
3FEA7
330
1
100
AcDbSymbolTableRecord
100
AcDbBlockTableRecord
  2
*D17
340
0
  0
BLOCK_RECORD
  5
3FEB7
330
1
100
AcDbSymbolTableRecord
100
AcDbBlockTableRecord
  2
*D18
340
0
  0
BLOCK_RECORD
  5
3FEC3
330
1
100
AcDbSymbolTableRecord
100
AcDbBlockTableRecord
  2
*D19
340
0
  0
BLOCK_RECORD
  5
3FECF
330
1
100
AcDbSymbolTableRecord
100
AcDbBlockTableRecord
  2
*D20
340
0
  0
BLOCK_RECORD
  5
3FEDB
330
1
100
AcDbSymbolTableRecord
100
AcDbBlockTableRecord
  2
*D21
340
0
  0
BLOCK_RECORD
  5
3FEE6
330
1
100
AcDbSymbolTableRecord
100
AcDbBlockTableRecord
  2
*D22
340
0
  0
BLOCK_RECORD
  5
4006A
330
1
100
AcDbSymbolTableRecord
100
AcDbBlockTableRecord
  2
*D23
340
0
  0
BLOCK_RECORD
  5
40074
330
1
100
AcDbSymbolTableRecord
100
AcDbBlockTableRecord
  2
*D24
340
0
  0
BLOCK_RECORD
  5
40081
330
1
100
AcDbSymbolTableRecord
100
AcDbBlockTableRecord
  2
*D25
340
0
  0
BLOCK_RECORD
  5
4008B
330
1
100
AcDbSymbolTableRecord
100
AcDbBlockTableRecord
  2
*D26
340
0
  0
BLOCK_RECORD
  5
40097
330
1
100
AcDbSymbolTableRecord
100
AcDbBlockTableRecord
  2
*D27
340
0
  0
BLOCK_RECORD
  5
400A5
330
1
100
AcDbSymbolTableRecord
100
AcDbBlockTableRecord
  2
*D28
340
0
  0
BLOCK_RECORD
  5
400AF
330
1
100
AcDbSymbolTableRecord
100
AcDbBlockTableRecord
  2
*D29
340
0
  0
BLOCK_RECORD
  5
400BF
330
1
100
AcDbSymbolTableRecord
100
AcDbBlockTableRecord
  2
*D30
340
0
  0
BLOCK_RECORD
  5
400CB
330
1
100
AcDbSymbolTableRecord
100
AcDbBlockTableRecord
  2
*D31
340
0
  0
BLOCK_RECORD
  5
400DB
330
1
100
AcDbSymbolTableRecord
100
AcDbBlockTableRecord
  2
*D32
340
0
  0
BLOCK_RECORD
  5
4013C
330
1
100
AcDbSymbolTableRecord
100
AcDbBlockTableRecord
  2
*D33
340
0
  0
BLOCK_RECORD
  5
40148
330
1
100
AcDbSymbolTableRecord
100
AcDbBlockTableRecord
  2
*D34
340
0
  0
BLOCK_RECORD
  5
40154
330
1
100
AcDbSymbolTableRecord
100
AcDbBlockTableRecord
  2
*D35
340
0
  0
BLOCK_RECORD
  5
40168
330
1
100
AcDbSymbolTableRecord
100
AcDbBlockTableRecord
  2
*D36
340
0
  0
BLOCK_RECORD
  5
402C8
330
1
100
AcDbSymbolTableRecord
100
AcDbBlockTableRecord
  2
*D37
340
0
  0
BLOCK_RECORD
  5
402F0
330
1
100
AcDbSymbolTableRecord
100
AcDbBlockTableRecord
  2
*D38
340
0
  0
ENDTAB
  0
ENDSEC
  0
SECTION
  2
BLOCKS
  0
BLOCK
  5
20
330
1F
100
AcDbEntity
  8
0
100
AcDbBlockBegin
  2
*Model_Space
 70
     0
 10
0.0
 20
0.0
 30
0.0
  3
*Model_Space
  1

  0
ENDBLK
  5
21
330
1F
100
AcDbEntity
  8
0
100
AcDbBlockEnd
  0
BLOCK
  5
1C
330
1B
100
AcDbEntity
 67
     1
  8
0
100
AcDbBlockBegin
  2
*Paper_Space
 70
     0
 10
0.0
 20
0.0
 30
0.0
  3
*Paper_Space
  1

  0
ENDBLK
  5
1D
330
1B
100
AcDbEntity
 67
     1
  8
0
100
AcDbBlockEnd
  0
BLOCK
  5
24
330
23
100
AcDbEntity
 67
     1
  8
0
100
AcDbBlockBegin
  2
*Paper_Space0
 70
     0
 10
0.0
 20
0.0
 30
0.0
  3
*Paper_Space0
  1

  0
ENDBLK
  5
25
330
23
100
AcDbEntity
 67
     1
  8
0
100
AcDbBlockEnd
  0
BLOCK
  5
10FEA
330
10FE8
100
AcDbEntity
  8
0
100
AcDbBlockBegin
  2
A4图框-NEW
 70
     0
 10
0.0
 20
0.0
 30
0.0
  3
A4图框-NEW
  1

  0
MTEXT
  5
4046B
102
{ACAD_XDICTIONARY
360
40568
102
}
330
10FE8
100
AcDbEntity
  8
图框
 62
     3
100
AcDbMText
 10
967.6594956750133
 20
499.7664151964293
 30
0.0
 40
2.2528
 41
15.50176341157864
 71
     5
 72
     5
  1
TC CHEN
  7
Romans字体
 73
     1
 44
1.0
1001
AcDbBlockRepETag
1070
     1
1071
        0
1005
4046B
1001
ACAD
1000
ACAD_MTEXT_DEFINED_HEIGHT_BEGIN
1070
    46
1040
6.292658374511018
1000
ACAD_MTEXT_DEFINED_HEIGHT_END
  0
MTEXT
  5
4046C
330
10FE8
100
AcDbEntity
  8
图框
 62
     3
100
AcDbMText
 10
983.041569333247
 20
499.7664151964293
 30
0.0
 40
2.2528
 41
15.50176341157864
 71
     5
 72
     5
  1
{\W0.7;12.10.2014}
  7
Romans字体
 73
     1
 44
1.0
1001
AcDbBlockRepETag
1070
     1
1071
        1
1005
4046C
1001
ACAD
1000
ACAD_MTEXT_DEFINED_HEIGHT_BEGIN
1070
    46
1040
6.292658374511042
1000
ACAD_MTEXT_DEFINED_HEIGHT_END
  0
MTEXT
  5
4046D
330
10FE8
100
AcDbEntity
  8
图框
 62
     3
100
AcDbMText
 10
1012.477254728976
 20
487.1810984474071
 30
0.0
 40
2.2528
 41
15.50176341157864
 71
     5
 72
     5
  1
YY LUO
  7
Romans字体
 73
     1
 44
1.0
1001
AcDbBlockRepETag
1070
     1
1071
        2
1005
4046D
1001
ACAD
1000
ACAD_MTEXT_DEFINED_HEIGHT_BEGIN
1070
    46
1040
6.292658374511455
1000
ACAD_MTEXT_DEFINED_HEIGHT_END
  0
MTEXT
  5
4046E
330
10FE8
100
AcDbEntity
  8
图框
 62
     3
100
AcDbMText
 10
1063.722665487208
 20
525.4145966538831
 30
0.0
 40
2.2528
 41
15.50176341157864
 71
     5
 72
     5
  1
-
  7
Romans字体
 73
     1
 44
1.0
1001
AcDbBlockRepETag
1070
     1
1071
        4
1005
4046E
1001
ACAD
1000
ACAD_MTEXT_DEFINED_HEIGHT_BEGIN
1070
    46
1040
11.82914190181707
1000
ACAD_MTEXT_DEFINED_HEIGHT_END
  0
MTEXT
  5
4046F
330
10FE8
100
AcDbEntity
  8
图框
 62
     3
100
AcDbMText
 10
1063.727338552349
 20
513.5854547520641
 30
0.0
 40
2.2528
 41
15.50176341157864
 71
     5
 72
     5
  1
-
  7
Romans字体
 73
     1
 44
1.0
1001
AcDbBlockRepETag
1070
     1
1071
        5
1005
4046F
1001
ACAD
1000
ACAD_MTEXT_DEFINED_HEIGHT_BEGIN
1070
    46
1040
11.82914190182139
1000
ACAD_MTEXT_DEFINED_HEIGHT_END
  0
MTEXT
  5
40470
330
10FE8
100
AcDbEntity
  8
图框
 62
     3
100
AcDbMText
 10
1110.122306614152
 20
526.8006839312707
 30
0.0
 40
2.2528
 41
15.50176341157864
 71
     5
 72
     5
  1
-
  7
Romans字体
 73
     1
 44
1.0
1001
AcDbBlockRepETag
1070
     1
1071
        6
1005
40470
1001
ACAD
1000
ACAD_MTEXT_DEFINED_HEIGHT_BEGIN
1070
    46
1040
9.05696734704178
1000
ACAD_MTEXT_DEFINED_HEIGHT_END
  0
MTEXT
  5
40471
330
10FE8
100
AcDbEntity
  8
图框
 62
     3
100
AcDbMText
 10
1110.122306614152
 20
500.2775205517162
 30
0.0
 40
2.2528
 41
15.50176341157864
 71
     5
 72
     5
  1
-
  7
Romans字体
 73
     1
 44
1.0
1001
AcDbBlockRepETag
1070
     1
1071
        7
1005
40471
1001
ACAD
1000
ACAD_MTEXT_DEFINED_HEIGHT_BEGIN
1070
    46
1040
8.871557304763419
1000
ACAD_MTEXT_DEFINED_HEIGHT_END
  0
MTEXT
  5
40472
330
10FE8
100
AcDbEntity
  8
图框
 62
     3
100
AcDbMText
 10
967.6594956750133
 20
493.4737568219182
 30
0.0
 40
2.2528
 41
15.50176341157864
 71
     5
 72
     5
  1
ZM LIN
  7
Romans字体
 73
     1
 44
1.0
1001
AcDbBlockRepETag
1070
     1
1071
        8
1005
40472
1001
ACAD
1000
ACAD_MTEXT_DEFINED_HEIGHT_BEGIN
1070
    46
1040
6.292658374510335
1000
ACAD_MTEXT_DEFINED_HEIGHT_END
  0
MTEXT
  5
40473
330
10FE8
100
AcDbEntity
  8
图框
 62
     3
100
AcDbMText
 10
1012.477254728976
 20
499.7664151964291
 30
0.0
 40
2.2528
 41
15.50176341157864
 71
     5
 72
     5
  1
-
  7
Romans字体
 73
     1
 44
1.0
1001
AcDbBlockRepETag
1070
     1
1071
       10
1005
40473
1001
ACAD
1000
ACAD_MTEXT_DEFINED_HEIGHT_BEGIN
1070
    46
1040
6.292658374511397
1000
ACAD_MTEXT_DEFINED_HEIGHT_END
  0
MTEXT
  5
40474
330
10FE8
100
AcDbEntity
  8
图框
 62
     3
100
AcDbMText
 10
1028.977802139886
 20
499.7664151964289
 30
0.0
 40
2.2528
 41
15.50176341157864
 71
     5
 72
     5
  1
-
  7
Romans字体
 73
     1
 44
1.0
1001
AcDbBlockRepETag
1070
     1
1071
       11
1005
40474
1001
ACAD
1000
ACAD_MTEXT_DEFINED_HEIGHT_BEGIN
1070
    46
1040
6.292658374511382
1000
ACAD_MTEXT_DEFINED_HEIGHT_END
  0
MTEXT
  5
40475
330
10FE8
100
AcDbEntity
  8
图框
 62
     3
100
AcDbMText
 10
967.6594956750133
 20
487.1810984474071
 30
0.0
 40
2.985513575034151
 41
15.50176341157863
 71
     5
 72
     5
  1
-
  7
Romans字体
 73
     1
 44
1.0
1001
AcDbBlockRepETag
1070
     1
1071
       12
1005
40475
1001
ACAD
1000
ACAD_MTEXT_DEFINED_HEIGHT_BEGIN
1070
    46
1040
6.292658374511478
1000
ACAD_MTEXT_DEFINED_HEIGHT_END
  0
MTEXT
  5
40476
330
10FE8
100
AcDbEntity
  8
图框
 62
     3
100
AcDbMText
 10
983.041569333247
 20
487.1810984474071
 30
0.0
 40
2.487927979195124
 41
15.26238390489062
 71
     5
 72
     5
  1
-
  7
Romans字体
 73
     1
 44
1.0
1001
AcDbBlockRepETag
1070
     1
1071
       13
1005
40476
1001
ACAD
1000
ACAD_MTEXT_DEFINED_HEIGHT_BEGIN
1070
    46
1040
6.292658374511495
1000
ACAD_MTEXT_DEFINED_HEIGHT_END
  0
MTEXT
  5
40477
330
10FE8
100
AcDbEntity
  8
图框
 62
     3
100
AcDbMText
 10
1074.556686986741
 20
495.8417418993361
 30
0.0
 40
2.2528
 41
15.50176341157864
 71
     5
 72
     5
  1
-
  7
Romans字体
 73
     1
 44
1.0
1001
AcDbBlockRepETag
1070
     1
1071
       14
1005
40477
1001
ACAD
1000
ACAD_MTEXT_DEFINED_HEIGHT_BEGIN
1070
    46
1040
7.886094601210427
1000
ACAD_MTEXT_DEFINED_HEIGHT_END
  0
LINE
  5
40478
330
10FE8
100
AcDbEntity
  8
图框
370
    -3
100
AcDbLine
 10
1036.653967466372
 20
499.7847891999413
 30
0.0
 11
1079.971361203936
 21
499.7847891999413
 31
0.0
1001
AcDbBlockRepETag
1070
     1
1071
       15
1005
40478
  0
MTEXT
  5
40479
330
10FE8
100
AcDbEntity
  8
图框
 62
     1
370
    20
100
AcDbMText
 10
1108.26336443907
 20
491.5162596080882
 30
0.0
 40
2.699054613030988
 41
82.30831305643079
 71
     5
 72
     5
  1
{\fSimHei|b0|i0|c134|p2;厦门唯恩电气有限公司}
 73
     1
 44
1.0
1001
AcDbBlockRepETag
1070
     1
1071
       16
1005
40479
  0
MTEXT
  5
4047A
330
10FE8
100
AcDbEntity
  8
图框
 62
     3
370
    20
100
AcDbMText
 10
1108.435451459908
 20
487.298967726064
 30
0.0
 40
1.652482416141417
 41
68.08558693693567
 71
     5
 72
     5
  1
{\fArial Narrow|b0|i0|c0|p34;XIAMEN WAIN ELECTRICAL CO.LTD}
  7
工程字
 73
     1
 44
1.0
1001
AcDbBlockRepETag
1070
     1
1071
       17
1005
4047A
  0
MTEXT
  5
4047B
330
10FE8
100
AcDbEntity
  8
图框
 62
     1
370
    20
100
AcDbMText
 10
1085.711816899387
 20
491.0944802995856
 30
0.0
 40
2.005930044038334
 41
5.047240019334847
 71
     1
 72
     5
  1
{\fArial|b0|i0|c0|p34;A}
  7
Chinese
 73
     1
 44
1.0
1001
AcDbBlockRepETag
1070
     1
1071
       18
1005
4047B
  0
MTEXT
  5
4047C
330
10FE8
100
AcDbEntity
  8
图框
 62
     1
370
    20
100
AcDbMText
 10
1088.213485935716
 20
491.0944802995856
 30
0.0
 40
2.005930044038334
 41
5.047240019334847
 71
     1
 72
     5
  1
{\fArial|b0|i0|c0|p34;I}
  7
Chinese
 73
     1
 44
1.0
1001
AcDbBlockRepETag
1070
     1
1071
       19
1005
4047C
  0
MTEXT
  5
4047D
330
10FE8
100
AcDbEntity
  8
图框
 62
     1
370
    20
100
AcDbMText
 10
1089.142375222864
 20
491.0822866326808
 30
0.0
 40
2.005930044038334
 41
5.047240019334847
 71
     1
 72
     5
  1
{\fArial|b0|i0|c0|p34;N}
  7
Chinese
 73
     1
 44
1.0
1001
AcDbBlockRepETag
1070
     1
1071
       20
1005
4047D
  0
MTEXT
  5
4047E
330
10FE8
100
AcDbEntity
  8
图框
100
AcDbMText
 10
1069.142012769545
 20
487.9667319294409
 30
0.0
 40
2.252848170144607
 41
21.65869686878327
 71
     5
 72
     5
  1
{\W0.5;\C1;All Dimensions in mm\POriginal Size DIN A 4}
  7
Romans字体
 73
     1
 44
1.0
1001
AcDbBlockRepETag
1070
     1
1071
       21
1005
4047E
1001
ACAD
1000
ACAD_MTEXT_DEFINED_HEIGHT_BEGIN
1070
    46
1040
7.863925338579296
1000
ACAD_MTEXT_DEFINED_HEIGHT_END
  0
MTEXT
  5
4047F
330
10FE8
100
AcDbEntity
  8
图框
  6
ByBlock
 62
     6
370
    18
100
AcDbMText
 10
1127.40434942308
 20
508.7896535755975
 30
0.0
 40
2.651776162684904
 41
2.557913877927211
 71
     1
 72
     5
  1
A
  7
Romans字体
 11
0.0000000000000001
 21
1.0
 31
0.0
 73
     1
 44
1.0
1001
AcDbBlockRepETag
1070
     1
1071
       22
1005
4047F
  0
MTEXT
  5
40480
330
10FE8
100
AcDbEntity
  8
图框
 62
     6
100
AcDbMText
 10
1127.40434942308
 20
556.3746573232886
 30
0.0
 40
2.651776162684904
 41
2.557913877927211
 71
     1
 72
     5
  1
B
  7
Romans字体
 11
0.0000000000000001
 21
1.0
 31
0.0
 73
     1
 44
1.0
1001
AcDbBlockRepETag
1070
     1
1071
       23
1005
40480
  0
MTEXT
  5
40481
330
10FE8
100
AcDbEntity
  8
图框
 62
     6
100
AcDbMText
 10
1127.40434942308
 20
607.5539372630998
 30
0.0
 40
2.651776162684904
 41
2.557913877927211
 71
     1
 72
     5
  1
C
  7
Romans字体
 11
0.0000000000000001
 21
1.0
 31
0.0
 73
     1
 44
1.0
1001
AcDbBlockRepETag
1070
     1
1071
       24
1005
40481
  0
MTEXT
  5
40482
330
10FE8
100
AcDbEntity
  8
图框
 62
     6
100
AcDbMText
 10
1127.40434942308
 20
658.7332172029115
 30
0.0
 40
2.651776162684904
 41
2.557913877927211
 71
     1
 72
     5
  1
D
  7
Romans字体
 11
0.0000000000000001
 21
1.0
 31
0.0
 73
     1
 44
1.0
1001
AcDbBlockRepETag
1070
     1
1071
       25
1005
40482
  0
LINE
  5
40483
330
10FE8
100
AcDbEntity
  8
图框
 62
     6
100
AcDbLine
 10
1130.411601781241
 20
634.0726090796082
 30
0.0
 11
1126.928502610363
 21
634.0726090796082
 31
0.0
1001
AcDbBlockRepETag
1070
     1
1071
       26
1005
40483
  0
LINE
  5
40484
330
10FE8
100
AcDbEntity
  8
图框
 62
     6
100
AcDbLine
 10
1130.411601781241
 20
582.89332913979
 30
0.0
 11
1126.928502610363
 21
582.89332913979
 31
0.0
1001
AcDbBlockRepETag
1070
     1
1071
       27
1005
40484
  0
MTEXT
  5
40485
330
10FE8
100
AcDbEntity
  8
图框
 62
     6
100
AcDbMText
 10
1105.329704038389
 20
483.6164543011163
 30
0.0
 40
2.651776162684904
 41
2.557913877927211
 71
     1
 72
     5
  1
6
  7
Romans字体
 73
     1
 44
1.0
1001
AcDbBlockRepETag
1070
     1
1071
       28
1005
40485
  0
LINE
  5
40486
330
10FE8
100
AcDbEntity
  8
图框
 62
     6
100
AcDbLine
 10
1081.088565155284
 20
484.0347692601515
 30
0.0
 11
1081.088565155284
 21
480.5347692601475
 31
0.0
1001
AcDbBlockRepETag
1070
     1
1071
       29
1005
40486
  0
MTEXT
  5
40487
330
10FE8
100
AcDbEntity
  8
图框
 62
     6
100
AcDbMText
 10
1055.900596365941
 20
483.520053108993
 30
0.0
 40
2.651776162684904
 41
2.557913877927211
 71
     1
 72
     5
  1
5
  7
Romans字体
 73
     1
 44
1.0
1001
AcDbBlockRepETag
1070
     1
1071
       30
1005
40487
  0
LINE
  5
40488
330
10FE8
100
AcDbEntity
  8
图框
 62
     6
100
AcDbLine
 10
1031.553386436349
 20
484.0347692601515
 30
0.0
 11
1031.553386436349
 21
480.5347692601475
 31
0.0
1001
AcDbBlockRepETag
1070
     1
1071
       31
1005
40488
  0
MTEXT
  5
40489
330
10FE8
100
AcDbEntity
  8
图框
 62
     6
100
AcDbMText
 10
1006.383180575197
 20
483.5687958215896
 30
0.0
 40
2.651776162684904
 41
2.557913877927211
 71
     1
 72
     5
  1
4
  7
Romans字体
 73
     1
 44
1.0
1001
AcDbBlockRepETag
1070
     1
1071
       32
1005
40489
  0
LINE
  5
4048A
330
10FE8
100
AcDbEntity
  8
图框
 62
     6
100
AcDbLine
 10
982.0182077173887
 20
484.0347692601515
 30
0.0
 11
982.0182077173887
 21
480.5347692601475
 31
0.0
1001
AcDbBlockRepETag
1070
     1
1071
       33
1005
4048A
  0
MTEXT
  5
4048B
330
10FE8
100
AcDbEntity
  8
图框
 62
     6
100
AcDbMText
 10
956.8302389280352
 20
483.5989680297948
 30
0.0
 40
2.651776162684904
 41
2.557913877927211
 71
     1
 72
     5
  1
3
  7
Romans字体
 73
     1
 44
1.0
1001
AcDbBlockRepETag
1070
     1
1071
       34
1005
4048B
  0
LINE
  5
4048C
330
10FE8
100
AcDbEntity
  8
图框
 62
     6
100
AcDbLine
 10
932.4830289984245
 20
484.0347692601515
 30
0.0
 11
932.4830289984245
 21
480.5347692601475
 31
0.0
1001
AcDbBlockRepETag
1070
     1
1071
       35
1005
4048C
  0
MTEXT
  5
4048D
330
10FE8
100
AcDbEntity
  8
图框
 62
     6
100
AcDbMText
 10
906.0252349826365
 20
483.6475250013156
 30
0.0
 40
2.651776162684904
 41
2.557913877927211
 71
     1
 72
     5
  1
2
  7
Romans字体
 73
     1
 44
1.0
1001
AcDbBlockRepETag
1070
     1
1071
       36
1005
4048D
  0
LINE
  5
4048E
330
10FE8
100
AcDbEntity
  8
图框
 62
     6
100
AcDbLine
 10
882.9478502794648
 20
484.0347692601515
 30
0.0
 11
882.9478502794648
 21
480.5347692601475
 31
0.0
1001
AcDbBlockRepETag
1070
     1
1071
       37
1005
4048E
  0
MTEXT
  5
4048F
330
10FE8
100
AcDbEntity
  8
图框
 62
     6
100
AcDbMText
 10
857.7598814901191
 20
483.651829494754
 30
0.0
 40
2.651776162684904
 41
2.557913877927211
 71
     1
 72
     5
  1
1
  7
Romans字体
 73
     1
 44
1.0
1001
AcDbBlockRepETag
1070
     1
1071
       38
1005
4048F
  0
LINE
  5
40490
330
10FE8
100
AcDbEntity
  8
图框
370
    50
100
AcDbLine
 10
836.8548209370597
 20
484.0347692601515
 30
0.0
 11
1126.928502610363
 21
484.0347692601515
 31
0.0
1001
AcDbBlockRepETag
1070
     1
1071
       39
1005
40490
  0
LINE
  5
40491
330
10FE8
100
AcDbEntity
  8
图框
370
    50
100
AcDbLine
 10
836.9128518455362
 20
484.0178684310246
 30
0.0
 11
836.9128518455394
 21
675.0207195125422
 31
0.0
1001
AcDbBlockRepETag
1070
     1
1071
       40
1005
40491
  0
MTEXT
  5
40492
330
10FE8
100
AcDbEntity
  8
图框
 62
     6
100
AcDbMText
 10
833.8475685789031
 20
658.7332172029115
 30
0.0
 40
2.651776162684904
 41
2.557913877927211
 71
     1
 72
     5
  1
D
  7
Romans字体
 11
0.0000000000000001
 21
1.0
 31
0.0
 73
     1
 44
1.0
1001
AcDbBlockRepETag
1070
     1
1071
       41
1005
40492
  0
LINE
  5
40493
330
10FE8
100
AcDbEntity
  8
图框
 62
     6
100
AcDbLine
 10
836.9128518455386
 20
634.0726090796082
 30
0.0
 11
833.4128518455365
 21
634.0726090796082
 31
0.0
1001
AcDbBlockRepETag
1070
     1
1071
       42
1005
40493
  0
MTEXT
  5
40494
330
10FE8
100
AcDbEntity
  8
图框
 62
     6
100
AcDbMText
 10
833.9039177480142
 20
607.5539372630998
 30
0.0
 40
2.651776162684904
 41
2.557913877927211
 71
     1
 72
     5
  1
C
  7
Romans字体
 11
0.0000000000000001
 21
1.0
 31
0.0
 73
     1
 44
1.0
1001
AcDbBlockRepETag
1070
     1
1071
       43
1005
40494
  0
LINE
  5
40495
330
10FE8
100
AcDbEntity
  8
图框
 62
     6
100
AcDbLine
 10
836.9128518455378
 20
582.89332913979
 30
0.0
 11
833.4128518455365
 21
582.89332913979
 31
0.0
1001
AcDbBlockRepETag
1070
     1
1071
       44
1005
40495
  0
MTEXT
  5
40496
330
10FE8
100
AcDbEntity
  8
图框
 62
     6
100
AcDbMText
 10
833.9039177480142
 20
556.3746573232886
 30
0.0
 40
2.651776162684904
 41
2.557913877927211
 71
     1
 72
     5
  1
B
  7
Romans字体
 11
0.0000000000000001
 21
1.0
 31
0.0
 73
     1
 44
1.0
1001
AcDbBlockRepETag
1070
     1
1071
       45
1005
40496
  0
LINE
  5
40497
330
10FE8
100
AcDbEntity
  8
图框
 62
     6
100
AcDbLine
 10
836.9128518455367
 20
531.714049199969
 30
0.0
 11
833.4128518455365
 21
531.714049199969
 31
0.0
1001
AcDbBlockRepETag
1070
     1
1071
       46
1005
40497
  0
MTEXT
  5
40498
330
10FE8
100
AcDbEntity
  8
图框
 62
     6
100
AcDbMText
 10
833.9039177480142
 20
508.7896535755975
 30
0.0
 40
2.651776162684904
 41
2.557913877927211
 71
     1
 72
     5
  1
A
  7
Romans字体
 11
0.0000000000000001
 21
1.0
 31
0.0
 73
     1
 44
1.0
1001
AcDbBlockRepETag
1070
     1
1071
       47
1005
40498
  0
LINE
  5
40499
330
10FE8
100
AcDbEntity
  8
图框
370
    -3
100
AcDbLine
 10
836.9128518455394
 20
675.0207195125422
 30
0.0
 11
836.9128518455394
 21
684.5021384922564
 31
0.0
1001
AcDbBlockRepETag
1070
     1
1071
       48
1005
40499
  0
LINE
  5
4049A
330
10FE8
100
AcDbEntity
  8
图框
370
    -3
100
AcDbLine
 10
842.6237321475781
 20
675.5347692601515
 30
0.0
 11
842.6237321475781
 21
685.0161882398658
 31
0.0
1001
AcDbBlockRepETag
1070
     1
1071
       49
1005
4049A
  0
LINE
  5
4049B
330
10FE8
100
AcDbEntity
  8
图框
370
    -3
100
AcDbLine
 10
848.3346124496179
 20
675.5347692601515
 30
0.0
 11
848.3346124496179
 21
685.0161882398658
 31
0.0
1001
AcDbBlockRepETag
1070
     1
1071
       50
1005
4049B
  0
LINE
  5
4049C
330
10FE8
100
AcDbEntity
  8
图框
370
    -3
100
AcDbLine
 10
854.0454927516588
 20
675.5347692601515
 30
0.0
 11
854.0454927516588
 21
685.0161882398658
 31
0.0
1001
AcDbBlockRepETag
1070
     1
1071
       51
1005
4049C
  0
LINE
  5
4049D
330
10FE8
100
AcDbEntity
  8
图框
370
    -3
100
AcDbLine
 10
861.5351874539182
 20
675.5347692601515
 30
0.0
 11
861.5351874539182
 21
686.7901958362482
 31
0.0
1001
AcDbBlockRepETag
1070
     1
1071
       52
1005
4049D
  0
MTEXT
  5
4049E
330
10FE8
100
AcDbEntity
  8
图框
 62
     6
100
AcDbMText
 10
1105.329704038389
 20
678.859919059449
 30
0.0
 40
2.651776162684904
 41
2.557913877927211
 71
     1
 72
     5
  1
6
  7
Romans字体
 73
     1
 44
1.0
1001
AcDbBlockRepETag
1070
     1
1071
       53
1005
4049E
  0
LINE
  5
4049F
330
10FE8
100
AcDbEntity
  8
图框
 62
     6
100
AcDbLine
 10
1081.088565155284
 20
679.0347692601516
 30
0.0
 11
1081.088565155284
 21
675.5347692601515
 31
0.0
1001
AcDbBlockRepETag
1070
     1
1071
       54
1005
4049F
  0
MTEXT
  5
404A0
330
10FE8
100
AcDbEntity
  8
图框
 62
     6
100
AcDbMText
 10
1055.900596365941
 20
678.859919059449
 30
0.0
 40
2.651776162684904
 41
2.557913877927211
 71
     1
 72
     5
  1
5
  7
Romans字体
 73
     1
 44
1.0
1001
AcDbBlockRepETag
1070
     1
1071
       55
1005
404A0
  0
LINE
  5
404A1
330
10FE8
100
AcDbEntity
  8
图框
 62
     6
100
AcDbLine
 10
1031.553386436349
 20
679.0347692601516
 30
0.0
 11
1031.553386436349
 21
675.5347692601515
 31
0.0
1001
AcDbBlockRepETag
1070
     1
1071
       56
1005
404A1
  0
MTEXT
  5
404A2
330
10FE8
100
AcDbEntity
  8
图框
 62
     6
100
AcDbMText
 10
1006.36541764698
 20
678.7312083656147
 30
0.0
 40
2.651776162684904
 41
2.557913877927211
 71
     1
 72
     5
  1
4
  7
Romans字体
 73
     1
 44
1.0
1001
AcDbBlockRepETag
1070
     1
1071
       57
1005
404A2
  0
LINE
  5
404A3
330
10FE8
100
AcDbEntity
  8
图框
 62
     6
100
AcDbLine
 10
982.0182077173887
 20
679.0347692601516
 30
0.0
 11
982.0182077173887
 21
675.5347692601515
 31
0.0
1001
AcDbBlockRepETag
1070
     1
1071
       58
1005
404A3
  0
MTEXT
  5
404A4
330
10FE8
100
AcDbEntity
  8
图框
 62
     6
100
AcDbMText
 10
956.8302389280352
 20
678.859919059449
 30
0.0
 40
2.651776162684904
 41
2.557913877927211
 71
     1
 72
     5
  1
3
  7
Romans字体
 73
     1
 44
1.0
1001
AcDbBlockRepETag
1070
     1
1071
       59
1005
404A4
  0
LINE
  5
404A5
330
10FE8
100
AcDbEntity
  8
图框
 62
     6
100
AcDbLine
 10
932.4830289984245
 20
679.0347692601516
 30
0.0
 11
932.4830289984245
 21
675.5347692601515
 31
0.0
1001
AcDbBlockRepETag
1070
     1
1071
       60
1005
404A5
  0
MTEXT
  5
404A6
330
10FE8
100
AcDbEntity
  8
图框
 62
     6
100
AcDbMText
 10
907.295060209082
 20
678.859919059449
 30
0.0
 40
2.651776162684904
 41
2.557913877927211
 71
     1
 72
     5
  1
2
  7
Romans字体
 73
     1
 44
1.0
1001
AcDbBlockRepETag
1070
     1
1071
       61
1005
404A6
  0
LINE
  5
404A7
330
10FE8
100
AcDbEntity
  8
图框
 62
     6
100
AcDbLine
 10
882.9478502794648
 20
678.7962435131815
 30
0.0
 11
882.9478502794648
 21
675.5347692601515
 31
0.0
1001
AcDbBlockRepETag
1070
     1
1071
       62
1005
404A7
  0
MTEXT
  5
404A8
330
10FE8
100
AcDbEntity
  8
图框
 62
     6
100
AcDbMText
 10
862.6286629643733
 20
678.859919059449
 30
0.0
 40
2.651776162684904
 41
2.557913877927211
 71
     1
 72
     5
  1
1
  7
Romans字体
 73
     1
 44
1.0
1001
AcDbBlockRepETag
1070
     1
1071
       63
1005
404A8
  0
LINE
  5
404A9
330
10FE8
100
AcDbEntity
  8
图框
370
    -3
100
AcDbLine
 10
836.9128518455394
 20
675.0207195125422
 30
0.0
 11
836.9128518455394
 21
686.7901958362482
 31
0.0
1001
AcDbBlockRepETag
1070
     1
1071
       64
1005
404A9
  0
LINE
  5
404AA
330
10FE8
100
AcDbEntity
  8
图框
370
    50
100
AcDbLine
 10
836.9128518455394
 20
675.5347692601515
 30
0.0
 11
1126.928502610363
 21
675.5347692601515
 31
0.0
1001
AcDbBlockRepETag
1070
     1
1071
       65
1005
404AA
  0
LINE
  5
404AB
330
10FE8
100
AcDbEntity
  8
图框
370
    -3
100
AcDbLine
 10
842.6237321475781
 20
675.5347692601515
 30
0.0
 11
842.6237321475781
 21
686.7901958362482
 31
0.0
1001
AcDbBlockRepETag
1070
     1
1071
       66
1005
404AB
  0
LINE
  5
404AC
330
10FE8
100
AcDbEntity
  8
图框
370
    -3
100
AcDbLine
 10
848.3346124496179
 20
675.5347692601515
 30
0.0
 11
848.3346124496179
 21
686.7901958362482
 31
0.0
1001
AcDbBlockRepETag
1070
     1
1071
       67
1005
404AC
  0
MTEXT
  5
404AD
102
{ACAD_XDICTIONARY
360
4056A
102
}
330
10FE8
100
AcDbEntity
  8
图框
100
AcDbMText
 10
857.7903401027889
 20
686.7901958362482
 30
0.0
 40
1.958998408821398
 41
11.25542657609672
 71
     4
 72
     5
  1
\pi2.8203;档案员{\H0.7x;\P\pi1.4159;\Fromans|c134;Filing Clerk\fFangSong_GB2312|b0|i0|c134|p49; }
 11
-0.0000000000000002
 21
-1.0
 31
0.0
 73
     1
 44
1.0
1001
AcDbBlockRepETag
1070
     1
1071
       68
1005
404AD
1001
ACAD
1000
ACAD_MTEXT_DEFINED_HEIGHT_BEGIN
1070
    46
1040
7.489694702258906
1000
ACAD_MTEXT_DEFINED_HEIGHT_END
  0
MTEXT
  5
404AE
102
{ACAD_XDICTIONARY
360
4056C
102
}
330
10FE8
100
AcDbEntity
  8
图框
100
AcDbMText
 10
845.479172298598
 20
686.7901958362482
 30
0.0
 40
1.958998408821398
 41
11.25542657609672
 71
     4
 72
     5
  1
\pi0.7115;日期{\Fromans|c134;/Date}
 11
-0.0000000000000002
 21
-1.0
 31
0.0
 73
     1
 44
1.0
1001
AcDbBlockRepETag
1070
     1
1071
       69
1005
404AE
1001
ACAD
1000
ACAD_MTEXT_DEFINED_HEIGHT_BEGIN
1070
    46
1040
5.710880302039671
1000
ACAD_MTEXT_DEFINED_HEIGHT_END
  0
LINE
  5
404AF
330
10FE8
100
AcDbEntity
  8
图框
370
    -3
100
AcDbLine
 10
854.0454927516588
 20
675.5347692601515
 30
0.0
 11
854.0454927516588
 21
686.7901958362482
 31
0.0
1001
AcDbBlockRepETag
1070
     1
1071
       70
1005
404AF
  0
LINE
  5
404B0
330
10FE8
100
AcDbEntity
  8
图框
370
    -3
100
AcDbLine
 10
1036.653967466372
 20
531.3291676047914
 30
0.0
 11
1036.653967466372
 21
484.0126019753161
 31
0.0
1001
AcDbBlockRepETag
1070
     1
1071
       71
1005
404B0
  0
LINE
  5
404B1
330
10FE8
100
AcDbEntity
  8
图框
370
    -3
100
AcDbLine
 10
1047.483315900763
 20
507.6708838011533
 30
0.0
 11
1047.483315900763
 21
491.8986945987308
 31
0.0
1001
AcDbBlockRepETag
1070
     1
1071
       72
1005
404B1
  0
LINE
  5
404B2
330
10FE8
100
AcDbEntity
  8
图框
370
    -3
100
AcDbLine
 10
1058.312664335153
 20
507.6708838011533
 30
0.0
 11
1058.312664335153
 21
484.0347692601515
 31
0.0
1001
AcDbBlockRepETag
1070
     1
1071
       73
1005
404B2
  0
LINE
  5
404B3
330
10FE8
100
AcDbEntity
  8
图框
370
    25
100
AcDbLine
 10
1048.474135214456
 20
488.1095628329926
 30
0.0
 11
1054.946420288459
 21
488.1095628329926
 31
0.0
1001
AcDbBlockRepETag
1070
     1
1071
       74
1005
404B3
  0
LINE
  5
404B4
330
10FE8
100
AcDbEntity
  8
图框
370
    25
100
AcDbLine
 10
1054.232527365989
 20
487.0761716842634
 30
0.0
 11
1049.156490914508
 21
486.4576273751
 31
0.0
1001
AcDbBlockRepETag
1070
     1
1071
       75
1005
404B4
  0
LINE
  5
404B5
330
10FE8
100
AcDbEntity
  8
图框
370
    25
100
AcDbLine
 10
1054.232527365989
 20
489.1429539817209
 30
0.0
 11
1049.156490914508
 21
489.7614982908846
 31
0.0
1001
AcDbBlockRepETag
1070
     1
1071
       76
1005
404B5
  0
LINE
  5
404B6
330
10FE8
100
AcDbEntity
  8
图框
370
    25
100
AcDbLine
 10
1049.156490914508
 20
489.7614982908846
 30
0.0
 11
1049.156490914508
 21
486.4576273751
 31
0.0
1001
AcDbBlockRepETag
1070
     1
1071
       77
1005
404B6
  0
LINE
  5
404B7
330
10FE8
100
AcDbEntity
  8
图框
370
    25
100
AcDbLine
 10
1054.232527365989
 20
489.1429539817209
 30
0.0
 11
1054.232527365989
 21
487.0761716842634
 31
0.0
1001
AcDbBlockRepETag
1070
     1
1071
       78
1005
404B7
  0
CIRCLE
  5
404B8
330
10FE8
100
AcDbEntity
  8
图框
370
    25
100
AcDbCircle
 10
1042.502700458579
 20
488.1095628329926
 30
0.0
 40
1.651935457891863
1001
AcDbBlockRepETag
1070
     1
1071
       79
1005
404B8
  0
CIRCLE
  5
404B9
330
10FE8
100
AcDbEntity
  8
图框
370
    25
100
AcDbCircle
 10
1042.502700458579
 20
488.1095628329926
 30
0.0
 40
1.033391148728775
1001
AcDbBlockRepETag
1070
     1
1071
       80
1005
404B9
  0
LINE
  5
404BA
330
10FE8
100
AcDbEntity
  8
图框
370
    25
100
AcDbLine
 10
1040.136872078216
 20
488.1095628329926
 30
0.0
 11
1044.868528838943
 21
488.1095628329926
 31
0.0
1001
AcDbBlockRepETag
1070
     1
1071
       81
1005
404BA
  0
LINE
  5
404BB
330
10FE8
100
AcDbEntity
  8
图框
370
    25
100
AcDbLine
 10
1042.502700458579
 20
490.475391213355
 30
0.0
 11
1042.502700458579
 21
485.743734452629
 31
0.0
1001
AcDbBlockRepETag
1070
     1
1071
       82
1005
404BB
  0
LINE
  5
404BC
330
10FE8
100
AcDbEntity
  8
图框
370
    -3
100
AcDbLine
 10
1069.142012769546
 20
507.6708838011533
 30
0.0
 11
1069.142012769546
 21
491.8986945987308
 31
0.0
1001
AcDbBlockRepETag
1070
     1
1071
       83
1005
404BC
  0
MTEXT
  5
404BD
330
10FE8
100
AcDbEntity
  8
图框
100
AcDbMText
 10
1086.643735910939
 20
526.8006839312707
 30
0.0
 40
2.154898249703542
 41
13.34474941400573
 71
     5
 72
     5
  1
图号{\Ftxt|c134;\P\Fromans|c134;\W0.65;Drawing No.}
 73
     1
 44
1.0
1001
AcDbBlockRepETag
1070
     1
1071
       84
1005
404BD
1001
ACAD
1000
ACAD_MTEXT_DEFINED_HEIGHT_BEGIN
1070
    46
1040
9.056967347041775
1000
ACAD_MTEXT_DEFINED_HEIGHT_END
  0
LINE
  5
404BE
330
10FE8
100
AcDbEntity
  8
图框
370
    -3
100
AcDbLine
 10
1093.316110617942
 20
531.3291676047914
 30
0.0
 11
1093.316110617942
 21
495.8417418993347
 31
0.0
1001
AcDbBlockRepETag
1070
     1
1071
       85
1005
404BE
  0
LINE
  5
404BF
330
10FE8
100
AcDbEntity
  8
图框
370
    -3
100
AcDbLine
 10
1047.473969770481
 20
531.3291676047914
 30
0.0
 11
1047.473969770481
 21
507.6708838011533
 31
0.0
1001
AcDbBlockRepETag
1070
     1
1071
       86
1005
404BF
  0
MTEXT
  5
404C0
330
10FE8
100
AcDbEntity
  8
图框
100
AcDbMText
 10
1063.72733855235
 20
503.7278365005473
 30
0.0
 40
2.252848170144607
 41
10.82934843439208
 71
     5
 72
     5
  1
重量\P{\Fromans|c134;Weight}
 73
     1
 44
1.0
1001
AcDbBlockRepETag
1070
     1
1071
       87
1005
404C0
1001
ACAD
1000
ACAD_MTEXT_DEFINED_HEIGHT_BEGIN
1070
    46
1040
7.886094601212128
1000
ACAD_MTEXT_DEFINED_HEIGHT_END
  0
LINE
  5
404C1
330
10FE8
100
AcDbEntity
  8
图框
370
    -3
100
AcDbLine
 10
1036.653967466372
 20
519.5000257029746
 30
0.0
 11
1079.971361203936
 21
519.5000257029746
 31
0.0
1001
AcDbBlockRepETag
1070
     1
1071
       88
1005
404C1
  0
MTEXT
  5
404C2
330
10FE8
100
AcDbEntity
  8
图框
100
AcDbMText
 10
1074.556686986741
 20
503.7278365005473
 30
0.0
 40
2.252848170144607
 41
10.82934843438984
 71
     5
 72
     5
  1
数量\P{\Fromans|c134;Qty.}
 73
     1
 44
1.0
1001
AcDbBlockRepETag
1070
     1
1071
       89
1005
404C2
1001
ACAD
1000
ACAD_MTEXT_DEFINED_HEIGHT_BEGIN
1070
    46
1040
7.886094601212141
1000
ACAD_MTEXT_DEFINED_HEIGHT_END
  0
LINE
  5
404C3
330
10FE8
100
AcDbEntity
  8
图框
370
    -3
100
AcDbLine
 10
1079.971361203936
 20
495.8417418993347
 30
0.0
 11
1126.928502610363
 21
495.8417418993342
 31
0.0
1001
AcDbBlockRepETag
1070
     1
1071
       90
1005
404C3
  0
LINE
  5
404C4
330
10FE8
100
AcDbEntity
  8
图框
370
    -3
100
AcDbLine
 10
1079.971361203936
 20
504.7132992040975
 30
0.0
 11
1126.928502610363
 21
504.7132992040975
 31
0.0
1001
AcDbBlockRepETag
1070
     1
1071
       91
1005
404C4
  0
MTEXT
  5
404C5
330
10FE8
100
AcDbEntity
  8
图框
100
AcDbMText
 10
1052.893317052817
 20
503.7278365005473
 30
0.0
 40
2.252848170144607
 41
10.83869456467139
 71
     5
 72
     5
  1
版本\P{\Fromans|c134;REV.}
 73
     1
 44
1.0
1001
AcDbBlockRepETag
1070
     1
1071
       92
1005
404C5
1001
ACAD
1000
ACAD_MTEXT_DEFINED_HEIGHT_BEGIN
1070
    46
1040
7.886094601212101
1000
ACAD_MTEXT_DEFINED_HEIGHT_END
  0
MTEXT
  5
404C6
330
10FE8
100
AcDbEntity
  8
图框
100
AcDbMText
 10
1042.068641683568
 20
503.7278365005473
 30
0.0
 40
2.252848170144607
 41
10.8293484343908
 71
     5
 72
     5
  1
比例\P{\Fromans|c134;Scale}
 73
     1
 44
1.0
1001
AcDbBlockRepETag
1070
     1
1071
       93
1005
404C6
1001
ACAD
1000
ACAD_MTEXT_DEFINED_HEIGHT_BEGIN
1070
    46
1040
7.886094601212136
1000
ACAD_MTEXT_DEFINED_HEIGHT_END
  0
LINE
  5
404C7
330
10FE8
100
AcDbEntity
  8
图框
370
    -3
100
AcDbLine
 10
1036.653967466372
 20
507.6708838011533
 30
0.0
 11
1079.971361203936
 21
507.6708838011533
 31
0.0
1001
AcDbBlockRepETag
1070
     1
1071
       94
1005
404C7
  0
LINE
  5
404C8
330
10FE8
100
AcDbEntity
  8
图框
370
    -3
100
AcDbLine
 10
1036.653967466372
 20
491.8986945987308
 30
0.0
 11
1079.971361203936
 21
491.8986945987308
 31
0.0
1001
AcDbBlockRepETag
1070
     1
1071
       95
1005
404C8
  0
LINE
  5
404C9
330
10FE8
100
AcDbEntity
  8
图框
370
    -3
100
AcDbLine
 10
1079.971361203936
 20
531.3291676047914
 30
0.0
 11
1079.971361203936
 21
484.0125999975168
 31
0.0
1001
AcDbBlockRepETag
1070
     1
1071
       96
1005
404C9
  0
MTEXT
  5
404CA
330
10FE8
100
AcDbEntity
  8
图框
100
AcDbMText
 10
1042.063968618426
 20
525.4145966538832
 30
0.0
 40
2.252848170144607
 41
10.82000230410933
 71
     5
 72
     5
  1
表面处理\P{\Fromans|c134;Finish}
 73
     1
 44
1.0
1001
AcDbBlockRepETag
1070
     1
1071
       97
1005
404CA
1001
ACAD
1000
ACAD_MTEXT_DEFINED_HEIGHT_BEGIN
1070
    46
1040
11.82914190181708
1000
ACAD_MTEXT_DEFINED_HEIGHT_END
  0
MTEXT
  5
404CB
330
10FE8
100
AcDbEntity
  8
图框
100
AcDbMText
 10
1042.063968618426
 20
513.5854547520639
 30
0.0
 40
2.252848170144607
 41
10.82000230410933
 71
     5
 72
     5
  1
材料\P{\Fromans|c134;Material}
 73
     1
 44
1.0
1001
AcDbBlockRepETag
1070
     1
1071
       98
1005
404CB
1001
ACAD
1000
ACAD_MTEXT_DEFINED_HEIGHT_BEGIN
1070
    46
1040
11.8291419018212
1000
ACAD_MTEXT_DEFINED_HEIGHT_END
  0
LINE
  5
404CC
330
10FE8
100
AcDbEntity
  8
图框
370
    -3
100
AcDbLine
 10
1079.971361203936
 20
522.27220025775
 30
0.0
 11
1126.928502610363
 21
522.27220025775
 31
0.0
1001
AcDbBlockRepETag
1070
     1
1071
       99
1005
404CC
  0
LINE
  5
404CD
330
10FE8
100
AcDbEntity
  8
图框
370
    -3
100
AcDbLine
 10
1079.971361203936
 20
513.5854547520641
 30
0.0
 11
1126.928502610363
 21
513.5854547520639
 31
0.0
1001
AcDbBlockRepETag
1070
     1
1071
      100
1005
404CD
  0
MTEXT
  5
404CE
330
10FE8
100
AcDbEntity
  8
图框
100
AcDbMText
 10
1086.643735910939
 20
517.9288275049072
 30
0.0
 40
1.958998408821398
 41
13.34474941400573
 71
     5
 72
     5
  1
产品代号\P{\Fromans|c134;Part Code}
 73
     1
 44
1.0
1001
AcDbBlockRepETag
1070
     1
1071
      101
1005
404CE
1001
ACAD
1000
ACAD_MTEXT_DEFINED_HEIGHT_BEGIN
1070
    46
1040
8.686745505685811
1000
ACAD_MTEXT_DEFINED_HEIGHT_END
  0
LINE
  5
404CF
330
10FE8
100
AcDbEntity
  8
图框
370
    -3
100
AcDbLine
 10
946.9285026103634
 20
525.7982263931411
 30
0.0
 11
1036.653967466372
 21
525.7982263931411
 31
0.0
1001
AcDbBlockRepETag
1070
     1
1071
      102
1005
404CF
  0
LINE
  5
404D0
330
10FE8
100
AcDbEntity
  8
图框
370
    -3
100
AcDbLine
 10
946.9285026103634
 20
520.2672851814959
 30
0.0
 11
1036.653967466372
 21
520.2672851814959
 31
0.0
1001
AcDbBlockRepETag
1070
     1
1071
      103
1005
404D0
  0
LINE
  5
404D1
330
10FE8
100
AcDbEntity
  8
图框
370
    35
100
AcDbLine
 10
946.9285026103634
 20
531.3291676047914
 30
0.0
 11
1126.928502610363
 21
531.3291676047914
 31
0.0
1001
AcDbBlockRepETag
1070
     1
1071
      104
1005
404D1
  0
LINE
  5
404D2
330
10FE8
100
AcDbEntity
  8
图框
370
    -3
100
AcDbLine
 10
990.6727612856927
 20
509.2054027581959
 30
0.0
 11
990.6727612856927
 21
484.0347692601515
 31
0.0
1001
AcDbBlockRepETag
1070
     1
1071
      105
1005
404D2
  0
MTEXT
  5
404D3
102
{ACAD_XDICTIONARY
360
4056E
102
}
330
10FE8
100
AcDbEntity
  8
图框
100
AcDbMText
 10
997.1628169651232
 20
499.816589978722
 30
0.0
 40
2.252848170144607
 41
12.98011135886052
 71
     5
 72
     5
  1
{\fFangSong_GB2312|b0|i0|c134|p49;标准化}\PStand.
  7
Romans字体
 73
     1
 44
1.0
1001
AcDbBlockRepETag
1070
     1
1071
      106
1005
404D3
1001
ACAD
1000
ACAD_MTEXT_DEFINED_HEIGHT_BEGIN
1070
    46
1040
6.19230880992475
1000
ACAD_MTEXT_DEFINED_HEIGHT_END
  0
LINE
  5
404D4
330
10FE8
100
AcDbEntity
  8
图框
370
    -3
100
AcDbLine
 10
975.4103773808022
 20
509.2054027581959
 30
0.0
 11
975.4103773808022
 21
484.0347692601515
 31
0.0
1001
AcDbBlockRepETag
1070
     1
1071
      107
1005
404D4
  0
MTEXT
  5
404D5
330
10FE8
100
AcDbEntity
  8
图框
100
AcDbMText
 10
984.5089229802068
 20
511.9708733640202
 30
0.0
 40
2.448748011026752
 41
38.287899328693
 71
     5
 72
     5
  1
  变更描述{\Fromans|c134;/Description}
 73
     1
 44
1.0
1001
AcDbBlockRepETag
1070
     1
1071
      108
1005
404D5
1001
ACAD
1000
ACAD_MTEXT_DEFINED_HEIGHT_BEGIN
1070
    46
1040
5.530941211648832
1000
ACAD_MTEXT_DEFINED_HEIGHT_END
  0
MTEXT
  5
404D6
102
{ACAD_XDICTIONARY
360
40570
102
}
330
10FE8
100
AcDbEntity
  8
图框
100
AcDbMText
 10
1012.466086049227
 20
511.9708733640202
 30
0.0
 40
1.958998408821398
 41
17.6264268093469
 71
     5
 72
     5
  1
签名\P{\Fromans|c134;Signature} 
 73
     1
 44
1.0
1001
AcDbBlockRepETag
1070
     1
1071
      109
1005
404D6
1001
ACAD
1000
ACAD_MTEXT_DEFINED_HEIGHT_BEGIN
1070
    46
1040
5.530941211648825
1000
ACAD_MTEXT_DEFINED_HEIGHT_END
  0
MTEXT
  5
404D7
102
{ACAD_XDICTIONARY
360
40572
102
}
330
10FE8
100
AcDbEntity
  8
图框
100
AcDbMText
 10
960.7558556394856
 20
511.9708733640202
 30
0.0
 40
1.958998408821398
 41
9.218235352749283
 71
     5
 72
     5
  1
处数\P{\Fromans|c134;Number }
 73
     1
 44
1.0
1001
AcDbBlockRepETag
1070
     1
1071
      110
1005
404D7
1001
ACAD
1000
ACAD_MTEXT_DEFINED_HEIGHT_BEGIN
1070
    46
1040
5.530941211648841
1000
ACAD_MTEXT_DEFINED_HEIGHT_END
  0
LINE
  5
404D8
330
10FE8
100
AcDbEntity
  8
图框
370
    -3
100
AcDbLine
 10
946.9285026103634
 20
514.7363439698449
 30
0.0
 11
1036.653967466372
 21
514.7363439698449
 31
0.0
1001
AcDbBlockRepETag
1070
     1
1071
      111
1005
404D8
  0
LINE
  5
404D9
330
10FE8
100
AcDbEntity
  8
图框
370
    -3
100
AcDbLine
 10
946.9285026103634
 20
509.2054027581959
 30
0.0
 11
1036.653967466372
 21
509.2054027581959
 31
0.0
1001
AcDbBlockRepETag
1070
     1
1071
      112
1005
404D9
  0
LINE
  5
404DA
330
10FE8
100
AcDbEntity
  8
图框
370
    -3
100
AcDbLine
 10
946.9285026103634
 20
502.9127443836848
 30
0.0
 11
1036.653967466372
 21
502.9127443836848
 31
0.0
1001
AcDbBlockRepETag
1070
     1
1071
      113
1005
404DA
  0
LINE
  5
404DB
330
10FE8
100
AcDbEntity
  8
图框
370
    -3
100
AcDbLine
 10
946.9285026103634
 20
496.620086009173
 30
0.0
 11
1036.653967466372
 21
496.620086009173
 31
0.0
1001
AcDbBlockRepETag
1070
     1
1071
      114
1005
404DB
  0
LINE
  5
404DC
330
10FE8
100
AcDbEntity
  8
图框
370
    35
380
     1
100
AcDbLine
 10
946.9285026103634
 20
531.3291676047914
 30
0.0
 11
946.9285026103634
 21
484.0347692601515
 31
0.0
1001
AcDbBlockRepETag
1070
     1
1071
      115
1005
404DC
  0
LINE
  5
404DD
330
10FE8
100
AcDbEntity
  8
图框
370
    -3
100
AcDbLine
 10
1021.301636813399
 20
531.3291676047914
 30
0.0
 11
1021.301636813399
 21
484.0347692601515
 31
0.0
1001
AcDbBlockRepETag
1070
     1
1071
      116
1005
404DD
  0
LINE
  5
404DE
330
10FE8
100
AcDbEntity
  8
图框
370
    -3
100
AcDbLine
 10
1003.652872644553
 20
531.3291676047914
 30
0.0
 11
1003.652872644553
 21
484.0347692601515
 31
0.0
1001
AcDbBlockRepETag
1070
     1
1071
      117
1005
404DE
  0
LINE
  5
404DF
330
10FE8
100
AcDbEntity
  8
图框
370
    -3
100
AcDbLine
 10
965.3649733158603
 20
531.3291676047914
 30
0.0
 11
965.3649733158603
 21
509.2054027581959
 31
0.0
1001
AcDbBlockRepETag
1070
     1
1071
      118
1005
404DF
  0
LINE
  5
404E0
330
10FE8
100
AcDbEntity
  8
图框
370
    -3
100
AcDbLine
 10
956.1467379631109
 20
531.3291676047914
 30
0.0
 11
956.1467379631109
 21
509.2054027581959
 31
0.0
1001
AcDbBlockRepETag
1070
     1
1071
      119
1005
404E0
  0
MTEXT
  5
404E1
102
{ACAD_XDICTIONARY
360
40574
102
}
330
10FE8
100
AcDbEntity
  8
图框
100
AcDbMText
 10
951.537620286737
 20
511.9708733640202
 30
0.0
 40
1.958998408821398
 41
9.218235352747692
 71
     5
 72
     5
  1
标记\P{\Fromans|c134;Mark}
 73
     1
 44
1.0
1001
AcDbBlockRepETag
1070
     1
1071
      120
1005
404E1
1001
ACAD
1000
ACAD_MTEXT_DEFINED_HEIGHT_BEGIN
1070
    46
1040
5.530941211648832
1000
ACAD_MTEXT_DEFINED_HEIGHT_END
  0
MTEXT
  5
404E2
102
{ACAD_XDICTIONARY
360
40576
102
}
330
10FE8
100
AcDbEntity
  8
图框
100
AcDbMText
 10
953.4185582897936
 20
493.4737568219182
 30
0.0
 40
2.252848170144607
 41
12.98011135886041
 71
     5
 72
     5
  1
审核\P{\Fromans|c134;Checked}
 73
     1
 44
1.0
1001
AcDbBlockRepETag
1070
     1
1071
      121
1005
404E2
1001
ACAD
1000
ACAD_MTEXT_DEFINED_HEIGHT_BEGIN
1070
    46
1040
6.292658374510382
1000
ACAD_MTEXT_DEFINED_HEIGHT_END
  0
MTEXT
  5
404E3
102
{ACAD_XDICTIONARY
360
40578
102
}
330
10FE8
100
AcDbEntity
  8
图框
100
AcDbMText
 10
953.4185582897936
 20
499.8775635376777
 30
0.0
 40
2.252848170144607
 41
12.98011135886041
 71
     5
 72
     5
  1
绘图\P{\Fromans|c134;Drawn\Ftxt|c134; }
 73
     1
 44
1.0
1001
AcDbBlockRepETag
1070
     1
1071
      122
1005
404E3
1001
ACAD
1000
ACAD_MTEXT_DEFINED_HEIGHT_BEGIN
1070
    46
1040
6.070361692014189
1000
ACAD_MTEXT_DEFINED_HEIGHT_END
  0
ARC
  5
404E4
330
10FE8
100
AcDbEntity
  8
图框
 62
     4
370
    35
100
AcDbCircle
 10
1086.900627017421
 20
490.0179944151195
 30
0.0
 40
4.063310408393665
100
AcDbArc
 50
18.95237904564806
 51
161.0476209543519
1001
AcDbBlockRepETag
1070
     1
1071
      123
1005
404E4
  0
ARC
  5
404E5
330
10FE8
100
AcDbEntity
  8
图框
 62
     4
370
    35
100
AcDbCircle
 10
1086.900627017421
 20
490.0179944151195
 30
0.0
 40
4.063310408393665
100
AcDbArc
 50
198.952379045648
 51
341.0476209543519
1001
AcDbBlockRepETag
1070
     1
1071
      124
1005
404E5
  0
LINE
  5
404E6
330
10FE8
100
AcDbEntity
  8
图框
 62
     4
370
    35
100
AcDbLine
 10
1083.057593369548
 20
488.6983035966752
 30
0.0
 11
1090.74366066529
 21
488.6983035966752
 31
0.0
1001
AcDbBlockRepETag
1070
     1
1071
      125
1005
404E6
  0
LINE
  5
404E7
330
10FE8
100
AcDbEntity
  8
图框
 62
     4
370
    35
100
AcDbLine
 10
1083.057593369548
 20
491.3376852335652
 30
0.0
 11
1090.74366066529
 21
491.3376852335652
 31
0.0
1001
AcDbBlockRepETag
1070
     1
1071
      126
1005
404E7
  0
MTEXT
  5
404E8
330
10FE8
100
AcDbEntity
  8
图框
 62
     1
370
    20
100
AcDbMText
 10
1083.034582879669
 20
491.0506288081688
 30
0.0
 40
2.005930044038334
 41
5.047240019334847
 71
     1
 72
     5
  1
{\fArial|b0|i0|c0|p34;W}
  7
Chinese
 73
     1
 44
1.0
1001
AcDbBlockRepETag
1070
     1
1071
      127
1005
404E8
  0
LINE
  5
404E9
330
10FE8
100
AcDbEntity
  8
图框
370
    -3
100
AcDbLine
 10
946.9285026103634
 20
490.327427634663
 30
0.0
 11
1036.653967466372
 21
490.327427634663
 31
0.0
1001
AcDbBlockRepETag
1070
     1
1071
      128
1005
404E9
  0
LINE
  5
404EA
330
10FE8
100
AcDbEntity
  8
图框
370
    -3
100
AcDbLine
 10
959.9086139692238
 20
509.2054027581959
 30
0.0
 11
959.9086139692238
 21
484.0347692601515
 31
0.0
1001
AcDbBlockRepETag
1070
     1
1071
      129
1005
404EA
  0
MTEXT
  5
404EB
330
10FE8
100
AcDbEntity
  8
图框
100
AcDbMText
 10
967.6594956750129
 20
506.0590735709403
 30
0.0
 40
2.252848170144607
 41
15.50176341157869
 71
     5
 72
     5
  1
姓名{\Fromans|c134;/Name\Ftxt|c134; }
 73
     1
 44
1.0
1001
AcDbBlockRepETag
1070
     1
1071
      130
1005
404EB
1001
ACAD
1000
ACAD_MTEXT_DEFINED_HEIGHT_BEGIN
1070
    46
1040
6.292658374511246
1000
ACAD_MTEXT_DEFINED_HEIGHT_END
  0
MTEXT
  5
404EC
330
10FE8
100
AcDbEntity
  8
图框
100
AcDbMText
 10
983.0415693332477
 20
506.0590735709403
 30
0.0
 40
2.252848170144607
 41
15.26238390489042
 71
     5
 72
     5
  1
日期{\Fromans|c134;/Date}
 73
     1
 44
1.0
1001
AcDbBlockRepETag
1070
     1
1071
      131
1005
404EC
1001
ACAD
1000
ACAD_MTEXT_DEFINED_HEIGHT_BEGIN
1070
    46
1040
6.2926583745112
1000
ACAD_MTEXT_DEFINED_HEIGHT_END
  0
LINE
  5
404ED
330
10FE8
100
AcDbEntity
  8
图框
370
    -3
100
AcDbLine
 10
946.9285026103634
 20
509.2054027581959
 30
0.0
 11
959.9086139692238
 21
502.9127443836848
 31
0.0
1001
AcDbBlockRepETag
1070
     1
1071
      132
1005
404ED
  0
MTEXT
  5
404EE
330
10FE8
100
AcDbEntity
  8
图框
100
AcDbMText
 10
1012.931405110086
 20
506.0185715840725
 30
0.0
 40
2.252848170144607
 41
16.93492221063566
 71
     5
 72
     5
  1
姓名{\Fromans|c134;/Name}
 73
     1
 44
1.0
1001
AcDbBlockRepETag
1070
     1
1071
      133
1005
404EE
  0
MTEXT
  5
404EF
330
10FE8
100
AcDbEntity
  8
图框
100
AcDbMText
 10
1028.977802139886
 20
506.0590735709403
 30
0.0
 40
2.252848170144607
 41
15.35233065297283
 71
     5
 72
     5
  1
日期{\Fromans|c134;/Date}
 73
     1
 44
1.0
1001
AcDbBlockRepETag
1070
     1
1071
      134
1005
404EF
1001
ACAD
1000
ACAD_MTEXT_DEFINED_HEIGHT_BEGIN
1070
    46
1040
6.292658374511256
1000
ACAD_MTEXT_DEFINED_HEIGHT_END
  0
LINE
  5
404F0
330
10FE8
100
AcDbEntity
  8
图框
370
    -3
100
AcDbLine
 10
1003.652872644553
 20
502.9127443836848
 30
0.0
 11
990.6727612856927
 21
509.2054027581959
 31
0.0
1001
AcDbBlockRepETag
1070
     1
1071
      135
1005
404F0
  0
MTEXT
  5
404F1
102
{ACAD_XDICTIONARY
360
4057A
102
}
330
10FE8
100
AcDbEntity
  8
图框
100
AcDbMText
 10
997.1628169651232
 20
487.1810984474071
 30
0.0
 40
2.252848170144607
 41
12.98011135886052
 71
     5
 72
     5
  1
批准\P{\Fromans|c134;Approved}
 73
     1
 44
1.0
1001
AcDbBlockRepETag
1070
     1
1071
      136
1005
404F1
1001
ACAD
1000
ACAD_MTEXT_DEFINED_HEIGHT_BEGIN
1070
    46
1040
6.292658374511517
1000
ACAD_MTEXT_DEFINED_HEIGHT_END
  0
MTEXT
  5
404F2
102
{ACAD_XDICTIONARY
360
4057C
102
}
330
10FE8
100
AcDbEntity
  8
图框
100
AcDbMText
 10
953.4185582897936
 20
487.1810984474071
 30
0.0
 40
2.252848170144607
 41
12.98011135886041
 71
     5
 72
     5
  1
工艺\P{\Fromans|c134;Process}
 73
     1
 44
1.0
1001
AcDbBlockRepETag
1070
     1
1071
      137
1005
404F2
1001
ACAD
1000
ACAD_MTEXT_DEFINED_HEIGHT_BEGIN
1070
    46
1040
6.292658374511495
1000
ACAD_MTEXT_DEFINED_HEIGHT_END
  0
MTEXT
  5
404F3
102
{ACAD_XDICTIONARY
360
4057E
102
}
330
10FE8
100
AcDbEntity
  8
图框
100
AcDbMText
 10
1028.977802139886
 20
511.8287965307664
 30
0.0
 40
1.958998408821398
 41
15.3523306529728
 71
     5
 72
     5
  1
日期\P{\Fromans|c134;Date}
 73
     1
 44
1.0
1001
AcDbBlockRepETag
1070
     1
1071
      138
1005
404F3
1001
ACAD
1000
ACAD_MTEXT_DEFINED_HEIGHT_BEGIN
1070
    46
1040
5.246787545140668
1000
ACAD_MTEXT_DEFINED_HEIGHT_END
  0
MTEXT
  5
404F4
330
10FE8
100
AcDbEntity
  8
图框
100
AcDbMText
 10
1086.643735910939
 20
509.1493769780809
 30
0.0
 40
2.154898249703542
 41
13.34474941400573
 71
     5
 72
     5
  1
产品料号\P{\Fromans|c134;Part No.}
 73
     1
 44
1.0
1001
AcDbBlockRepETag
1070
     1
1071
      139
1005
404F4
1001
ACAD
1000
ACAD_MTEXT_DEFINED_HEIGHT_BEGIN
1070
    46
1040
8.87215554796615
1000
ACAD_MTEXT_DEFINED_HEIGHT_END
  0
MTEXT
  5
404F5
330
10FE8
100
AcDbEntity
  8
图框
100
AcDbMText
 10
1086.643735910939
 20
500.2775205517163
 30
0.0
 40
1.958998408821398
 41
13.34474941400573
 71
     5
 72
     5
  1
产品名称\P{\Fromans|c134;Part Name}
 73
     1
 44
1.0
1001
AcDbBlockRepETag
1070
     1
1071
      140
1005
404F5
1001
ACAD
1000
ACAD_MTEXT_DEFINED_HEIGHT_BEGIN
1070
    46
1040
8.871557304763321
1000
ACAD_MTEXT_DEFINED_HEIGHT_END
  0
LINE
  5
404F6
330
10FE8
100
AcDbEntity
  8
图框
 62
     1
370
    18
100
AcDbLine
 10
833.4128518455365
 20
690.5347692601515
 30
0.0
 11
833.4128518455365
 21
480.5347692601515
 31
0.0
1001
AcDbBlockRepETag
1070
     1
1071
      141
1005
404F6
  0
LINE
  5
404F7
330
10FE8
100
AcDbEntity
  8
图框
 62
     1
370
    18
100
AcDbLine
 10
833.4128518455365
 20
480.5347692601515
 30
0.0
 11
1130.411601781236
 21
480.5347692601515
 31
0.0
1001
AcDbBlockRepETag
1070
     1
1071
      142
1005
404F7
  0
LINE
  5
404F8
330
10FE8
100
AcDbEntity
  8
图框
 62
     1
370
    18
100
AcDbLine
 10
833.4128518455365
 20
690.5347692601515
 30
0.0
 11
1130.411601781236
 21
690.5347692601515
 31
0.0
1001
AcDbBlockRepETag
1070
     1
1071
      143
1005
404F8
  0
LINE
  5
404F9
330
10FE8
100
AcDbEntity
  8
图框
 62
     1
370
    18
100
AcDbLine
 10
1130.411601781236
 20
480.5347692601515
 30
0.0
 11
1130.411601781236
 21
690.5347692601515
 31
0.0
1001
AcDbBlockRepETag
1070
     1
1071
      144
1005
404F9
  0
LINE
  5
404FA
330
10FE8
100
AcDbEntity
  8
图框
370
    18
100
AcDbLine
 10
836.9128518455394
 20
686.7901958362482
 30
0.0
 11
861.5351874539182
 21
686.7901958362482
 31
0.0
1001
AcDbBlockRepETag
1070
     1
1071
      145
1005
404FA
  0
LINE
  5
404FB
330
10FE8
100
AcDbEntity
  8
图框
370
    50
100
AcDbLine
 10
1126.928502610363
 20
484.3410054693078
 30
0.0
 11
1126.928502610363
 21
675.5347692601515
 31
0.0
1001
AcDbBlockRepETag
1070
     1
1071
      146
1005
404FB
  0
MTEXT
  5
404FC
330
10FE8
100
AcDbEntity
  8
图框
 62
     3
100
AcDbMText
 10
1052.897990117958
 20
495.8417418993364
 30
0.0
 40
2.2528
 41
15.50176341157864
 71
     5
 72
     5
  1
V1.0
  7
Romans字体
 73
     1
 44
1.0
1001
AcDbBlockRepETag
1070
     1
1071
      147
1005
404FC
1001
ACAD
1000
ACAD_MTEXT_DEFINED_HEIGHT_BEGIN
1070
    46
1040
7.886094601211307
1000
ACAD_MTEXT_DEFINED_HEIGHT_END
  0
MTEXT
  5
404FD
330
10FE8
100
AcDbEntity
  8
图框
 62
     3
100
AcDbMText
 10
983.041569333247
 20
493.4737568219181
 30
0.0
 40
2.2528
 41
15.50176341157864
 71
     5
 72
     5
  1
{\W0.7;12.10.2014}
  7
Romans字体
 73
     1
 44
1.0
1001
AcDbBlockRepETag
1070
     1
1071
      150
1005
404FD
1001
ACAD
1000
ACAD_MTEXT_DEFINED_HEIGHT_BEGIN
1070
    46
1040
6.292658374511042
1000
ACAD_MTEXT_DEFINED_HEIGHT_END
  0
MTEXT
  5
404FE
330
10FE8
100
AcDbEntity
  8
图框
 62
     3
100
AcDbMText
 10
1028.932828765843
 20
487.1810984474071
 30
0.0
 40
2.2528
 41
15.50176341157864
 71
     5
 72
     5
  1
{\W0.7;12.10.2014}
  7
Romans字体
 73
     1
 44
1.0
1001
AcDbBlockRepETag
1070
     1
1071
      151
1005
404FE
1001
ACAD
1000
ACAD_MTEXT_DEFINED_HEIGHT_BEGIN
1070
    46
1040
6.292658374511042
1000
ACAD_MTEXT_DEFINED_HEIGHT_END
  0
ENDBLK
  5
1107F
330
10FE8
100
AcDbEntity
  8
0
100
AcDbBlockEnd
  0
BLOCK
  5
3F0E7
330
3F0E6
100
AcDbEntity
  8
0
100
AcDbBlockBegin
  2
*D2
 70
     1
 10
0.0
 20
0.0
 30
0.0
  3
*D2
  1

  0
LINE
  5
3FAFB
330
3F0E6
100
AcDbEntity
  8
0
 62
     6
370
    -2
100
AcDbLine
 10
791.0983609178073
 20
247.6719319889685
 30
0.0
 11
791.0983609178073
 21
222.3592194355736
 31
0.0
  0
LINE
  5
3FAFC
330
3F0E6
100
AcDbEntity
  8
0
 62
     6
370
    -2
100
AcDbLine
 10
828.3854908776076
 20
247.6719319889685
 30
0.0
 11
828.3854908776076
 21
222.3592194355736
 31
0.0
  0
LINE
  5
3FAFD
330
3F0E6
100
AcDbEntity
  8
0
 62
     1
370
    -2
100
AcDbLine
 10
793.0483609178073
 20
223.0092194355736
 30
0.0
 11
826.4354908776075
 21
223.0092194355736
 31
0.0
  0
SOLID
  5
3FAFE
330
3F0E6
100
AcDbEntity
  8
0
 62
     1
100
AcDbTrace
 10
793.0483609178073
 20
223.3342194355736
 30
0.0
 11
793.0483609178073
 21
222.6842194355736
 31
0.0
 12
791.0983609178073
 22
223.0092194355736
 32
0.0
 13
791.0983609178073
 23
223.0092194355736
 33
0.0
  0
SOLID
  5
3FAFF
330
3F0E6
100
AcDbEntity
  8
0
 62
     1
100
AcDbTrace
 10
826.4354908776075
 20
223.3342194355736
 30
0.0
 11
826.4354908776075
 21
222.6842194355736
 31
0.0
 12
828.3854908776076
 22
223.0092194355736
 32
0.0
 13
828.3854908776076
 23
223.0092194355736
 33
0.0
  0
MTEXT
  5
3FB00
330
3F0E6
100
AcDbEntity
  8
0
 62
     4
100
AcDbMText
 10
809.7419258977081
 20
227.1258861022402
 30
0.0
 40
2.274999999999999
 41
0.0
 71
     2
 72
     1
  1
\A1;(37.3)
  7
Romans字体
 73
     1
 44
1.0
  0
POINT
  5
3FB01
330
3F0E6
100
AcDbEntity
  8
Defpoints
 62
     0
100
AcDbPoint
 10
791.0983609178073
 20
248.3219319889686
 30
0.0
  0
POINT
  5
3FB02
330
3F0E6
100
AcDbEntity
  8
Defpoints
 62
     0
100
AcDbPoint
 10
828.3854908776076
 20
248.3219319889686
 30
0.0
  0
POINT
  5
3FB03
330
3F0E6
100
AcDbEntity
  8
Defpoints
 62
     0
100
AcDbPoint
 10
828.3854908776076
 20
223.0092194355736
 30
0.0
  0
ENDBLK
  5
3F0E8
330
3F0E6
100
AcDbEntity
  8
0
100
AcDbBlockEnd
  0
BLOCK
  5
3F190
330
3F18F
100
AcDbEntity
  8
0
100
AcDbBlockBegin
  2
*D3
 70
     1
 10
0.0
 20
0.0
 30
0.0
  3
*D3
  1

  0
LINE
  5
3FB04
330
3F18F
100
AcDbEntity
  8
DIM
 62
     6
370
    -2
100
AcDbLine
 10
847.9701233524789
 20
256.2953603963884
 30
0.0
 11
847.9701233524789
 21
234.480526933669
 31
0.0
  0
LINE
  5
3FB05
330
3F18F
100
AcDbEntity
  8
DIM
 62
     6
370
    -2
100
AcDbLine
 10
875.970123352479
 20
256.2953603963884
 30
0.0
 11
875.970123352479
 21
234.480526933669
 31
0.0
  0
LINE
  5
3FB06
330
3F18F
100
AcDbEntity
  8
DIM
 62
     1
370
    -2
100
AcDbLine
 10
850.970123352479
 20
235.680526933669
 30
0.0
 11
872.9701233524789
 21
235.680526933669
 31
0.0
  0
SOLID
  5
3FB07
330
3F18F
100
AcDbEntity
  8
DIM
 62
     1
100
AcDbTrace
 10
850.970123352479
 20
236.180526933669
 30
0.0
 11
850.970123352479
 21
235.180526933669
 31
0.0
 12
847.9701233524789
 22
235.680526933669
 32
0.0
 13
847.9701233524789
 23
235.680526933669
 33
0.0
  0
SOLID
  5
3FB08
330
3F18F
100
AcDbEntity
  8
DIM
 62
     1
100
AcDbTrace
 10
872.9701233524789
 20
236.180526933669
 30
0.0
 11
872.9701233524789
 21
235.180526933669
 31
0.0
 12
875.970123352479
 22
235.680526933669
 32
0.0
 13
875.970123352479
 23
235.680526933669
 33
0.0
  0
MTEXT
  5
3FB09
330
3F18F
100
AcDbEntity
  8
DIM
 62
     4
100
AcDbMText
 10
861.9701233524791
 20
238.980526933669
 30
0.0
 40
2.5
 41
0.0
 71
     2
 72
     1
  1
\A1;%%C28
  7
Romans字体
 73
     1
 44
1.0
  0
POINT
  5
3FB0A
330
3F18F
100
AcDbEntity
  8
Defpoints
 62
     0
100
AcDbPoint
 10
847.9701233524789
 20
256.4953603963884
 30
0.0
  0
POINT
  5
3FB0B
330
3F18F
100
AcDbEntity
  8
Defpoints
 62
     0
100
AcDbPoint
 10
875.970123352479
 20
256.4953603963884
 30
0.0
  0
POINT
  5
3FB0C
330
3F18F
100
AcDbEntity
  8
Defpoints
 62
     0
100
AcDbPoint
 10
875.970123352479
 20
235.680526933669
 30
0.0
  0
ENDBLK
  5
3F191
330
3F18F
100
AcDbEntity
  8
0
100
AcDbBlockEnd
  0
BLOCK
  5
3F19C
330
3F19B
100
AcDbEntity
  8
0
100
AcDbBlockBegin
  2
*D4
 70
     1
 10
0.0
 20
0.0
 30
0.0
  3
*D4
  1

  0
LINE
  5
3FB0D
330
3F19B
100
AcDbEntity
  8
DIM
 62
     6
370
    -2
100
AcDbLine
 10
861.9701233524791
 20
260.9953413578885
 30
0.0
 11
861.9701233524791
 21
270.7551052325181
 31
0.0
  0
LINE
  5
3FB0E
330
3F19B
100
AcDbEntity
  8
DIM
 62
     6
370
    -2
100
AcDbLine
 10
880.470123352479
 20
260.9953413578885
 30
0.0
 11
880.470123352479
 21
270.7551052325181
 31
0.0
  0
LINE
  5
3FB0F
330
3F19B
100
AcDbEntity
  8
DIM
 62
     1
370
    -2
100
AcDbLine
 10
864.9701233524789
 20
269.5551052325181
 30
0.0
 11
877.4701233524789
 21
269.5551052325181
 31
0.0
  0
SOLID
  5
3FB10
330
3F19B
100
AcDbEntity
  8
DIM
 62
     1
100
AcDbTrace
 10
864.9701233524789
 20
270.0551052325181
 30
0.0
 11
864.9701233524789
 21
269.0551052325181
 31
0.0
 12
861.9701233524791
 22
269.5551052325181
 32
0.0
 13
861.9701233524791
 23
269.5551052325181
 33
0.0
  0
SOLID
  5
3FB11
330
3F19B
100
AcDbEntity
  8
DIM
 62
     1
100
AcDbTrace
 10
877.4701233524789
 20
270.0551052325181
 30
0.0
 11
877.4701233524789
 21
269.0551052325181
 31
0.0
 12
880.470123352479
 22
269.5551052325181
 32
0.0
 13
880.470123352479
 23
269.5551052325181
 33
0.0
  0
MTEXT
  5
3FB12
330
3F19B
100
AcDbEntity
  8
DIM
 62
     4
100
AcDbMText
 10
871.2201233524789
 20
272.8551052325181
 30
0.0
 40
2.5
 41
0.0
 71
     2
 72
     1
  1
\A1;18.5
  7
Romans字体
 73
     1
 44
1.0
  0
POINT
  5
3FB13
330
3F19B
100
AcDbEntity
  8
Defpoints
 62
     0
100
AcDbPoint
 10
861.9701233524791
 20
260.7953413578885
 30
0.0
  0
POINT
  5
3FB14
330
3F19B
100
AcDbEntity
  8
Defpoints
 62
     0
100
AcDbPoint
 10
880.470123352479
 20
260.7953413578885
 30
0.0
  0
POINT
  5
3FB15
330
3F19B
100
AcDbEntity
  8
Defpoints
 62
     0
100
AcDbPoint
 10
880.470123352479
 20
269.5551052325181
 30
0.0
  0
ENDBLK
  5
3F19D
330
3F19B
100
AcDbEntity
  8
0
100
AcDbBlockEnd
  0
BLOCK
  5
3F1A8
330
3F1A7
100
AcDbEntity
  8
0
100
AcDbBlockBegin
  2
*D5
 70
     1
 10
0.0
 20
0.0
 30
0.0
  3
*D5
  1

  0
LINE
  5
3FB16
330
3F1A7
100
AcDbEntity
  8
DIM
 62
     6
370
    -2
100
AcDbLine
 10
879.7201233524789
 20
259.1953413578885
 30
0.0
 11
879.7201233524789
 21
264.3495017430376
 31
0.0
  0
LINE
  5
3FB17
330
3F1A7
100
AcDbEntity
  8
DIM
 62
     6
370
    -2
100
AcDbLine
 10
881.2201233524788
 20
259.1953413578885
 30
0.0
 11
881.2201233524788
 21
264.3495017430376
 31
0.0
  0
LINE
  5
3FB18
330
3F1A7
100
AcDbEntity
  8
DIM
 62
     1
370
    -2
100
AcDbLine
 10
884.2201233524788
 20
263.1495017430377
 30
0.0
 11
887.2201233524789
 21
263.1495017430377
 31
0.0
  0
LINE
  5
3FB19
330
3F1A7
100
AcDbEntity
  8
DIM
 62
     1
370
    -2
100
AcDbLine
 10
876.7201233524788
 20
263.1495017430377
 30
0.0
 11
866.4951233524789
 21
263.1495017430377
 31
0.0
  0
SOLID
  5
3FB1A
330
3F1A7
100
AcDbEntity
  8
DIM
 62
     1
100
AcDbTrace
 10
884.2201233524788
 20
263.6495017430377
 30
0.0
 11
884.2201233524788
 21
262.6495017430376
 31
0.0
 12
881.2201233524788
 22
263.1495017430377
 32
0.0
 13
881.2201233524788
 23
263.1495017430377
 33
0.0
  0
SOLID
  5
3FB1B
330
3F1A7
100
AcDbEntity
  8
DIM
 62
     1
100
AcDbTrace
 10
876.7201233524788
 20
263.6495017430377
 30
0.0
 11
876.7201233524788
 21
262.6495017430376
 31
0.0
 12
879.7201233524789
 22
263.1495017430377
 32
0.0
 13
879.7201233524789
 23
263.1495017430377
 33
0.0
  0
MTEXT
  5
3FB1C
330
3F1A7
100
AcDbEntity
  8
DIM
 62
     4
100
AcDbMText
 10
872.920123352479
 20
266.4495017430377
 30
0.0
 40
2.5
 41
0.0
 71
     3
 72
     1
  1
\A1;%%c1.5
  7
Romans字体
 73
     1
 44
1.0
  0
POINT
  5
3FB1D
330
3F1A7
100
AcDbEntity
  8
Defpoints
 62
     0
100
AcDbPoint
 10
879.7201233524789
 20
258.9953413578885
 30
0.0
  0
POINT
  5
3FB1E
330
3F1A7
100
AcDbEntity
  8
Defpoints
 62
     0
100
AcDbPoint
 10
881.2201233524788
 20
258.9953413578885
 30
0.0
  0
POINT
  5
3FB1F
330
3F1A7
100
AcDbEntity
  8
Defpoints
 62
     0
100
AcDbPoint
 10
881.2201233524788
 20
263.1495017430377
 30
0.0
  0
ENDBLK
  5
3F1A9
330
3F1A7
100
AcDbEntity
  8
0
100
AcDbBlockEnd
  0
BLOCK
  5
3F1B5
330
3F1B4
100
AcDbEntity
  8
0
100
AcDbBlockBegin
  2
*D6
 70
     1
 10
0.0
 20
0.0
 30
0.0
  3
*D6
  1

  0
LINE
  5
3FB20
330
3F1B4
100
AcDbEntity
  8
DIM
 62
     6
370
    -2
100
AcDbLine
 10
865.0227031715946
 20
256.9953413578886
 30
0.0
 11
870.4522751809788
 21
256.9953413578886
 31
0.0
  0
LINE
  5
3FB21
330
3F1B4
100
AcDbEntity
  8
DIM
 62
     6
370
    -2
100
AcDbLine
 10
865.4176843373786
 20
242.9953413578886
 30
0.0
 11
870.4522751809788
 21
242.9953413578886
 31
0.0
  0
LINE
  5
3FB22
330
3F1B4
100
AcDbEntity
  8
DIM
 62
     1
370
    -2
100
AcDbLine
 10
869.2522751809788
 20
253.9953413578886
 30
0.0
 11
869.2522751809788
 21
245.9953413578886
 31
0.0
  0
SOLID
  5
3FB23
330
3F1B4
100
AcDbEntity
  8
DIM
 62
     1
100
AcDbTrace
 10
868.7522751809787
 20
253.9953413578886
 30
0.0
 11
869.7522751809787
 21
253.9953413578886
 31
0.0
 12
869.2522751809788
 22
256.9953413578886
 32
0.0
 13
869.2522751809788
 23
256.9953413578886
 33
0.0
  0
SOLID
  5
3FB24
330
3F1B4
100
AcDbEntity
  8
DIM
 62
     1
100
AcDbTrace
 10
868.7522751809787
 20
245.9953413578886
 30
0.0
 11
869.7522751809787
 21
245.9953413578886
 31
0.0
 12
869.2522751809788
 22
242.9953413578886
 32
0.0
 13
869.2522751809788
 23
242.9953413578886
 33
0.0
  0
MTEXT
  5
3FB25
330
3F1B4
100
AcDbEntity
  8
DIM
 62
     4
100
AcDbMText
 10
865.9522751809786
 20
249.9953413578885
 30
0.0
 40
2.5
 41
0.0
 71
     2
 72
     1
  1
\A1;14
  7
Romans字体
 11
0.0000000000000001
 21
1.0
 31
0.0
 73
     1
 44
1.0
  0
POINT
  5
3FB26
330
3F1B4
100
AcDbEntity
  8
Defpoints
 62
     0
100
AcDbPoint
 10
864.8227031715949
 20
256.9953413578886
 30
0.0
  0
POINT
  5
3FB27
330
3F1B4
100
AcDbEntity
  8
Defpoints
 62
     0
100
AcDbPoint
 10
865.2176843373789
 20
242.9953413578886
 30
0.0
  0
POINT
  5
3FB28
330
3F1B4
100
AcDbEntity
  8
Defpoints
 62
     0
100
AcDbPoint
 10
869.2522751809788
 20
242.9953413578886
 30
0.0
  0
ENDBLK
  5
3F1B6
330
3F1B4
100
AcDbEntity
  8
0
100
AcDbBlockEnd
  0
BLOCK
  5
3F1E6
330
3F1E5
100
AcDbEntity
  8
0
100
AcDbBlockBegin
  2
*D7
 70
     1
 10
0.0
 20
0.0
 30
0.0
  3
*D7
  1

  0
LINE
  5
3FB29
330
3F1E5
100
AcDbEntity
  8
DIM
 62
     6
370
    -2
100
AcDbLine
 10
846.4701233524788
 20
242.7953413578886
 30
0.0
 11
846.4701233524788
 21
227.6761390524937
 31
0.0
  0
LINE
  5
3FB2A
330
3F1E5
100
AcDbEntity
  8
DIM
 62
     6
370
    -2
100
AcDbLine
 10
877.4701233524789
 20
242.7953413578886
 30
0.0
 11
877.4701233524789
 21
227.6761390524937
 31
0.0
  0
LINE
  5
3FB2B
330
3F1E5
100
AcDbEntity
  8
DIM
 62
     1
370
    -2
100
AcDbLine
 10
849.4701233524788
 20
228.8761390524937
 30
0.0
 11
874.4701233524789
 21
228.8761390524937
 31
0.0
  0
SOLID
  5
3FB2C
330
3F1E5
100
AcDbEntity
  8
DIM
 62
     1
100
AcDbTrace
 10
849.4701233524788
 20
229.3761390524937
 30
0.0
 11
849.4701233524788
 21
228.3761390524937
 31
0.0
 12
846.4701233524788
 22
228.8761390524937
 32
0.0
 13
846.4701233524788
 23
228.8761390524937
 33
0.0
  0
SOLID
  5
3FB2D
330
3F1E5
100
AcDbEntity
  8
DIM
 62
     1
100
AcDbTrace
 10
874.4701233524789
 20
229.3761390524937
 30
0.0
 11
874.4701233524789
 21
228.3761390524937
 31
0.0
 12
877.4701233524789
 22
228.8761390524937
 32
0.0
 13
877.4701233524789
 23
228.8761390524937
 33
0.0
  0
MTEXT
  5
3FB2E
330
3F1E5
100
AcDbEntity
  8
DIM
 62
     4
100
AcDbMText
 10
861.9701233524791
 20
230.9261390524937
 30
0.0
 40
2.5
 41
0.0
 71
     5
 72
     1
  1
\A1;%%C31
  7
Romans字体
 73
     1
 44
1.0
  0
POINT
  5
3FB2F
330
3F1E5
100
AcDbEntity
  8
Defpoints
 62
     0
100
AcDbPoint
 10
846.4701233524788
 20
242.9953413578886
 30
0.0
  0
POINT
  5
3FB30
330
3F1E5
100
AcDbEntity
  8
Defpoints
 62
     0
100
AcDbPoint
 10
877.4701233524789
 20
242.9953413578886
 30
0.0
  0
POINT
  5
3FB31
330
3F1E5
100
AcDbEntity
  8
Defpoints
 62
     0
100
AcDbPoint
 10
877.4701233524789
 20
228.8761390524937
 30
0.0
  0
ENDBLK
  5
3F1E7
330
3F1E5
100
AcDbEntity
  8
0
100
AcDbBlockEnd
  0
BLOCK
  5
3F7E6
330
3F7E5
100
AcDbEntity
  8
0
100
AcDbBlockBegin
  2
*D8
 70
     1
 10
0.0
 20
0.0
 30
0.0
  3
*D8
  1

  0
LINE
  5
3FB32
330
3F7E5
100
AcDbEntity
  8
DIM
 62
     1
370
    -2
100
AcDbLine
 10
794.4560983440898
 20
236.3168941113335
 30
0.0
 11
793.4962701785932
 21
235.440121682068
 31
0.0
  0
LINE
  5
3FB33
330
3F7E5
100
AcDbEntity
  8
DIM
 62
     1
370
    -2
100
AcDbLine
 10
820.7406234915257
 20
260.3269698666037
 30
0.0
 11
823.3606791737731
 21
262.7203072033418
 31
0.0
  0
LINE
  5
3FB34
330
3F7E5
100
AcDbEntity
  8
DIM
 62
     1
370
    -2
100
AcDbLine
 10
823.3606791737731
 20
262.7203072033418
 30
0.0
 11
828.0569291737734
 21
262.7203072033418
 31
0.0
  0
LINE
  5
3FB35
330
3F7E5
100
AcDbEntity
  8
DIM
 62
     1
370
    -2
100
AcDbLine
 10
795.415926509586
 20
237.1936665405989
 30
0.0
 11
819.7807953260291
 21
259.4501974373383
 31
0.0
  0
SOLID
  5
3FB36
330
3F7E5
100
AcDbEntity
  8
DIM
 62
     1
100
AcDbTrace
 10
794.3099696058789
 20
236.4768654722495
 30
0.0
 11
794.6022270823007
 21
236.1569227504175
 31
0.0
 12
795.415926509586
 22
237.1936665405989
 32
0.0
 13
795.415926509586
 23
237.1936665405989
 33
0.0
  0
SOLID
  5
3FB37
330
3F7E5
100
AcDbEntity
  8
DIM
 62
     1
100
AcDbTrace
 10
820.5944947533149
 20
260.4869412275198
 30
0.0
 11
820.8867522297364
 21
260.1669985056878
 31
0.0
 12
819.7807953260291
 22
259.4501974373383
 32
0.0
 13
819.7807953260291
 23
259.4501974373383
 33
0.0
  0
MTEXT
  5
3FB38
102
{ACAD_XDICTIONARY
360
4059B
102
}
330
3F7E5
100
AcDbEntity
  8
DIM
 62
     4
100
AcDbMText
 10
825.9038041737731
 20
264.2478072033419
 30
0.0
 40
2.274999999999999
 41
0.0
 71
     5
 72
     1
  1
\A1;\U+220533
  7
Romans字体
 73
     1
 44
1.0
  0
POINT
  5
3FB39
330
3F7E5
100
AcDbEntity
  8
Defpoints
 62
     0
100
AcDbPoint
 10
819.7807953260291
 20
259.4501974373383
 30
0.0
  0
POINT
  5
3FB3A
330
3F7E5
100
AcDbEntity
  8
Defpoints
 62
     0
100
AcDbPoint
 10
795.415926509586
 20
237.1936665405989
 30
0.0
  0
ENDBLK
  5
3F7E7
330
3F7E5
100
AcDbEntity
  8
0
100
AcDbBlockEnd
  0
BLOCK
  5
3FE47
330
3FE46
100
AcDbEntity
  8
0
100
AcDbBlockBegin
  2
*D9
 70
     1
 10
0.0
 20
0.0
 30
0.0
  3
*D9
  1

  0
LINE
  5
3FE48
330
3FE46
100
AcDbEntity
  8
DIM
 62
     1
370
    -2
100
AcDbLine
 10
5170.530644758949
 20
-2260.348445348073
 30
0.0
 11
5178.003646142447
 21
-2264.328460584897
 31
0.0
  0
MTEXT
  5
3FE49
102
{ACAD_XDICTIONARY
360
4059D
102
}
330
3FE46
100
AcDbEntity
  8
DIM
 62
     4
100
AcDbMText
 10
5174.812736691205
 20
-2260.463104892798
 30
0.0
 40
3.0
 41
0.0
 71
     5
 72
     1
  1
\A1;\U+22055.8
 11
0.8826267140941711
 21
-0.4700745510738975
 31
0.0
 73
     1
 44
1.0
  0
SOLID
  5
3FE4A
330
3FE46
100
AcDbEntity
  8
DIM
 62
     1
100
AcDbTrace
 10
5178.066322749256
 20
-2264.210777023018
 30
0.0
 11
5177.940969535637
 21
-2264.446144146777
 31
0.0
 12
5178.709747513721
 22
-2264.704520225757
 32
0.0
 13
5178.709747513721
 23
-2264.704520225757
 33
0.0
  0
LINE
  5
3FE4B
330
3FE46
100
AcDbEntity
  8
DIM
 62
     6
370
    -2
100
AcDbLine
 10
5181.199902577056
 20
-2266.078674456226
 30
0.0
 11
5181.379902577058
 21
-2266.078674456226
 31
0.0
  0
LINE
  5
3FE4C
330
3FE46
100
AcDbEntity
  8
DIM
 62
     6
370
    -2
100
AcDbLine
 10
5181.289902577058
 20
-2266.168674456226
 30
0.0
 11
5181.289902577058
 21
-2265.988674456226
 31
0.0
  0
POINT
  5
3FE4D
330
3FE46
100
AcDbEntity
  8
Defpoints
 62
     0
100
AcDbPoint
 10
5178.709747513721
 20
-2264.704520225757
 30
0.0
  0
POINT
  5
3FE4E
330
3FE46
100
AcDbEntity
  8
Defpoints
 62
     0
100
AcDbPoint
 10
5183.870057640394
 20
-2267.452828686696
 30
0.0
  0
ENDBLK
  5
3FE4F
330
3FE46
100
AcDbEntity
  8
0
100
AcDbBlockEnd
  0
BLOCK
  5
3FE51
330
3FE50
100
AcDbEntity
  8
0
100
AcDbBlockBegin
  2
*D10
 70
     1
 10
0.0
 20
0.0
 30
0.0
  3
*D10
  1

  0
LINE
  5
3FE52
330
3FE50
100
AcDbEntity
  8
DIM
 62
     6
370
    -2
100
AcDbLine
 10
5186.351007812849
 20
-2327.972994564484
 30
0.0
 11
5188.067895417543
 21
-2327.972994564484
 31
0.0
  0
LINE
  5
3FE53
330
3FE50
100
AcDbEntity
  8
DIM
 62
     6
370
    -2
100
AcDbLine
 10
5181.789902577062
 20
-2329.322994564484
 30
0.0
 11
5188.067895417543
 21
-2329.322994564484
 31
0.0
  0
LINE
  5
3FE54
330
3FE50
100
AcDbEntity
  8
DIM
 62
     1
370
    -2
100
AcDbLine
 10
5187.267895417543
 20
-2330.122994564485
 30
0.0
 11
5187.267895417543
 21
-2330.922994564485
 31
0.0
  0
LINE
  5
3FE55
330
3FE50
100
AcDbEntity
  8
DIM
 62
     1
370
    -2
100
AcDbLine
 10
5187.267895417543
 20
-2327.172994564485
 30
0.0
 11
5187.267895417543
 21
-2317.427380971633
 31
0.0
  0
SOLID
  5
3FE56
330
3FE50
100
AcDbEntity
  8
DIM
 62
     1
100
AcDbTrace
 10
5187.134562084211
 20
-2330.122994564485
 30
0.0
 11
5187.401228750879
 21
-2330.122994564485
 31
0.0
 12
5187.267895417543
 22
-2329.322994564484
 32
0.0
 13
5187.267895417543
 23
-2329.322994564484
 33
0.0
  0
SOLID
  5
3FE57
330
3FE50
100
AcDbEntity
  8
DIM
 62
     1
100
AcDbTrace
 10
5187.134562084211
 20
-2327.172994564485
 30
0.0
 11
5187.401228750879
 21
-2327.172994564485
 31
0.0
 12
5187.267895417543
 22
-2327.972994564484
 32
0.0
 13
5187.267895417543
 23
-2327.972994564484
 33
0.0
  0
MTEXT
  5
3FE58
330
3FE50
100
AcDbEntity
  8
DIM
 62
     4
100
AcDbMText
 10
5185.468045417544
 20
-2319.900203944605
 30
0.0
 40
3.0
 41
0.0
 71
     5
 72
     1
  1
\A1;1.4
 11
0.0000000000000001
 21
1.0
 31
0.0
 73
     1
 44
1.0
  0
POINT
  5
3FE59
330
3FE50
100
AcDbEntity
  8
Defpoints
 62
     0
100
AcDbPoint
 10
5185.851007812847
 20
-2327.972994564484
 30
0.0
  0
POINT
  5
3FE5A
330
3FE50
100
AcDbEntity
  8
Defpoints
 62
     0
100
AcDbPoint
 10
5181.289902577062
 20
-2329.322994564484
 30
0.0
  0
POINT
  5
3FE5B
330
3FE50
100
AcDbEntity
  8
Defpoints
 62
     0
100
AcDbPoint
 10
5187.267895417543
 20
-2329.322994564484
 30
0.0
  0
ENDBLK
  5
3FE5C
330
3FE50
100
AcDbEntity
  8
0
100
AcDbBlockEnd
  0
BLOCK
  5
3FE5E
330
3FE5D
100
AcDbEntity
  8
0
100
AcDbBlockBegin
  2
*D11
 70
     1
 10
0.0
 20
0.0
 30
0.0
  3
*D11
  1

  0
LINE
  5
3FE5F
330
3FE5D
100
AcDbEntity
  8
DIM
 62
     1
370
    -2
100
AcDbLine
 10
5185.396760262872
 20
-2305.190544996717
 30
0.0
 11
5181.977368148547
 21
-2294.273530052395
 31
0.0
  0
MTEXT
  5
3FE60
102
{ACAD_XDICTIONARY
360
4059F
102
}
330
3FE5D
100
AcDbEntity
  8
DIM
 62
     4
100
AcDbMText
 10
5186.559975310881
 20
-2302.508486418815
 30
0.0
 40
3.0
 41
0.0
 71
     5
 72
     1
  1
\A1;\U+22053
 11
0.2988980745589588
 21
-0.9542850418113799
 31
0.0
 73
     1
 44
1.0
  0
SOLID
  5
3FE61
330
3FE5D
100
AcDbEntity
  8
DIM
 62
     1
100
AcDbTrace
 10
5182.104606154122
 20
-2294.233676975787
 30
0.0
 11
5181.850130142971
 21
-2294.313383129003
 31
0.0
 12
5181.7382496889
 22
-2293.510102018946
 32
0.0
 13
5181.7382496889
 23
-2293.510102018946
 33
0.0
  0
LINE
  5
3FE62
330
3FE5D
100
AcDbEntity
  8
DIM
 62
     6
370
    -2
100
AcDbLine
 10
5181.199902577063
 20
-2292.07867445623
 30
0.0
 11
5181.379902577061
 21
-2292.07867445623
 31
0.0
  0
LINE
  5
3FE63
330
3FE5D
100
AcDbEntity
  8
DIM
 62
     6
370
    -2
100
AcDbLine
 10
5181.289902577063
 20
-2292.168674456231
 30
0.0
 11
5181.289902577062
 21
-2291.988674456229
 31
0.0
  0
POINT
  5
3FE64
330
3FE5D
100
AcDbEntity
  8
Defpoints
 62
     0
100
AcDbPoint
 10
5181.7382496889
 20
-2293.510102018946
 30
0.0
  0
POINT
  5
3FE65
330
3FE5D
100
AcDbEntity
  8
Defpoints
 62
     0
100
AcDbPoint
 10
5180.841555465224
 20
-2290.647246893513
 30
0.0
  0
ENDBLK
  5
3FE66
330
3FE5D
100
AcDbEntity
  8
0
100
AcDbBlockEnd
  0
BLOCK
  5
3FE68
330
3FE67
100
AcDbEntity
  8
0
100
AcDbBlockBegin
  2
*D12
 70
     1
 10
0.0
 20
0.0
 30
0.0
  3
*D12
  1

  0
LINE
  5
3FE69
330
3FE67
100
AcDbEntity
  8
DIM
 62
     6
370
    -2
100
AcDbLine
 10
5180.879902577061
 20
-2266.078674456231
 30
0.0
 11
5171.446263644534
 21
-2266.078674456231
 31
0.0
  0
LINE
  5
3FE6A
330
3FE67
100
AcDbEntity
  8
DIM
 62
     6
370
    -2
100
AcDbLine
 10
5180.879902577065
 20
-2292.078674456232
 30
0.0
 11
5171.446263644534
 21
-2292.078674456232
 31
0.0
  0
LINE
  5
3FE6B
330
3FE67
100
AcDbEntity
  8
DIM
 62
     1
370
    -2
100
AcDbLine
 10
5172.246263644534
 20
-2266.878674456231
 30
0.0
 11
5172.246263644534
 21
-2291.278674456231
 31
0.0
  0
SOLID
  5
3FE6C
330
3FE67
100
AcDbEntity
  8
DIM
 62
     1
100
AcDbTrace
 10
5172.112930311201
 20
-2266.878674456231
 30
0.0
 11
5172.379596977869
 21
-2266.878674456231
 31
0.0
 12
5172.246263644534
 22
-2266.078674456231
 32
0.0
 13
5172.246263644534
 23
-2266.078674456231
 33
0.0
  0
SOLID
  5
3FE6D
330
3FE67
100
AcDbEntity
  8
DIM
 62
     1
100
AcDbTrace
 10
5172.112930311201
 20
-2291.278674456231
 30
0.0
 11
5172.379596977869
 21
-2291.278674456231
 31
0.0
 12
5172.246263644534
 22
-2292.078674456232
 32
0.0
 13
5172.246263644534
 23
-2292.078674456232
 33
0.0
  0
MTEXT
  5
3FE6E
330
3FE67
100
AcDbEntity
  8
DIM
 62
     4
100
AcDbMText
 10
5170.446413644533
 20
-2276.160596190906
 30
0.0
 40
3.0
 41
0.0
 71
     5
 72
     1
  1
\A1;26
 11
0.0000000000000001
 21
1.0
 31
0.0
 73
     1
 44
1.0
  0
POINT
  5
3FE6F
330
3FE67
100
AcDbEntity
  8
Defpoints
 62
     0
100
AcDbPoint
 10
5181.379902577061
 20
-2266.078674456231
 30
0.0
  0
POINT
  5
3FE70
330
3FE67
100
AcDbEntity
  8
Defpoints
 62
     0
100
AcDbPoint
 10
5181.379902577065
 20
-2292.078674456232
 30
0.0
  0
POINT
  5
3FE71
330
3FE67
100
AcDbEntity
  8
Defpoints
 62
     0
100
AcDbPoint
 10
5172.246263644534
 20
-2292.078674456232
 30
0.0
  0
ENDBLK
  5
3FE72
330
3FE67
100
AcDbEntity
  8
0
100
AcDbBlockEnd
  0
BLOCK
  5
3FE74
330
3FE73
100
AcDbEntity
  8
0
100
AcDbBlockBegin
  2
*D13
 70
     1
 10
0.0
 20
0.0
 30
0.0
  3
*D13
  1

  0
LINE
  5
3FE75
330
3FE73
100
AcDbEntity
  8
DIM
 62
     6
370
    -2
100
AcDbLine
 10
5186.480791181686
 20
-2289.721615782704
 30
0.0
 11
5189.451551168208
 21
-2281.990588610269
 31
0.0
  0
LINE
  5
3FE76
330
3FE73
100
AcDbEntity
  8
DIM
 62
     6
370
    -2
100
AcDbLine
 10
5176.099013972555
 20
-2289.721615782743
 30
0.0
 11
5173.128253986019
 21
-2281.990588610266
 31
0.0
  0
ARC
  5
3FE77
330
3FE73
100
AcDbEntity
  8
DIM
 62
     1
370
    -2
100
AcDbCircle
 10
5181.289902577109
 20
-2303.230246918547
 30
0.0
 40
21.95380391883869
100
AcDbArc
 50
71.06798257648541
 51
108.932017423492
  0
SOLID
  5
3FE78
330
3FE73
100
AcDbEntity
  8
DIM
 62
     1
100
AcDbTrace
 10
5188.458277738536
 20
-2282.338740086266
 30
0.0
 11
5188.367177301548
 21
-2282.589362953323
 31
0.0
 12
5189.164596121212
 22
-2282.737352830759
 32
0.0
 13
5189.164596121212
 23
-2282.737352830759
 33
0.0
  0
SOLID
  5
3FE79
330
3FE73
100
AcDbEntity
  8
DIM
 62
     1
100
AcDbTrace
 10
5174.212627852678
 20
-2282.58936295332
 30
0.0
 11
5174.121527415691
 21
-2282.338740086264
 31
0.0
 12
5173.415209033016
 22
-2282.737352830756
 32
0.0
 13
5173.415209033016
 23
-2282.737352830756
 33
0.0
  0
MTEXT
  5
3FE7A
330
3FE73
100
AcDbEntity
  8
DIM
 62
     4
100
AcDbMText
 10
5181.289902577113
 20
-2279.476592999708
 30
0.0
 40
3.0
 41
0.0
 71
     5
 72
     1
  1
\A1;42°
 73
     1
 44
1.0
  0
POINT
  5
3FE7B
330
3FE73
100
AcDbEntity
  8
Defpoints
 62
     0
100
AcDbPoint
 10
5183.967933628448
 20
-2281.44039478057
 30
0.0
  0
POINT
  5
3FE7C
330
3FE73
100
AcDbEntity
  8
Defpoints
 62
     0
100
AcDbPoint
 10
5177.556081474661
 20
-2293.51344969123
 30
0.0
  0
POINT
  5
3FE7D
330
3FE73
100
AcDbEntity
  8
Defpoints
 62
     0
100
AcDbPoint
 10
5186.301444277312
 20
-2290.188343420509
 30
0.0
  0
POINT
  5
3FE7E
330
3FE73
100
AcDbEntity
  8
Defpoints
 62
     0
100
AcDbPoint
 10
5185.023723679562
 20
-2293.51344969123
 30
0.0
  0
POINT
  5
3FE7F
330
3FE73
100
AcDbEntity
  8
Defpoints
 62
     0
100
AcDbPoint
 10
5176.278360876927
 20
-2290.188343420548
 30
0.0
  0
ENDBLK
  5
3FE80
330
3FE73
100
AcDbEntity
  8
0
100
AcDbBlockEnd
  0
BLOCK
  5
3FE82
330
3FE81
100
AcDbEntity
  8
0
100
AcDbBlockBegin
  2
*D14
 70
     1
 10
0.0
 20
0.0
 30
0.0
  3
*D14
  1

  0
LINE
  5
3FE83
330
3FE81
100
AcDbEntity
  8
DIM
 62
     1
370
    -2
100
AcDbLine
 10
5192.828605248649
 20
-2303.190131236813
 30
0.0
 11
5184.747422613911
 21
-2295.408172195351
 31
0.0
  0
MTEXT
  5
3FE84
102
{ACAD_XDICTIONARY
360
405A1
102
}
330
3FE81
100
AcDbEntity
  8
DIM
 62
     4
100
AcDbMText
 10
5192.589509961277
 20
-2300.305916173147
 30
0.0
 40
3.0
 41
0.0
 71
     5
 72
     1
  1
\A1;\U+22058
 11
0.7203166743430067
 21
-0.6936453623166749
 31
0.0
 73
     1
 44
1.0
  0
SOLID
  5
3FE85
330
3FE81
100
AcDbEntity
  8
DIM
 62
     1
100
AcDbTrace
 10
5184.83990866222
 20
-2295.312129972105
 30
0.0
 11
5184.654936565602
 21
-2295.504214418596
 31
0.0
 12
5184.171169274438
 22
-2294.853255905497
 32
0.0
 13
5184.171169274438
 23
-2294.853255905497
 33
0.0
  0
LINE
  5
3FE86
330
3FE81
100
AcDbEntity
  8
DIM
 62
     6
370
    -2
100
AcDbLine
 10
5181.199902577064
 20
-2292.07867445623
 30
0.0
 11
5181.379902577065
 21
-2292.07867445623
 31
0.0
  0
LINE
  5
3FE87
330
3FE81
100
AcDbEntity
  8
DIM
 62
     6
370
    -2
100
AcDbLine
 10
5181.289902577065
 20
-2292.168674456231
 30
0.0
 11
5181.289902577065
 21
-2291.98867445623
 31
0.0
  0
POINT
  5
3FE88
330
3FE81
100
AcDbEntity
  8
Defpoints
 62
     0
100
AcDbPoint
 10
5184.171169274438
 20
-2294.853255905497
 30
0.0
  0
POINT
  5
3FE89
330
3FE81
100
AcDbEntity
  8
Defpoints
 62
     0
100
AcDbPoint
 10
5178.408635879691
 20
-2289.304093006963
 30
0.0
  0
ENDBLK
  5
3FE8A
330
3FE81
100
AcDbEntity
  8
0
100
AcDbBlockEnd
  0
BLOCK
  5
3FE8C
330
3FE8B
100
AcDbEntity
  8
0
100
AcDbBlockBegin
  2
*D15
 70
     1
 10
0.0
 20
0.0
 30
0.0
  3
*D15
  1

  0
LINE
  5
3FE8D
330
3FE8B
100
AcDbEntity
  8
DIM
 62
     6
370
    -2
100
AcDbLine
 10
5161.789902577062
 20
-2342.471221138833
 30
0.0
 11
5161.789902577062
 21
-2356.465516059658
 31
0.0
  0
LINE
  5
3FE8E
330
3FE8B
100
AcDbEntity
  8
DIM
 62
     6
370
    -2
100
AcDbLine
 10
5200.78990257706
 20
-2341.915428612177
 30
0.0
 11
5200.78990257706
 21
-2356.465516059658
 31
0.0
  0
LINE
  5
3FE8F
330
3FE8B
100
AcDbEntity
  8
DIM
 62
     1
370
    -2
100
AcDbLine
 10
5162.589902577061
 20
-2355.665516059658
 30
0.0
 11
5199.989902577058
 21
-2355.665516059658
 31
0.0
  0
SOLID
  5
3FE90
330
3FE8B
100
AcDbEntity
  8
DIM
 62
     1
100
AcDbTrace
 10
5162.589902577061
 20
-2355.532182726324
 30
0.0
 11
5162.589902577061
 21
-2355.798849392991
 31
0.0
 12
5161.789902577062
 22
-2355.665516059658
 32
0.0
 13
5161.789902577062
 23
-2355.665516059658
 33
0.0
  0
SOLID
  5
3FE91
330
3FE8B
100
AcDbEntity
  8
DIM
 62
     1
100
AcDbTrace
 10
5199.989902577058
 20
-2355.532182726324
 30
0.0
 11
5199.989902577058
 21
-2355.798849392991
 31
0.0
 12
5200.78990257706
 22
-2355.665516059658
 32
0.0
 13
5200.78990257706
 23
-2355.665516059658
 33
0.0
  0
MTEXT
  5
3FE92
330
3FE8B
100
AcDbEntity
  8
DIM
 62
     4
100
AcDbMText
 10
5181.289902577062
 20
-2353.815816059658
 30
0.0
 40
2.5
 41
0.0
 71
     5
 72
     1
  1
\A1;{\fISOCPEUR|b0|i0|c0|p34;%%C}39±0.2
 73
     1
 44
1.0
  0
LINE
  5
3FE93
330
3FE8B
100
AcDbEntity
  8
DIM
 62
     1
370
    -2
100
AcDbLine
 10
5175.670983658143
 20
-2355.365666059658
 30
0.0
 11
5186.908821495981
 21
-2355.365666059658
 31
0.0
  0
LINE
  5
3FE94
330
3FE8B
100
AcDbEntity
  8
DIM
 62
     1
370
    -2
100
AcDbLine
 10
5186.908821495981
 20
-2352.265966059658
 30
0.0
 11
5175.670983658143
 21
-2352.265966059658
 31
0.0
  0
ARC
  5
3FE95
330
3FE8B
100
AcDbEntity
  8
DIM
  6
Continuous
 62
     1
370
    -2
100
AcDbCircle
 10
5186.908821495981
 20
-2353.815816059658
 30
0.0
 40
1.549849999999878
100
AcDbArc
 50
270.0
 51
90.0
  0
ARC
  5
3FE96
330
3FE8B
100
AcDbEntity
  8
DIM
  6
Continuous
 62
     1
370
    -2
100
AcDbCircle
 10
5175.670983658142
 20
-2353.815816059658
 30
0.0
 40
1.549849999999878
100
AcDbArc
 50
89.99999999996637
 51
270.0000000000336
  0
POINT
  5
3FE97
330
3FE8B
100
AcDbEntity
  8
Defpoints
 62
     0
100
AcDbPoint
 10
5161.789902577062
 20
-2341.971221138833
 30
0.0
  0
POINT
  5
3FE98
330
3FE8B
100
AcDbEntity
  8
Defpoints
 62
     0
100
AcDbPoint
 10
5200.78990257706
 20
-2341.415428612177
 30
0.0
  0
POINT
  5
3FE99
330
3FE8B
100
AcDbEntity
  8
Defpoints
 62
     0
100
AcDbPoint
 10
5200.78990257706
 20
-2355.665516059658
 30
0.0
  0
ENDBLK
  5
3FE9A
330
3FE8B
100
AcDbEntity
  8
0
100
AcDbBlockEnd
  0
BLOCK
  5
3FE9C
330
3FE9B
100
AcDbEntity
  8
0
100
AcDbBlockBegin
  2
*D16
 70
     1
 10
0.0
 20
0.0
 30
0.0
  3
*D16
  1

  0
LINE
  5
3FE9D
330
3FE9B
100
AcDbEntity
  8
DIM
 62
     6
370
    -2
100
AcDbLine
 10
5173.755371720151
 20
-2342.972994564485
 30
0.0
 11
5177.888807033895
 21
-2342.972994564485
 31
0.0
  0
LINE
  5
3FE9E
330
3FE9B
100
AcDbEntity
  8
DIM
 62
     6
370
    -2
100
AcDbLine
 10
5174.099949430601
 20
-2327.972994564484
 30
0.0
 11
5177.888807033895
 21
-2327.972994564484
 31
0.0
  0
LINE
  5
3FE9F
330
3FE9B
100
AcDbEntity
  8
DIM
 62
     1
370
    -2
100
AcDbLine
 10
5177.088807033894
 20
-2342.172994564484
 30
0.0
 11
5177.088807033894
 21
-2328.772994564485
 31
0.0
  0
SOLID
  5
3FEA0
330
3FE9B
100
AcDbEntity
  8
DIM
 62
     1
100
AcDbTrace
 10
5176.955473700561
 20
-2342.172994564484
 30
0.0
 11
5177.222140367227
 21
-2342.172994564484
 31
0.0
 12
5177.088807033894
 22
-2342.972994564485
 32
0.0
 13
5177.088807033894
 23
-2342.972994564485
 33
0.0
  0
SOLID
  5
3FEA1
330
3FE9B
100
AcDbEntity
  8
DIM
 62
     1
100
AcDbTrace
 10
5176.955473700561
 20
-2328.772994564485
 30
0.0
 11
5177.222140367227
 21
-2328.772994564485
 31
0.0
 12
5177.088807033894
 22
-2327.972994564484
 32
0.0
 13
5177.088807033894
 23
-2327.972994564484
 33
0.0
  0
MTEXT
  5
3FEA2
330
3FE9B
100
AcDbEntity
  8
DIM
 62
     4
100
AcDbMText
 10
5175.288957033894
 20
-2335.472994564483
 30
0.0
 40
3.0
 41
0.0
 71
     5
 72
     1
  1
\A1;15
 11
0.0000000000000001
 21
1.0
 31
0.0
 73
     1
 44
1.0
  0
POINT
  5
3FEA3
330
3FE9B
100
AcDbEntity
  8
Defpoints
 62
     0
100
AcDbPoint
 10
5173.255371720151
 20
-2342.972994564485
 30
0.0
  0
POINT
  5
3FEA4
330
3FE9B
100
AcDbEntity
  8
Defpoints
 62
     0
100
AcDbPoint
 10
5173.599949430601
 20
-2327.972994564484
 30
0.0
  0
POINT
  5
3FEA5
330
3FE9B
100
AcDbEntity
  8
Defpoints
 62
     0
100
AcDbPoint
 10
5177.088807033894
 20
-2327.972994564484
 30
0.0
  0
ENDBLK
  5
3FEA6
330
3FE9B
100
AcDbEntity
  8
0
100
AcDbBlockEnd
  0
BLOCK
  5
3FEA8
330
3FEA7
100
AcDbEntity
  8
0
100
AcDbBlockBegin
  2
*D17
 70
     1
 10
0.0
 20
0.0
 30
0.0
  3
*D17
  1

  0
LINE
  5
3FEA9
330
3FEA7
100
AcDbEntity
  8
DIM
 62
     6
370
    -2
100
AcDbLine
 10
5162.539902577062
 20
-2341.472994564483
 30
0.0
 11
5162.539902577062
 21
-2350.604267538372
 31
0.0
  0
LINE
  5
3FEAA
330
3FEA7
100
AcDbEntity
  8
DIM
 62
     6
370
    -2
100
AcDbLine
 10
5200.039902577062
 20
-2341.472994564483
 30
0.0
 11
5200.039902577062
 21
-2350.604267538372
 31
0.0
  0
LINE
  5
3FEAB
330
3FEA7
100
AcDbEntity
  8
DIM
 62
     1
370
    -2
100
AcDbLine
 10
5163.339902577061
 20
-2349.804267538372
 30
0.0
 11
5199.239902577062
 21
-2349.804267538372
 31
0.0
  0
SOLID
  5
3FEAC
330
3FEA7
100
AcDbEntity
  8
DIM
 62
     1
100
AcDbTrace
 10
5163.339902577061
 20
-2349.670934205039
 30
0.0
 11
5163.339902577061
 21
-2349.937600871705
 31
0.0
 12
5162.539902577062
 22
-2349.804267538372
 32
0.0
 13
5162.539902577062
 23
-2349.804267538372
 33
0.0
  0
SOLID
  5
3FEAD
330
3FEA7
100
AcDbEntity
  8
DIM
 62
     1
100
AcDbTrace
 10
5199.239902577062
 20
-2349.670934205039
 30
0.0
 11
5199.239902577062
 21
-2349.937600871705
 31
0.0
 12
5200.039902577062
 22
-2349.804267538372
 32
0.0
 13
5200.039902577062
 23
-2349.804267538372
 33
0.0
  0
MTEXT
  5
3FEAE
330
3FEA7
100
AcDbEntity
  8
DIM
 62
     4
100
AcDbMText
 10
5181.136087658614
 20
-2347.80704501585
 30
0.0
 40
2.5
 41
0.0
 71
     5
 72
     1
  1
\A1;{\fISOCPEUR|b0|i0|c0|p34;%%C}37.5{\H1.250000;\S+0.2^ -0;}
 73
     1
 44
1.0
  0
LINE
  5
3FEAF
330
3FEA7
100
AcDbEntity
  8
DIM
 62
     1
370
    -2
100
AcDbLine
 10
5176.168520091046
 20
-2349.504417538372
 30
0.0
 11
5186.10365522618
 21
-2349.504417538372
 31
0.0
  0
LINE
  5
3FEB0
330
3FEA7
100
AcDbEntity
  8
DIM
 62
     1
370
    -2
100
AcDbLine
 10
5186.10365522618
 20
-2346.109672493327
 30
0.0
 11
5176.168520091046
 21
-2346.109672493327
 31
0.0
  0
ARC
  5
3FEB1
330
3FEA7
100
AcDbEntity
  8
DIM
  6
Continuous
 62
     1
370
    -2
100
AcDbCircle
 10
5186.10365522618
 20
-2347.80704501585
 30
0.0
 40
1.697372522522528
100
AcDbArc
 50
270.0
 51
90.0
  0
ARC
  5
3FEB2
330
3FEA7
100
AcDbEntity
  8
DIM
  6
Continuous
 62
     1
370
    -2
100
AcDbCircle
 10
5176.168520091046
 20
-2347.80704501585
 30
0.0
 40
1.697372522522528
100
AcDbArc
 50
90.0
 51
270.0
  0
POINT
  5
3FEB3
330
3FEA7
100
AcDbEntity
  8
Defpoints
 62
     0
100
AcDbPoint
 10
5162.539902577062
 20
-2340.972994564483
 30
0.0
  0
POINT
  5
3FEB4
330
3FEA7
100
AcDbEntity
  8
Defpoints
 62
     0
100
AcDbPoint
 10
5200.039902577062
 20
-2340.972994564483
 30
0.0
  0
POINT
  5
3FEB5
330
3FEA7
100
AcDbEntity
  8
Defpoints
 62
     0
100
AcDbPoint
 10
5200.039902577062
 20
-2349.804267538372
 30
0.0
  0
ENDBLK
  5
3FEB6
330
3FEA7
100
AcDbEntity
  8
0
100
AcDbBlockEnd
  0
BLOCK
  5
3FEB8
330
3FEB7
100
AcDbEntity
  8
0
100
AcDbBlockBegin
  2
*D18
 70
     1
 10
0.0
 20
0.0
 30
0.0
  3
*D18
  1

  0
LINE
  5
3FEB9
330
3FEB7
100
AcDbEntity
  8
DIM
 62
     6
370
    -2
100
AcDbLine
 10
5157.789902577061
 20
-2328.972994564435
 30
0.0
 11
5152.867144810386
 21
-2328.972994564435
 31
0.0
  0
LINE
  5
3FEBA
330
3FEB7
100
AcDbEntity
  8
DIM
 62
     6
370
    -2
100
AcDbLine
 10
5157.789902577061
 20
-2324.972994564435
 30
0.0
 11
5152.867144810386
 21
-2324.972994564435
 31
0.0
  0
LINE
  5
3FEBB
330
3FEB7
100
AcDbEntity
  8
DIM
 62
     1
370
    -2
100
AcDbLine
 10
5153.667144810386
 20
-2328.172994564435
 30
0.0
 11
5153.667144810386
 21
-2325.772994564436
 31
0.0
  0
SOLID
  5
3FEBC
330
3FEB7
100
AcDbEntity
  8
DIM
 62
     1
100
AcDbTrace
 10
5153.533811477053
 20
-2328.172994564435
 30
0.0
 11
5153.800478143718
 21
-2328.172994564435
 31
0.0
 12
5153.667144810386
 22
-2328.972994564435
 32
0.0
 13
5153.667144810386
 23
-2328.972994564435
 33
0.0
  0
SOLID
  5
3FEBD
330
3FEB7
100
AcDbEntity
  8
DIM
 62
     1
100
AcDbTrace
 10
5153.533811477053
 20
-2325.772994564436
 30
0.0
 11
5153.800478143718
 21
-2325.772994564436
 31
0.0
 12
5153.667144810386
 22
-2324.972994564435
 32
0.0
 13
5153.667144810386
 23
-2324.972994564435
 33
0.0
  0
MTEXT
  5
3FEBE
330
3FEB7
100
AcDbEntity
  8
DIM
 62
     4
100
AcDbMText
 10
5151.867294810386
 20
-2326.972994564434
 30
0.0
 40
3.0
 41
0.0
 71
     5
 72
     1
  1
\A1;4
 11
0.0000000000000001
 21
1.0
 31
0.0
 73
     1
 44
1.0
  0
POINT
  5
3FEBF
330
3FEB7
100
AcDbEntity
  8
Defpoints
 62
     0
100
AcDbPoint
 10
5158.28990257706
 20
-2328.972994564435
 30
0.0
  0
POINT
  5
3FEC0
330
3FEB7
100
AcDbEntity
  8
Defpoints
 62
     0
100
AcDbPoint
 10
5158.28990257706
 20
-2324.972994564435
 30
0.0
  0
POINT
  5
3FEC1
330
3FEB7
100
AcDbEntity
  8
Defpoints
 62
     0
100
AcDbPoint
 10
5153.667144810386
 20
-2324.972994564435
 30
0.0
  0
ENDBLK
  5
3FEC2
330
3FEB7
100
AcDbEntity
  8
0
100
AcDbBlockEnd
  0
BLOCK
  5
3FEC4
330
3FEC3
100
AcDbEntity
  8
0
100
AcDbBlockBegin
  2
*D19
 70
     1
 10
0.0
 20
0.0
 30
0.0
  3
*D19
  1

  0
LINE
  5
3FEC5
330
3FEC3
100
AcDbEntity
  8
DIM
 62
     6
370
    -2
100
AcDbLine
 10
5158.518270791365
 20
-2324.972994564435
 30
0.0
 11
5148.888103699498
 21
-2324.972994564435
 31
0.0
  0
LINE
  5
3FEC6
330
3FEC3
100
AcDbEntity
  8
DIM
 62
     6
370
    -2
100
AcDbLine
 10
5159.91490257706
 20
-2342.972994564435
 30
0.0
 11
5148.888103699498
 21
-2342.972994564435
 31
0.0
  0
LINE
  5
3FEC7
330
3FEC3
100
AcDbEntity
  8
DIM
 62
     1
370
    -2
100
AcDbLine
 10
5149.688103699499
 20
-2325.772994564436
 30
0.0
 11
5149.688103699499
 21
-2342.172994564435
 31
0.0
  0
SOLID
  5
3FEC8
330
3FEC3
100
AcDbEntity
  8
DIM
 62
     1
100
AcDbTrace
 10
5149.554770366165
 20
-2325.772994564436
 30
0.0
 11
5149.82143703283
 21
-2325.772994564436
 31
0.0
 12
5149.688103699499
 22
-2324.972994564435
 32
0.0
 13
5149.688103699499
 23
-2324.972994564435
 33
0.0
  0
SOLID
  5
3FEC9
330
3FEC3
100
AcDbEntity
  8
DIM
 62
     1
100
AcDbTrace
 10
5149.554770366165
 20
-2342.172994564435
 30
0.0
 11
5149.82143703283
 21
-2342.172994564435
 31
0.0
 12
5149.688103699499
 22
-2342.972994564435
 32
0.0
 13
5149.688103699499
 23
-2342.972994564435
 33
0.0
  0
MTEXT
  5
3FECA
330
3FEC3
100
AcDbEntity
  8
DIM
 62
     4
100
AcDbMText
 10
5147.888253699498
 20
-2333.972994564434
 30
0.0
 40
3.0
 41
0.0
 71
     5
 72
     1
  1
\A1;18
 11
0.0000000000000001
 21
1.0
 31
0.0
 73
     1
 44
1.0
  0
POINT
  5
3FECB
330
3FEC3
100
AcDbEntity
  8
Defpoints
 62
     0
100
AcDbPoint
 10
5159.018270791364
 20
-2324.972994564435
 30
0.0
  0
POINT
  5
3FECC
330
3FEC3
100
AcDbEntity
  8
Defpoints
 62
     0
100
AcDbPoint
 10
5160.41490257706
 20
-2342.972994564435
 30
0.0
  0
POINT
  5
3FECD
330
3FEC3
100
AcDbEntity
  8
Defpoints
 62
     0
100
AcDbPoint
 10
5149.688103699499
 20
-2342.972994564435
 30
0.0
  0
ENDBLK
  5
3FECE
330
3FEC3
100
AcDbEntity
  8
0
100
AcDbBlockEnd
  0
BLOCK
  5
3FED0
330
3FECF
100
AcDbEntity
  8
0
100
AcDbBlockBegin
  2
*D20
 70
     1
 10
0.0
 20
0.0
 30
0.0
  3
*D20
  1

  0
LINE
  5
3FED1
330
3FECF
100
AcDbEntity
  8
DIM
 62
     6
370
    -2
100
AcDbLine
 10
5158.28990257706
 20
-2326.472994564436
 30
0.0
 11
5158.28990257706
 21
-2315.524772291851
 31
0.0
  0
LINE
  5
3FED2
330
3FECF
100
AcDbEntity
  8
DIM
 62
     6
370
    -2
100
AcDbLine
 10
5204.289902577059
 20
-2326.472994564436
 30
0.0
 11
5204.289902577059
 21
-2315.524772291851
 31
0.0
  0
LINE
  5
3FED3
330
3FECF
100
AcDbEntity
  8
DIM
 62
     1
370
    -2
100
AcDbLine
 10
5159.08990257706
 20
-2316.324772291851
 30
0.0
 11
5203.489902577058
 21
-2316.324772291851
 31
0.0
  0
SOLID
  5
3FED4
330
3FECF
100
AcDbEntity
  8
DIM
 62
     1
100
AcDbTrace
 10
5159.08990257706
 20
-2316.191438958518
 30
0.0
 11
5159.08990257706
 21
-2316.458105625184
 31
0.0
 12
5158.28990257706
 22
-2316.324772291851
 32
0.0
 13
5158.28990257706
 23
-2316.324772291851
 33
0.0
  0
SOLID
  5
3FED5
330
3FECF
100
AcDbEntity
  8
DIM
 62
     1
100
AcDbTrace
 10
5203.489902577058
 20
-2316.191438958518
 30
0.0
 11
5203.489902577058
 21
-2316.458105625184
 31
0.0
 12
5204.289902577059
 22
-2316.324772291851
 32
0.0
 13
5204.289902577059
 23
-2316.324772291851
 33
0.0
  0
MTEXT
  5
3FED6
330
3FECF
100
AcDbEntity
  8
DIM
 62
     4
100
AcDbMText
 10
5181.353066545097
 20
-2314.524922291852
 30
0.0
 40
3.0
 41
0.0
 71
     5
 72
     1
  1
\A1;{\fISOCPEUR|b0|i0|c0|p34;%%C}46
 73
     1
 44
1.0
  0
POINT
  5
3FED7
330
3FECF
100
AcDbEntity
  8
Defpoints
 62
     0
100
AcDbPoint
 10
5158.28990257706
 20
-2326.972994564435
 30
0.0
  0
POINT
  5
3FED8
330
3FECF
100
AcDbEntity
  8
Defpoints
 62
     0
100
AcDbPoint
 10
5204.289902577059
 20
-2326.972994564435
 30
0.0
  0
POINT
  5
3FED9
330
3FECF
100
AcDbEntity
  8
Defpoints
 62
     0
100
AcDbPoint
 10
5204.289902577059
 20
-2316.324772291851
 30
0.0
  0
ENDBLK
  5
3FEDA
330
3FECF
100
AcDbEntity
  8
0
100
AcDbBlockEnd
  0
BLOCK
  5
3FEDC
330
3FEDB
100
AcDbEntity
  8
0
100
AcDbBlockBegin
  2
*D21
 70
     1
 10
0.0
 20
0.0
 30
0.0
  3
*D21
  1

  0
LINE
  5
3FEDD
330
3FEDB
100
AcDbEntity
  8
DIM
 62
     1
370
    -2
100
AcDbLine
 10
5157.276168166676
 20
-2288.704279794813
 30
0.0
 11
5167.829916059088
 21
-2290.721828899921
 31
0.0
  0
MTEXT
  5
3FEDE
330
3FEDB
100
AcDbEntity
  8
DIM
 62
     4
100
AcDbMText
 10
5160.896692367282
 20
-2287.563968509523
 30
0.0
 40
3.0
 41
0.0
 71
     5
 72
     1
  1
\A1;2-R4
 11
0.9822132740151538
 21
-0.1877686990646541
 31
0.0
 73
     1
 44
1.0
  0
SOLID
  5
3FEDF
330
3FEDB
100
AcDbEntity
  8
DIM
 62
     1
100
AcDbTrace
 10
5167.85495188563
 20
-2290.590867130052
 30
0.0
 11
5167.804880232544
 21
-2290.852790669789
 31
0.0
 12
5168.615686678299
 22
-2290.872043859172
 32
0.0
 13
5168.615686678299
 23
-2290.872043859172
 33
0.0
  0
LINE
  5
3FEE0
330
3FEDB
100
AcDbEntity
  8
DIM
 62
     6
370
    -2
100
AcDbLine
 10
5172.454539774356
 20
-2291.623118655431
 30
0.0
 11
5172.634539774357
 21
-2291.62311865543
 31
0.0
  0
LINE
  5
3FEE1
330
3FEDB
100
AcDbEntity
  8
DIM
 62
     6
370
    -2
100
AcDbLine
 10
5172.544539774357
 20
-2291.71311865543
 30
0.0
 11
5172.544539774357
 21
-2291.533118655431
 31
0.0
  0
ARC
  5
3FEE2
330
3FEDB
100
AcDbEntity
  8
DIM
 62
     6
370
    -2
100
AcDbCircle
 10
5172.544539774357
 20
-2291.62311865543
 30
0.0
 40
3.999999999995451
100
AcDbArc
 50
78.26288643222558
 51
180.6365593238816
  0
POINT
  5
3FEE3
330
3FEDB
100
AcDbEntity
  8
Defpoints
 62
     0
100
AcDbPoint
 10
5168.615686678299
 20
-2290.872043859172
 30
0.0
  0
POINT
  5
3FEE4
330
3FEDB
100
AcDbEntity
  8
Defpoints
 62
     0
100
AcDbPoint
 10
5172.544539774357
 20
-2291.62311865543
 30
0.0
  0
ENDBLK
  5
3FEE5
330
3FEDB
100
AcDbEntity
  8
0
100
AcDbBlockEnd
  0
BLOCK
  5
3FEE7
330
3FEE6
100
AcDbEntity
  8
0
100
AcDbBlockBegin
  2
*D22
 70
     1
 10
0.0
 20
0.0
 30
0.0
  3
*D22
  1

  0
LINE
  5
3FEE8
330
3FEE6
100
AcDbEntity
  8
DIM
 62
     6
370
    -2
100
AcDbLine
 10
5159.539902577058
 20
-2340.468768850149
 30
0.0
 11
5159.539902577058
 21
-2361.892766939715
 31
0.0
  0
LINE
  5
3FEE9
330
3FEE6
100
AcDbEntity
  8
DIM
 62
     6
370
    -2
100
AcDbLine
 10
5203.039902577058
 20
-2340.02704545876
 30
0.0
 11
5203.039902577058
 21
-2361.892766939715
 31
0.0
  0
LINE
  5
3FEEA
330
3FEE6
100
AcDbEntity
  8
DIM
 62
     1
370
    -2
100
AcDbLine
 10
5160.33990257706
 20
-2361.092766939715
 30
0.0
 11
5202.239902577058
 21
-2361.092766939715
 31
0.0
  0
SOLID
  5
3FEEB
330
3FEE6
100
AcDbEntity
  8
DIM
 62
     1
100
AcDbTrace
 10
5160.33990257706
 20
-2360.959433606382
 30
0.0
 11
5160.33990257706
 21
-2361.226100273048
 31
0.0
 12
5159.539902577058
 22
-2361.092766939715
 32
0.0
 13
5159.539902577058
 23
-2361.092766939715
 33
0.0
  0
SOLID
  5
3FEEC
330
3FEE6
100
AcDbEntity
  8
DIM
 62
     1
100
AcDbTrace
 10
5202.239902577058
 20
-2360.959433606382
 30
0.0
 11
5202.239902577058
 21
-2361.226100273048
 31
0.0
 12
5203.039902577058
 22
-2361.092766939715
 32
0.0
 13
5203.039902577058
 23
-2361.092766939715
 33
0.0
  0
MTEXT
  5
3FEED
330
3FEE6
100
AcDbEntity
  8
DIM
 62
     4
100
AcDbMText
 10
5181.289902577058
 20
-2359.292916939715
 30
0.0
 40
3.0
 41
0.0
 71
     5
 72
     1
  1
\A1;{\fISOCPEUR|b0|i0|c0|p34;%%C}43.6
 73
     1
 44
1.0
  0
POINT
  5
3FEEE
330
3FEE6
100
AcDbEntity
  8
Defpoints
 62
     0
100
AcDbPoint
 10
5159.539902577058
 20
-2339.968768850149
 30
0.0
  0
POINT
  5
3FEEF
330
3FEE6
100
AcDbEntity
  8
Defpoints
 62
     0
100
AcDbPoint
 10
5203.039902577058
 20
-2339.52704545876
 30
0.0
  0
POINT
  5
3FEF0
330
3FEE6
100
AcDbEntity
  8
Defpoints
 62
     0
100
AcDbPoint
 10
5203.039902577058
 20
-2361.092766939715
 30
0.0
  0
ENDBLK
  5
3FEF1
330
3FEE6
100
AcDbEntity
  8
0
100
AcDbBlockEnd
  0
BLOCK
  5
4006B
330
4006A
100
AcDbEntity
  8
0
100
AcDbBlockBegin
  2
*D23
 70
     1
 10
0.0
 20
0.0
 30
0.0
  3
*D23
  1

  0
LINE
  5
401FF
330
4006A
100
AcDbEntity
  8
DIM
 62
     1
370
    -2
100
AcDbLine
 10
963.3608282473433
 20
236.3305510891962
 30
0.0
 11
967.1917948162299
 21
243.5236940210495
 31
0.0
  0
MTEXT
  5
40200
102
{ACAD_XDICTIONARY
360
405A3
102
}
330
4006A
100
AcDbEntity
  8
DIM
 62
     4
100
AcDbMText
 10
963.4996860199946
 20
240.4201355502355
 30
0.0
 40
3.0
 41
0.0
 71
     5
 72
     1
  1
\A1;\U+22055.8
  7
Romans字体
 11
0.470074551073891
 21
0.8826267140941748
 31
0.0
 73
     1
 44
1.0
  0
SOLID
  5
40201
330
4006A
100
AcDbEntity
  8
DIM
 62
     1
100
AcDbTrace
 10
967.0741112543508
 20
243.5863706278594
 30
0.0
 11
967.3094783781092
 21
243.4610174142397
 31
0.0
 12
967.5678544570892
 22
244.2297953923248
 32
0.0
 13
967.5678544570892
 23
244.2297953923248
 33
0.0
  0
LINE
  5
40202
330
4006A
100
AcDbEntity
  8
DIM
 62
     6
370
    -2
100
AcDbLine
 10
968.8520086875588
 20
246.8099504556597
 30
0.0
 11
969.032008687559
 21
246.8099504556596
 31
0.0
  0
LINE
  5
40203
330
4006A
100
AcDbEntity
  8
DIM
 62
     6
370
    -2
100
AcDbLine
 10
968.9420086875587
 20
246.7199504556596
 30
0.0
 11
968.9420086875587
 21
246.8999504556598
 31
0.0
  0
POINT
  5
40204
330
4006A
100
AcDbEntity
  8
Defpoints
 62
     0
100
AcDbPoint
 10
967.5678544570892
 20
244.2297953923248
 30
0.0
  0
POINT
  5
40205
330
4006A
100
AcDbEntity
  8
Defpoints
 62
     0
100
AcDbPoint
 10
970.3161629180286
 20
249.3901055189947
 30
0.0
  0
ENDBLK
  5
4006C
330
4006A
100
AcDbEntity
  8
0
100
AcDbBlockEnd
  0
BLOCK
  5
40075
330
40074
100
AcDbEntity
  8
0
100
AcDbBlockBegin
  2
*D24
 70
     1
 10
0.0
 20
0.0
 30
0.0
  3
*D24
  1

  0
LINE
  5
40206
330
40074
100
AcDbEntity
  8
DIM
 62
     6
370
    -2
100
AcDbLine
 10
1030.836328795817
 20
251.8710556914499
 30
0.0
 11
1030.836328795817
 21
253.5879432961469
 31
0.0
  0
LINE
  5
40207
330
40074
100
AcDbEntity
  8
DIM
 62
     6
370
    -2
100
AcDbLine
 10
1032.186328795817
 20
247.3099504556636
 30
0.0
 11
1032.186328795817
 21
253.5879432961469
 31
0.0
  0
LINE
  5
40208
330
40074
100
AcDbEntity
  8
DIM
 62
     1
370
    -2
100
AcDbLine
 10
1032.986328795816
 20
252.7879432961469
 30
0.0
 11
1033.786328795816
 21
252.7879432961469
 31
0.0
  0
LINE
  5
40209
330
40074
100
AcDbEntity
  8
DIM
 62
     1
370
    -2
100
AcDbLine
 10
1030.036328795817
 20
252.7879432961469
 30
0.0
 11
1020.213688175937
 21
252.7879432961469
 31
0.0
  0
SOLID
  5
4020A
330
40074
100
AcDbEntity
  8
DIM
 62
     1
100
AcDbTrace
 10
1032.986328795816
 20
252.9212766294802
 30
0.0
 11
1032.986328795816
 21
252.6546099628135
 31
0.0
 12
1032.186328795817
 22
252.7879432961469
 32
0.0
 13
1032.186328795817
 23
252.7879432961469
 33
0.0
  0
SOLID
  5
4020B
330
40074
100
AcDbEntity
  8
DIM
 62
     1
100
AcDbTrace
 10
1030.036328795817
 20
252.9212766294802
 30
0.0
 11
1030.036328795817
 21
252.6546099628135
 31
0.0
 12
1030.836328795817
 22
252.7879432961469
 32
0.0
 13
1030.836328795817
 23
252.7879432961469
 33
0.0
  0
MTEXT
  5
4020C
330
40074
100
AcDbEntity
  8
DIM
 62
     4
100
AcDbMText
 10
1022.763538175937
 20
254.5877932961468
 30
0.0
 40
3.0
 41
0.0
 71
     5
 72
     1
  1
\A1;1.4
  7
Romans字体
 73
     1
 44
1.0
  0
POINT
  5
4020D
330
40074
100
AcDbEntity
  8
Defpoints
 62
     0
100
AcDbPoint
 10
1030.836328795817
 20
251.3710556914499
 30
0.0
  0
POINT
  5
4020E
330
40074
100
AcDbEntity
  8
Defpoints
 62
     0
100
AcDbPoint
 10
1032.186328795817
 20
246.8099504556636
 30
0.0
  0
POINT
  5
4020F
330
40074
100
AcDbEntity
  8
Defpoints
 62
     0
100
AcDbPoint
 10
1032.186328795817
 20
252.7879432961469
 30
0.0
  0
ENDBLK
  5
40076
330
40074
100
AcDbEntity
  8
0
100
AcDbBlockEnd
  0
BLOCK
  5
40082
330
40081
100
AcDbEntity
  8
0
100
AcDbBlockBegin
  2
*D25
 70
     1
 10
0.0
 20
0.0
 30
0.0
  3
*D25
  1

  0
LINE
  5
40210
330
40081
100
AcDbEntity
  8
DIM
 62
     1
370
    -2
100
AcDbLine
 10
1007.916406355257
 20
250.8737493328588
 30
0.0
 11
997.1368642837276
 21
247.49741602715
 31
0.0
  0
MTEXT
  5
40211
102
{ACAD_XDICTIONARY
360
405A5
102
}
330
40081
100
AcDbEntity
  8
DIM
 62
     4
100
AcDbMText
 10
1005.405252658487
 20
251.9732855816112
 30
0.0
 40
3.0
 41
0.0
 71
     5
 72
     1
  1
\A1;\U+22053
  7
Romans字体
 11
0.9542850418113799
 21
0.2988980745589594
 31
0.0
 73
     1
 44
1.0
  0
SOLID
  5
40212
330
40081
100
AcDbEntity
  8
DIM
 62
     1
100
AcDbTrace
 10
997.0970112071196
 20
247.6246540327249
 30
0.0
 11
997.1767173603357
 21
247.3701780215752
 31
0.0
 12
996.3734362502789
 22
247.2582975675029
 32
0.0
 13
996.3734362502789
 23
247.2582975675029
 33
0.0
  0
LINE
  5
40213
330
40081
100
AcDbEntity
  8
DIM
 62
     6
370
    -2
100
AcDbLine
 10
994.8520086875619
 20
246.8099504556646
 30
0.0
 11
995.0320086875619
 21
246.8099504556647
 31
0.0
  0
LINE
  5
40214
330
40081
100
AcDbEntity
  8
DIM
 62
     6
370
    -2
100
AcDbLine
 10
994.9420086875619
 20
246.7199504556646
 30
0.0
 11
994.9420086875619
 21
246.8999504556645
 31
0.0
  0
POINT
  5
40215
330
40081
100
AcDbEntity
  8
Defpoints
 62
     0
100
AcDbPoint
 10
996.3734362502789
 20
247.2582975675029
 30
0.0
  0
POINT
  5
40216
330
40081
100
AcDbEntity
  8
Defpoints
 62
     0
100
AcDbPoint
 10
993.5105811248455
 20
246.3616033438263
 30
0.0
  0
ENDBLK
  5
40083
330
40081
100
AcDbEntity
  8
0
100
AcDbBlockEnd
  0
BLOCK
  5
4008C
330
4008B
100
AcDbEntity
  8
0
100
AcDbBlockBegin
  2
*D26
 70
     1
 10
0.0
 20
0.0
 30
0.0
  3
*D26
  1

  0
LINE
  5
40217
330
4008B
100
AcDbEntity
  8
DIM
 62
     6
370
    -2
100
AcDbLine
 10
968.942008687563
 20
246.3999504556638
 30
0.0
 11
968.942008687563
 21
236.9663115231368
 31
0.0
  0
LINE
  5
40218
330
4008B
100
AcDbEntity
  8
DIM
 62
     6
370
    -2
100
AcDbLine
 10
994.9420086875639
 20
246.3999504556665
 30
0.0
 11
994.9420086875639
 21
236.9663115231368
 31
0.0
  0
LINE
  5
40219
330
4008B
100
AcDbEntity
  8
DIM
 62
     1
370
    -2
100
AcDbLine
 10
969.7420086875627
 20
237.7663115231368
 30
0.0
 11
994.1420086875639
 21
237.7663115231368
 31
0.0
  0
SOLID
  5
4021A
330
4008B
100
AcDbEntity
  8
DIM
 62
     1
100
AcDbTrace
 10
969.7420086875627
 20
237.8996448564701
 30
0.0
 11
969.7420086875627
 21
237.6329781898034
 31
0.0
 12
968.942008687563
 22
237.7663115231368
 32
0.0
 13
968.942008687563
 23
237.7663115231368
 33
0.0
  0
SOLID
  5
4021B
330
4008B
100
AcDbEntity
  8
DIM
 62
     1
100
AcDbTrace
 10
994.1420086875639
 20
237.8996448564701
 30
0.0
 11
994.1420086875639
 21
237.6329781898034
 31
0.0
 12
994.9420086875639
 22
237.7663115231368
 32
0.0
 13
994.9420086875639
 23
237.7663115231368
 33
0.0
  0
MTEXT
  5
4021C
330
4008B
100
AcDbEntity
  8
DIM
 62
     4
100
AcDbMText
 10
979.023930422239
 20
239.5661615231368
 30
0.0
 40
3.0
 41
0.0
 71
     5
 72
     1
  1
\A1;26
  7
Romans字体
 73
     1
 44
1.0
  0
POINT
  5
4021D
330
4008B
100
AcDbEntity
  8
Defpoints
 62
     0
100
AcDbPoint
 10
968.942008687563
 20
246.8999504556638
 30
0.0
  0
POINT
  5
4021E
330
4008B
100
AcDbEntity
  8
Defpoints
 62
     0
100
AcDbPoint
 10
994.9420086875639
 20
246.8999504556665
 30
0.0
  0
POINT
  5
4021F
330
4008B
100
AcDbEntity
  8
Defpoints
 62
     0
100
AcDbPoint
 10
994.9420086875639
 20
237.7663115231368
 30
0.0
  0
ENDBLK
  5
4008D
330
4008B
100
AcDbEntity
  8
0
100
AcDbBlockEnd
  0
BLOCK
  5
40098
330
40097
100
AcDbEntity
  8
0
100
AcDbBlockBegin
  2
*D27
 70
     1
 10
0.0
 20
0.0
 30
0.0
  3
*D27
  1

  0
LINE
  5
40220
330
40097
100
AcDbEntity
  8
DIM
 62
     6
370
    -2
100
AcDbLine
 10
992.5849500140362
 20
252.000839060288
 30
0.0
 11
984.8539228416022
 21
254.9715990468104
 31
0.0
  0
LINE
  5
40221
330
40097
100
AcDbEntity
  8
DIM
 62
     6
370
    -2
100
AcDbLine
 10
992.5849500140753
 20
241.6190618511567
 30
0.0
 11
984.8539228415994
 21
238.6483018646214
 31
0.0
  0
ARC
  5
40222
330
40097
100
AcDbEntity
  8
DIM
 62
     1
370
    -2
100
AcDbCircle
 10
1006.09358114988
 20
246.8099504557121
 30
0.0
 40
21.95380391883887
100
AcDbArc
 50
161.0679825764868
 51
198.932017423493
  0
SOLID
  5
40223
330
40097
100
AcDbEntity
  8
DIM
 62
     1
100
AcDbTrace
 10
985.2020743175987
 20
253.9783256171381
 30
0.0
 11
985.4526971846555
 21
253.88722518015
 31
0.0
 12
985.6006870620916
 22
254.6846439998139
 32
0.0
 13
985.6006870620916
 23
254.6846439998139
 33
0.0
  0
SOLID
  5
40224
330
40097
100
AcDbEntity
  8
DIM
 62
     1
100
AcDbTrace
 10
985.4526971846533
 20
239.7326757312816
 30
0.0
 11
985.2020743175964
 21
239.6415752942936
 31
0.0
 12
985.6006870620888
 22
238.9352569116176
 32
0.0
 13
985.6006870620888
 23
238.9352569116176
 33
0.0
  0
MTEXT
  5
40225
102
{ACAD_XDICTIONARY
360
405A7
102
}
330
40097
100
AcDbEntity
  8
DIM
 62
     4
100
AcDbMText
 10
982.3399272310409
 20
246.8099504557162
 30
0.0
 40
3.0
 41
0.0
 71
     5
 72
     1
  1
\A1;42\U+00B0
  7
Romans字体
 11
0.0000000000000001
 21
1.0
 31
0.0
 73
     1
 44
1.0
  0
POINT
  5
40226
330
40097
100
AcDbEntity
  8
Defpoints
 62
     0
100
AcDbPoint
 10
984.3037290119031
 20
249.4879815070504
 30
0.0
  0
POINT
  5
40227
330
40097
100
AcDbEntity
  8
Defpoints
 62
     0
100
AcDbPoint
 10
996.3767839225623
 20
243.0761293532638
 30
0.0
  0
POINT
  5
40228
330
40097
100
AcDbEntity
  8
Defpoints
 62
     0
100
AcDbPoint
 10
993.051677651842
 20
251.8214921559153
 30
0.0
  0
POINT
  5
40229
330
40097
100
AcDbEntity
  8
Defpoints
 62
     0
100
AcDbPoint
 10
996.3767839225623
 20
250.5437715581644
 30
0.0
  0
POINT
  5
4022A
330
40097
100
AcDbEntity
  8
Defpoints
 62
     0
100
AcDbPoint
 10
993.0516776518812
 20
241.7984087555293
 30
0.0
  0
ENDBLK
  5
40099
330
40097
100
AcDbEntity
  8
0
100
AcDbBlockEnd
  0
BLOCK
  5
400A6
330
400A5
100
AcDbEntity
  8
0
100
AcDbBlockBegin
  2
*D28
 70
     1
 10
0.0
 20
0.0
 30
0.0
  3
*D28
  1

  0
LINE
  5
4022B
330
400A5
100
AcDbEntity
  8
DIM
 62
     1
370
    -2
100
AcDbLine
 10
1005.980535884536
 20
258.2729193330381
 30
0.0
 11
998.271506426683
 21
250.2674704925135
 31
0.0
  0
MTEXT
  5
4022C
102
{ACAD_XDICTIONARY
360
405A9
102
}
330
400A5
100
AcDbEntity
  8
DIM
 62
     4
100
AcDbMText
 10
1003.249818447948
 20
258.0319730057458
 30
0.0
 40
3.0
 41
0.0
 71
     5
 72
     1
  1
\A1;\U+22058
  7
Romans字体
 11
0.6936453623166608
 21
0.7203166743430203
 31
0.0
 73
     1
 44
1.0
  0
SOLID
  5
4022D
330
400A5
100
AcDbEntity
  8
DIM
 62
     1
100
AcDbTrace
 10
998.1754642034374
 20
250.3599565408224
 30
0.0
 11
998.367548649929
 21
250.1749844442046
 31
0.0
 12
997.7165901368296
 22
249.6912171530391
 32
0.0
 13
997.7165901368296
 23
249.6912171530391
 33
0.0
  0
LINE
  5
4022E
330
400A5
100
AcDbEntity
  8
DIM
 62
     6
370
    -2
100
AcDbLine
 10
994.8520086875623
 20
246.8099504556662
 30
0.0
 11
995.0320086875626
 21
246.8099504556663
 31
0.0
  0
LINE
  5
4022F
330
400A5
100
AcDbEntity
  8
DIM
 62
     6
370
    -2
100
AcDbLine
 10
994.9420086875624
 20
246.7199504556664
 30
0.0
 11
994.9420086875624
 21
246.8999504556663
 31
0.0
  0
POINT
  5
40230
330
400A5
100
AcDbEntity
  8
Defpoints
 62
     0
100
AcDbPoint
 10
997.7165901368296
 20
249.6912171530391
 30
0.0
  0
POINT
  5
40231
330
400A5
100
AcDbEntity
  8
Defpoints
 62
     0
100
AcDbPoint
 10
992.1674272382952
 20
243.9286837582935
 30
0.0
  0
ENDBLK
  5
400A7
330
400A5
100
AcDbEntity
  8
0
100
AcDbBlockEnd
  0
BLOCK
  5
400B0
330
400AF
100
AcDbEntity
  8
0
100
AcDbBlockBegin
  2
*D29
 70
     1
 10
0.0
 20
0.0
 30
0.0
  3
*D29
  1

  0
LINE
  5
402BA
330
400AF
100
AcDbEntity
  8
DIM
 62
     6
370
    -2
100
AcDbLine
 10
1043.473850243368
 20
227.3099504556645
 30
0.0
 11
1059.32885029099
 21
227.3099504556645
 31
0.0
  0
LINE
  5
402BB
330
400AF
100
AcDbEntity
  8
DIM
 62
     6
370
    -2
100
AcDbLine
 10
1043.473850243367
 20
266.3099504556618
 30
0.0
 11
1059.32885029099
 21
266.3099504556618
 31
0.0
  0
LINE
  5
402BC
330
400AF
100
AcDbEntity
  8
DIM
 62
     1
370
    -2
100
AcDbLine
 10
1058.528850290991
 20
228.1099504556645
 30
0.0
 11
1058.528850290991
 21
265.5099504556618
 31
0.0
  0
SOLID
  5
402BD
330
400AF
100
AcDbEntity
  8
DIM
 62
     1
100
AcDbTrace
 10
1058.395516957657
 20
228.1099504556645
 30
0.0
 11
1058.662183624324
 21
228.1099504556645
 31
0.0
 12
1058.528850290991
 22
227.3099504556645
 32
0.0
 13
1058.528850290991
 23
227.3099504556645
 33
0.0
  0
SOLID
  5
402BE
330
400AF
100
AcDbEntity
  8
DIM
 62
     1
100
AcDbTrace
 10
1058.395516957657
 20
265.5099504556618
 30
0.0
 11
1058.662183624324
 21
265.5099504556618
 31
0.0
 12
1058.528850290991
 22
266.3099504556618
 32
0.0
 13
1058.528850290991
 23
266.3099504556618
 33
0.0
  0
MTEXT
  5
402BF
102
{ACAD_XDICTIONARY
360
405AB
102
}
330
400AF
100
AcDbEntity
  8
DIM
 62
     4
100
AcDbMText
 10
1056.679150290991
 20
246.8099504556645
 30
0.0
 40
2.5
 41
0.0
 71
     5
 72
     1
  1
\A1;%%C39\U+00B10.2
  7
Romans字体
 11
0.0000000000000001
 21
1.0
 31
0.0
 73
     1
 44
1.0
  0
LINE
  5
402C0
330
400AF
100
AcDbEntity
  8
DIM
 62
     1
370
    -2
100
AcDbLine
 10
1058.229000290991
 20
241.0510218842358
 30
0.0
 11
1058.229000290991
 21
252.568879027093
 31
0.0
  0
LINE
  5
402C1
330
400AF
100
AcDbEntity
  8
DIM
 62
     1
370
    -2
100
AcDbLine
 10
1055.12930029099
 20
252.568879027093
 30
0.0
 11
1055.12930029099
 21
241.0510218842358
 31
0.0
  0
ARC
  5
402C2
330
400AF
100
AcDbEntity
  8
DIM
  6
Continuous
 62
     1
370
    -2
100
AcDbCircle
 10
1056.679150290991
 20
252.5688790270929
 30
0.0
 40
1.549850000000104
100
AcDbArc
 50
0.0000000000031175
 51
179.9999999999968
  0
ARC
  5
402C3
330
400AF
100
AcDbEntity
  8
DIM
  6
Continuous
 62
     1
370
    -2
100
AcDbCircle
 10
1056.679150290991
 20
241.0510218842357
 30
0.0
 40
1.549850000000104
100
AcDbArc
 50
179.9999999999989
 51
0.0000000000010392
  0
POINT
  5
402C4
330
400AF
100
AcDbEntity
  8
Defpoints
 62
     0
100
AcDbPoint
 10
1042.973850243368
 20
227.3099504556645
 30
0.0
  0
POINT
  5
402C5
330
400AF
100
AcDbEntity
  8
Defpoints
 62
     0
100
AcDbPoint
 10
1042.973850243367
 20
266.3099504556618
 30
0.0
  0
POINT
  5
402C6
330
400AF
100
AcDbEntity
  8
Defpoints
 62
     0
100
AcDbPoint
 10
1058.528850290991
 20
266.3099504556618
 30
0.0
  0
ENDBLK
  5
400B1
330
400AF
100
AcDbEntity
  8
0
100
AcDbBlockEnd
  0
BLOCK
  5
400C0
330
400BF
100
AcDbEntity
  8
0
100
AcDbBlockBegin
  2
*D30
 70
     1
 10
0.0
 20
0.0
 30
0.0
  3
*D30
  1

  0
LINE
  5
4023F
330
400BF
100
AcDbEntity
  8
DIM
 62
     6
370
    -2
100
AcDbLine
 10
1045.836328795817
 20
239.2754195987524
 30
0.0
 11
1045.836328795817
 21
243.4088549124967
 31
0.0
  0
LINE
  5
40240
330
400BF
100
AcDbEntity
  8
DIM
 62
     6
370
    -2
100
AcDbLine
 10
1030.836328795817
 20
239.6199973092022
 30
0.0
 11
1030.836328795817
 21
243.4088549124967
 31
0.0
  0
LINE
  5
40241
330
400BF
100
AcDbEntity
  8
DIM
 62
     1
370
    -2
100
AcDbLine
 10
1045.036328795817
 20
242.6088549124967
 30
0.0
 11
1031.636328795817
 21
242.6088549124967
 31
0.0
  0
SOLID
  5
40242
330
400BF
100
AcDbEntity
  8
DIM
 62
     1
100
AcDbTrace
 10
1045.036328795817
 20
242.74218824583
 30
0.0
 11
1045.036328795817
 21
242.4755215791634
 31
0.0
 12
1045.836328795817
 22
242.6088549124967
 32
0.0
 13
1045.836328795817
 23
242.6088549124967
 33
0.0
  0
SOLID
  5
40243
330
400BF
100
AcDbEntity
  8
DIM
 62
     1
100
AcDbTrace
 10
1031.636328795817
 20
242.74218824583
 30
0.0
 11
1031.636328795817
 21
242.4755215791634
 31
0.0
 12
1030.836328795817
 22
242.6088549124967
 32
0.0
 13
1030.836328795817
 23
242.6088549124967
 33
0.0
  0
MTEXT
  5
40244
330
400BF
100
AcDbEntity
  8
DIM
 62
     4
100
AcDbMText
 10
1038.336328795817
 20
244.4087049124966
 30
0.0
 40
3.0
 41
0.0
 71
     5
 72
     1
  1
\A1;15
  7
Romans字体
 73
     1
 44
1.0
  0
POINT
  5
40245
330
400BF
100
AcDbEntity
  8
Defpoints
 62
     0
100
AcDbPoint
 10
1045.836328795817
 20
238.7754195987524
 30
0.0
  0
POINT
  5
40246
330
400BF
100
AcDbEntity
  8
Defpoints
 62
     0
100
AcDbPoint
 10
1030.836328795817
 20
239.1199973092022
 30
0.0
  0
POINT
  5
40247
330
400BF
100
AcDbEntity
  8
Defpoints
 62
     0
100
AcDbPoint
 10
1030.836328795817
 20
242.6088549124967
 30
0.0
  0
ENDBLK
  5
400C1
330
400BF
100
AcDbEntity
  8
0
100
AcDbBlockEnd
  0
BLOCK
  5
400CC
330
400CB
100
AcDbEntity
  8
0
100
AcDbBlockBegin
  2
*D31
 70
     1
 10
0.0
 20
0.0
 30
0.0
  3
*D31
  1

  0
LINE
  5
40248
330
400CB
100
AcDbEntity
  8
DIM
 62
     6
370
    -2
100
AcDbLine
 10
1044.336328795816
 20
228.0599504556645
 30
0.0
 11
1053.467601769705
 21
228.0599504556645
 31
0.0
  0
LINE
  5
40249
330
400CB
100
AcDbEntity
  8
DIM
 62
     6
370
    -2
100
AcDbLine
 10
1044.336328795816
 20
265.5599504556645
 30
0.0
 11
1053.467601769705
 21
265.5599504556645
 31
0.0
  0
LINE
  5
4024A
330
400CB
100
AcDbEntity
  8
DIM
 62
     1
370
    -2
100
AcDbLine
 10
1052.667601769705
 20
228.8599504556645
 30
0.0
 11
1052.667601769705
 21
264.7599504556644
 31
0.0
  0
SOLID
  5
4024B
330
400CB
100
AcDbEntity
  8
DIM
 62
     1
100
AcDbTrace
 10
1052.534268436371
 20
228.8599504556645
 30
0.0
 11
1052.800935103038
 21
228.8599504556645
 31
0.0
 12
1052.667601769705
 22
228.0599504556645
 32
0.0
 13
1052.667601769705
 23
228.0599504556645
 33
0.0
  0
SOLID
  5
4024C
330
400CB
100
AcDbEntity
  8
DIM
 62
     1
100
AcDbTrace
 10
1052.534268436371
 20
264.7599504556644
 30
0.0
 11
1052.800935103038
 21
264.7599504556644
 31
0.0
 12
1052.667601769705
 22
265.5599504556645
 32
0.0
 13
1052.667601769705
 23
265.5599504556645
 33
0.0
  0
MTEXT
  5
4024D
330
400CB
100
AcDbEntity
  8
DIM
 62
     4
100
AcDbMText
 10
1050.609568436372
 20
246.6561355372156
 30
0.0
 40
2.5
 41
0.0
 71
     5
 72
     1
  1
\A1;{\fISOCPEUR|b0|i0|c0|p34;%%C}37.5{\H1.250000;\S+0.2^ -0;}
  7
Romans字体
 11
0.0000000000000001
 21
1.0
 31
0.0
 73
     1
 44
1.0
  0
LINE
  5
4024E
330
400CB
100
AcDbEntity
  8
DIM
 62
     1
370
    -2
100
AcDbLine
 10
1052.367751769705
 20
241.1472069657869
 30
0.0
 11
1052.367751769705
 21
252.165064108644
 31
0.0
  0
LINE
  5
4024F
330
400CB
100
AcDbEntity
  8
DIM
 62
     1
370
    -2
100
AcDbLine
 10
1048.851385103038
 20
252.165064108644
 30
0.0
 11
1048.851385103038
 21
241.1472069657869
 31
0.0
  0
ARC
  5
40250
330
400CB
100
AcDbEntity
  8
DIM
  6
Continuous
 62
     1
370
    -2
100
AcDbCircle
 10
1050.609568436372
 20
252.1650641086441
 30
0.0
 40
1.758183333333135
100
AcDbArc
 50
359.9999999999982
 51
180.0000000000018
  0
ARC
  5
40251
330
400CB
100
AcDbEntity
  8
DIM
  6
Continuous
 62
     1
370
    -2
100
AcDbCircle
 10
1050.609568436372
 20
241.1472069657869
 30
0.0
 40
1.758183333333362
100
AcDbArc
 50
180.0
 51
0.0
  0
POINT
  5
40252
330
400CB
100
AcDbEntity
  8
Defpoints
 62
     0
100
AcDbPoint
 10
1043.836328795816
 20
228.0599504556645
 30
0.0
  0
POINT
  5
40253
330
400CB
100
AcDbEntity
  8
Defpoints
 62
     0
100
AcDbPoint
 10
1043.836328795816
 20
265.5599504556645
 30
0.0
  0
POINT
  5
40254
330
400CB
100
AcDbEntity
  8
Defpoints
 62
     0
100
AcDbPoint
 10
1052.667601769705
 20
265.5599504556645
 30
0.0
  0
ENDBLK
  5
400CD
330
400CB
100
AcDbEntity
  8
0
100
AcDbBlockEnd
  0
BLOCK
  5
400DC
330
400DB
100
AcDbEntity
  8
0
100
AcDbBlockBegin
  2
*D32
 70
     1
 10
0.0
 20
0.0
 30
0.0
  3
*D32
  1

  0
LINE
  5
40270
330
400DB
100
AcDbEntity
  8
DIM
 62
     1
370
    -2
100
AcDbLine
 10
991.3139957867873
 20
221.4695455060949
 30
0.0
 11
993.585163131253
 21
233.3499639376894
 31
0.0
  0
MTEXT
  5
40271
330
400DB
100
AcDbEntity
  8
DIM
 62
     4
100
AcDbMText
 10
990.4273027408567
 20
226.4167402458865
 30
0.0
 40
3.0
 41
0.0
 71
     5
 72
     1
  1
\A1;2-R4
  7
Romans字体
 11
0.1877686990646543
 21
0.9822132740151538
 31
0.0
 73
     1
 44
1.0
  0
SOLID
  5
40272
330
400DB
100
AcDbEntity
  8
DIM
 62
     1
100
AcDbTrace
 10
993.4542013613844
 20
233.3749997642314
 30
0.0
 11
993.7161249011218
 21
233.3249281111475
 31
0.0
 12
993.7353780905048
 22
234.1357345569016
 32
0.0
 13
993.7353780905048
 23
234.1357345569016
 33
0.0
  0
LINE
  5
40273
330
400DB
100
AcDbEntity
  8
DIM
 62
     6
370
    -2
100
AcDbLine
 10
994.3964528867628
 20
238.0645876529582
 30
0.0
 11
994.5764528867627
 21
238.0645876529582
 31
0.0
  0
LINE
  5
40274
330
400DB
100
AcDbEntity
  8
DIM
 62
     6
370
    -2
100
AcDbLine
 10
994.4864528867626
 20
237.9745876529582
 30
0.0
 11
994.4864528867626
 21
238.1545876529582
 31
0.0
  0
ARC
  5
40275
330
400DB
100
AcDbEntity
  8
DIM
 62
     6
370
    -2
100
AcDbCircle
 10
994.4864528867626
 20
238.0645876529582
 30
0.0
 40
3.999999999995963
100
AcDbArc
 50
247.7182475186241
 51
13.85802756084492
  0
POINT
  5
40276
330
400DB
100
AcDbEntity
  8
Defpoints
 62
     0
100
AcDbPoint
 10
993.7353780905048
 20
234.1357345569016
 30
0.0
  0
POINT
  5
40277
330
400DB
100
AcDbEntity
  8
Defpoints
 62
     0
100
AcDbPoint
 10
994.4864528867626
 20
238.0645876529582
 30
0.0
  0
ENDBLK
  5
400DD
330
400DB
100
AcDbEntity
  8
0
100
AcDbBlockEnd
  0
BLOCK
  5
4013D
330
4013C
100
AcDbEntity
  8
0
100
AcDbBlockBegin
  2
*D33
 70
     1
 10
0.0
 20
0.0
 30
0.0
  3
*D33
  1

  0
LINE
  5
40255
330
4013C
100
AcDbEntity
  8
DIM
 62
     6
370
    -2
100
AcDbLine
 10
1031.836328795767
 20
223.3099504556618
 30
0.0
 11
1031.836328795767
 21
218.3871926889886
 31
0.0
  0
LINE
  5
40256
330
4013C
100
AcDbEntity
  8
DIM
 62
     6
370
    -2
100
AcDbLine
 10
1027.836328795768
 20
223.3099504556618
 30
0.0
 11
1027.836328795768
 21
218.3871926889886
 31
0.0
  0
LINE
  5
40257
330
4013C
100
AcDbEntity
  8
DIM
 62
     1
370
    -2
100
AcDbLine
 10
1031.036328795768
 20
219.1871926889886
 30
0.0
 11
1028.636328795768
 21
219.1871926889886
 31
0.0
  0
SOLID
  5
40258
330
4013C
100
AcDbEntity
  8
DIM
 62
     1
100
AcDbTrace
 10
1031.036328795768
 20
219.3205260223219
 30
0.0
 11
1031.036328795768
 21
219.0538593556553
 31
0.0
 12
1031.836328795767
 22
219.1871926889886
 32
0.0
 13
1031.836328795767
 23
219.1871926889886
 33
0.0
  0
SOLID
  5
40259
330
4013C
100
AcDbEntity
  8
DIM
 62
     1
100
AcDbTrace
 10
1028.636328795768
 20
219.3205260223219
 30
0.0
 11
1028.636328795768
 21
219.0538593556553
 31
0.0
 12
1027.836328795768
 22
219.1871926889886
 32
0.0
 13
1027.836328795768
 23
219.1871926889886
 33
0.0
  0
MTEXT
  5
4025A
330
4013C
100
AcDbEntity
  8
DIM
 62
     4
100
AcDbMText
 10
1029.836328795767
 20
220.9870426889886
 30
0.0
 40
3.0
 41
0.0
 71
     5
 72
     1
  1
\A1;4
  7
Romans字体
 73
     1
 44
1.0
  0
POINT
  5
4025B
330
4013C
100
AcDbEntity
  8
Defpoints
 62
     0
100
AcDbPoint
 10
1031.836328795767
 20
223.8099504556618
 30
0.0
  0
POINT
  5
4025C
330
4013C
100
AcDbEntity
  8
Defpoints
 62
     0
100
AcDbPoint
 10
1027.836328795768
 20
223.8099504556618
 30
0.0
  0
POINT
  5
4025D
330
4013C
100
AcDbEntity
  8
Defpoints
 62
     0
100
AcDbPoint
 10
1027.836328795768
 20
219.1871926889886
 30
0.0
  0
ENDBLK
  5
4013E
330
4013C
100
AcDbEntity
  8
0
100
AcDbBlockEnd
  0
BLOCK
  5
40149
330
40148
100
AcDbEntity
  8
0
100
AcDbBlockBegin
  2
*D34
 70
     1
 10
0.0
 20
0.0
 30
0.0
  3
*D34
  1

  0
LINE
  5
40345
330
40148
100
AcDbEntity
  8
DIM
 62
     6
370
    -2
100
AcDbLine
 10
811.7744494001057
 20
224.038318669967
 30
0.0
 11
811.7744494001057
 21
214.4081515781007
 31
0.0
  0
LINE
  5
40346
330
40148
100
AcDbEntity
  8
DIM
 62
     6
370
    -2
100
AcDbLine
 10
829.7744494001056
 20
225.4349504556618
 30
0.0
 11
829.7744494001056
 21
214.4081515781007
 31
0.0
  0
LINE
  5
40347
330
40148
100
AcDbEntity
  8
DIM
 62
     1
370
    -2
100
AcDbLine
 10
812.5744494001056
 20
215.2081515781007
 30
0.0
 11
828.9744494001057
 21
215.2081515781007
 31
0.0
  0
SOLID
  5
40348
330
40148
100
AcDbEntity
  8
DIM
 62
     1
100
AcDbTrace
 10
812.5744494001056
 20
215.341484911434
 30
0.0
 11
812.5744494001056
 21
215.0748182447674
 31
0.0
 12
811.7744494001057
 22
215.2081515781007
 32
0.0
 13
811.7744494001057
 23
215.2081515781007
 33
0.0
  0
SOLID
  5
40349
330
40148
100
AcDbEntity
  8
DIM
 62
     1
100
AcDbTrace
 10
828.9744494001057
 20
215.341484911434
 30
0.0
 11
828.9744494001057
 21
215.0748182447674
 31
0.0
 12
829.7744494001056
 22
215.2081515781007
 32
0.0
 13
829.7744494001056
 23
215.2081515781007
 33
0.0
  0
MTEXT
  5
4034A
330
40148
100
AcDbEntity
  8
DIM
 62
     4
100
AcDbMText
 10
820.7744494001056
 20
217.0080015781007
 30
0.0
 40
3.0
 41
0.0
 71
     5
 72
     1
  1
\A1;18
  7
Romans字体
 73
     1
 44
1.0
  0
POINT
  5
4034B
330
40148
100
AcDbEntity
  8
Defpoints
 62
     0
100
AcDbPoint
 10
811.7744494001057
 20
224.538318669967
 30
0.0
  0
POINT
  5
4034C
330
40148
100
AcDbEntity
  8
Defpoints
 62
     0
100
AcDbPoint
 10
829.7744494001056
 20
225.9349504556618
 30
0.0
  0
POINT
  5
4034D
330
40148
100
AcDbEntity
  8
Defpoints
 62
     0
100
AcDbPoint
 10
829.7744494001056
 20
215.2081515781007
 30
0.0
  0
ENDBLK
  5
4014A
330
40148
100
AcDbEntity
  8
0
100
AcDbBlockEnd
  0
BLOCK
  5
40155
330
40154
100
AcDbEntity
  8
0
100
AcDbBlockBegin
  2
*D35
 70
     1
 10
0.0
 20
0.0
 30
0.0
  3
*D35
  1

  0
LINE
  5
4034E
330
40154
100
AcDbEntity
  8
DIM
 62
     6
370
    -2
100
AcDbLine
 10
813.2744494001057
 20
223.8099504556618
 30
0.0
 11
802.3262271275221
 21
223.8099504556618
 31
0.0
  0
LINE
  5
4034F
330
40154
100
AcDbEntity
  8
DIM
 62
     6
370
    -2
100
AcDbLine
 10
813.2744494001057
 20
269.8099504556618
 30
0.0
 11
802.3262271275221
 21
269.8099504556618
 31
0.0
  0
LINE
  5
40350
330
40154
100
AcDbEntity
  8
DIM
 62
     1
370
    -2
100
AcDbLine
 10
803.1262271275219
 20
224.6099504556618
 30
0.0
 11
803.1262271275219
 21
269.0099504556618
 31
0.0
  0
SOLID
  5
40351
330
40154
100
AcDbEntity
  8
DIM
 62
     1
100
AcDbTrace
 10
802.9928937941887
 20
224.6099504556618
 30
0.0
 11
803.2595604608554
 21
224.6099504556618
 31
0.0
 12
803.1262271275219
 22
223.8099504556618
 32
0.0
 13
803.1262271275219
 23
223.8099504556618
 33
0.0
  0
SOLID
  5
40352
330
40154
100
AcDbEntity
  8
DIM
 62
     1
100
AcDbTrace
 10
802.9928937941887
 20
269.0099504556618
 30
0.0
 11
803.2595604608555
 21
269.0099504556618
 31
0.0
 12
803.1262271275219
 22
269.8099504556618
 32
0.0
 13
803.1262271275219
 23
269.8099504556618
 33
0.0
  0
MTEXT
  5
40353
330
40154
100
AcDbEntity
  8
DIM
 62
     4
100
AcDbMText
 10
801.3263771275218
 20
246.8731144236996
 30
0.0
 40
3.0
 41
0.0
 71
     5
 72
     1
  1
\A1;%%C46
  7
Romans字体
 11
0.0000000000000001
 21
1.0
 31
0.0
 73
     1
 44
1.0
  0
POINT
  5
40354
330
40154
100
AcDbEntity
  8
Defpoints
 62
     0
100
AcDbPoint
 10
813.7744494001056
 20
223.8099504556618
 30
0.0
  0
POINT
  5
40355
330
40154
100
AcDbEntity
  8
Defpoints
 62
     0
100
AcDbPoint
 10
813.7744494001056
 20
269.8099504556618
 30
0.0
  0
POINT
  5
40356
330
40154
100
AcDbEntity
  8
Defpoints
 62
     0
100
AcDbPoint
 10
803.1262271275219
 20
269.8099504556618
 30
0.0
  0
ENDBLK
  5
40156
330
40154
100
AcDbEntity
  8
0
100
AcDbBlockEnd
  0
BLOCK
  5
40169
330
40168
100
AcDbEntity
  8
0
100
AcDbBlockBegin
  2
*D36
 70
     1
 10
0.0
 20
0.0
 30
0.0
  3
*D36
  1

  0
LINE
  5
403B7
330
40168
100
AcDbEntity
  8
DIM
 62
     6
370
    -2
100
AcDbLine
 10
827.2702236858192
 20
225.0599504556618
 30
0.0
 11
845.2669274923259
 21
225.0599504556618
 31
0.0
  0
LINE
  5
403B8
330
40168
100
AcDbEntity
  8
DIM
 62
     6
370
    -2
100
AcDbLine
 10
826.828500294431
 20
268.5599504556618
 30
0.0
 11
845.2669274923259
 21
268.5599504556618
 31
0.0
  0
LINE
  5
403B9
330
40168
100
AcDbEntity
  8
DIM
 62
     1
370
    -2
100
AcDbLine
 10
844.4669274923258
 20
225.8599504556618
 30
0.0
 11
844.466927492326
 21
267.7599504556618
 31
0.0
  0
SOLID
  5
403BA
330
40168
100
AcDbEntity
  8
DIM
 62
     1
100
AcDbTrace
 10
844.3335941589925
 20
225.8599504556618
 30
0.0
 11
844.6002608256591
 21
225.8599504556618
 31
0.0
 12
844.4669274923258
 22
225.0599504556618
 32
0.0
 13
844.4669274923258
 23
225.0599504556618
 33
0.0
  0
SOLID
  5
403BB
330
40168
100
AcDbEntity
  8
DIM
 62
     1
100
AcDbTrace
 10
844.3335941589928
 20
267.7599504556618
 30
0.0
 11
844.6002608256591
 21
267.7599504556618
 31
0.0
 12
844.466927492326
 22
268.5599504556618
 32
0.0
 13
844.466927492326
 23
268.5599504556618
 33
0.0
  0
MTEXT
  5
403BC
330
40168
100
AcDbEntity
  8
DIM
 62
     4
100
AcDbMText
 10
842.6670774923259
 20
246.8099504556618
 30
0.0
 40
3.0
 41
0.0
 71
     5
 72
     1
  1
\A1;%%C43.6
  7
Romans字体
 11
0.0000000000000001
 21
1.0
 31
0.0
 73
     1
 44
1.0
  0
POINT
  5
403BD
330
40168
100
AcDbEntity
  8
Defpoints
 62
     0
100
AcDbPoint
 10
826.7702236858193
 20
225.0599504556618
 30
0.0
  0
POINT
  5
403BE
330
40168
100
AcDbEntity
  8
Defpoints
 62
     0
100
AcDbPoint
 10
826.3285002944311
 20
268.5599504556618
 30
0.0
  0
POINT
  5
403BF
330
40168
100
AcDbEntity
  8
Defpoints
 62
     0
100
AcDbPoint
 10
844.466927492326
 20
268.5599504556618
 30
0.0
  0
ENDBLK
  5
4016A
330
40168
100
AcDbEntity
  8
0
100
AcDbBlockEnd
  0
BLOCK
  5
402C9
330
402C8
100
AcDbEntity
  8
0
100
AcDbBlockBegin
  2
*D37
 70
     1
 10
0.0
 20
0.0
 30
0.0
  3
*D37
  1

  0
LINE
  5
403C0
330
402C8
100
AcDbEntity
  8
DIM
 62
     6
370
    -2
100
AcDbLine
 10
827.4119708477057
 20
227.3099504556645
 30
0.0
 11
838.3221979953981
 21
227.3099504556645
 31
0.0
  0
LINE
  5
403C1
330
402C8
100
AcDbEntity
  8
DIM
 62
     6
370
    -2
100
AcDbLine
 10
827.4119708477055
 20
266.3099504556618
 30
0.0
 11
838.3221979953983
 21
266.3099504556618
 31
0.0
  0
LINE
  5
403C2
330
402C8
100
AcDbEntity
  8
DIM
 62
     1
370
    -2
100
AcDbLine
 10
837.5221979953982
 20
228.1099504556645
 30
0.0
 11
837.5221979953982
 21
265.5099504556618
 31
0.0
  0
SOLID
  5
403C3
330
402C8
100
AcDbEntity
  8
DIM
 62
     1
100
AcDbTrace
 10
837.3888646620649
 20
228.1099504556645
 30
0.0
 11
837.6555313287315
 21
228.1099504556645
 31
0.0
 12
837.5221979953982
 22
227.3099504556645
 32
0.0
 13
837.5221979953982
 23
227.3099504556645
 33
0.0
  0
SOLID
  5
403C4
330
402C8
100
AcDbEntity
  8
DIM
 62
     1
100
AcDbTrace
 10
837.3888646620649
 20
265.5099504556618
 30
0.0
 11
837.6555313287315
 21
265.5099504556618
 31
0.0
 12
837.5221979953982
 22
266.3099504556618
 32
0.0
 13
837.5221979953982
 23
266.3099504556618
 33
0.0
  0
MTEXT
  5
403C5
330
402C8
100
AcDbEntity
  8
DIM
 62
     4
100
AcDbMText
 10
835.7223479953981
 20
246.8099504556633
 30
0.0
 40
3.0
 41
0.0
 71
     5
 72
     1
  1
\A1;%%c39
  7
Romans字体
 11
0.0000000000000001
 21
1.0
 31
0.0
 73
     1
 44
1.0
  0
POINT
  5
403C6
330
402C8
100
AcDbEntity
  8
Defpoints
 62
     0
100
AcDbPoint
 10
826.911970847706
 20
227.3099504556645
 30
0.0
  0
POINT
  5
403C7
330
402C8
100
AcDbEntity
  8
Defpoints
 62
     0
100
AcDbPoint
 10
826.9119708477052
 20
266.3099504556618
 30
0.0
  0
POINT
  5
403C8
330
402C8
100
AcDbEntity
  8
Defpoints
 62
     0
100
AcDbPoint
 10
837.5221979953982
 20
266.3099504556618
 30
0.0
  0
ENDBLK
  5
402CA
330
402C8
100
AcDbEntity
  8
0
100
AcDbBlockEnd
  0
BLOCK
  5
402F1
330
402F0
100
AcDbEntity
  8
0
100
AcDbBlockBegin
  2
*D38
 70
     1
 10
0.0
 20
0.0
 30
0.0
  3
*D38
  1

  0
LINE
  5
40369
330
402F0
100
AcDbEntity
  8
DIM
 62
     6
370
    -2
100
AcDbLine
 10
814.7744494001056
 20
266.0993110343095
 30
0.0
 11
814.7744494001056
 21
273.6499362439539
 31
0.0
  0
LINE
  5
4036A
330
402F0
100
AcDbEntity
  8
DIM
 62
     6
370
    -2
100
AcDbLine
 10
829.7744494001056
 20
269.0599504556618
 30
0.0
 11
829.7744494001056
 21
273.6499362439539
 31
0.0
  0
LINE
  5
4036B
330
402F0
100
AcDbEntity
  8
DIM
 62
     1
370
    -2
100
AcDbLine
 10
815.5744494001057
 20
272.8499362439539
 30
0.0
 11
828.9744494001057
 21
272.8499362439539
 31
0.0
  0
SOLID
  5
4036C
330
402F0
100
AcDbEntity
  8
DIM
 62
     1
100
AcDbTrace
 10
815.5744494001057
 20
272.9832695772872
 30
0.0
 11
815.5744494001057
 21
272.7166029106205
 31
0.0
 12
814.7744494001056
 22
272.8499362439539
 32
0.0
 13
814.7744494001056
 23
272.8499362439539
 33
0.0
  0
SOLID
  5
4036D
330
402F0
100
AcDbEntity
  8
DIM
 62
     1
100
AcDbTrace
 10
828.9744494001057
 20
272.9832695772872
 30
0.0
 11
828.9744494001057
 21
272.7166029106205
 31
0.0
 12
829.7744494001056
 22
272.8499362439539
 32
0.0
 13
829.7744494001056
 23
272.8499362439539
 33
0.0
  0
MTEXT
  5
4036E
330
402F0
100
AcDbEntity
  8
DIM
 62
     4
100
AcDbMText
 10
822.2744494001057
 20
274.6497862439538
 30
0.0
 40
3.0
 41
0.0
 71
     5
 72
     1
  1
\A1;15
  7
Romans字体
 73
     1
 44
1.0
  0
POINT
  5
4036F
330
402F0
100
AcDbEntity
  8
Defpoints
 62
     0
100
AcDbPoint
 10
814.7744494001056
 20
265.5993110343095
 30
0.0
  0
POINT
  5
40370
330
402F0
100
AcDbEntity
  8
Defpoints
 62
     0
100
AcDbPoint
 10
829.7744494001056
 20
268.5599504556618
 30
0.0
  0
POINT
  5
40371
330
402F0
100
AcDbEntity
  8
Defpoints
 62
     0
100
AcDbPoint
 10
829.7744494001056
 20
272.8499362439539
 30
0.0
  0
ENDBLK
  5
402F2
330
402F0
100
AcDbEntity
  8
0
100
AcDbBlockEnd
  0
ENDSEC
  0
SECTION
  2
ENTITIES
  0
HATCH
  5
28AE
330
1F
100
AcDbEntity
  8
图层 1
 62
     7
100
AcDbHatch
 10
0.0
 20
0.0
 30
0.0
210
0.0
220
0.0
230
1.0
  2
SOLID
 70
     1
 71
     0
 91
        1
 92
        1
 93
        2
 72
     4
 94
        3
 73
     0
 74
     0
 95
       17
 96
       13
 40
0.0
 40
0.0
 40
0.0
 40
0.0
 40
0.3527780104152769
 40
0.3527780104152769
 40
0.3527780104152769
 40
0.7055560208305538
 40
0.7055560208305538
 40
0.7055560208305538
 40
1.058334031245828
 40
1.058334031245828
 40
1.058334031245828
 40
1.411112041661104
 40
1.411112041661104
 40
1.411112041661104
 40
1.411112041661104
 10
11.07013262565829
 20
29.50312817963231
 10
11.07013262565829
 20
29.50312817963231
 10
10.9431807732774
 20
29.50312817963231
 10
10.9431807732774
 20
29.50312817963231
 10
10.9431807732774
 20
29.50312817963231
 10
10.85843136843155
 20
29.22786486877117
 10
10.85843136843155
 20
29.22786486877117
 10
10.85843136843155
 20
29.22786486877117
 10
10.90080607085448
 20
29.2068497724476
 10
10.90080607085448
 20
29.2068497724476
 10
10.94455881238059
 20
29.31571486159919
 10
11.00346998404173
 20
29.40907701083995
 10
11.07013262565829
 20
29.50312817963231
 72
     1
 10
11.07013262565829
 20
29.50312817963231
 11
11.07013262565829
 21
29.50312817963231
 97
        0
 75
     0
 76
     1
 98
        0
450
        0
451
        0
460
0.0
461
0.0
452
        0
462
0.0
453
        0
470

  0
HATCH
  5
2C65
330
1F
100
AcDbEntity
  8
图层 1
 62
     7
100
AcDbHatch
 10
0.0
 20
0.0
 30
0.0
210
0.0
220
0.0
230
1.0
  2
SOLID
 70
     1
 71
     0
 91
        1
 92
        1
 93
        2
 72
     4
 94
        3
 73
     0
 74
     0
 95
       47
 96
       43
 40
0.0
 40
0.0
 40
0.0
 40
0.0
 40
0.3527780104152769
 40
0.3527780104152769
 40
0.3527780104152769
 40
0.7055560208305538
 40
0.7055560208305538
 40
0.7055560208305538
 40
1.058334031245828
 40
1.058334031245828
 40
1.058334031245828
 40
1.411112041661104
 40
1.411112041661104
 40
1.411112041661104
 40
1.763890052076384
 40
1.763890052076384
 40
1.763890052076384
 40
2.116668062491659
 40
2.116668062491659
 40
2.116668062491659
 40
2.469446072906936
 40
2.469446072906936
 40
2.469446072906936
 40
2.822224083322215
 40
2.822224083322215
 40
2.822224083322215
 40
3.175002093737492
 40
3.175002093737492
 40
3.175002093737492
 40
3.527780104152768
 40
3.527780104152768
 40
3.527780104152768
 40
3.880558114568044
 40
3.880558114568044
 40
3.880558114568044
 40
4.233336124983321
 40
4.233336124983321
 40
4.233336124983321
 40
4.586114135398599
 40
4.586114135398599
 40
4.586114135398599
 40
4.938892145813873
 40
4.938892145813873
 40
4.938892145813873
 40
4.938892145813873
 10
162.8986914070121
 20
257.4895347631509
 10
162.8986914070121
 20
257.4895347631509
 10
162.9200510131114
 20
257.4471600607279
 10
162.9200510131114
 20
257.4471600607279
 10
162.9200510131114
 20
257.4471600607279
 10
162.9200510131114
 20
257.404785358305
 10
162.9200510131114
 20
257.404785358305
 10
162.9200510131114
 20
257.404785358305
 10
162.8986914070121
 20
257.36258291077
 10
162.8986914070121
 20
257.36258291077
 10
162.8986914070121
 20
257.36258291077
 10
162.8986914070121
 20
257.320208208347
 10
162.8986914070121
 20
257.320208208347
 10
162.8986914070121
 20
257.320208208347
 10
162.8563167045891
 20
257.2990208571356
 10
162.8563167045891
 20
257.2990208571356
 10
162.8563167045891
 20
257.2990208571356
 10
162.8139420021662
 20
257.2563016449369
 10
162.8139420021662
 20
257.2563016449369
 10
162.8139420021662
 20
257.2563016449369
 10
162.7295371070961
 20
257.2563016449369
 10
162.7295371070961
 20
257.2563016449369
 10
162.7295371070961
 20
257.2563016449369
 10
162.6658027985738
 20
257.2778335059241
 10
162.6658027985738
 20
257.2778335059241
 10
162.6658027985738
 20
257.2778335059241
 10
162.6237726059267
 20
257.2990208571356
 10
162.6237726059267
 20
257.2990208571356
 10
162.6237726059267
 20
257.2990208571356
 10
162.5813979035038
 20
257.3413955595585
 10
162.5813979035038
 20
257.3413955595585
 10
162.5813979035038
 20
257.3413955595585
 10
162.5813979035038
 20
257.4895347631509
 10
162.5813979035038
 20
257.4895347631509
 10
162.5813979035038
 20
257.4895347631509
 10
162.6447877022503
 20
257.5525800521216
 10
162.6447877022503
 20
257.5525800521216
 10
162.6447877022503
 20
257.5525800521216
 10
162.7081775009967
 20
257.5525800521216
 10
162.7081775009967
 20
257.5525800521216
 10
162.8749202324821
 20
257.5424170137356
 10
162.7918933765152
 20
257.5939212252171
 10
162.8986914070121
 20
257.4895347631509
 72
     1
 10
162.8986914070121
 20
257.4895347631509
 11
162.8986914070121
 21
257.4895347631509
 97
        0
 75
     0
 76
     1
 98
        0
450
        0
451
        0
460
0.0
461
0.0
452
        0
462
0.0
453
        0
470

  0
HATCH
  5
2EE7
330
1F
100
AcDbEntity
  8
图层 1
 62
     7
100
AcDbHatch
 10
0.0
 20
0.0
 30
0.0
210
0.0
220
0.0
230
1.0
  2
SOLID
 70
     1
 71
     0
 91
        1
 92
        1
 93
        2
 72
     4
 94
        3
 73
     0
 74
     0
 95
       56
 96
       52
 40
0.0
 40
0.0
 40
0.0
 40
0.0
 40
0.3527780104152769
 40
0.3527780104152769
 40
0.3527780104152769
 40
0.7055560208305538
 40
0.7055560208305538
 40
0.7055560208305538
 40
1.058334031245828
 40
1.058334031245828
 40
1.058334031245828
 40
1.411112041661104
 40
1.411112041661104
 40
1.411112041661104
 40
1.763890052076384
 40
1.763890052076384
 40
1.763890052076384
 40
2.116668062491659
 40
2.116668062491659
 40
2.116668062491659
 40
2.469446072906936
 40
2.469446072906936
 40
2.469446072906936
 40
2.822224083322215
 40
2.822224083322215
 40
2.822224083322215
 40
3.175002093737492
 40
3.175002093737492
 40
3.175002093737492
 40
3.527780104152768
 40
3.527780104152768
 40
3.527780104152768
 40
3.880558114568044
 40
3.880558114568044
 40
3.880558114568044
 40
4.233336124983321
 40
4.233336124983321
 40
4.233336124983321
 40
4.586114135398599
 40
4.586114135398599
 40
4.586114135398599
 40
4.938892145813873
 40
4.938892145813873
 40
4.938892145813873
 40
5.291670156229153
 40
5.291670156229153
 40
5.291670156229153
 40
5.64444816664443
 40
5.64444816664443
 40
5.64444816664443
 40
5.997226177059705
 40
5.997226177059705
 40
5.997226177059705
 40
5.997226177059705
 10
185.4837187788815
 20
241.4451977396596
 10
185.4837187788815
 20
241.4451977396596
 10
185.4837187788815
 20
241.4028230372367
 10
185.4837187788815
 20
241.4028230372367
 10
185.4837187788815
 20
241.4028230372367
 10
185.5047338752051
 20
241.3604483348137
 10
185.5047338752051
 20
241.3604483348137
 10
185.4520238795082
 20
241.2782827532863
 10
185.4671823096433
 20
241.1897437409066
 10
185.335579575289
 20
241.2119646214456
 10
185.335579575289
 20
241.2119646214456
 10
185.2932048728662
 20
241.2119646214456
 10
185.2932048728662
 20
241.2119646214456
 10
185.2932048728662
 20
241.2119646214456
 10
185.2294705643439
 20
241.2334964824328
 10
185.2294705643439
 20
241.2334964824328
 10
185.2294705643439
 20
241.2334964824328
 10
185.1660807655974
 20
241.2543393238685
 10
185.1660807655974
 20
241.2543393238685
 10
185.1660807655974
 20
241.2543393238685
 10
185.1450656692739
 20
241.2758711848558
 10
185.1450656692739
 20
241.2758711848558
 10
185.1450656692739
 20
241.2758711848558
 10
185.1450656692739
 20
241.2967140262914
 10
185.1450656692739
 20
241.2967140262914
 10
185.1450656692739
 20
241.2967140262914
 10
185.1237060631745
 20
241.3604483348137
 10
185.1237060631745
 20
241.3604483348137
 10
185.1237060631745
 20
241.3604483348137
 10
185.1237060631745
 20
241.4028230372367
 10
185.1237060631745
 20
241.4028230372367
 10
185.1237060631745
 20
241.4028230372367
 10
185.1660807655974
 20
241.4875724420825
 10
185.1660807655974
 20
241.4875724420825
 10
185.1660807655974
 20
241.4875724420825
 10
185.2084554680203
 20
241.5085875384061
 10
185.2084554680203
 20
241.5085875384061
 10
185.2084554680203
 20
241.5085875384061
 10
185.2718452667668
 20
241.5297748896175
 10
185.2718452667668
 20
241.5297748896175
 10
185.2718452667668
 20
241.5297748896175
 10
185.3565946716127
 20
241.5297748896175
 10
185.3565946716127
 20
241.5297748896175
 10
185.3565946716127
 20
241.5297748896175
 10
185.4199844703592
 20
241.5085875384061
 10
185.4199844703592
 20
241.5085875384061
 10
185.4199844703592
 20
241.5085875384061
 10
185.4623591727821
 20
241.4875724420825
 10
185.4623591727821
 20
241.4875724420825
 10
185.4623591727821
 20
241.4875724420825
 10
185.4837187788815
 20
241.4451977396596
 10
185.4837187788815
 20
241.4451977396596
 72
     1
 10
185.4837187788815
 20
241.4451977396596
 11
185.4837187788815
 21
241.4451977396596
 97
        0
 75
     0
 76
     1
 98
        0
450
        0
451
        0
460
0.0
461
0.0
452
        0
462
0.0
453
        0
470

  0
HATCH
  5
2F93
330
1F
100
AcDbEntity
  8
图层 1
 62
     7
100
AcDbHatch
 10
0.0
 20
0.0
 30
0.0
210
0.0
220
0.0
230
1.0
  2
SOLID
 70
     1
 71
     0
 91
        1
 92
        1
 93
        2
 72
     4
 94
        3
 73
     0
 74
     0
 95
       38
 96
       34
 40
0.0
 40
0.0
 40
0.0
 40
0.0
 40
0.3527780104152769
 40
0.3527780104152769
 40
0.3527780104152769
 40
0.7055560208305538
 40
0.7055560208305538
 40
0.7055560208305538
 40
1.058334031245828
 40
1.058334031245828
 40
1.058334031245828
 40
1.411112041661104
 40
1.411112041661104
 40
1.411112041661104
 40
1.763890052076384
 40
1.763890052076384
 40
1.763890052076384
 40
2.116668062491659
 40
2.116668062491659
 40
2.116668062491659
 40
2.469446072906936
 40
2.469446072906936
 40
2.469446072906936
 40
2.822224083322215
 40
2.822224083322215
 40
2.822224083322215
 40
3.175002093737492
 40
3.175002093737492
 40
3.175002093737492
 40
3.527780104152768
 40
3.527780104152768
 40
3.527780104152768
 40
3.880558114568044
 40
3.880558114568044
 40
3.880558114568044
 40
3.880558114568044
 10
185.907121293335
 20
220.1937677098971
 10
185.9005756075949
 20
220.0449394867532
 10
185.9329595265197
 20
220.1136691870245
 10
185.864746590912
 20
219.9817219428946
 10
185.864746590912
 20
219.9817219428946
 10
185.822371888489
 20
219.9605345916831
 10
185.822371888489
 20
219.9605345916831
 10
185.822371888489
 20
219.9605345916831
 10
185.6528730787974
 20
219.9605345916831
 10
185.6528730787974
 20
219.9605345916831
 10
185.6528730787974
 20
219.9605345916831
 10
185.5894832800509
 20
220.002909294106
 10
185.5894832800509
 20
220.002909294106
 10
185.5894832800509
 20
220.002909294106
 10
185.5681236739515
 20
220.0240966453175
 10
185.5681236739515
 20
220.0240966453175
 10
185.5681236739515
 20
220.0240966453175
 10
185.5681236739515
 20
220.045283996529
 10
185.5681236739515
 20
220.045283996529
 10
185.5681236739515
 20
220.045283996529
 10
185.547108577628
 20
220.0876586989519
 10
185.547108577628
 20
220.0876586989519
 10
185.547108577628
 20
220.0876586989519
 10
185.547108577628
 20
220.1513930074742
 10
185.547108577628
 20
220.1513930074742
 10
185.547108577628
 20
220.1513930074742
 10
185.5894832800509
 20
220.23614241232
 10
185.5894832800509
 20
220.23614241232
 10
185.5894832800509
 20
220.23614241232
 10
185.6318579824738
 20
220.2573297635315
 10
185.6318579824738
 20
220.2573297635315
 10
185.7055830744942
 20
220.2566407439799
 10
185.8416644359337
 20
220.3310548555519
 10
185.907121293335
 20
220.1937677098971
 72
     1
 10
185.907121293335
 20
220.1937677098971
 11
185.907121293335
 21
220.1937677098971
 97
        0
 75
     0
 76
     1
 98
        0
450
        0
451
        0
460
0.0
461
0.0
452
        0
462
0.0
453
        0
470

  0
HATCH
  5
2FDE
330
1F
100
AcDbEntity
  8
图层 1
 62
     7
100
AcDbHatch
 10
0.0
 20
0.0
 30
0.0
210
0.0
220
0.0
230
1.0
  2
SOLID
 70
     1
 71
     0
 91
        1
 92
        1
 93
        2
 72
     4
 94
        3
 73
     0
 74
     0
 95
       50
 96
       46
 40
0.0
 40
0.0
 40
0.0
 40
0.0
 40
0.3527780104152769
 40
0.3527780104152769
 40
0.3527780104152769
 40
0.7055560208305538
 40
0.7055560208305538
 40
0.7055560208305538
 40
1.058334031245828
 40
1.058334031245828
 40
1.058334031245828
 40
1.411112041661104
 40
1.411112041661104
 40
1.411112041661104
 40
1.763890052076384
 40
1.763890052076384
 40
1.763890052076384
 40
2.116668062491659
 40
2.116668062491659
 40
2.116668062491659
 40
2.469446072906936
 40
2.469446072906936
 40
2.469446072906936
 40
2.822224083322215
 40
2.822224083322215
 40
2.822224083322215
 40
3.175002093737492
 40
3.175002093737492
 40
3.175002093737492
 40
3.527780104152768
 40
3.527780104152768
 40
3.527780104152768
 40
3.880558114568044
 40
3.880558114568044
 40
3.880558114568044
 40
4.233336124983321
 40
4.233336124983321
 40
4.233336124983321
 40
4.586114135398599
 40
4.586114135398599
 40
4.586114135398599
 40
4.938892145813873
 40
4.938892145813873
 40
4.938892145813873
 40
5.291670156229153
 40
5.291670156229153
 40
5.291670156229153
 40
5.291670156229153
 10
180.9117295442905
 20
208.9327766684477
 10
180.9117295442905
 20
208.9327766684477
 10
180.9117295442905
 20
208.7637946234197
 10
180.9117295442905
 20
208.7637946234197
 10
181.2273004989198
 20
208.6749111012643
 10
181.3833634273555
 20
208.6776671794706
 10
181.6948002646751
 20
208.5097186637701
 10
181.9542161258496
 20
208.4294478860095
 10
182.1388733656765
 20
208.2134402565853
 10
182.3297317814676
 20
208.02292635057
 10
182.3297317814676
 20
208.02292635057
 10
182.435496282637
 20
208.065301052993
 10
182.435496282637
 20
208.065301052993
 10
182.288390608372
 20
208.2733849575739
 10
182.3752070718726
 20
208.2134402565853
 10
182.1605774815516
 20
208.3824223016133
 10
182.1605774815516
 20
208.3824223016133
 10
182.1182027791287
 20
208.4247970040363
 10
182.1182027791287
 20
208.4247970040363
 10
182.1182027791287
 20
208.4247970040363
 10
182.0968431730294
 20
208.467516216235
 10
182.0968431730294
 20
208.467516216235
 10
182.0968431730294
 20
208.467516216235
 10
182.0544684706064
 20
208.4883590576707
 10
182.0544684706064
 20
208.4883590576707
 10
182.0544684706064
 20
208.4883590576707
 10
181.9910786718599
 20
208.5305615052057
 10
181.9910786718599
 20
208.5305615052057
 10
181.9910786718599
 20
208.5305615052057
 10
181.948703969437
 20
208.552093366193
 10
181.948703969437
 20
208.552093366193
 10
181.948703969437
 20
208.552093366193
 10
181.9063292670141
 20
208.5729362076286
 10
181.9063292670141
 20
208.5729362076286
 10
181.9063292670141
 20
208.5729362076286
 10
181.8639545645911
 20
208.6156554198274
 10
181.8639545645911
 20
208.6156554198274
 10
181.8639545645911
 20
208.6156554198274
 10
181.821924371944
 20
208.6368427710388
 10
181.821924371944
 20
208.6368427710388
 10
181.6637943848536
 20
208.6742220817127
 10
181.5452830219797
 20
208.8092699138248
 10
181.3771622513911
 20
208.8061693258427
 10
181.2803550043924
 20
208.8573290275484
 10
181.0126709085988
 20
208.8971199066528
 10
180.9117295442905
 20
208.9327766684477
 72
     1
 10
180.9117295442905
 20
208.9327766684477
 11
180.9117295442905
 21
208.9327766684477
 97
        0
 75
     0
 76
     1
 98
        0
450
        0
451
        0
460
0.0
461
0.0
452
        0
462
0.0
453
        0
470

  0
HATCH
  5
35C8
330
1F
100
AcDbEntity
  8
图层 1
 62
     7
100
AcDbHatch
 10
0.0
 20
0.0
 30
0.0
210
0.0
220
0.0
230
1.0
  2
SOLID
 70
     1
 71
     0
 91
        1
 92
        1
 93
        2
 72
     4
 94
        3
 73
     0
 74
     0
 95
       38
 96
       34
 40
0.0
 40
0.0
 40
0.0
 40
0.0
 40
0.3527780104152769
 40
0.3527780104152769
 40
0.3527780104152769
 40
0.7055560208305538
 40
0.7055560208305538
 40
0.7055560208305538
 40
1.058334031245828
 40
1.058334031245828
 40
1.058334031245828
 40
1.411112041661104
 40
1.411112041661104
 40
1.411112041661104
 40
1.763890052076384
 40
1.763890052076384
 40
1.763890052076384
 40
2.116668062491659
 40
2.116668062491659
 40
2.116668062491659
 40
2.469446072906936
 40
2.469446072906936
 40
2.469446072906936
 40
2.822224083322215
 40
2.822224083322215
 40
2.822224083322215
 40
3.175002093737492
 40
3.175002093737492
 40
3.175002093737492
 40
3.527780104152768
 40
3.527780104152768
 40
3.527780104152768
 40
3.880558114568044
 40
3.880558114568044
 40
3.880558114568044
 40
3.880558114568044
 10
189.145513185819
 20
166.8326485368285
 10
189.207869455238
 20
166.740492171803
 10
189.1317327947871
 20
166.6833035490209
 10
189.103138483396
 20
166.6209472796017
 10
189.103138483396
 20
166.6209472796017
 10
189.0607637809731
 20
166.5997599283903
 10
189.0607637809731
 20
166.5997599283903
 10
189.0607637809731
 20
166.5997599283903
 10
188.9973739822266
 20
166.5785725771788
 10
188.9973739822266
 20
166.5785725771788
 10
188.9973739822266
 20
166.5785725771788
 10
188.9549992798037
 20
166.5997599283903
 10
188.9549992798037
 20
166.5997599283903
 10
188.9549992798037
 20
166.5997599283903
 10
188.8916094810572
 20
166.5997599283903
 10
188.8916094810572
 20
166.5997599283903
 10
188.8916094810572
 20
166.5997599283903
 10
188.8492347786343
 20
166.6209472796017
 10
188.8492347786343
 20
166.6209472796017
 10
188.8492347786343
 20
166.6209472796017
 10
188.8278751725349
 20
166.6633219820247
 10
188.8278751725349
 20
166.6633219820247
 10
188.8278751725349
 20
166.6633219820247
 10
188.8068600762114
 20
166.6845093332361
 10
188.8068600762114
 20
166.6845093332361
 10
188.8068600762114
 20
166.6845093332361
 10
188.8068600762114
 20
166.8326485368285
 10
188.8068600762114
 20
166.8326485368285
 10
188.8068600762114
 20
166.8326485368285
 10
188.8702498749578
 20
166.896038335575
 10
188.8702498749578
 20
166.896038335575
 10
189.0228677056355
 20
166.8819134347673
 10
189.0686875058164
 20
166.9411691162043
 10
189.145513185819
 20
166.8326485368285
 72
     1
 10
189.145513185819
 20
166.8326485368285
 11
189.145513185819
 21
166.8326485368285
 97
        0
 75
     0
 76
     1
 98
        0
450
        0
451
        0
460
0.0
461
0.0
452
        0
462
0.0
453
        0
470

  0
HATCH
  5
35D8
330
1F
100
AcDbEntity
  8
图层 1
 62
     7
100
AcDbHatch
 10
0.0
 20
0.0
 30
0.0
210
0.0
220
0.0
230
1.0
  2
SOLID
 70
     1
 71
     0
 91
        1
 92
        1
 93
        2
 72
     4
 94
        3
 73
     0
 74
     0
 95
       68
 96
       64
 40
0.0
 40
0.0
 40
0.0
 40
0.0
 40
0.3527780104152769
 40
0.3527780104152769
 40
0.3527780104152769
 40
0.7055560208305538
 40
0.7055560208305538
 40
0.7055560208305538
 40
1.058334031245828
 40
1.058334031245828
 40
1.058334031245828
 40
1.411112041661104
 40
1.411112041661104
 40
1.411112041661104
 40
1.763890052076384
 40
1.763890052076384
 40
1.763890052076384
 40
2.116668062491659
 40
2.116668062491659
 40
2.116668062491659
 40
2.469446072906936
 40
2.469446072906936
 40
2.469446072906936
 40
2.822224083322215
 40
2.822224083322215
 40
2.822224083322215
 40
3.175002093737492
 40
3.175002093737492
 40
3.175002093737492
 40
3.527780104152768
 40
3.527780104152768
 40
3.527780104152768
 40
3.880558114568044
 40
3.880558114568044
 40
3.880558114568044
 40
4.233336124983321
 40
4.233336124983321
 40
4.233336124983321
 40
4.586114135398599
 40
4.586114135398599
 40
4.586114135398599
 40
4.938892145813873
 40
4.938892145813873
 40
4.938892145813873
 40
5.291670156229153
 40
5.291670156229153
 40
5.291670156229153
 40
5.64444816664443
 40
5.64444816664443
 40
5.64444816664443
 40
5.997226177059705
 40
5.997226177059705
 40
5.997226177059705
 40
6.350004187474984
 40
6.350004187474984
 40
6.350004187474984
 40
6.702782197890257
 40
6.702782197890257
 40
6.702782197890257
 40
7.055560208305537
 40
7.055560208305537
 40
7.055560208305537
 40
7.408338218720808
 40
7.408338218720808
 40
7.408338218720808
 40
7.408338218720808
 10
174.7732543591544
 20
135.4846705078077
 10
174.7732543591544
 20
135.4846705078077
 10
174.7732543591544
 20
135.3789060066383
 10
174.7732543591544
 20
135.3789060066383
 10
174.7732543591544
 20
135.3789060066383
 10
174.8156290615773
 20
135.3789060066383
 10
174.8156290615773
 20
135.3789060066383
 10
174.8156290615773
 20
135.3789060066383
 10
174.8580037640002
 20
135.3578909103147
 10
174.8580037640002
 20
135.3578909103147
 10
174.8580037640002
 20
135.3578909103147
 10
174.9213935627468
 20
135.3578909103147
 10
174.9213935627468
 20
135.3578909103147
 10
174.9213935627468
 20
135.3578909103147
 10
174.9637682651697
 20
135.3365313042154
 10
174.9637682651697
 20
135.3365313042154
 10
174.9637682651697
 20
135.3365313042154
 10
174.9847833614933
 20
135.3365313042154
 10
174.9847833614933
 20
135.3365313042154
 10
174.9847833614933
 20
135.3365313042154
 10
175.0271580639162
 20
135.3155162078918
 10
175.0271580639162
 20
135.3155162078918
 10
175.0271580639162
 20
135.3155162078918
 10
175.0485176700155
 20
135.2941566017924
 10
175.0485176700155
 20
135.2941566017924
 10
175.0485176700155
 20
135.2941566017924
 10
175.0695327663391
 20
135.2941566017924
 10
175.0695327663391
 20
135.2941566017924
 10
175.0695327663391
 20
135.2941566017924
 10
175.0908923724385
 20
135.2731415054689
 10
175.0908923724385
 20
135.2731415054689
 10
175.0908923724385
 20
135.2731415054689
 10
175.1332670748614
 20
135.2731415054689
 10
175.1332670748614
 20
135.2731415054689
 10
175.1332670748614
 20
135.2731415054689
 10
175.154282171185
 20
135.2517818993695
 10
175.154282171185
 20
135.2517818993695
 10
175.154282171185
 20
135.2517818993695
 10
175.154282171185
 20
135.3578909103147
 10
175.154282171185
 20
135.3578909103147
 10
175.154282171185
 20
135.3578909103147
 10
175.1332670748614
 20
135.3789060066383
 10
175.1332670748614
 20
135.3789060066383
 10
175.1332670748614
 20
135.3789060066383
 10
175.0908923724385
 20
135.3789060066383
 10
175.0908923724385
 20
135.3789060066383
 10
175.0908923724385
 20
135.3789060066383
 10
175.0908923724385
 20
135.3999211029619
 10
175.0908923724385
 20
135.3999211029619
 10
175.0908923724385
 20
135.3999211029619
 10
175.0695327663391
 20
135.3999211029619
 10
175.0695327663391
 20
135.3999211029619
 10
175.0695327663391
 20
135.3999211029619
 10
175.0271580639162
 20
135.4212807090612
 10
175.0271580639162
 20
135.4212807090612
 10
175.0271580639162
 20
135.4212807090612
 10
175.0061429675926
 20
135.4212807090612
 10
175.0061429675926
 20
135.4212807090612
 10
175.0061429675926
 20
135.4212807090612
 10
174.9637682651697
 20
135.4422958053848
 10
174.9637682651697
 20
135.4422958053848
 10
174.8996894468716
 20
135.4498750204523
 10
174.8394002361073
 20
135.4860485469109
 10
174.7732543591544
 20
135.4846705078077
 72
     1
 10
174.7732543591544
 20
135.4846705078077
 11
174.7732543591544
 21
135.4846705078077
 97
        0
 75
     0
 76
     1
 98
        0
450
        0
451
        0
460
0.0
461
0.0
452
        0
462
0.0
453
        0
470

  0
HATCH
  5
3807
330
1F
100
AcDbEntity
  8
图层 1
 62
     7
100
AcDbHatch
 10
0.0
 20
0.0
 30
0.0
210
0.0
220
0.0
230
1.0
  2
SOLID
 70
     1
 71
     0
 91
        1
 92
        1
 93
        2
 72
     4
 94
        3
 73
     0
 74
     0
 95
       29
 96
       25
 40
0.0
 40
0.0
 40
0.0
 40
0.0
 40
0.3527780104152769
 40
0.3527780104152769
 40
0.3527780104152769
 40
0.7055560208305538
 40
0.7055560208305538
 40
0.7055560208305538
 40
1.058334031245828
 40
1.058334031245828
 40
1.058334031245828
 40
1.411112041661104
 40
1.411112041661104
 40
1.411112041661104
 40
1.763890052076384
 40
1.763890052076384
 40
1.763890052076384
 40
2.116668062491659
 40
2.116668062491659
 40
2.116668062491659
 40
2.469446072906936
 40
2.469446072906936
 40
2.469446072906936
 40
2.822224083322215
 40
2.822224083322215
 40
2.822224083322215
 40
2.822224083322215
 10
175.4929352807925
 20
164.0174869039101
 10
175.4929352807925
 20
164.0174869039101
 10
175.5139503771161
 20
163.9751122014871
 10
175.5139503771161
 20
163.9751122014871
 10
175.5139503771161
 20
163.9751122014871
 10
175.5139503771161
 20
163.9327374990642
 10
175.5139503771161
 20
163.9327374990642
 10
175.5139503771161
 20
163.9327374990642
 10
175.4929352807925
 20
163.8903627966413
 10
175.4929352807925
 20
163.8903627966413
 10
175.4929352807925
 20
163.8903627966413
 10
175.471920184469
 20
163.8691754454298
 10
175.471920184469
 20
163.8691754454298
 10
175.471920184469
 20
163.8691754454298
 10
175.4505605783696
 20
163.8269729978948
 10
175.4505605783696
 20
163.8269729978948
 10
175.3571984291289
 20
163.7715069239916
 10
175.272449024283
 20
163.8195660377152
 10
175.1966568736079
 20
163.8691754454298
 10
175.208370205985
 20
163.9930267098286
 10
175.1563492298397
 20
164.0216210212197
 10
175.2600466723544
 20
164.0596893514451
 10
175.3330827448232
 20
164.1094710140476
 10
175.4357466580104
 20
164.0753645462439
 10
175.4929352807925
 20
164.0174869039101
 72
     1
 10
175.4929352807925
 20
164.0174869039101
 11
175.4929352807925
 21
164.0174869039101
 97
        0
 75
     0
 76
     1
 98
        0
450
        0
451
        0
460
0.0
461
0.0
452
        0
462
0.0
453
        0
470

  0
HATCH
  5
3895
330
1F
100
AcDbEntity
  8
图层 1
 62
     7
100
AcDbHatch
 10
0.0
 20
0.0
 30
0.0
210
0.0
220
0.0
230
1.0
  2
SOLID
 70
     1
 71
     0
 91
        1
 92
        1
 93
        2
 72
     4
 94
        3
 73
     0
 74
     0
 95
       11
 96
        7
 40
0.0
 40
0.0
 40
0.0
 40
0.0
 40
0.3527780104152769
 40
0.3527780104152769
 40
0.3527780104152769
 40
0.7055560208305538
 40
0.7055560208305538
 40
0.7055560208305538
 40
0.7055560208305538
 10
174.9213935627468
 20
174.5369206529582
 10
174.9213935627468
 20
174.5369206529582
 10
174.9213935627468
 20
174.3043765542958
 10
174.9213935627468
 20
174.3043765542958
 10
174.9213935627468
 20
174.3043765542958
 10
174.9213935627468
 20
174.5369206529582
 10
174.9213935627468
 20
174.5369206529582
 72
     1
 10
174.9213935627468
 20
174.5369206529582
 11
174.9213935627468
 21
174.5369206529582
 97
        0
 75
     0
 76
     1
 98
        0
450
        0
451
        0
460
0.0
461
0.0
452
        0
462
0.0
453
        0
470

  0
HATCH
  5
3943
330
1F
100
AcDbEntity
  8
图层 1
 62
     7
100
AcDbHatch
 10
0.0
 20
0.0
 30
0.0
210
0.0
220
0.0
230
1.0
  2
SOLID
 70
     1
 71
     0
 91
        1
 92
        1
 93
        2
 72
     4
 94
        3
 73
     0
 74
     0
 95
      131
 96
      127
 40
0.0
 40
0.0
 40
0.0
 40
0.0
 40
0.3527780104152769
 40
0.3527780104152769
 40
0.3527780104152769
 40
0.7055560208305538
 40
0.7055560208305538
 40
0.7055560208305538
 40
1.058334031245828
 40
1.058334031245828
 40
1.058334031245828
 40
1.411112041661104
 40
1.411112041661104
 40
1.411112041661104
 40
1.763890052076384
 40
1.763890052076384
 40
1.763890052076384
 40
2.116668062491659
 40
2.116668062491659
 40
2.116668062491659
 40
2.469446072906936
 40
2.469446072906936
 40
2.469446072906936
 40
2.822224083322215
 40
2.822224083322215
 40
2.822224083322215
 40
3.175002093737492
 40
3.175002093737492
 40
3.175002093737492
 40
3.527780104152768
 40
3.527780104152768
 40
3.527780104152768
 40
3.880558114568044
 40
3.880558114568044
 40
3.880558114568044
 40
4.233336124983321
 40
4.233336124983321
 40
4.233336124983321
 40
4.586114135398599
 40
4.586114135398599
 40
4.586114135398599
 40
4.938892145813873
 40
4.938892145813873
 40
4.938892145813873
 40
5.291670156229153
 40
5.291670156229153
 40
5.291670156229153
 40
5.64444816664443
 40
5.64444816664443
 40
5.64444816664443
 40
5.997226177059705
 40
5.997226177059705
 40
5.997226177059705
 40
6.350004187474984
 40
6.350004187474984
 40
6.350004187474984
 40
6.702782197890257
 40
6.702782197890257
 40
6.702782197890257
 40
7.055560208305537
 40
7.055560208305537
 40
7.055560208305537
 40
7.408338218720808
 40
7.408338218720808
 40
7.408338218720808
 40
7.76111622913609
 40
7.76111622913609
 40
7.76111622913609
 40
8.113894239551369
 40
8.113894239551369
 40
8.113894239551369
 40
8.466672249966642
 40
8.466672249966642
 40
8.466672249966642
 40
8.819450260381922
 40
8.819450260381922
 40
8.819450260381922
 40
9.172228270797198
 40
9.172228270797198
 40
9.172228270797198
 40
9.525006281212476
 40
9.525006281212476
 40
9.525006281212476
 40
9.877784291627751
 40
9.877784291627751
 40
9.877784291627751
 40
10.23056230204303
 40
10.23056230204303
 40
10.23056230204303
 40
10.58334031245831
 40
10.58334031245831
 40
10.58334031245831
 40
10.93611832287358
 40
10.93611832287358
 40
10.93611832287358
 40
11.28889633328886
 40
11.28889633328886
 40
11.28889633328886
 40
11.64167434370414
 40
11.64167434370414
 40
11.64167434370414
 40
11.99445235411941
 40
11.99445235411941
 40
11.99445235411941
 40
12.34723036453469
 40
12.34723036453469
 40
12.34723036453469
 40
12.70000837494997
 40
12.70000837494997
 40
12.70000837494997
 40
13.05278638536524
 40
13.05278638536524
 40
13.05278638536524
 40
13.40556439578052
 40
13.40556439578052
 40
13.40556439578052
 40
13.7583424061958
 40
13.7583424061958
 40
13.7583424061958
 40
14.11112041661107
 40
14.11112041661107
 40
14.11112041661107
 40
14.46389842702635
 40
14.46389842702635
 40
14.46389842702635
 40
14.81667643744163
 40
14.81667643744163
 40
14.81667643744163
 40
14.81667643744163
 10
173.3972823146245
 20
126.8274843518258
 10
173.3972823146245
 20
126.8274843518258
 10
173.3972823146245
 20
126.7217198506564
 10
173.3972823146245
 20
126.7217198506564
 10
173.3972823146245
 20
126.7217198506564
 10
173.4186419207238
 20
126.7217198506564
 10
173.4186419207238
 20
126.7217198506564
 10
173.4186419207238
 20
126.7217198506564
 10
173.4820317194703
 20
126.7007047543328
 10
173.4820317194703
 20
126.7007047543328
 10
173.4820317194703
 20
126.7007047543328
 10
173.5244064218933
 20
126.6793451482334
 10
173.5244064218933
 20
126.6793451482334
 10
173.5244064218933
 20
126.6793451482334
 10
173.5877962206398
 20
126.6793451482334
 10
173.5877962206398
 20
126.6793451482334
 10
173.5877962206398
 20
126.6793451482334
 10
173.6301709230627
 20
126.6583300519099
 10
173.6301709230627
 20
126.6583300519099
 10
173.7955356154449
 20
126.5911506456296
 10
173.759706598762
 20
126.6380039751379
 10
173.9478089363468
 20
126.5525655507404
 10
173.9478089363468
 20
126.5525655507404
 10
173.9688240326703
 20
126.4464565397952
 10
173.9688240326703
 20
126.4464565397952
 10
173.9688240326703
 20
126.4464565397952
 10
174.0325583411926
 20
126.5101908483175
 10
174.0325583411926
 20
126.5101908483175
 10
174.0325583411926
 20
126.5101908483175
 10
174.0749330436156
 20
126.5101908483175
 10
174.0749330436156
 20
126.5101908483175
 10
174.0749330436156
 20
126.5101908483175
 10
174.1593379386856
 20
126.4678161458946
 10
174.1593379386856
 20
126.4678161458946
 10
174.1593379386856
 20
126.4678161458946
 10
174.180697544785
 20
126.4464565397952
 10
174.180697544785
 20
126.4464565397952
 10
174.2464989119621
 20
126.3982251711837
 10
174.3298702777047
 20
126.3716979184474
 10
174.3922265471239
 20
126.3196769423022
 10
174.608234176548
 20
126.2059887162895
 10
174.7749769080334
 20
126.0278771622029
 10
174.9637682651697
 20
125.8749148217494
 10
174.9637682651697
 20
125.8749148217494
 10
175.0061429675926
 20
125.9172895241723
 10
175.0061429675926
 20
125.9172895241723
 10
174.961356696739
 20
125.9631093243532
 10
174.782211613325
 20
126.1246844092016
 10
174.7308796567315
 20
126.1501781326105
 10
174.7308796567315
 20
126.1501781326105
 10
174.6885049543085
 20
126.1925528350335
 10
174.6885049543085
 20
126.1925528350335
 10
174.6885049543085
 20
126.1925528350335
 10
174.667489857985
 20
126.2349275374564
 10
174.667489857985
 20
126.2349275374564
 10
174.667489857985
 20
126.2349275374564
 10
174.625115155562
 20
126.2559426337799
 10
174.625115155562
 20
126.2559426337799
 10
174.625115155562
 20
126.2559426337799
 10
174.5827404531391
 20
126.2983173362029
 10
174.5827404531391
 20
126.2983173362029
 10
174.5827404531391
 20
126.2983173362029
 10
174.5403657507162
 20
126.3196769423022
 10
174.5403657507162
 20
126.3196769423022
 10
174.5403657507162
 20
126.3196769423022
 10
174.4979910482932
 20
126.3620516447252
 10
174.4979910482932
 20
126.3620516447252
 10
174.4735308542117
 20
126.3875453681341
 10
174.3247026310678
 20
126.4695386947736
 10
174.2864620459544
 20
126.4888312422181
 10
174.2864620459544
 20
126.4888312422181
 10
174.2654469496308
 20
126.5101908483175
 10
174.2654469496308
 20
126.5101908483175
 10
174.2654469496308
 20
126.5101908483175
 10
174.2230722472079
 20
126.5312059446411
 10
174.2230722472079
 20
126.5312059446411
 10
174.2230722472079
 20
126.5312059446411
 10
174.2017126411085
 20
126.5525655507404
 10
174.2017126411085
 20
126.5525655507404
 10
174.2017126411085
 20
126.5525655507404
 10
174.1383228423621
 20
126.573580647064
 10
174.1383228423621
 20
126.573580647064
 10
174.1383228423621
 20
126.573580647064
 10
174.1169632362627
 20
126.5945957433876
 10
174.1169632362627
 20
126.5945957433876
 10
174.1169632362627
 20
126.5945957433876
 10
174.0959481399391
 20
126.7007047543328
 10
174.0959481399391
 20
126.7007047543328
 10
174.0959481399391
 20
126.7007047543328
 10
174.0325583411926
 20
126.6369704458105
 10
174.0325583411926
 20
126.6369704458105
 10
174.0325583411926
 20
126.6369704458105
 10
173.9901836387697
 20
126.6369704458105
 10
173.9901836387697
 20
126.6369704458105
 10
173.9901836387697
 20
126.6369704458105
 10
173.9054342339239
 20
126.6793451482334
 10
173.9054342339239
 20
126.6793451482334
 10
173.9054342339239
 20
126.6793451482334
 10
173.8420444351773
 20
126.7007047543328
 10
173.8420444351773
 20
126.7007047543328
 10
173.8420444351773
 20
126.7007047543328
 10
173.7996697327544
 20
126.7217198506564
 10
173.7996697327544
 20
126.7217198506564
 10
173.7996697327544
 20
126.7217198506564
 10
173.7572950303315
 20
126.7217198506564
 10
173.7572950303315
 20
126.7217198506564
 10
173.7572950303315
 20
126.7217198506564
 10
173.6725456254856
 20
126.7640945530793
 10
173.6725456254856
 20
126.7640945530793
 10
173.6725456254856
 20
126.7640945530793
 10
173.6515305291621
 20
126.7640945530793
 10
173.6515305291621
 20
126.7640945530793
 10
173.6515305291621
 20
126.7640945530793
 10
173.5667811243162
 20
126.7851096494029
 10
173.5667811243162
 20
126.7851096494029
 10
173.5667811243162
 20
126.7851096494029
 10
173.5033913255697
 20
126.8064692555022
 10
173.5033913255697
 20
126.8064692555022
 10
173.5033913255697
 20
126.8064692555022
 10
173.4396570170474
 20
126.8064692555022
 10
173.4396570170474
 20
126.8064692555022
 10
173.4396570170474
 20
126.8064692555022
 10
173.4186419207238
 20
126.8274843518258
 10
173.4186419207238
 20
126.8274843518258
 10
173.4186419207238
 20
126.8274843518258
 10
173.3972823146245
 20
126.8274843518258
 10
173.3972823146245
 20
126.8274843518258
 72
     1
 10
173.3972823146245
 20
126.8274843518258
 11
173.3972823146245
 21
126.8274843518258
 97
        0
 75
     0
 76
     1
 98
        0
450
        0
451
        0
460
0.0
461
0.0
452
        0
462
0.0
453
        0
470

  0
HATCH
  5
4842
330
1F
100
AcDbEntity
  8
图层 1
 62
     7
100
AcDbHatch
 10
0.0
 20
0.0
 30
0.0
210
0.0
220
0.0
230
1.0
  2
SOLID
 70
     1
 71
     0
 91
        1
 92
        1
 93
        2
 72
     4
 94
        3
 73
     0
 74
     0
 95
       47
 96
       43
 40
0.0
 40
0.0
 40
0.0
 40
0.0
 40
0.3527780104152769
 40
0.3527780104152769
 40
0.3527780104152769
 40
0.7055560208305538
 40
0.7055560208305538
 40
0.7055560208305538
 40
1.058334031245828
 40
1.058334031245828
 40
1.058334031245828
 40
1.411112041661104
 40
1.411112041661104
 40
1.411112041661104
 40
1.763890052076384
 40
1.763890052076384
 40
1.763890052076384
 40
2.116668062491659
 40
2.116668062491659
 40
2.116668062491659
 40
2.469446072906936
 40
2.469446072906936
 40
2.469446072906936
 40
2.822224083322215
 40
2.822224083322215
 40
2.822224083322215
 40
3.175002093737492
 40
3.175002093737492
 40
3.175002093737492
 40
3.527780104152768
 40
3.527780104152768
 40
3.527780104152768
 40
3.880558114568044
 40
3.880558114568044
 40
3.880558114568044
 40
4.233336124983321
 40
4.233336124983321
 40
4.233336124983321
 40
4.586114135398599
 40
4.586114135398599
 40
4.586114135398599
 40
4.938892145813873
 40
4.938892145813873
 40
4.938892145813873
 40
4.938892145813873
 10
180.1920486226523
 20
255.6479577566324
 10
180.1920486226523
 20
255.6479577566324
 10
180.2130637189759
 20
255.6055830542095
 10
180.2130637189759
 20
255.6055830542095
 10
180.2130637189759
 20
255.6055830542095
 10
180.2130637189759
 20
255.5210059042515
 10
180.2130637189759
 20
255.5210059042515
 10
180.2130637189759
 20
255.5210059042515
 10
180.1920486226523
 20
255.4786312018286
 10
180.1920486226523
 20
255.4786312018286
 10
180.1920486226523
 20
255.4786312018286
 10
180.1496739202294
 20
255.4359119896299
 10
180.1496739202294
 20
255.4359119896299
 10
180.1496739202294
 20
255.4359119896299
 10
180.1283143141301
 20
255.4147246384184
 10
180.1283143141301
 20
255.4147246384184
 10
180.1283143141301
 20
255.4147246384184
 10
180.0225498129606
 20
255.4147246384184
 10
180.0225498129606
 20
255.4147246384184
 10
180.0225498129606
 20
255.4147246384184
 10
179.9591600142141
 20
255.4359119896299
 10
179.9591600142141
 20
255.4359119896299
 10
179.9591600142141
 20
255.4359119896299
 10
179.9167853117912
 20
255.4570993408414
 10
179.9167853117912
 20
255.4570993408414
 10
179.9167853117912
 20
255.4570993408414
 10
179.8957702154676
 20
255.4786312018286
 10
179.8957702154676
 20
255.4786312018286
 10
179.8957702154676
 20
255.4786312018286
 10
179.8744106093683
 20
255.4994740432643
 10
179.8744106093683
 20
255.4994740432643
 10
179.8744106093683
 20
255.4994740432643
 10
179.8744106093683
 20
255.6479577566324
 10
179.8744106093683
 20
255.6479577566324
 10
179.9608825630931
 20
255.7323626517025
 10
180.045631967939
 20
255.7085914771726
 10
180.1496739202294
 20
255.7115198102668
 10
180.1496739202294
 20
255.7115198102668
 10
180.170689016553
 20
255.6688005980681
 10
180.170689016553
 20
255.6688005980681
 10
180.170689016553
 20
255.6688005980681
 10
180.1920486226523
 20
255.6479577566324
 10
180.1920486226523
 20
255.6479577566324
 72
     1
 10
180.1920486226523
 20
255.6479577566324
 11
180.1920486226523
 21
255.6479577566324
 97
        0
 75
     0
 76
     1
 98
        0
450
        0
451
        0
460
0.0
461
0.0
452
        0
462
0.0
453
        0
470

  0
INSERT
  5
12DE1
102
{ACAD_XDICTIONARY
360
13B18
102
}
330
1F
100
AcDbEntity
  8
图框
 62
     3
100
AcDbBlockReference
  2
A4图框-NEW
 10
65.79322590073838
 20
-206.3976199895988
 30
0.0
 41
0.75
 42
0.75
 43
0.75
  0
MTEXT
  5
1349F
330
1F
100
AcDbEntity
  8
图框
 62
     3
100
AcDbMText
 10
898.3849558613526
 20
181.9425295187664
 30
0.0
 40
1.689599999999999
 41
25.2092939943155
 71
     5
 72
     5
  1
{\T0.95;HY-Z30-CV}
  7
Romans字体
 73
     1
 44
1.0
1001
ACAD
1000
ACAD_MTEXT_DEFINED_HEIGHT_BEGIN
1070
    46
1040
6.302116888634764
1000
ACAD_MTEXT_DEFINED_HEIGHT_END
  0
MTEXT
  5
134E7
330
1F
100
AcDbEntity
  8
图框
 62
     3
100
AcDbMText
 10
847.3955931824749
 20
165.3236653350565
 30
0.0
 40
1.689599999999999
 41
25.20929399431602
 71
     5
 72
     5
  1
1.5:1
  7
Romans字体
 73
     1
 44
1.0
  0
MTEXT
  5
134E8
330
1F
100
AcDbEntity
  8
图框
 62
     3
100
AcDbMText
 10
863.9721255634023
 20
165.3195498011057
 30
0.0
 40
1.689599999999999
 41
25.20929399431602
 71
     5
 72
     5
  1
5g
  7
Romans字体
 73
     1
 44
1.0
  0
MTEXT
  5
1DE52
102
{ACAD_XDICTIONARY
360
40563
102
}
330
1F
100
AcDbEntity
  8
0
 62
     3
100
AcDbMText
 10
863.4613571812245
 20
221.6345016197894
 30
0.0
 40
1.875
 41
0.000000000000032
 71
     1
 72
     5
  1
\A1;技术参数：{\Fromans|c134;                             \P- }温度范围：{\Fromans|c134;-40}℃{\Fromans|c134; ... +85}℃{\Fromans|c134;          \P- }材料：硅橡胶{\Fromans|c134;\P- }防护等级：{\Fromans|c134;IP67 }
 73
     1
 44
1.0
  0
MTEXT
  5
1DE53
102
{ACAD_XDICTIONARY
360
40565
102
}
330
1F
100
AcDbEntity
  8
0
 62
     3
100
AcDbMText
 10
863.2891521539272
 20
206.6052817065775
 30
0.0
 40
1.875
 41
0.0000000000000107
 71
     1
 72
     5
  1
\A1;{\Fromans|c134;Technical specification:\P- \A0;Temperature range\A1;: -40}℃{\Fromans|c134; ... +85}℃{\Fromans|c134;\P- \A0;Degree of protection\A1;: IP67\P- \A0;Material:\A1;Silicone rubber\P  }
 73
     1
 44
1.0
1001
ACAD
1000
ACAD_MTEXT_DEFINED_HEIGHT_BEGIN
1070
    46
1040
61.24215749856471
1000
ACAD_MTEXT_DEFINED_HEIGHT_END
  0
MTEXT
  5
3EC4B
330
1F
100
AcDbEntity
  8
图框
 62
     3
100
AcDbMText
 10
898.3849558613526
 20
175.427470389502
 30
0.0
 40
1.689599999999999
 41
25.2092939943155
 71
     5
 72
     5
  1
{\T0.95;2690000009002}
  7
Romans字体
 73
     1
 44
1.0
1001
ACAD
1000
ACAD_MTEXT_DEFINED_HEIGHT_BEGIN
1070
    46
1040
6.302116888634764
1000
ACAD_MTEXT_DEFINED_HEIGHT_END
  0
MTEXT
  5
3FFBA
330
1F
100
AcDbEntity
  8
DIM
 62
     4
100
AcDbMText
 10
820.8406167855104
 20
206.4827843633083
 30
0.0
 40
3.5
 41
0.0
 71
     5
 72
     1
  1
C-C
  7
Romans字体
 73
     1
 44
1.0
  0
LINE
  5
3FFBB
330
1F
100
AcDbEntity
  8
DIM
 62
     1
100
AcDbLine
 10
752.8801292918991
 20
214.3749736497218
 30
0.0
 11
752.8801292918991
 21
216.4810233458044
 31
0.0
  0
MTEXT
  5
3FFBC
330
1F
100
AcDbEntity
  8
DIM
 62
     4
100
AcDbMText
 10
764.3547784650555
 20
214.2090848702516
 30
0.0
 40
3.5
 41
0.0
 71
     5
 72
     1
  1
C
  7
Romans字体
 73
     1
 44
1.0
  0
LINE
  5
3FFC1
330
1F
100
AcDbEntity
  8
CEN
  6
CENTER
 62
     1
100
AcDbLine
 10
752.8801292919009
 20
220.0878687280734
 30
0.0
 11
752.8801292919009
 21
273.5320321832502
 31
0.0
  0
LINE
  5
3FFC2
330
1F
100
AcDbEntity
  8
CEN
  6
CENTER
 62
     1
100
AcDbLine
 10
778.180129291901
 20
246.8099504556618
 30
0.0
 11
727.5801292919007
 21
246.8099504556618
 31
0.0
  0
LINE
  5
3FFC3
330
1F
100
AcDbEntity
  8
CEN
  6
CENTER
 62
     1
 48
0.3
100
AcDbLine
 10
774.4801292919012
 20
246.8099504556618
 30
0.0
 11
783.2801292919006
 21
246.8099504556618
 31
0.0
  0
LINE
  5
3FFC4
330
1F
100
AcDbEntity
  8
CEN
  6
CENTER
 62
     1
 48
0.3
100
AcDbLine
 10
778.880129291901
 20
242.4099504556613
 30
0.0
 11
778.880129291901
 21
251.2099504556615
 31
0.0
  0
LINE
  5
3FFC5
330
1F
100
AcDbEntity
  8
CEN
  6
CENTER
 62
     1
 48
0.5689599999999999
100
AcDbLine
 10
809.3452838492215
 20
246.8099504556618
 30
0.0
 11
831.144287317192
 21
246.8099504556618
 31
0.0
  0
CIRCLE
  5
3FFC6
330
1F
100
AcDbEntity
  8
0
  6
Continuous
 62
     7
100
AcDbCircle
 10
752.8801292919009
 20
246.8099504556618
 30
0.0
 40
2.923268718399998
  0
HATCH
  5
3FFC8
330
1F
100
AcDbEntity
  8
hatch
100
AcDbHatch
 10
0.0
 20
0.0
 30
0.0
210
0.0
220
0.0
230
1.0
  2
ANSI37
 70
     0
 71
     0
 91
        1
 92
        5
 93
       33
 72
     1
 10
815.7744494001057
 20
269.8099504556618
 11
811.7744494001057
 21
269.8099504556618
 72
     1
 10
811.7744494001057
 20
269.8099504556618
 11
811.7744494001057
 21
223.8099504556618
 72
     1
 10
811.7744494001057
 20
223.8099504556618
 11
815.7744494001057
 21
223.8099504556618
 72
     1
 10
815.7744494001057
 20
223.8099504556618
 11
815.7744494001057
 21
225.0599504556618
 72
     1
 10
815.7744494001057
 20
225.0599504556618
 11
829.7744494001056
 21
225.0599504556618
 72
     1
 10
829.7744494001056
 20
225.0599504556618
 11
829.7744494001056
 21
226.8099504556619
 72
     1
 10
829.7744494001056
 20
226.8099504556619
 11
828.9084239964061
 21
227.3099504556618
 72
     1
 10
828.9084239964061
 20
227.3099504556618
 11
828.6369279526059
 21
227.3099504556618
 72
     1
 10
828.6369279526059
 20
227.3099504556618
 11
828.1574716216399
 21
227.8813442605348
 72
     4
 94
        3
 73
     1
 74
     0
 95
        8
 96
        4
 40
0.0
 40
0.0
 40
0.0
 40
0.0
 40
1.0
 40
1.0
 40
1.0
 40
1.0
 10
828.1574716217059
 20
227.8813442604612
 42
1.0
 10
827.9420318180056
 20
228.1380954204621
 42
0.7618584065000002
 10
827.6068669822061
 20
228.1380954204621
 42
0.7618584065000002
 10
827.3914271786058
 20
227.8813442604612
 42
1.0
 72
     1
 10
827.3914271786074
 20
227.8813442604629
 11
826.9119708477061
 21
227.3099504556618
 72
     1
 10
826.9119708477061
 20
227.3099504556618
 11
820.6369279526063
 21
227.3099504556618
 72
     1
 10
820.6369279526063
 20
227.3099504556618
 11
820.1574716217045
 21
227.8813442604629
 72
     4
 94
        3
 73
     1
 74
     0
 95
        8
 96
        4
 40
0.0
 40
0.0
 40
0.0
 40
0.0
 40
1.0
 40
1.0
 40
1.0
 40
1.0
 10
820.1574716217059
 20
227.8813442604612
 42
1.0
 10
819.9420318180056
 20
228.1380954204621
 42
0.7618584065000002
 10
819.6068669822061
 20
228.1380954204621
 42
0.7618584065000002
 10
819.3914271786058
 20
227.8813442604612
 42
1.0
 72
     1
 10
819.3914271786074
 20
227.8813442604629
 11
818.9119708477058
 21
227.3099504556618
 72
     1
 10
818.9119708477058
 20
227.3099504556618
 11
814.7744494001056
 21
227.3099504556618
 72
     1
 10
814.7744494001056
 20
227.3099504556618
 11
814.7744494001056
 21
243.8866817372615
 72
     4
 94
        3
 73
     1
 74
     0
 95
        8
 96
        4
 40
0.0
 40
0.0
 40
0.0
 40
0.0
 40
1.0
 40
1.0
 40
1.0
 40
1.0
 10
814.7744494001056
 20
243.8866817372615
 42
1.0
 10
815.6450000008058
 20
244.6282047392603
 42
0.9385766268999999
 10
816.1244494001048
 20
245.6663969103617
 42
0.9385766268999999
 10
816.1244494001056
 20
246.8099504556618
 42
1.0
 72
     4
 94
        3
 73
     1
 74
     0
 95
        8
 96
        4
 40
0.0
 40
0.0
 40
0.0
 40
0.0
 40
1.0
 40
1.0
 40
1.0
 40
1.0
 10
816.1244494001056
 20
246.8099504556618
 42
1.0
 10
816.1244494001048
 20
247.953504000861
 42
0.9385766268999999
 10
815.6450000008058
 20
248.9916961720616
 42
0.9385766268999999
 10
814.7744494001056
 20
249.7332191740612
 42
1.0
 72
     1
 10
814.7744494001056
 20
249.7332191740622
 11
814.7744494001056
 21
266.3099504556618
 72
     1
 10
814.7744494001056
 20
266.3099504556618
 11
818.9119708477052
 21
266.3099504556618
 72
     1
 10
818.9119708477052
 20
266.3099504556618
 11
819.39142717858
 21
265.7385566507925
 72
     2
 10
819.7744494001558
 20
266.0599504556163
 40
0.5000000000000057
 50
219.999999997107
 51
320.000000002893
 73
     1
 72
     1
 10
820.1574716217312
 20
265.7385566507925
 11
820.6369279526056
 21
266.3099504556618
 72
     1
 10
820.6369279526056
 20
266.3099504556618
 11
826.9119708477052
 21
266.3099504556618
 72
     1
 10
826.9119708477052
 20
266.3099504556618
 11
827.3914271824514
 21
265.7385566507888
 72
     2
 10
827.7744494040302
 20
266.0599504556091
 40
0.5000000000001041
 50
219.9999999965532
 51
320.0000000029266
 73
     1
 72
     1
 10
828.1574716256063
 20
265.7385566507852
 11
828.6369279526056
 21
266.3099504556618
 72
     1
 10
828.6369279526056
 20
266.3099504556618
 11
828.9084239964061
 21
266.3099504556618
 72
     1
 10
828.9084239964061
 20
266.3099504556618
 11
829.7744494001056
 21
266.8099504556618
 72
     1
 10
829.7744494001056
 20
266.8099504556618
 11
829.7744494001056
 21
268.5599504556618
 72
     1
 10
829.7744494001056
 20
268.5599504556618
 11
815.7744494001057
 21
268.5599504556618
 72
     1
 10
815.7744494001057
 20
268.5599504556618
 11
815.7744494001057
 21
269.8099504556618
 97
        0
 75
     0
 76
     1
 52
90.0
 41
5.0
 77
     0
 78
     2
 53
135.0
 43
-1528.631301016868
 44
-4913.926096830165
 45
-0.4419417382415923
 46
-0.4419417382415923
 79
     0
 53
225.0
 43
-1528.631301016868
 44
-4913.926096830165
 45
0.4419417382415923
 46
-0.4419417382415923
 79
     0
 47
0.0789676430213261
 98
        1
 10
834.870588324787
 20
547.8951779842051
1001
ACAD
1010
0.0
1020
0.0
1030
0.0
  0
SPLINE
  5
3FFC9
330
1F
100
AcDbEntity
  8
0
  6
Continuous
 62
     7
100
AcDbSpline
210
0.0
220
0.0
230
1.0
 70
    12
 71
     3
 72
     8
 73
     4
 74
     0
 42
0.0000000001
 43
0.0000000001
 40
0.0
 40
0.0
 40
0.0
 40
0.0
 40
1.0
 40
1.0
 40
1.0
 40
1.0
 10
819.3914271786058
 20
227.8813442604612
 30
0.0
 41
1.0
 10
819.6068669822061
 20
228.1380954204621
 30
0.0
 41
0.7618584065000002
 10
819.9420318180056
 20
228.1380954204621
 30
0.0
 41
0.7618584065000002
 10
820.1574716217059
 20
227.8813442604612
 30
0.0
 41
1.0
  0
SPLINE
  5
3FFCA
330
1F
100
AcDbEntity
  8
0
  6
Continuous
 62
     7
100
AcDbSpline
210
0.0
220
0.0
230
1.0
 70
    12
 71
     3
 72
     8
 73
     4
 74
     0
 42
0.0000000001
 43
0.0000000001
 40
0.0
 40
0.0
 40
0.0
 40
0.0
 40
1.0
 40
1.0
 40
1.0
 40
1.0
 10
827.3914271786058
 20
227.8813442604612
 30
0.0
 41
1.0
 10
827.6068669822061
 20
228.1380954204621
 30
0.0
 41
0.7618584065000002
 10
827.9420318180056
 20
228.1380954204621
 30
0.0
 41
0.7618584065000002
 10
828.1574716217059
 20
227.8813442604612
 30
0.0
 41
1.0
  0
SPLINE
  5
3FFCB
330
1F
100
AcDbEntity
  8
0
  6
Continuous
 62
     7
100
AcDbSpline
210
0.0
220
0.0
230
1.0
 70
    12
 71
     3
 72
     8
 73
     4
 74
     0
 42
0.0000000001
 43
0.0000000001
 40
0.0
 40
0.0
 40
0.0
 40
0.0
 40
1.0
 40
1.0
 40
1.0
 40
1.0
 10
816.1244494001056
 20
246.8099504556618
 30
0.0
 41
1.0
 10
816.1244494001048
 20
247.953504000861
 30
0.0
 41
0.9385766268999999
 10
815.6450000008058
 20
248.9916961720616
 30
0.0
 41
0.9385766268999999
 10
814.7744494001056
 20
249.7332191740612
 30
0.0
 41
1.0
  0
SPLINE
  5
3FFCC
330
1F
100
AcDbEntity
  8
0
  6
Continuous
 62
     7
100
AcDbSpline
210
0.0
220
0.0
230
1.0
 70
    12
 71
     3
 72
     8
 73
     4
 74
     0
 42
0.0000000001
 43
0.0000000001
 40
0.0
 40
0.0
 40
0.0
 40
0.0
 40
1.0
 40
1.0
 40
1.0
 40
1.0
 10
816.1244494001056
 20
246.8099504556618
 30
0.0
 41
1.0
 10
816.1244494001048
 20
245.6663969103617
 30
0.0
 41
0.9385766268999999
 10
815.6450000008058
 20
244.6282047392603
 30
0.0
 41
0.9385766268999999
 10
814.7744494001056
 20
243.8866817372615
 30
0.0
 41
1.0
  0
LINE
  5
3FFCD
330
1F
100
AcDbEntity
  8
0
  6
Continuous
 62
     7
100
AcDbLine
 10
780.3149045269009
 20
243.076129353161
 30
0.0
 11
776.9897982561009
 21
241.7984087554611
 31
0.0
  0
LINE
  5
3FFCE
330
1F
100
AcDbEntity
  8
0
  6
Continuous
 62
     7
100
AcDbLine
 10
776.9897982561009
 20
251.8214921558616
 30
0.0
 11
780.3149045269009
 21
250.5437715580617
 31
0.0
  0
LINE
  5
3FFCF
330
1F
100
AcDbEntity
  8
0
  6
Continuous
 62
     7
100
AcDbLine
 10
712.5878474304918
 20
201.537829068874
 30
0.0
 11
713.7726399613921
 21
204.0727025122741
 31
0.0
  0
LINE
  5
3FFD0
330
1F
100
AcDbEntity
  8
0
  6
Continuous
 62
     7
100
AcDbLine
 10
709.5734853137918
 20
192.1364860373741
 30
0.0
 11
713.7202591718915
 21
201.0085430894741
 31
0.0
  0
LINE
  5
3FFD1
330
1F
100
AcDbEntity
  8
0
  6
Continuous
 62
     7
100
AcDbLine
 10
723.8873444151923
 20
211.5594187632741
 30
0.0
 11
722.7025518842919
 21
209.024545319774
 31
0.0
  0
LINE
  5
3FFD2
330
1F
100
AcDbEntity
  8
0
  6
Continuous
 62
     7
100
AcDbLine
 10
725.223956455792
 20
213.180632325274
 30
0.0
 11
725.3545919148917
 21
213.5467656620739
 31
0.0
  0
LINE
  5
3FFD3
330
1F
100
AcDbEntity
  8
0
  6
Continuous
 62
     7
100
AcDbLine
 10
724.5919185002922
 20
210.6919277713741
 30
0.0
 11
724.4608226106919
 21
210.3251849160742
 31
0.0
  0
LINE
  5
3FFD4
330
1F
100
AcDbEntity
  8
0
  6
Continuous
 62
     7
100
AcDbLine
 10
725.3542440363917
 20
213.5459771679738
 30
0.0
 11
726.539036567292
 21
216.0808506113739
 31
0.0
  0
LINE
  5
3FFD5
330
1F
100
AcDbEntity
  8
0
  6
Continuous
 62
     7
100
AcDbLine
 10
724.5919185002922
 20
210.6919277713741
 30
0.0
 11
725.223956455792
 21
213.180632325274
 31
0.0
  0
LINE
  5
3FFD6
330
1F
100
AcDbEntity
  8
0
  6
Continuous
 62
     7
100
AcDbLine
 10
733.4260372612916
 20
215.2719937265742
 30
0.0
 11
732.2412447303922
 21
212.737120283074
 31
0.0
  0
LINE
  5
3FFD7
330
1F
100
AcDbEntity
  8
0
  6
Continuous
 62
     7
100
AcDbLine
 10
734.010536009192
 20
210.0966450749738
 30
0.0
 11
735.1953285400914
 21
212.6315185183738
 31
0.0
  0
LINE
  5
3FFD8
330
1F
100
AcDbEntity
  8
0
  6
Continuous
 62
     7
100
AcDbLine
 10
736.703508662792
 20
208.139646098074
 30
0.0
 11
737.8883011936912
 21
210.6745195415742
 31
0.0
  0
LINE
  5
3FFD9
330
1F
100
AcDbEntity
  8
0
  6
Continuous
 62
     7
100
AcDbLine
 10
732.2412447303922
 20
212.737120283074
 30
0.0
 11
734.010536009192
 21
210.0966450749738
 31
0.0
  0
LINE
  5
3FFDA
330
1F
100
AcDbEntity
  8
0
  6
Continuous
 62
     7
100
AcDbLine
 10
733.4260372612916
 20
215.2719937265742
 30
0.0
 11
735.1953285400914
 21
212.6315185183738
 31
0.0
  0
LINE
  5
3FFDB
330
1F
100
AcDbEntity
  8
0
  6
Continuous
 62
     7
100
AcDbLine
 10
748.9814139140918
 20
173.717333955174
 30
0.0
 11
753.1281877722922
 21
182.589391007174
 31
0.0
  0
LINE
  5
3FFDC
330
1F
100
AcDbEntity
  8
0
  6
Continuous
 62
     7
100
AcDbLine
 10
754.2605995136916
 20
182.0601050278741
 30
0.0
 11
755.4453920445921
 21
184.5949784712738
 31
0.0
  0
LWPOLYLINE
  5
3FFDD
330
1F
100
AcDbEntity
  8
0
  6
Continuous
 62
     7
100
AcDbPolyline
 90
        2
 70
     0
 43
0.0
 10
829.7744494001056
 20
225.0599504556618
 10
829.7744494001056
 20
268.5599504556618
  0
LINE
  5
3FFDE
330
1F
100
AcDbEntity
  8
0
  6
Continuous
 62
     7
100
AcDbLine
 10
828.9084239964058
 20
266.3099504556618
 30
0.0
 11
828.9084239964058
 21
227.3099504556618
 31
0.0
  0
LINE
  5
3FFDF
330
1F
100
AcDbEntity
  8
0
  6
Continuous
 62
     7
100
AcDbLine
 10
828.6369279526059
 20
266.3099504556618
 30
0.0
 11
828.6369279526059
 21
227.3099504556618
 31
0.0
  0
LINE
  5
3FFE0
330
1F
100
AcDbEntity
  8
0
  6
Continuous
 62
     7
100
AcDbLine
 10
828.1574716217059
 20
265.7385566507616
 30
0.0
 11
828.1574716217059
 21
227.8813442604612
 31
0.0
  0
LINE
  5
3FFE1
330
1F
100
AcDbEntity
  8
0
  6
Continuous
 62
     7
100
AcDbLine
 10
827.3914271786058
 20
265.7385566507616
 30
0.0
 11
827.3914271786058
 21
227.8813442604612
 31
0.0
  0
LINE
  5
3FFE2
330
1F
100
AcDbEntity
  8
0
  6
Continuous
 62
     7
100
AcDbLine
 10
826.911970847706
 20
266.3099504556618
 30
0.0
 11
826.911970847706
 21
227.3099504556618
 31
0.0
  0
LINE
  5
3FFE3
330
1F
100
AcDbEntity
  8
0
  6
Continuous
 62
     7
100
AcDbLine
 10
820.6369279526059
 20
266.3099504556618
 30
0.0
 11
820.6369279526059
 21
227.3099504556618
 31
0.0
  0
LINE
  5
3FFE4
330
1F
100
AcDbEntity
  8
0
  6
Continuous
 62
     7
100
AcDbLine
 10
820.1574716217059
 20
265.7385566507616
 30
0.0
 11
820.1574716217059
 21
227.8813442604612
 31
0.0
  0
LINE
  5
3FFE5
330
1F
100
AcDbEntity
  8
0
  6
Continuous
 62
     7
100
AcDbLine
 10
819.3914271786058
 20
265.7385566507616
 30
0.0
 11
819.3914271786058
 21
227.8813442604612
 31
0.0
  0
LINE
  5
3FFE6
330
1F
100
AcDbEntity
  8
0
  6
Continuous
 62
     7
100
AcDbLine
 10
818.9119708477058
 20
266.3099504556618
 30
0.0
 11
818.9119708477058
 21
227.3099504556618
 31
0.0
  0
ARC
  5
3FFE7
330
1F
100
AcDbEntity
  8
0
  6
Continuous
 62
     7
100
AcDbCircle
 10
752.8801292919009
 20
246.8099504556618
 30
0.0
 40
23.0
100
AcDbArc
 50
18.89908600691915
 51
341.1009139930808
  0
CIRCLE
  5
3FFE8
330
1F
100
AcDbEntity
  8
0
  6
Continuous
 62
     7
100
AcDbCircle
 10
752.8801292919009
 20
246.8099504556618
 30
0.0
 40
21.75
  0
CIRCLE
  5
3FFE9
330
1F
100
AcDbEntity
  8
0
  6
Continuous
 62
     7
100
AcDbCircle
 10
752.8801292919009
 20
246.8099504556618
 30
0.0
 40
20.0
  0
CIRCLE
  5
3FFEA
330
1F
100
AcDbEntity
  8
0
  6
Continuous
 62
     7
100
AcDbCircle
 10
752.8801292919009
 20
246.8099504556618
 30
0.0
 40
19.5
  0
CIRCLE
  5
3FFEB
330
1F
100
AcDbEntity
  8
0
  6
Continuous
 62
     7
100
AcDbCircle
 10
752.8801292919009
 20
246.8099504556618
 30
0.0
 40
18.9286061952
  0
CIRCLE
  5
3FFEC
330
1F
100
AcDbEntity
  8
0
  6
Continuous
 62
     7
100
AcDbCircle
 10
752.8801292919009
 20
246.8099504556618
 30
0.0
 40
18.75
  0
ARC
  5
3FFED
330
1F
100
AcDbEntity
  8
0
  6
Continuous
 62
     7
100
AcDbCircle
 10
778.880129291901
 20
246.8099504556618
 30
0.0
 40
4.0
100
AcDbArc
 50
291.0199999999917
 51
68.98000000000827
  0
ARC
  5
3FFEE
330
1F
100
AcDbEntity
  8
0
  6
Continuous
 62
     7
100
AcDbCircle
 10
778.4245734911007
 20
255.5553132582615
 30
0.0
 40
4.0
100
AcDbArc
 50
198.8990860069191
 51
248.9800000000083
  0
ARC
  5
3FFEF
330
1F
100
AcDbEntity
  8
0
  6
Continuous
 62
     7
100
AcDbCircle
 10
778.4245734911007
 20
238.0645876529612
 30
0.0
 40
4.0
100
AcDbArc
 50
111.0199999999917
 51
161.1009139930808
  0
CIRCLE
  5
3FFF0
330
1F
100
AcDbEntity
  8
0
  6
Continuous
 62
     7
100
AcDbCircle
 10
778.880129291901
 20
246.8099504556618
 30
0.0
 40
1.5
  0
ARC
  5
3FFF1
330
1F
100
AcDbEntity
  8
0
  6
Continuous
 62
     7
100
AcDbCircle
 10
724.3732928987917
 20
183.1241707518738
 30
0.0
 40
15.3921957111
100
AcDbArc
 50
106.0183980290101
 51
108.3273766330222
  0
ARC
  5
3FFF2
330
1F
100
AcDbEntity
  8
0
  6
Continuous
 62
     7
100
AcDbCircle
 10
733.5165525212913
 20
178.4675640107738
 30
0.0
 40
14.9188010756
100
AcDbArc
 50
14.99545996592006
 51
20.63635765989918
  0
ARC
  5
3FFF3
330
1F
100
AcDbEntity
  8
0
  6
Continuous
 62
     7
100
AcDbCircle
 10
723.6769745567917
 20
183.5173480016742
 30
0.0
 40
14.9100178773
100
AcDbArc
 50
110.4557754578207
 51
111.5024794188018
  0
ARC
  5
3FFF4
330
1F
100
AcDbEntity
  8
0
  6
Continuous
 62
     7
100
AcDbCircle
 10
724.1488197195923
 20
183.7881988280741
 30
0.0
 40
14.6912661501
100
AcDbArc
 50
108.3106619177897
 51
111.4392114421927
  0
ARC
  5
3FFF5
330
1F
100
AcDbEntity
  8
0
  6
Continuous
 62
     7
100
AcDbCircle
 10
733.7067649266919
 20
179.1356941613739
 30
0.0
 40
14.5055297529
100
AcDbArc
 50
15.43759776989812
 51
18.40172646580745
  0
ARC
  5
3FFF6
330
1F
100
AcDbEntity
  8
0
  6
Continuous
 62
     7
100
AcDbCircle
 10
733.7241255217922
 20
179.7121116860739
 30
0.0
 40
14.1674525281
100
AcDbArc
 50
16.19686810881418
 51
18.48121292330625
  0
ARC
  5
3FFF7
330
1F
100
AcDbEntity
  8
0
  6
Continuous
 62
     7
100
AcDbCircle
 10
723.9132557128914
 20
184.3854306938736
 30
0.0
 40
14.0492573314
100
AcDbArc
 50
111.4352644503112
 51
113.7066123294956
  0
ARC
  5
3FFF8
330
1F
100
AcDbEntity
  8
0
  6
Continuous
 62
     7
100
AcDbCircle
 10
734.1662608760916
 20
179.2671614568739
 30
0.0
 40
14.0276175712
100
AcDbArc
 50
14.8863679937953
 51
15.41957922069622
  0
ARC
  5
3FFF9
330
1F
100
AcDbEntity
  8
0
  6
Continuous
 62
     7
100
AcDbCircle
 10
734.4049174816919
 20
178.7078448571741
 30
0.0
 40
13.998517512
100
AcDbArc
 50
12.50590258529403
 51
14.98628910700554
  0
ARC
  5
3FFFA
330
1F
100
AcDbEntity
  8
0
  6
Continuous
 62
     7
100
AcDbCircle
 10
734.4515668639915
 20
179.3421146428739
 30
0.0
 40
13.7326315814
100
AcDbArc
 50
12.51366785540272
 51
14.88994933909427
  0
ARC
  5
3FFFB
330
1F
100
AcDbEntity
  8
0
  6
Continuous
 62
     7
100
AcDbCircle
 10
734.3110560848917
 20
179.8836133550739
 30
0.0
 40
13.5559794617
100
AcDbArc
 50
13.08510511980981
 51
16.19273876990915
  0
ARC
  5
3FFFC
330
1F
100
AcDbEntity
  8
0
  6
Continuous
 62
     7
100
AcDbCircle
 10
734.302267241892
 20
180.0066958021738
 30
0.0
 40
13.4918765288
100
AcDbArc
 50
12.56943907421571
 51
18.07835181389364
  0
ARC
  5
3FFFD
330
1F
100
AcDbEntity
  8
0
  6
Continuous
 62
     7
100
AcDbCircle
 10
734.9561670847915
 20
179.4560696588741
 30
0.0
 40
13.2153276882
100
AcDbArc
 50
9.853171307884093
 51
12.50536549401239
  0
ARC
  5
3FFFE
330
1F
100
AcDbEntity
  8
0
  6
Continuous
 62
     7
100
AcDbCircle
 10
734.7785455505917
 20
179.9970524826739
 30
0.0
 40
13.0749468531
100
AcDbArc
 50
12.50196334889609
 51
13.06470669900153
  0
ARC
  5
3FFFF
330
1F
100
AcDbEntity
  8
0
  6
Continuous
 62
     7
100
AcDbCircle
 10
735.085942471992
 20
180.196754972574
 30
0.0
 40
12.6856312957
100
AcDbArc
 50
11.9290821745117
 51
12.50187755639819
  0
ARC
  5
40000
330
1F
100
AcDbEntity
  8
0
  6
Continuous
 62
     7
100
AcDbCircle
 10
734.4579555325916
 20
194.0106453461739
 30
0.0
 40
3.8400012524
100
AcDbArc
 50
222.9162349910979
 51
266.9812684494762
  0
ARC
  5
40001
330
1F
100
AcDbEntity
  8
0
  6
Continuous
 62
     7
100
AcDbCircle
 10
812.2844494001054
 20
246.8099504556618
 30
0.0
 40
3.840000000000424
100
AcDbArc
 50
310.4238994014942
 51
49.57610059852478
  0
LINE
  5
40002
330
1F
100
AcDbEntity
  8
0
  6
Continuous
 62
     7
100
AcDbLine
 10
819.39142717858
 20
265.7385566507925
 30
0.0
 11
818.9119708477058
 21
266.3099504556618
 31
0.0
  0
ARC
  5
40003
330
1F
100
AcDbEntity
  8
0
  6
Continuous
 62
     7
100
AcDbCircle
 10
819.7744494001558
 20
266.0599504556163
 30
0.0
 40
0.5
100
AcDbArc
 50
219.9999999971455
 51
320.000000002897
  0
LINE
  5
40004
330
1F
100
AcDbEntity
  8
0
  6
Continuous
 62
     7
100
AcDbLine
 10
818.9119708477058
 20
266.3099504556618
 30
0.0
 11
815.2744494001057
 21
266.3099504556618
 31
0.0
  0
ARC
  5
40005
330
1F
100
AcDbEntity
  8
0
  6
Continuous
 62
     7
100
AcDbCircle
 10
815.2744494001057
 20
265.8099504556618
 30
0.0
 40
0.5
100
AcDbArc
 50
90.0
 51
180.0
  0
LINE
  5
40006
330
1F
100
AcDbEntity
  8
0
  6
Continuous
 62
     7
100
AcDbLine
 10
814.7744494001056
 20
265.8099504556618
 30
0.0
 11
814.7744494001056
 21
249.7332191740612
 31
0.0
  0
LINE
  5
40007
330
1F
100
AcDbEntity
  8
0
  6
Continuous
 62
     7
100
AcDbLine
 10
814.7744494001056
 20
243.8866817372615
 30
0.0
 11
814.7744494001056
 21
227.8099504556618
 31
0.0
  0
ARC
  5
40008
330
1F
100
AcDbEntity
  8
0
  6
Continuous
 62
     7
100
AcDbCircle
 10
815.2744494001057
 20
227.8099504556618
 30
0.0
 40
0.5
100
AcDbArc
 50
180.0
 51
270.0
  0
LINE
  5
40009
330
1F
100
AcDbEntity
  8
0
  6
Continuous
 62
     7
100
AcDbLine
 10
815.2744494001057
 20
227.3099504556618
 30
0.0
 11
818.9119708477058
 21
227.3099504556618
 31
0.0
  0
LINE
  5
4000A
330
1F
100
AcDbEntity
  8
0
  6
Continuous
 62
     7
100
AcDbLine
 10
818.9119708477058
 20
227.3099504556618
 30
0.0
 11
819.3914271786058
 21
227.8813442604612
 31
0.0
  0
LINE
  5
4000B
330
1F
100
AcDbEntity
  8
0
  6
Continuous
 62
     7
100
AcDbLine
 10
829.7744494001056
 20
266.8099504556618
 30
0.0
 11
829.7744494001056
 21
268.5599504556618
 31
0.0
  0
LINE
  5
4000C
102
{ACAD_REACTORS
330
40069
102
}
330
1F
100
AcDbEntity
  8
0
  6
Continuous
 62
     7
100
AcDbLine
 10
829.7744494001056
 20
268.5599504556618
 30
0.0
 11
816.2744494001056
 21
268.5599504556618
 31
0.0
  0
LINE
  5
4000D
330
1F
100
AcDbEntity
  8
0
  6
Continuous
 62
     7
100
AcDbLine
 10
815.7744494001057
 20
269.0599504556618
 30
0.0
 11
815.7744494001057
 21
269.8099504556618
 31
0.0
  0
ARC
  5
4000E
330
1F
100
AcDbEntity
  8
0
  6
Continuous
 62
     7
100
AcDbCircle
 10
816.2744494001056
 20
269.0599504556618
 30
0.0
 40
0.5
100
AcDbArc
 50
180.0
 51
270.0
  0
LINE
  5
4000F
102
{ACAD_REACTORS
330
40065
102
}
330
1F
100
AcDbEntity
  8
0
  6
Continuous
 62
     7
100
AcDbLine
 10
815.7744494001057
 20
269.8099504556618
 30
0.0
 11
811.7744494001057
 21
269.8099504556618
 31
0.0
  0
LINE
  5
40010
102
{ACAD_REACTORS
330
40060
102
}
330
1F
100
AcDbEntity
  8
0
  6
Continuous
 62
     7
100
AcDbLine
 10
811.7744494001057
 20
269.8099504556618
 30
0.0
 11
811.7744494001057
 21
223.8099504556618
 31
0.0
  0
LINE
  5
40011
102
{ACAD_REACTORS
330
40065
102
}
330
1F
100
AcDbEntity
  8
0
  6
Continuous
 62
     7
100
AcDbLine
 10
811.7744494001057
 20
223.8099504556618
 30
0.0
 11
815.7744494001057
 21
223.8099504556618
 31
0.0
  0
LINE
  5
40012
330
1F
100
AcDbEntity
  8
0
  6
Continuous
 62
     7
100
AcDbLine
 10
815.7744494001057
 20
223.8099504556618
 30
0.0
 11
815.7744494001057
 21
224.5599504556619
 31
0.0
  0
LINE
  5
40013
102
{ACAD_REACTORS
330
40069
102
}
330
1F
100
AcDbEntity
  8
0
  6
Continuous
 62
     7
100
AcDbLine
 10
816.2744494001056
 20
225.0599504556618
 30
0.0
 11
829.7744494001056
 21
225.0599504556618
 31
0.0
  0
ARC
  5
40014
330
1F
100
AcDbEntity
  8
0
  6
Continuous
 62
     7
100
AcDbCircle
 10
816.2744494001056
 20
224.5599504556619
 30
0.0
 40
0.5
100
AcDbArc
 50
90.0
 51
180.0
  0
LINE
  5
40015
102
{ACAD_REACTORS
330
40060
102
}
330
1F
100
AcDbEntity
  8
0
  6
Continuous
 62
     7
100
AcDbLine
 10
829.7744494001056
 20
225.0599504556618
 30
0.0
 11
829.7744494001056
 21
226.8099504556619
 31
0.0
  0
LINE
  5
40016
330
1F
100
AcDbEntity
  8
0
  6
Continuous
 62
     7
100
AcDbLine
 10
829.7744494001056
 20
226.8099504556619
 30
0.0
 11
828.9084239964058
 21
227.3099504556618
 31
0.0
  0
LINE
  5
40017
330
1F
100
AcDbEntity
  8
0
  6
Continuous
 62
     7
100
AcDbLine
 10
828.9084239964058
 20
227.3099504556618
 30
0.0
 11
828.6369279526056
 21
227.3099504556618
 31
0.0
  0
LINE
  5
40018
330
1F
100
AcDbEntity
  8
0
  6
Continuous
 62
     7
100
AcDbLine
 10
828.6369279526056
 20
227.3099504556618
 30
0.0
 11
828.1574716216649
 21
227.8813442605048
 31
0.0
  0
ARC
  5
40019
330
1F
100
AcDbEntity
  8
0
  6
Continuous
 62
     7
100
AcDbCircle
 10
827.7744494001538
 20
227.5599504556645
 30
0.0
 40
0.4999999999610197
100
AcDbArc
 50
40.00000000328571
 51
140.0000000032428
  0
LINE
  5
4001A
330
1F
100
AcDbEntity
  8
0
  6
Continuous
 62
     7
100
AcDbLine
 10
820.1574716217059
 20
227.8813442604612
 30
0.0
 11
820.6369279526059
 21
227.3099504556618
 31
0.0
  0
LINE
  5
4001B
330
1F
100
AcDbEntity
  8
0
  6
Continuous
 62
     7
100
AcDbLine
 10
820.6369279526059
 20
227.3099504556618
 30
0.0
 11
826.911970847706
 21
227.3099504556618
 31
0.0
  0
LINE
  5
4001C
330
1F
100
AcDbEntity
  8
0
  6
Continuous
 62
     7
100
AcDbLine
 10
826.911970847706
 20
227.3099504556618
 30
0.0
 11
827.3914271786058
 21
227.8813442604612
 31
0.0
  0
LINE
  5
4001D
330
1F
100
AcDbEntity
  8
0
  6
Continuous
 62
     7
100
AcDbLine
 10
820.1574716217312
 20
265.7385566507925
 30
0.0
 11
820.6369279526056
 21
266.3099504556618
 31
0.0
  0
LINE
  5
4001E
330
1F
100
AcDbEntity
  8
0
  6
Continuous
 62
     7
100
AcDbLine
 10
820.6369279526056
 20
266.3099504556618
 30
0.0
 11
826.9119708477052
 21
266.3099504556618
 31
0.0
  0
LINE
  5
4001F
330
1F
100
AcDbEntity
  8
0
  6
Continuous
 62
     7
100
AcDbLine
 10
826.9119708477052
 20
266.3099504556618
 30
0.0
 11
827.3914271824514
 21
265.7385566507888
 31
0.0
  0
LINE
  5
40020
330
1F
100
AcDbEntity
  8
0
  6
Continuous
 62
     7
100
AcDbLine
 10
829.7744494001056
 20
266.8099504556618
 30
0.0
 11
828.9084239964058
 21
266.3099504556618
 31
0.0
  0
LINE
  5
40021
330
1F
100
AcDbEntity
  8
0
  6
Continuous
 62
     7
100
AcDbLine
 10
828.9084239964058
 20
266.3099504556618
 30
0.0
 11
828.6369279526059
 21
266.3099504556618
 31
0.0
  0
LINE
  5
40022
330
1F
100
AcDbEntity
  8
0
  6
Continuous
 62
     7
100
AcDbLine
 10
828.6369279526059
 20
266.3099504556618
 30
0.0
 11
828.1574716256063
 21
265.7385566507852
 31
0.0
  0
ARC
  5
40023
330
1F
100
AcDbEntity
  8
0
  6
Continuous
 62
     7
100
AcDbCircle
 10
827.7744494040303
 20
266.0599504556091
 30
0.0
 40
0.5
100
AcDbArc
 50
219.9999999964795
 51
320.0000000028547
  0
SPLINE
  5
40024
330
1F
100
AcDbEntity
  8
0
  6
Continuous
 62
     7
100
AcDbSpline
210
0.0
220
0.0
230
1.0
 70
     8
 71
     3
 72
    20
 73
    16
 74
     0
 42
0.0000000001
 43
0.0000000001
 40
0.0
 40
0.0
 40
0.0
 40
0.0
 40
0.0506889904
 40
0.103863243
 40
0.1600506669
 40
0.2194382344
 40
0.3468625026
 40
0.4142653342
 40
0.483186376
 40
0.6222942846000002
 40
0.7580549612000002
 40
0.8229844832999997
 40
0.8851311189
 40
0.9441625168999999
 40
1.0
 40
1.0
 40
1.0
 40
1.0
 10
747.6614823854905
 20
178.9751026890739
 30
0.0
 10
747.198536737993
 20
178.4619719234742
 30
0.0
 10
746.1375098093922
 20
177.5075923332742
 30
0.0
 10
744.2589273178928
 20
176.3755503569741
 30
0.0
 10
742.1045306504928
 20
175.5383069342741
 30
0.0
 10
738.8584538283922
 20
174.825352211374
 30
0.0
 10
735.3467433336917
 20
174.8110837283738
 30
0.0
 10
731.7972820973919
 20
175.4159356892741
 30
0.0
 10
728.1820434651925
 20
176.4589309441739
 30
0.0
 10
723.9135112229924
 20
178.4841676122741
 30
0.0
 10
720.2134355645921
 20
181.3425770577741
 30
0.0
 10
717.8098010839931
 20
184.0114114118741
 30
0.0
 10
716.3630233984912
 20
186.105650320474
 30
0.0
 10
715.2797144818905
 20
188.271486312074
 30
0.0
 10
714.803287591092
 20
189.7723591855737
 30
0.0
 10
714.6384931478913
 20
190.5156063630738
 30
0.0
  0
SPLINE
  5
40025
330
1F
100
AcDbEntity
  8
0
  6
Continuous
 62
     7
100
AcDbSpline
210
0.0
220
0.0
230
1.0
 70
     8
 71
     3
 72
     9
 73
     5
 74
     0
 42
0.0000000001
 43
0.0000000001
 40
0.0
 40
0.0
 40
0.0
 40
0.0
 40
0.5111205398
 40
1.0
 40
1.0
 40
1.0
 40
1.0
 10
714.6384931478913
 20
190.5156063630738
 30
0.0
 10
714.4915383750921
 20
191.1783940034738
 30
0.0
 10
714.3068960203927
 20
192.5009484699739
 30
0.0
 10
714.3617126656916
 20
193.8368790618742
 30
0.0
 10
714.4515462698908
 20
194.4799775781739
 30
0.0
  0
SPLINE
  5
40026
330
1F
100
AcDbEntity
  8
0
  6
Continuous
 62
     7
100
AcDbSpline
210
0.0
220
0.0
230
1.0
 70
     8
 71
     3
 72
    26
 73
    22
 74
     0
 42
0.0000000001
 43
0.0000000001
 40
0.0
 40
0.0
 40
0.0
 40
0.0
 40
0.0547432183
 40
0.0809957551
 40
0.1067363948
 40
0.1322073464
 40
0.1576708272
 40
0.1833909241
 40
0.2096126211
 40
0.2642587016
 40
0.3228544126
 40
0.3857633559
 40
0.4526884032
 40
0.5228342419
 40
0.5950649060000001
 40
0.6680459112000002
 40
0.7403749999000002
 40
0.8107088912
 40
0.8778929943999999
 40
0.9411010387999999
 40
1.0
 40
1.0
 40
1.0
 40
1.0
 10
747.4976173351915
 20
182.8188854918739
 30
0.0
 10
747.687882796692
 20
181.9182479127739
 30
0.0
 10
747.8240565132908
 20
180.545443957274
 30
0.0
 10
747.6533202939917
 20
178.7548070631741
 30
0.0
 10
747.3583557666914
 20
177.4817974021738
 30
0.0
 10
746.8972539786919
 20
176.2734462198741
 30
0.0
 10
746.2743601520924
 20
175.1403381830741
 30
0.0
 10
745.4950573372915
 20
174.0927722700739
 30
0.0
 10
744.2408552297929
 20
172.8060243646741
 30
0.0
 10
742.2895457638913
 20
171.4599704914739
 30
0.0
 10
739.515462288793
 20
170.362635548874
 30
0.0
 10
736.3803589170928
 20
169.7922649365741
 30
0.0
 10
733.0028056811916
 20
169.7688800968739
 30
0.0
 10
729.5092259795929
 20
170.292201850274
 30
0.0
 10
726.0309869937917
 20
171.3424028239741
 30
0.0
 10
722.6989465616916
 20
172.8799796475741
 30
0.0
 10
719.6385353916922
 20
174.8471635635741
 30
0.0
 10
716.964863950192
 20
177.1696475874741
 30
0.0
 10
714.7785444906912
 20
179.7609558897738
 30
0.0
 10
713.1624263157918
 20
182.5220907098741
 30
0.0
 10
712.4832942451921
 20
184.4789463652741
 30
0.0
 10
712.2689080860908
 20
185.445859476174
 30
0.0
  0
SPLINE
  5
40027
330
1F
100
AcDbEntity
  8
0
  6
Continuous
 62
     7
100
AcDbSpline
210
0.0
220
0.0
230
1.0
 70
     8
 71
     3
 72
    18
 73
    14
 74
     0
 42
0.0000000001
 43
0.0000000001
 40
0.0
 40
0.0
 40
0.0
 40
0.0
 40
0.135394431
 40
0.2749689115
 40
0.4142625419
 40
0.5488640519
 40
0.675209194
 40
0.7347321414
 40
0.7916838149
 40
0.8462334794
 40
0.8987442512999999
 40
0.9497659491
 40
1.0
 40
1.0
 40
1.0
 40
1.0
 10
732.9969186725922
 20
166.151557460274
 30
0.0
 10
731.188821678892
 20
166.265834194874
 30
0.0
 10
727.5337659903924
 20
166.8898963031737
 30
0.0
 10
722.3131578176906
 20
168.838610371974
 30
0.0
 10
717.5394481950916
 20
171.6991243334741
 30
0.0
 10
713.5209539975912
 20
175.2892589633738
 30
0.0
 10
710.962012793092
 20
178.7816231757742
 30
0.0
 10
709.5585428990926
 20
181.721046958074
 30
0.0
 10
708.8552723442917
 20
183.906818302074
 30
0.0
 10
708.4943475820908
 20
186.080205959774
 30
0.0
 10
708.4839852777912
 20
188.2053011398738
 30
0.0
 10
708.826274535393
 20
190.2444186060738
 30
0.0
 10
709.2887549203915
 20
191.527278653074
 30
0.0
 10
709.5733670235931
 20
192.1362288054736
 30
0.0
  0
SPLINE
  5
40028
330
1F
100
AcDbEntity
  8
0
  6
Continuous
 62
     7
100
AcDbSpline
210
0.0
220
0.0
230
1.0
 70
     8
 71
     3
 72
    14
 73
    10
 74
     0
 42
0.0000000001
 43
0.0000000001
 40
0.0
 40
0.0
 40
0.0
 40
0.0
 40
0.2459726363
 40
0.3852800227
 40
0.5263533388
 40
0.6619240118000001
 40
0.7863167189000002
 40
0.8977056217999999
 40
1.0
 40
1.0
 40
1.0
 40
1.0
 10
730.387500539993
 20
211.7631752719739
 30
0.0
 10
730.3256466571911
 20
212.0421453812741
 30
0.0
 10
730.048409272691
 20
212.4388614730742
 30
0.0
 10
729.545092250093
 20
212.7872465860741
 30
0.0
 10
729.0911456107915
 20
212.9677945558742
 30
0.0
 10
728.6251387180928
 20
213.0331303257739
 30
0.0
 10
728.1910355675917
 20
212.9762063204739
 30
0.0
 10
727.8315514254917
 20
212.7965772937741
 30
0.0
 10
727.6695683794915
 20
212.5953357935741
 30
0.0
 10
727.619204668692
 20
212.4877011901739
 30
0.0
  0
SPLINE
  5
40029
330
1F
100
AcDbEntity
  8
0
  6
Continuous
 62
     7
100
AcDbSpline
210
0.0
220
0.0
230
1.0
 70
     8
 71
     3
 72
    17
 73
    13
 74
     0
 42
0.0000000001
 43
0.0000000001
 40
0.0
 40
0.0
 40
0.0
 40
0.0
 40
0.1423737341
 40
0.2840568108
 40
0.4218783135
 40
0.5531475159000001
 40
0.676090323
 40
0.7902845124
 40
0.8445588304000001
 40
0.8972932641999998
 40
0.9489317692
 40
1.0
 40
1.0
 40
1.0
 40
1.0
 10
737.8883011936923
 20
210.6745195415742
 30
0.0
 10
739.4729832618906
 20
210.161056794674
 30
0.0
 10
742.558760193493
 20
208.8845409883738
 30
0.0
 10
746.7915668208916
 20
206.3083657591741
 30
0.0
 10
750.4652533586923
 20
203.1755572529741
 30
0.0
 10
753.4096870385909
 20
199.625294494674
 30
0.0
 10
755.4874156313928
 20
195.8149931855741
 30
0.0
 10
756.4227298721927
 20
192.4972649937739
 30
0.0
 10
756.6201631187904
 20
189.909559213574
 30
0.0
 10
756.5032928360923
 20
188.0505020957738
 30
0.0
 10
756.1242544228917
 20
186.2652084175742
 30
0.0
 10
755.6981351937919
 20
185.1357222106739
 30
0.0
 10
755.4451204151917
 20
184.5944313508739
 30
0.0
  0
SPLINE
  5
4002A
330
1F
100
AcDbEntity
  8
0
  6
Continuous
 62
     7
100
AcDbSpline
210
0.0
220
0.0
230
1.0
 70
     8
 71
     3
 72
    15
 73
    11
 74
     0
 42
0.0000000001
 43
0.0000000001
 40
0.0
 40
0.0
 40
0.0
 40
0.0
 40
0.1300934223
 40
0.2547253476
 40
0.3755717877
 40
0.4948024852000001
 40
0.6147990833
 40
0.7378400649
 40
0.8658044228999999
 40
1.0
 40
1.0
 40
1.0
 40
1.0
 10
712.2689080860908
 20
185.445859476174
 30
0.0
 10
712.1285265235926
 20
186.0790009713741
 30
0.0
 10
711.9477033629919
 20
187.3425359271741
 30
0.0
 10
712.0010388133921
 20
189.2234427079738
 30
0.0
 10
712.384669014591
 20
191.0116097243739
 30
0.0
 10
713.0919640561915
 20
192.6734165377738
 30
0.0
 10
714.1099449973918
 20
194.1782439827738
 30
0.0
 10
715.4196307349921
 20
195.498525631674
 30
0.0
 10
716.9961194743919
 20
196.6101333117739
 30
0.0
 10
718.1767170499916
 20
197.1845254976742
 30
0.0
 10
718.7976349498931
 20
197.4334787841739
 30
0.0
  0
SPLINE
  5
4002B
330
1F
100
AcDbEntity
  8
0
  6
Continuous
 62
     7
100
AcDbSpline
210
0.0
220
0.0
230
1.0
 70
     8
 71
     3
 72
     9
 73
     5
 74
     0
 42
0.0000000001
 43
0.0000000001
 40
0.0
 40
0.0
 40
0.0
 40
0.0
 40
0.2447868919
 40
1.0
 40
1.0
 40
1.0
 40
1.0
 10
718.7976349498931
 20
197.4334787841739
 30
0.0
 10
718.9799758172921
 20
197.5065872550739
 30
0.0
 10
719.7310967436915
 20
197.789590628874
 30
0.0
 10
720.5053147910913
 20
198.0103930892741
 30
0.0
 10
721.0964210211914
 20
198.1443198652741
 30
0.0
  0
SPLINE
  5
4002C
330
1F
100
AcDbEntity
  8
0
  6
Continuous
 62
     7
100
AcDbSpline
210
0.0
220
0.0
230
1.0
 70
     8
 71
     3
 72
     9
 73
     5
 74
     0
 42
0.0000000001
 43
0.0000000001
 40
0.0
 40
0.0
 40
0.0
 40
0.0
 40
0.2554062603
 40
1.0
 40
1.0
 40
1.0
 40
1.0
 10
746.192506763291
 20
186.4250018901738
 30
0.0
 10
746.2866820017916
 20
186.2416472974741
 30
0.0
 10
746.6419326242921
 20
185.5169546321739
 30
0.0
 10
746.941829062991
 20
184.7647877603739
 30
0.0
 10
747.1280909403922
 20
184.1934581218738
 30
0.0
  0
SPLINE
  5
4002D
330
1F
100
AcDbEntity
  8
0
  6
Continuous
 62
     7
100
AcDbSpline
210
0.0
220
0.0
230
1.0
 70
     8
 71
     3
 72
    16
 73
    12
 74
     0
 42
0.0000000001
 43
0.0000000001
 40
0.0
 40
0.0
 40
0.0
 40
0.0
 40
0.050189876
 40
0.1012933785
 40
0.2090032161
 40
0.3274491336
 40
0.4566034311000001
 40
0.5934374068000002
 40
0.7331390231999999
 40
0.8702772083999999
 40
1.0
 40
1.0
 40
1.0
 40
1.0
 10
726.5397698672914
 20
216.0822961880739
 30
0.0
 10
726.5972572569917
 20
216.2050717930742
 30
0.0
 10
726.7385773356909
 20
216.4418693498741
 30
0.0
 10
727.1189158123924
 20
216.8632170544742
 30
0.0
 10
727.770322495391
 20
217.2650059306738
 30
0.0
 10
728.7138120899907
 20
217.4972477910741
 30
0.0
 10
729.761666378492
 20
217.485661956874
 30
0.0
 10
730.8364053814912
 20
217.2344546048738
 30
0.0
 10
731.858288841493
 20
216.7639640766742
 30
0.0
 10
732.7499332488915
 20
216.1105297987742
 30
0.0
 10
733.2309891075929
 20
215.563081926974
 30
0.0
 10
733.4260372612916
 20
215.2719937265742
 30
0.0
  0
SPLINE
  5
4002E
330
1F
100
AcDbEntity
  8
0
  6
Continuous
 62
     7
100
AcDbSpline
210
0.0
220
0.0
230
1.0
 70
     8
 71
     3
 72
    14
 73
    10
 74
     0
 42
0.0000000001
 43
0.0000000001
 40
0.0
 40
0.0
 40
0.0
 40
0.0
 40
0.2808839935
 40
0.4131417833000002
 40
0.5395325660000001
 40
0.660392678
 40
0.7765240251000001
 40
0.8891832901999999
 40
1.0
 40
1.0
 40
1.0
 40
1.0
 10
732.9969186725922
 20
166.151557460274
 30
0.0
 10
734.7496920301927
 20
166.0407773325741
 30
0.0
 10
737.361888869691
 20
166.1440824473738
 30
0.0
 10
740.6545350104916
 20
166.912588996774
 30
0.0
 10
742.8785241079931
 20
167.7638935620738
 30
0.0
 10
744.8636460651904
 20
168.8879172504739
 30
0.0
 10
746.5738295708908
 20
170.2669780439741
 30
0.0
 10
747.975406165191
 20
171.876827962274
 30
0.0
 10
748.6881469619911
 20
173.0898702084741
 30
0.0
 10
748.9815322042923
 20
173.717591187074
 30
0.0
  0
SPLINE
  5
4002F
330
1F
100
AcDbEntity
  8
0
  6
Continuous
 62
     7
100
AcDbSpline
210
0.0
220
0.0
230
1.0
 70
     8
 71
     3
 72
    11
 73
     7
 74
     0
 42
0.0000000001
 43
0.0000000001
 40
0.0
 40
0.0
 40
0.0
 40
0.0
 40
0.2597992372
 40
0.5114279585000002
 40
0.7572333403
 40
1.0
 40
1.0
 40
1.0
 40
1.0
 10
747.9765623107923
 20
181.7175280521741
 30
0.0
 10
748.0748781408911
 20
181.1507823246738
 30
0.0
 10
748.1942732175921
 20
180.0203660059741
 30
0.0
 10
748.1254771891906
 20
178.3390332460739
 30
0.0
 10
747.8060835332906
 20
176.7249389669741
 30
0.0
 10
747.4271637622914
 20
175.705808928174
 30
0.0
 10
747.1995718078906
 20
175.2188724327738
 30
0.0
  0
SPLINE
  5
40030
330
1F
100
AcDbEntity
  8
0
  6
Continuous
 62
     7
100
AcDbSpline
210
0.0
220
0.0
230
1.0
 70
     8
 71
     3
 72
     9
 73
     5
 74
     0
 42
0.0000000001
 43
0.0000000001
 40
0.0
 40
0.0
 40
0.0
 40
0.0
 40
0.4866532101
 40
1.0
 40
1.0
 40
1.0
 40
1.0
 10
730.3367185489913
 20
211.216822877674
 30
0.0
 10
730.3749643633928
 20
211.298559767174
 30
0.0
 10
730.4233868930914
 20
211.4820515613741
 30
0.0
 10
730.4081063356916
 20
211.6702401029737
 30
0.0
 10
730.387500539993
 20
211.7631752719739
 30
0.0
  0
SPLINE
  5
40031
330
1F
100
AcDbEntity
  8
0
  6
Continuous
 62
     7
100
AcDbSpline
210
0.0
220
0.0
230
1.0
 70
     8
 71
     3
 72
    17
 73
    13
 74
     0
 42
0.0000000001
 43
0.0000000001
 40
0.0
 40
0.0
 40
0.0
 40
0.0
 40
0.1145324628
 40
0.2374896643
 40
0.3016351326
 40
0.3670610812
 40
0.500002092
 40
0.6329429232
 40
0.6983686189000001
 40
0.762513707
 40
0.8854695711999999
 40
1.0
 40
1.0
 40
1.0
 40
1.0
 10
747.4781048732912
 20
183.7254800863738
 30
0.0
 10
747.006518069993
 20
184.9819009818738
 30
0.0
 10
745.6927257464923
 20
187.4672769474741
 30
0.0
 10
743.4128917148917
 20
190.1969929840738
 30
0.0
 10
741.2220102384925
 20
192.190787147474
 30
0.0
 10
738.7692256936915
 20
194.0528566397738
 30
0.0
 10
735.383932811992
 20
195.992403133674
 30
0.0
 10
731.7245227737912
 20
197.3454530628741
 30
0.0
 10
728.7226946244917
 20
198.0327876460741
 30
0.0
 10
725.7878188320918
 20
198.4346960787738
 30
0.0
 10
722.231310608091
 20
198.4328516656741
 30
0.0
 10
719.4819383203921
 20
197.8464902536738
 30
0.0
 10
718.2155528493931
 20
197.402427813974
 30
0.0
  0
SPLINE
  5
40032
330
1F
100
AcDbEntity
  8
0
  6
Continuous
 62
     7
100
AcDbSpline
210
0.0
220
0.0
230
1.0
 70
     8
 71
     3
 72
     9
 73
     5
 74
     0
 42
0.0000000001
 43
0.0000000001
 40
0.0
 40
0.0
 40
0.0
 40
0.0
 40
0.4861874855
 40
1.0
 40
1.0
 40
1.0
 40
1.0
 10
735.1953285400923
 20
212.6315185183738
 30
0.0
 10
735.4996662212905
 20
212.1773275597738
 30
0.0
 10
736.3174964620919
 20
211.3677423190738
 30
0.0
 10
737.3386423117916
 20
210.852617953174
 30
0.0
 10
737.8883011936923
 20
210.6745195415742
 30
0.0
  0
SPLINE
  5
40033
330
1F
100
AcDbEntity
  8
0
  6
Continuous
 62
     7
100
AcDbSpline
210
0.0
220
0.0
230
1.0
 70
     8
 71
     3
 72
     9
 73
     5
 74
     0
 42
0.0000000001
 43
0.0000000001
 40
0.0
 40
0.0
 40
0.0
 40
0.0
 40
0.5152017932000002
 40
1.0
 40
1.0
 40
1.0
 40
1.0
 10
723.8873444151923
 20
211.5594187632741
 30
0.0
 10
724.0828946261916
 20
211.6048391443741
 30
0.0
 10
724.4559330516931
 20
211.7257737832742
 30
0.0
 10
724.7981958865929
 20
211.9191044612739
 30
0.0
 10
724.9508561165932
 20
212.0303758382742
 30
0.0
  0
SPLINE
  5
40034
330
1F
100
AcDbEntity
  8
0
  6
Continuous
 62
     7
100
AcDbSpline
210
0.0
220
0.0
230
1.0
 70
     8
 71
     3
 72
    11
 73
     7
 74
     0
 42
0.0000000001
 43
0.0000000001
 40
0.0
 40
0.0
 40
0.0
 40
0.0
 40
0.2387542498
 40
0.482402636
 40
0.7351445522
 40
1.0
 40
1.0
 40
1.0
 40
1.0
 10
711.8683576349922
 20
191.7325799584741
 30
0.0
 10
712.1614345730921
 20
192.3596225862738
 30
0.0
 10
712.8891331101912
 20
193.5678115279738
 30
0.0
 10
714.3477141350923
 20
195.1403590222739
 30
0.0
 10
716.1409094352928
 20
196.447811536674
 30
0.0
 10
717.4974592897925
 20
197.108197120774
 30
0.0
 10
718.2118343986912
 20
197.389654087974
 30
0.0
  0
SPLINE
  5
40035
330
1F
100
AcDbEntity
  8
0
  6
Continuous
 62
     7
100
AcDbSpline
210
0.0
220
0.0
230
1.0
 70
     8
 71
     3
 72
    13
 73
     9
 74
     0
 42
0.0000000001
 43
0.0000000001
 40
0.0
 40
0.0
 40
0.0
 40
0.0
 40
0.1166590369
 40
0.2342585501
 40
0.3536850688
 40
0.4757269586
 40
0.7297182306000001
 40
1.0
 40
1.0
 40
1.0
 40
1.0
 10
713.7728188141919
 20
204.073040937274
 30
0.0
 10
713.9871324143913
 20
204.531547364174
 30
0.0
 10
714.4778300923918
 20
205.425383511374
 30
0.0
 10
715.3849344663922
 20
206.6678597484742
 30
0.0
 10
716.4565830388928
 20
207.804106730774
 30
0.0
 10
718.1124383859915
 20
209.1818386936738
 30
0.0
 10
720.5676205223918
 20
210.5851063594741
 30
0.0
 10
722.7451425033905
 20
211.2941199130741
 30
0.0
 10
723.8873444151923
 20
211.5594187632741
 30
0.0
  0
SPLINE
  5
40036
330
1F
100
AcDbEntity
  8
0
  6
Continuous
 62
     7
100
AcDbSpline
210
0.0
220
0.0
230
1.0
 70
     8
 71
     3
 72
     9
 73
     5
 74
     0
 42
0.0000000001
 43
0.0000000001
 40
0.0
 40
0.0
 40
0.0
 40
0.0
 40
0.4939550552
 40
1.0
 40
1.0
 40
1.0
 40
1.0
 10
712.5880262832906
 20
201.5381674937739
 30
0.0
 10
712.2088165817912
 20
200.726879339174
 30
0.0
 10
711.6290748505925
 20
198.9901916583739
 30
0.0
 10
711.4519894411913
 20
197.1699312777741
 30
0.0
 10
711.4564882529921
 20
196.252485309274
 30
0.0
  0
SPLINE
  5
40037
330
1F
100
AcDbEntity
  8
0
  6
Continuous
 62
     7
100
AcDbSpline
210
0.0
220
0.0
230
1.0
 70
     8
 71
     3
 72
     9
 73
     5
 74
     0
 42
0.0000000001
 43
0.0000000001
 40
0.0
 40
0.0
 40
0.0
 40
0.0
 40
0.5061284555
 40
1.0
 40
1.0
 40
1.0
 40
1.0
 10
750.8999291446927
 20
177.7760569964739
 30
0.0
 10
751.6137344689923
 20
178.363242157874
 30
0.0
 10
752.909292175591
 20
179.673144444674
 30
0.0
 10
753.8784153598918
 20
181.2425077739739
 30
0.0
 10
754.2603278842907
 20
182.0595579073742
 30
0.0
  0
SPLINE
  5
40038
330
1F
100
AcDbEntity
  8
0
  6
Continuous
 62
     7
100
AcDbSpline
210
0.0
220
0.0
230
1.0
 70
     8
 71
     3
 72
    19
 73
    15
 74
     0
 42
0.0000000001
 43
0.0000000001
 40
0.0
 40
0.0
 40
0.0
 40
0.0
 40
0.1411448491
 40
0.2852912595
 40
0.4220919705
 40
0.4854836770000002
 40
0.5448526283000002
 40
0.6005200534
 40
0.6534863046
 40
0.7053386695000002
 40
0.7579328959
 40
0.8129460755
 40
0.8715061743999999
 40
1.0
 40
1.0
 40
1.0
 40
1.0
 10
733.2205132117924
 20
194.6873457911737
 30
0.0
 10
733.5898946802918
 20
194.6639998599739
 30
0.0
 10
734.3320097263931
 20
194.4960289454738
 30
0.0
 10
735.3163650347923
 20
193.9641702224739
 30
0.0
 10
735.9722960016916
 20
193.3199453499741
 30
0.0
 10
736.3209205678924
 20
192.731353687774
 30
0.0
 10
736.4783443227914
 20
192.2871170802741
 30
0.0
 10
736.5305964591915
 20
191.845502968174
 30
0.0
 10
736.4733723096906
 20
191.4235904223741
 30
0.0
 10
736.3071841066921
 20
191.0399381324741
 30
0.0
 10
736.0395024174922
 20
190.7121745467738
 30
0.0
 10
735.6832295397907
 20
190.453665922374
 30
0.0
 10
735.0945367710919
 20
190.205384491874
 30
0.0
 10
734.592208840393
 20
190.158254793674
 30
0.0
 10
734.2557308498907
 20
190.1759740408737
 30
0.0
  0
SPLINE
  5
40039
330
1F
100
AcDbEntity
  8
0
  6
Continuous
 62
     7
100
AcDbSpline
210
0.0
220
0.0
230
1.0
 70
     8
 71
     3
 72
    11
 73
     7
 74
     0
 42
0.0000000001
 43
0.0000000001
 40
0.0
 40
0.0
 40
0.0
 40
0.0
 40
0.2611128614
 40
0.5131516708000002
 40
0.7584374326000001
 40
1.0
 40
1.0
 40
1.0
 40
1.0
 10
711.2903752372913
 20
184.8059061284738
 30
0.0
 10
711.1572970649922
 20
185.4061082594739
 30
0.0
 10
710.9763982622917
 20
186.6057126986738
 30
0.0
 10
710.9794034769911
 20
188.3985543946741
 30
0.0
 10
711.2632466814922
 20
190.1226637848739
 30
0.0
 10
711.6391881431916
 20
191.212475407774
 30
0.0
 10
711.8701721145916
 20
191.7322068349739
 30
0.0
  0
SPLINE
  5
4003A
330
1F
100
AcDbEntity
  8
0
  6
Continuous
 62
     7
100
AcDbSpline
210
0.0
220
0.0
230
1.0
 70
     8
 71
     3
 72
    16
 73
    12
 74
     0
 42
0.0000000001
 43
0.0000000001
 40
0.0
 40
0.0
 40
0.0
 40
0.0
 40
0.0501836166
 40
0.1012858642
 40
0.2089924018
 40
0.3274330602
 40
0.4565874469
 40
0.5934230021
 40
0.7331286632
 40
0.8702739488999997
 40
1.0
 40
1.0
 40
1.0
 40
1.0
 10
725.3546383607917
 20
213.5467439449739
 30
0.0
 10
725.4120758242915
 20
213.6695381411741
 30
0.0
 10
725.5533430177928
 20
213.9063737192741
 30
0.0
 10
725.9335358575916
 20
214.3278819818742
 30
0.0
 10
726.5848875022929
 20
214.729862311874
 30
0.0
 10
727.5283896898907
 20
214.9623536395738
 30
0.0
 10
728.5763428438913
 20
214.9508510483737
 30
0.0
 10
729.6512141647907
 20
214.6997156942738
 30
0.0
 10
730.6732775681921
 20
214.2292687521739
 30
0.0
 10
731.5650355225915
 20
213.5757453854739
 30
0.0
 10
732.0461735686913
 20
213.028242820374
 30
0.0
 10
732.2412447303922
 20
212.737120283074
 30
0.0
  0
SPLINE
  5
4003B
330
1F
100
AcDbEntity
  8
0
  6
Continuous
 62
     7
100
AcDbSpline
210
0.0
220
0.0
230
1.0
 70
     8
 71
     3
 72
    26
 73
    22
 74
     0
 42
0.0000000001
 43
0.0000000001
 40
0.0
 40
0.0
 40
0.0
 40
0.0
 40
0.0591070997
 40
0.1222401756
 40
0.1891288556
 40
0.2590099859
 40
0.330784199
 40
0.4031567861
 40
0.474773738
 40
0.5443560231
 40
0.6108362231000001
 40
0.6735026180000001
 40
0.732145623
 40
0.7871884278
 40
0.8137378015000001
 40
0.8398552189
 40
0.8657637421
 40
0.8917005477
 40
0.9178998133
 40
0.9445783445999998
 40
1.0
 40
1.0
 40
1.0
 40
1.0
 10
710.483597198192
 20
184.114733488574
 30
0.0
 10
710.7146334746921
 20
183.0727258992737
 30
0.0
 10
711.4444302431913
 20
180.9688459373741
 30
0.0
 10
713.1797603176927
 20
178.0069124952742
 30
0.0
 10
715.5209952087916
 20
175.2380038083737
 30
0.0
 10
718.3787590454921
 20
172.7643461673742
 30
0.0
 10
721.6458804330905
 20
170.6756482533741
 30
0.0
 10
725.2002771853912
 20
169.0494763506739
 30
0.0
 10
728.9092858867917
 20
167.946456859774
 30
0.0
 10
732.6349647745918
 20
167.4084162050739
 30
0.0
 10
736.239369883293
 20
167.4571686859739
 30
0.0
 10
739.5898454273917
 20
168.0951937781742
 30
0.0
 10
742.5606541535927
 20
169.3049748000739
 30
0.0
 10
744.650646332393
 20
170.7833981202738
 30
0.0
 10
745.9943766372925
 20
172.1964048807739
 30
0.0
 10
746.8294753069931
 20
173.3489649390739
 30
0.0
 10
747.4941234883917
 20
174.5950218005741
 30
0.0
 10
747.9817627137927
 20
175.9219160637739
 30
0.0
 10
748.2874412601923
 20
177.3165051585737
 30
0.0
 10
748.4512783483913
 20
179.269511796574
 30
0.0
 10
748.2879327383924
 20
180.7620501443738
 30
0.0
 10
748.0713020296916
 20
181.7390865039742
 30
0.0
  0
SPLINE
  5
4003C
330
1F
100
AcDbEntity
  8
0
  6
Continuous
 62
     7
100
AcDbSpline
210
0.0
220
0.0
230
1.0
 70
     8
 71
     3
 72
    15
 73
    11
 74
     0
 42
0.0000000001
 43
0.0000000001
 40
0.0
 40
0.0
 40
0.0
 40
0.0
 40
0.1278284586
 40
0.2593872693
 40
0.3923384964999999
 40
0.5241901392
 40
0.6525640626
 40
0.7754407712000001
 40
0.8914183110999999
 40
1.0
 40
1.0
 40
1.0
 40
1.0
 10
732.9490777400915
 20
168.6078069842742
 30
0.0
 10
731.7264287580909
 20
168.685081784074
 30
0.0
 10
729.2547582885926
 20
169.041858398174
 30
0.0
 10
725.6392893724912
 20
170.1172939438738
 30
0.0
 10
722.1735583085919
 20
171.7027960721738
 30
0.0
 10
718.9881700657914
 20
173.739277896474
 30
0.0
 10
716.201835242893
 20
176.1510949151738
 30
0.0
 10
713.9191350330911
 20
178.8507806263741
 30
0.0
 10
712.2271872591917
 20
181.7386657704741
 30
0.0
 10
711.515635606891
 20
183.7899487291742
 30
0.0
 10
711.2903752372913
 20
184.8059061284738
 30
0.0
  0
SPLINE
  5
4003D
330
1F
100
AcDbEntity
  8
0
  6
Continuous
 62
     7
100
AcDbSpline
210
0.0
220
0.0
230
1.0
 70
     8
 71
     3
 72
     9
 73
     5
 74
     0
 42
0.0000000001
 43
0.0000000001
 40
0.0
 40
0.0
 40
0.0
 40
0.0
 40
0.4866532101
 40
1.0
 40
1.0
 40
1.0
 40
1.0
 10
727.619204668692
 20
212.4877011901739
 30
0.0
 10
727.5809588542906
 20
212.4059643006739
 30
0.0
 10
727.5325363246921
 20
212.2224725064738
 30
0.0
 10
727.5478168820916
 20
212.0342839649739
 30
0.0
 10
727.5684226776919
 20
211.941348795874
 30
0.0
  0
SPLINE
  5
4003E
330
1F
100
AcDbEntity
  8
0
  6
Continuous
 62
     7
100
AcDbSpline
210
0.0
220
0.0
230
1.0
 70
     8
 71
     3
 72
    14
 73
    10
 74
     0
 42
0.0000000001
 43
0.0000000001
 40
0.0
 40
0.0
 40
0.0
 40
0.0
 40
0.2459726363
 40
0.3852800227
 40
0.5263533388
 40
0.6619240118000001
 40
0.7863167189000002
 40
0.8977056217999999
 40
1.0
 40
1.0
 40
1.0
 40
1.0
 10
727.5684226776919
 20
211.941348795874
 30
0.0
 10
727.6302765604922
 20
211.6623786865738
 30
0.0
 10
727.9075139449924
 20
211.2656625947738
 30
0.0
 10
728.4108309676923
 20
210.9172774817738
 30
0.0
 10
728.864777606992
 20
210.7367295119738
 30
0.0
 10
729.3307844995906
 20
210.671393742074
 30
0.0
 10
729.7648876500915
 20
210.7283177473741
 30
0.0
 10
730.1243717922915
 20
210.9079467741739
 30
0.0
 10
730.2863548381918
 20
211.1091882742739
 30
0.0
 10
730.3367185489913
 20
211.216822877674
 30
0.0
  0
SPLINE
  5
4003F
330
1F
100
AcDbEntity
  8
0
  6
Continuous
 62
     7
100
AcDbSpline
210
0.0
220
0.0
230
1.0
 70
     8
 71
     3
 72
    11
 73
     7
 74
     0
 42
0.0000000001
 43
0.0000000001
 40
0.0
 40
0.0
 40
0.0
 40
0.0
 40
0.2699589746
 40
0.5270156840000002
 40
0.7701929676
 40
1.0
 40
1.0
 40
1.0
 40
1.0
 10
737.0551180021919
 20
177.3927141699741
 30
0.0
 10
738.054532690192
 20
177.3295483954738
 30
0.0
 10
740.0169145234922
 20
177.3344775589739
 30
0.0
 10
742.8532540695925
 20
177.760554318474
 30
0.0
 10
745.4427437977918
 20
178.5953630729741
 30
0.0
 10
746.9980359596919
 20
179.435493763774
 30
0.0
 10
747.7015654925926
 20
179.9168918496738
 30
0.0
  0
SPLINE
  5
40040
330
1F
100
AcDbEntity
  8
0
  6
Continuous
 62
     7
100
AcDbSpline
210
0.0
220
0.0
230
1.0
 70
     8
 71
     3
 72
    15
 73
    11
 74
     0
 42
0.0000000001
 43
0.0000000001
 40
0.0
 40
0.0
 40
0.0
 40
0.0
 40
0.1278284586
 40
0.2593872693
 40
0.3923384964999999
 40
0.5241901392
 40
0.6525640626
 40
0.7754407712000001
 40
0.8914183110999999
 40
1.0
 40
1.0
 40
1.0
 40
1.0
 10
732.8686611188913
 20
168.4357549564738
 30
0.0
 10
731.6460121368907
 20
168.5130297562741
 30
0.0
 10
729.1743416673925
 20
168.869806370374
 30
0.0
 10
725.5588727512912
 20
169.9452419159737
 30
0.0
 10
722.0931416873918
 20
171.5307440443738
 30
0.0
 10
718.9077534445913
 20
173.567225868674
 30
0.0
 10
716.121418621693
 20
175.9790428873738
 30
0.0
 10
713.838718411891
 20
178.6787285985736
 30
0.0
 10
712.1467706379918
 20
181.5666137425741
 30
0.0
 10
711.4352189856909
 20
183.6178967012737
 30
0.0
 10
711.2099586160911
 20
184.6338541005738
 30
0.0
  0
SPLINE
  5
40041
330
1F
100
AcDbEntity
  8
0
  6
Continuous
 62
     7
100
AcDbSpline
210
0.0
220
0.0
230
1.0
 70
     8
 71
     3
 72
    15
 73
    11
 74
     0
 42
0.0000000001
 43
0.0000000001
 40
0.0
 40
0.0
 40
0.0
 40
0.0
 40
0.1404265036
 40
0.2694171601
 40
0.3876000545
 40
0.4991405927000001
 40
0.6108589024000001
 40
0.7295019217
 40
0.8590488793999998
 40
1.0
 40
1.0
 40
1.0
 40
1.0
 10
731.6457450409907
 20
191.3958865979738
 30
0.0
 10
731.4865266316918
 20
191.567123578874
 30
0.0
 10
731.2135037812914
 20
191.928796156174
 30
0.0
 10
730.9596694175925
 20
192.530472185374
 30
0.0
 10
730.8985348986915
 20
193.1354987612739
 30
0.0
 10
731.0454531195918
 20
193.6985447634742
 30
0.0
 10
731.3922323225924
 20
194.166682313174
 30
0.0
 10
731.9025190170904
 20
194.5007921593741
 30
0.0
 10
732.5317147265922
 20
194.6845458939742
 30
0.0
 10
732.9862852983914
 20
194.7021496436741
 30
0.0
 10
733.2205132117924
 20
194.6873457911737
 30
0.0
  0
SPLINE
  5
40042
330
1F
100
AcDbEntity
  8
0
  6
Continuous
 62
     7
100
AcDbSpline
210
0.0
220
0.0
230
1.0
 70
     8
 71
     3
 72
    15
 73
    11
 74
     0
 42
0.0000000001
 43
0.0000000001
 40
0.0
 40
0.0
 40
0.0
 40
0.0
 40
0.1345567413
 40
0.2630326296
 40
0.3866096329
 40
0.5070239877000002
 40
0.6264083577
 40
0.7470313420999999
 40
0.8709990882999999
 40
1.0
 40
1.0
 40
1.0
 40
1.0
 10
718.2155528493931
 20
197.402427813974
 30
0.0
 10
717.498384302391
 20
197.150950185774
 30
0.0
 10
716.1291855284908
 20
196.5565555174739
 30
0.0
 10
714.2860175187926
 20
195.3666435308741
 30
0.0
 10
712.7408925882917
 20
193.9210713705742
 30
0.0
 10
711.5291536440927
 20
192.2483161723739
 30
0.0
 10
710.6787662711923
 20
190.3838720300741
 30
0.0
 10
710.2085950072904
 20
188.3690410637741
 30
0.0
 10
710.1267376657923
 20
186.2490093470741
 30
0.0
 10
710.3258801809914
 20
184.8260604340739
 30
0.0
 10
710.483597198192
 20
184.114733488574
 30
0.0
  0
SPLINE
  5
40043
330
1F
100
AcDbEntity
  8
0
  6
Continuous
 62
     7
100
AcDbSpline
210
0.0
220
0.0
230
1.0
 70
     8
 71
     3
 72
     9
 73
     5
 74
     0
 42
0.0000000001
 43
0.0000000001
 40
0.0
 40
0.0
 40
0.0
 40
0.0
 40
0.5138125145
 40
1.0
 40
1.0
 40
1.0
 40
1.0
 10
736.7035086627911
 20
208.139646098074
 30
0.0
 10
736.1538497808907
 20
208.317744509774
 30
0.0
 10
735.1327039311909
 20
208.8328688756742
 30
0.0
 10
734.314873690393
 20
209.6424541162741
 30
0.0
 10
734.0105360091911
 20
210.0966450749738
 30
0.0
  0
SPLINE
  5
40044
330
1F
100
AcDbEntity
  8
0
  6
Continuous
 62
     7
100
AcDbSpline
210
0.0
220
0.0
230
1.0
 70
     8
 71
     3
 72
    11
 73
     7
 74
     0
 42
0.0000000001
 43
0.0000000001
 40
0.0
 40
0.0
 40
0.0
 40
0.0
 40
0.2612429288
 40
0.5132026508
 40
0.7583785931
 40
1.0
 40
1.0
 40
1.0
 40
1.0
 10
711.2099586160911
 20
184.6338541005738
 30
0.0
 10
711.0732546176912
 20
185.2504092405738
 30
0.0
 10
710.8897453838907
 20
186.4828466639741
 30
0.0
 10
710.9046479674907
 20
188.323876261274
 30
0.0
 10
711.2163395342922
 20
190.090814731674
 30
0.0
 10
711.6210354943905
 20
191.2034304256739
 30
0.0
 10
711.8683576349922
 20
191.7325799584741
 30
0.0
  0
SPLINE
  5
40045
330
1F
100
AcDbEntity
  8
0
  6
Continuous
 62
     7
100
AcDbSpline
210
0.0
220
0.0
230
1.0
 70
     8
 71
     3
 72
    15
 73
    11
 74
     0
 42
0.0000000001
 43
0.0000000001
 40
0.0
 40
0.0
 40
0.0
 40
0.0
 40
0.1299457689
 40
0.2550722419
 40
0.3768070210999999
 40
0.4969833936
 40
0.6175927398
 40
0.7405840839
 40
0.8676346449
 40
1.0
 40
1.0
 40
1.0
 40
1.0
 10
711.9693238491928
 20
185.0758106592738
 30
0.0
 10
711.829233464492
 20
185.7076388996738
 30
0.0
 10
711.6461867036924
 20
186.9710322893738
 30
0.0
 10
711.6869277148907
 20
188.8561014724741
 30
0.0
 10
712.0501313677922
 20
190.6579931265741
 30
0.0
 10
712.7303786032918
 20
192.3417408508739
 30
0.0
 10
713.7150379099913
 20
193.874883990174
 30
0.0
 10
714.9844540445918
 20
195.2286020544738
 30
0.0
 10
716.5130849374908
 20
196.3787137173739
 30
0.0
 10
717.6611253088922
 20
196.9840766710739
 30
0.0
 10
718.2647033639914
 20
197.249158300074
 30
0.0
  0
SPLINE
  5
40046
330
1F
100
AcDbEntity
  8
0
  6
Continuous
 62
     7
100
AcDbSpline
210
0.0
220
0.0
230
1.0
 70
     8
 71
     3
 72
     9
 73
     5
 74
     0
 42
0.0000000001
 43
0.0000000001
 40
0.0
 40
0.0
 40
0.0
 40
0.0
 40
0.2547200369
 40
1.0
 40
1.0
 40
1.0
 40
1.0
 10
746.2605633030908
 20
186.3370821981738
 30
0.0
 10
746.350075710292
 20
186.161864313874
 30
0.0
 10
746.6893012467917
 20
185.4678543402742
 30
0.0
 10
746.9784728869926
 20
184.7491169098738
 30
0.0
 10
747.1609291905914
 20
184.2031047053742
 30
0.0
  0
SPLINE
  5
40047
330
1F
100
AcDbEntity
  8
0
  6
Continuous
 62
     7
100
AcDbSpline
210
0.0
220
0.0
230
1.0
 70
     8
 71
     3
 72
    11
 73
     7
 74
     0
 42
0.0000000001
 43
0.0000000001
 40
0.0
 40
0.0
 40
0.0
 40
0.0
 40
0.2267052476
 40
0.4682242619000001
 40
0.7262692744
 40
1.0
 40
1.0
 40
1.0
 40
1.0
 10
747.2833316368924
 20
177.249300229374
 30
0.0
 10
746.5721330361922
 20
176.5931749281739
 30
0.0
 10
744.9196245636922
 20
175.4281972570738
 30
0.0
 10
742.027083875193
 20
174.2537882131741
 30
0.0
 10
738.7661943596922
 20
173.6341974992737
 30
0.0
 10
736.4846793029919
 20
173.6038584008738
 30
0.0
 10
735.3186628018919
 20
173.677553871174
 30
0.0
  0
SPLINE
  5
40048
330
1F
100
AcDbEntity
  8
0
  6
Continuous
 62
     7
100
AcDbSpline
210
0.0
220
0.0
230
1.0
 70
     8
 71
     3
 72
    26
 73
    22
 74
     0
 42
0.0000000001
 43
0.0000000001
 40
0.0
 40
0.0
 40
0.0
 40
0.0
 40
0.0591072929
 40
0.1222400854
 40
0.1891288905
 40
0.2590099638
 40
0.3307842217
 40
0.4031568360000001
 40
0.474773763
 40
0.5443559397
 40
0.6108363123000001
 40
0.6735026709000002
 40
0.7321455512
 40
0.7871884703000001
 40
0.8137377731999999
 40
0.8398551640999999
 40
0.8657637382999999
 40
0.8917006857999998
 40
0.9178995581999998
 40
0.9445781535
 40
1.0
 40
1.0
 40
1.0
 40
1.0
 10
711.9693238491928
 20
185.0758106592738
 30
0.0
 10
712.1879842715916
 20
184.0896199926741
 30
0.0
 10
712.8786785856917
 20
182.0984421440739
 30
0.0
 10
714.5210729878925
 20
179.295193769074
 30
0.0
 10
716.7368632139913
 20
176.674601514874
 30
0.0
 10
719.441537834191
 20
174.333449806174
 30
0.0
 10
722.5336604679905
 20
172.3566767809738
 30
0.0
 10
725.8976320155925
 20
170.8175855969738
 30
0.0
 10
729.4079503543906
 20
169.7736472847741
 30
0.0
 10
732.9340514723918
 20
169.2644817678737
 30
0.0
 10
736.3453667900921
 20
169.3105716395739
 30
0.0
 10
739.5163671674927
 20
169.914417215074
 30
0.0
 10
742.3279978711907
 20
171.059442797974
 30
0.0
 10
744.3060772151912
 20
172.4586064668742
 30
0.0
 10
745.5777783120919
 20
173.795962871974
 30
0.0
 10
746.3681723715925
 20
174.8867536798738
 30
0.0
 10
746.9972185227925
 20
176.0660654490738
 30
0.0
 10
747.4586974412923
 20
177.3218861508739
 30
0.0
 10
747.7480410916905
 20
178.6417543943739
 30
0.0
 10
747.9030834933909
 20
180.4901402719742
 30
0.0
 10
747.7484935265928
 20
181.9027264479741
 30
0.0
 10
747.5434669758906
 20
182.8274263478737
 30
0.0
  0
SPLINE
  5
40049
330
1F
100
AcDbEntity
  8
0
  6
Continuous
 62
     7
100
AcDbSpline
210
0.0
220
0.0
230
1.0
 70
     8
 71
     3
 72
    14
 73
    10
 74
     0
 42
0.0000000001
 43
0.0000000001
 40
0.0
 40
0.0
 40
0.0
 40
0.0
 40
0.1107463953
 40
0.223464352
 40
0.339714625
 40
0.4606905627000001
 40
0.5871479538000001
 40
0.7193889985
 40
1.0
 40
1.0
 40
1.0
 40
1.0
 10
747.1980950329926
 20
175.219969745874
 30
0.0
 10
746.9276427202929
 20
174.6689052525739
 30
0.0
 10
746.2767939434924
 20
173.6053247586741
 30
0.0
 10
745.0130005773918
 20
172.1967155523738
 30
0.0
 10
743.4815882555922
 20
170.9913985519742
 30
0.0
 10
741.7118336148924
 20
170.0099300602741
 30
0.0
 10
739.7349706698913
 20
169.2674161515742
 30
0.0
 10
736.814778069991
 20
168.598316501574
 30
0.0
 10
734.5013731768922
 20
168.5096976160739
 30
0.0
 10
732.9490777400915
 20
168.6078069842742
 30
0.0
  0
SPLINE
  5
4004A
330
1F
100
AcDbEntity
  8
0
  6
Continuous
 62
     7
100
AcDbSpline
210
0.0
220
0.0
230
1.0
 70
     8
 71
     3
 72
     9
 73
     5
 74
     0
 42
0.0000000001
 43
0.0000000001
 40
0.0
 40
0.0
 40
0.0
 40
0.0
 40
0.5097586879
 40
1.0
 40
1.0
 40
1.0
 40
1.0
 10
714.3389089109913
 20
190.145557546174
 30
0.0
 10
714.1930702142928
 20
190.8033115190741
 30
0.0
 10
714.0064565912908
 20
192.1184507767738
 30
0.0
 10
714.0494920575909
 20
193.4475645156739
 30
0.0
 10
714.1311079263905
 20
194.0903361576738
 30
0.0
  0
SPLINE
  5
4004B
330
1F
100
AcDbEntity
  8
0
  6
Continuous
 62
     7
100
AcDbSpline
210
0.0
220
0.0
230
1.0
 70
     8
 71
     3
 72
    14
 73
    10
 74
     0
 42
0.0000000001
 43
0.0000000001
 40
0.0
 40
0.0
 40
0.0
 40
0.0
 40
0.1108162669
 40
0.2234756289
 40
0.3396072047
 40
0.4604672157
 40
0.5868588678
 40
0.7191139169
 40
1.0
 40
1.0
 40
1.0
 40
1.0
 10
747.1995718078906
 20
175.2188724327738
 30
0.0
 10
746.9365354687908
 20
174.6561021298739
 30
0.0
 10
746.2974989927914
 20
173.5685877686741
 30
0.0
 10
745.0409161572915
 20
172.1253136608738
 30
0.0
 10
743.5076452246923
 20
170.8889647382738
 30
0.0
 10
741.7278982282915
 20
169.8812430258739
 30
0.0
 10
739.7340096693915
 20
169.1180448447739
 30
0.0
 10
736.7820335667929
 20
168.4290233799738
 30
0.0
 10
734.4401003154926
 20
168.3364356495739
 30
0.0
 10
732.8686611188913
 20
168.4357549564738
 30
0.0
  0
SPLINE
  5
4004C
330
1F
100
AcDbEntity
  8
0
  6
Continuous
 62
     7
100
AcDbSpline
210
0.0
220
0.0
230
1.0
 70
     8
 71
     3
 72
    20
 73
    16
 74
     0
 42
0.0000000001
 43
0.0000000001
 40
0.0
 40
0.0
 40
0.0
 40
0.0
 40
0.0561754048
 40
0.115309079
 40
0.1773574189
 40
0.2420356868
 40
0.377020545
 40
0.5152680467000002
 40
0.5838230051
 40
0.6509534344
 40
0.7782703276000002
 40
0.8378930134999999
 40
0.8945459962000001
 40
0.9484184076
 40
1.0
 40
1.0
 40
1.0
 40
1.0
 10
714.3389089109913
 20
190.145557546174
 30
0.0
 10
714.5057174379907
 20
189.3932265542739
 30
0.0
 10
714.9856586653912
 20
187.8770751735741
 30
0.0
 10
716.074311004391
 20
185.6921142863738
 30
0.0
 10
717.5238423312912
 20
183.584998378274
 30
0.0
 10
719.9257853915915
 20
180.9058793187741
 30
0.0
 10
723.6203753877926
 20
178.036424052474
 30
0.0
 10
727.8843032767909
 20
175.998815149874
 30
0.0
 10
731.4984734031932
 20
174.9435234054739
 30
0.0
 10
735.0574036570906
 20
174.3237696982741
 30
0.0
 10
738.5880436288918
 20
174.3233698949738
 30
0.0
 10
741.8661105547908
 20
175.0224185512738
 30
0.0
 10
744.0579168967924
 20
175.8549345111741
 30
0.0
 10
745.9831242059918
 20
176.989828120274
 30
0.0
 10
747.078631423892
 20
177.9512526887736
 30
0.0
 10
747.5597734217916
 20
178.4700769902742
 30
0.0
  0
SPLINE
  5
4004D
330
1F
100
AcDbEntity
  8
0
  6
Continuous
 62
     7
100
AcDbSpline
210
0.0
220
0.0
230
1.0
 70
     8
 71
     3
 72
    18
 73
    14
 74
     0
 42
0.0000000001
 43
0.0000000001
 40
0.0
 40
0.0
 40
0.0
 40
0.0
 40
0.0502340509
 40
0.1012557487
 40
0.1537665206
 40
0.2083161851
 40
0.2652678586
 40
0.324790806
 40
0.4511359481000001
 40
0.5857374581000001
 40
0.7250310885
 40
0.864605569
 40
1.0
 40
1.0
 40
1.0
 40
1.0
 10
753.1283060623918
 20
182.589648239174
 30
0.0
 10
753.4129181656917
 20
183.1985983915737
 30
0.0
 10
753.8753985505917
 20
184.4814584385739
 30
0.0
 10
754.2176878081917
 20
186.5205759046738
 30
0.0
 10
754.207325503892
 20
188.6456710847742
 30
0.0
 10
753.8464007417915
 20
190.8190587425742
 30
0.0
 10
753.1431301868905
 20
193.0048300865741
 30
0.0
 10
751.7396602929911
 20
195.944253868874
 30
0.0
 10
749.1807190883917
 20
199.4366180812739
 30
0.0
 10
745.1622248908916
 20
203.0267527111741
 30
0.0
 10
740.3885152683906
 20
205.8872666726738
 30
0.0
 10
735.1679070956925
 20
207.835980741474
 30
0.0
 10
731.5128514071911
 20
208.4600428497742
 30
0.0
 10
729.7047544133929
 20
208.5743195843742
 30
0.0
  0
SPLINE
  5
4004E
330
1F
100
AcDbEntity
  8
0
  6
Continuous
 62
     7
100
AcDbSpline
210
0.0
220
0.0
230
1.0
 70
     8
 71
     3
 72
    15
 73
    11
 74
     0
 42
0.0000000001
 43
0.0000000001
 40
0.0
 40
0.0
 40
0.0
 40
0.0
 40
0.129364269
 40
0.2625956305999999
 40
0.3969722253
 40
0.5296421811
 40
0.6579467854
 40
0.7797499256
 40
0.8937842089
 40
1.0
 40
1.0
 40
1.0
 40
1.0
 10
737.0551180021919
 20
177.3927141699741
 30
0.0
 10
735.7507487769908
 20
177.4751539153739
 30
0.0
 10
733.1134491594929
 20
177.8701320632739
 30
0.0
 10
729.2722121004917
 20
179.072159711874
 30
0.0
 10
725.6205478397913
 20
180.8446952194739
 30
0.0
 10
722.3141728348926
 20
183.1129963599741
 30
0.0
 10
719.4925221024913
 20
185.782283476974
 30
0.0
 10
717.2757841977908
 20
188.7439106396741
 30
0.0
 10
715.7611055947927
 20
191.8753615790737
 30
0.0
 10
715.2528721758917
 20
194.0679445033738
 30
0.0
 10
715.1501751000904
 20
195.1361210238736
 30
0.0
  0
SPLINE
  5
4004F
330
1F
100
AcDbEntity
  8
0
  6
Continuous
 62
     7
100
AcDbSpline
210
0.0
220
0.0
230
1.0
 70
     8
 71
     3
 72
    18
 73
    14
 74
     0
 42
0.0000000001
 43
0.0000000001
 40
0.0
 40
0.0
 40
0.0
 40
0.0
 40
0.0502340509
 40
0.1012557487
 40
0.1537665206
 40
0.2083161851
 40
0.2652678586
 40
0.324790806
 40
0.4511359481000001
 40
0.5857374581000001
 40
0.7250310885
 40
0.864605569
 40
1.0
 40
1.0
 40
1.0
 40
1.0
 10
748.9815322042923
 20
173.717591187074
 30
0.0
 10
749.266144307492
 20
174.3265413394737
 30
0.0
 10
749.7286246923922
 20
175.6094013864739
 30
0.0
 10
750.0709139500903
 20
177.6485188526739
 30
0.0
 10
750.0605516457907
 20
179.7736140327742
 30
0.0
 10
749.6996268835919
 20
181.9470016904737
 30
0.0
 10
748.9963563287929
 20
184.1327730344741
 30
0.0
 10
747.5928864347915
 20
187.072196816774
 30
0.0
 10
745.0339452302905
 20
190.5645610291739
 30
0.0
 10
741.0154510326917
 20
194.1546956590741
 30
0.0
 10
736.241741410191
 20
197.0152096205738
 30
0.0
 10
731.0211332374928
 20
198.963923689374
 30
0.0
 10
727.3660775489917
 20
199.5879857976742
 30
0.0
 10
725.5579805552915
 20
199.7022625322738
 30
0.0
  0
SPLINE
  5
40050
330
1F
100
AcDbEntity
  8
0
  6
Continuous
 62
     7
100
AcDbSpline
210
0.0
220
0.0
230
1.0
 70
     8
 71
     3
 72
    17
 73
    13
 74
     0
 42
0.0000000001
 43
0.0000000001
 40
0.0
 40
0.0
 40
0.0
 40
0.0
 40
0.0510682308
 40
0.1027067358
 40
0.1554411696
 40
0.2097154876
 40
0.323909677
 40
0.4468524841
 40
0.5781216865
 40
0.7159431892
 40
0.8576262659000001
 40
1.0
 40
1.0
 40
1.0
 40
1.0
 10
754.2603278842907
 20
182.0595579073742
 30
0.0
 10
754.5133426628925
 20
182.6008487671737
 30
0.0
 10
754.9394618919905
 20
183.730334974174
 30
0.0
 10
755.3185003051911
 20
185.5156286522741
 30
0.0
 10
755.4353705878931
 20
187.3746857701739
 30
0.0
 10
755.2379373412914
 20
189.9623915503738
 30
0.0
 10
754.3026231004914
 20
193.2801197420739
 30
0.0
 10
752.2248945076918
 20
197.0904210512739
 30
0.0
 10
749.2804608277911
 20
200.640683809574
 30
0.0
 10
745.6067742899922
 20
203.773492315774
 30
0.0
 10
741.3739676625919
 20
206.3496675449741
 30
0.0
 10
738.288190730891
 20
207.6261833511739
 30
0.0
 10
736.7035086627911
 20
208.139646098074
 30
0.0
  0
SPLINE
  5
40051
330
1F
100
AcDbEntity
  8
0
  6
Continuous
 62
     7
100
AcDbSpline
210
0.0
220
0.0
230
1.0
 70
     8
 71
     3
 72
    13
 73
     9
 74
     0
 42
0.0000000001
 43
0.0000000001
 40
0.0
 40
0.0
 40
0.0
 40
0.0
 40
0.2702817694
 40
0.5242730414
 40
0.6463149312
 40
0.7657414499
 40
0.8833409631
 40
1.0
 40
1.0
 40
1.0
 40
1.0
 10
722.7025518842927
 20
209.024545319774
 30
0.0
 10
721.5603499724928
 20
208.759246469674
 30
0.0
 10
719.3828279914923
 20
208.0502329159739
 30
0.0
 10
716.9276458550921
 20
206.6469652501741
 30
0.0
 10
715.2717905079916
 20
205.2692332873739
 30
0.0
 10
714.2001419354929
 20
204.1329863049741
 30
0.0
 10
713.2930375614923
 20
202.8905100678739
 30
0.0
 10
712.8023398834921
 20
201.9966739206738
 30
0.0
 10
712.5880262832906
 20
201.5381674937739
 30
0.0
  0
SPLINE
  5
40052
330
1F
100
AcDbEntity
  8
0
  6
Continuous
 62
     7
100
AcDbSpline
210
0.0
220
0.0
230
1.0
 70
     8
 71
     3
 72
     9
 73
     5
 74
     0
 42
0.0000000001
 43
0.0000000001
 40
0.0
 40
0.0
 40
0.0
 40
0.0
 40
0.5080449623
 40
1.0
 40
1.0
 40
1.0
 40
1.0
 10
713.6599602990918
 20
189.875653015274
 30
0.0
 10
713.5405520817912
 20
190.4142016388741
 30
0.0
 10
713.3705651884919
 20
191.489999922674
 30
0.0
 10
713.3463056283908
 20
192.5795020183739
 30
0.0
 10
713.3730260913907
 20
193.1129906157739
 30
0.0
  0
SPLINE
  5
40053
330
1F
100
AcDbEntity
  8
0
  6
Continuous
 62
     7
100
AcDbSpline
210
0.0
220
0.0
230
1.0
 70
     8
 71
     3
 72
    11
 73
     7
 74
     0
 42
0.0000000001
 43
0.0000000001
 40
0.0
 40
0.0
 40
0.0
 40
0.0
 40
0.2340702786
 40
0.4752629835000002
 40
0.7295358882
 40
1.0
 40
1.0
 40
1.0
 40
1.0
 10
724.4609055504914
 20
210.325146115374
 30
0.0
 10
724.3861355406917
 20
210.1654568663739
 30
0.0
 10
724.1908197423907
 20
209.8598225433738
 30
0.0
 10
723.7844632457927
 20
209.4821829354741
 30
0.0
 10
723.2795125414923
 20
209.1939389631738
 30
0.0
 10
722.9010115940909
 20
209.0706414891742
 30
0.0
 10
722.7025518842927
 20
209.024545319774
 30
0.0
  0
SPLINE
  5
40054
330
1F
100
AcDbEntity
  8
0
  6
Continuous
 62
     7
100
AcDbSpline
210
0.0
220
0.0
230
1.0
 70
     8
 71
     3
 72
    15
 73
    11
 74
     0
 42
0.0000000001
 43
0.0000000001
 40
0.0
 40
0.0
 40
0.0
 40
0.0
 40
0.1278284586
 40
0.2593872693
 40
0.3923384964999999
 40
0.5241901392
 40
0.6525640626
 40
0.7754407712000001
 40
0.8914183110999999
 40
1.0
 40
1.0
 40
1.0
 40
1.0
 10
735.3186628018919
 20
173.677553871174
 30
0.0
 10
734.0960138198917
 20
173.7548286709738
 30
0.0
 10
731.6243433503914
 20
174.1116052850738
 30
0.0
 10
728.0088744342918
 20
175.187040830674
 30
0.0
 10
724.5431433703925
 20
176.7725429590741
 30
0.0
 10
721.3577551275919
 20
178.8090247833738
 30
0.0
 10
718.5714203046917
 20
181.220841802074
 30
0.0
 10
716.2887200948916
 20
183.9205275132739
 30
0.0
 10
714.5967723209905
 20
186.8084126573739
 30
0.0
 10
713.8852206686915
 20
188.8596956160739
 30
0.0
 10
713.6599602990918
 20
189.875653015274
 30
0.0
  0
SPLINE
  5
40055
330
1F
100
AcDbEntity
  8
0
  6
Continuous
 62
     7
100
AcDbSpline
210
0.0
220
0.0
230
1.0
 70
     8
 71
     3
 72
    14
 73
    10
 74
     0
 42
0.0000000001
 43
0.0000000001
 40
0.0
 40
0.0
 40
0.0
 40
0.0
 40
0.1108167098
 40
0.2234759749
 40
0.339607322
 40
0.460467434
 40
0.5868582167000001
 40
0.7191160065000001
 40
1.0
 40
1.0
 40
1.0
 40
1.0
 10
709.5733670235931
 20
192.1362288054736
 30
0.0
 10
709.8667522658907
 20
192.7639497840741
 30
0.0
 10
710.5794930625925
 20
193.9769920302742
 30
0.0
 10
711.9810696568928
 20
195.5868419485741
 30
0.0
 10
713.6912531626911
 20
196.9659027420738
 30
0.0
 10
715.6763751198923
 20
198.0899264304739
 30
0.0
 10
717.9003642173919
 20
198.9412309957742
 30
0.0
 10
721.1930103580924
 20
199.709737545274
 30
0.0
 10
723.8052071975907
 20
199.8130426599741
 30
0.0
 10
725.5579805552915
 20
199.7022625322738
 30
0.0
  0
SPLINE
  5
40056
330
1F
100
AcDbEntity
  8
0
  6
Continuous
 62
     7
100
AcDbSpline
210
0.0
220
0.0
230
1.0
 70
     8
 71
     3
 72
    14
 73
    10
 74
     0
 42
0.0000000001
 43
0.0000000001
 40
0.0
 40
0.0
 40
0.0
 40
0.0
 40
0.1108167098
 40
0.2234759749
 40
0.339607322
 40
0.460467434
 40
0.5868582167000001
 40
0.7191160065000001
 40
1.0
 40
1.0
 40
1.0
 40
1.0
 10
713.7201408817928
 20
201.0082858574742
 30
0.0
 10
714.013526123992
 20
201.6360068361741
 30
0.0
 10
714.7262669207921
 20
202.8490490822741
 30
0.0
 10
716.1278435150924
 20
204.4588990005741
 30
0.0
 10
717.8380270207926
 20
205.8379597940738
 30
0.0
 10
719.8231489779917
 20
206.9619834825739
 30
0.0
 10
722.0471380755915
 20
207.8132880478742
 30
0.0
 10
725.3397842162923
 20
208.5817945972739
 30
0.0
 10
727.951981055792
 20
208.6850997120741
 30
0.0
 10
729.7047544133929
 20
208.5743195843742
 30
0.0
  0
MTEXT
  5
40058
330
1F
100
AcDbEntity
  8
DIM
 62
     4
100
AcDbMText
 10
764.6705361634184
 20
279.4108160410721
 30
0.0
 40
3.5
 41
0.0
 71
     5
 72
     1
  1
C
  7
Romans字体
 73
     1
 44
1.0
  0
DIMENSION
  5
4005E
102
{ACAD_XDICTIONARY
360
4005F
102
}
102
{ACAD_REACTORS
330
40060
102
}
330
1F
100
AcDbEntity
  8
DIM
100
AcDbDimension
  2
*D34
 10
829.7744494001056
 20
215.2081515781007
 30
0.0
 11
820.7744494001056
 21
217.0080015781007
 31
0.0
 70
    32
 71
     5
 42
18.0
  3
lin01-1-1
100
AcDbAlignedDimension
 13
811.7744494001057
 23
224.538318669967
 33
0.0
 14
829.7744494001056
 24
225.9349504556618
 34
0.0
 50
180.0
100
AcDbRotatedDimension
1001
ACAD
1000
DSTYLE
1002
{
1070
   340
1005
FD48
1070
    41
1040
0.8
1070
   140
1040
3.0
1070
   147
1040
0.29985
1002
}
  0
DIMENSION
  5
40063
102
{ACAD_XDICTIONARY
360
40064
102
}
102
{ACAD_REACTORS
330
40065
102
}
330
1F
100
AcDbEntity
  8
DIM
100
AcDbDimension
  2
*D35
 10
803.1262271275219
 20
269.8099504556618
 30
0.0
 11
803.1262271275219
 21
246.8731144236996
 31
0.0
 70
   160
  1
%%C<>
 71
     5
 42
45.99999999999996
  3
lin01-1-1
100
AcDbAlignedDimension
 13
813.7744494001056
 23
223.8099504556618
 33
0.0
 14
813.7744494001056
 24
269.8099504556618
 34
0.0
 50
90.0
100
AcDbRotatedDimension
1001
ACAD
1000
DSTYLE
1002
{
1070
   340
1005
FD48
1070
    41
1040
0.8
1070
   140
1040
3.0
1070
   147
1040
0.29985
1002
}
  0
DIMENSION
  5
40067
102
{ACAD_XDICTIONARY
360
40068
102
}
102
{ACAD_REACTORS
330
40069
102
}
330
1F
100
AcDbEntity
  8
DIM
100
AcDbDimension
  2
*D36
 10
844.466927492326
 20
268.5599504556618
 30
0.0
 11
844.4669274923258
 21
246.8099504556618
 31
0.0
 70
   160
  1
%%C43.6
 71
     5
 42
43.49999999999996
  3
lin01-1-1
100
AcDbAlignedDimension
 13
826.7702236858193
 23
225.0599504556618
 33
0.0
 14
826.3285002944311
 24
268.5599504556618
 34
0.0
 50
90.0
100
AcDbRotatedDimension
1001
ACAD
1000
DSTYLE
1002
{
1070
   340
1005
FD48
1070
    41
1040
0.8
1070
   140
1040
3.0
1070
   147
1040
0.29985
1002
}
  0
DIMENSION
  5
402C7
330
1F
100
AcDbEntity
  8
DIM
100
AcDbDimension
  2
*D37
 10
837.5221979953982
 20
266.3099504556618
 30
0.0
 11
837.5221979953982
 21
246.8099504556633
 31
0.0
 70
   160
  1
%%c<>
 71
     5
 42
38.99999999999727
  3
lin01-1-1
100
AcDbAlignedDimension
 13
826.911970847706
 23
227.3099504556645
 33
0.0
 14
826.9119708477052
 24
266.3099504556618
 34
0.0
 50
90.0
100
AcDbRotatedDimension
1001
ACAD
1000
DSTYLE
1002
{
1070
    41
1040
0.8
1070
   140
1040
3.0
1070
   147
1040
0.29985
1070
   340
1005
FD48
1002
}
  0
DIMENSION
  5
402EF
330
1F
100
AcDbEntity
  8
DIM
100
AcDbDimension
  2
*D38
 10
829.7744494001056
 20
272.8499362439539
 30
0.0
 11
822.2744494001057
 21
274.6497862439538
 31
0.0
 70
    32
 71
     5
 42
15.0
  3
lin01-1-1
100
AcDbAlignedDimension
 13
814.7744494001056
 23
265.5993110343095
 33
0.0
 14
829.7744494001056
 24
268.5599504556618
 34
0.0
100
AcDbRotatedDimension
1001
ACAD
1000
DSTYLE
1002
{
1070
    41
1040
0.8
1070
   140
1040
3.0
1070
   147
1040
0.29985
1070
   340
1005
FD48
1002
}
  0
LEADER
  5
40306
330
1F
100
AcDbEntity
  8
DIM
100
AcDbLeader
  3
02
 76
     2
 10
762.5335766968289
 20
214.3759061954152
 30
0.0
 10
752.8801292918991
 20
214.3749736497218
 30
0.0
1001
ACAD
1000
DSTYLE
1002
{
1070
   147
1040
1.0
1070
    77
1070
     0
1002
}
  0
LEADER
  5
40307
330
1F
100
AcDbEntity
  8
DIM
100
AcDbLeader
  3
02
 76
     2
 10
762.5335766968289
 20
279.2439947159085
 30
0.0
 10
752.8801292918991
 20
279.2449272616019
 30
0.0
1001
ACAD
1000
DSTYLE
1002
{
1070
   147
1040
1.0
1070
    77
1070
     0
1002
}
  0
LINE
  5
40308
330
1F
100
AcDbEntity
  8
DIM
 62
     1
100
AcDbLine
 10
752.8801292918991
 20
279.2449272616019
 30
0.0
 11
752.8801292918991
 21
277.1388775655192
 31
0.0
  0
ENDSEC
  0
SECTION
  2
OBJECTS
  0
DICTIONARY
  5
C
330
0
100
AcDbDictionary
281
     1
  3
ACAD_COLOR
350
4FFE
  3
ACAD_GROUP
350
D
  3
ACAD_LAYOUT
350
1A
  3
ACAD_MATERIAL
350
4FE5
  3
ACAD_MLEADERSTYLE
350
5022
  3
ACAD_MLINESTYLE
350
17
  3
ACAD_PLOTSETTINGS
350
19
  3
ACAD_PLOTSTYLENAME
350
E
  3
ACAD_RENDER_PLOT_SETTINGS
350
6537
  3
ACAD_SCALELIST
350
5000
  3
ACAD_TABLESTYLE
350
4FE3
  3
ACAD_VISUALSTYLE
350
2A
  3
AcadDim
350
40305
  3
ACDB_RECOMPOSE_DATA
350
50EC
  3
AcDbVariableDictionary
350
5108
  3
ASE_INDEX_DICTIONARY
350
11ACE
  3
lxx_dict
350
11B4E
  0
DICTIONARY
  5
50EE
330
8
100
AcDbDictionary
280
     1
281
     1
  0
DICTIONARY
  5
50B8
330
2
100
AcDbDictionary
280
     1
281
     1
  3
ACAD_LAYERFILTERS
360
11B10
  3
ACAD_LAYERSTATES
360
50B9
  3
ACLYDICTIONARY
360
11B0F
  0
DICTIONARY
  5
50D0
330
10
100
AcDbDictionary
280
     1
281
     1
  3
ADSK_XREC_LAYER_RECONCILED
360
50D1
  0
DICTIONARY
  5
50D2
330
3B
100
AcDbDictionary
280
     1
281
     1
  3
ADSK_XREC_LAYER_RECONCILED
360
50D3
  0
DICTIONARY
  5
50AF
330
50AE
100
AcDbDictionary
280
     1
281
     1
  3
ADSK_XREC_LAYER_RECONCILED
360
50D4
  0
DICTIONARY
  5
67C0
330
1F
100
AcDbDictionary
280
     1
281
     1
  3
ACAD_SORTENTS
360
67C1
  0
DICTIONARY
  5
404FF
330
10FE8
100
AcDbDictionary
280
     1
281
     1
  0
DICTIONARY
  5
40568
330
4046B
100
AcDbDictionary
280
     1
281
     1
  3
ACAD_MTEXT_2008_RT
360
405AD
  0
DICTIONARY
  5
4056A
330
404AD
100
AcDbDictionary
280
     1
281
     1
  3
ACAD_MTEXT_2008_RT
360
405AE
  0
DICTIONARY
  5
4056C
330
404AE
100
AcDbDictionary
280
     1
281
     1
  3
ACAD_MTEXT_2008_RT
360
405AF
  0
DICTIONARY
  5
4056E
330
404D3
100
AcDbDictionary
280
     1
281
     1
  3
ACAD_MTEXT_2008_RT
360
405B0
  0
DICTIONARY
  5
40570
330
404D6
100
AcDbDictionary
280
     1
281
     1
  3
ACAD_MTEXT_2008_RT
360
405B1
  0
DICTIONARY
  5
40572
330
404D7
100
AcDbDictionary
280
     1
281
     1
  3
ACAD_MTEXT_2008_RT
360
405B2
  0
DICTIONARY
  5
40574
330
404E1
100
AcDbDictionary
280
     1
281
     1
  3
ACAD_MTEXT_2008_RT
360
405B3
  0
DICTIONARY
  5
40576
330
404E2
100
AcDbDictionary
280
     1
281
     1
  3
ACAD_MTEXT_2008_RT
360
405B4
  0
DICTIONARY
  5
40578
330
404E3
100
AcDbDictionary
280
     1
281
     1
  3
ACAD_MTEXT_2008_RT
360
405B5
  0
DICTIONARY
  5
4057A
330
404F1
100
AcDbDictionary
280
     1
281
     1
  3
ACAD_MTEXT_2008_RT
360
405B6
  0
DICTIONARY
  5
4057C
330
404F2
100
AcDbDictionary
280
     1
281
     1
  3
ACAD_MTEXT_2008_RT
360
405B7
  0
DICTIONARY
  5
4057E
330
404F3
100
AcDbDictionary
280
     1
281
     1
  3
ACAD_MTEXT_2008_RT
360
405B8
  0
DICTIONARY
  5
4059B
330
3FB38
100
AcDbDictionary
280
     1
281
     1
  3
ACAD_MTEXT_2008_RT
360
4059C
  0
DICTIONARY
  5
4059D
330
3FE49
100
AcDbDictionary
280
     1
281
     1
  3
ACAD_MTEXT_2008_RT
360
4059E
  0
DICTIONARY
  5
4059F
330
3FE60
100
AcDbDictionary
280
     1
281
     1
  3
ACAD_MTEXT_2008_RT
360
405A0
  0
DICTIONARY
  5
405A1
330
3FE84
100
AcDbDictionary
280
     1
281
     1
  3
ACAD_MTEXT_2008_RT
360
405A2
  0
DICTIONARY
  5
405A3
330
40200
100
AcDbDictionary
280
     1
281
     1
  3
ACAD_MTEXT_2008_RT
360
405A4
  0
DICTIONARY
  5
405A5
330
40211
100
AcDbDictionary
280
     1
281
     1
  3
ACAD_MTEXT_2008_RT
360
405A6
  0
DICTIONARY
  5
405A7
330
40225
100
AcDbDictionary
280
     1
281
     1
  3
ACAD_MTEXT_2008_RT
360
405A8
  0
DICTIONARY
  5
405A9
330
4022C
100
AcDbDictionary
280
     1
281
     1
  3
ACAD_MTEXT_2008_RT
360
405AA
  0
DICTIONARY
  5
405AB
330
402BF
100
AcDbDictionary
280
     1
281
     1
  3
ACAD_MTEXT_2008_RT
360
405AC
  0
DICTIONARY
  5
13B18
330
12DE1
100
AcDbDictionary
280
     1
281
     1
  0
DICTIONARY
  5
40563
330
1DE52
100
AcDbDictionary
280
     1
281
     1
  3
ACAD_MTEXT_2008_RT
360
40581
  0
DICTIONARY
  5
40565
330
1DE53
100
AcDbDictionary
280
     1
281
     1
  3
ACAD_MTEXT_2008_RT
360
40582
  0
DICTIONARY
  5
4005F
330
4005E
100
AcDbDictionary
280
     1
281
     1
  3
ACAD_DIMASSOC
360
40060
  0
DICTIONARY
  5
40064
330
40063
100
AcDbDictionary
280
     1
281
     1
  3
ACAD_DIMASSOC
360
40065
  0
DICTIONARY
  5
40068
330
40067
100
AcDbDictionary
280
     1
281
     1
  3
ACAD_DIMASSOC
360
40069
  0
DICTIONARY
  5
4FFE
102
{ACAD_REACTORS
330
C
102
}
330
C
100
AcDbDictionary
281
     1
  0
DICTIONARY
  5
D
102
{ACAD_REACTORS
330
C
102
}
330
C
100
AcDbDictionary
281
     1
  0
DICTIONARY
  5
1A
102
{ACAD_REACTORS
330
C
102
}
330
C
100
AcDbDictionary
281
     1
  3
Layout1
350
1E
  3
Layout2
350
26
  3
Model
350
22
  0
DICTIONARY
  5
4FE5
102
{ACAD_REACTORS
330
C
102
}
330
C
100
AcDbDictionary
281
     1
  3
ByBlock
350
4FEE
  3
ByLayer
350
4FE6
  3
Global
350
4FF6
  0
DICTIONARY
  5
5022
102
{ACAD_REACTORS
330
C
102
}
330
C
100
AcDbDictionary
281
     1
  3
Standard
350
5023
  0
DICTIONARY
  5
17
102
{ACAD_REACTORS
330
C
102
}
330
C
100
AcDbDictionary
281
     1
  3
Standard
350
18
  0
DICTIONARY
  5
19
102
{ACAD_REACTORS
330
C
102
}
330
C
100
AcDbDictionary
281
     1
  0
ACDBDICTIONARYWDFLT
  5
E
102
{ACAD_REACTORS
330
C
102
}
330
C
100
AcDbDictionary
281
     1
  3
Normal
350
F
100
AcDbDictionaryWithDefault
340
F
  0
DICTIONARY
  5
6537
102
{ACAD_REACTORS
330
C
102
}
330
C
100
AcDbDictionary
281
     1
  3
{1DC63513-1B1A-422F-9880-65CFD2B8D533}
350
6538
  0
DICTIONARY
  5
5000
102
{ACAD_REACTORS
330
C
102
}
330
C
100
AcDbDictionary
281
     1
  3
A0
350
5001
  3
A1
350
5002
  3
A2
350
5003
  3
A3
350
5004
  3
A4
350
5005
  3
A5
350
5006
  3
A6
350
5007
  3
A7
350
5008
  3
A8
350
5009
  3
A9
350
500A
  3
B0
350
500B
  3
B1
350
500C
  3
B2
350
500D
  3
B3
350
500E
  3
B4
350
500F
  3
B5
350
5010
  3
B6
350
5011
  3
B7
350
5012
  3
B8
350
5013
  3
B9
350
5014
  3
C0
350
5015
  3
C1
350
5016
  3
C2
350
5017
  3
C3
350
5018
  3
C4
350
5019
  3
C5
350
501A
  3
C6
350
501B
  3
C7
350
501C
  3
C8
350
501D
  3
C9
350
501E
  3
D0
350
501F
  3
D1
350
5020
  3
D2
350
5021
  0
DICTIONARY
  5
4FE3
102
{ACAD_REACTORS
330
C
102
}
330
C
100
AcDbDictionary
281
     1
  3
Standard
350
4FFF
  0
DICTIONARY
  5
2A
102
{ACAD_REACTORS
330
C
102
}
330
C
100
AcDbDictionary
281
     1
  3
2dWireframe
350
2F
  3
3D Hidden
350
31
  3
3dWireframe
350
30
  3
Basic
350
32
  3
Brighten
350
36
  3
ColorChange
350
3A
  3
Conceptual
350
34
  3
Dim
350
35
  3
Facepattern
350
39
  3
Flat
350
2B
  3
FlatWithEdges
350
2C
  3
Gouraud
350
2D
  3
GouraudWithEdges
350
2E
  3
Linepattern
350
38
  3
Realistic
350
33
  3
Thicken
350
37
  0
XRECORD
  5
40305
102
{ACAD_REACTORS
330
C
102
}
330
C
100
AcDbXrecord
280
     1
 90
   990106
  3

 60
     0
 61
     0
 62
     1
 63
     3
 64
     0
 65
     0
 66
     0
 67
     3
 68
     1
 69
     0
 70
     0
 71
     0
 72
     0
 40
0.0
170
     0
  0
XRECORD
  5
50EC
102
{ACAD_REACTORS
330
C
102
}
330
C
100
AcDbXrecord
280
     1
 90
        1
330
4FFF
330
1DE52
330
1DE53
330
4046B
330
404AD
330
404AE
330
404D3
330
404D6
330
404D7
330
404E1
330
404E2
330
404E3
330
404F1
330
404F2
330
404F3
  0
DICTIONARY
  5
5108
102
{ACAD_REACTORS
330
C
102
}
330
C
100
AcDbDictionary
281
     1
  3
CANNOSCALE
350
510B
  3
CMLEADERSTYLE
350
510A
  3
CTABLESTYLE
350
5109
  3
DIMASSOC
350
510E
  3
INDEXCTL
350
510D
  3
LIGHTINGUNITS
350
137BB
  3
MSLTSCALE
350
137BA
  3
SORTENTS
350
510C
  0
DICTIONARY
  5
11ACE
102
{ACAD_REACTORS
330
C
102
}
330
C
100
AcDbDictionary
281
     1
  3
ASEBlockHierarchyIndexRecord
350
11ACF
1001
DCO15
1040
1901610418.781
  0
DICTIONARY
  5
11B4E
102
{ACAD_REACTORS
330
C
102
}
330
C
100
AcDbDictionary
281
     1
  3
lxx_dimth
350
11B4F
  0
DICTIONARY
  5
11B10
102
{ACAD_REACTORS
330
50B8
102
}
330
50B8
100
AcDbDictionary
281
     1
  0
DICTIONARY
  5
50B9
102
{ACAD_REACTORS
330
50B8
102
}
330
50B8
100
AcDbDictionary
281
     1
  0
DICTIONARY
  5
11B0F
102
{ACAD_REACTORS
330
50B8
102
}
330
50B8
100
AcDbDictionary
281
     1
1001
ACAD
1000
<All
  0
XRECORD
  5
50D1
102
{ACAD_REACTORS
330
50D0
102
}
330
50D0
100
AcDbXrecord
280
     1
290
     1
  0
XRECORD
  5
50D3
102
{ACAD_REACTORS
330
50D2
102
}
330
50D2
100
AcDbXrecord
280
     1
290
     1
  0
XRECORD
  5
50D4
102
{ACAD_REACTORS
330
50AF
102
}
330
50AF
100
AcDbXrecord
280
     1
290
     1
  0
SORTENTSTABLE
  5
67C1
102
{ACAD_REACTORS
330
67C0
102
}
330
67C0
100
AcDbSortentsTable
330
1F
331
134E7
  5
134E7
331
3895
  5
3943
331
4842
  5
4E94
331
2F93
  5
2FDE
331
35D8
  5
3807
331
3807
  5
3895
331
1349F
  5
1349F
331
1DE53
  5
1DE53
331
28AE
  5
2A38
331
2EE7
  5
2F93
331
12DE1
  5
12DE1
331
35C8
  5
35D8
331
134E8
  5
134E8
331
2FDE
  5
35C8
331
2C65
  5
2EE7
331
1DE52
  5
1DE52
331
3943
  5
4842
  0
XRECORD
  5
405AD
102
{ACAD_REACTORS
330
40568
102
}
330
40568
100
AcDbXrecord
280
     1
 40
1902.0
  1
\pxqc;TC CHEN
  0
XRECORD
  5
405AE
102
{ACAD_REACTORS
330
4056A
102
}
330
4056A
100
AcDbXrecord
280
     1
 40
382080.0
  1
\pxqc;档案员{\H0.7x;\P\Fromans|c134;Filing Clerk\fFangSong_GB2312|b0|i0|c134|p49; }
  0
XRECORD
  5
405AF
102
{ACAD_REACTORS
330
4056C
102
}
330
4056C
100
AcDbXrecord
280
     1
 40
48245.0
  1
\pxqc;日期{\Fromans|c134;/Date}
  0
XRECORD
  5
405B0
102
{ACAD_REACTORS
330
4056E
102
}
330
4056E
100
AcDbXrecord
280
     1
 40
71634.0
  1
\pxsm0.7;{\fFangSong_GB2312|b0|i0|c134|p49;标准化}\PStand.
  0
XRECORD
  5
405B1
102
{ACAD_REACTORS
330
40570
102
}
330
40570
100
AcDbXrecord
280
     1
 40
48353.0
  1
\pxsm0.7;签名\P{\Fromans|c134;Signature} 
  0
XRECORD
  5
405B2
102
{ACAD_REACTORS
330
40572
102
}
330
40572
100
AcDbXrecord
280
     1
 40
38427.0
  1
\pxsm0.7,qc;处数\P{\Fromans|c134;Number }
  0
XRECORD
  5
405B3
102
{ACAD_REACTORS
330
40574
102
}
330
40574
100
AcDbXrecord
280
     1
 40
31190.0
  1
\pxsm0.7;标记\P{\Fromans|c134;Mark}
  0
XRECORD
  5
405B4
102
{ACAD_REACTORS
330
40576
102
}
330
40576
100
AcDbXrecord
280
     1
 40
39355.0
  1
\pxsm0.7;审核\P{\Fromans|c134;Checked}
  0
XRECORD
  5
405B5
102
{ACAD_REACTORS
330
40578
102
}
330
40578
100
AcDbXrecord
280
     1
 40
66730.0
  1
\pxsm0.7;绘图\P{\Fromans|c134;Drawn\Ftxt|c134; }
  0
XRECORD
  5
405B6
102
{ACAD_REACTORS
330
4057A
102
}
330
4057A
100
AcDbXrecord
280
     1
 40
43787.0
  1
\pxsm0.7;批准\P{\Fromans|c134;Approved}
  0
XRECORD
  5
405B7
102
{ACAD_REACTORS
330
4057C
102
}
330
4057C
100
AcDbXrecord
280
     1
 40
40691.0
  1
\pxsm0.7;工艺\P{\Fromans|c134;Process}
  0
XRECORD
  5
405B8
102
{ACAD_REACTORS
330
4057E
102
}
330
4057E
100
AcDbXrecord
280
     1
 40
30977.0
  1
\pxsm0.7;日期\P{\Fromans|c134;Date}
  0
XRECORD
  5
4059C
102
{ACAD_REACTORS
330
4059B
102
}
330
4059B
100
AcDbXrecord
280
     1
 40
5064.0
  1
\A1;\U+220533
  0
XRECORD
  5
4059E
102
{ACAD_REACTORS
330
4059D
102
}
330
4059D
100
AcDbXrecord
280
     1
 40
5807.0
  1
\A1;\U+22055.8
  0
XRECORD
  5
405A0
102
{ACAD_REACTORS
330
4059F
102
}
330
4059F
100
AcDbXrecord
280
     1
 40
4401.0
  1
\A1;\U+22053
  0
XRECORD
  5
405A2
102
{ACAD_REACTORS
330
405A1
102
}
330
405A1
100
AcDbXrecord
280
     1
 40
4461.0
  1
\A1;\U+22058
  0
XRECORD
  5
405A4
102
{ACAD_REACTORS
330
405A3
102
}
330
405A3
100
AcDbXrecord
280
     1
 40
5807.0
  1
\A1;\U+22055.8
  0
XRECORD
  5
405A6
102
{ACAD_REACTORS
330
405A5
102
}
330
405A5
100
AcDbXrecord
280
     1
 40
4401.0
  1
\A1;\U+22053
  0
XRECORD
  5
405A8
102
{ACAD_REACTORS
330
405A7
102
}
330
405A7
100
AcDbXrecord
280
     1
 40
5300.0
  1
\A1;42°
  0
XRECORD
  5
405AA
102
{ACAD_REACTORS
330
405A9
102
}
330
405A9
100
AcDbXrecord
280
     1
 40
4461.0
  1
\A1;\U+22058
  0
XRECORD
  5
405AC
102
{ACAD_REACTORS
330
405AB
102
}
330
405AB
100
AcDbXrecord
280
     1
 40
10437.0
  1
\A1;%%C39±0.2
  0
XRECORD
  5
40581
102
{ACAD_REACTORS
330
40563
102
}
330
40563
100
AcDbXrecord
280
     1
 40
1033188.0
  1
\A1;\pxql;技术参数：{\Fromans|c134;                             \P- }温度范围：{\Fromans|c134;-40}℃{\Fromans|c134; ... +85}℃{\Fromans|c134;          \P- }材料：硅橡胶{\Fromans|c134;\P- }防护等级：{\Fromans|c134;IP67 }
  0
XRECORD
  5
40582
102
{ACAD_REACTORS
330
40565
102
}
330
40565
100
AcDbXrecord
280
     1
 40
1633752.0
  1
\A1;\pxql;{\Fromans|c134;Technical specification:\P- \A0;Temperature range\A1;: -40}℃{\Fromans|c134; ... +85}℃{\Fromans|c134;\P- \A0;Degree of protection\A1;: IP67\P- \A0;Material:\A1;Silicone rubber\P  }
  0
DIMASSOC
  5
40060
102
{ACAD_REACTORS
330
4005F
102
}
330
4005F
100
AcDbDimAssoc
330
4005E
 90
        3
 70
     0
 71
     0
  1
AcDbOsnapPointRef
 72
    10
331
40010
 73
     2
 91
        0
 40
0.9841659083846698
 10
0.0
 20
0.0
 30
0.0
 75
     0
  1
AcDbOsnapPointRef
 72
     2
331
40015
 73
     2
 91
        0
 40
0.5
 10
0.0
 20
0.0
 30
0.0
 75
     0
  0
DIMASSOC
  5
40065
102
{ACAD_REACTORS
330
40064
102
}
330
40064
100
AcDbDimAssoc
330
40063
 90
        3
 70
     0
 71
     0
  1
AcDbOsnapPointRef
 72
     2
331
40011
 73
     2
 91
        0
 40
0.5
 10
0.0
 20
0.0
 30
0.0
 75
     0
  1
AcDbOsnapPointRef
 72
     2
331
4000F
 73
     2
 91
        0
 40
0.5
 10
0.0
 20
0.0
 30
0.0
 75
     0
  0
DIMASSOC
  5
40069
102
{ACAD_REACTORS
330
40068
102
}
330
40068
100
AcDbDimAssoc
330
40067
 90
        3
 70
     0
 71
     0
  1
AcDbOsnapPointRef
 72
    10
331
40013
 73
     2
 91
        0
 40
0.7774647619047041
 10
0.0
 20
0.0
 30
0.0
 75
     0
  1
AcDbOsnapPointRef
 72
    10
331
4000C
 73
     2
 91
        0
 40
0.2552554893092227
 10
0.0
 20
0.0
 30
0.0
 75
     0
  0
LAYOUT
  5
1E
102
{ACAD_REACTORS
330
1A
102
}
330
1A
100
AcDbPlotSettings
  1

  2
none_device
  4

  6

 40
0.0
 41
0.0
 42
0.0
 43
0.0
 44
0.0
 45
0.0
 46
0.0
 47
0.0
 48
0.0
 49
0.0
140
0.0
141
0.0
142
1.0
143
1.0
 70
   688
 72
     0
 73
     0
 74
     5
  7

 75
    16
147
1.0
 76
     0
 77
     2
 78
   300
148
0.0
149
0.0
100
AcDbLayout
  1
Layout1
 70
     1
 71
     1
 10
0.0
 20
0.0
 11
12.0
 21
9.0
 12
0.0
 22
0.0
 32
0.0
 14
1.000000000000000E+20
 24
1.000000000000000E+20
 34
1.000000000000000E+20
 15
-1.000000000000000E+20
 25
-1.000000000000000E+20
 35
-1.000000000000000E+20
146
0.0
 13
0.0
 23
0.0
 33
0.0
 16
1.0
 26
0.0
 36
0.0
 17
0.0
 27
1.0
 37
0.0
 76
     0
330
1B
  0
LAYOUT
  5
26
102
{ACAD_REACTORS
330
1A
102
}
330
1A
100
AcDbPlotSettings
  1

  2
none_device
  4

  6

 40
0.0
 41
0.0
 42
0.0
 43
0.0
 44
0.0
 45
0.0
 46
0.0
 47
0.0
 48
0.0
 49
0.0
140
0.0
141
0.0
142
1.0
143
1.0
 70
   688
 72
     0
 73
     0
 74
     5
  7

 75
    16
147
1.0
 76
     0
 77
     2
 78
   300
148
0.0
149
0.0
100
AcDbLayout
  1
Layout2
 70
     1
 71
     2
 10
0.0
 20
0.0
 11
0.0
 21
0.0
 12
0.0
 22
0.0
 32
0.0
 14
0.0
 24
0.0
 34
0.0
 15
0.0
 25
0.0
 35
0.0
146
0.0
 13
0.0
 23
0.0
 33
0.0
 16
1.0
 26
0.0
 36
0.0
 17
0.0
 27
1.0
 37
0.0
 76
     0
330
23
  0
LAYOUT
  5
22
102
{ACAD_REACTORS
330
1A
102
}
330
1A
100
AcDbPlotSettings
  1

  2
Adobe PDF Converter.pc3
  4
A4
  6

 40
3.174999952316281
 41
3.174999952316281
 42
3.17498779296875
 43
3.175003051757812
 44
297.0318298339844
 45
209.9733276367186
 46
0.0000000000000076
 47
1.630241740247063
 48
246.9897427644609
 49
39.36804549891383
140
544.952097801264
141
244.7492402188181
142
1.0
143
1.025046328645055
 70
  3764
 72
     1
 73
     0
 74
     4
  7
monochrome.ctb
 75
     0
147
0.9755656618192436
 76
     1
 77
     2
 78
   300
148
-246.9897427644609
149
-39.36804549891383
100
AcDbLayout
  1
Model
 70
     1
 71
     0
 10
0.0
 20
0.0
 11
12.0
 21
9.0
 12
0.0
 22
0.0
 32
0.0
 14
1.000000000000000E+20
 24
1.000000000000000E+20
 34
1.000000000000000E+20
 15
-1.000000000000000E+20
 25
-1.000000000000000E+20
 35
-1.000000000000000E+20
146
0.0
 13
0.0
 23
0.0
 33
0.0
 16
1.0
 26
0.0
 36
0.0
 17
0.0
 27
1.0
 37
0.0
 76
     0
330
1F
331
29
1001
ACAD_PSEXT
1000
Adobe PDF Converter.pc3
1000
Adobe PDF Converter
1000
桌面\*.pdf
1000

1070
     0
  0
MATERIAL
  5
4FEE
102
{ACAD_XDICTIONARY
360
4FEF
102
}
102
{ACAD_REACTORS
330
4FE5
102
}
330
4FE5
100
AcDbMaterial
  1
ByBlock
 72
     0
 43
0.0208333333333333
 43
0.0
 43
0.0
 43
0.0
 43
0.0
 43
0.0208333333333333
 43
0.0
 43
0.0
 43
0.0
 43
0.0
 43
1.0
 43
0.0
 43
0.0
 43
0.0
 43
0.0
 43
1.0
 77
     0
 47
0.0208333333333333
 47
0.0
 47
0.0
 47
0.0
 47
0.0
 47
0.0208333333333333
 47
0.0
 47
0.0
 47
0.0
 47
0.0
 47
1.0
 47
0.0
 47
0.0
 47
0.0
 47
0.0
 47
1.0
171
     0
 49
0.0208333333333333
 49
0.0
 49
0.0
 49
0.0
 49
0.0
 49
0.0208333333333333
 49
0.0
 49
0.0
 49
0.0
 49
0.0
 49
1.0
 49
0.0
 49
0.0
 49
0.0
 49
0.0
 49
1.0
175
     0
142
0.0208333333333333
142
0.0
142
0.0
142
0.0
142
0.0
142
0.0208333333333333
142
0.0
142
0.0
142
0.0
142
0.0
142
1.0
142
0.0
142
0.0
142
0.0
142
0.0
142
1.0
179
     0
144
0.0208333333333333
144
0.0
144
0.0
144
0.0
144
0.0
144
0.0208333333333333
144
0.0
144
0.0
144
0.0
144
0.0
144
1.0
144
0.0
144
0.0
144
0.0
144
0.0
144
1.0
147
0.0208333333333333
147
0.0
147
0.0
147
0.0
147
0.0
147
0.0208333333333333
147
0.0
147
0.0
147
0.0
147
0.0
147
1.0
147
0.0
147
0.0
147
0.0
147
0.0
147
1.0
  0
MATERIAL
  5
4FE6
102
{ACAD_XDICTIONARY
360
4FE7
102
}
102
{ACAD_REACTORS
330
4FE5
102
}
330
4FE5
100
AcDbMaterial
  1
ByLayer
 72
     0
 43
0.0208333333333333
 43
0.0
 43
0.0
 43
0.0
 43
0.0
 43
0.0208333333333333
 43
0.0
 43
0.0
 43
0.0
 43
0.0
 43
1.0
 43
0.0
 43
0.0
 43
0.0
 43
0.0
 43
1.0
 77
     0
 47
0.0208333333333333
 47
0.0
 47
0.0
 47
0.0
 47
0.0
 47
0.0208333333333333
 47
0.0
 47
0.0
 47
0.0
 47
0.0
 47
1.0
 47
0.0
 47
0.0
 47
0.0
 47
0.0
 47
1.0
171
     0
 49
0.0208333333333333
 49
0.0
 49
0.0
 49
0.0
 49
0.0
 49
0.0208333333333333
 49
0.0
 49
0.0
 49
0.0
 49
0.0
 49
1.0
 49
0.0
 49
0.0
 49
0.0
 49
0.0
 49
1.0
175
     0
142
0.0208333333333333
142
0.0
142
0.0
142
0.0
142
0.0
142
0.0208333333333333
142
0.0
142
0.0
142
0.0
142
0.0
142
1.0
142
0.0
142
0.0
142
0.0
142
0.0
142
1.0
179
     0
144
0.0208333333333333
144
0.0
144
0.0
144
0.0
144
0.0
144
0.0208333333333333
144
0.0
144
0.0
144
0.0
144
0.0
144
1.0
144
0.0
144
0.0
144
0.0
144
0.0
144
1.0
147
0.0208333333333333
147
0.0
147
0.0
147
0.0
147
0.0
147
0.0208333333333333
147
0.0
147
0.0
147
0.0
147
0.0
147
1.0
147
0.0
147
0.0
147
0.0
147
0.0
147
1.0
  0
MATERIAL
  5
4FF6
102
{ACAD_XDICTIONARY
360
4FF7
102
}
102
{ACAD_REACTORS
330
4FE5
102
}
330
4FE5
100
AcDbMaterial
  1
Global
 72
     0
 43
0.0208333333333333
 43
0.0
 43
0.0
 43
0.0
 43
0.0
 43
0.0208333333333333
 43
0.0
 43
0.0
 43
0.0
 43
0.0
 43
1.0
 43
0.0
 43
0.0
 43
0.0
 43
0.0
 43
1.0
 77
     0
 47
0.0208333333333333
 47
0.0
 47
0.0
 47
0.0
 47
0.0
 47
0.0208333333333333
 47
0.0
 47
0.0
 47
0.0
 47
0.0
 47
1.0
 47
0.0
 47
0.0
 47
0.0
 47
0.0
 47
1.0
171
     0
 49
0.0208333333333333
 49
0.0
 49
0.0
 49
0.0
 49
0.0
 49
0.0208333333333333
 49
0.0
 49
0.0
 49
0.0
 49
0.0
 49
1.0
 49
0.0
 49
0.0
 49
0.0
 49
0.0
 49
1.0
175
     0
142
0.0208333333333333
142
0.0
142
0.0
142
0.0
142
0.0
142
0.0208333333333333
142
0.0
142
0.0
142
0.0
142
0.0
142
1.0
142
0.0
142
0.0
142
0.0
142
0.0
142
1.0
179
     0
144
0.0208333333333333
144
0.0
144
0.0
144
0.0
144
0.0
144
0.0208333333333333
144
0.0
144
0.0
144
0.0
144
0.0
144
1.0
144
0.0
144
0.0
144
0.0
144
0.0
144
1.0
147
0.0208333333333333
147
0.0
147
0.0
147
0.0
147
0.0
147
0.0208333333333333
147
0.0
147
0.0
147
0.0
147
0.0
147
1.0
147
0.0
147
0.0
147
0.0
147
0.0
147
1.0
  0
MLEADERSTYLE
  5
5023
102
{ACAD_REACTORS
330
5022
102
}
330
5022
100
AcDbMLeaderStyle
170
     2
171
     1
172
     0
 90
        2
 40
0.0
 41
0.0
173
     1
 91
-1056964608
340
14
 92
       -2
290
     1
 42
0.09
291
     1
 43
0.36
  3
Standard
 44
0.18
300

342
11
174
     1
178
     6
175
     1
176
     0
 93
-1056964608
 45
0.18
292
     0
297
     0
 46
0.18
 94
-1056964608
 47
1.0
 49
1.0
140
1.0
293
     1
141
0.0
294
     1
177
     0
142
1.0
295
     0
296
     0
143
0.125
1001
ACAD_MLEADERVER
1070
     2
  0
MLINESTYLE
  5
18
102
{ACAD_REACTORS
330
17
102
}
330
17
100
AcDbMlineStyle
  2
STANDARD
 70
     0
  3

 62
   256
 51
90.0
 52
90.0
 71
     2
 49
0.5
 62
   256
  6
BYLAYER
 49
-0.5
 62
   256
  6
BYLAYER
  0
ACDBPLACEHOLDER
  5
F
102
{ACAD_REACTORS
330
E
102
}
330
E
  0
MENTALRAYRENDERSETTINGS
  5
6538
102
{ACAD_REACTORS
330
6537
102
}
330
6537
100
AcDbRenderSettings
 90
        2
  1
中
290
     1
290
     1
290
     1
290
     1
  1

  1
渲染质量好于“低级”。包括纹理过滤并且强制双面处于激活状态。处理中等级反锯齿和 5 反射/折射的光线跟踪深度。
 90
        0
100
AcDbMentalRayRenderSettings
 90
        2
 90
        0
 90
        1
 70
     2
 40
3.0
 40
3.0
 40
0.0500000007450581
 40
0.0500000007450581
 40
0.0500000007450581
 40
0.0500000007450581
 70
     0
290
     0
290
     1
 90
        5
 90
        5
 90
        5
290
     0
 90
      500
290
     0
 40
1.0
 90
    10000
 90
        5
 90
        5
 90
        5
290
     0
 90
      200
290
     0
290
     0
290
     0
 40
0.1
 40
1.0
 40
1500.0
 70
     0
 70
     0
 40
10.0
 70
     0
 70
     0
290
     0
  1

 90
       32
 70
     0
 90
     1048
290
     0
 40
1.0
  0
SCALE
  5
5001
102
{ACAD_REACTORS
330
5000
102
}
330
5000
100
AcDbScale
 70
     0
300
1:1
140
1.0
141
1.0
290
     1
  0
SCALE
  5
5002
102
{ACAD_REACTORS
330
5000
102
}
330
5000
100
AcDbScale
 70
     0
300
1:2
140
1.0
141
2.0
290
     0
  0
SCALE
  5
5003
102
{ACAD_REACTORS
330
5000
102
}
330
5000
100
AcDbScale
 70
     0
300
1:4
140
1.0
141
4.0
290
     0
  0
SCALE
  5
5004
102
{ACAD_REACTORS
330
5000
102
}
330
5000
100
AcDbScale
 70
     0
300
1:5
140
1.0
141
5.0
290
     0
  0
SCALE
  5
5005
102
{ACAD_REACTORS
330
5000
102
}
330
5000
100
AcDbScale
 70
     0
300
1:8
140
1.0
141
8.0
290
     0
  0
SCALE
  5
5006
102
{ACAD_REACTORS
330
5000
102
}
330
5000
100
AcDbScale
 70
     0
300
1:10
140
1.0
141
10.0
290
     0
  0
SCALE
  5
5007
102
{ACAD_REACTORS
330
5000
102
}
330
5000
100
AcDbScale
 70
     0
300
1:16
140
1.0
141
16.0
290
     0
  0
SCALE
  5
5008
102
{ACAD_REACTORS
330
5000
102
}
330
5000
100
AcDbScale
 70
     0
300
1:20
140
1.0
141
20.0
290
     0
  0
SCALE
  5
5009
102
{ACAD_REACTORS
330
5000
102
}
330
5000
100
AcDbScale
 70
     0
300
1:30
140
1.0
141
30.0
290
     0
  0
SCALE
  5
500A
102
{ACAD_REACTORS
330
5000
102
}
330
5000
100
AcDbScale
 70
     0
300
1:40
140
1.0
141
40.0
290
     0
  0
SCALE
  5
500B
102
{ACAD_REACTORS
330
5000
102
}
330
5000
100
AcDbScale
 70
     0
300
1:50
140
1.0
141
50.0
290
     0
  0
SCALE
  5
500C
102
{ACAD_REACTORS
330
5000
102
}
330
5000
100
AcDbScale
 70
     0
300
1:100
140
1.0
141
100.0
290
     0
  0
SCALE
  5
500D
102
{ACAD_REACTORS
330
5000
102
}
330
5000
100
AcDbScale
 70
     0
300
2:1
140
2.0
141
1.0
290
     0
  0
SCALE
  5
500E
102
{ACAD_REACTORS
330
5000
102
}
330
5000
100
AcDbScale
 70
     0
300
4:1
140
4.0
141
1.0
290
     0
  0
SCALE
  5
500F
102
{ACAD_REACTORS
330
5000
102
}
330
5000
100
AcDbScale
 70
     0
300
8:1
140
8.0
141
1.0
290
     0
  0
SCALE
  5
5010
102
{ACAD_REACTORS
330
5000
102
}
330
5000
100
AcDbScale
 70
     0
300
10:1
140
10.0
141
1.0
290
     0
  0
SCALE
  5
5011
102
{ACAD_REACTORS
330
5000
102
}
330
5000
100
AcDbScale
 70
     0
300
100:1
140
100.0
141
1.0
290
     0
  0
SCALE
  5
5012
102
{ACAD_REACTORS
330
5000
102
}
330
5000
100
AcDbScale
 70
     0
300
1/128" = 1'-0"
140
0.0078125
141
12.0
290
     0
  0
SCALE
  5
5013
102
{ACAD_REACTORS
330
5000
102
}
330
5000
100
AcDbScale
 70
     0
300
1/64" = 1'-0"
140
0.015625
141
12.0
290
     0
  0
SCALE
  5
5014
102
{ACAD_REACTORS
330
5000
102
}
330
5000
100
AcDbScale
 70
     0
300
1/32" = 1'-0"
140
0.03125
141
12.0
290
     0
  0
SCALE
  5
5015
102
{ACAD_REACTORS
330
5000
102
}
330
5000
100
AcDbScale
 70
     0
300
1/16" = 1'-0"
140
0.0625
141
12.0
290
     0
  0
SCALE
  5
5016
102
{ACAD_REACTORS
330
5000
102
}
330
5000
100
AcDbScale
 70
     0
300
3/32" = 1'-0"
140
0.09375
141
12.0
290
     0
  0
SCALE
  5
5017
102
{ACAD_REACTORS
330
5000
102
}
330
5000
100
AcDbScale
 70
     0
300
1/8" = 1'-0"
140
0.125
141
12.0
290
     0
  0
SCALE
  5
5018
102
{ACAD_REACTORS
330
5000
102
}
330
5000
100
AcDbScale
 70
     0
300
3/16" = 1'-0"
140
0.1875
141
12.0
290
     0
  0
SCALE
  5
5019
102
{ACAD_REACTORS
330
5000
102
}
330
5000
100
AcDbScale
 70
     0
300
1/4" = 1'-0"
140
0.25
141
12.0
290
     0
  0
SCALE
  5
501A
102
{ACAD_REACTORS
330
5000
102
}
330
5000
100
AcDbScale
 70
     0
300
3/8" = 1'-0"
140
0.375
141
12.0
290
     0
  0
SCALE
  5
501B
102
{ACAD_REACTORS
330
5000
102
}
330
5000
100
AcDbScale
 70
     0
300
1/2" = 1'-0"
140
0.5
141
12.0
290
     0
  0
SCALE
  5
501C
102
{ACAD_REACTORS
330
5000
102
}
330
5000
100
AcDbScale
 70
     0
300
3/4" = 1'-0"
140
0.75
141
12.0
290
     0
  0
SCALE
  5
501D
102
{ACAD_REACTORS
330
5000
102
}
330
5000
100
AcDbScale
 70
     0
300
1" = 1'-0"
140
1.0
141
12.0
290
     0
  0
SCALE
  5
501E
102
{ACAD_REACTORS
330
5000
102
}
330
5000
100
AcDbScale
 70
     0
300
1-1/2" = 1'-0"
140
1.5
141
12.0
290
     0
  0
SCALE
  5
501F
102
{ACAD_REACTORS
330
5000
102
}
330
5000
100
AcDbScale
 70
     0
300
3" = 1'-0"
140
3.0
141
12.0
290
     0
  0
SCALE
  5
5020
102
{ACAD_REACTORS
330
5000
102
}
330
5000
100
AcDbScale
 70
     0
300
6" = 1'-0"
140
6.0
141
12.0
290
     0
  0
SCALE
  5
5021
102
{ACAD_REACTORS
330
5000
102
}
330
5000
100
AcDbScale
 70
     0
300
1'-0" = 1'-0"
140
12.0
141
12.0
290
     0
  0
TABLESTYLE
  5
4FFF
102
{ACAD_XDICTIONARY
360
50D6
102
}
102
{ACAD_REACTORS
330
4FE3
102
}
330
4FE3
100
AcDbTableStyle
  3
Standard
 70
     0
 71
     0
 40
0.06
 41
0.06
280
     0
281
     0
  7
Standard
140
0.18
170
     2
 62
     0
 63
     7
283
     0
274
    -2
284
     1
 64
     0
275
    -2
285
     1
 65
     0
276
    -2
286
     1
 66
     0
277
    -2
287
     1
 67
     0
278
    -2
288
     1
 68
     0
279
    -2
289
     1
 69
     0
  7
Standard
140
0.25
170
     5
 62
     0
 63
     7
283
     0
274
    -2
284
     1
 64
     0
275
    -2
285
     1
 65
     0
276
    -2
286
     1
 66
     0
277
    -2
287
     1
 67
     0
278
    -2
288
     1
 68
     0
279
    -2
289
     1
 69
     0
  7
Standard
140
0.18
170
     5
 62
     0
 63
     7
283
     0
274
    -2
284
     1
 64
     0
275
    -2
285
     1
 65
     0
276
    -2
286
     1
 66
     0
277
    -2
287
     1
 67
     0
278
    -2
288
     1
 68
     0
279
    -2
289
     1
 69
     0
  0
VISUALSTYLE
  5
2F
102
{ACAD_REACTORS
330
2A
102
}
330
2A
100
AcDbVisualStyle
  2
2dWireframe
 70
     4
 71
     0
 72
     2
 73
     0
 90
        0
 40
-0.6
 41
-30.0
 62
     5
 63
     7
 74
     1
 91
        4
 64
     7
 65
   257
 75
     1
175
     1
 42
1.0
 92
        0
 66
   257
 43
1.0
 76
     1
 77
     6
 78
     2
 67
     7
 79
     5
170
     0
171
     0
290
     0
174
     0
 93
        1
 44
0.0
173
     0
291
     0
 45
0.0
1001
ACAD
1000
AcDbSavedByObjectVersion
1070
     0
1000
AcDbSavedByObjectVersion
1070
     0
1000
AcDbSavedByObjectVersion
1070
     0
1000
AcDbSavedByObjectVersion
1070
     0
1000
AcDbSavedByObjectVersion
1070
     0
1000
AcDbSavedByObjectVersion
1070
     0
1000
AcDbSavedByObjectVersion
1070
     0
1000
AcDbSavedByObjectVersion
1070
     0
1000
AcDbSavedByObjectVersion
1070
     0
1000
AcDbSavedByObjectVersion
1070
     0
1000
AcDbSavedByObjectVersion
1070
     0
1000
AcDbSavedByObjectVersion
1070
     0
1000
AcDbSavedByObjectVersion
1070
     0
1000
AcDbSavedByObjectVersion
1070
     0
1000
AcDbSavedByObjectVersion
1070
     0
1000
AcDbSavedByObjectVersion
1070
     0
1000
AcDbSavedByObjectVersion
1070
     0
1000
AcDbSavedByObjectVersion
1070
     0
1000
AcDbSavedByObjectVersion
1070
     0
1000
AcDbSavedByObjectVersion
1070
     0
1000
AcDbSavedByObjectVersion
1070
     0
1000
AcDbSavedByObjectVersion
1070
     0
1000
AcDbSavedByObjectVersion
1070
     0
1000
AcDbSavedByObjectVersion
1070
     0
1000
AcDbSavedByObjectVersion
1070
     0
1000
AcDbSavedByObjectVersion
1070
     0
1000
AcDbSavedByObjectVersion
1070
     0
1000
AcDbSavedByObjectVersion
1070
     0
1000
AcDbSavedByObjectVersion
1070
     0
1000
AcDbSavedByObjectVersion
1070
     0
1000
AcDbSavedByObjectVersion
1070
     0
1000
AcDbSavedByObjectVersion
1070
     0
1000
AcDbSavedByObjectVersion
1070
     0
1000
AcDbSavedByObjectVersion
1070
     0
1000
AcDbSavedByObjectVersion
1070
     0
1000
AcDbSavedByObjectVersion
1070
     0
1000
AcDbSavedByObjectVersion
1070
     0
1000
AcDbSavedByObjectVersion
1070
     0
1000
AcDbSavedByObjectVersion
1070
     0
1000
AcDbSavedByObjectVersion
1070
     0
1000
AcDbSavedByObjectVersion
1070
     0
1000
AcDbSavedByObjectVersion
1070
     0
1000
AcDbSavedByObjectVersion
1070
     0
1000
AcDbSavedByObjectVersion
1070
     0
1000
AcDbSavedByObjectVersion
1070
     0
1000
AcDbSavedByObjectVersion
1070
     0
  0
VISUALSTYLE
  5
31
102
{ACAD_REACTORS
330
2A
102
}
330
2A
100
AcDbVisualStyle
  2
3D Hidden
 70
     6
 71
     1
 72
     2
 73
     2
 90
        0
 40
-0.6
 41
-30.0
 62
     5
 63
     7
 74
     2
 91
        2
 64
     7
 65
   257
 75
     2
175
     1
 42
40.0
 92
        0
 66
   257
 43
1.0
 76
     1
 77
     6
 78
     2
 67
     7
 79
     3
170
     0
171
     0
290
     0
174
     0
 93
        1
 44
0.0
173
     0
291
     0
 45
0.0
1001
ACAD
1000
AcDbSavedByObjectVersion
1070
     0
1000
AcDbSavedByObjectVersion
1070
     0
1000
AcDbSavedByObjectVersion
1070
     0
1000
AcDbSavedByObjectVersion
1070
     0
1000
AcDbSavedByObjectVersion
1070
     0
1000
AcDbSavedByObjectVersion
1070
     0
1000
AcDbSavedByObjectVersion
1070
     0
1000
AcDbSavedByObjectVersion
1070
     0
1000
AcDbSavedByObjectVersion
1070
     0
1000
AcDbSavedByObjectVersion
1070
     0
1000
AcDbSavedByObjectVersion
1070
     0
1000
AcDbSavedByObjectVersion
1070
     0
1000
AcDbSavedByObjectVersion
1070
     0
1000
AcDbSavedByObjectVersion
1070
     0
1000
AcDbSavedByObjectVersion
1070
     0
1000
AcDbSavedByObjectVersion
1070
     0
1000
AcDbSavedByObjectVersion
1070
     0
1000
AcDbSavedByObjectVersion
1070
     0
1000
AcDbSavedByObjectVersion
1070
     0
1000
AcDbSavedByObjectVersion
1070
     0
1000
AcDbSavedByObjectVersion
1070
     0
1000
AcDbSavedByObjectVersion
1070
     0
1000
AcDbSavedByObjectVersion
1070
     0
1000
AcDbSavedByObjectVersion
1070
     0
1000
AcDbSavedByObjectVersion
1070
     0
1000
AcDbSavedByObjectVersion
1070
     0
1000
AcDbSavedByObjectVersion
1070
     0
1000
AcDbSavedByObjectVersion
1070
     0
1000
AcDbSavedByObjectVersion
1070
     0
1000
AcDbSavedByObjectVersion
1070
     0
1000
AcDbSavedByObjectVersion
1070
     0
1000
AcDbSavedByObjectVersion
1070
     0
1000
AcDbSavedByObjectVersion
1070
     0
1000
AcDbSavedByObjectVersion
1070
     0
1000
AcDbSavedByObjectVersion
1070
     0
1000
AcDbSavedByObjectVersion
1070
     0
1000
AcDbSavedByObjectVersion
1070
     0
1000
AcDbSavedByObjectVersion
1070
     0
1000
AcDbSavedByObjectVersion
1070
     0
1000
AcDbSavedByObjectVersion
1070
     0
1000
AcDbSavedByObjectVersion
1070
     0
1000
AcDbSavedByObjectVersion
1070
     0
1000
AcDbSavedByObjectVersion
1070
     0
1000
AcDbSavedByObjectVersion
1070
     0
1000
AcDbSavedByObjectVersion
1070
     0
1000
AcDbSavedByObjectVersion
1070
     0
  0
VISUALSTYLE
  5
30
102
{ACAD_REACTORS
330
2A
102
}
330
2A
100
AcDbVisualStyle
  2
3dWireframe
 70
     5
 71
     0
 72
     2
 73
     0
 90
        0
 40
-0.6
 41
-30.0
 62
     5
 63
     7
 74
     1
 91
        4
 64
     7
 65
   257
 75
     1
175
     1
 42
1.0
 92
        0
 66
   257
 43
1.0
 76
     1
 77
     6
 78
     2
 67
     7
 79
     5
170
     0
171
     0
290
     0
174
     0
 93
        1
 44
0.0
173
     0
291
     0
 45
0.0
1001
ACAD
1000
AcDbSavedByObjectVersion
1070
     0
1000
AcDbSavedByObjectVersion
1070
     0
1000
AcDbSavedByObjectVersion
1070
     0
1000
AcDbSavedByObjectVersion
1070
     0
1000
AcDbSavedByObjectVersion
1070
     0
1000
AcDbSavedByObjectVersion
1070
     0
1000
AcDbSavedByObjectVersion
1070
     0
1000
AcDbSavedByObjectVersion
1070
     0
1000
AcDbSavedByObjectVersion
1070
     0
1000
AcDbSavedByObjectVersion
1070
     0
1000
AcDbSavedByObjectVersion
1070
     0
1000
AcDbSavedByObjectVersion
1070
     0
1000
AcDbSavedByObjectVersion
1070
     0
1000
AcDbSavedByObjectVersion
1070
     0
1000
AcDbSavedByObjectVersion
1070
     0
1000
AcDbSavedByObjectVersion
1070
     0
1000
AcDbSavedByObjectVersion
1070
     0
1000
AcDbSavedByObjectVersion
1070
     0
1000
AcDbSavedByObjectVersion
1070
     0
1000
AcDbSavedByObjectVersion
1070
     0
1000
AcDbSavedByObjectVersion
1070
     0
1000
AcDbSavedByObjectVersion
1070
     0
1000
AcDbSavedByObjectVersion
1070
     0
1000
AcDbSavedByObjectVersion
1070
     0
1000
AcDbSavedByObjectVersion
1070
     0
1000
AcDbSavedByObjectVersion
1070
     0
1000
AcDbSavedByObjectVersion
1070
     0
1000
AcDbSavedByObjectVersion
1070
     0
1000
AcDbSavedByObjectVersion
1070
     0
1000
AcDbSavedByObjectVersion
1070
     0
1000
AcDbSavedByObjectVersion
1070
     0
1000
AcDbSavedByObjectVersion
1070
     0
1000
AcDbSavedByObjectVersion
1070
     0
1000
AcDbSavedByObjectVersion
1070
     0
1000
AcDbSavedByObjectVersion
1070
     0
1000
AcDbSavedByObjectVersion
1070
     0
1000
AcDbSavedByObjectVersion
1070
     0
1000
AcDbSavedByObjectVersion
1070
     0
1000
AcDbSavedByObjectVersion
1070
     0
1000
AcDbSavedByObjectVersion
1070
     0
1000
AcDbSavedByObjectVersion
1070
     0
1000
AcDbSavedByObjectVersion
1070
     0
1000
AcDbSavedByObjectVersion
1070
     0
1000
AcDbSavedByObjectVersion
1070
     0
1000
AcDbSavedByObjectVersion
1070
     0
1000
AcDbSavedByObjectVersion
1070
     0
  0
VISUALSTYLE
  5
32
102
{ACAD_REACTORS
330
2A
102
}
330
2A
100
AcDbVisualStyle
  2
Basic
 70
     7
 71
     1
 72
     0
 73
     1
 90
        0
 40
-0.6
 41
-30.0
 62
     5
 63
     7
 74
     0
 91
        4
 64
     7
 65
   257
 75
     1
175
     1
 42
1.0
 92
        8
 66
     7
 43
1.0
 76
     1
 77
     6
 78
     2
 67
     7
 79
     5
170
     0
171
     0
290
     0
174
     0
 93
        1
 44
0.0
173
     0
291
     1
 45
0.0
1001
ACAD
1000
AcDbSavedByObjectVersion
1070
     0
1000
AcDbSavedByObjectVersion
1070
     0
1000
AcDbSavedByObjectVersion
1070
     0
1000
AcDbSavedByObjectVersion
1070
     0
1000
AcDbSavedByObjectVersion
1070
     0
1000
AcDbSavedByObjectVersion
1070
     0
1000
AcDbSavedByObjectVersion
1070
     0
1000
AcDbSavedByObjectVersion
1070
     0
1000
AcDbSavedByObjectVersion
1070
     0
1000
AcDbSavedByObjectVersion
1070
     0
1000
AcDbSavedByObjectVersion
1070
     0
1000
AcDbSavedByObjectVersion
1070
     0
1000
AcDbSavedByObjectVersion
1070
     0
1000
AcDbSavedByObjectVersion
1070
     0
1000
AcDbSavedByObjectVersion
1070
     0
1000
AcDbSavedByObjectVersion
1070
     0
1000
AcDbSavedByObjectVersion
1070
     0
1000
AcDbSavedByObjectVersion
1070
     0
1000
AcDbSavedByObjectVersion
1070
     0
1000
AcDbSavedByObjectVersion
1070
     0
1000
AcDbSavedByObjectVersion
1070
     0
1000
AcDbSavedByObjectVersion
1070
     0
1000
AcDbSavedByObjectVersion
1070
     0
1000
AcDbSavedByObjectVersion
1070
     0
1000
AcDbSavedByObjectVersion
1070
     0
1000
AcDbSavedByObjectVersion
1070
     0
1000
AcDbSavedByObjectVersion
1070
     0
1000
AcDbSavedByObjectVersion
1070
     0
1000
AcDbSavedByObjectVersion
1070
     0
1000
AcDbSavedByObjectVersion
1070
     0
1000
AcDbSavedByObjectVersion
1070
     0
1000
AcDbSavedByObjectVersion
1070
     0
1000
AcDbSavedByObjectVersion
1070
     0
1000
AcDbSavedByObjectVersion
1070
     0
1000
AcDbSavedByObjectVersion
1070
     0
1000
AcDbSavedByObjectVersion
1070
     0
1000
AcDbSavedByObjectVersion
1070
     0
1000
AcDbSavedByObjectVersion
1070
     0
1000
AcDbSavedByObjectVersion
1070
     0
1000
AcDbSavedByObjectVersion
1070
     0
1000
AcDbSavedByObjectVersion
1070
     0
1000
AcDbSavedByObjectVersion
1070
     0
1000
AcDbSavedByObjectVersion
1070
     0
1000
AcDbSavedByObjectVersion
1070
     0
1000
AcDbSavedByObjectVersion
1070
     0
1000
AcDbSavedByObjectVersion
1070
     0
  0
VISUALSTYLE
  5
36
102
{ACAD_REACTORS
330
2A
102
}
330
2A
100
AcDbVisualStyle
  2
Brighten
 70
    12
 71
     2
 72
     2
 73
     0
 90
        0
 40
-0.6
 41
-30.0
 62
     5
 63
     7
 74
     1
 91
        4
 64
     7
 65
   257
 75
     1
175
     1
 42
1.0
 92
        8
 66
     7
 43
1.0
 76
     1
 77
     6
 78
     2
 67
     7
 79
     5
170
     0
171
     0
290
     0
174
     0
 93
        1
 44
50.0
173
     0
291
     1
 45
0.0
1001
ACAD
1000
AcDbSavedByObjectVersion
1070
     0
1000
AcDbSavedByObjectVersion
1070
     0
1000
AcDbSavedByObjectVersion
1070
     0
1000
AcDbSavedByObjectVersion
1070
     0
1000
AcDbSavedByObjectVersion
1070
     0
1000
AcDbSavedByObjectVersion
1070
     0
1000
AcDbSavedByObjectVersion
1070
     0
1000
AcDbSavedByObjectVersion
1070
     0
1000
AcDbSavedByObjectVersion
1070
     0
1000
AcDbSavedByObjectVersion
1070
     0
1000
AcDbSavedByObjectVersion
1070
     0
1000
AcDbSavedByObjectVersion
1070
     0
1000
AcDbSavedByObjectVersion
1070
     0
1000
AcDbSavedByObjectVersion
1070
     0
1000
AcDbSavedByObjectVersion
1070
     0
1000
AcDbSavedByObjectVersion
1070
     0
1000
AcDbSavedByObjectVersion
1070
     0
1000
AcDbSavedByObjectVersion
1070
     0
1000
AcDbSavedByObjectVersion
1070
     0
1000
AcDbSavedByObjectVersion
1070
     0
1000
AcDbSavedByObjectVersion
1070
     0
1000
AcDbSavedByObjectVersion
1070
     0
1000
AcDbSavedByObjectVersion
1070
     0
1000
AcDbSavedByObjectVersion
1070
     0
1000
AcDbSavedByObjectVersion
1070
     0
1000
AcDbSavedByObjectVersion
1070
     0
1000
AcDbSavedByObjectVersion
1070
     0
1000
AcDbSavedByObjectVersion
1070
     0
1000
AcDbSavedByObjectVersion
1070
     0
1000
AcDbSavedByObjectVersion
1070
     0
1000
AcDbSavedByObjectVersion
1070
     0
1000
AcDbSavedByObjectVersion
1070
     0
1000
AcDbSavedByObjectVersion
1070
     0
1000
AcDbSavedByObjectVersion
1070
     0
1000
AcDbSavedByObjectVersion
1070
     0
1000
AcDbSavedByObjectVersion
1070
     0
1000
AcDbSavedByObjectVersion
1070
     0
1000
AcDbSavedByObjectVersion
1070
     0
1000
AcDbSavedByObjectVersion
1070
     0
1000
AcDbSavedByObjectVersion
1070
     0
1000
AcDbSavedByObjectVersion
1070
     0
1000
AcDbSavedByObjectVersion
1070
     0
1000
AcDbSavedByObjectVersion
1070
     0
1000
AcDbSavedByObjectVersion
1070
     0
1000
AcDbSavedByObjectVersion
1070
     0
1000
AcDbSavedByObjectVersion
1070
     0
  0
VISUALSTYLE
  5
3A
102
{ACAD_REACTORS
330
2A
102
}
330
2A
100
AcDbVisualStyle
  2
ColorChange
 70
    16
 71
     2
 72
     2
 73
     3
 90
        0
 40
-0.6
 41
-30.0
 62
     5
 63
     8
 74
     1
 91
        4
 64
     7
 65
   257
 75
     1
175
     1
 42
1.0
 92
        8
 66
     8
 43
1.0
 76
     1
 77
     6
 78
     2
 67
     7
 79
     5
170
     0
171
     0
290
     0
174
     0
 93
        1
 44
0.0
173
     0
291
     1
 45
0.0
1001
ACAD
1000
AcDbSavedByObjectVersion
1070
     0
1000
AcDbSavedByObjectVersion
1070
     0
1000
AcDbSavedByObjectVersion
1070
     0
1000
AcDbSavedByObjectVersion
1070
     0
1000
AcDbSavedByObjectVersion
1070
     0
1000
AcDbSavedByObjectVersion
1070
     0
1000
AcDbSavedByObjectVersion
1070
     0
1000
AcDbSavedByObjectVersion
1070
     0
1000
AcDbSavedByObjectVersion
1070
     0
1000
AcDbSavedByObjectVersion
1070
     0
1000
AcDbSavedByObjectVersion
1070
     0
1000
AcDbSavedByObjectVersion
1070
     0
1000
AcDbSavedByObjectVersion
1070
     0
1000
AcDbSavedByObjectVersion
1070
     0
1000
AcDbSavedByObjectVersion
1070
     0
1000
AcDbSavedByObjectVersion
1070
     0
1000
AcDbSavedByObjectVersion
1070
     0
1000
AcDbSavedByObjectVersion
1070
     0
1000
AcDbSavedByObjectVersion
1070
     0
1000
AcDbSavedByObjectVersion
1070
     0
1000
AcDbSavedByObjectVersion
1070
     0
1000
AcDbSavedByObjectVersion
1070
     0
1000
AcDbSavedByObjectVersion
1070
     0
1000
AcDbSavedByObjectVersion
1070
     0
1000
AcDbSavedByObjectVersion
1070
     0
1000
AcDbSavedByObjectVersion
1070
     0
1000
AcDbSavedByObjectVersion
1070
     0
1000
AcDbSavedByObjectVersion
1070
     0
1000
AcDbSavedByObjectVersion
1070
     0
1000
AcDbSavedByObjectVersion
1070
     0
1000
AcDbSavedByObjectVersion
1070
     0
1000
AcDbSavedByObjectVersion
1070
     0
1000
AcDbSavedByObjectVersion
1070
     0
1000
AcDbSavedByObjectVersion
1070
     0
1000
AcDbSavedByObjectVersion
1070
     0
1000
AcDbSavedByObjectVersion
1070
     0
1000
AcDbSavedByObjectVersion
1070
     0
1000
AcDbSavedByObjectVersion
1070
     0
1000
AcDbSavedByObjectVersion
1070
     0
1000
AcDbSavedByObjectVersion
1070
     0
1000
AcDbSavedByObjectVersion
1070
     0
1000
AcDbSavedByObjectVersion
1070
     0
1000
AcDbSavedByObjectVersion
1070
     0
1000
AcDbSavedByObjectVersion
1070
     0
1000
AcDbSavedByObjectVersion
1070
     0
1000
AcDbSavedByObjectVersion
1070
     0
  0
VISUALSTYLE
  5
34
102
{ACAD_REACTORS
330
2A
102
}
330
2A
100
AcDbVisualStyle
  2
Conceptual
 70
     9
 71
     3
 72
     2
 73
     0
 90
        0
 40
-0.6
 41
-30.0
 62
     5
 63
     7
 74
     2
 91
        2
 64
     7
 65
   257
 75
     1
175
     1
 42
40.0
 92
        8
 66
     7
 43
1.0
 76
     1
 77
     6
 78
     2
 67
     7
 79
     3
170
     0
171
     0
290
     0
174
     0
 93
        1
 44
0.0
173
     0
291
     0
 45
0.0
1001
ACAD
1000
AcDbSavedByObjectVersion
1070
     0
1000
AcDbSavedByObjectVersion
1070
     0
1000
AcDbSavedByObjectVersion
1070
     0
1000
AcDbSavedByObjectVersion
1070
     0
1000
AcDbSavedByObjectVersion
1070
     0
1000
AcDbSavedByObjectVersion
1070
     0
1000
AcDbSavedByObjectVersion
1070
     0
1000
AcDbSavedByObjectVersion
1070
     0
1000
AcDbSavedByObjectVersion
1070
     0
1000
AcDbSavedByObjectVersion
1070
     0
1000
AcDbSavedByObjectVersion
1070
     0
1000
AcDbSavedByObjectVersion
1070
     0
1000
AcDbSavedByObjectVersion
1070
     0
1000
AcDbSavedByObjectVersion
1070
     0
1000
AcDbSavedByObjectVersion
1070
     0
1000
AcDbSavedByObjectVersion
1070
     0
1000
AcDbSavedByObjectVersion
1070
     0
1000
AcDbSavedByObjectVersion
1070
     0
1000
AcDbSavedByObjectVersion
1070
     0
1000
AcDbSavedByObjectVersion
1070
     0
1000
AcDbSavedByObjectVersion
1070
     0
1000
AcDbSavedByObjectVersion
1070
     0
1000
AcDbSavedByObjectVersion
1070
     0
1000
AcDbSavedByObjectVersion
1070
     0
1000
AcDbSavedByObjectVersion
1070
     0
1000
AcDbSavedByObjectVersion
1070
     0
1000
AcDbSavedByObjectVersion
1070
     0
1000
AcDbSavedByObjectVersion
1070
     0
1000
AcDbSavedByObjectVersion
1070
     0
1000
AcDbSavedByObjectVersion
1070
     0
1000
AcDbSavedByObjectVersion
1070
     0
1000
AcDbSavedByObjectVersion
1070
     0
1000
AcDbSavedByObjectVersion
1070
     0
1000
AcDbSavedByObjectVersion
1070
     0
1000
AcDbSavedByObjectVersion
1070
     0
1000
AcDbSavedByObjectVersion
1070
     0
1000
AcDbSavedByObjectVersion
1070
     0
1000
AcDbSavedByObjectVersion
1070
     0
1000
AcDbSavedByObjectVersion
1070
     0
1000
AcDbSavedByObjectVersion
1070
     0
1000
AcDbSavedByObjectVersion
1070
     0
1000
AcDbSavedByObjectVersion
1070
     0
1000
AcDbSavedByObjectVersion
1070
     0
1000
AcDbSavedByObjectVersion
1070
     0
1000
AcDbSavedByObjectVersion
1070
     0
1000
AcDbSavedByObjectVersion
1070
     0
  0
VISUALSTYLE
  5
35
102
{ACAD_REACTORS
330
2A
102
}
330
2A
100
AcDbVisualStyle
  2
Dim
 70
    11
 71
     2
 72
     2
 73
     0
 90
        0
 40
-0.6
 41
-30.0
 62
     5
 63
     7
 74
     1
 91
        4
 64
     7
 65
   257
 75
     1
175
     1
 42
1.0
 92
        8
 66
     7
 43
1.0
 76
     1
 77
     6
 78
     2
 67
     7
 79
     5
170
     0
171
     0
290
     0
174
     0
 93
        1
 44
-50.0
173
     0
291
     1
 45
0.0
1001
ACAD
1000
AcDbSavedByObjectVersion
1070
     0
1000
AcDbSavedByObjectVersion
1070
     0
1000
AcDbSavedByObjectVersion
1070
     0
1000
AcDbSavedByObjectVersion
1070
     0
1000
AcDbSavedByObjectVersion
1070
     0
1000
AcDbSavedByObjectVersion
1070
     0
1000
AcDbSavedByObjectVersion
1070
     0
1000
AcDbSavedByObjectVersion
1070
     0
1000
AcDbSavedByObjectVersion
1070
     0
1000
AcDbSavedByObjectVersion
1070
     0
1000
AcDbSavedByObjectVersion
1070
     0
1000
AcDbSavedByObjectVersion
1070
     0
1000
AcDbSavedByObjectVersion
1070
     0
1000
AcDbSavedByObjectVersion
1070
     0
1000
AcDbSavedByObjectVersion
1070
     0
1000
AcDbSavedByObjectVersion
1070
     0
1000
AcDbSavedByObjectVersion
1070
     0
1000
AcDbSavedByObjectVersion
1070
     0
1000
AcDbSavedByObjectVersion
1070
     0
1000
AcDbSavedByObjectVersion
1070
     0
1000
AcDbSavedByObjectVersion
1070
     0
1000
AcDbSavedByObjectVersion
1070
     0
1000
AcDbSavedByObjectVersion
1070
     0
1000
AcDbSavedByObjectVersion
1070
     0
1000
AcDbSavedByObjectVersion
1070
     0
1000
AcDbSavedByObjectVersion
1070
     0
1000
AcDbSavedByObjectVersion
1070
     0
1000
AcDbSavedByObjectVersion
1070
     0
1000
AcDbSavedByObjectVersion
1070
     0
1000
AcDbSavedByObjectVersion
1070
     0
1000
AcDbSavedByObjectVersion
1070
     0
1000
AcDbSavedByObjectVersion
1070
     0
1000
AcDbSavedByObjectVersion
1070
     0
1000
AcDbSavedByObjectVersion
1070
     0
1000
AcDbSavedByObjectVersion
1070
     0
1000
AcDbSavedByObjectVersion
1070
     0
1000
AcDbSavedByObjectVersion
1070
     0
1000
AcDbSavedByObjectVersion
1070
     0
1000
AcDbSavedByObjectVersion
1070
     0
1000
AcDbSavedByObjectVersion
1070
     0
1000
AcDbSavedByObjectVersion
1070
     0
1000
AcDbSavedByObjectVersion
1070
     0
1000
AcDbSavedByObjectVersion
1070
     0
1000
AcDbSavedByObjectVersion
1070
     0
1000
AcDbSavedByObjectVersion
1070
     0
1000
AcDbSavedByObjectVersion
1070
     0
  0
VISUALSTYLE
  5
39
102
{ACAD_REACTORS
330
2A
102
}
330
2A
100
AcDbVisualStyle
  2
Facepattern
 70
    15
 71
     2
 72
     2
 73
     0
 90
        0
 40
-0.6
 41
-30.0
 62
     5
 63
     7
 74
     1
 91
        4
 64
     7
 65
   257
 75
     1
175
     1
 42
1.0
 92
        8
 66
     7
 43
1.0
 76
     1
 77
     6
 78
     2
 67
     7
 79
     5
170
     0
171
     0
290
     0
174
     0
 93
        1
 44
0.0
173
     0
291
     1
 45
0.0
1001
ACAD
1000
AcDbSavedByObjectVersion
1070
     0
1000
AcDbSavedByObjectVersion
1070
     0
1000
AcDbSavedByObjectVersion
1070
     0
1000
AcDbSavedByObjectVersion
1070
     0
1000
AcDbSavedByObjectVersion
1070
     0
1000
AcDbSavedByObjectVersion
1070
     0
1000
AcDbSavedByObjectVersion
1070
     0
1000
AcDbSavedByObjectVersion
1070
     0
1000
AcDbSavedByObjectVersion
1070
     0
1000
AcDbSavedByObjectVersion
1070
     0
1000
AcDbSavedByObjectVersion
1070
     0
1000
AcDbSavedByObjectVersion
1070
     0
1000
AcDbSavedByObjectVersion
1070
     0
1000
AcDbSavedByObjectVersion
1070
     0
1000
AcDbSavedByObjectVersion
1070
     0
1000
AcDbSavedByObjectVersion
1070
     0
1000
AcDbSavedByObjectVersion
1070
     0
1000
AcDbSavedByObjectVersion
1070
     0
1000
AcDbSavedByObjectVersion
1070
     0
1000
AcDbSavedByObjectVersion
1070
     0
1000
AcDbSavedByObjectVersion
1070
     0
1000
AcDbSavedByObjectVersion
1070
     0
1000
AcDbSavedByObjectVersion
1070
     0
1000
AcDbSavedByObjectVersion
1070
     0
1000
AcDbSavedByObjectVersion
1070
     0
1000
AcDbSavedByObjectVersion
1070
     0
1000
AcDbSavedByObjectVersion
1070
     0
1000
AcDbSavedByObjectVersion
1070
     0
1000
AcDbSavedByObjectVersion
1070
     0
1000
AcDbSavedByObjectVersion
1070
     0
1000
AcDbSavedByObjectVersion
1070
     0
1000
AcDbSavedByObjectVersion
1070
     0
1000
AcDbSavedByObjectVersion
1070
     0
1000
AcDbSavedByObjectVersion
1070
     0
1000
AcDbSavedByObjectVersion
1070
     0
1000
AcDbSavedByObjectVersion
1070
     0
1000
AcDbSavedByObjectVersion
1070
     0
1000
AcDbSavedByObjectVersion
1070
     0
1000
AcDbSavedByObjectVersion
1070
     0
1000
AcDbSavedByObjectVersion
1070
     0
1000
AcDbSavedByObjectVersion
1070
     0
1000
AcDbSavedByObjectVersion
1070
     0
1000
AcDbSavedByObjectVersion
1070
     0
1000
AcDbSavedByObjectVersion
1070
     0
1000
AcDbSavedByObjectVersion
1070
     0
1000
AcDbSavedByObjectVersion
1070
     0
  0
VISUALSTYLE
  5
2B
102
{ACAD_REACTORS
330
2A
102
}
330
2A
100
AcDbVisualStyle
  2
Flat
 70
     0
 71
     2
 72
     1
 73
     1
 90
        2
 40
-0.6
 41
30.0
 62
     5
 63
     7
 74
     0
 91
        4
 64
     7
 65
   257
 75
     1
175
     1
 42
1.0
 92
        8
 66
     7
 43
1.0
 76
     1
 77
     6
 78
     2
 67
     7
 79
     5
170
     0
171
     0
290
     0
174
     0
 93
       13
 44
0.0
173
     0
291
     1
 45
0.0
1001
ACAD
1000
AcDbSavedByObjectVersion
1070
     0
1000
AcDbSavedByObjectVersion
1070
     0
1000
AcDbSavedByObjectVersion
1070
     0
1000
AcDbSavedByObjectVersion
1070
     0
1000
AcDbSavedByObjectVersion
1070
     0
1000
AcDbSavedByObjectVersion
1070
     0
1000
AcDbSavedByObjectVersion
1070
     0
1000
AcDbSavedByObjectVersion
1070
     0
1000
AcDbSavedByObjectVersion
1070
     0
1000
AcDbSavedByObjectVersion
1070
     0
1000
AcDbSavedByObjectVersion
1070
     0
1000
AcDbSavedByObjectVersion
1070
     0
1000
AcDbSavedByObjectVersion
1070
     0
1000
AcDbSavedByObjectVersion
1070
     0
1000
AcDbSavedByObjectVersion
1070
     0
1000
AcDbSavedByObjectVersion
1070
     0
1000
AcDbSavedByObjectVersion
1070
     0
1000
AcDbSavedByObjectVersion
1070
     0
1000
AcDbSavedByObjectVersion
1070
     0
1000
AcDbSavedByObjectVersion
1070
     0
1000
AcDbSavedByObjectVersion
1070
     0
1000
AcDbSavedByObjectVersion
1070
     0
1000
AcDbSavedByObjectVersion
1070
     0
1000
AcDbSavedByObjectVersion
1070
     0
1000
AcDbSavedByObjectVersion
1070
     0
1000
AcDbSavedByObjectVersion
1070
     0
1000
AcDbSavedByObjectVersion
1070
     0
1000
AcDbSavedByObjectVersion
1070
     0
1000
AcDbSavedByObjectVersion
1070
     0
1000
AcDbSavedByObjectVersion
1070
     0
1000
AcDbSavedByObjectVersion
1070
     0
1000
AcDbSavedByObjectVersion
1070
     0
1000
AcDbSavedByObjectVersion
1070
     0
1000
AcDbSavedByObjectVersion
1070
     0
1000
AcDbSavedByObjectVersion
1070
     0
1000
AcDbSavedByObjectVersion
1070
     0
1000
AcDbSavedByObjectVersion
1070
     0
1000
AcDbSavedByObjectVersion
1070
     0
1000
AcDbSavedByObjectVersion
1070
     0
1000
AcDbSavedByObjectVersion
1070
     0
1000
AcDbSavedByObjectVersion
1070
     0
1000
AcDbSavedByObjectVersion
1070
     0
1000
AcDbSavedByObjectVersion
1070
     0
1000
AcDbSavedByObjectVersion
1070
     0
1000
AcDbSavedByObjectVersion
1070
     0
1000
AcDbSavedByObjectVersion
1070
     0
  0
VISUALSTYLE
  5
2C
102
{ACAD_REACTORS
330
2A
102
}
330
2A
100
AcDbVisualStyle
  2
FlatWithEdges
 70
     1
 71
     2
 72
     1
 73
     1
 90
        2
 40
-0.6
 41
30.0
 62
     5
 63
     7
 74
     1
 91
        4
 64
     7
 65
   257
 75
     1
175
     1
 42
1.0
 92
        0
 66
   257
 43
1.0
 76
     1
 77
     6
 78
     2
 67
     7
 79
     5
170
     0
171
     0
290
     0
174
     0
 93
       13
 44
0.0
173
     0
291
     1
 45
0.0
1001
ACAD
1000
AcDbSavedByObjectVersion
1070
     0
1000
AcDbSavedByObjectVersion
1070
     0
1000
AcDbSavedByObjectVersion
1070
     0
1000
AcDbSavedByObjectVersion
1070
     0
1000
AcDbSavedByObjectVersion
1070
     0
1000
AcDbSavedByObjectVersion
1070
     0
1000
AcDbSavedByObjectVersion
1070
     0
1000
AcDbSavedByObjectVersion
1070
     0
1000
AcDbSavedByObjectVersion
1070
     0
1000
AcDbSavedByObjectVersion
1070
     0
1000
AcDbSavedByObjectVersion
1070
     0
1000
AcDbSavedByObjectVersion
1070
     0
1000
AcDbSavedByObjectVersion
1070
     0
1000
AcDbSavedByObjectVersion
1070
     0
1000
AcDbSavedByObjectVersion
1070
     0
1000
AcDbSavedByObjectVersion
1070
     0
1000
AcDbSavedByObjectVersion
1070
     0
1000
AcDbSavedByObjectVersion
1070
     0
1000
AcDbSavedByObjectVersion
1070
     0
1000
AcDbSavedByObjectVersion
1070
     0
1000
AcDbSavedByObjectVersion
1070
     0
1000
AcDbSavedByObjectVersion
1070
     0
1000
AcDbSavedByObjectVersion
1070
     0
1000
AcDbSavedByObjectVersion
1070
     0
1000
AcDbSavedByObjectVersion
1070
     0
1000
AcDbSavedByObjectVersion
1070
     0
1000
AcDbSavedByObjectVersion
1070
     0
1000
AcDbSavedByObjectVersion
1070
     0
1000
AcDbSavedByObjectVersion
1070
     0
1000
AcDbSavedByObjectVersion
1070
     0
1000
AcDbSavedByObjectVersion
1070
     0
1000
AcDbSavedByObjectVersion
1070
     0
1000
AcDbSavedByObjectVersion
1070
     0
1000
AcDbSavedByObjectVersion
1070
     0
1000
AcDbSavedByObjectVersion
1070
     0
1000
AcDbSavedByObjectVersion
1070
     0
1000
AcDbSavedByObjectVersion
1070
     0
1000
AcDbSavedByObjectVersion
1070
     0
1000
AcDbSavedByObjectVersion
1070
     0
1000
AcDbSavedByObjectVersion
1070
     0
1000
AcDbSavedByObjectVersion
1070
     0
1000
AcDbSavedByObjectVersion
1070
     0
1000
AcDbSavedByObjectVersion
1070
     0
1000
AcDbSavedByObjectVersion
1070
     0
1000
AcDbSavedByObjectVersion
1070
     0
1000
AcDbSavedByObjectVersion
1070
     0
  0
VISUALSTYLE
  5
2D
102
{ACAD_REACTORS
330
2A
102
}
330
2A
100
AcDbVisualStyle
  2
Gouraud
 70
     2
 71
     2
 72
     2
 73
     1
 90
        2
 40
-0.6
 41
30.0
 62
     5
 63
     7
 74
     0
 91
        4
 64
     7
 65
   257
 75
     1
175
     1
 42
1.0
 92
        0
 66
     7
 43
1.0
 76
     1
 77
     6
 78
     2
 67
     7
 79
     5
170
     0
171
     0
290
     0
174
     0
 93
       13
 44
0.0
173
     0
291
     1
 45
0.0
1001
ACAD
1000
AcDbSavedByObjectVersion
1070
     0
1000
AcDbSavedByObjectVersion
1070
     0
1000
AcDbSavedByObjectVersion
1070
     0
1000
AcDbSavedByObjectVersion
1070
     0
1000
AcDbSavedByObjectVersion
1070
     0
1000
AcDbSavedByObjectVersion
1070
     0
1000
AcDbSavedByObjectVersion
1070
     0
1000
AcDbSavedByObjectVersion
1070
     0
1000
AcDbSavedByObjectVersion
1070
     0
1000
AcDbSavedByObjectVersion
1070
     0
1000
AcDbSavedByObjectVersion
1070
     0
1000
AcDbSavedByObjectVersion
1070
     0
1000
AcDbSavedByObjectVersion
1070
     0
1000
AcDbSavedByObjectVersion
1070
     0
1000
AcDbSavedByObjectVersion
1070
     0
1000
AcDbSavedByObjectVersion
1070
     0
1000
AcDbSavedByObjectVersion
1070
     0
1000
AcDbSavedByObjectVersion
1070
     0
1000
AcDbSavedByObjectVersion
1070
     0
1000
AcDbSavedByObjectVersion
1070
     0
1000
AcDbSavedByObjectVersion
1070
     0
1000
AcDbSavedByObjectVersion
1070
     0
1000
AcDbSavedByObjectVersion
1070
     0
1000
AcDbSavedByObjectVersion
1070
     0
1000
AcDbSavedByObjectVersion
1070
     0
1000
AcDbSavedByObjectVersion
1070
     0
1000
AcDbSavedByObjectVersion
1070
     0
1000
AcDbSavedByObjectVersion
1070
     0
1000
AcDbSavedByObjectVersion
1070
     0
1000
AcDbSavedByObjectVersion
1070
     0
1000
AcDbSavedByObjectVersion
1070
     0
1000
AcDbSavedByObjectVersion
1070
     0
1000
AcDbSavedByObjectVersion
1070
     0
1000
AcDbSavedByObjectVersion
1070
     0
1000
AcDbSavedByObjectVersion
1070
     0
1000
AcDbSavedByObjectVersion
1070
     0
1000
AcDbSavedByObjectVersion
1070
     0
1000
AcDbSavedByObjectVersion
1070
     0
1000
AcDbSavedByObjectVersion
1070
     0
1000
AcDbSavedByObjectVersion
1070
     0
1000
AcDbSavedByObjectVersion
1070
     0
1000
AcDbSavedByObjectVersion
1070
     0
1000
AcDbSavedByObjectVersion
1070
     0
1000
AcDbSavedByObjectVersion
1070
     0
1000
AcDbSavedByObjectVersion
1070
     0
1000
AcDbSavedByObjectVersion
1070
     0
  0
VISUALSTYLE
  5
2E
102
{ACAD_REACTORS
330
2A
102
}
330
2A
100
AcDbVisualStyle
  2
GouraudWithEdges
 70
     3
 71
     2
 72
     2
 73
     1
 90
        2
 40
-0.6
 41
30.0
 62
     5
 63
     7
 74
     1
 91
        4
 64
     7
 65
   257
 75
     1
175
     1
 42
1.0
 92
        0
 66
   257
 43
1.0
 76
     1
 77
     6
 78
     2
 67
     7
 79
     5
170
     0
171
     0
290
     0
174
     0
 93
       13
 44
0.0
173
     0
291
     1
 45
0.0
1001
ACAD
1000
AcDbSavedByObjectVersion
1070
     0
1000
AcDbSavedByObjectVersion
1070
     0
1000
AcDbSavedByObjectVersion
1070
     0
1000
AcDbSavedByObjectVersion
1070
     0
1000
AcDbSavedByObjectVersion
1070
     0
1000
AcDbSavedByObjectVersion
1070
     0
1000
AcDbSavedByObjectVersion
1070
     0
1000
AcDbSavedByObjectVersion
1070
     0
1000
AcDbSavedByObjectVersion
1070
     0
1000
AcDbSavedByObjectVersion
1070
     0
1000
AcDbSavedByObjectVersion
1070
     0
1000
AcDbSavedByObjectVersion
1070
     0
1000
AcDbSavedByObjectVersion
1070
     0
1000
AcDbSavedByObjectVersion
1070
     0
1000
AcDbSavedByObjectVersion
1070
     0
1000
AcDbSavedByObjectVersion
1070
     0
1000
AcDbSavedByObjectVersion
1070
     0
1000
AcDbSavedByObjectVersion
1070
     0
1000
AcDbSavedByObjectVersion
1070
     0
1000
AcDbSavedByObjectVersion
1070
     0
1000
AcDbSavedByObjectVersion
1070
     0
1000
AcDbSavedByObjectVersion
1070
     0
1000
AcDbSavedByObjectVersion
1070
     0
1000
AcDbSavedByObjectVersion
1070
     0
1000
AcDbSavedByObjectVersion
1070
     0
1000
AcDbSavedByObjectVersion
1070
     0
1000
AcDbSavedByObjectVersion
1070
     0
1000
AcDbSavedByObjectVersion
1070
     0
1000
AcDbSavedByObjectVersion
1070
     0
1000
AcDbSavedByObjectVersion
1070
     0
1000
AcDbSavedByObjectVersion
1070
     0
1000
AcDbSavedByObjectVersion
1070
     0
1000
AcDbSavedByObjectVersion
1070
     0
1000
AcDbSavedByObjectVersion
1070
     0
1000
AcDbSavedByObjectVersion
1070
     0
1000
AcDbSavedByObjectVersion
1070
     0
1000
AcDbSavedByObjectVersion
1070
     0
1000
AcDbSavedByObjectVersion
1070
     0
1000
AcDbSavedByObjectVersion
1070
     0
1000
AcDbSavedByObjectVersion
1070
     0
1000
AcDbSavedByObjectVersion
1070
     0
1000
AcDbSavedByObjectVersion
1070
     0
1000
AcDbSavedByObjectVersion
1070
     0
1000
AcDbSavedByObjectVersion
1070
     0
1000
AcDbSavedByObjectVersion
1070
     0
1000
AcDbSavedByObjectVersion
1070
     0
  0
VISUALSTYLE
  5
38
102
{ACAD_REACTORS
330
2A
102
}
330
2A
100
AcDbVisualStyle
  2
Linepattern
 70
    14
 71
     2
 72
     2
 73
     0
 90
        0
 40
-0.6
 41
-30.0
 62
     5
 63
     7
 74
     1
 91
        4
 64
     7
 65
   257
 75
     7
175
     7
 42
1.0
 92
        8
 66
     7
 43
1.0
 76
     1
 77
     6
 78
     2
 67
     7
 79
     5
170
     0
171
     0
290
     0
174
     0
 93
        1
 44
0.0
173
     0
291
     1
 45
0.0
1001
ACAD
1000
AcDbSavedByObjectVersion
1070
     0
1000
AcDbSavedByObjectVersion
1070
     0
1000
AcDbSavedByObjectVersion
1070
     0
1000
AcDbSavedByObjectVersion
1070
     0
1000
AcDbSavedByObjectVersion
1070
     0
1000
AcDbSavedByObjectVersion
1070
     0
1000
AcDbSavedByObjectVersion
1070
     0
1000
AcDbSavedByObjectVersion
1070
     0
1000
AcDbSavedByObjectVersion
1070
     0
1000
AcDbSavedByObjectVersion
1070
     0
1000
AcDbSavedByObjectVersion
1070
     0
1000
AcDbSavedByObjectVersion
1070
     0
1000
AcDbSavedByObjectVersion
1070
     0
1000
AcDbSavedByObjectVersion
1070
     0
1000
AcDbSavedByObjectVersion
1070
     0
1000
AcDbSavedByObjectVersion
1070
     0
1000
AcDbSavedByObjectVersion
1070
     0
1000
AcDbSavedByObjectVersion
1070
     0
1000
AcDbSavedByObjectVersion
1070
     0
1000
AcDbSavedByObjectVersion
1070
     0
1000
AcDbSavedByObjectVersion
1070
     0
1000
AcDbSavedByObjectVersion
1070
     0
1000
AcDbSavedByObjectVersion
1070
     0
1000
AcDbSavedByObjectVersion
1070
     0
1000
AcDbSavedByObjectVersion
1070
     0
1000
AcDbSavedByObjectVersion
1070
     0
1000
AcDbSavedByObjectVersion
1070
     0
1000
AcDbSavedByObjectVersion
1070
     0
1000
AcDbSavedByObjectVersion
1070
     0
1000
AcDbSavedByObjectVersion
1070
     0
1000
AcDbSavedByObjectVersion
1070
     0
1000
AcDbSavedByObjectVersion
1070
     0
1000
AcDbSavedByObjectVersion
1070
     0
1000
AcDbSavedByObjectVersion
1070
     0
1000
AcDbSavedByObjectVersion
1070
     0
1000
AcDbSavedByObjectVersion
1070
     0
1000
AcDbSavedByObjectVersion
1070
     0
1000
AcDbSavedByObjectVersion
1070
     0
1000
AcDbSavedByObjectVersion
1070
     0
1000
AcDbSavedByObjectVersion
1070
     0
1000
AcDbSavedByObjectVersion
1070
     0
1000
AcDbSavedByObjectVersion
1070
     0
1000
AcDbSavedByObjectVersion
1070
     0
1000
AcDbSavedByObjectVersion
1070
     0
1000
AcDbSavedByObjectVersion
1070
     0
1000
AcDbSavedByObjectVersion
1070
     0
  0
VISUALSTYLE
  5
33
102
{ACAD_REACTORS
330
2A
102
}
330
2A
100
AcDbVisualStyle
  2
Realistic
 70
     8
 71
     2
 72
     2
 73
     0
 90
        0
 40
-0.6
 41
-30.0
 62
     5
 63
     7
 74
     1
 91
        0
 64
     7
 65
   257
 75
     1
175
     1
 42
1.0
 92
        8
 66
     8
 43
1.0
 76
     1
 77
     6
 78
     2
 67
     7
 79
     5
170
     0
171
     0
290
     0
174
     0
 93
       13
 44
0.0
173
     0
291
     0
 45
0.0
1001
ACAD
1000
AcDbSavedByObjectVersion
1070
     0
1000
AcDbSavedByObjectVersion
1070
     0
1000
AcDbSavedByObjectVersion
1070
     0
1000
AcDbSavedByObjectVersion
1070
     0
1000
AcDbSavedByObjectVersion
1070
     0
1000
AcDbSavedByObjectVersion
1070
     0
1000
AcDbSavedByObjectVersion
1070
     0
1000
AcDbSavedByObjectVersion
1070
     0
1000
AcDbSavedByObjectVersion
1070
     0
1000
AcDbSavedByObjectVersion
1070
     0
1000
AcDbSavedByObjectVersion
1070
     0
1000
AcDbSavedByObjectVersion
1070
     0
1000
AcDbSavedByObjectVersion
1070
     0
1000
AcDbSavedByObjectVersion
1070
     0
1000
AcDbSavedByObjectVersion
1070
     0
1000
AcDbSavedByObjectVersion
1070
     0
1000
AcDbSavedByObjectVersion
1070
     0
1000
AcDbSavedByObjectVersion
1070
     0
1000
AcDbSavedByObjectVersion
1070
     0
1000
AcDbSavedByObjectVersion
1070
     0
1000
AcDbSavedByObjectVersion
1070
     0
1000
AcDbSavedByObjectVersion
1070
     0
1000
AcDbSavedByObjectVersion
1070
     0
1000
AcDbSavedByObjectVersion
1070
     0
1000
AcDbSavedByObjectVersion
1070
     0
1000
AcDbSavedByObjectVersion
1070
     0
1000
AcDbSavedByObjectVersion
1070
     0
1000
AcDbSavedByObjectVersion
1070
     0
1000
AcDbSavedByObjectVersion
1070
     0
1000
AcDbSavedByObjectVersion
1070
     0
1000
AcDbSavedByObjectVersion
1070
     0
1000
AcDbSavedByObjectVersion
1070
     0
1000
AcDbSavedByObjectVersion
1070
     0
1000
AcDbSavedByObjectVersion
1070
     0
1000
AcDbSavedByObjectVersion
1070
     0
1000
AcDbSavedByObjectVersion
1070
     0
1000
AcDbSavedByObjectVersion
1070
     0
1000
AcDbSavedByObjectVersion
1070
     0
1000
AcDbSavedByObjectVersion
1070
     0
1000
AcDbSavedByObjectVersion
1070
     0
1000
AcDbSavedByObjectVersion
1070
     0
1000
AcDbSavedByObjectVersion
1070
     0
1000
AcDbSavedByObjectVersion
1070
     0
1000
AcDbSavedByObjectVersion
1070
     0
1000
AcDbSavedByObjectVersion
1070
     0
1000
AcDbSavedByObjectVersion
1070
     0
  0
VISUALSTYLE
  5
37
102
{ACAD_REACTORS
330
2A
102
}
330
2A
100
AcDbVisualStyle
  2
Thicken
 70
    13
 71
     2
 72
     2
 73
     0
 90
        0
 40
-0.6
 41
-30.0
 62
     5
 63
     7
 74
     1
 91
        4
 64
     7
 65
   257
 75
     1
175
     1
 42
1.0
 92
       12
 66
     7
 43
1.0
 76
     1
 77
     6
 78
     2
 67
     7
 79
     5
170
     0
171
     0
290
     0
174
     0
 93
        1
 44
0.0
173
     0
291
     1
 45
0.0
1001
ACAD
1000
AcDbSavedByObjectVersion
1070
     0
1000
AcDbSavedByObjectVersion
1070
     0
1000
AcDbSavedByObjectVersion
1070
     0
1000
AcDbSavedByObjectVersion
1070
     0
1000
AcDbSavedByObjectVersion
1070
     0
1000
AcDbSavedByObjectVersion
1070
     0
1000
AcDbSavedByObjectVersion
1070
     0
1000
AcDbSavedByObjectVersion
1070
     0
1000
AcDbSavedByObjectVersion
1070
     0
1000
AcDbSavedByObjectVersion
1070
     0
1000
AcDbSavedByObjectVersion
1070
     0
1000
AcDbSavedByObjectVersion
1070
     0
1000
AcDbSavedByObjectVersion
1070
     0
1000
AcDbSavedByObjectVersion
1070
     0
1000
AcDbSavedByObjectVersion
1070
     0
1000
AcDbSavedByObjectVersion
1070
     0
1000
AcDbSavedByObjectVersion
1070
     0
1000
AcDbSavedByObjectVersion
1070
     0
1000
AcDbSavedByObjectVersion
1070
     0
1000
AcDbSavedByObjectVersion
1070
     0
1000
AcDbSavedByObjectVersion
1070
     0
1000
AcDbSavedByObjectVersion
1070
     0
1000
AcDbSavedByObjectVersion
1070
     0
1000
AcDbSavedByObjectVersion
1070
     0
1000
AcDbSavedByObjectVersion
1070
     0
1000
AcDbSavedByObjectVersion
1070
     0
1000
AcDbSavedByObjectVersion
1070
     0
1000
AcDbSavedByObjectVersion
1070
     0
1000
AcDbSavedByObjectVersion
1070
     0
1000
AcDbSavedByObjectVersion
1070
     0
1000
AcDbSavedByObjectVersion
1070
     0
1000
AcDbSavedByObjectVersion
1070
     0
1000
AcDbSavedByObjectVersion
1070
     0
1000
AcDbSavedByObjectVersion
1070
     0
1000
AcDbSavedByObjectVersion
1070
     0
1000
AcDbSavedByObjectVersion
1070
     0
1000
AcDbSavedByObjectVersion
1070
     0
1000
AcDbSavedByObjectVersion
1070
     0
1000
AcDbSavedByObjectVersion
1070
     0
1000
AcDbSavedByObjectVersion
1070
     0
1000
AcDbSavedByObjectVersion
1070
     0
1000
AcDbSavedByObjectVersion
1070
     0
1000
AcDbSavedByObjectVersion
1070
     0
1000
AcDbSavedByObjectVersion
1070
     0
1000
AcDbSavedByObjectVersion
1070
     0
1000
AcDbSavedByObjectVersion
1070
     0
  0
DICTIONARYVAR
  5
510B
102
{ACAD_REACTORS
330
5108
102
}
330
5108
100
DictionaryVariables
280
     0
  1
1:1
  0
DICTIONARYVAR
  5
510A
102
{ACAD_REACTORS
330
5108
102
}
330
5108
100
DictionaryVariables
280
     0
  1
STANDARD
  0
DICTIONARYVAR
  5
5109
102
{ACAD_REACTORS
330
5108
102
}
330
5108
100
DictionaryVariables
280
     0
  1
STANDARD
  0
DICTIONARYVAR
  5
510E
102
{ACAD_REACTORS
330
5108
102
}
330
5108
100
DictionaryVariables
280
     0
  1
1
  0
DICTIONARYVAR
  5
510D
102
{ACAD_REACTORS
330
5108
102
}
330
5108
100
DictionaryVariables
280
     0
  1
0
  0
DICTIONARYVAR
  5
137BB
102
{ACAD_REACTORS
330
5108
102
}
330
5108
100
DictionaryVariables
280
     0
  1
0
  0
DICTIONARYVAR
  5
137BA
102
{ACAD_REACTORS
330
5108
102
}
330
5108
100
DictionaryVariables
280
     0
  1
0
  0
DICTIONARYVAR
  5
510C
102
{ACAD_REACTORS
330
5108
102
}
330
5108
100
DictionaryVariables
280
     0
  1
127
  0
XRECORD
  5
11ACF
102
{ACAD_REACTORS
330
11ACE
102
}
330
11ACE
100
AcDbXrecord
280
     1
330
0
  0
VLO-VL
  5
11B4F
102
{ACAD_REACTORS
330
11B4E
102
}
330
11B4E
100
vlo_VL
 90
   -64512
 91
       12
 92
        1
 40
2.5
300
(&VLO-R . 0)
  0
DICTIONARY
  5
4FEF
330
4FEE
100
AcDbDictionary
280
     1
281
     1
  3
ACAD_XREC_ROUNDTRIP
360
13763
  3
BUMPTILE
360
4FF1
  3
DIFFUSETILE
360
4FF0
  3
OPACITYTILE
360
4FF4
  3
REFLECTIONTILE
360
4FF3
  3
REFRACTIONTILE
360
4FF5
  3
SPECULARTILE
360
4FF2
  0
DICTIONARY
  5
4FE7
330
4FE6
100
AcDbDictionary
280
     1
281
     1
  3
ACAD_XREC_ROUNDTRIP
360
13762
  3
BUMPTILE
360
4FE9
  3
DIFFUSETILE
360
4FE8
  3
OPACITYTILE
360
4FEC
  3
REFLECTIONTILE
360
4FEB
  3
REFRACTIONTILE
360
4FED
  3
SPECULARTILE
360
4FEA
  0
DICTIONARY
  5
4FF7
330
4FF6
100
AcDbDictionary
280
     1
281
     1
  3
ACAD_XREC_ROUNDTRIP
360
13764
  3
BUMPTILE
360
4FF9
  3
DIFFUSETILE
360
4FF8
  3
OPACITYTILE
360
4FFC
  3
REFLECTIONTILE
360
4FFB
  3
REFRACTIONTILE
360
4FFD
  3
SPECULARTILE
360
4FFA
  0
DICTIONARY
  5
50D6
330
4FFF
100
AcDbDictionary
280
     1
281
     1
  3
ACAD_ROUNDTRIP_2008_TABLESTYLE_CELLSTYLEMAP
360
40562
  3
ACAD_XREC_ROUNDTRIP
360
40580
  0
XRECORD
  5
13763
102
{ACAD_REACTORS
330
4FEF
102
}
330
4FEF
100
AcDbXrecord
280
     1
102
MATERIAL
148
0.0
149
0.0
149
0.0
 93
        0
 94
      127
282
     0
 72
     0
 77
     0
171
     0
175
     0
179
     0
273
     0
  0
XRECORD
  5
4FF1
102
{ACAD_REACTORS
330
4FEF
102
}
330
4FEF
100
AcDbXrecord
280
     1
270
     1
271
     1
  0
XRECORD
  5
4FF0
102
{ACAD_REACTORS
330
4FEF
102
}
330
4FEF
100
AcDbXrecord
280
     1
270
     1
271
     1
  0
XRECORD
  5
4FF4
102
{ACAD_REACTORS
330
4FEF
102
}
330
4FEF
100
AcDbXrecord
280
     1
270
     1
271
     1
  0
XRECORD
  5
4FF3
102
{ACAD_REACTORS
330
4FEF
102
}
330
4FEF
100
AcDbXrecord
280
     1
270
     1
271
     1
  0
XRECORD
  5
4FF5
102
{ACAD_REACTORS
330
4FEF
102
}
330
4FEF
100
AcDbXrecord
280
     1
270
     1
271
     1
  0
XRECORD
  5
4FF2
102
{ACAD_REACTORS
330
4FEF
102
}
330
4FEF
100
AcDbXrecord
280
     1
270
     1
271
     1
  0
XRECORD
  5
13762
102
{ACAD_REACTORS
330
4FE7
102
}
330
4FE7
100
AcDbXrecord
280
     1
102
MATERIAL
148
0.0
149
0.0
149
0.0
 93
        0
 94
      127
282
     0
 72
     0
 77
     0
171
     0
175
     0
179
     0
273
     0
  0
XRECORD
  5
4FE9
102
{ACAD_REACTORS
330
4FE7
102
}
330
4FE7
100
AcDbXrecord
280
     1
270
     1
271
     1
  0
XRECORD
  5
4FE8
102
{ACAD_REACTORS
330
4FE7
102
}
330
4FE7
100
AcDbXrecord
280
     1
270
     1
271
     1
  0
XRECORD
  5
4FEC
102
{ACAD_REACTORS
330
4FE7
102
}
330
4FE7
100
AcDbXrecord
280
     1
270
     1
271
     1
  0
XRECORD
  5
4FEB
102
{ACAD_REACTORS
330
4FE7
102
}
330
4FE7
100
AcDbXrecord
280
     1
270
     1
271
     1
  0
XRECORD
  5
4FED
102
{ACAD_REACTORS
330
4FE7
102
}
330
4FE7
100
AcDbXrecord
280
     1
270
     1
271
     1
  0
XRECORD
  5
4FEA
102
{ACAD_REACTORS
330
4FE7
102
}
330
4FE7
100
AcDbXrecord
280
     1
270
     1
271
     1
  0
XRECORD
  5
13764
102
{ACAD_REACTORS
330
4FF7
102
}
330
4FF7
100
AcDbXrecord
280
     1
102
MATERIAL
148
0.0
149
0.0
149
0.0
 93
        0
 94
      127
282
     0
 72
     0
 77
     0
171
     0
175
     0
179
     0
273
     0
  0
XRECORD
  5
4FF9
102
{ACAD_REACTORS
330
4FF7
102
}
330
4FF7
100
AcDbXrecord
280
     1
270
     1
271
     1
  0
XRECORD
  5
4FF8
102
{ACAD_REACTORS
330
4FF7
102
}
330
4FF7
100
AcDbXrecord
280
     1
270
     1
271
     1
  0
XRECORD
  5
4FFC
102
{ACAD_REACTORS
330
4FF7
102
}
330
4FF7
100
AcDbXrecord
280
     1
270
     1
271
     1
  0
XRECORD
  5
4FFB
102
{ACAD_REACTORS
330
4FF7
102
}
330
4FF7
100
AcDbXrecord
280
     1
270
     1
271
     1
  0
XRECORD
  5
4FFD
102
{ACAD_REACTORS
330
4FF7
102
}
330
4FF7
100
AcDbXrecord
280
     1
270
     1
271
     1
  0
XRECORD
  5
4FFA
102
{ACAD_REACTORS
330
4FF7
102
}
330
4FF7
100
AcDbXrecord
280
     1
270
     1
271
     1
  0
CELLSTYLEMAP
  5
40562
102
{ACAD_REACTORS
330
50D6
102
}
330
50D6
100
AcDbCellStyleMap
 90
        3
300
CELLSTYLE
  1
TABLEFORMAT_BEGIN
 90
        5
170
     1
 91
        0
 92
    32768
 62
   257
 93
        1
300
CONTENTFORMAT
  1
CONTENTFORMAT_BEGIN
 90
        0
 91
        0
 92
      512
 93
        0
300

 40
0.0
140
1.0
 94
        5
 62
     0
340
11
144
0.25
309
CONTENTFORMAT_END
171
     1
301
MARGIN
  1
CELLMARGIN_BEGIN
 40
0.06
 40
0.06
 40
0.06
 40
0.06
 40
0.18
 40
0.18
309
CELLMARGIN_END
 94
        6
 95
        1
302
GRIDFORMAT
  1
GRIDFORMAT_BEGIN
 90
        0
 91
        1
 62
     0
 92
       -2
340
0
 93
        0
 40
0.045
309
GRIDFORMAT_END
 95
        2
302
GRIDFORMAT
  1
GRIDFORMAT_BEGIN
 90
        0
 91
        1
 62
     0
 92
       -2
340
0
 93
        0
 40
0.045
309
GRIDFORMAT_END
 95
        4
302
GRIDFORMAT
  1
GRIDFORMAT_BEGIN
 90
        0
 91
        1
 62
     0
 92
       -2
340
0
 93
        0
 40
0.045
309
GRIDFORMAT_END
 95
        8
302
GRIDFORMAT
  1
GRIDFORMAT_BEGIN
 90
        0
 91
        1
 62
     0
 92
       -2
340
0
 93
        0
 40
0.045
309
GRIDFORMAT_END
 95
       16
302
GRIDFORMAT
  1
GRIDFORMAT_BEGIN
 90
        0
 91
        1
 62
     0
 92
       -2
340
0
 93
        0
 40
0.045
309
GRIDFORMAT_END
 95
       32
302
GRIDFORMAT
  1
GRIDFORMAT_BEGIN
 90
        0
 91
        1
 62
     0
 92
       -2
340
0
 93
        0
 40
0.045
309
GRIDFORMAT_END
309
TABLEFORMAT_END
  1
CELLSTYLE_BEGIN
 90
        1
 91
        1
300
_TITLE
309
CELLSTYLE_END
300
CELLSTYLE
  1
TABLEFORMAT_BEGIN
 90
        5
170
     1
 91
        0
 92
        0
 62
   257
 93
        1
300
CONTENTFORMAT
  1
CONTENTFORMAT_BEGIN
 90
        0
 91
        0
 92
      512
 93
        0
300

 40
0.0
140
1.0
 94
        5
 62
     0
340
11
144
0.18
309
CONTENTFORMAT_END
171
     1
301
MARGIN
  1
CELLMARGIN_BEGIN
 40
0.06
 40
0.06
 40
0.06
 40
0.06
 40
0.18
 40
0.18
309
CELLMARGIN_END
 94
        6
 95
        1
302
GRIDFORMAT
  1
GRIDFORMAT_BEGIN
 90
        0
 91
        1
 62
     0
 92
       -2
340
0
 93
        0
 40
0.045
309
GRIDFORMAT_END
 95
        2
302
GRIDFORMAT
  1
GRIDFORMAT_BEGIN
 90
        0
 91
        1
 62
     0
 92
       -2
340
0
 93
        0
 40
0.045
309
GRIDFORMAT_END
 95
        4
302
GRIDFORMAT
  1
GRIDFORMAT_BEGIN
 90
        0
 91
        1
 62
     0
 92
       -2
340
0
 93
        0
 40
0.045
309
GRIDFORMAT_END
 95
        8
302
GRIDFORMAT
  1
GRIDFORMAT_BEGIN
 90
        0
 91
        1
 62
     0
 92
       -2
340
0
 93
        0
 40
0.045
309
GRIDFORMAT_END
 95
       16
302
GRIDFORMAT
  1
GRIDFORMAT_BEGIN
 90
        0
 91
        1
 62
     0
 92
       -2
340
0
 93
        0
 40
0.045
309
GRIDFORMAT_END
 95
       32
302
GRIDFORMAT
  1
GRIDFORMAT_BEGIN
 90
        0
 91
        1
 62
     0
 92
       -2
340
0
 93
        0
 40
0.045
309
GRIDFORMAT_END
309
TABLEFORMAT_END
  1
CELLSTYLE_BEGIN
 90
        2
 91
        1
300
_HEADER
309
CELLSTYLE_END
300
CELLSTYLE
  1
TABLEFORMAT_BEGIN
 90
        5
170
     1
 91
        0
 92
        0
 62
   257
 93
        1
300
CONTENTFORMAT
  1
CONTENTFORMAT_BEGIN
 90
        0
 91
        0
 92
      512
 93
        0
300

 40
0.0
140
1.0
 94
        2
 62
     0
340
11
144
0.18
309
CONTENTFORMAT_END
171
     1
301
MARGIN
  1
CELLMARGIN_BEGIN
 40
0.06
 40
0.06
 40
0.06
 40
0.06
 40
0.18
 40
0.18
309
CELLMARGIN_END
 94
        6
 95
        1
302
GRIDFORMAT
  1
GRIDFORMAT_BEGIN
 90
        0
 91
        1
 62
     0
 92
       -2
340
0
 93
        0
 40
0.045
309
GRIDFORMAT_END
 95
        2
302
GRIDFORMAT
  1
GRIDFORMAT_BEGIN
 90
        0
 91
        1
 62
     0
 92
       -2
340
0
 93
        0
 40
0.045
309
GRIDFORMAT_END
 95
        4
302
GRIDFORMAT
  1
GRIDFORMAT_BEGIN
 90
        0
 91
        1
 62
     0
 92
       -2
340
0
 93
        0
 40
0.045
309
GRIDFORMAT_END
 95
        8
302
GRIDFORMAT
  1
GRIDFORMAT_BEGIN
 90
        0
 91
        1
 62
     0
 92
       -2
340
0
 93
        0
 40
0.045
309
GRIDFORMAT_END
 95
       16
302
GRIDFORMAT
  1
GRIDFORMAT_BEGIN
 90
        0
 91
        1
 62
     0
 92
       -2
340
0
 93
        0
 40
0.045
309
GRIDFORMAT_END
 95
       32
302
GRIDFORMAT
  1
GRIDFORMAT_BEGIN
 90
        0
 91
        1
 62
     0
 92
       -2
340
0
 93
        0
 40
0.045
309
GRIDFORMAT_END
309
TABLEFORMAT_END
  1
CELLSTYLE_BEGIN
 90
        3
 91
        2
300
_DATA
309
CELLSTYLE_END
  0
XRECORD
  5
40580
102
{ACAD_REACTORS
330
50D6
102
}
330
50D6
100
AcDbXrecord
280
     1
102
ACAD_ROUNDTRIP_PRE2007_TABLESTYLE
 90
      512
 91
        0
  1

 92
      512
 93
        0
  2

 94
      512
 95
        0
  3

  0
ENDSEC
  0
EOF
