  0
SECTION
  2
HEADER
  9
$ACADVER
  1
AC1018
  9
$ACADMAINTVER
 70
   104
  9
$DWGCODEPAGE
  3
ANSI_936
  9
$LASTSAVEDBY
  1
hq.zhang
  9
$INSBASE
 10
0.0
 20
0.0
 30
0.0
  9
$EXTMIN
 10
765.0942195176194
 20
180.2333862745803
 30
-0.0015258207003612
  9
$EXTMAX
 10
913.6298102820354
 20
285.2621628643405
 30
0.0000000349246008
  9
$LIMMIN
 10
0.0
 20
0.0
  9
$LIMMAX
 10
12.0
 20
9.0
  9
$ORTHOMODE
 70
     1
  9
$REGENMODE
 70
     1
  9
$FILLMODE
 70
     1
  9
$QTEXTMODE
 70
     0
  9
$MIRRTEXT
 70
     1
  9
$LTSCALE
 40
1.0
  9
$ATTMODE
 70
     1
  9
$TEXTSIZE
 40
0.2
  9
$TRACEWID
 40
0.05
  9
$TEXTSTYLE
  7
Romans字体
  9
$CLAYER
  8
DIM
  9
$CELTYPE
  6
ByLayer
  9
$CECOLOR
 62
   256
  9
$CELTSCALE
 40
1.0
  9
$DISPSILH
 70
     0
  9
$DIMSCALE
 40
0.65
  9
$DIMASZ
 40
3.0
  9
$DIMEXO
 40
1.0
  9
$DIMDLI
 40
0.1
  9
$DIMRND
 40
0.0
  9
$DIMDLE
 40
0.0
  9
$DIMEXE
 40
1.0
  9
$DIMTP
 40
0.01
  9
$DIMTM
 40
0.000000001
  9
$DIMTXT
 40
3.5
  9
$DIMCEN
 40
0.0
  9
$DIMTSZ
 40
0.0
  9
$DIMTOL
 70
     0
  9
$DIMLIM
 70
     0
  9
$DIMTIH
 70
     0
  9
$DIMTOH
 70
     0
  9
$DIMSE1
 70
     0
  9
$DIMSE2
 70
     0
  9
$DIMTAD
 70
     1
  9
$DIMZIN
 70
     8
  9
$DIMBLK
  1

  9
$DIMASO
 70
     1
  9
$DIMSHO
 70
     1
  9
$DIMPOST
  1

  9
$DIMAPOST
  1

  9
$DIMALT
 70
     0
  9
$DIMALTD
 70
     2
  9
$DIMALTF
 40
25.4
  9
$DIMLFAC
 40
1.0
  9
$DIMTOFL
 70
     0
  9
$DIMTVP
 40
0.0
  9
$DIMTIX
 70
     0
  9
$DIMSOXD
 70
     0
  9
$DIMSAH
 70
     0
  9
$DIMBLK1
  1

  9
$DIMBLK2
  1

  9
$DIMSTYLE
  2
02
  9
$DIMCLRD
 70
     1
  9
$DIMCLRE
 70
     6
  9
$DIMCLRT
 70
     4
  9
$DIMTFAC
 40
0.7
  9
$DIMGAP
 40
1.0
  9
$DIMJUST
 70
     0
  9
$DIMSD1
 70
     0
  9
$DIMSD2
 70
     0
  9
$DIMTOLJ
 70
     1
  9
$DIMTZIN
 70
     8
  9
$DIMALTZ
 70
     0
  9
$DIMALTTZ
 70
     0
  9
$DIMUPT
 70
     0
  9
$DIMDEC
 70
     2
  9
$DIMTDEC
 70
     2
  9
$DIMALTU
 70
     2
  9
$DIMALTTD
 70
     2
  9
$DIMTXSTY
  7
Standard
  9
$DIMAUNIT
 70
     0
  9
$DIMADEC
 70
     2
  9
$DIMALTRND
 40
0.0
  9
$DIMAZIN
 70
     2
  9
$DIMDSEP
 70
    46
  9
$DIMATFIT
 70
     3
  9
$DIMFRAC
 70
     0
  9
$DIMLDRBLK
  1

  9
$DIMLUNIT
 70
     2
  9
$DIMLWD
 70
    -2
  9
$DIMLWE
 70
    -2
  9
$DIMTMOVE
 70
     0
  9
$LUNITS
 70
     2
  9
$LUPREC
 70
     4
  9
$SKETCHINC
 40
0.1
  9
$FILLETRAD
 40
0.5
  9
$AUNITS
 70
     0
  9
$AUPREC
 70
     0
  9
$MENU
  1
.
  9
$ELEVATION
 40
0.0
  9
$PELEVATION
 40
0.0
  9
$THICKNESS
 40
0.0
  9
$LIMCHECK
 70
     0
  9
$CHAMFERA
 40
0.5
  9
$CHAMFERB
 40
0.5
  9
$CHAMFERC
 40
1.0
  9
$CHAMFERD
 40
0.0
  9
$SKPOLY
 70
     0
  9
$TDCREATE
 40
2456524.383632987
  9
$TDUCREATE
 40
2456524.050299653
  9
$TDUPDATE
 40
2457826.437964722
  9
$TDUUPDATE
 40
2457826.104631389
  9
$TDINDWG
 40
1.5052393171
  9
$TDUSRTIMER
 40
1.5052206134
  9
$USRTIMER
 70
     1
  9
$ANGBASE
 50
0.0
  9
$ANGDIR
 70
     0
  9
$PDMODE
 70
     0
  9
$PDSIZE
 40
0.0
  9
$PLINEWID
 40
0.0
  9
$SPLFRAME
 70
     0
  9
$SPLINETYPE
 70
     6
  9
$SPLINESEGS
 70
     8
  9
$HANDSEED
  5
3FE38
  9
$SURFTAB1
 70
     6
  9
$SURFTAB2
 70
     6
  9
$SURFTYPE
 70
     6
  9
$SURFU
 70
     6
  9
$SURFV
 70
     6
  9
$UCSBASE
  2

  9
$UCSNAME
  2

  9
$UCSORG
 10
0.0
 20
0.0
 30
0.0
  9
$UCSXDIR
 10
1.0
 20
0.0
 30
0.0
  9
$UCSYDIR
 10
0.0
 20
1.0
 30
0.0
  9
$UCSORTHOREF
  2

  9
$UCSORTHOVIEW
 70
     0
  9
$UCSORGTOP
 10
0.0
 20
0.0
 30
0.0
  9
$UCSORGBOTTOM
 10
0.0
 20
0.0
 30
0.0
  9
$UCSORGLEFT
 10
0.0
 20
0.0
 30
0.0
  9
$UCSORGRIGHT
 10
0.0
 20
0.0
 30
0.0
  9
$UCSORGFRONT
 10
0.0
 20
0.0
 30
0.0
  9
$UCSORGBACK
 10
0.0
 20
0.0
 30
0.0
  9
$PUCSBASE
  2

  9
$PUCSNAME
  2

  9
$PUCSORG
 10
0.0
 20
0.0
 30
0.0
  9
$PUCSXDIR
 10
1.0
 20
0.0
 30
0.0
  9
$PUCSYDIR
 10
0.0
 20
1.0
 30
0.0
  9
$PUCSORTHOREF
  2

  9
$PUCSORTHOVIEW
 70
     0
  9
$PUCSORGTOP
 10
0.0
 20
0.0
 30
0.0
  9
$PUCSORGBOTTOM
 10
0.0
 20
0.0
 30
0.0
  9
$PUCSORGLEFT
 10
0.0
 20
0.0
 30
0.0
  9
$PUCSORGRIGHT
 10
0.0
 20
0.0
 30
0.0
  9
$PUCSORGFRONT
 10
0.0
 20
0.0
 30
0.0
  9
$PUCSORGBACK
 10
0.0
 20
0.0
 30
0.0
  9
$USERI1
 70
     0
  9
$USERI2
 70
     0
  9
$USERI3
 70
     0
  9
$USERI4
 70
     0
  9
$USERI5
 70
     0
  9
$USERR1
 40
0.0
  9
$USERR2
 40
0.0
  9
$USERR3
 40
0.0
  9
$USERR4
 40
0.0
  9
$USERR5
 40
2.5
  9
$WORLDVIEW
 70
     1
  9
$SHADEDGE
 70
     3
  9
$SHADEDIF
 70
    70
  9
$TILEMODE
 70
     1
  9
$MAXACTVP
 70
    64
  9
$PINSBASE
 10
0.0
 20
0.0
 30
0.0
  9
$PLIMCHECK
 70
     0
  9
$PEXTMIN
 10
1.000000000000000E+20
 20
1.000000000000000E+20
 30
1.000000000000000E+20
  9
$PEXTMAX
 10
-1.000000000000000E+20
 20
-1.000000000000000E+20
 30
-1.000000000000000E+20
  9
$PLIMMIN
 10
0.0
 20
0.0
  9
$PLIMMAX
 10
12.0
 20
9.0
  9
$UNITMODE
 70
     0
  9
$VISRETAIN
 70
     1
  9
$PLINEGEN
 70
     0
  9
$PSLTSCALE
 70
     1
  9
$TREEDEPTH
 70
  3020
  9
$CMLSTYLE
  2
Standard
  9
$CMLJUST
 70
     0
  9
$CMLSCALE
 40
1.0
  9
$PROXYGRAPHICS
 70
     1
  9
$MEASUREMENT
 70
     0
  9
$CELWEIGHT
370
    -1
  9
$ENDCAPS
280
     0
  9
$JOINSTYLE
280
     0
  9
$LWDISPLAY
290
     0
  9
$INSUNITS
 70
     4
  9
$HYPERLINKBASE
  1

  9
$STYLESHEET
  1
monochrome.ctb
  9
$XEDIT
290
     1
  9
$CEPSNTYPE
380
     0
  9
$PSTYLEMODE
290
     1
  9
$FINGERPRINTGUID
  2
{4A02065B-8BB3-4A96-9036-502DC906C165}
  9
$VERSIONGUID
  2
{D8611086-77A1-42C4-8285-6E4C79E6C864}
  9
$EXTNAMES
290
     1
  9
$PSVPSCALE
 40
0.0
  9
$OLESTARTUP
290
     0
  9
$SORTENTS
280
   127
  9
$INDEXCTL
280
     0
  9
$HIDETEXT
280
     0
  9
$XCLIPFRAME
290
     0
  9
$HALOGAP
280
     0
  9
$OBSCOLOR
 70
   257
  9
$OBSLTYPE
280
     0
  9
$INTERSECTIONDISPLAY
280
     0
  9
$INTERSECTIONCOLOR
 70
   257
  9
$DIMASSOC
280
     1
  9
$PROJECTNAME
  1

  0
ENDSEC
  0
SECTION
  2
CLASSES
  0
CLASS
  1
ACDBDICTIONARYWDFLT
  2
AcDbDictionaryWithDefault
  3
ObjectDBX Classes
 90
        0
 91
        1
280
     0
281
     0
  0
CLASS
  1
VISUALSTYLE
  2
AcDbVisualStyle
  3
ObjectDBX Classes
 90
     4095
 91
       16
280
     0
281
     0
  0
CLASS
  1
MATERIAL
  2
AcDbMaterial
  3
ObjectDBX Classes
 90
     1153
 91
        3
280
     0
281
     0
  0
CLASS
  1
TABLESTYLE
  2
AcDbTableStyle
  3
ObjectDBX Classes
 90
     4095
 91
        1
280
     0
281
     0
  0
CLASS
  1
SCALE
  2
AcDbScale
  3
ObjectDBX Classes
 90
     1153
 91
       33
280
     0
281
     0
  0
CLASS
  1
MLEADERSTYLE
  2
AcDbMLeaderStyle
  3
ACDB_MLEADERSTYLE_CLASS
 90
     4095
 91
        1
280
     0
281
     0
  0
CLASS
  1
CELLSTYLEMAP
  2
AcDbCellStyleMap
  3
ObjectDBX Classes
 90
     1152
 91
        3
280
     0
281
     0
  0
CLASS
  1
DICTIONARYVAR
  2
AcDbDictionaryVar
  3
ObjectDBX Classes
 90
        0
 91
        8
280
     0
281
     0
  0
CLASS
  1
SORTENTSTABLE
  2
AcDbSortentsTable
  3
ObjectDBX Classes
 90
        0
 91
        1
280
     0
281
     0
  0
CLASS
  1
ACAD_EVALUATION_GRAPH
  2
AcDbEvalGraph
  3
ObjectDBX Classes
 90
     1153
 91
        0
280
     0
281
     0
  0
CLASS
  1
ACAECUSTOBJ
  2
AcAeEditorObj
  3
AcAeEditorObj
 90
     1024
 91
        0
280
     0
281
     0
  0
CLASS
  1
ACDB_DYNAMICBLOCKPURGEPREVENTER_VERSION
  2
AcDbDynamicBlockPurgePreventer
  3
ObjectDBX Classes
 90
     1153
 91
        0
280
     0
281
     0
  0
CLASS
  1
MENTALRAYRENDERSETTINGS
  2
AcDbMentalRayRenderSettings
  3
SCENEOE
 90
     1024
 91
        1
280
     0
281
     0
  0
CLASS
  1
ACDB_BLOCKREPRESENTATION_DATA
  2
AcDbBlockRepresentationData
  3
ObjectDBX Classes
 90
     1153
 91
        0
280
     0
281
     0
  0
CLASS
  1
VLO-VL
  2
vlo_VL
  3
VL|AutoLISP based application
 90
      129
 91
        1
280
     0
281
     0
  0
CLASS
  1
DIMASSOC
  2
AcDbDimAssoc
  3
"AcDbDimAssoc|Product Desc:     AcDim ARX App For Dimension|Company:          Autodesk, Inc.|WEB Address:      www.autodesk.com"
 90
        0
 91
        1
280
     0
281
     0
  0
ENDSEC
  0
SECTION
  2
TABLES
  0
TABLE
  2
VPORT
  5
8
102
{ACAD_XDICTIONARY
360
50EE
102
}
330
0
100
AcDbSymbolTable
 70
     1
  0
VPORT
  5
29
330
8
100
AcDbSymbolTableRecord
100
AcDbViewportTableRecord
  2
*Active
 70
     0
 10
0.0
 20
0.0
 11
1.0
 21
1.0
 12
734.3965180279187
 22
84.24554380086261
 13
0.0
 23
0.0
 14
0.5
 24
0.5
 15
0.5
 25
0.5
 16
0.0
 26
0.0
 36
1.0
 17
104.9654968719086
 27
148.5022307685978
 37
0.0
 40
106.00427606273
 41
2.103875968992248
 42
50.0
 43
0.0
 44
0.0
 50
0.0
 51
0.0
 71
     0
 72
 20000
 73
     1
 74
     3
 75
     0
 76
     0
 77
     0
 78
     0
281
     0
 65
     1
110
0.0
120
0.0
130
0.0
111
1.0
121
0.0
131
0.0
112
0.0
122
1.0
132
0.0
 79
     0
146
0.0
  0
ENDTAB
  0
TABLE
  2
LTYPE
  5
5
330
0
100
AcDbSymbolTable
 70
     2
  0
LTYPE
  5
14
330
5
100
AcDbSymbolTableRecord
100
AcDbLinetypeTableRecord
  2
ByBlock
 70
     0
  3

 72
    65
 73
     0
 40
0.0
  0
LTYPE
  5
15
330
5
100
AcDbSymbolTableRecord
100
AcDbLinetypeTableRecord
  2
ByLayer
 70
     0
  3

 72
    65
 73
     0
 40
0.0
  0
LTYPE
  5
16
330
5
100
AcDbSymbolTableRecord
100
AcDbLinetypeTableRecord
  2
Continuous
 70
     0
  3
Solid line
 72
    65
 73
     0
 40
0.0
  0
LTYPE
  5
67BA
330
5
100
AcDbSymbolTableRecord
100
AcDbLinetypeTableRecord
  2
CENTER
 70
     0
  3
Center ____ _ ____ _ ____ _ ____ _ ____ _ ____
 72
    65
 73
     4
 40
2.0
 49
1.25
 74
     0
 49
-0.25
 74
     0
 49
0.25
 74
     0
 49
-0.25
 74
     0
  0
ENDTAB
  0
TABLE
  2
LAYER
  5
2
102
{ACAD_XDICTIONARY
360
50B8
102
}
330
0
100
AcDbSymbolTable
 70
     8
  0
LAYER
  5
10
102
{ACAD_XDICTIONARY
360
50D0
102
}
330
2
100
AcDbSymbolTableRecord
100
AcDbLayerTableRecord
  2
0
 70
     0
 62
     7
  6
Continuous
370
    30
390
F
  0
LAYER
  5
3B
102
{ACAD_XDICTIONARY
360
50D2
102
}
330
2
100
AcDbSymbolTableRecord
100
AcDbLayerTableRecord
  2
图层 1
 70
     0
 62
     7
  6
Continuous
370
    -3
390
F
  0
LAYER
  5
50AE
102
{ACAD_XDICTIONARY
360
50AF
102
}
330
2
100
AcDbSymbolTableRecord
100
AcDbLayerTableRecord
  2
图框
 70
     0
 62
     7
  6
Continuous
370
    20
390
F
  0
LAYER
  5
5141
330
2
100
AcDbSymbolTableRecord
100
AcDbLayerTableRecord
  2
Defpoints
 70
     0
 62
     7
  6
Continuous
290
     0
370
    -3
390
F
  0
LAYER
  5
5144
330
2
100
AcDbSymbolTableRecord
100
AcDbLayerTableRecord
  2
DIM
 70
     0
 62
     3
  6
Continuous
370
    15
390
F
1001
AcAecLayerStandard
1000

1000

  0
LAYER
  5
67B7
330
2
100
AcDbSymbolTableRecord
100
AcDbLayerTableRecord
  2
CEN
 70
     0
 62
     1
  6
CENTER
370
    15
390
F
1001
AcAecLayerStandard
1000

1000

  0
LAYER
  5
13FDB
330
2
100
AcDbSymbolTableRecord
100
AcDbLayerTableRecord
  2
粗实线
 70
     0
 62
     7
  6
Continuous
370
    25
390
F
  0
LAYER
  5
204E1
330
2
100
AcDbSymbolTableRecord
100
AcDbLayerTableRecord
  2
Hat
 70
     0
 62
     6
  6
Continuous
370
    13
390
F
  0
ENDTAB
  0
TABLE
  2
STYLE
  5
3
330
0
100
AcDbSymbolTable
 70
     5
  0
STYLE
  5
11
330
3
100
AcDbSymbolTableRecord
100
AcDbTextStyleTableRecord
  2
Standard
 70
     0
 40
0.0
 41
0.75
 50
0.0
 71
     0
 42
0.2
  3
仿宋_GB2312.ttf
  4

1001
ACAD
1000
FangSong_GB2312
1071
    34353
  0
STYLE
  5
FD48
330
3
100
AcDbSymbolTableRecord
100
AcDbTextStyleTableRecord
  2
Romans字体
 70
     0
 40
0.0
 41
0.75
 50
0.0
 71
     0
 42
0.2
  3
romans.shx
  4

  0
STYLE
  5
11080
330
3
100
AcDbSymbolTableRecord
100
AcDbTextStyleTableRecord
  2
工程字
 70
     0
 40
0.0
 41
1.0
 50
0.0
 71
     0
 42
3.5
  3
gbenor.shx
  4
gbcbig.shx
  0
STYLE
  5
11081
330
3
100
AcDbSymbolTableRecord
100
AcDbTextStyleTableRecord
  2
Chinese
 70
     0
 40
0.0
 41
1.0
 50
0.0
 71
     0
 42
2.5
  3
PMingLiU.ttf
  4

1001
ACAD
1000
PMingLiU
1071
    34834
  0
ENDTAB
  0
TABLE
  2
VIEW
  5
6
330
0
100
AcDbSymbolTable
 70
     0
  0
ENDTAB
  0
TABLE
  2
UCS
  5
7
330
0
100
AcDbSymbolTable
 70
     0
  0
ENDTAB
  0
TABLE
  2
APPID
  5
9
330
0
100
AcDbSymbolTable
 70
    18
  0
APPID
  5
12
330
9
100
AcDbSymbolTableRecord
100
AcDbRegAppTableRecord
  2
ACAD
 70
     0
  0
APPID
  5
5024
330
9
100
AcDbSymbolTableRecord
100
AcDbRegAppTableRecord
  2
ACAD_MLEADERVER
 70
     0
  0
APPID
  5
50B5
330
9
100
AcDbSymbolTableRecord
100
AcDbRegAppTableRecord
  2
AcDbDynamicBlockGUID
 70
     0
  0
APPID
  5
50B6
330
9
100
AcDbSymbolTableRecord
100
AcDbRegAppTableRecord
  2
AcDbBlockRepETag
 70
     0
  0
APPID
  5
50B7
330
9
100
AcDbSymbolTableRecord
100
AcDbRegAppTableRecord
  2
ACAD_PSEXT
 70
     0
  0
APPID
  5
50CF
330
9
100
AcDbSymbolTableRecord
100
AcDbRegAppTableRecord
  2
AcadAnnoPO
 70
     0
  0
APPID
  5
5146
330
9
100
AcDbSymbolTableRecord
100
AcDbRegAppTableRecord
  2
AcAecLayerStandard
 70
     0
  0
APPID
  5
5147
330
9
100
AcDbSymbolTableRecord
100
AcDbRegAppTableRecord
  2
ACAD_DSTYLE_DIMJAG
 70
     0
  0
APPID
  5
5148
330
9
100
AcDbSymbolTableRecord
100
AcDbRegAppTableRecord
  2
ACAD_DSTYLE_DIMTALN
 70
     0
  0
APPID
  5
52AD
330
9
100
AcDbSymbolTableRecord
100
AcDbRegAppTableRecord
  2
ACAUTHENVIRON
 70
     0
  0
APPID
  5
52B0
330
9
100
AcDbSymbolTableRecord
100
AcDbRegAppTableRecord
  2
AcDbDynamicBlockTrueName
 70
     0
  0
APPID
  5
67C6
330
9
100
AcDbSymbolTableRecord
100
AcDbRegAppTableRecord
  2
ACAD_EXEMPT_FROM_CAD_STANDARDS
 70
     0
  0
APPID
  5
6838
330
9
100
AcDbSymbolTableRecord
100
AcDbRegAppTableRecord
  2
ACAD_NAV_VCDISPLAY
 70
     0
  0
APPID
  5
70A9
330
9
100
AcDbSymbolTableRecord
100
AcDbRegAppTableRecord
  2
DCO15
 70
     0
  0
APPID
  5
8725
330
9
100
AcDbSymbolTableRecord
100
AcDbRegAppTableRecord
  2
AcDbBlockRepBTag
 70
     0
  0
APPID
  5
FE64
330
9
100
AcDbSymbolTableRecord
100
AcDbRegAppTableRecord
  2
ACAD_DSTYLE_DIMRADIAL_EXTENSION
 70
     0
  0
APPID
  5
FF93
330
9
100
AcDbSymbolTableRecord
100
AcDbRegAppTableRecord
  2
ACAD_DSTYLE_DIMBREAK
 70
     0
  0
APPID
  5
11B91
330
9
100
AcDbSymbolTableRecord
100
AcDbRegAppTableRecord
  2
ACAD_DSTYLE_DIMINSPECT
 70
     0
  0
ENDTAB
  0
TABLE
  2
DIMSTYLE
  5
A
330
0
100
AcDbSymbolTable
 70
     5
100
AcDbDimStyleTable
 71
     3
340
13FDD
340
5145
340
27
  0
DIMSTYLE
105
27
330
A
100
AcDbSymbolTableRecord
100
AcDbDimStyleTableRecord
  2
Standard
 70
     0
340
11
  0
DIMSTYLE
105
5145
102
{ACAD_REACTORS
330
3F16C
330
3F16D
330
3F16E
330
3F18B
330
3F16B
102
}
330
A
100
AcDbSymbolTableRecord
100
AcDbDimStyleTableRecord
  2
01
 70
     0
 41
3.0
 42
0.2
 43
0.2
 44
1.199999999999999
 73
     0
 74
     0
 77
     1
 78
     8
 79
     2
140
2.5
141
0.0
147
0.8
176
     1
177
     6
178
     4
179
     2
271
     1
272
     1
340
FD48
1001
ACAD_DSTYLE_DIMJAG
1070
   388
1040
1.5
1001
ACAD_DSTYLE_DIMTALN
1070
   392
1070
     0
  0
DIMSTYLE
105
13FDD
102
{ACAD_REACTORS
330
3F0BA
102
}
330
A
100
AcDbSymbolTableRecord
100
AcDbDimStyleTableRecord
  2
02
 70
     0
 40
0.65
 41
3.0
 42
1.0
 43
0.1
 44
1.0
 47
0.01
 48
0.000000001
 73
     0
 74
     0
 77
     1
 78
     8
 79
     2
140
3.5
141
0.0
146
0.7
147
1.0
176
     1
177
     6
178
     4
179
     2
271
     2
272
     2
284
     8
340
11
1001
ACAD_DSTYLE_DIMJAG
1070
   388
1040
1.5
1001
ACAD_DSTYLE_DIMTALN
1070
   392
1070
     0
  0
DIMSTYLE
105
3ECFD
102
{ACAD_REACTORS
330
3F7E4
102
}
330
A
100
AcDbSymbolTableRecord
100
AcDbDimStyleTableRecord
  2
02$3
 70
     0
 40
0.65
 41
2.0
 42
0.5
 43
5.0
 44
1.0
 47
0.01
 48
0.000000001
 73
     0
 77
     1
 78
     8
 79
     2
140
3.5
141
0.0
146
0.7
147
0.6
172
     1
176
     1
177
     6
178
     4
179
     2
271
     2
272
     2
284
     8
289
     0
340
11
1001
ACAD_DSTYLE_DIMBREAK
1070
   391
1040
0.375
1001
ACAD_DSTYLE_DIMJAG
1070
   388
1040
1.5
1001
ACAD_DSTYLE_DIMTALN
1070
   392
1070
     0
  0
ENDTAB
  0
TABLE
  2
BLOCK_RECORD
  5
1
330
0
100
AcDbSymbolTable
 70
    10
  0
BLOCK_RECORD
  5
1F
102
{ACAD_XDICTIONARY
360
67C0
102
}
330
1
100
AcDbSymbolTableRecord
100
AcDbBlockTableRecord
  2
*Model_Space
340
22
  0
BLOCK_RECORD
  5
1B
330
1
100
AcDbSymbolTableRecord
100
AcDbBlockTableRecord
  2
*Paper_Space
340
1E
  0
BLOCK_RECORD
  5
23
330
1
100
AcDbSymbolTableRecord
100
AcDbBlockTableRecord
  2
*Paper_Space0
340
26
  0
BLOCK_RECORD
  5
10FE8
102
{ACAD_XDICTIONARY
360
3FAF9
102
}
330
1
100
AcDbSymbolTableRecord
100
AcDbBlockTableRecord
  2
A4图框-NEW
340
0
310
2800000020000000200000000100080000000000000400000000000000000000000000000000000000000000000080000080000000808000800000008000800080800000C0C0C000C0DCC000F0CAA6000020400000206000002080000020A0000020C0000020E00000400000004020000040400000406000004080000040A0
310
000040C0000040E00000600000006020000060400000606000006080000060A0000060C0000060E00000800000008020000080400000806000008080000080A0000080C0000080E00000A0000000A0200000A0400000A0600000A0800000A0A00000A0C00000A0E00000C0000000C0200000C0400000C0600000C0800000C0
310
A00000C0C00000C0E00000E0000000E0200000E0400000E0600000E0800000E0A00000E0C00000E0E00040000000400020004000400040006000400080004000A0004000C0004000E00040200000402020004020400040206000402080004020A0004020C0004020E000404000004040200040404000404060004040800040
310
40A0004040C0004040E00040600000406020004060400040606000406080004060A0004060C0004060E00040800000408020004080400040806000408080004080A0004080C0004080E00040A0000040A0200040A0400040A0600040A0800040A0A00040A0C00040A0E00040C0000040C0200040C0400040C0600040C08000
310
40C0A00040C0C00040C0E00040E0000040E0200040E0400040E0600040E0800040E0A00040E0C00040E0E00080000000800020008000400080006000800080008000A0008000C0008000E00080200000802020008020400080206000802080008020A0008020C0008020E00080400000804020008040400080406000804080
310
008040A0008040C0008040E00080600000806020008060400080606000806080008060A0008060C0008060E00080800000808020008080400080806000808080008080A0008080C0008080E00080A0000080A0200080A0400080A0600080A0800080A0A00080A0C00080A0E00080C0000080C0200080C0400080C0600080C0
310
800080C0A00080C0C00080C0E00080E0000080E0200080E0400080E0600080E0800080E0A00080E0C00080E0E000C0000000C0002000C0004000C0006000C0008000C000A000C000C000C000E000C0200000C0202000C0204000C0206000C0208000C020A000C020C000C020E000C0400000C0402000C0404000C0406000C0
310
408000C040A000C040C000C040E000C0600000C0602000C0604000C0606000C0608000C060A000C060C000C060E000C0800000C0802000C0804000C0806000C0808000C080A000C080C000C080E000C0A00000C0A02000C0A04000C0A06000C0A08000C0A0A000C0A0C000C0A0E000C0C00000C0C02000C0C04000C0C06000
310
C0C08000C0C0A000F0FBFF00A4A0A000808080000000FF0000FF000000FFFF00FF000000FF00FF00FFFF0000FFFFFF0000000000000000000000000000000000000000000000000000000000000000000000000000000000000000000000000000000000000000000000000000000000000000000000000000000000000000
310
000000000000000000000000000000000000000000000000000000000000000000000000000000000000000000000000000000000000000000000000000000000000000000000000000000000000000000000000000000000000000000000000000000000000000000000000000000000000F9F9F9F9F9F9F9F9F9F9F9F9F9
310
F9F9F9F9F9F9F9F9F9F9F9F9F9F9FF00000000F9FF000000000000000000FFFFFFFFFFFFFFFFFFFFFFFFF9FAFAFAFF00000000F9FF000000000000000000FFFFFFFFFFFFFFFFFFFFFFFFFFFFFFFFFF00000000F9FD000000000000000000FFFFFFFFFFFFFFFFFFFFFFFFFFFFFFFFFF00000000F9FF000000000000000000FF
310
FFFFFFFFFFFFFFFFFFFFFFFFFFFFFFFF00000000F9FD000000000000000000FFFFFFFFFFFFFFFFFFFFFFFFFFFFFFFFFF00000000F9FF00000000000000000000000000000000000000000000000000FF00000000F9FD00000000000000000000000000000000000000000000000000FF00000000F9FF000000000000000000
310
00000000000000000000000000000000FF00000000F9FD00000000000000000000000000000000000000000000000000FF00000000F9FF00000000000000000000000000000000000000000000000000FF00000000F9FD00000000000000000000000000000000000000000000000000FF00000000F9FD0000000000000000
310
0000000000000000000000000000000000FF00000000F9FF00000000000000000000000000000000000000000000000000FF00000000F9FD00000000000000000000000000000000000000000000000000FF00000000F9FF00000000000000000000000000000000000000000000000000FF00000000F9FD00000000000000
310
000000000000000000000000000000000000FF00000000F9FF00000000000000000000000000000000000000000000000000FF00000000F9FFFFFFFFFFFFFFFFFFFFFFFFFFFFFFFFFFFFFFFFFFFFFFFFFFFFFF00000000F9FFFFFFF9F9F9F9F9F9F9F9F9F9F9F9F9F9F9F9F9F9F9F9F9F9F9F9000000000000000000000000
310
00000000000000000000000000000000000000000000000000000000000000000000000000000000000000000000000000000000000000000000000000000000000000000000000000000000000000000000000000000000000000000000000000000000000000000000000000000000000000000000000000000000000000
310
0000000000000000000000000000000000000000000000000000000000000000000000000000000000000000000000000000000000000000
102
{BLKREFS
331
12DE1
102
}
1001
AcDbDynamicBlockGUID
1000
{864D103D-C22B-404D-93FE-B5197E8CC922}
1001
AcDbBlockRepETag
1070
     1
1071
      152
1001
ACAD
1000
DesignCenter Data
1002
{
1070
     1
1070
     4
1002
}
  0
BLOCK_RECORD
  5
3F0E6
330
1
100
AcDbSymbolTableRecord
100
AcDbBlockTableRecord
  2
*D2
340
0
  0
BLOCK_RECORD
  5
3F18F
330
1
100
AcDbSymbolTableRecord
100
AcDbBlockTableRecord
  2
*D3
340
0
  0
BLOCK_RECORD
  5
3F19B
330
1
100
AcDbSymbolTableRecord
100
AcDbBlockTableRecord
  2
*D4
340
0
  0
BLOCK_RECORD
  5
3F1A7
330
1
100
AcDbSymbolTableRecord
100
AcDbBlockTableRecord
  2
*D5
340
0
  0
BLOCK_RECORD
  5
3F1B4
330
1
100
AcDbSymbolTableRecord
100
AcDbBlockTableRecord
  2
*D6
340
0
  0
BLOCK_RECORD
  5
3F1E5
330
1
100
AcDbSymbolTableRecord
100
AcDbBlockTableRecord
  2
*D7
340
0
  0
BLOCK_RECORD
  5
3F7E5
330
1
100
AcDbSymbolTableRecord
100
AcDbBlockTableRecord
  2
*D8
340
0
  0
ENDTAB
  0
ENDSEC
  0
SECTION
  2
BLOCKS
  0
BLOCK
  5
20
330
1F
100
AcDbEntity
  8
0
100
AcDbBlockBegin
  2
*Model_Space
 70
     0
 10
0.0
 20
0.0
 30
0.0
  3
*Model_Space
  1

  0
ENDBLK
  5
21
330
1F
100
AcDbEntity
  8
0
100
AcDbBlockEnd
  0
BLOCK
  5
1C
330
1B
100
AcDbEntity
 67
     1
  8
0
100
AcDbBlockBegin
  2
*Paper_Space
 70
     0
 10
0.0
 20
0.0
 30
0.0
  3
*Paper_Space
  1

  0
ENDBLK
  5
1D
330
1B
100
AcDbEntity
 67
     1
  8
0
100
AcDbBlockEnd
  0
BLOCK
  5
24
330
23
100
AcDbEntity
 67
     1
  8
0
100
AcDbBlockBegin
  2
*Paper_Space0
 70
     0
 10
0.0
 20
0.0
 30
0.0
  3
*Paper_Space0
  1

  0
ENDBLK
  5
25
330
23
100
AcDbEntity
 67
     1
  8
0
100
AcDbBlockEnd
  0
BLOCK
  5
10FEA
330
10FE8
100
AcDbEntity
  8
0
100
AcDbBlockBegin
  2
A4图框-NEW
 70
     0
 10
0.0
 20
0.0
 30
0.0
  3
A4图框-NEW
  1

  0
MTEXT
  5
3FA65
102
{ACAD_XDICTIONARY
360
3FE0F
102
}
330
10FE8
100
AcDbEntity
  8
图框
 62
     3
100
AcDbMText
 10
967.6594956750133
 20
499.7664151964293
 30
0.0
 40
2.2528
 41
15.50176341157864
 71
     5
 72
     5
  1
HQ ZHANG
  7
Romans字体
 73
     1
 44
1.0
1001
AcDbBlockRepETag
1070
     1
1071
        0
1005
3FA65
1001
ACAD
1000
ACAD_MTEXT_DEFINED_HEIGHT_BEGIN
1070
    46
1040
6.292658374511018
1000
ACAD_MTEXT_DEFINED_HEIGHT_END
  0
MTEXT
  5
3FA66
330
10FE8
100
AcDbEntity
  8
图框
 62
     3
100
AcDbMText
 10
983.041569333247
 20
499.7664151964293
 30
0.0
 40
2.2528
 41
15.50176341157864
 71
     5
 72
     5
  1
{\W0.7;12.10.2014}
  7
Romans字体
 73
     1
 44
1.0
1001
AcDbBlockRepETag
1070
     1
1071
        1
1005
3FA66
1001
ACAD
1000
ACAD_MTEXT_DEFINED_HEIGHT_BEGIN
1070
    46
1040
6.292658374511042
1000
ACAD_MTEXT_DEFINED_HEIGHT_END
  0
MTEXT
  5
3FA67
330
10FE8
100
AcDbEntity
  8
图框
 62
     3
100
AcDbMText
 10
1012.477254728976
 20
487.1810984474071
 30
0.0
 40
2.2528
 41
15.50176341157864
 71
     5
 72
     5
  1
YY LUO
  7
Romans字体
 73
     1
 44
1.0
1001
AcDbBlockRepETag
1070
     1
1071
        2
1005
3FA67
1001
ACAD
1000
ACAD_MTEXT_DEFINED_HEIGHT_BEGIN
1070
    46
1040
6.292658374511455
1000
ACAD_MTEXT_DEFINED_HEIGHT_END
  0
MTEXT
  5
3FA68
330
10FE8
100
AcDbEntity
  8
图框
 62
     3
100
AcDbMText
 10
1063.722665487208
 20
525.4145966538831
 30
0.0
 40
2.2528
 41
15.50176341157864
 71
     5
 72
     5
  1
-
  7
Romans字体
 73
     1
 44
1.0
1001
AcDbBlockRepETag
1070
     1
1071
        4
1005
3FA68
1001
ACAD
1000
ACAD_MTEXT_DEFINED_HEIGHT_BEGIN
1070
    46
1040
11.82914190181707
1000
ACAD_MTEXT_DEFINED_HEIGHT_END
  0
MTEXT
  5
3FA69
330
10FE8
100
AcDbEntity
  8
图框
 62
     3
100
AcDbMText
 10
1063.727338552349
 20
513.5854547520641
 30
0.0
 40
2.2528
 41
15.50176341157864
 71
     5
 72
     5
  1
-
  7
Romans字体
 73
     1
 44
1.0
1001
AcDbBlockRepETag
1070
     1
1071
        5
1005
3FA69
1001
ACAD
1000
ACAD_MTEXT_DEFINED_HEIGHT_BEGIN
1070
    46
1040
11.82914190182139
1000
ACAD_MTEXT_DEFINED_HEIGHT_END
  0
MTEXT
  5
3FA6A
330
10FE8
100
AcDbEntity
  8
图框
 62
     3
100
AcDbMText
 10
1110.122306614152
 20
526.8006839312707
 30
0.0
 40
2.2528
 41
15.50176341157864
 71
     5
 72
     5
  1
-
  7
Romans字体
 73
     1
 44
1.0
1001
AcDbBlockRepETag
1070
     1
1071
        6
1005
3FA6A
1001
ACAD
1000
ACAD_MTEXT_DEFINED_HEIGHT_BEGIN
1070
    46
1040
9.05696734704178
1000
ACAD_MTEXT_DEFINED_HEIGHT_END
  0
MTEXT
  5
3FA6B
330
10FE8
100
AcDbEntity
  8
图框
 62
     3
100
AcDbMText
 10
1110.122306614152
 20
500.2775205517162
 30
0.0
 40
2.2528
 41
15.50176341157864
 71
     5
 72
     5
  1
-
  7
Romans字体
 73
     1
 44
1.0
1001
AcDbBlockRepETag
1070
     1
1071
        7
1005
3FA6B
1001
ACAD
1000
ACAD_MTEXT_DEFINED_HEIGHT_BEGIN
1070
    46
1040
8.871557304763419
1000
ACAD_MTEXT_DEFINED_HEIGHT_END
  0
MTEXT
  5
3FA6C
330
10FE8
100
AcDbEntity
  8
图框
 62
     3
100
AcDbMText
 10
967.6594956750133
 20
493.4737568219182
 30
0.0
 40
2.2528
 41
15.50176341157864
 71
     5
 72
     5
  1
ZM LIN
  7
Romans字体
 73
     1
 44
1.0
1001
AcDbBlockRepETag
1070
     1
1071
        8
1005
3FA6C
1001
ACAD
1000
ACAD_MTEXT_DEFINED_HEIGHT_BEGIN
1070
    46
1040
6.292658374510335
1000
ACAD_MTEXT_DEFINED_HEIGHT_END
  0
MTEXT
  5
3FA6D
330
10FE8
100
AcDbEntity
  8
图框
 62
     3
100
AcDbMText
 10
1012.477254728976
 20
499.7664151964291
 30
0.0
 40
2.2528
 41
15.50176341157864
 71
     5
 72
     5
  1
-
  7
Romans字体
 73
     1
 44
1.0
1001
AcDbBlockRepETag
1070
     1
1071
       10
1005
3FA6D
1001
ACAD
1000
ACAD_MTEXT_DEFINED_HEIGHT_BEGIN
1070
    46
1040
6.292658374511397
1000
ACAD_MTEXT_DEFINED_HEIGHT_END
  0
MTEXT
  5
3FA6E
330
10FE8
100
AcDbEntity
  8
图框
 62
     3
100
AcDbMText
 10
1028.977802139886
 20
499.7664151964289
 30
0.0
 40
2.2528
 41
15.50176341157864
 71
     5
 72
     5
  1
-
  7
Romans字体
 73
     1
 44
1.0
1001
AcDbBlockRepETag
1070
     1
1071
       11
1005
3FA6E
1001
ACAD
1000
ACAD_MTEXT_DEFINED_HEIGHT_BEGIN
1070
    46
1040
6.292658374511382
1000
ACAD_MTEXT_DEFINED_HEIGHT_END
  0
MTEXT
  5
3FA6F
330
10FE8
100
AcDbEntity
  8
图框
 62
     3
100
AcDbMText
 10
967.6594956750133
 20
487.1810984474071
 30
0.0
 40
2.985513575034151
 41
15.50176341157863
 71
     5
 72
     5
  1
-
  7
Romans字体
 73
     1
 44
1.0
1001
AcDbBlockRepETag
1070
     1
1071
       12
1005
3FA6F
1001
ACAD
1000
ACAD_MTEXT_DEFINED_HEIGHT_BEGIN
1070
    46
1040
6.292658374511478
1000
ACAD_MTEXT_DEFINED_HEIGHT_END
  0
MTEXT
  5
3FA70
330
10FE8
100
AcDbEntity
  8
图框
 62
     3
100
AcDbMText
 10
983.041569333247
 20
487.1810984474071
 30
0.0
 40
2.487927979195124
 41
15.26238390489062
 71
     5
 72
     5
  1
-
  7
Romans字体
 73
     1
 44
1.0
1001
AcDbBlockRepETag
1070
     1
1071
       13
1005
3FA70
1001
ACAD
1000
ACAD_MTEXT_DEFINED_HEIGHT_BEGIN
1070
    46
1040
6.292658374511495
1000
ACAD_MTEXT_DEFINED_HEIGHT_END
  0
MTEXT
  5
3FA71
330
10FE8
100
AcDbEntity
  8
图框
 62
     3
100
AcDbMText
 10
1074.556686986741
 20
495.8417418993361
 30
0.0
 40
2.2528
 41
15.50176341157864
 71
     5
 72
     5
  1
-
  7
Romans字体
 73
     1
 44
1.0
1001
AcDbBlockRepETag
1070
     1
1071
       14
1005
3FA71
1001
ACAD
1000
ACAD_MTEXT_DEFINED_HEIGHT_BEGIN
1070
    46
1040
7.886094601210427
1000
ACAD_MTEXT_DEFINED_HEIGHT_END
  0
LINE
  5
3FA72
330
10FE8
100
AcDbEntity
  8
图框
370
    -3
100
AcDbLine
 10
1036.653967466372
 20
499.7847891999413
 30
0.0
 11
1079.971361203936
 21
499.7847891999413
 31
0.0
1001
AcDbBlockRepETag
1070
     1
1071
       15
1005
3FA72
  0
MTEXT
  5
3FA73
330
10FE8
100
AcDbEntity
  8
图框
 62
     1
370
    20
100
AcDbMText
 10
1108.26336443907
 20
491.5162596080882
 30
0.0
 40
2.699054613030988
 41
82.30831305643079
 71
     5
 72
     5
  1
{\fSimHei|b0|i0|c134|p2;厦门唯恩电气有限公司}
 73
     1
 44
1.0
1001
AcDbBlockRepETag
1070
     1
1071
       16
1005
3FA73
  0
MTEXT
  5
3FA74
330
10FE8
100
AcDbEntity
  8
图框
 62
     3
370
    20
100
AcDbMText
 10
1108.435451459908
 20
487.298967726064
 30
0.0
 40
1.652482416141417
 41
68.08558693693567
 71
     5
 72
     5
  1
{\fArial Narrow|b0|i0|c0|p34;XIAMEN WAIN ELECTRICAL CO.LTD}
  7
工程字
 73
     1
 44
1.0
1001
AcDbBlockRepETag
1070
     1
1071
       17
1005
3FA74
  0
MTEXT
  5
3FA75
330
10FE8
100
AcDbEntity
  8
图框
 62
     1
370
    20
100
AcDbMText
 10
1085.711816899387
 20
491.0944802995856
 30
0.0
 40
2.005930044038334
 41
5.047240019334847
 71
     1
 72
     5
  1
{\fArial|b0|i0|c0|p34;A}
  7
Chinese
 73
     1
 44
1.0
1001
AcDbBlockRepETag
1070
     1
1071
       18
1005
3FA75
  0
MTEXT
  5
3FA76
330
10FE8
100
AcDbEntity
  8
图框
 62
     1
370
    20
100
AcDbMText
 10
1088.213485935716
 20
491.0944802995856
 30
0.0
 40
2.005930044038334
 41
5.047240019334847
 71
     1
 72
     5
  1
{\fArial|b0|i0|c0|p34;I}
  7
Chinese
 73
     1
 44
1.0
1001
AcDbBlockRepETag
1070
     1
1071
       19
1005
3FA76
  0
MTEXT
  5
3FA77
330
10FE8
100
AcDbEntity
  8
图框
 62
     1
370
    20
100
AcDbMText
 10
1089.142375222864
 20
491.0822866326808
 30
0.0
 40
2.005930044038334
 41
5.047240019334847
 71
     1
 72
     5
  1
{\fArial|b0|i0|c0|p34;N}
  7
Chinese
 73
     1
 44
1.0
1001
AcDbBlockRepETag
1070
     1
1071
       20
1005
3FA77
  0
MTEXT
  5
3FA78
330
10FE8
100
AcDbEntity
  8
图框
100
AcDbMText
 10
1069.142012769545
 20
487.9667319294409
 30
0.0
 40
2.252848170144607
 41
21.65869686878327
 71
     5
 72
     5
  1
{\W0.5;\C1;All Dimensions in mm\POriginal Size DIN A 4}
  7
Romans字体
 73
     1
 44
1.0
1001
AcDbBlockRepETag
1070
     1
1071
       21
1005
3FA78
1001
ACAD
1000
ACAD_MTEXT_DEFINED_HEIGHT_BEGIN
1070
    46
1040
7.863925338579296
1000
ACAD_MTEXT_DEFINED_HEIGHT_END
  0
MTEXT
  5
3FA79
330
10FE8
100
AcDbEntity
  8
图框
  6
ByBlock
 62
     6
370
    18
100
AcDbMText
 10
1127.40434942308
 20
508.7896535755975
 30
0.0
 40
2.651776162684904
 41
2.557913877927211
 71
     1
 72
     5
  1
A
  7
Romans字体
 11
0.0000000000000001
 21
1.0
 31
0.0
 73
     1
 44
1.0
1001
AcDbBlockRepETag
1070
     1
1071
       22
1005
3FA79
  0
MTEXT
  5
3FA7A
330
10FE8
100
AcDbEntity
  8
图框
 62
     6
100
AcDbMText
 10
1127.40434942308
 20
556.3746573232886
 30
0.0
 40
2.651776162684904
 41
2.557913877927211
 71
     1
 72
     5
  1
B
  7
Romans字体
 11
0.0000000000000001
 21
1.0
 31
0.0
 73
     1
 44
1.0
1001
AcDbBlockRepETag
1070
     1
1071
       23
1005
3FA7A
  0
MTEXT
  5
3FA7B
330
10FE8
100
AcDbEntity
  8
图框
 62
     6
100
AcDbMText
 10
1127.40434942308
 20
607.5539372630998
 30
0.0
 40
2.651776162684904
 41
2.557913877927211
 71
     1
 72
     5
  1
C
  7
Romans字体
 11
0.0000000000000001
 21
1.0
 31
0.0
 73
     1
 44
1.0
1001
AcDbBlockRepETag
1070
     1
1071
       24
1005
3FA7B
  0
MTEXT
  5
3FA7C
330
10FE8
100
AcDbEntity
  8
图框
 62
     6
100
AcDbMText
 10
1127.40434942308
 20
658.7332172029115
 30
0.0
 40
2.651776162684904
 41
2.557913877927211
 71
     1
 72
     5
  1
D
  7
Romans字体
 11
0.0000000000000001
 21
1.0
 31
0.0
 73
     1
 44
1.0
1001
AcDbBlockRepETag
1070
     1
1071
       25
1005
3FA7C
  0
LINE
  5
3FA7D
330
10FE8
100
AcDbEntity
  8
图框
 62
     6
100
AcDbLine
 10
1130.411601781241
 20
634.0726090796082
 30
0.0
 11
1126.928502610363
 21
634.0726090796082
 31
0.0
1001
AcDbBlockRepETag
1070
     1
1071
       26
1005
3FA7D
  0
LINE
  5
3FA7E
330
10FE8
100
AcDbEntity
  8
图框
 62
     6
100
AcDbLine
 10
1130.411601781241
 20
582.89332913979
 30
0.0
 11
1126.928502610363
 21
582.89332913979
 31
0.0
1001
AcDbBlockRepETag
1070
     1
1071
       27
1005
3FA7E
  0
MTEXT
  5
3FA7F
330
10FE8
100
AcDbEntity
  8
图框
 62
     6
100
AcDbMText
 10
1105.329704038389
 20
483.6164543011163
 30
0.0
 40
2.651776162684904
 41
2.557913877927211
 71
     1
 72
     5
  1
6
  7
Romans字体
 73
     1
 44
1.0
1001
AcDbBlockRepETag
1070
     1
1071
       28
1005
3FA7F
  0
LINE
  5
3FA80
330
10FE8
100
AcDbEntity
  8
图框
 62
     6
100
AcDbLine
 10
1081.088565155284
 20
484.0347692601515
 30
0.0
 11
1081.088565155284
 21
480.5347692601475
 31
0.0
1001
AcDbBlockRepETag
1070
     1
1071
       29
1005
3FA80
  0
MTEXT
  5
3FA81
330
10FE8
100
AcDbEntity
  8
图框
 62
     6
100
AcDbMText
 10
1055.900596365941
 20
483.520053108993
 30
0.0
 40
2.651776162684904
 41
2.557913877927211
 71
     1
 72
     5
  1
5
  7
Romans字体
 73
     1
 44
1.0
1001
AcDbBlockRepETag
1070
     1
1071
       30
1005
3FA81
  0
LINE
  5
3FA82
330
10FE8
100
AcDbEntity
  8
图框
 62
     6
100
AcDbLine
 10
1031.553386436349
 20
484.0347692601515
 30
0.0
 11
1031.553386436349
 21
480.5347692601475
 31
0.0
1001
AcDbBlockRepETag
1070
     1
1071
       31
1005
3FA82
  0
MTEXT
  5
3FA83
330
10FE8
100
AcDbEntity
  8
图框
 62
     6
100
AcDbMText
 10
1006.383180575197
 20
483.5687958215896
 30
0.0
 40
2.651776162684904
 41
2.557913877927211
 71
     1
 72
     5
  1
4
  7
Romans字体
 73
     1
 44
1.0
1001
AcDbBlockRepETag
1070
     1
1071
       32
1005
3FA83
  0
LINE
  5
3FA84
330
10FE8
100
AcDbEntity
  8
图框
 62
     6
100
AcDbLine
 10
982.0182077173887
 20
484.0347692601515
 30
0.0
 11
982.0182077173887
 21
480.5347692601475
 31
0.0
1001
AcDbBlockRepETag
1070
     1
1071
       33
1005
3FA84
  0
MTEXT
  5
3FA85
330
10FE8
100
AcDbEntity
  8
图框
 62
     6
100
AcDbMText
 10
956.8302389280352
 20
483.5989680297948
 30
0.0
 40
2.651776162684904
 41
2.557913877927211
 71
     1
 72
     5
  1
3
  7
Romans字体
 73
     1
 44
1.0
1001
AcDbBlockRepETag
1070
     1
1071
       34
1005
3FA85
  0
LINE
  5
3FA86
330
10FE8
100
AcDbEntity
  8
图框
 62
     6
100
AcDbLine
 10
932.4830289984245
 20
484.0347692601515
 30
0.0
 11
932.4830289984245
 21
480.5347692601475
 31
0.0
1001
AcDbBlockRepETag
1070
     1
1071
       35
1005
3FA86
  0
MTEXT
  5
3FA87
330
10FE8
100
AcDbEntity
  8
图框
 62
     6
100
AcDbMText
 10
906.0252349826365
 20
483.6475250013156
 30
0.0
 40
2.651776162684904
 41
2.557913877927211
 71
     1
 72
     5
  1
2
  7
Romans字体
 73
     1
 44
1.0
1001
AcDbBlockRepETag
1070
     1
1071
       36
1005
3FA87
  0
LINE
  5
3FA88
330
10FE8
100
AcDbEntity
  8
图框
 62
     6
100
AcDbLine
 10
882.9478502794648
 20
484.0347692601515
 30
0.0
 11
882.9478502794648
 21
480.5347692601475
 31
0.0
1001
AcDbBlockRepETag
1070
     1
1071
       37
1005
3FA88
  0
MTEXT
  5
3FA89
330
10FE8
100
AcDbEntity
  8
图框
 62
     6
100
AcDbMText
 10
857.7598814901191
 20
483.651829494754
 30
0.0
 40
2.651776162684904
 41
2.557913877927211
 71
     1
 72
     5
  1
1
  7
Romans字体
 73
     1
 44
1.0
1001
AcDbBlockRepETag
1070
     1
1071
       38
1005
3FA89
  0
LINE
  5
3FA8A
330
10FE8
100
AcDbEntity
  8
图框
370
    50
100
AcDbLine
 10
836.8548209370597
 20
484.0347692601515
 30
0.0
 11
1126.928502610363
 21
484.0347692601515
 31
0.0
1001
AcDbBlockRepETag
1070
     1
1071
       39
1005
3FA8A
  0
LINE
  5
3FA8B
330
10FE8
100
AcDbEntity
  8
图框
370
    50
100
AcDbLine
 10
836.9128518455362
 20
484.0178684310246
 30
0.0
 11
836.9128518455394
 21
675.0207195125422
 31
0.0
1001
AcDbBlockRepETag
1070
     1
1071
       40
1005
3FA8B
  0
MTEXT
  5
3FA8C
330
10FE8
100
AcDbEntity
  8
图框
 62
     6
100
AcDbMText
 10
833.8475685789031
 20
658.7332172029115
 30
0.0
 40
2.651776162684904
 41
2.557913877927211
 71
     1
 72
     5
  1
D
  7
Romans字体
 11
0.0000000000000001
 21
1.0
 31
0.0
 73
     1
 44
1.0
1001
AcDbBlockRepETag
1070
     1
1071
       41
1005
3FA8C
  0
LINE
  5
3FA8D
330
10FE8
100
AcDbEntity
  8
图框
 62
     6
100
AcDbLine
 10
836.9128518455386
 20
634.0726090796082
 30
0.0
 11
833.4128518455365
 21
634.0726090796082
 31
0.0
1001
AcDbBlockRepETag
1070
     1
1071
       42
1005
3FA8D
  0
MTEXT
  5
3FA8E
330
10FE8
100
AcDbEntity
  8
图框
 62
     6
100
AcDbMText
 10
833.9039177480142
 20
607.5539372630998
 30
0.0
 40
2.651776162684904
 41
2.557913877927211
 71
     1
 72
     5
  1
C
  7
Romans字体
 11
0.0000000000000001
 21
1.0
 31
0.0
 73
     1
 44
1.0
1001
AcDbBlockRepETag
1070
     1
1071
       43
1005
3FA8E
  0
LINE
  5
3FA8F
330
10FE8
100
AcDbEntity
  8
图框
 62
     6
100
AcDbLine
 10
836.9128518455378
 20
582.89332913979
 30
0.0
 11
833.4128518455365
 21
582.89332913979
 31
0.0
1001
AcDbBlockRepETag
1070
     1
1071
       44
1005
3FA8F
  0
MTEXT
  5
3FA90
330
10FE8
100
AcDbEntity
  8
图框
 62
     6
100
AcDbMText
 10
833.9039177480142
 20
556.3746573232886
 30
0.0
 40
2.651776162684904
 41
2.557913877927211
 71
     1
 72
     5
  1
B
  7
Romans字体
 11
0.0000000000000001
 21
1.0
 31
0.0
 73
     1
 44
1.0
1001
AcDbBlockRepETag
1070
     1
1071
       45
1005
3FA90
  0
LINE
  5
3FA91
330
10FE8
100
AcDbEntity
  8
图框
 62
     6
100
AcDbLine
 10
836.9128518455367
 20
531.714049199969
 30
0.0
 11
833.4128518455365
 21
531.714049199969
 31
0.0
1001
AcDbBlockRepETag
1070
     1
1071
       46
1005
3FA91
  0
MTEXT
  5
3FA92
330
10FE8
100
AcDbEntity
  8
图框
 62
     6
100
AcDbMText
 10
833.9039177480142
 20
508.7896535755975
 30
0.0
 40
2.651776162684904
 41
2.557913877927211
 71
     1
 72
     5
  1
A
  7
Romans字体
 11
0.0000000000000001
 21
1.0
 31
0.0
 73
     1
 44
1.0
1001
AcDbBlockRepETag
1070
     1
1071
       47
1005
3FA92
  0
LINE
  5
3FA93
330
10FE8
100
AcDbEntity
  8
图框
370
    -3
100
AcDbLine
 10
836.9128518455394
 20
675.0207195125422
 30
0.0
 11
836.9128518455394
 21
684.5021384922564
 31
0.0
1001
AcDbBlockRepETag
1070
     1
1071
       48
1005
3FA93
  0
LINE
  5
3FA94
330
10FE8
100
AcDbEntity
  8
图框
370
    -3
100
AcDbLine
 10
842.6237321475781
 20
675.5347692601515
 30
0.0
 11
842.6237321475781
 21
685.0161882398658
 31
0.0
1001
AcDbBlockRepETag
1070
     1
1071
       49
1005
3FA94
  0
LINE
  5
3FA95
330
10FE8
100
AcDbEntity
  8
图框
370
    -3
100
AcDbLine
 10
848.3346124496179
 20
675.5347692601515
 30
0.0
 11
848.3346124496179
 21
685.0161882398658
 31
0.0
1001
AcDbBlockRepETag
1070
     1
1071
       50
1005
3FA95
  0
LINE
  5
3FA96
330
10FE8
100
AcDbEntity
  8
图框
370
    -3
100
AcDbLine
 10
854.0454927516588
 20
675.5347692601515
 30
0.0
 11
854.0454927516588
 21
685.0161882398658
 31
0.0
1001
AcDbBlockRepETag
1070
     1
1071
       51
1005
3FA96
  0
LINE
  5
3FA97
330
10FE8
100
AcDbEntity
  8
图框
370
    -3
100
AcDbLine
 10
861.5351874539182
 20
675.5347692601515
 30
0.0
 11
861.5351874539182
 21
686.7901958362482
 31
0.0
1001
AcDbBlockRepETag
1070
     1
1071
       52
1005
3FA97
  0
MTEXT
  5
3FA98
330
10FE8
100
AcDbEntity
  8
图框
 62
     6
100
AcDbMText
 10
1105.329704038389
 20
678.859919059449
 30
0.0
 40
2.651776162684904
 41
2.557913877927211
 71
     1
 72
     5
  1
6
  7
Romans字体
 73
     1
 44
1.0
1001
AcDbBlockRepETag
1070
     1
1071
       53
1005
3FA98
  0
LINE
  5
3FA99
330
10FE8
100
AcDbEntity
  8
图框
 62
     6
100
AcDbLine
 10
1081.088565155284
 20
679.0347692601516
 30
0.0
 11
1081.088565155284
 21
675.5347692601515
 31
0.0
1001
AcDbBlockRepETag
1070
     1
1071
       54
1005
3FA99
  0
MTEXT
  5
3FA9A
330
10FE8
100
AcDbEntity
  8
图框
 62
     6
100
AcDbMText
 10
1055.900596365941
 20
678.859919059449
 30
0.0
 40
2.651776162684904
 41
2.557913877927211
 71
     1
 72
     5
  1
5
  7
Romans字体
 73
     1
 44
1.0
1001
AcDbBlockRepETag
1070
     1
1071
       55
1005
3FA9A
  0
LINE
  5
3FA9B
330
10FE8
100
AcDbEntity
  8
图框
 62
     6
100
AcDbLine
 10
1031.553386436349
 20
679.0347692601516
 30
0.0
 11
1031.553386436349
 21
675.5347692601515
 31
0.0
1001
AcDbBlockRepETag
1070
     1
1071
       56
1005
3FA9B
  0
MTEXT
  5
3FA9C
330
10FE8
100
AcDbEntity
  8
图框
 62
     6
100
AcDbMText
 10
1006.36541764698
 20
678.7312083656147
 30
0.0
 40
2.651776162684904
 41
2.557913877927211
 71
     1
 72
     5
  1
4
  7
Romans字体
 73
     1
 44
1.0
1001
AcDbBlockRepETag
1070
     1
1071
       57
1005
3FA9C
  0
LINE
  5
3FA9D
330
10FE8
100
AcDbEntity
  8
图框
 62
     6
100
AcDbLine
 10
982.0182077173887
 20
679.0347692601516
 30
0.0
 11
982.0182077173887
 21
675.5347692601515
 31
0.0
1001
AcDbBlockRepETag
1070
     1
1071
       58
1005
3FA9D
  0
MTEXT
  5
3FA9E
330
10FE8
100
AcDbEntity
  8
图框
 62
     6
100
AcDbMText
 10
956.8302389280352
 20
678.859919059449
 30
0.0
 40
2.651776162684904
 41
2.557913877927211
 71
     1
 72
     5
  1
3
  7
Romans字体
 73
     1
 44
1.0
1001
AcDbBlockRepETag
1070
     1
1071
       59
1005
3FA9E
  0
LINE
  5
3FA9F
330
10FE8
100
AcDbEntity
  8
图框
 62
     6
100
AcDbLine
 10
932.4830289984245
 20
679.0347692601516
 30
0.0
 11
932.4830289984245
 21
675.5347692601515
 31
0.0
1001
AcDbBlockRepETag
1070
     1
1071
       60
1005
3FA9F
  0
MTEXT
  5
3FAA0
330
10FE8
100
AcDbEntity
  8
图框
 62
     6
100
AcDbMText
 10
907.295060209082
 20
678.859919059449
 30
0.0
 40
2.651776162684904
 41
2.557913877927211
 71
     1
 72
     5
  1
2
  7
Romans字体
 73
     1
 44
1.0
1001
AcDbBlockRepETag
1070
     1
1071
       61
1005
3FAA0
  0
LINE
  5
3FAA1
330
10FE8
100
AcDbEntity
  8
图框
 62
     6
100
AcDbLine
 10
882.9478502794648
 20
678.7962435131815
 30
0.0
 11
882.9478502794648
 21
675.5347692601515
 31
0.0
1001
AcDbBlockRepETag
1070
     1
1071
       62
1005
3FAA1
  0
MTEXT
  5
3FAA2
330
10FE8
100
AcDbEntity
  8
图框
 62
     6
100
AcDbMText
 10
862.6286629643733
 20
678.859919059449
 30
0.0
 40
2.651776162684904
 41
2.557913877927211
 71
     1
 72
     5
  1
1
  7
Romans字体
 73
     1
 44
1.0
1001
AcDbBlockRepETag
1070
     1
1071
       63
1005
3FAA2
  0
LINE
  5
3FAA3
330
10FE8
100
AcDbEntity
  8
图框
370
    -3
100
AcDbLine
 10
836.9128518455394
 20
675.0207195125422
 30
0.0
 11
836.9128518455394
 21
686.7901958362482
 31
0.0
1001
AcDbBlockRepETag
1070
     1
1071
       64
1005
3FAA3
  0
LINE
  5
3FAA4
330
10FE8
100
AcDbEntity
  8
图框
370
    50
100
AcDbLine
 10
836.9128518455394
 20
675.5347692601515
 30
0.0
 11
1126.928502610363
 21
675.5347692601515
 31
0.0
1001
AcDbBlockRepETag
1070
     1
1071
       65
1005
3FAA4
  0
LINE
  5
3FAA5
330
10FE8
100
AcDbEntity
  8
图框
370
    -3
100
AcDbLine
 10
842.6237321475781
 20
675.5347692601515
 30
0.0
 11
842.6237321475781
 21
686.7901958362482
 31
0.0
1001
AcDbBlockRepETag
1070
     1
1071
       66
1005
3FAA5
  0
LINE
  5
3FAA6
330
10FE8
100
AcDbEntity
  8
图框
370
    -3
100
AcDbLine
 10
848.3346124496179
 20
675.5347692601515
 30
0.0
 11
848.3346124496179
 21
686.7901958362482
 31
0.0
1001
AcDbBlockRepETag
1070
     1
1071
       67
1005
3FAA6
  0
MTEXT
  5
3FAA7
102
{ACAD_XDICTIONARY
360
3FE11
102
}
330
10FE8
100
AcDbEntity
  8
图框
100
AcDbMText
 10
857.7903401027889
 20
686.7901958362482
 30
0.0
 40
1.958998408821398
 41
11.25542657609672
 71
     4
 72
     5
  1
\pi2.8203;档案员{\H0.7x;\P\pi1.4159;\Fromans|c134;Filing Clerk\fFangSong_GB2312|b0|i0|c134|p49; }
 11
-0.0000000000000002
 21
-1.0
 31
0.0
 73
     1
 44
1.0
1001
AcDbBlockRepETag
1070
     1
1071
       68
1005
3FAA7
1001
ACAD
1000
ACAD_MTEXT_DEFINED_HEIGHT_BEGIN
1070
    46
1040
7.489694702258906
1000
ACAD_MTEXT_DEFINED_HEIGHT_END
  0
MTEXT
  5
3FAA8
102
{ACAD_XDICTIONARY
360
3FE13
102
}
330
10FE8
100
AcDbEntity
  8
图框
100
AcDbMText
 10
845.479172298598
 20
686.7901958362482
 30
0.0
 40
1.958998408821398
 41
11.25542657609672
 71
     4
 72
     5
  1
\pi0.7115;日期{\Fromans|c134;/Date}
 11
-0.0000000000000002
 21
-1.0
 31
0.0
 73
     1
 44
1.0
1001
AcDbBlockRepETag
1070
     1
1071
       69
1005
3FAA8
1001
ACAD
1000
ACAD_MTEXT_DEFINED_HEIGHT_BEGIN
1070
    46
1040
5.710880302039671
1000
ACAD_MTEXT_DEFINED_HEIGHT_END
  0
LINE
  5
3FAA9
330
10FE8
100
AcDbEntity
  8
图框
370
    -3
100
AcDbLine
 10
854.0454927516588
 20
675.5347692601515
 30
0.0
 11
854.0454927516588
 21
686.7901958362482
 31
0.0
1001
AcDbBlockRepETag
1070
     1
1071
       70
1005
3FAA9
  0
LINE
  5
3FAAA
330
10FE8
100
AcDbEntity
  8
图框
370
    -3
100
AcDbLine
 10
1036.653967466372
 20
531.3291676047914
 30
0.0
 11
1036.653967466372
 21
484.0126019753161
 31
0.0
1001
AcDbBlockRepETag
1070
     1
1071
       71
1005
3FAAA
  0
LINE
  5
3FAAB
330
10FE8
100
AcDbEntity
  8
图框
370
    -3
100
AcDbLine
 10
1047.483315900763
 20
507.6708838011533
 30
0.0
 11
1047.483315900763
 21
491.8986945987308
 31
0.0
1001
AcDbBlockRepETag
1070
     1
1071
       72
1005
3FAAB
  0
LINE
  5
3FAAC
330
10FE8
100
AcDbEntity
  8
图框
370
    -3
100
AcDbLine
 10
1058.312664335153
 20
507.6708838011533
 30
0.0
 11
1058.312664335153
 21
484.0347692601515
 31
0.0
1001
AcDbBlockRepETag
1070
     1
1071
       73
1005
3FAAC
  0
LINE
  5
3FAAD
330
10FE8
100
AcDbEntity
  8
图框
370
    25
100
AcDbLine
 10
1048.474135214456
 20
488.1095628329926
 30
0.0
 11
1054.946420288459
 21
488.1095628329926
 31
0.0
1001
AcDbBlockRepETag
1070
     1
1071
       74
1005
3FAAD
  0
LINE
  5
3FAAE
330
10FE8
100
AcDbEntity
  8
图框
370
    25
100
AcDbLine
 10
1054.232527365989
 20
487.0761716842634
 30
0.0
 11
1049.156490914508
 21
486.4576273751
 31
0.0
1001
AcDbBlockRepETag
1070
     1
1071
       75
1005
3FAAE
  0
LINE
  5
3FAAF
330
10FE8
100
AcDbEntity
  8
图框
370
    25
100
AcDbLine
 10
1054.232527365989
 20
489.1429539817209
 30
0.0
 11
1049.156490914508
 21
489.7614982908846
 31
0.0
1001
AcDbBlockRepETag
1070
     1
1071
       76
1005
3FAAF
  0
LINE
  5
3FAB0
330
10FE8
100
AcDbEntity
  8
图框
370
    25
100
AcDbLine
 10
1049.156490914508
 20
489.7614982908846
 30
0.0
 11
1049.156490914508
 21
486.4576273751
 31
0.0
1001
AcDbBlockRepETag
1070
     1
1071
       77
1005
3FAB0
  0
LINE
  5
3FAB1
330
10FE8
100
AcDbEntity
  8
图框
370
    25
100
AcDbLine
 10
1054.232527365989
 20
489.1429539817209
 30
0.0
 11
1054.232527365989
 21
487.0761716842634
 31
0.0
1001
AcDbBlockRepETag
1070
     1
1071
       78
1005
3FAB1
  0
CIRCLE
  5
3FAB2
330
10FE8
100
AcDbEntity
  8
图框
370
    25
100
AcDbCircle
 10
1042.502700458579
 20
488.1095628329926
 30
0.0
 40
1.651935457891863
1001
AcDbBlockRepETag
1070
     1
1071
       79
1005
3FAB2
  0
CIRCLE
  5
3FAB3
330
10FE8
100
AcDbEntity
  8
图框
370
    25
100
AcDbCircle
 10
1042.502700458579
 20
488.1095628329926
 30
0.0
 40
1.033391148728775
1001
AcDbBlockRepETag
1070
     1
1071
       80
1005
3FAB3
  0
LINE
  5
3FAB4
330
10FE8
100
AcDbEntity
  8
图框
370
    25
100
AcDbLine
 10
1040.136872078216
 20
488.1095628329926
 30
0.0
 11
1044.868528838943
 21
488.1095628329926
 31
0.0
1001
AcDbBlockRepETag
1070
     1
1071
       81
1005
3FAB4
  0
LINE
  5
3FAB5
330
10FE8
100
AcDbEntity
  8
图框
370
    25
100
AcDbLine
 10
1042.502700458579
 20
490.475391213355
 30
0.0
 11
1042.502700458579
 21
485.743734452629
 31
0.0
1001
AcDbBlockRepETag
1070
     1
1071
       82
1005
3FAB5
  0
LINE
  5
3FAB6
330
10FE8
100
AcDbEntity
  8
图框
370
    -3
100
AcDbLine
 10
1069.142012769546
 20
507.6708838011533
 30
0.0
 11
1069.142012769546
 21
491.8986945987308
 31
0.0
1001
AcDbBlockRepETag
1070
     1
1071
       83
1005
3FAB6
  0
MTEXT
  5
3FAB7
330
10FE8
100
AcDbEntity
  8
图框
100
AcDbMText
 10
1086.643735910939
 20
526.8006839312707
 30
0.0
 40
2.154898249703542
 41
13.34474941400573
 71
     5
 72
     5
  1
图号{\Ftxt|c134;\P\Fromans|c134;\W0.65;Drawing No.}
 73
     1
 44
1.0
1001
AcDbBlockRepETag
1070
     1
1071
       84
1005
3FAB7
1001
ACAD
1000
ACAD_MTEXT_DEFINED_HEIGHT_BEGIN
1070
    46
1040
9.056967347041776
1000
ACAD_MTEXT_DEFINED_HEIGHT_END
  0
LINE
  5
3FAB8
330
10FE8
100
AcDbEntity
  8
图框
370
    -3
100
AcDbLine
 10
1093.316110617942
 20
531.3291676047914
 30
0.0
 11
1093.316110617942
 21
495.8417418993347
 31
0.0
1001
AcDbBlockRepETag
1070
     1
1071
       85
1005
3FAB8
  0
LINE
  5
3FAB9
330
10FE8
100
AcDbEntity
  8
图框
370
    -3
100
AcDbLine
 10
1047.473969770481
 20
531.3291676047914
 30
0.0
 11
1047.473969770481
 21
507.6708838011533
 31
0.0
1001
AcDbBlockRepETag
1070
     1
1071
       86
1005
3FAB9
  0
MTEXT
  5
3FABA
330
10FE8
100
AcDbEntity
  8
图框
100
AcDbMText
 10
1063.72733855235
 20
503.7278365005473
 30
0.0
 40
2.252848170144607
 41
10.82934843439208
 71
     5
 72
     5
  1
重量\P{\Fromans|c134;Weight}
 73
     1
 44
1.0
1001
AcDbBlockRepETag
1070
     1
1071
       87
1005
3FABA
1001
ACAD
1000
ACAD_MTEXT_DEFINED_HEIGHT_BEGIN
1070
    46
1040
7.886094601212128
1000
ACAD_MTEXT_DEFINED_HEIGHT_END
  0
LINE
  5
3FABB
330
10FE8
100
AcDbEntity
  8
图框
370
    -3
100
AcDbLine
 10
1036.653967466372
 20
519.5000257029746
 30
0.0
 11
1079.971361203936
 21
519.5000257029746
 31
0.0
1001
AcDbBlockRepETag
1070
     1
1071
       88
1005
3FABB
  0
MTEXT
  5
3FABC
330
10FE8
100
AcDbEntity
  8
图框
100
AcDbMText
 10
1074.556686986741
 20
503.7278365005473
 30
0.0
 40
2.252848170144607
 41
10.82934843438984
 71
     5
 72
     5
  1
数量\P{\Fromans|c134;Qty.}
 73
     1
 44
1.0
1001
AcDbBlockRepETag
1070
     1
1071
       89
1005
3FABC
1001
ACAD
1000
ACAD_MTEXT_DEFINED_HEIGHT_BEGIN
1070
    46
1040
7.886094601212141
1000
ACAD_MTEXT_DEFINED_HEIGHT_END
  0
LINE
  5
3FABD
330
10FE8
100
AcDbEntity
  8
图框
370
    -3
100
AcDbLine
 10
1079.971361203936
 20
495.8417418993347
 30
0.0
 11
1126.928502610363
 21
495.8417418993342
 31
0.0
1001
AcDbBlockRepETag
1070
     1
1071
       90
1005
3FABD
  0
LINE
  5
3FABE
330
10FE8
100
AcDbEntity
  8
图框
370
    -3
100
AcDbLine
 10
1079.971361203936
 20
504.7132992040975
 30
0.0
 11
1126.928502610363
 21
504.7132992040975
 31
0.0
1001
AcDbBlockRepETag
1070
     1
1071
       91
1005
3FABE
  0
MTEXT
  5
3FABF
330
10FE8
100
AcDbEntity
  8
图框
100
AcDbMText
 10
1052.893317052817
 20
503.7278365005473
 30
0.0
 40
2.252848170144607
 41
10.83869456467139
 71
     5
 72
     5
  1
版本\P{\Fromans|c134;REV.}
 73
     1
 44
1.0
1001
AcDbBlockRepETag
1070
     1
1071
       92
1005
3FABF
1001
ACAD
1000
ACAD_MTEXT_DEFINED_HEIGHT_BEGIN
1070
    46
1040
7.886094601212101
1000
ACAD_MTEXT_DEFINED_HEIGHT_END
  0
MTEXT
  5
3FAC0
330
10FE8
100
AcDbEntity
  8
图框
100
AcDbMText
 10
1042.068641683568
 20
503.7278365005473
 30
0.0
 40
2.252848170144607
 41
10.8293484343908
 71
     5
 72
     5
  1
比例\P{\Fromans|c134;Scale}
 73
     1
 44
1.0
1001
AcDbBlockRepETag
1070
     1
1071
       93
1005
3FAC0
1001
ACAD
1000
ACAD_MTEXT_DEFINED_HEIGHT_BEGIN
1070
    46
1040
7.886094601212136
1000
ACAD_MTEXT_DEFINED_HEIGHT_END
  0
LINE
  5
3FAC1
330
10FE8
100
AcDbEntity
  8
图框
370
    -3
100
AcDbLine
 10
1036.653967466372
 20
507.6708838011533
 30
0.0
 11
1079.971361203936
 21
507.6708838011533
 31
0.0
1001
AcDbBlockRepETag
1070
     1
1071
       94
1005
3FAC1
  0
LINE
  5
3FAC2
330
10FE8
100
AcDbEntity
  8
图框
370
    -3
100
AcDbLine
 10
1036.653967466372
 20
491.8986945987308
 30
0.0
 11
1079.971361203936
 21
491.8986945987308
 31
0.0
1001
AcDbBlockRepETag
1070
     1
1071
       95
1005
3FAC2
  0
LINE
  5
3FAC3
330
10FE8
100
AcDbEntity
  8
图框
370
    -3
100
AcDbLine
 10
1079.971361203936
 20
531.3291676047914
 30
0.0
 11
1079.971361203936
 21
484.0125999975168
 31
0.0
1001
AcDbBlockRepETag
1070
     1
1071
       96
1005
3FAC3
  0
MTEXT
  5
3FAC4
330
10FE8
100
AcDbEntity
  8
图框
100
AcDbMText
 10
1042.063968618426
 20
525.4145966538832
 30
0.0
 40
2.252848170144607
 41
10.82000230410933
 71
     5
 72
     5
  1
表面处理\P{\Fromans|c134;Finish}
 73
     1
 44
1.0
1001
AcDbBlockRepETag
1070
     1
1071
       97
1005
3FAC4
1001
ACAD
1000
ACAD_MTEXT_DEFINED_HEIGHT_BEGIN
1070
    46
1040
11.82914190181708
1000
ACAD_MTEXT_DEFINED_HEIGHT_END
  0
MTEXT
  5
3FAC5
330
10FE8
100
AcDbEntity
  8
图框
100
AcDbMText
 10
1042.063968618426
 20
513.5854547520639
 30
0.0
 40
2.252848170144607
 41
10.82000230410933
 71
     5
 72
     5
  1
材料\P{\Fromans|c134;Material}
 73
     1
 44
1.0
1001
AcDbBlockRepETag
1070
     1
1071
       98
1005
3FAC5
1001
ACAD
1000
ACAD_MTEXT_DEFINED_HEIGHT_BEGIN
1070
    46
1040
11.8291419018212
1000
ACAD_MTEXT_DEFINED_HEIGHT_END
  0
LINE
  5
3FAC6
330
10FE8
100
AcDbEntity
  8
图框
370
    -3
100
AcDbLine
 10
1079.971361203936
 20
522.27220025775
 30
0.0
 11
1126.928502610363
 21
522.27220025775
 31
0.0
1001
AcDbBlockRepETag
1070
     1
1071
       99
1005
3FAC6
  0
LINE
  5
3FAC7
330
10FE8
100
AcDbEntity
  8
图框
370
    -3
100
AcDbLine
 10
1079.971361203936
 20
513.5854547520641
 30
0.0
 11
1126.928502610363
 21
513.5854547520639
 31
0.0
1001
AcDbBlockRepETag
1070
     1
1071
      100
1005
3FAC7
  0
MTEXT
  5
3FAC8
330
10FE8
100
AcDbEntity
  8
图框
100
AcDbMText
 10
1086.643735910939
 20
517.9288275049072
 30
0.0
 40
1.958998408821398
 41
13.34474941400573
 71
     5
 72
     5
  1
产品代号\P{\Fromans|c134;Part Code}
 73
     1
 44
1.0
1001
AcDbBlockRepETag
1070
     1
1071
      101
1005
3FAC8
1001
ACAD
1000
ACAD_MTEXT_DEFINED_HEIGHT_BEGIN
1070
    46
1040
8.686745505685811
1000
ACAD_MTEXT_DEFINED_HEIGHT_END
  0
LINE
  5
3FAC9
330
10FE8
100
AcDbEntity
  8
图框
370
    -3
100
AcDbLine
 10
946.9285026103634
 20
525.7982263931411
 30
0.0
 11
1036.653967466372
 21
525.7982263931411
 31
0.0
1001
AcDbBlockRepETag
1070
     1
1071
      102
1005
3FAC9
  0
LINE
  5
3FACA
330
10FE8
100
AcDbEntity
  8
图框
370
    -3
100
AcDbLine
 10
946.9285026103634
 20
520.2672851814959
 30
0.0
 11
1036.653967466372
 21
520.2672851814959
 31
0.0
1001
AcDbBlockRepETag
1070
     1
1071
      103
1005
3FACA
  0
LINE
  5
3FACB
330
10FE8
100
AcDbEntity
  8
图框
370
    35
100
AcDbLine
 10
946.9285026103634
 20
531.3291676047914
 30
0.0
 11
1126.928502610363
 21
531.3291676047914
 31
0.0
1001
AcDbBlockRepETag
1070
     1
1071
      104
1005
3FACB
  0
LINE
  5
3FACC
330
10FE8
100
AcDbEntity
  8
图框
370
    -3
100
AcDbLine
 10
990.6727612856927
 20
509.2054027581959
 30
0.0
 11
990.6727612856927
 21
484.0347692601515
 31
0.0
1001
AcDbBlockRepETag
1070
     1
1071
      105
1005
3FACC
  0
MTEXT
  5
3FACD
102
{ACAD_XDICTIONARY
360
3FE15
102
}
330
10FE8
100
AcDbEntity
  8
图框
100
AcDbMText
 10
997.1628169651232
 20
499.816589978722
 30
0.0
 40
2.252848170144607
 41
12.98011135886052
 71
     5
 72
     5
  1
{\fFangSong_GB2312|b0|i0|c134|p49;标准化}\PStand.
  7
Romans字体
 73
     1
 44
1.0
1001
AcDbBlockRepETag
1070
     1
1071
      106
1005
3FACD
1001
ACAD
1000
ACAD_MTEXT_DEFINED_HEIGHT_BEGIN
1070
    46
1040
6.19230880992475
1000
ACAD_MTEXT_DEFINED_HEIGHT_END
  0
LINE
  5
3FACE
330
10FE8
100
AcDbEntity
  8
图框
370
    -3
100
AcDbLine
 10
975.4103773808022
 20
509.2054027581959
 30
0.0
 11
975.4103773808022
 21
484.0347692601515
 31
0.0
1001
AcDbBlockRepETag
1070
     1
1071
      107
1005
3FACE
  0
MTEXT
  5
3FACF
330
10FE8
100
AcDbEntity
  8
图框
100
AcDbMText
 10
984.5089229802068
 20
511.9708733640202
 30
0.0
 40
2.448748011026752
 41
38.287899328693
 71
     5
 72
     5
  1
  变更描述{\Fromans|c134;/Description}
 73
     1
 44
1.0
1001
AcDbBlockRepETag
1070
     1
1071
      108
1005
3FACF
1001
ACAD
1000
ACAD_MTEXT_DEFINED_HEIGHT_BEGIN
1070
    46
1040
5.530941211648832
1000
ACAD_MTEXT_DEFINED_HEIGHT_END
  0
MTEXT
  5
3FAD0
102
{ACAD_XDICTIONARY
360
3FE17
102
}
330
10FE8
100
AcDbEntity
  8
图框
100
AcDbMText
 10
1012.466086049227
 20
511.9708733640202
 30
0.0
 40
1.958998408821398
 41
17.6264268093469
 71
     5
 72
     5
  1
签名\P{\Fromans|c134;Signature} 
 73
     1
 44
1.0
1001
AcDbBlockRepETag
1070
     1
1071
      109
1005
3FAD0
1001
ACAD
1000
ACAD_MTEXT_DEFINED_HEIGHT_BEGIN
1070
    46
1040
5.530941211648825
1000
ACAD_MTEXT_DEFINED_HEIGHT_END
  0
MTEXT
  5
3FAD1
102
{ACAD_XDICTIONARY
360
3FE19
102
}
330
10FE8
100
AcDbEntity
  8
图框
100
AcDbMText
 10
960.7558556394856
 20
511.9708733640202
 30
0.0
 40
1.958998408821398
 41
9.218235352749283
 71
     5
 72
     5
  1
处数\P{\Fromans|c134;Number }
 73
     1
 44
1.0
1001
AcDbBlockRepETag
1070
     1
1071
      110
1005
3FAD1
1001
ACAD
1000
ACAD_MTEXT_DEFINED_HEIGHT_BEGIN
1070
    46
1040
5.530941211648841
1000
ACAD_MTEXT_DEFINED_HEIGHT_END
  0
LINE
  5
3FAD2
330
10FE8
100
AcDbEntity
  8
图框
370
    -3
100
AcDbLine
 10
946.9285026103634
 20
514.7363439698449
 30
0.0
 11
1036.653967466372
 21
514.7363439698449
 31
0.0
1001
AcDbBlockRepETag
1070
     1
1071
      111
1005
3FAD2
  0
LINE
  5
3FAD3
330
10FE8
100
AcDbEntity
  8
图框
370
    -3
100
AcDbLine
 10
946.9285026103634
 20
509.2054027581959
 30
0.0
 11
1036.653967466372
 21
509.2054027581959
 31
0.0
1001
AcDbBlockRepETag
1070
     1
1071
      112
1005
3FAD3
  0
LINE
  5
3FAD4
330
10FE8
100
AcDbEntity
  8
图框
370
    -3
100
AcDbLine
 10
946.9285026103634
 20
502.9127443836848
 30
0.0
 11
1036.653967466372
 21
502.9127443836848
 31
0.0
1001
AcDbBlockRepETag
1070
     1
1071
      113
1005
3FAD4
  0
LINE
  5
3FAD5
330
10FE8
100
AcDbEntity
  8
图框
370
    -3
100
AcDbLine
 10
946.9285026103634
 20
496.620086009173
 30
0.0
 11
1036.653967466372
 21
496.620086009173
 31
0.0
1001
AcDbBlockRepETag
1070
     1
1071
      114
1005
3FAD5
  0
LINE
  5
3FAD6
330
10FE8
100
AcDbEntity
  8
图框
370
    35
380
     1
100
AcDbLine
 10
946.9285026103634
 20
531.3291676047914
 30
0.0
 11
946.9285026103634
 21
484.0347692601515
 31
0.0
1001
AcDbBlockRepETag
1070
     1
1071
      115
1005
3FAD6
  0
LINE
  5
3FAD7
330
10FE8
100
AcDbEntity
  8
图框
370
    -3
100
AcDbLine
 10
1021.301636813399
 20
531.3291676047914
 30
0.0
 11
1021.301636813399
 21
484.0347692601515
 31
0.0
1001
AcDbBlockRepETag
1070
     1
1071
      116
1005
3FAD7
  0
LINE
  5
3FAD8
330
10FE8
100
AcDbEntity
  8
图框
370
    -3
100
AcDbLine
 10
1003.652872644553
 20
531.3291676047914
 30
0.0
 11
1003.652872644553
 21
484.0347692601515
 31
0.0
1001
AcDbBlockRepETag
1070
     1
1071
      117
1005
3FAD8
  0
LINE
  5
3FAD9
330
10FE8
100
AcDbEntity
  8
图框
370
    -3
100
AcDbLine
 10
965.3649733158603
 20
531.3291676047914
 30
0.0
 11
965.3649733158603
 21
509.2054027581959
 31
0.0
1001
AcDbBlockRepETag
1070
     1
1071
      118
1005
3FAD9
  0
LINE
  5
3FADA
330
10FE8
100
AcDbEntity
  8
图框
370
    -3
100
AcDbLine
 10
956.1467379631109
 20
531.3291676047914
 30
0.0
 11
956.1467379631109
 21
509.2054027581959
 31
0.0
1001
AcDbBlockRepETag
1070
     1
1071
      119
1005
3FADA
  0
MTEXT
  5
3FADB
102
{ACAD_XDICTIONARY
360
3FE1B
102
}
330
10FE8
100
AcDbEntity
  8
图框
100
AcDbMText
 10
951.537620286737
 20
511.9708733640202
 30
0.0
 40
1.958998408821398
 41
9.218235352747692
 71
     5
 72
     5
  1
标记\P{\Fromans|c134;Mark}
 73
     1
 44
1.0
1001
AcDbBlockRepETag
1070
     1
1071
      120
1005
3FADB
1001
ACAD
1000
ACAD_MTEXT_DEFINED_HEIGHT_BEGIN
1070
    46
1040
5.530941211648832
1000
ACAD_MTEXT_DEFINED_HEIGHT_END
  0
MTEXT
  5
3FADC
102
{ACAD_XDICTIONARY
360
3FE1D
102
}
330
10FE8
100
AcDbEntity
  8
图框
100
AcDbMText
 10
953.4185582897936
 20
493.4737568219182
 30
0.0
 40
2.252848170144607
 41
12.98011135886041
 71
     5
 72
     5
  1
审核\P{\Fromans|c134;Checked}
 73
     1
 44
1.0
1001
AcDbBlockRepETag
1070
     1
1071
      121
1005
3FADC
1001
ACAD
1000
ACAD_MTEXT_DEFINED_HEIGHT_BEGIN
1070
    46
1040
6.292658374510382
1000
ACAD_MTEXT_DEFINED_HEIGHT_END
  0
MTEXT
  5
3FADD
102
{ACAD_XDICTIONARY
360
3FE1F
102
}
330
10FE8
100
AcDbEntity
  8
图框
100
AcDbMText
 10
953.4185582897936
 20
499.8775635376777
 30
0.0
 40
2.252848170144607
 41
12.98011135886041
 71
     5
 72
     5
  1
绘图\P{\Fromans|c134;Drawn\Ftxt|c134; }
 73
     1
 44
1.0
1001
AcDbBlockRepETag
1070
     1
1071
      122
1005
3FADD
1001
ACAD
1000
ACAD_MTEXT_DEFINED_HEIGHT_BEGIN
1070
    46
1040
6.070361692014189
1000
ACAD_MTEXT_DEFINED_HEIGHT_END
  0
ARC
  5
3FADE
330
10FE8
100
AcDbEntity
  8
图框
 62
     4
370
    35
100
AcDbCircle
 10
1086.900627017421
 20
490.0179944151195
 30
0.0
 40
4.063310408393665
100
AcDbArc
 50
18.95237904564806
 51
161.0476209543519
1001
AcDbBlockRepETag
1070
     1
1071
      123
1005
3FADE
  0
ARC
  5
3FADF
330
10FE8
100
AcDbEntity
  8
图框
 62
     4
370
    35
100
AcDbCircle
 10
1086.900627017421
 20
490.0179944151195
 30
0.0
 40
4.063310408393665
100
AcDbArc
 50
198.952379045648
 51
341.0476209543519
1001
AcDbBlockRepETag
1070
     1
1071
      124
1005
3FADF
  0
LINE
  5
3FAE0
330
10FE8
100
AcDbEntity
  8
图框
 62
     4
370
    35
100
AcDbLine
 10
1083.057593369548
 20
488.6983035966752
 30
0.0
 11
1090.74366066529
 21
488.6983035966752
 31
0.0
1001
AcDbBlockRepETag
1070
     1
1071
      125
1005
3FAE0
  0
LINE
  5
3FAE1
330
10FE8
100
AcDbEntity
  8
图框
 62
     4
370
    35
100
AcDbLine
 10
1083.057593369548
 20
491.3376852335652
 30
0.0
 11
1090.74366066529
 21
491.3376852335652
 31
0.0
1001
AcDbBlockRepETag
1070
     1
1071
      126
1005
3FAE1
  0
MTEXT
  5
3FAE2
330
10FE8
100
AcDbEntity
  8
图框
 62
     1
370
    20
100
AcDbMText
 10
1083.034582879669
 20
491.0506288081688
 30
0.0
 40
2.005930044038334
 41
5.047240019334847
 71
     1
 72
     5
  1
{\fArial|b0|i0|c0|p34;W}
  7
Chinese
 73
     1
 44
1.0
1001
AcDbBlockRepETag
1070
     1
1071
      127
1005
3FAE2
  0
LINE
  5
3FAE3
330
10FE8
100
AcDbEntity
  8
图框
370
    -3
100
AcDbLine
 10
946.9285026103634
 20
490.327427634663
 30
0.0
 11
1036.653967466372
 21
490.327427634663
 31
0.0
1001
AcDbBlockRepETag
1070
     1
1071
      128
1005
3FAE3
  0
LINE
  5
3FAE4
330
10FE8
100
AcDbEntity
  8
图框
370
    -3
100
AcDbLine
 10
959.9086139692238
 20
509.2054027581959
 30
0.0
 11
959.9086139692238
 21
484.0347692601515
 31
0.0
1001
AcDbBlockRepETag
1070
     1
1071
      129
1005
3FAE4
  0
MTEXT
  5
3FAE5
330
10FE8
100
AcDbEntity
  8
图框
100
AcDbMText
 10
967.6594956750127
 20
506.0590735709403
 30
0.0
 40
2.252848170144607
 41
15.50176341157869
 71
     5
 72
     5
  1
姓名{\Fromans|c134;/Name\Ftxt|c134; }
 73
     1
 44
1.0
1001
AcDbBlockRepETag
1070
     1
1071
      130
1005
3FAE5
1001
ACAD
1000
ACAD_MTEXT_DEFINED_HEIGHT_BEGIN
1070
    46
1040
6.292658374511246
1000
ACAD_MTEXT_DEFINED_HEIGHT_END
  0
MTEXT
  5
3FAE6
330
10FE8
100
AcDbEntity
  8
图框
100
AcDbMText
 10
983.0415693332476
 20
506.0590735709403
 30
0.0
 40
2.252848170144607
 41
15.26238390489042
 71
     5
 72
     5
  1
日期{\Fromans|c134;/Date}
 73
     1
 44
1.0
1001
AcDbBlockRepETag
1070
     1
1071
      131
1005
3FAE6
1001
ACAD
1000
ACAD_MTEXT_DEFINED_HEIGHT_BEGIN
1070
    46
1040
6.2926583745112
1000
ACAD_MTEXT_DEFINED_HEIGHT_END
  0
LINE
  5
3FAE7
330
10FE8
100
AcDbEntity
  8
图框
370
    -3
100
AcDbLine
 10
946.9285026103634
 20
509.2054027581959
 30
0.0
 11
959.9086139692238
 21
502.9127443836848
 31
0.0
1001
AcDbBlockRepETag
1070
     1
1071
      132
1005
3FAE7
  0
MTEXT
  5
3FAE8
330
10FE8
100
AcDbEntity
  8
图框
100
AcDbMText
 10
1012.931405110086
 20
506.0185715840725
 30
0.0
 40
2.252848170144607
 41
16.93492221063566
 71
     5
 72
     5
  1
姓名{\Fromans|c134;/Name}
 73
     1
 44
1.0
1001
AcDbBlockRepETag
1070
     1
1071
      133
1005
3FAE8
  0
MTEXT
  5
3FAE9
330
10FE8
100
AcDbEntity
  8
图框
100
AcDbMText
 10
1028.977802139886
 20
506.0590735709403
 30
0.0
 40
2.252848170144607
 41
15.35233065297283
 71
     5
 72
     5
  1
日期{\Fromans|c134;/Date}
 73
     1
 44
1.0
1001
AcDbBlockRepETag
1070
     1
1071
      134
1005
3FAE9
1001
ACAD
1000
ACAD_MTEXT_DEFINED_HEIGHT_BEGIN
1070
    46
1040
6.292658374511256
1000
ACAD_MTEXT_DEFINED_HEIGHT_END
  0
LINE
  5
3FAEA
330
10FE8
100
AcDbEntity
  8
图框
370
    -3
100
AcDbLine
 10
1003.652872644553
 20
502.9127443836848
 30
0.0
 11
990.6727612856927
 21
509.2054027581959
 31
0.0
1001
AcDbBlockRepETag
1070
     1
1071
      135
1005
3FAEA
  0
MTEXT
  5
3FAEB
102
{ACAD_XDICTIONARY
360
3FE21
102
}
330
10FE8
100
AcDbEntity
  8
图框
100
AcDbMText
 10
997.1628169651232
 20
487.1810984474071
 30
0.0
 40
2.252848170144607
 41
12.98011135886052
 71
     5
 72
     5
  1
批准\P{\Fromans|c134;Approved}
 73
     1
 44
1.0
1001
AcDbBlockRepETag
1070
     1
1071
      136
1005
3FAEB
1001
ACAD
1000
ACAD_MTEXT_DEFINED_HEIGHT_BEGIN
1070
    46
1040
6.292658374511517
1000
ACAD_MTEXT_DEFINED_HEIGHT_END
  0
MTEXT
  5
3FAEC
102
{ACAD_XDICTIONARY
360
3FE23
102
}
330
10FE8
100
AcDbEntity
  8
图框
100
AcDbMText
 10
953.4185582897936
 20
487.1810984474071
 30
0.0
 40
2.252848170144607
 41
12.98011135886041
 71
     5
 72
     5
  1
工艺\P{\Fromans|c134;Process}
 73
     1
 44
1.0
1001
AcDbBlockRepETag
1070
     1
1071
      137
1005
3FAEC
1001
ACAD
1000
ACAD_MTEXT_DEFINED_HEIGHT_BEGIN
1070
    46
1040
6.292658374511495
1000
ACAD_MTEXT_DEFINED_HEIGHT_END
  0
MTEXT
  5
3FAED
102
{ACAD_XDICTIONARY
360
3FE25
102
}
330
10FE8
100
AcDbEntity
  8
图框
100
AcDbMText
 10
1028.977802139886
 20
511.8287965307664
 30
0.0
 40
1.958998408821398
 41
15.3523306529728
 71
     5
 72
     5
  1
日期\P{\Fromans|c134;Date}
 73
     1
 44
1.0
1001
AcDbBlockRepETag
1070
     1
1071
      138
1005
3FAED
1001
ACAD
1000
ACAD_MTEXT_DEFINED_HEIGHT_BEGIN
1070
    46
1040
5.246787545140668
1000
ACAD_MTEXT_DEFINED_HEIGHT_END
  0
MTEXT
  5
3FAEE
330
10FE8
100
AcDbEntity
  8
图框
100
AcDbMText
 10
1086.643735910939
 20
509.1493769780809
 30
0.0
 40
2.154898249703542
 41
13.34474941400573
 71
     5
 72
     5
  1
产品料号\P{\Fromans|c134;Part No.}
 73
     1
 44
1.0
1001
AcDbBlockRepETag
1070
     1
1071
      139
1005
3FAEE
1001
ACAD
1000
ACAD_MTEXT_DEFINED_HEIGHT_BEGIN
1070
    46
1040
8.87215554796615
1000
ACAD_MTEXT_DEFINED_HEIGHT_END
  0
MTEXT
  5
3FAEF
330
10FE8
100
AcDbEntity
  8
图框
100
AcDbMText
 10
1086.643735910939
 20
500.2775205517163
 30
0.0
 40
1.958998408821398
 41
13.34474941400573
 71
     5
 72
     5
  1
产品名称\P{\Fromans|c134;Part Name}
 73
     1
 44
1.0
1001
AcDbBlockRepETag
1070
     1
1071
      140
1005
3FAEF
1001
ACAD
1000
ACAD_MTEXT_DEFINED_HEIGHT_BEGIN
1070
    46
1040
8.871557304763321
1000
ACAD_MTEXT_DEFINED_HEIGHT_END
  0
LINE
  5
3FAF0
330
10FE8
100
AcDbEntity
  8
图框
 62
     1
370
    18
100
AcDbLine
 10
833.4128518455365
 20
690.5347692601515
 30
0.0
 11
833.4128518455365
 21
480.5347692601515
 31
0.0
1001
AcDbBlockRepETag
1070
     1
1071
      141
1005
3FAF0
  0
LINE
  5
3FAF1
330
10FE8
100
AcDbEntity
  8
图框
 62
     1
370
    18
100
AcDbLine
 10
833.4128518455365
 20
480.5347692601515
 30
0.0
 11
1130.411601781236
 21
480.5347692601515
 31
0.0
1001
AcDbBlockRepETag
1070
     1
1071
      142
1005
3FAF1
  0
LINE
  5
3FAF2
330
10FE8
100
AcDbEntity
  8
图框
 62
     1
370
    18
100
AcDbLine
 10
833.4128518455365
 20
690.5347692601515
 30
0.0
 11
1130.411601781236
 21
690.5347692601515
 31
0.0
1001
AcDbBlockRepETag
1070
     1
1071
      143
1005
3FAF2
  0
LINE
  5
3FAF3
330
10FE8
100
AcDbEntity
  8
图框
 62
     1
370
    18
100
AcDbLine
 10
1130.411601781236
 20
480.5347692601515
 30
0.0
 11
1130.411601781236
 21
690.5347692601515
 31
0.0
1001
AcDbBlockRepETag
1070
     1
1071
      144
1005
3FAF3
  0
LINE
  5
3FAF4
330
10FE8
100
AcDbEntity
  8
图框
370
    18
100
AcDbLine
 10
836.9128518455394
 20
686.7901958362482
 30
0.0
 11
861.5351874539182
 21
686.7901958362482
 31
0.0
1001
AcDbBlockRepETag
1070
     1
1071
      145
1005
3FAF4
  0
LINE
  5
3FAF5
330
10FE8
100
AcDbEntity
  8
图框
370
    50
100
AcDbLine
 10
1126.928502610363
 20
484.3410054693078
 30
0.0
 11
1126.928502610363
 21
675.5347692601515
 31
0.0
1001
AcDbBlockRepETag
1070
     1
1071
      146
1005
3FAF5
  0
MTEXT
  5
3FAF6
330
10FE8
100
AcDbEntity
  8
图框
 62
     3
100
AcDbMText
 10
1052.897990117958
 20
495.8417418993364
 30
0.0
 40
2.2528
 41
15.50176341157864
 71
     5
 72
     5
  1
V1.0
  7
Romans字体
 73
     1
 44
1.0
1001
AcDbBlockRepETag
1070
     1
1071
      147
1005
3FAF6
1001
ACAD
1000
ACAD_MTEXT_DEFINED_HEIGHT_BEGIN
1070
    46
1040
7.886094601211307
1000
ACAD_MTEXT_DEFINED_HEIGHT_END
  0
MTEXT
  5
3FAF7
330
10FE8
100
AcDbEntity
  8
图框
 62
     3
100
AcDbMText
 10
983.041569333247
 20
493.4737568219181
 30
0.0
 40
2.2528
 41
15.50176341157864
 71
     5
 72
     5
  1
{\W0.7;12.10.2014}
  7
Romans字体
 73
     1
 44
1.0
1001
AcDbBlockRepETag
1070
     1
1071
      150
1005
3FAF7
1001
ACAD
1000
ACAD_MTEXT_DEFINED_HEIGHT_BEGIN
1070
    46
1040
6.292658374511042
1000
ACAD_MTEXT_DEFINED_HEIGHT_END
  0
MTEXT
  5
3FAF8
330
10FE8
100
AcDbEntity
  8
图框
 62
     3
100
AcDbMText
 10
1028.932828765843
 20
487.1810984474072
 30
0.0
 40
2.2528
 41
15.50176341157864
 71
     5
 72
     5
  1
{\W0.7;12.10.2014}
  7
Romans字体
 73
     1
 44
1.0
1001
AcDbBlockRepETag
1070
     1
1071
      151
1005
3FAF8
1001
ACAD
1000
ACAD_MTEXT_DEFINED_HEIGHT_BEGIN
1070
    46
1040
6.292658374511042
1000
ACAD_MTEXT_DEFINED_HEIGHT_END
  0
ENDBLK
  5
1107F
330
10FE8
100
AcDbEntity
  8
0
100
AcDbBlockEnd
  0
BLOCK
  5
3F0E7
330
3F0E6
100
AcDbEntity
  8
0
100
AcDbBlockBegin
  2
*D2
 70
     1
 10
0.0
 20
0.0
 30
0.0
  3
*D2
  1

  0
LINE
  5
3FAFB
330
3F0E6
100
AcDbEntity
  8
0
 62
     6
370
    -2
100
AcDbLine
 10
791.0983609178073
 20
247.6719319889685
 30
0.0
 11
791.0983609178073
 21
222.3592194355736
 31
0.0
  0
LINE
  5
3FAFC
330
3F0E6
100
AcDbEntity
  8
0
 62
     6
370
    -2
100
AcDbLine
 10
828.3854908776076
 20
247.6719319889685
 30
0.0
 11
828.3854908776076
 21
222.3592194355736
 31
0.0
  0
LINE
  5
3FAFD
330
3F0E6
100
AcDbEntity
  8
0
 62
     1
370
    -2
100
AcDbLine
 10
793.0483609178073
 20
223.0092194355736
 30
0.0
 11
826.4354908776075
 21
223.0092194355736
 31
0.0
  0
SOLID
  5
3FAFE
330
3F0E6
100
AcDbEntity
  8
0
 62
     1
100
AcDbTrace
 10
793.0483609178073
 20
223.3342194355736
 30
0.0
 11
793.0483609178073
 21
222.6842194355736
 31
0.0
 12
791.0983609178073
 22
223.0092194355736
 32
0.0
 13
791.0983609178073
 23
223.0092194355736
 33
0.0
  0
SOLID
  5
3FAFF
330
3F0E6
100
AcDbEntity
  8
0
 62
     1
100
AcDbTrace
 10
826.4354908776075
 20
223.3342194355736
 30
0.0
 11
826.4354908776075
 21
222.6842194355736
 31
0.0
 12
828.3854908776076
 22
223.0092194355736
 32
0.0
 13
828.3854908776076
 23
223.0092194355736
 33
0.0
  0
MTEXT
  5
3FB00
330
3F0E6
100
AcDbEntity
  8
0
 62
     4
100
AcDbMText
 10
809.7419258977081
 20
227.1258861022402
 30
0.0
 40
2.274999999999999
 41
0.0
 71
     2
 72
     1
  1
\A1;(37.3)
  7
Romans字体
 73
     1
 44
1.0
  0
POINT
  5
3FB01
330
3F0E6
100
AcDbEntity
  8
Defpoints
 62
     0
100
AcDbPoint
 10
791.0983609178073
 20
248.3219319889686
 30
0.0
  0
POINT
  5
3FB02
330
3F0E6
100
AcDbEntity
  8
Defpoints
 62
     0
100
AcDbPoint
 10
828.3854908776076
 20
248.3219319889686
 30
0.0
  0
POINT
  5
3FB03
330
3F0E6
100
AcDbEntity
  8
Defpoints
 62
     0
100
AcDbPoint
 10
828.3854908776076
 20
223.0092194355736
 30
0.0
  0
ENDBLK
  5
3F0E8
330
3F0E6
100
AcDbEntity
  8
0
100
AcDbBlockEnd
  0
BLOCK
  5
3F190
330
3F18F
100
AcDbEntity
  8
0
100
AcDbBlockBegin
  2
*D3
 70
     1
 10
0.0
 20
0.0
 30
0.0
  3
*D3
  1

  0
LINE
  5
3FB04
330
3F18F
100
AcDbEntity
  8
DIM
 62
     6
370
    -2
100
AcDbLine
 10
847.9701233524789
 20
256.2953603963884
 30
0.0
 11
847.9701233524789
 21
234.480526933669
 31
0.0
  0
LINE
  5
3FB05
330
3F18F
100
AcDbEntity
  8
DIM
 62
     6
370
    -2
100
AcDbLine
 10
875.970123352479
 20
256.2953603963884
 30
0.0
 11
875.970123352479
 21
234.480526933669
 31
0.0
  0
LINE
  5
3FB06
330
3F18F
100
AcDbEntity
  8
DIM
 62
     1
370
    -2
100
AcDbLine
 10
850.970123352479
 20
235.680526933669
 30
0.0
 11
872.9701233524789
 21
235.680526933669
 31
0.0
  0
SOLID
  5
3FB07
330
3F18F
100
AcDbEntity
  8
DIM
 62
     1
100
AcDbTrace
 10
850.970123352479
 20
236.180526933669
 30
0.0
 11
850.970123352479
 21
235.180526933669
 31
0.0
 12
847.9701233524789
 22
235.680526933669
 32
0.0
 13
847.9701233524789
 23
235.680526933669
 33
0.0
  0
SOLID
  5
3FB08
330
3F18F
100
AcDbEntity
  8
DIM
 62
     1
100
AcDbTrace
 10
872.9701233524789
 20
236.180526933669
 30
0.0
 11
872.9701233524789
 21
235.180526933669
 31
0.0
 12
875.970123352479
 22
235.680526933669
 32
0.0
 13
875.970123352479
 23
235.680526933669
 33
0.0
  0
MTEXT
  5
3FB09
330
3F18F
100
AcDbEntity
  8
DIM
 62
     4
100
AcDbMText
 10
861.9701233524791
 20
238.980526933669
 30
0.0
 40
2.5
 41
0.0
 71
     2
 72
     1
  1
\A1;%%C28
  7
Romans字体
 73
     1
 44
1.0
  0
POINT
  5
3FB0A
330
3F18F
100
AcDbEntity
  8
Defpoints
 62
     0
100
AcDbPoint
 10
847.9701233524789
 20
256.4953603963884
 30
0.0
  0
POINT
  5
3FB0B
330
3F18F
100
AcDbEntity
  8
Defpoints
 62
     0
100
AcDbPoint
 10
875.970123352479
 20
256.4953603963884
 30
0.0
  0
POINT
  5
3FB0C
330
3F18F
100
AcDbEntity
  8
Defpoints
 62
     0
100
AcDbPoint
 10
875.970123352479
 20
235.680526933669
 30
0.0
  0
ENDBLK
  5
3F191
330
3F18F
100
AcDbEntity
  8
0
100
AcDbBlockEnd
  0
BLOCK
  5
3F19C
330
3F19B
100
AcDbEntity
  8
0
100
AcDbBlockBegin
  2
*D4
 70
     1
 10
0.0
 20
0.0
 30
0.0
  3
*D4
  1

  0
LINE
  5
3FB0D
330
3F19B
100
AcDbEntity
  8
DIM
 62
     6
370
    -2
100
AcDbLine
 10
861.9701233524791
 20
260.9953413578885
 30
0.0
 11
861.9701233524791
 21
270.7551052325181
 31
0.0
  0
LINE
  5
3FB0E
330
3F19B
100
AcDbEntity
  8
DIM
 62
     6
370
    -2
100
AcDbLine
 10
880.470123352479
 20
260.9953413578885
 30
0.0
 11
880.470123352479
 21
270.7551052325181
 31
0.0
  0
LINE
  5
3FB0F
330
3F19B
100
AcDbEntity
  8
DIM
 62
     1
370
    -2
100
AcDbLine
 10
864.970123352479
 20
269.5551052325181
 30
0.0
 11
877.4701233524789
 21
269.5551052325181
 31
0.0
  0
SOLID
  5
3FB10
330
3F19B
100
AcDbEntity
  8
DIM
 62
     1
100
AcDbTrace
 10
864.970123352479
 20
270.0551052325181
 30
0.0
 11
864.970123352479
 21
269.0551052325181
 31
0.0
 12
861.9701233524791
 22
269.5551052325181
 32
0.0
 13
861.9701233524791
 23
269.5551052325181
 33
0.0
  0
SOLID
  5
3FB11
330
3F19B
100
AcDbEntity
  8
DIM
 62
     1
100
AcDbTrace
 10
877.4701233524789
 20
270.0551052325181
 30
0.0
 11
877.4701233524789
 21
269.0551052325181
 31
0.0
 12
880.470123352479
 22
269.5551052325181
 32
0.0
 13
880.470123352479
 23
269.5551052325181
 33
0.0
  0
MTEXT
  5
3FB12
330
3F19B
100
AcDbEntity
  8
DIM
 62
     4
100
AcDbMText
 10
871.2201233524789
 20
272.8551052325181
 30
0.0
 40
2.5
 41
0.0
 71
     2
 72
     1
  1
\A1;18.5
  7
Romans字体
 73
     1
 44
1.0
  0
POINT
  5
3FB13
330
3F19B
100
AcDbEntity
  8
Defpoints
 62
     0
100
AcDbPoint
 10
861.9701233524791
 20
260.7953413578885
 30
0.0
  0
POINT
  5
3FB14
330
3F19B
100
AcDbEntity
  8
Defpoints
 62
     0
100
AcDbPoint
 10
880.470123352479
 20
260.7953413578885
 30
0.0
  0
POINT
  5
3FB15
330
3F19B
100
AcDbEntity
  8
Defpoints
 62
     0
100
AcDbPoint
 10
880.470123352479
 20
269.5551052325181
 30
0.0
  0
ENDBLK
  5
3F19D
330
3F19B
100
AcDbEntity
  8
0
100
AcDbBlockEnd
  0
BLOCK
  5
3F1A8
330
3F1A7
100
AcDbEntity
  8
0
100
AcDbBlockBegin
  2
*D5
 70
     1
 10
0.0
 20
0.0
 30
0.0
  3
*D5
  1

  0
LINE
  5
3FB16
330
3F1A7
100
AcDbEntity
  8
DIM
 62
     6
370
    -2
100
AcDbLine
 10
879.7201233524789
 20
259.1953413578885
 30
0.0
 11
879.7201233524789
 21
264.3495017430376
 31
0.0
  0
LINE
  5
3FB17
330
3F1A7
100
AcDbEntity
  8
DIM
 62
     6
370
    -2
100
AcDbLine
 10
881.2201233524788
 20
259.1953413578885
 30
0.0
 11
881.2201233524788
 21
264.3495017430376
 31
0.0
  0
LINE
  5
3FB18
330
3F1A7
100
AcDbEntity
  8
DIM
 62
     1
370
    -2
100
AcDbLine
 10
884.2201233524788
 20
263.1495017430377
 30
0.0
 11
887.2201233524789
 21
263.1495017430377
 31
0.0
  0
LINE
  5
3FB19
330
3F1A7
100
AcDbEntity
  8
DIM
 62
     1
370
    -2
100
AcDbLine
 10
876.7201233524788
 20
263.1495017430377
 30
0.0
 11
866.4951233524789
 21
263.1495017430377
 31
0.0
  0
SOLID
  5
3FB1A
330
3F1A7
100
AcDbEntity
  8
DIM
 62
     1
100
AcDbTrace
 10
884.2201233524788
 20
263.6495017430377
 30
0.0
 11
884.2201233524788
 21
262.6495017430376
 31
0.0
 12
881.2201233524788
 22
263.1495017430377
 32
0.0
 13
881.2201233524788
 23
263.1495017430377
 33
0.0
  0
SOLID
  5
3FB1B
330
3F1A7
100
AcDbEntity
  8
DIM
 62
     1
100
AcDbTrace
 10
876.7201233524788
 20
263.6495017430377
 30
0.0
 11
876.7201233524788
 21
262.6495017430376
 31
0.0
 12
879.7201233524789
 22
263.1495017430377
 32
0.0
 13
879.7201233524789
 23
263.1495017430377
 33
0.0
  0
MTEXT
  5
3FB1C
330
3F1A7
100
AcDbEntity
  8
DIM
 62
     4
100
AcDbMText
 10
872.920123352479
 20
266.4495017430377
 30
0.0
 40
2.5
 41
0.0
 71
     3
 72
     1
  1
\A1;%%c1.5
  7
Romans字体
 73
     1
 44
1.0
  0
POINT
  5
3FB1D
330
3F1A7
100
AcDbEntity
  8
Defpoints
 62
     0
100
AcDbPoint
 10
879.7201233524789
 20
258.9953413578885
 30
0.0
  0
POINT
  5
3FB1E
330
3F1A7
100
AcDbEntity
  8
Defpoints
 62
     0
100
AcDbPoint
 10
881.2201233524788
 20
258.9953413578885
 30
0.0
  0
POINT
  5
3FB1F
330
3F1A7
100
AcDbEntity
  8
Defpoints
 62
     0
100
AcDbPoint
 10
881.2201233524788
 20
263.1495017430377
 30
0.0
  0
ENDBLK
  5
3F1A9
330
3F1A7
100
AcDbEntity
  8
0
100
AcDbBlockEnd
  0
BLOCK
  5
3F1B5
330
3F1B4
100
AcDbEntity
  8
0
100
AcDbBlockBegin
  2
*D6
 70
     1
 10
0.0
 20
0.0
 30
0.0
  3
*D6
  1

  0
LINE
  5
3FB20
330
3F1B4
100
AcDbEntity
  8
DIM
 62
     6
370
    -2
100
AcDbLine
 10
865.0227031715949
 20
256.9953413578886
 30
0.0
 11
870.4522751809788
 21
256.9953413578886
 31
0.0
  0
LINE
  5
3FB21
330
3F1B4
100
AcDbEntity
  8
DIM
 62
     6
370
    -2
100
AcDbLine
 10
865.4176843373788
 20
242.9953413578886
 30
0.0
 11
870.4522751809788
 21
242.9953413578886
 31
0.0
  0
LINE
  5
3FB22
330
3F1B4
100
AcDbEntity
  8
DIM
 62
     1
370
    -2
100
AcDbLine
 10
869.2522751809788
 20
253.9953413578886
 30
0.0
 11
869.2522751809788
 21
245.9953413578886
 31
0.0
  0
SOLID
  5
3FB23
330
3F1B4
100
AcDbEntity
  8
DIM
 62
     1
100
AcDbTrace
 10
868.7522751809787
 20
253.9953413578886
 30
0.0
 11
869.7522751809787
 21
253.9953413578886
 31
0.0
 12
869.2522751809788
 22
256.9953413578886
 32
0.0
 13
869.2522751809788
 23
256.9953413578886
 33
0.0
  0
SOLID
  5
3FB24
330
3F1B4
100
AcDbEntity
  8
DIM
 62
     1
100
AcDbTrace
 10
868.7522751809787
 20
245.9953413578886
 30
0.0
 11
869.7522751809787
 21
245.9953413578886
 31
0.0
 12
869.2522751809788
 22
242.9953413578886
 32
0.0
 13
869.2522751809788
 23
242.9953413578886
 33
0.0
  0
MTEXT
  5
3FB25
330
3F1B4
100
AcDbEntity
  8
DIM
 62
     4
100
AcDbMText
 10
865.9522751809786
 20
249.9953413578885
 30
0.0
 40
2.5
 41
0.0
 71
     2
 72
     1
  1
\A1;14
  7
Romans字体
 11
0.0000000000000001
 21
1.0
 31
0.0
 73
     1
 44
1.0
  0
POINT
  5
3FB26
330
3F1B4
100
AcDbEntity
  8
Defpoints
 62
     0
100
AcDbPoint
 10
864.8227031715949
 20
256.9953413578886
 30
0.0
  0
POINT
  5
3FB27
330
3F1B4
100
AcDbEntity
  8
Defpoints
 62
     0
100
AcDbPoint
 10
865.2176843373789
 20
242.9953413578886
 30
0.0
  0
POINT
  5
3FB28
330
3F1B4
100
AcDbEntity
  8
Defpoints
 62
     0
100
AcDbPoint
 10
869.2522751809788
 20
242.9953413578886
 30
0.0
  0
ENDBLK
  5
3F1B6
330
3F1B4
100
AcDbEntity
  8
0
100
AcDbBlockEnd
  0
BLOCK
  5
3F1E6
330
3F1E5
100
AcDbEntity
  8
0
100
AcDbBlockBegin
  2
*D7
 70
     1
 10
0.0
 20
0.0
 30
0.0
  3
*D7
  1

  0
LINE
  5
3FB29
330
3F1E5
100
AcDbEntity
  8
DIM
 62
     6
370
    -2
100
AcDbLine
 10
846.4701233524788
 20
242.7953413578886
 30
0.0
 11
846.4701233524788
 21
227.6761390524937
 31
0.0
  0
LINE
  5
3FB2A
330
3F1E5
100
AcDbEntity
  8
DIM
 62
     6
370
    -2
100
AcDbLine
 10
877.4701233524789
 20
242.7953413578886
 30
0.0
 11
877.4701233524789
 21
227.6761390524937
 31
0.0
  0
LINE
  5
3FB2B
330
3F1E5
100
AcDbEntity
  8
DIM
 62
     1
370
    -2
100
AcDbLine
 10
849.4701233524788
 20
228.8761390524937
 30
0.0
 11
874.4701233524789
 21
228.8761390524937
 31
0.0
  0
SOLID
  5
3FB2C
330
3F1E5
100
AcDbEntity
  8
DIM
 62
     1
100
AcDbTrace
 10
849.4701233524788
 20
229.3761390524937
 30
0.0
 11
849.4701233524788
 21
228.3761390524937
 31
0.0
 12
846.4701233524788
 22
228.8761390524937
 32
0.0
 13
846.4701233524788
 23
228.8761390524937
 33
0.0
  0
SOLID
  5
3FB2D
330
3F1E5
100
AcDbEntity
  8
DIM
 62
     1
100
AcDbTrace
 10
874.4701233524789
 20
229.3761390524937
 30
0.0
 11
874.4701233524789
 21
228.3761390524937
 31
0.0
 12
877.4701233524789
 22
228.8761390524937
 32
0.0
 13
877.4701233524789
 23
228.8761390524937
 33
0.0
  0
MTEXT
  5
3FB2E
330
3F1E5
100
AcDbEntity
  8
DIM
 62
     4
100
AcDbMText
 10
861.9701233524791
 20
230.9261390524937
 30
0.0
 40
2.5
 41
0.0
 71
     5
 72
     1
  1
\A1;%%C31
  7
Romans字体
 73
     1
 44
1.0
  0
POINT
  5
3FB2F
330
3F1E5
100
AcDbEntity
  8
Defpoints
 62
     0
100
AcDbPoint
 10
846.4701233524788
 20
242.9953413578886
 30
0.0
  0
POINT
  5
3FB30
330
3F1E5
100
AcDbEntity
  8
Defpoints
 62
     0
100
AcDbPoint
 10
877.4701233524789
 20
242.9953413578886
 30
0.0
  0
POINT
  5
3FB31
330
3F1E5
100
AcDbEntity
  8
Defpoints
 62
     0
100
AcDbPoint
 10
877.4701233524789
 20
228.8761390524937
 30
0.0
  0
ENDBLK
  5
3F1E7
330
3F1E5
100
AcDbEntity
  8
0
100
AcDbBlockEnd
  0
BLOCK
  5
3F7E6
330
3F7E5
100
AcDbEntity
  8
0
100
AcDbBlockBegin
  2
*D8
 70
     1
 10
0.0
 20
0.0
 30
0.0
  3
*D8
  1

  0
LINE
  5
3FB32
330
3F7E5
100
AcDbEntity
  8
DIM
 62
     1
370
    -2
100
AcDbLine
 10
794.4560983440898
 20
236.3168941113335
 30
0.0
 11
793.4962701785932
 21
235.440121682068
 31
0.0
  0
LINE
  5
3FB33
330
3F7E5
100
AcDbEntity
  8
DIM
 62
     1
370
    -2
100
AcDbLine
 10
820.7406234915257
 20
260.3269698666037
 30
0.0
 11
823.3606791737734
 21
262.7203072033418
 31
0.0
  0
LINE
  5
3FB34
330
3F7E5
100
AcDbEntity
  8
DIM
 62
     1
370
    -2
100
AcDbLine
 10
823.3606791737734
 20
262.7203072033418
 30
0.0
 11
828.0569291737734
 21
262.7203072033418
 31
0.0
  0
LINE
  5
3FB35
330
3F7E5
100
AcDbEntity
  8
DIM
 62
     1
370
    -2
100
AcDbLine
 10
795.415926509586
 20
237.1936665405989
 30
0.0
 11
819.7807953260294
 21
259.4501974373383
 31
0.0
  0
SOLID
  5
3FB36
330
3F7E5
100
AcDbEntity
  8
DIM
 62
     1
100
AcDbTrace
 10
794.3099696058789
 20
236.4768654722495
 30
0.0
 11
794.6022270823007
 21
236.1569227504175
 31
0.0
 12
795.415926509586
 22
237.1936665405989
 32
0.0
 13
795.415926509586
 23
237.1936665405989
 33
0.0
  0
SOLID
  5
3FB37
330
3F7E5
100
AcDbEntity
  8
DIM
 62
     1
100
AcDbTrace
 10
820.5944947533147
 20
260.4869412275198
 30
0.0
 11
820.8867522297365
 21
260.1669985056878
 31
0.0
 12
819.7807953260294
 22
259.4501974373383
 32
0.0
 13
819.7807953260294
 23
259.4501974373383
 33
0.0
  0
MTEXT
  5
3FB38
102
{ACAD_XDICTIONARY
360
3FE36
102
}
330
3F7E5
100
AcDbEntity
  8
DIM
 62
     4
100
AcDbMText
 10
825.9038041737731
 20
264.2478072033419
 30
0.0
 40
2.274999999999999
 41
0.0
 71
     5
 72
     1
  1
\A1;\U+220533
  7
Romans字体
 73
     1
 44
1.0
  0
POINT
  5
3FB39
330
3F7E5
100
AcDbEntity
  8
Defpoints
 62
     0
100
AcDbPoint
 10
819.7807953260294
 20
259.4501974373383
 30
0.0
  0
POINT
  5
3FB3A
330
3F7E5
100
AcDbEntity
  8
Defpoints
 62
     0
100
AcDbPoint
 10
795.415926509586
 20
237.1936665405989
 30
0.0
  0
ENDBLK
  5
3F7E7
330
3F7E5
100
AcDbEntity
  8
0
100
AcDbBlockEnd
  0
ENDSEC
  0
SECTION
  2
ENTITIES
  0
HATCH
  5
28AE
330
1F
100
AcDbEntity
  8
图层 1
 62
     7
100
AcDbHatch
 10
0.0
 20
0.0
 30
0.0
210
0.0
220
0.0
230
1.0
  2
SOLID
 70
     1
 71
     0
 91
        1
 92
        1
 93
        2
 72
     4
 94
        3
 73
     0
 74
     0
 95
       17
 96
       13
 40
0.0
 40
0.0
 40
0.0
 40
0.0
 40
0.3527780104152769
 40
0.3527780104152769
 40
0.3527780104152769
 40
0.7055560208305538
 40
0.7055560208305538
 40
0.7055560208305538
 40
1.058334031245828
 40
1.058334031245828
 40
1.058334031245828
 40
1.411112041661104
 40
1.411112041661104
 40
1.411112041661104
 40
1.411112041661104
 10
11.07013262565829
 20
29.50312817963231
 10
11.07013262565829
 20
29.50312817963231
 10
10.9431807732774
 20
29.50312817963231
 10
10.9431807732774
 20
29.50312817963231
 10
10.9431807732774
 20
29.50312817963231
 10
10.85843136843155
 20
29.22786486877117
 10
10.85843136843155
 20
29.22786486877117
 10
10.85843136843155
 20
29.22786486877117
 10
10.90080607085448
 20
29.2068497724476
 10
10.90080607085448
 20
29.2068497724476
 10
10.94455881238059
 20
29.31571486159919
 10
11.00346998404173
 20
29.40907701083995
 10
11.07013262565829
 20
29.50312817963231
 72
     1
 10
11.07013262565829
 20
29.50312817963231
 11
11.07013262565829
 21
29.50312817963231
 97
        0
 75
     0
 76
     1
 98
        0
450
        0
451
        0
460
0.0
461
0.0
452
        0
462
0.0
453
        0
470

  0
HATCH
  5
2C65
330
1F
100
AcDbEntity
  8
图层 1
 62
     7
100
AcDbHatch
 10
0.0
 20
0.0
 30
0.0
210
0.0
220
0.0
230
1.0
  2
SOLID
 70
     1
 71
     0
 91
        1
 92
        1
 93
        2
 72
     4
 94
        3
 73
     0
 74
     0
 95
       47
 96
       43
 40
0.0
 40
0.0
 40
0.0
 40
0.0
 40
0.3527780104152769
 40
0.3527780104152769
 40
0.3527780104152769
 40
0.7055560208305538
 40
0.7055560208305538
 40
0.7055560208305538
 40
1.058334031245828
 40
1.058334031245828
 40
1.058334031245828
 40
1.411112041661104
 40
1.411112041661104
 40
1.411112041661104
 40
1.763890052076384
 40
1.763890052076384
 40
1.763890052076384
 40
2.116668062491659
 40
2.116668062491659
 40
2.116668062491659
 40
2.469446072906936
 40
2.469446072906936
 40
2.469446072906936
 40
2.822224083322215
 40
2.822224083322215
 40
2.822224083322215
 40
3.175002093737492
 40
3.175002093737492
 40
3.175002093737492
 40
3.527780104152768
 40
3.527780104152768
 40
3.527780104152768
 40
3.880558114568044
 40
3.880558114568044
 40
3.880558114568044
 40
4.233336124983321
 40
4.233336124983321
 40
4.233336124983321
 40
4.586114135398599
 40
4.586114135398599
 40
4.586114135398599
 40
4.938892145813873
 40
4.938892145813873
 40
4.938892145813873
 40
4.938892145813873
 10
162.8986914070121
 20
257.4895347631509
 10
162.8986914070121
 20
257.4895347631509
 10
162.9200510131114
 20
257.4471600607279
 10
162.9200510131114
 20
257.4471600607279
 10
162.9200510131114
 20
257.4471600607279
 10
162.9200510131114
 20
257.404785358305
 10
162.9200510131114
 20
257.404785358305
 10
162.9200510131114
 20
257.404785358305
 10
162.8986914070121
 20
257.36258291077
 10
162.8986914070121
 20
257.36258291077
 10
162.8986914070121
 20
257.36258291077
 10
162.8986914070121
 20
257.320208208347
 10
162.8986914070121
 20
257.320208208347
 10
162.8986914070121
 20
257.320208208347
 10
162.8563167045891
 20
257.2990208571356
 10
162.8563167045891
 20
257.2990208571356
 10
162.8563167045891
 20
257.2990208571356
 10
162.8139420021662
 20
257.2563016449369
 10
162.8139420021662
 20
257.2563016449369
 10
162.8139420021662
 20
257.2563016449369
 10
162.7295371070961
 20
257.2563016449369
 10
162.7295371070961
 20
257.2563016449369
 10
162.7295371070961
 20
257.2563016449369
 10
162.6658027985738
 20
257.2778335059241
 10
162.6658027985738
 20
257.2778335059241
 10
162.6658027985738
 20
257.2778335059241
 10
162.6237726059267
 20
257.2990208571356
 10
162.6237726059267
 20
257.2990208571356
 10
162.6237726059267
 20
257.2990208571356
 10
162.5813979035038
 20
257.3413955595585
 10
162.5813979035038
 20
257.3413955595585
 10
162.5813979035038
 20
257.3413955595585
 10
162.5813979035038
 20
257.4895347631509
 10
162.5813979035038
 20
257.4895347631509
 10
162.5813979035038
 20
257.4895347631509
 10
162.6447877022503
 20
257.5525800521216
 10
162.6447877022503
 20
257.5525800521216
 10
162.6447877022503
 20
257.5525800521216
 10
162.7081775009967
 20
257.5525800521216
 10
162.7081775009967
 20
257.5525800521216
 10
162.8749202324821
 20
257.5424170137356
 10
162.7918933765152
 20
257.5939212252171
 10
162.8986914070121
 20
257.4895347631509
 72
     1
 10
162.8986914070121
 20
257.4895347631509
 11
162.8986914070121
 21
257.4895347631509
 97
        0
 75
     0
 76
     1
 98
        0
450
        0
451
        0
460
0.0
461
0.0
452
        0
462
0.0
453
        0
470

  0
HATCH
  5
2EE7
330
1F
100
AcDbEntity
  8
图层 1
 62
     7
100
AcDbHatch
 10
0.0
 20
0.0
 30
0.0
210
0.0
220
0.0
230
1.0
  2
SOLID
 70
     1
 71
     0
 91
        1
 92
        1
 93
        2
 72
     4
 94
        3
 73
     0
 74
     0
 95
       56
 96
       52
 40
0.0
 40
0.0
 40
0.0
 40
0.0
 40
0.3527780104152769
 40
0.3527780104152769
 40
0.3527780104152769
 40
0.7055560208305538
 40
0.7055560208305538
 40
0.7055560208305538
 40
1.058334031245828
 40
1.058334031245828
 40
1.058334031245828
 40
1.411112041661104
 40
1.411112041661104
 40
1.411112041661104
 40
1.763890052076384
 40
1.763890052076384
 40
1.763890052076384
 40
2.116668062491659
 40
2.116668062491659
 40
2.116668062491659
 40
2.469446072906936
 40
2.469446072906936
 40
2.469446072906936
 40
2.822224083322215
 40
2.822224083322215
 40
2.822224083322215
 40
3.175002093737492
 40
3.175002093737492
 40
3.175002093737492
 40
3.527780104152768
 40
3.527780104152768
 40
3.527780104152768
 40
3.880558114568044
 40
3.880558114568044
 40
3.880558114568044
 40
4.233336124983321
 40
4.233336124983321
 40
4.233336124983321
 40
4.586114135398599
 40
4.586114135398599
 40
4.586114135398599
 40
4.938892145813873
 40
4.938892145813873
 40
4.938892145813873
 40
5.291670156229153
 40
5.291670156229153
 40
5.291670156229153
 40
5.64444816664443
 40
5.64444816664443
 40
5.64444816664443
 40
5.997226177059705
 40
5.997226177059705
 40
5.997226177059705
 40
5.997226177059705
 10
185.4837187788815
 20
241.4451977396596
 10
185.4837187788815
 20
241.4451977396596
 10
185.4837187788815
 20
241.4028230372367
 10
185.4837187788815
 20
241.4028230372367
 10
185.4837187788815
 20
241.4028230372367
 10
185.5047338752051
 20
241.3604483348137
 10
185.5047338752051
 20
241.3604483348137
 10
185.4520238795082
 20
241.2782827532863
 10
185.4671823096433
 20
241.1897437409066
 10
185.335579575289
 20
241.2119646214456
 10
185.335579575289
 20
241.2119646214456
 10
185.2932048728662
 20
241.2119646214456
 10
185.2932048728662
 20
241.2119646214456
 10
185.2932048728662
 20
241.2119646214456
 10
185.2294705643439
 20
241.2334964824328
 10
185.2294705643439
 20
241.2334964824328
 10
185.2294705643439
 20
241.2334964824328
 10
185.1660807655974
 20
241.2543393238685
 10
185.1660807655974
 20
241.2543393238685
 10
185.1660807655974
 20
241.2543393238685
 10
185.1450656692739
 20
241.2758711848558
 10
185.1450656692739
 20
241.2758711848558
 10
185.1450656692739
 20
241.2758711848558
 10
185.1450656692739
 20
241.2967140262914
 10
185.1450656692739
 20
241.2967140262914
 10
185.1450656692739
 20
241.2967140262914
 10
185.1237060631745
 20
241.3604483348137
 10
185.1237060631745
 20
241.3604483348137
 10
185.1237060631745
 20
241.3604483348137
 10
185.1237060631745
 20
241.4028230372367
 10
185.1237060631745
 20
241.4028230372367
 10
185.1237060631745
 20
241.4028230372367
 10
185.1660807655974
 20
241.4875724420825
 10
185.1660807655974
 20
241.4875724420825
 10
185.1660807655974
 20
241.4875724420825
 10
185.2084554680203
 20
241.5085875384061
 10
185.2084554680203
 20
241.5085875384061
 10
185.2084554680203
 20
241.5085875384061
 10
185.2718452667668
 20
241.5297748896175
 10
185.2718452667668
 20
241.5297748896175
 10
185.2718452667668
 20
241.5297748896175
 10
185.3565946716127
 20
241.5297748896175
 10
185.3565946716127
 20
241.5297748896175
 10
185.3565946716127
 20
241.5297748896175
 10
185.4199844703592
 20
241.5085875384061
 10
185.4199844703592
 20
241.5085875384061
 10
185.4199844703592
 20
241.5085875384061
 10
185.4623591727821
 20
241.4875724420825
 10
185.4623591727821
 20
241.4875724420825
 10
185.4623591727821
 20
241.4875724420825
 10
185.4837187788815
 20
241.4451977396596
 10
185.4837187788815
 20
241.4451977396596
 72
     1
 10
185.4837187788815
 20
241.4451977396596
 11
185.4837187788815
 21
241.4451977396596
 97
        0
 75
     0
 76
     1
 98
        0
450
        0
451
        0
460
0.0
461
0.0
452
        0
462
0.0
453
        0
470

  0
HATCH
  5
2F93
330
1F
100
AcDbEntity
  8
图层 1
 62
     7
100
AcDbHatch
 10
0.0
 20
0.0
 30
0.0
210
0.0
220
0.0
230
1.0
  2
SOLID
 70
     1
 71
     0
 91
        1
 92
        1
 93
        2
 72
     4
 94
        3
 73
     0
 74
     0
 95
       38
 96
       34
 40
0.0
 40
0.0
 40
0.0
 40
0.0
 40
0.3527780104152769
 40
0.3527780104152769
 40
0.3527780104152769
 40
0.7055560208305538
 40
0.7055560208305538
 40
0.7055560208305538
 40
1.058334031245828
 40
1.058334031245828
 40
1.058334031245828
 40
1.411112041661104
 40
1.411112041661104
 40
1.411112041661104
 40
1.763890052076384
 40
1.763890052076384
 40
1.763890052076384
 40
2.116668062491659
 40
2.116668062491659
 40
2.116668062491659
 40
2.469446072906936
 40
2.469446072906936
 40
2.469446072906936
 40
2.822224083322215
 40
2.822224083322215
 40
2.822224083322215
 40
3.175002093737492
 40
3.175002093737492
 40
3.175002093737492
 40
3.527780104152768
 40
3.527780104152768
 40
3.527780104152768
 40
3.880558114568044
 40
3.880558114568044
 40
3.880558114568044
 40
3.880558114568044
 10
185.907121293335
 20
220.1937677098971
 10
185.9005756075949
 20
220.0449394867532
 10
185.9329595265197
 20
220.1136691870245
 10
185.864746590912
 20
219.9817219428946
 10
185.864746590912
 20
219.9817219428946
 10
185.822371888489
 20
219.9605345916831
 10
185.822371888489
 20
219.9605345916831
 10
185.822371888489
 20
219.9605345916831
 10
185.6528730787974
 20
219.9605345916831
 10
185.6528730787974
 20
219.9605345916831
 10
185.6528730787974
 20
219.9605345916831
 10
185.5894832800509
 20
220.002909294106
 10
185.5894832800509
 20
220.002909294106
 10
185.5894832800509
 20
220.002909294106
 10
185.5681236739515
 20
220.0240966453175
 10
185.5681236739515
 20
220.0240966453175
 10
185.5681236739515
 20
220.0240966453175
 10
185.5681236739515
 20
220.045283996529
 10
185.5681236739515
 20
220.045283996529
 10
185.5681236739515
 20
220.045283996529
 10
185.547108577628
 20
220.0876586989519
 10
185.547108577628
 20
220.0876586989519
 10
185.547108577628
 20
220.0876586989519
 10
185.547108577628
 20
220.1513930074742
 10
185.547108577628
 20
220.1513930074742
 10
185.547108577628
 20
220.1513930074742
 10
185.5894832800509
 20
220.23614241232
 10
185.5894832800509
 20
220.23614241232
 10
185.5894832800509
 20
220.23614241232
 10
185.6318579824738
 20
220.2573297635315
 10
185.6318579824738
 20
220.2573297635315
 10
185.7055830744942
 20
220.2566407439799
 10
185.8416644359337
 20
220.3310548555519
 10
185.907121293335
 20
220.1937677098971
 72
     1
 10
185.907121293335
 20
220.1937677098971
 11
185.907121293335
 21
220.1937677098971
 97
        0
 75
     0
 76
     1
 98
        0
450
        0
451
        0
460
0.0
461
0.0
452
        0
462
0.0
453
        0
470

  0
HATCH
  5
2FDE
330
1F
100
AcDbEntity
  8
图层 1
 62
     7
100
AcDbHatch
 10
0.0
 20
0.0
 30
0.0
210
0.0
220
0.0
230
1.0
  2
SOLID
 70
     1
 71
     0
 91
        1
 92
        1
 93
        2
 72
     4
 94
        3
 73
     0
 74
     0
 95
       50
 96
       46
 40
0.0
 40
0.0
 40
0.0
 40
0.0
 40
0.3527780104152769
 40
0.3527780104152769
 40
0.3527780104152769
 40
0.7055560208305538
 40
0.7055560208305538
 40
0.7055560208305538
 40
1.058334031245828
 40
1.058334031245828
 40
1.058334031245828
 40
1.411112041661104
 40
1.411112041661104
 40
1.411112041661104
 40
1.763890052076384
 40
1.763890052076384
 40
1.763890052076384
 40
2.116668062491659
 40
2.116668062491659
 40
2.116668062491659
 40
2.469446072906936
 40
2.469446072906936
 40
2.469446072906936
 40
2.822224083322215
 40
2.822224083322215
 40
2.822224083322215
 40
3.175002093737492
 40
3.175002093737492
 40
3.175002093737492
 40
3.527780104152768
 40
3.527780104152768
 40
3.527780104152768
 40
3.880558114568044
 40
3.880558114568044
 40
3.880558114568044
 40
4.233336124983321
 40
4.233336124983321
 40
4.233336124983321
 40
4.586114135398599
 40
4.586114135398599
 40
4.586114135398599
 40
4.938892145813873
 40
4.938892145813873
 40
4.938892145813873
 40
5.291670156229153
 40
5.291670156229153
 40
5.291670156229153
 40
5.291670156229153
 10
180.9117295442905
 20
208.9327766684477
 10
180.9117295442905
 20
208.9327766684477
 10
180.9117295442905
 20
208.7637946234197
 10
180.9117295442905
 20
208.7637946234197
 10
181.2273004989198
 20
208.6749111012643
 10
181.3833634273555
 20
208.6776671794706
 10
181.6948002646751
 20
208.5097186637701
 10
181.9542161258496
 20
208.4294478860095
 10
182.1388733656765
 20
208.2134402565853
 10
182.3297317814676
 20
208.02292635057
 10
182.3297317814676
 20
208.02292635057
 10
182.435496282637
 20
208.065301052993
 10
182.435496282637
 20
208.065301052993
 10
182.288390608372
 20
208.2733849575739
 10
182.3752070718726
 20
208.2134402565853
 10
182.1605774815516
 20
208.3824223016133
 10
182.1605774815516
 20
208.3824223016133
 10
182.1182027791287
 20
208.4247970040363
 10
182.1182027791287
 20
208.4247970040363
 10
182.1182027791287
 20
208.4247970040363
 10
182.0968431730294
 20
208.467516216235
 10
182.0968431730294
 20
208.467516216235
 10
182.0968431730294
 20
208.467516216235
 10
182.0544684706064
 20
208.4883590576707
 10
182.0544684706064
 20
208.4883590576707
 10
182.0544684706064
 20
208.4883590576707
 10
181.9910786718599
 20
208.5305615052057
 10
181.9910786718599
 20
208.5305615052057
 10
181.9910786718599
 20
208.5305615052057
 10
181.948703969437
 20
208.552093366193
 10
181.948703969437
 20
208.552093366193
 10
181.948703969437
 20
208.552093366193
 10
181.9063292670141
 20
208.5729362076286
 10
181.9063292670141
 20
208.5729362076286
 10
181.9063292670141
 20
208.5729362076286
 10
181.8639545645911
 20
208.6156554198274
 10
181.8639545645911
 20
208.6156554198274
 10
181.8639545645911
 20
208.6156554198274
 10
181.821924371944
 20
208.6368427710388
 10
181.821924371944
 20
208.6368427710388
 10
181.6637943848536
 20
208.6742220817127
 10
181.5452830219797
 20
208.8092699138248
 10
181.3771622513911
 20
208.8061693258427
 10
181.2803550043924
 20
208.8573290275484
 10
181.0126709085988
 20
208.8971199066528
 10
180.9117295442905
 20
208.9327766684477
 72
     1
 10
180.9117295442905
 20
208.9327766684477
 11
180.9117295442905
 21
208.9327766684477
 97
        0
 75
     0
 76
     1
 98
        0
450
        0
451
        0
460
0.0
461
0.0
452
        0
462
0.0
453
        0
470

  0
HATCH
  5
35C8
330
1F
100
AcDbEntity
  8
图层 1
 62
     7
100
AcDbHatch
 10
0.0
 20
0.0
 30
0.0
210
0.0
220
0.0
230
1.0
  2
SOLID
 70
     1
 71
     0
 91
        1
 92
        1
 93
        2
 72
     4
 94
        3
 73
     0
 74
     0
 95
       38
 96
       34
 40
0.0
 40
0.0
 40
0.0
 40
0.0
 40
0.3527780104152769
 40
0.3527780104152769
 40
0.3527780104152769
 40
0.7055560208305538
 40
0.7055560208305538
 40
0.7055560208305538
 40
1.058334031245828
 40
1.058334031245828
 40
1.058334031245828
 40
1.411112041661104
 40
1.411112041661104
 40
1.411112041661104
 40
1.763890052076384
 40
1.763890052076384
 40
1.763890052076384
 40
2.116668062491659
 40
2.116668062491659
 40
2.116668062491659
 40
2.469446072906936
 40
2.469446072906936
 40
2.469446072906936
 40
2.822224083322215
 40
2.822224083322215
 40
2.822224083322215
 40
3.175002093737492
 40
3.175002093737492
 40
3.175002093737492
 40
3.527780104152768
 40
3.527780104152768
 40
3.527780104152768
 40
3.880558114568044
 40
3.880558114568044
 40
3.880558114568044
 40
3.880558114568044
 10
189.145513185819
 20
166.8326485368285
 10
189.207869455238
 20
166.740492171803
 10
189.1317327947871
 20
166.6833035490209
 10
189.103138483396
 20
166.6209472796017
 10
189.103138483396
 20
166.6209472796017
 10
189.0607637809731
 20
166.5997599283903
 10
189.0607637809731
 20
166.5997599283903
 10
189.0607637809731
 20
166.5997599283903
 10
188.9973739822266
 20
166.5785725771788
 10
188.9973739822266
 20
166.5785725771788
 10
188.9973739822266
 20
166.5785725771788
 10
188.9549992798037
 20
166.5997599283903
 10
188.9549992798037
 20
166.5997599283903
 10
188.9549992798037
 20
166.5997599283903
 10
188.8916094810572
 20
166.5997599283903
 10
188.8916094810572
 20
166.5997599283903
 10
188.8916094810572
 20
166.5997599283903
 10
188.8492347786343
 20
166.6209472796017
 10
188.8492347786343
 20
166.6209472796017
 10
188.8492347786343
 20
166.6209472796017
 10
188.8278751725349
 20
166.6633219820247
 10
188.8278751725349
 20
166.6633219820247
 10
188.8278751725349
 20
166.6633219820247
 10
188.8068600762114
 20
166.6845093332361
 10
188.8068600762114
 20
166.6845093332361
 10
188.8068600762114
 20
166.6845093332361
 10
188.8068600762114
 20
166.8326485368285
 10
188.8068600762114
 20
166.8326485368285
 10
188.8068600762114
 20
166.8326485368285
 10
188.8702498749578
 20
166.896038335575
 10
188.8702498749578
 20
166.896038335575
 10
189.0228677056355
 20
166.8819134347673
 10
189.0686875058164
 20
166.9411691162043
 10
189.145513185819
 20
166.8326485368285
 72
     1
 10
189.145513185819
 20
166.8326485368285
 11
189.145513185819
 21
166.8326485368285
 97
        0
 75
     0
 76
     1
 98
        0
450
        0
451
        0
460
0.0
461
0.0
452
        0
462
0.0
453
        0
470

  0
HATCH
  5
35D8
330
1F
100
AcDbEntity
  8
图层 1
 62
     7
100
AcDbHatch
 10
0.0
 20
0.0
 30
0.0
210
0.0
220
0.0
230
1.0
  2
SOLID
 70
     1
 71
     0
 91
        1
 92
        1
 93
        2
 72
     4
 94
        3
 73
     0
 74
     0
 95
       68
 96
       64
 40
0.0
 40
0.0
 40
0.0
 40
0.0
 40
0.3527780104152769
 40
0.3527780104152769
 40
0.3527780104152769
 40
0.7055560208305538
 40
0.7055560208305538
 40
0.7055560208305538
 40
1.058334031245828
 40
1.058334031245828
 40
1.058334031245828
 40
1.411112041661104
 40
1.411112041661104
 40
1.411112041661104
 40
1.763890052076384
 40
1.763890052076384
 40
1.763890052076384
 40
2.116668062491659
 40
2.116668062491659
 40
2.116668062491659
 40
2.469446072906936
 40
2.469446072906936
 40
2.469446072906936
 40
2.822224083322215
 40
2.822224083322215
 40
2.822224083322215
 40
3.175002093737492
 40
3.175002093737492
 40
3.175002093737492
 40
3.527780104152768
 40
3.527780104152768
 40
3.527780104152768
 40
3.880558114568044
 40
3.880558114568044
 40
3.880558114568044
 40
4.233336124983321
 40
4.233336124983321
 40
4.233336124983321
 40
4.586114135398599
 40
4.586114135398599
 40
4.586114135398599
 40
4.938892145813873
 40
4.938892145813873
 40
4.938892145813873
 40
5.291670156229153
 40
5.291670156229153
 40
5.291670156229153
 40
5.64444816664443
 40
5.64444816664443
 40
5.64444816664443
 40
5.997226177059705
 40
5.997226177059705
 40
5.997226177059705
 40
6.350004187474984
 40
6.350004187474984
 40
6.350004187474984
 40
6.702782197890257
 40
6.702782197890257
 40
6.702782197890257
 40
7.055560208305537
 40
7.055560208305537
 40
7.055560208305537
 40
7.408338218720808
 40
7.408338218720808
 40
7.408338218720808
 40
7.408338218720808
 10
174.7732543591544
 20
135.4846705078077
 10
174.7732543591544
 20
135.4846705078077
 10
174.7732543591544
 20
135.3789060066383
 10
174.7732543591544
 20
135.3789060066383
 10
174.7732543591544
 20
135.3789060066383
 10
174.8156290615773
 20
135.3789060066383
 10
174.8156290615773
 20
135.3789060066383
 10
174.8156290615773
 20
135.3789060066383
 10
174.8580037640002
 20
135.3578909103147
 10
174.8580037640002
 20
135.3578909103147
 10
174.8580037640002
 20
135.3578909103147
 10
174.9213935627468
 20
135.3578909103147
 10
174.9213935627468
 20
135.3578909103147
 10
174.9213935627468
 20
135.3578909103147
 10
174.9637682651697
 20
135.3365313042154
 10
174.9637682651697
 20
135.3365313042154
 10
174.9637682651697
 20
135.3365313042154
 10
174.9847833614933
 20
135.3365313042154
 10
174.9847833614933
 20
135.3365313042154
 10
174.9847833614933
 20
135.3365313042154
 10
175.0271580639162
 20
135.3155162078918
 10
175.0271580639162
 20
135.3155162078918
 10
175.0271580639162
 20
135.3155162078918
 10
175.0485176700155
 20
135.2941566017924
 10
175.0485176700155
 20
135.2941566017924
 10
175.0485176700155
 20
135.2941566017924
 10
175.0695327663391
 20
135.2941566017924
 10
175.0695327663391
 20
135.2941566017924
 10
175.0695327663391
 20
135.2941566017924
 10
175.0908923724385
 20
135.2731415054689
 10
175.0908923724385
 20
135.2731415054689
 10
175.0908923724385
 20
135.2731415054689
 10
175.1332670748614
 20
135.2731415054689
 10
175.1332670748614
 20
135.2731415054689
 10
175.1332670748614
 20
135.2731415054689
 10
175.154282171185
 20
135.2517818993695
 10
175.154282171185
 20
135.2517818993695
 10
175.154282171185
 20
135.2517818993695
 10
175.154282171185
 20
135.3578909103147
 10
175.154282171185
 20
135.3578909103147
 10
175.154282171185
 20
135.3578909103147
 10
175.1332670748614
 20
135.3789060066383
 10
175.1332670748614
 20
135.3789060066383
 10
175.1332670748614
 20
135.3789060066383
 10
175.0908923724385
 20
135.3789060066383
 10
175.0908923724385
 20
135.3789060066383
 10
175.0908923724385
 20
135.3789060066383
 10
175.0908923724385
 20
135.3999211029619
 10
175.0908923724385
 20
135.3999211029619
 10
175.0908923724385
 20
135.3999211029619
 10
175.0695327663391
 20
135.3999211029619
 10
175.0695327663391
 20
135.3999211029619
 10
175.0695327663391
 20
135.3999211029619
 10
175.0271580639162
 20
135.4212807090612
 10
175.0271580639162
 20
135.4212807090612
 10
175.0271580639162
 20
135.4212807090612
 10
175.0061429675926
 20
135.4212807090612
 10
175.0061429675926
 20
135.4212807090612
 10
175.0061429675926
 20
135.4212807090612
 10
174.9637682651697
 20
135.4422958053848
 10
174.9637682651697
 20
135.4422958053848
 10
174.8996894468716
 20
135.4498750204523
 10
174.8394002361073
 20
135.4860485469109
 10
174.7732543591544
 20
135.4846705078077
 72
     1
 10
174.7732543591544
 20
135.4846705078077
 11
174.7732543591544
 21
135.4846705078077
 97
        0
 75
     0
 76
     1
 98
        0
450
        0
451
        0
460
0.0
461
0.0
452
        0
462
0.0
453
        0
470

  0
HATCH
  5
3807
330
1F
100
AcDbEntity
  8
图层 1
 62
     7
100
AcDbHatch
 10
0.0
 20
0.0
 30
0.0
210
0.0
220
0.0
230
1.0
  2
SOLID
 70
     1
 71
     0
 91
        1
 92
        1
 93
        2
 72
     4
 94
        3
 73
     0
 74
     0
 95
       29
 96
       25
 40
0.0
 40
0.0
 40
0.0
 40
0.0
 40
0.3527780104152769
 40
0.3527780104152769
 40
0.3527780104152769
 40
0.7055560208305538
 40
0.7055560208305538
 40
0.7055560208305538
 40
1.058334031245828
 40
1.058334031245828
 40
1.058334031245828
 40
1.411112041661104
 40
1.411112041661104
 40
1.411112041661104
 40
1.763890052076384
 40
1.763890052076384
 40
1.763890052076384
 40
2.116668062491659
 40
2.116668062491659
 40
2.116668062491659
 40
2.469446072906936
 40
2.469446072906936
 40
2.469446072906936
 40
2.822224083322215
 40
2.822224083322215
 40
2.822224083322215
 40
2.822224083322215
 10
175.4929352807925
 20
164.0174869039101
 10
175.4929352807925
 20
164.0174869039101
 10
175.5139503771161
 20
163.9751122014871
 10
175.5139503771161
 20
163.9751122014871
 10
175.5139503771161
 20
163.9751122014871
 10
175.5139503771161
 20
163.9327374990642
 10
175.5139503771161
 20
163.9327374990642
 10
175.5139503771161
 20
163.9327374990642
 10
175.4929352807925
 20
163.8903627966413
 10
175.4929352807925
 20
163.8903627966413
 10
175.4929352807925
 20
163.8903627966413
 10
175.471920184469
 20
163.8691754454298
 10
175.471920184469
 20
163.8691754454298
 10
175.471920184469
 20
163.8691754454298
 10
175.4505605783696
 20
163.8269729978948
 10
175.4505605783696
 20
163.8269729978948
 10
175.3571984291289
 20
163.7715069239916
 10
175.272449024283
 20
163.8195660377152
 10
175.1966568736079
 20
163.8691754454298
 10
175.208370205985
 20
163.9930267098286
 10
175.1563492298397
 20
164.0216210212197
 10
175.2600466723544
 20
164.0596893514451
 10
175.3330827448232
 20
164.1094710140476
 10
175.4357466580104
 20
164.0753645462439
 10
175.4929352807925
 20
164.0174869039101
 72
     1
 10
175.4929352807925
 20
164.0174869039101
 11
175.4929352807925
 21
164.0174869039101
 97
        0
 75
     0
 76
     1
 98
        0
450
        0
451
        0
460
0.0
461
0.0
452
        0
462
0.0
453
        0
470

  0
HATCH
  5
3895
330
1F
100
AcDbEntity
  8
图层 1
 62
     7
100
AcDbHatch
 10
0.0
 20
0.0
 30
0.0
210
0.0
220
0.0
230
1.0
  2
SOLID
 70
     1
 71
     0
 91
        1
 92
        1
 93
        2
 72
     4
 94
        3
 73
     0
 74
     0
 95
       11
 96
        7
 40
0.0
 40
0.0
 40
0.0
 40
0.0
 40
0.3527780104152769
 40
0.3527780104152769
 40
0.3527780104152769
 40
0.7055560208305538
 40
0.7055560208305538
 40
0.7055560208305538
 40
0.7055560208305538
 10
174.9213935627468
 20
174.5369206529582
 10
174.9213935627468
 20
174.5369206529582
 10
174.9213935627468
 20
174.3043765542958
 10
174.9213935627468
 20
174.3043765542958
 10
174.9213935627468
 20
174.3043765542958
 10
174.9213935627468
 20
174.5369206529582
 10
174.9213935627468
 20
174.5369206529582
 72
     1
 10
174.9213935627468
 20
174.5369206529582
 11
174.9213935627468
 21
174.5369206529582
 97
        0
 75
     0
 76
     1
 98
        0
450
        0
451
        0
460
0.0
461
0.0
452
        0
462
0.0
453
        0
470

  0
HATCH
  5
3943
330
1F
100
AcDbEntity
  8
图层 1
 62
     7
100
AcDbHatch
 10
0.0
 20
0.0
 30
0.0
210
0.0
220
0.0
230
1.0
  2
SOLID
 70
     1
 71
     0
 91
        1
 92
        1
 93
        2
 72
     4
 94
        3
 73
     0
 74
     0
 95
      131
 96
      127
 40
0.0
 40
0.0
 40
0.0
 40
0.0
 40
0.3527780104152769
 40
0.3527780104152769
 40
0.3527780104152769
 40
0.7055560208305538
 40
0.7055560208305538
 40
0.7055560208305538
 40
1.058334031245828
 40
1.058334031245828
 40
1.058334031245828
 40
1.411112041661104
 40
1.411112041661104
 40
1.411112041661104
 40
1.763890052076384
 40
1.763890052076384
 40
1.763890052076384
 40
2.116668062491659
 40
2.116668062491659
 40
2.116668062491659
 40
2.469446072906936
 40
2.469446072906936
 40
2.469446072906936
 40
2.822224083322215
 40
2.822224083322215
 40
2.822224083322215
 40
3.175002093737492
 40
3.175002093737492
 40
3.175002093737492
 40
3.527780104152768
 40
3.527780104152768
 40
3.527780104152768
 40
3.880558114568044
 40
3.880558114568044
 40
3.880558114568044
 40
4.233336124983321
 40
4.233336124983321
 40
4.233336124983321
 40
4.586114135398599
 40
4.586114135398599
 40
4.586114135398599
 40
4.938892145813873
 40
4.938892145813873
 40
4.938892145813873
 40
5.291670156229153
 40
5.291670156229153
 40
5.291670156229153
 40
5.64444816664443
 40
5.64444816664443
 40
5.64444816664443
 40
5.997226177059705
 40
5.997226177059705
 40
5.997226177059705
 40
6.350004187474984
 40
6.350004187474984
 40
6.350004187474984
 40
6.702782197890257
 40
6.702782197890257
 40
6.702782197890257
 40
7.055560208305537
 40
7.055560208305537
 40
7.055560208305537
 40
7.408338218720808
 40
7.408338218720808
 40
7.408338218720808
 40
7.76111622913609
 40
7.76111622913609
 40
7.76111622913609
 40
8.113894239551369
 40
8.113894239551369
 40
8.113894239551369
 40
8.466672249966642
 40
8.466672249966642
 40
8.466672249966642
 40
8.819450260381922
 40
8.819450260381922
 40
8.819450260381922
 40
9.172228270797198
 40
9.172228270797198
 40
9.172228270797198
 40
9.525006281212476
 40
9.525006281212476
 40
9.525006281212476
 40
9.877784291627751
 40
9.877784291627751
 40
9.877784291627751
 40
10.23056230204303
 40
10.23056230204303
 40
10.23056230204303
 40
10.58334031245831
 40
10.58334031245831
 40
10.58334031245831
 40
10.93611832287358
 40
10.93611832287358
 40
10.93611832287358
 40
11.28889633328886
 40
11.28889633328886
 40
11.28889633328886
 40
11.64167434370414
 40
11.64167434370414
 40
11.64167434370414
 40
11.99445235411941
 40
11.99445235411941
 40
11.99445235411941
 40
12.34723036453469
 40
12.34723036453469
 40
12.34723036453469
 40
12.70000837494997
 40
12.70000837494997
 40
12.70000837494997
 40
13.05278638536524
 40
13.05278638536524
 40
13.05278638536524
 40
13.40556439578052
 40
13.40556439578052
 40
13.40556439578052
 40
13.7583424061958
 40
13.7583424061958
 40
13.7583424061958
 40
14.11112041661107
 40
14.11112041661107
 40
14.11112041661107
 40
14.46389842702635
 40
14.46389842702635
 40
14.46389842702635
 40
14.81667643744163
 40
14.81667643744163
 40
14.81667643744163
 40
14.81667643744163
 10
173.3972823146245
 20
126.8274843518258
 10
173.3972823146245
 20
126.8274843518258
 10
173.3972823146245
 20
126.7217198506564
 10
173.3972823146245
 20
126.7217198506564
 10
173.3972823146245
 20
126.7217198506564
 10
173.4186419207238
 20
126.7217198506564
 10
173.4186419207238
 20
126.7217198506564
 10
173.4186419207238
 20
126.7217198506564
 10
173.4820317194703
 20
126.7007047543328
 10
173.4820317194703
 20
126.7007047543328
 10
173.4820317194703
 20
126.7007047543328
 10
173.5244064218933
 20
126.6793451482334
 10
173.5244064218933
 20
126.6793451482334
 10
173.5244064218933
 20
126.6793451482334
 10
173.5877962206398
 20
126.6793451482334
 10
173.5877962206398
 20
126.6793451482334
 10
173.5877962206398
 20
126.6793451482334
 10
173.6301709230627
 20
126.6583300519099
 10
173.6301709230627
 20
126.6583300519099
 10
173.7955356154449
 20
126.5911506456296
 10
173.759706598762
 20
126.6380039751379
 10
173.9478089363468
 20
126.5525655507404
 10
173.9478089363468
 20
126.5525655507404
 10
173.9688240326703
 20
126.4464565397952
 10
173.9688240326703
 20
126.4464565397952
 10
173.9688240326703
 20
126.4464565397952
 10
174.0325583411926
 20
126.5101908483175
 10
174.0325583411926
 20
126.5101908483175
 10
174.0325583411926
 20
126.5101908483175
 10
174.0749330436156
 20
126.5101908483175
 10
174.0749330436156
 20
126.5101908483175
 10
174.0749330436156
 20
126.5101908483175
 10
174.1593379386856
 20
126.4678161458946
 10
174.1593379386856
 20
126.4678161458946
 10
174.1593379386856
 20
126.4678161458946
 10
174.180697544785
 20
126.4464565397952
 10
174.180697544785
 20
126.4464565397952
 10
174.2464989119621
 20
126.3982251711837
 10
174.3298702777047
 20
126.3716979184474
 10
174.3922265471239
 20
126.3196769423022
 10
174.608234176548
 20
126.2059887162895
 10
174.7749769080334
 20
126.0278771622029
 10
174.9637682651697
 20
125.8749148217494
 10
174.9637682651697
 20
125.8749148217494
 10
175.0061429675926
 20
125.9172895241723
 10
175.0061429675926
 20
125.9172895241723
 10
174.961356696739
 20
125.9631093243532
 10
174.782211613325
 20
126.1246844092016
 10
174.7308796567315
 20
126.1501781326105
 10
174.7308796567315
 20
126.1501781326105
 10
174.6885049543085
 20
126.1925528350335
 10
174.6885049543085
 20
126.1925528350335
 10
174.6885049543085
 20
126.1925528350335
 10
174.667489857985
 20
126.2349275374564
 10
174.667489857985
 20
126.2349275374564
 10
174.667489857985
 20
126.2349275374564
 10
174.625115155562
 20
126.2559426337799
 10
174.625115155562
 20
126.2559426337799
 10
174.625115155562
 20
126.2559426337799
 10
174.5827404531391
 20
126.2983173362029
 10
174.5827404531391
 20
126.2983173362029
 10
174.5827404531391
 20
126.2983173362029
 10
174.5403657507162
 20
126.3196769423022
 10
174.5403657507162
 20
126.3196769423022
 10
174.5403657507162
 20
126.3196769423022
 10
174.4979910482932
 20
126.3620516447252
 10
174.4979910482932
 20
126.3620516447252
 10
174.4735308542117
 20
126.3875453681341
 10
174.3247026310678
 20
126.4695386947736
 10
174.2864620459544
 20
126.4888312422181
 10
174.2864620459544
 20
126.4888312422181
 10
174.2654469496308
 20
126.5101908483175
 10
174.2654469496308
 20
126.5101908483175
 10
174.2654469496308
 20
126.5101908483175
 10
174.2230722472079
 20
126.5312059446411
 10
174.2230722472079
 20
126.5312059446411
 10
174.2230722472079
 20
126.5312059446411
 10
174.2017126411085
 20
126.5525655507404
 10
174.2017126411085
 20
126.5525655507404
 10
174.2017126411085
 20
126.5525655507404
 10
174.1383228423621
 20
126.573580647064
 10
174.1383228423621
 20
126.573580647064
 10
174.1383228423621
 20
126.573580647064
 10
174.1169632362627
 20
126.5945957433876
 10
174.1169632362627
 20
126.5945957433876
 10
174.1169632362627
 20
126.5945957433876
 10
174.0959481399391
 20
126.7007047543328
 10
174.0959481399391
 20
126.7007047543328
 10
174.0959481399391
 20
126.7007047543328
 10
174.0325583411926
 20
126.6369704458105
 10
174.0325583411926
 20
126.6369704458105
 10
174.0325583411926
 20
126.6369704458105
 10
173.9901836387697
 20
126.6369704458105
 10
173.9901836387697
 20
126.6369704458105
 10
173.9901836387697
 20
126.6369704458105
 10
173.9054342339239
 20
126.6793451482334
 10
173.9054342339239
 20
126.6793451482334
 10
173.9054342339239
 20
126.6793451482334
 10
173.8420444351773
 20
126.7007047543328
 10
173.8420444351773
 20
126.7007047543328
 10
173.8420444351773
 20
126.7007047543328
 10
173.7996697327544
 20
126.7217198506564
 10
173.7996697327544
 20
126.7217198506564
 10
173.7996697327544
 20
126.7217198506564
 10
173.7572950303315
 20
126.7217198506564
 10
173.7572950303315
 20
126.7217198506564
 10
173.7572950303315
 20
126.7217198506564
 10
173.6725456254856
 20
126.7640945530793
 10
173.6725456254856
 20
126.7640945530793
 10
173.6725456254856
 20
126.7640945530793
 10
173.6515305291621
 20
126.7640945530793
 10
173.6515305291621
 20
126.7640945530793
 10
173.6515305291621
 20
126.7640945530793
 10
173.5667811243162
 20
126.7851096494029
 10
173.5667811243162
 20
126.7851096494029
 10
173.5667811243162
 20
126.7851096494029
 10
173.5033913255697
 20
126.8064692555022
 10
173.5033913255697
 20
126.8064692555022
 10
173.5033913255697
 20
126.8064692555022
 10
173.4396570170474
 20
126.8064692555022
 10
173.4396570170474
 20
126.8064692555022
 10
173.4396570170474
 20
126.8064692555022
 10
173.4186419207238
 20
126.8274843518258
 10
173.4186419207238
 20
126.8274843518258
 10
173.4186419207238
 20
126.8274843518258
 10
173.3972823146245
 20
126.8274843518258
 10
173.3972823146245
 20
126.8274843518258
 72
     1
 10
173.3972823146245
 20
126.8274843518258
 11
173.3972823146245
 21
126.8274843518258
 97
        0
 75
     0
 76
     1
 98
        0
450
        0
451
        0
460
0.0
461
0.0
452
        0
462
0.0
453
        0
470

  0
HATCH
  5
4842
330
1F
100
AcDbEntity
  8
图层 1
 62
     7
100
AcDbHatch
 10
0.0
 20
0.0
 30
0.0
210
0.0
220
0.0
230
1.0
  2
SOLID
 70
     1
 71
     0
 91
        1
 92
        1
 93
        2
 72
     4
 94
        3
 73
     0
 74
     0
 95
       47
 96
       43
 40
0.0
 40
0.0
 40
0.0
 40
0.0
 40
0.3527780104152769
 40
0.3527780104152769
 40
0.3527780104152769
 40
0.7055560208305538
 40
0.7055560208305538
 40
0.7055560208305538
 40
1.058334031245828
 40
1.058334031245828
 40
1.058334031245828
 40
1.411112041661104
 40
1.411112041661104
 40
1.411112041661104
 40
1.763890052076384
 40
1.763890052076384
 40
1.763890052076384
 40
2.116668062491659
 40
2.116668062491659
 40
2.116668062491659
 40
2.469446072906936
 40
2.469446072906936
 40
2.469446072906936
 40
2.822224083322215
 40
2.822224083322215
 40
2.822224083322215
 40
3.175002093737492
 40
3.175002093737492
 40
3.175002093737492
 40
3.527780104152768
 40
3.527780104152768
 40
3.527780104152768
 40
3.880558114568044
 40
3.880558114568044
 40
3.880558114568044
 40
4.233336124983321
 40
4.233336124983321
 40
4.233336124983321
 40
4.586114135398599
 40
4.586114135398599
 40
4.586114135398599
 40
4.938892145813873
 40
4.938892145813873
 40
4.938892145813873
 40
4.938892145813873
 10
180.1920486226523
 20
255.6479577566324
 10
180.1920486226523
 20
255.6479577566324
 10
180.2130637189759
 20
255.6055830542095
 10
180.2130637189759
 20
255.6055830542095
 10
180.2130637189759
 20
255.6055830542095
 10
180.2130637189759
 20
255.5210059042515
 10
180.2130637189759
 20
255.5210059042515
 10
180.2130637189759
 20
255.5210059042515
 10
180.1920486226523
 20
255.4786312018286
 10
180.1920486226523
 20
255.4786312018286
 10
180.1920486226523
 20
255.4786312018286
 10
180.1496739202294
 20
255.4359119896299
 10
180.1496739202294
 20
255.4359119896299
 10
180.1496739202294
 20
255.4359119896299
 10
180.1283143141301
 20
255.4147246384184
 10
180.1283143141301
 20
255.4147246384184
 10
180.1283143141301
 20
255.4147246384184
 10
180.0225498129606
 20
255.4147246384184
 10
180.0225498129606
 20
255.4147246384184
 10
180.0225498129606
 20
255.4147246384184
 10
179.9591600142141
 20
255.4359119896299
 10
179.9591600142141
 20
255.4359119896299
 10
179.9591600142141
 20
255.4359119896299
 10
179.9167853117912
 20
255.4570993408414
 10
179.9167853117912
 20
255.4570993408414
 10
179.9167853117912
 20
255.4570993408414
 10
179.8957702154676
 20
255.4786312018286
 10
179.8957702154676
 20
255.4786312018286
 10
179.8957702154676
 20
255.4786312018286
 10
179.8744106093683
 20
255.4994740432643
 10
179.8744106093683
 20
255.4994740432643
 10
179.8744106093683
 20
255.4994740432643
 10
179.8744106093683
 20
255.6479577566324
 10
179.8744106093683
 20
255.6479577566324
 10
179.9608825630931
 20
255.7323626517025
 10
180.045631967939
 20
255.7085914771726
 10
180.1496739202294
 20
255.7115198102668
 10
180.1496739202294
 20
255.7115198102668
 10
180.170689016553
 20
255.6688005980681
 10
180.170689016553
 20
255.6688005980681
 10
180.170689016553
 20
255.6688005980681
 10
180.1920486226523
 20
255.6479577566324
 10
180.1920486226523
 20
255.6479577566324
 72
     1
 10
180.1920486226523
 20
255.6479577566324
 11
180.1920486226523
 21
255.6479577566324
 97
        0
 75
     0
 76
     1
 98
        0
450
        0
451
        0
460
0.0
461
0.0
452
        0
462
0.0
453
        0
470

  0
INSERT
  5
12DE1
102
{ACAD_XDICTIONARY
360
13B18
102
}
330
1F
100
AcDbEntity
  8
图框
 62
     3
100
AcDbBlockReference
  2
A4图框-NEW
 10
348.3961263460474
 20
-60.01392767456092
 30
0.0
 41
0.5
 42
0.5
 43
0.5
  0
MTEXT
  5
1349F
330
1F
100
AcDbEntity
  8
图框
 62
     3
100
AcDbMText
 10
903.4572796531236
 20
198.8795053310159
 30
0.0
 40
1.1264
 41
16.80619599621033
 71
     5
 72
     5
  1
{\T0.95;HY-Z25-CV}
  7
Romans字体
 73
     1
 44
1.0
1001
ACAD
1000
ACAD_MTEXT_DEFINED_HEIGHT_BEGIN
1070
    46
1040
4.201411259089844
1000
ACAD_MTEXT_DEFINED_HEIGHT_END
  0
MTEXT
  5
134E7
330
1F
100
AcDbEntity
  8
图框
 62
     3
100
AcDbMText
 10
869.4643712005385
 20
187.8002625418759
 30
0.0
 40
1.1264
 41
16.80619599621068
 71
     5
 72
     5
  1
2:1
  7
Romans字体
 73
     1
 44
1.0
  0
MTEXT
  5
134E8
330
1F
100
AcDbEntity
  8
图框
 62
     3
100
AcDbMText
 10
880.5153927878235
 20
187.7975188525754
 30
0.0
 40
1.1264
 41
16.80619599621068
 71
     5
 72
     5
  1
4.4 g
  7
Romans字体
 73
     1
 44
1.0
  0
MTEXT
  5
1DE52
102
{ACAD_XDICTIONARY
360
3FE0B
102
}
330
1F
100
AcDbEntity
  8
0
 62
     3
100
AcDbMText
 10
880.174880533038
 20
225.3408200650312
 30
0.0
 40
1.25
 41
0.0000000000000213
 71
     1
 72
     5
  1
\A1;技术参数：{\Fromans|c134;                             \P- }温度范围：{\Fromans|c134;-40}℃{\Fromans|c134; ... +85}℃{\Fromans|c134;          \P- }材料：硅橡胶{\Fromans|c134;\P- }防护等级：{\Fromans|c134;IP67 }
 73
     1
 44
1.0
  0
MTEXT
  5
1DE53
102
{ACAD_XDICTIONARY
360
3FE0D
102
}
330
1F
100
AcDbEntity
  8
0
 62
     3
100
AcDbMText
 10
880.0600771815068
 20
215.3213401228899
 30
0.0
 40
1.25
 41
0.0000000000000071
 71
     1
 72
     5
  1
\A1;{\Fromans|c134;Technical specification:\P- \A0;Temperature range\A1;: -40}℃{\Fromans|c134; ... +85}℃{\Fromans|c134;\P- \A0;Degree of protection\A1;: IP67\P- \A0;Material:\A1;Silicone rubber\P  }
 73
     1
 44
1.0
1001
ACAD
1000
ACAD_MTEXT_DEFINED_HEIGHT_BEGIN
1070
    46
1040
40.82810499904314
1000
ACAD_MTEXT_DEFINED_HEIGHT_END
  0
MTEXT
  5
3EB9C
330
1F
100
AcDbEntity
  8
图框
100
AcDbMText
 10
792.1829887232899
 20
191.5592188803685
 30
0.0
 40
1.25
 41
0.0000000000000222
 71
     5
 72
     5
  1
{\fFangSong_GB2312|b0|i0|c134|p49;\C4;比例\Fromans|c134;/Scale 1:1}
  7
Romans字体
 73
     1
 44
1.0
1001
ACAD
1000
ACAD_MTEXT_DEFINED_HEIGHT_BEGIN
1070
    46
1040
2.704364302212259
1000
ACAD_MTEXT_DEFINED_HEIGHT_END
  0
MTEXT
  5
3EC4B
330
1F
100
AcDbEntity
  8
图框
 62
     3
100
AcDbMText
 10
903.4572796531236
 20
194.5361325781729
 30
0.0
 40
1.1264
 41
16.80619599621033
 71
     5
 72
     5
  1
{\T0.95;2690000009001}
  7
Romans字体
 73
     1
 44
1.0
1001
ACAD
1000
ACAD_MTEXT_DEFINED_HEIGHT_BEGIN
1070
    46
1040
4.201411259089844
1000
ACAD_MTEXT_DEFINED_HEIGHT_END
  0
DIMENSION
  5
3F0BA
330
1F
100
AcDbEntity
  8
0
100
AcDbDimension
  2
*D2
 10
828.3854908776076
 20
223.0092194355736
 30
0.0
 11
809.7419258977081
 21
223.0092194355736
 31
0.0
 70
   160
  1
(<>)
 71
     2
 42
37.28712995980027
  3
02
100
AcDbAlignedDimension
 13
791.0983609178073
 23
248.3219319889686
 33
0.0
 14
828.3854908776076
 24
248.3219319889686
 34
0.0
100
AcDbRotatedDimension
1001
ACAD
1000
DSTYLE
1002
{
1070
   340
1005
FD48
1070
   271
1070
     1
1002
}
  0
LINE
  5
3F0BB
330
1F
100
AcDbEntity
  8
CEN
100
AcDbLine
 10
807.5983609178077
 20
230.091097267951
 30
0.0
 11
807.5983609178077
 21
266.6876371984685
 31
0.0
  0
LINE
  5
3F0BC
330
1F
100
AcDbEntity
  8
0
100
AcDbLine
 10
822.948825288808
 20
252.8344970683686
 30
0.0
 11
823.4285273004083
 21
252.9755147270687
 31
0.0
  0
LINE
  5
3F0BD
330
1F
100
AcDbEntity
  8
0
100
AcDbLine
 10
822.948825288808
 20
243.8093669093687
 30
0.0
 11
823.4285273000081
 21
243.6683492496686
 31
0.0
  0
LINE
  5
3F0BE
330
1F
100
AcDbEntity
  8
0
100
AcDbLine
 10
824.8858493996076
 20
251.0825483822687
 30
0.0
 11
824.9781465904083
 21
251.5739557778686
 31
0.0
  0
LINE
  5
3F0BF
330
1F
100
AcDbEntity
  8
0
100
AcDbLine
 10
826.4190764832077
 20
250.5982669370688
 30
0.0
 11
826.6257936043079
 21
251.0535339266688
 31
0.0
  0
LINE
  5
3F0C0
330
1F
100
AcDbEntity
  8
0
100
AcDbLine
 10
826.4190764832077
 20
246.0455970408687
 30
0.0
 11
826.6257936042077
 21
245.5903300511686
 31
0.0
  0
LINE
  5
3F0C1
330
1F
100
AcDbEntity
  8
0
100
AcDbLine
 10
824.8858493993079
 20
245.5613155957688
 30
0.0
 11
824.9781465888075
 21
245.0699081998687
 31
0.0
  0
ARC
  5
3F0C2
330
1F
100
AcDbEntity
  8
0
100
AcDbCircle
 10
807.5983609178077
 20
248.3219319889686
 30
0.0
 40
16.5
100
AcDbArc
 50
16.38171644739703
 51
343.6182835564058
  0
ARC
  5
3F0C3
330
1F
100
AcDbEntity
  8
0
100
AcDbCircle
 10
807.5983609178077
 20
248.3219319889686
 30
0.0
 40
16.0
100
AcDbArc
 50
16.38171644359427
 51
343.6182835564058
  0
ARC
  5
3F0C4
330
1F
100
AcDbEntity
  8
0
100
AcDbCircle
 10
823.6490670603084
 20
244.4976892761686
 30
0.0
 40
7.2
100
AcDbArc
 50
65.57924810551023
 51
79.36251526759345
  0
ARC
  5
3F0C5
330
1F
100
AcDbEntity
  8
0
100
AcDbCircle
 10
823.6490670603084
 20
244.4976892761686
 30
0.0
 40
6.7
100
AcDbArc
 50
65.57924810551023
 51
79.36251526759345
  0
ARC
  5
3F0C6
330
1F
100
AcDbEntity
  8
0
100
AcDbCircle
 10
825.3473353467082
 20
243.1042786159688
 30
0.0
 40
2.5
100
AcDbArc
 50
100.6374847324065
 51
163.6182835564057
  0
ARC
  5
3F0C7
330
1F
100
AcDbEntity
  8
0
100
AcDbCircle
 10
825.3473353467082
 20
243.1042786159688
 30
0.0
 40
2.0
100
AcDbArc
 50
100.6374847324065
 51
163.6182835564057
  0
ARC
  5
3F0C8
330
1F
100
AcDbEntity
  8
0
100
AcDbCircle
 10
823.6490670603084
 20
252.1461747017686
 30
0.0
 40
7.2
100
AcDbArc
 50
280.6374847324065
 51
294.4207518944898
  0
ARC
  5
3F0C9
330
1F
100
AcDbEntity
  8
0
100
AcDbCircle
 10
823.6490670603084
 20
252.1461747017686
 30
0.0
 40
6.7
100
AcDbArc
 50
280.6374847324065
 51
294.4207518944898
  0
ARC
  5
3F0CA
330
1F
100
AcDbEntity
  8
0
100
AcDbCircle
 10
825.3854908776077
 20
248.3219319889686
 30
0.0
 40
3.0
100
AcDbArc
 50
294.4207518944898
 51
65.57924810551023
  0
ARC
  5
3F0CB
330
1F
100
AcDbEntity
  8
0
100
AcDbCircle
 10
825.3473353467082
 20
253.5395853619687
 30
0.0
 40
2.5
100
AcDbArc
 50
196.3817164435941
 51
259.3625152675934
  0
ARC
  5
3F0CC
330
1F
100
AcDbEntity
  8
0
100
AcDbCircle
 10
825.3854908776077
 20
248.3219319889686
 30
0.0
 40
2.5
100
AcDbArc
 50
294.4207518944898
 51
65.57924810551023
  0
ARC
  5
3F0CD
330
1F
100
AcDbEntity
  8
0
100
AcDbCircle
 10
825.3473353467082
 20
253.5395853619687
 30
0.0
 40
2.0
100
AcDbArc
 50
196.3817164435941
 51
259.3625152675934
  0
CIRCLE
  5
3F0CE
330
1F
100
AcDbEntity
  8
0
100
AcDbCircle
 10
826.0983609178078
 20
248.3219319889686
 30
0.0
 40
0.75
  0
LEADER
  5
3F0CF
330
1F
100
AcDbEntity
  8
DIM
100
AcDbLeader
  3
Standard
 76
     2
 10
786.0383058862074
 20
255.7144657262686
 30
0.0
 10
786.0383058862074
 20
250.1219319889686
 30
0.0
1001
ACAD
1000
DSTYLE
1002
{
1070
    41
1040
2.5
1002
}
  0
LEADER
  5
3F0D0
330
1F
100
AcDbEntity
  8
DIM
100
AcDbLeader
  3
Standard
 76
     2
 10
832.5959048467078
 20
255.7144657262686
 30
0.0
 10
832.5959048467078
 20
250.1219319889686
 30
0.0
1001
ACAD
1000
DSTYLE
1002
{
1070
    41
1040
2.5
1002
}
  0
LINE
  5
3F0D1
330
1F
100
AcDbEntity
  8
DIM
100
AcDbLine
 10
786.0383058862074
 20
250.1219319889686
 30
0.0
 11
786.0383058862074
 21
248.3219319889686
 31
0.0
  0
LINE
  5
3F0D2
330
1F
100
AcDbEntity
  8
粗实线
100
AcDbLine
 10
786.0383058862074
 20
248.3219319889686
 30
0.0
 11
787.8383058862074
 21
248.3219319889686
 31
0.0
  0
LINE
  5
3F0D3
330
1F
100
AcDbEntity
  8
CEN
100
AcDbLine
 10
787.8383058862074
 20
248.3219319889686
 30
0.0
 11
830.7959048467077
 21
248.3219319889686
 31
0.0
  0
LINE
  5
3F0D4
330
1F
100
AcDbEntity
  8
粗实线
100
AcDbLine
 10
830.7959048467077
 20
248.3219319889686
 30
0.0
 11
832.5959048467078
 21
248.3219319889686
 31
0.0
  0
LINE
  5
3F0D5
330
1F
100
AcDbEntity
  8
DIM
100
AcDbLine
 10
832.5959048467078
 20
250.1219319889686
 30
0.0
 11
832.5959048467078
 21
248.3219319889686
 31
0.0
  0
LINE
  5
3F0D6
330
1F
100
AcDbEntity
  8
0
 48
2.0
100
AcDbLine
 10
825.2733609178077
 20
248.3219319889686
 30
0.0
 11
826.923360917808
 21
248.3219319889686
 31
0.0
  0
LINE
  5
3F0D7
330
1F
100
AcDbEntity
  8
0
 48
2.0
100
AcDbLine
 10
826.0983609178078
 20
247.1440435579537
 30
0.0
 11
826.0983609178078
 21
249.3320658361563
 31
0.0
  0
MTEXT
  5
3F0D8
330
1F
100
AcDbEntity
  8
图框
100
AcDbMText
 10
785.905071089992
 20
257.0670966523243
 30
0.0
 40
2.0
 41
0.0000000000000222
 71
     5
 72
     5
  1
{\C4;A}
  7
Romans字体
 73
     1
 44
1.0
1001
ACAD
1000
ACAD_MTEXT_DEFINED_HEIGHT_BEGIN
1070
    46
1040
2.704364302212259
1000
ACAD_MTEXT_DEFINED_HEIGHT_END
  0
MTEXT
  5
3F0D9
330
1F
100
AcDbEntity
  8
图框
100
AcDbMText
 10
832.4626700504927
 20
257.0670966523243
 30
0.0
 40
2.0
 41
0.0000000000000222
 71
     5
 72
     5
  1
{\C4;A}
  7
Romans字体
 73
     1
 44
1.0
1001
ACAD
1000
ACAD_MTEXT_DEFINED_HEIGHT_BEGIN
1070
    46
1040
2.704364302212259
1000
ACAD_MTEXT_DEFINED_HEIGHT_END
  0
DIMENSION
  5
3F16B
330
1F
100
AcDbEntity
  8
DIM
100
AcDbDimension
  2
*D3
 10
875.970123352479
 20
235.680526933669
 30
0.0
 11
861.9701233524791
 21
235.680526933669
 31
0.0
 70
   160
  1
%%C<>
 71
     2
 42
28.0
  3
01
100
AcDbAlignedDimension
 13
847.9701233524789
 23
256.4953603963884
 33
0.0
 14
875.970123352479
 24
256.4953603963884
 34
0.0
100
AcDbRotatedDimension
1001
ACAD_DSTYLE_DIMINSPECT
1070
   394
1070
     4
1070
   393
1070
     1
  0
DIMENSION
  5
3F16C
330
1F
100
AcDbEntity
  8
DIM
100
AcDbDimension
  2
*D4
 10
880.470123352479
 20
269.5551052325181
 30
0.0
 11
871.2201233524789
 21
269.5551052325181
 31
0.0
 70
   160
  1
<>
 71
     2
 42
18.49999999999988
  3
01
100
AcDbAlignedDimension
 13
861.9701233524791
 23
260.7953413578885
 33
0.0
 14
880.470123352479
 24
260.7953413578885
 34
0.0
100
AcDbRotatedDimension
  0
DIMENSION
  5
3F16D
330
1F
100
AcDbEntity
  8
DIM
100
AcDbDimension
  2
*D5
 10
881.2201233524788
 20
263.1495017430377
 30
0.0
 11
870.1076233524789
 21
263.1495017430377
 31
0.0
 70
   160
  1
%%c<>
 71
     3
 42
1.499999999999886
  3
01
100
AcDbAlignedDimension
 13
879.7201233524789
 23
258.9953413578885
 33
0.0
 14
881.2201233524788
 24
258.9953413578885
 34
0.0
100
AcDbRotatedDimension
  0
DIMENSION
  5
3F16E
330
1F
100
AcDbEntity
  8
DIM
100
AcDbDimension
  2
*D6
 10
869.2522751809788
 20
242.9953413578886
 30
0.0
 11
869.2522751809788
 21
249.9953413578885
 31
0.0
 70
   160
 71
     2
 42
13.99999999999997
  3
01
100
AcDbAlignedDimension
 13
864.8227031715949
 23
256.9953413578886
 33
0.0
 14
865.2176843373789
 24
242.9953413578886
 34
0.0
 50
270.0
100
AcDbRotatedDimension
  0
LINE
  5
3F16F
330
1F
100
AcDbEntity
  8
CEN
100
AcDbLine
 10
861.9701233524791
 20
241.1953413578886
 30
0.0
 11
861.9701233524791
 21
260.7953413578885
 31
0.0
  0
LINE
  5
3F170
330
1F
100
AcDbEntity
  8
0
100
AcDbLine
 10
882.2572533122791
 20
258.9953413578885
 30
0.0
 11
845.9701233524789
 21
258.9953413578885
 31
0.0
  0
LINE
  5
3F171
330
1F
100
AcDbEntity
  8
CEN
100
AcDbLine
 10
880.470123352479
 20
255.1953413578886
 30
0.0
 11
880.470123352479
 21
260.7953413578885
 31
0.0
  0
LINE
  5
3F172
330
1F
100
AcDbEntity
  8
0
100
AcDbLine
 10
845.4701233524788
 20
258.4953413578885
 30
0.0
 11
845.4701233524788
 21
257.2953413578885
 31
0.0
  0
LINE
  5
3F173
330
1F
100
AcDbEntity
  8
0
100
AcDbLine
 10
846.4701233524788
 20
256.6953413578886
 30
0.0
 11
846.4701233524788
 21
242.9953413578886
 31
0.0
  0
LINE
  5
3F174
330
1F
100
AcDbEntity
  8
0
100
AcDbLine
 10
847.965760084679
 20
256.4953603963884
 30
0.0
 11
847.854990160579
 21
243.8023843150887
 31
0.0
  0
LINE
  5
3F175
330
1F
100
AcDbEntity
  8
0
100
AcDbLine
 10
848.4701233524789
 20
256.9953413578886
 30
0.0
 11
847.965760084679
 21
256.4953603963884
 31
0.0
  0
LINE
  5
3F176
102
{ACAD_REACTORS
330
3F18D
102
}
330
1F
100
AcDbEntity
  8
0
100
AcDbLine
 10
877.4701233524789
 20
242.9953413578886
 30
0.0
 11
846.4701233524788
 21
242.9953413578886
 31
0.0
  0
LINE
  5
3F177
330
1F
100
AcDbEntity
  8
0
100
AcDbLine
 10
876.0852565443791
 20
243.8023843150887
 30
0.0
 11
847.854990160579
 21
243.8023843150887
 31
0.0
  0
LINE
  5
3F178
330
1F
100
AcDbEntity
  8
0
100
AcDbLine
 10
847.854990160579
 20
243.8023843150887
 30
0.0
 11
847.0479472033789
 21
242.9953413578886
 31
0.0
  0
LINE
  5
3F179
330
1F
100
AcDbEntity
  8
0
100
AcDbLine
 10
876.0852565443791
 20
243.8023843150887
 30
0.0
 11
876.8922995015797
 21
242.9953413578886
 31
0.0
  0
LINE
  5
3F17A
330
1F
100
AcDbEntity
  8
0
100
AcDbLine
 10
847.965760084679
 20
256.4953603963884
 30
0.0
 11
875.9744866201797
 21
256.4953603963884
 31
0.0
  0
LINE
  5
3F17B
330
1F
100
AcDbEntity
  8
0
100
AcDbLine
 10
882.4572533122799
 20
256.9953413578886
 30
0.0
 11
877.7701233524792
 21
256.9953413578886
 31
0.0
  0
LINE
  5
3F17C
330
1F
100
AcDbEntity
  8
0
100
AcDbLine
 10
875.4701233524791
 20
256.9953413578886
 30
0.0
 11
848.4701233524789
 21
256.9953413578886
 31
0.0
  0
LINE
  5
3F17D
330
1F
100
AcDbEntity
  8
0
100
AcDbLine
 10
846.1701233524797
 20
256.9953413578886
 30
0.0
 11
845.7701233524787
 21
256.9953413578886
 31
0.0
  0
LINE
  5
3F17E
330
1F
100
AcDbEntity
  8
0
100
AcDbLine
 10
875.9744866201797
 20
256.4953603963884
 30
0.0
 11
876.0852565443791
 21
243.8023843150887
 31
0.0
  0
LINE
  5
3F17F
330
1F
100
AcDbEntity
  8
0
100
AcDbLine
 10
875.4701233524791
 20
256.9953413578886
 30
0.0
 11
875.9744866201797
 21
256.4953603963884
 31
0.0
  0
LINE
  5
3F180
102
{ACAD_REACTORS
330
3F18D
102
}
330
1F
100
AcDbEntity
  8
0
100
AcDbLine
 10
877.4701233524789
 20
256.6953413578886
 30
0.0
 11
877.4701233524789
 21
242.9953413578886
 31
0.0
  0
LINE
  5
3F181
330
1F
100
AcDbEntity
  8
0
100
AcDbLine
 10
879.7201233524789
 20
256.9953413578886
 30
0.0
 11
879.7201233524789
 21
258.9953413578885
 31
0.0
  0
LINE
  5
3F182
330
1F
100
AcDbEntity
  8
0
100
AcDbLine
 10
881.2201233524788
 20
256.9953413578886
 30
0.0
 11
881.2201233524788
 21
258.9953413578885
 31
0.0
  0
LINE
  5
3F183
330
1F
100
AcDbEntity
  8
0
100
AcDbLine
 10
882.757253312279
 20
258.4953413578885
 30
0.0
 11
882.757253312279
 21
257.2953413578885
 31
0.0
  0
ARC
  5
3F184
330
1F
100
AcDbEntity
  8
0
100
AcDbCircle
 10
845.9701233524789
 20
258.4953413578885
 30
0.0
 40
0.5
100
AcDbArc
 50
90.0
 51
180.0
  0
ARC
  5
3F185
330
1F
100
AcDbEntity
  8
0
100
AcDbCircle
 10
882.2572533122791
 20
258.4953413578885
 30
0.0
 40
0.5
100
AcDbArc
 50
0.0
 51
90.0
  0
ARC
  5
3F186
330
1F
100
AcDbEntity
  8
0
100
AcDbCircle
 10
846.1701233524797
 20
256.6953413578886
 30
0.0
 40
0.3
100
AcDbArc
 50
0.0
 51
90.0
  0
ARC
  5
3F187
330
1F
100
AcDbEntity
  8
0
100
AcDbCircle
 10
877.7701233524792
 20
256.6953413578886
 30
0.0
 40
0.3
100
AcDbArc
 50
90.0
 51
180.0
  0
ARC
  5
3F188
330
1F
100
AcDbEntity
  8
0
100
AcDbCircle
 10
882.4572533122799
 20
257.2953413578885
 30
0.0
 40
0.3
100
AcDbArc
 50
270.0
 51
0.0
  0
ARC
  5
3F189
330
1F
100
AcDbEntity
  8
0
100
AcDbCircle
 10
845.7701233524787
 20
257.2953413578885
 30
0.0
 40
0.3
100
AcDbArc
 50
180.0
 51
270.0
  0
HATCH
  5
3F18A
330
1F
100
AcDbEntity
  8
Hat
100
AcDbHatch
 10
0.0
 20
0.0
 30
0.0
210
0.0
220
0.0
230
1.0
  2
ANSI31
 70
     0
 71
     0
 91
        2
 92
        1
 93
       20
 72
     1
 10
877.4701233524789
 20
256.6953413578886
 11
877.4701233524789
 21
242.9953413578886
 72
     1
 10
877.4701233524789
 20
242.9953413578886
 11
876.8922995015785
 21
242.9953413578886
 72
     1
 10
876.0852565443791
 20
243.8023843150887
 11
876.8922995015785
 21
242.9953413578886
 72
     1
 10
875.9744866201797
 20
256.4953603963884
 11
876.08525654438
 21
243.8023843150884
 72
     1
 10
875.4701233524791
 20
256.9953413578886
 11
875.9744866201787
 21
256.4953603963884
 72
     1
 10
875.4701233524791
 20
256.9953413578886
 11
848.4701233524789
 21
256.9953413578886
 72
     1
 10
848.4701233524789
 20
256.9953413578886
 11
847.965760084679
 21
256.4953603963884
 72
     1
 10
847.965760084679
 20
256.4953603963884
 11
847.854990160579
 21
243.8023843150884
 72
     1
 10
847.854990160579
 20
243.8023843150887
 11
847.0479472033789
 21
242.9953413578886
 72
     1
 10
847.0479472033789
 20
242.9953413578886
 11
846.4701233524788
 21
242.9953413578886
 72
     1
 10
846.4701233524788
 20
256.6953413578886
 11
846.4701233524788
 21
242.9953413578886
 72
     4
 94
        3
 73
     1
 74
     0
 95
        8
 96
        4
 40
0.0
 40
0.0
 40
0.0
 40
0.0
 40
1.0
 40
1.0
 40
1.0
 40
1.0
 10
846.4701233524788
 20
256.6953413578886
 42
1.0
 10
846.4701233524788
 20
256.8710772891882
 42
0.8047378541
 10
846.3458592837795
 20
256.9953413578885
 42
0.8047378541
 10
846.1701233524797
 20
256.9953413578886
 42
1.0
 72
     1
 10
846.1701233524797
 20
256.9953413578886
 11
845.7701233524796
 21
256.9953413578886
 72
     4
 94
        3
 73
     1
 74
     0
 95
        8
 96
        4
 40
0.0
 40
0.0
 40
0.0
 40
0.0
 40
1.0
 40
1.0
 40
1.0
 40
1.0
 10
845.4701233524788
 20
257.2953413578885
 42
1.0
 10
845.4701233524788
 20
257.1196054265886
 42
0.8047378541
 10
845.5943874211797
 20
256.9953413578885
 42
0.8047378541
 10
845.7701233524787
 20
256.9953413578886
 42
1.0
 72
     1
 10
845.4701233524788
 20
258.4953413578885
 11
845.4701233524788
 21
257.2953413578885
 72
     4
 94
        3
 73
     1
 74
     0
 95
        8
 96
        4
 40
0.0
 40
0.0
 40
0.0
 40
0.0
 40
1.0
 40
1.0
 40
1.0
 40
1.0
 10
845.9701233524789
 20
258.9953413578885
 42
1.0
 10
845.6772301336794
 20
258.9953413578885
 42
0.8047378541
 10
845.4701233524788
 20
258.7882345766885
 42
0.8047378541
 10
845.4701233524788
 20
258.4953413578885
 42
1.0
 72
     1
 10
879.7201233524789
 20
258.9953413578885
 11
845.9701233524791
 21
258.9953413578885
 72
     1
 10
879.7201233524789
 20
256.9953413578886
 11
879.7201233524789
 21
258.9953413578886
 72
     1
 10
879.7201233524789
 20
256.9953413578886
 11
877.7701233524792
 21
256.9953413578886
 72
     4
 94
        3
 73
     1
 74
     0
 95
        8
 96
        4
 40
0.0
 40
0.0
 40
0.0
 40
0.0
 40
1.0
 40
1.0
 40
1.0
 40
1.0
 10
877.4701233524789
 20
256.6953413578886
 42
1.0
 10
877.4701233524789
 20
256.8710772891882
 42
0.8047378541
 10
877.5943874211797
 20
256.9953413578885
 42
0.8047378541
 10
877.7701233524792
 20
256.9953413578886
 42
1.0
 97
        0
 92
        1
 93
        6
 72
     1
 10
882.4572533122799
 20
256.9953413578886
 11
881.2201233524799
 21
256.9953413578886
 72
     1
 10
881.2201233524788
 20
256.9953413578886
 11
881.2201233524788
 21
258.9953413578886
 72
     1
 10
882.2572533122791
 20
258.9953413578885
 11
881.2201233524788
 21
258.9953413578885
 72
     4
 94
        3
 73
     1
 74
     0
 95
        8
 96
        4
 40
0.0
 40
0.0
 40
0.0
 40
0.0
 40
1.0
 40
1.0
 40
1.0
 40
1.0
 10
882.2572533122791
 20
258.9953413578885
 42
1.0
 10
882.5501465311795
 20
258.9953413578885
 42
0.8047378541
 10
882.757253312279
 20
258.7882345766885
 42
0.8047378541
 10
882.757253312279
 20
258.4953413578885
 42
1.0
 72
     1
 10
882.757253312279
 20
258.4953413578885
 11
882.757253312279
 21
257.2953413578885
 72
     4
 94
        3
 73
     1
 74
     0
 95
        8
 96
        4
 40
0.0
 40
0.0
 40
0.0
 40
0.0
 40
1.0
 40
1.0
 40
1.0
 40
1.0
 10
882.757253312279
 20
257.2953413578885
 42
1.0
 10
882.757253312279
 20
257.1196054265886
 42
0.8047378541
 10
882.6329892435794
 20
256.9953413578885
 42
0.8047378541
 10
882.4572533122799
 20
256.9953413578886
 42
1.0
 97
        0
 75
     0
 76
     1
 52
0.0
 41
5.0
 77
     0
 78
     1
 53
45.0
 43
-141.4441553700194
 44
-12.43923659791829
 45
-0.4419417382415923
 46
0.4419417382415923
 79
     0
 98
        1
 10
795.5977198760789
 20
149.4254445174886
1001
ACAD
1010
0.0
1020
0.0
1030
0.0
  0
DIMENSION
  5
3F18B
102
{ACAD_XDICTIONARY
360
3F18C
102
}
102
{ACAD_REACTORS
330
3F18D
102
}
330
1F
100
AcDbEntity
  8
DIM
100
AcDbDimension
  2
*D7
 10
877.4701233524789
 20
228.8761390524937
 30
0.0
 11
861.9701233524791
 21
228.8761390524937
 31
0.0
 70
   160
  1
%%C<>
 71
     5
 42
31.00000000000012
  3
01
100
AcDbAlignedDimension
 13
846.4701233524788
 23
242.9953413578886
 33
0.0
 14
877.4701233524789
 24
242.9953413578886
 34
0.0
100
AcDbRotatedDimension
  0
MTEXT
  5
3F18E
330
1F
100
AcDbEntity
  8
图框
100
AcDbMText
 10
862.660496684295
 20
223.7795252179955
 30
0.0
 40
2.0
 41
0.0000000000000222
 71
     5
 72
     5
  1
{\C4;A-A}
  7
Romans字体
 73
     1
 44
1.0
1001
ACAD
1000
ACAD_MTEXT_DEFINED_HEIGHT_BEGIN
1070
    46
1040
2.704364302212259
1000
ACAD_MTEXT_DEFINED_HEIGHT_END
  0
LINE
  5
3F319
330
1F
100
AcDbEntity
  8
0
100
AcDbLine
 10
776.6466629603467
 20
201.6004860516997
 30
0.0
 11
776.8296880803467
 21
201.2275200707496
 31
0.0
  0
LINE
  5
3F31A
330
1F
100
AcDbEntity
  8
0
100
AcDbLine
 10
778.1694723911968
 20
199.6322904358496
 30
0.0
 11
779.4596032534967
 21
197.0032801520497
 31
0.0
  0
LINE
  5
3F31B
330
1F
100
AcDbEntity
  8
0
100
AcDbLine
 10
790.7799856611467
 20
203.4123251077497
 30
0.0
 11
790.9630107811469
 21
203.0393591267997
 31
0.0
  0
LINE
  5
3F31C
330
1F
100
AcDbEntity
  8
0
100
AcDbLine
 10
791.6632677131469
 20
203.9612645277997
 30
0.0
 11
791.8462928330967
 21
203.5882985468496
 31
0.0
  0
LINE
  5
3F31D
330
1F
100
AcDbEntity
  8
0
100
AcDbLine
 10
792.4850477141467
 20
204.1650947480997
 30
0.0
 11
792.6680728341469
 21
203.7921287671496
 31
0.0
  0
LINE
  5
3F31E
330
1F
100
AcDbEntity
  8
0
100
AcDbLine
 10
793.2608786002469
 20
204.0631138529997
 30
0.0
 11
793.3744438821467
 21
203.8316921401497
 31
0.0
  0
LINE
  5
3F31F
330
1F
100
AcDbEntity
  8
0
100
AcDbLine
 10
792.0894864451967
 20
206.6846357116997
 30
0.0
 11
791.906461325247
 21
207.0576016926997
 31
0.0
  0
LINE
  5
3F320
330
1F
100
AcDbEntity
  8
0
100
AcDbLine
 10
791.4592352424469
 20
208.8694407486996
 30
0.0
 11
791.6422603624468
 21
208.4964747677497
 31
0.0
  0
LINE
  5
3F321
330
1F
100
AcDbEntity
  8
0
100
AcDbLine
 10
793.5910623822467
 20
205.8957774635997
 30
0.0
 11
793.7740875021968
 21
205.5228114825996
 31
0.0
  0
ARC
  5
3F322
330
1F
100
AcDbEntity
  8
0
100
AcDbCircle
 10
784.0345027780466
 20
207.5753461161996
 30
0.0
 40
8.2812680863
100
AcDbArc
 50
326.5344951069932
 51
326.787851675403
  0
ARC
  5
3F323
330
1F
100
AcDbEntity
  8
0
100
AcDbCircle
 10
787.6408673343469
 20
206.5581243799996
 30
0.0
 40
4.448003569299999
100
AcDbArc
 50
12.57542641809204
 51
13.80022828458812
  0
ARC
  5
3F324
330
1F
100
AcDbEntity
  8
0
100
AcDbCircle
 10
787.7440794777967
 20
206.5866102682496
 30
0.0
 40
4.340976936149997
100
AcDbArc
 50
13.76005573160114
 51
23.48592836848898
  0
ARC
  5
3F325
330
1F
100
AcDbEntity
  8
0
100
AcDbCircle
 10
780.7003615022465
 20
203.1279638496997
 30
0.0
 40
4.31207440985
100
AcDbArc
 50
208.3122834530885
 51
212.0590089579104
  0
ARC
  5
3F326
330
1F
100
AcDbEntity
  8
0
100
AcDbCircle
 10
787.5966346976967
 20
206.9740396813996
 30
0.0
 40
4.302576652349998
100
AcDbArc
 50
20.66213974369913
 51
26.13746062800658
  0
ARC
  5
3F327
330
1F
100
AcDbEntity
  8
0
100
AcDbCircle
 10
780.5042310089467
 20
203.4934038808497
 30
0.0
 40
4.2969684568
100
AcDbArc
 50
206.1372968235051
 51
211.6206491056
  0
ARC
  5
3F328
330
1F
100
AcDbEntity
  8
0
100
AcDbCircle
 10
787.7859990495468
 20
206.6039200591997
 30
0.0
 40
4.2956317825
100
AcDbArc
 50
23.49700083910683
 51
26.1406228479006
  0
ARC
  5
3F329
330
1F
100
AcDbEntity
  8
0
100
AcDbCircle
 10
780.6841143762469
 20
203.1188533290497
 30
0.0
 40
4.29344993655
100
AcDbArc
 50
206.2117113393957
 51
208.3080792217031
  0
ARC
  5
3F32A
330
1F
100
AcDbEntity
  8
0
100
AcDbCircle
 10
791.8156755749968
 20
202.4341170788997
 30
0.0
 40
1.015377869799998
100
AcDbArc
 50
144.8073430899949
 51
146.7840512214008
  0
ARC
  5
3F32B
330
1F
100
AcDbEntity
  8
0
100
AcDbCircle
 10
792.9886445481967
 20
205.1619048454996
 30
0.0
 40
0.8673253404
100
AcDbArc
 50
2.733833873300683
 51
4.854770494498308
  0
ARC
  5
3F32C
330
1F
100
AcDbEntity
  8
0
100
AcDbCircle
 10
793.0698901031468
 20
205.1772280646495
 30
0.0
 40
0.7844154823500002
100
AcDbArc
 50
15.15182083900432
 51
26.13939693679592
  0
SPLINE
  5
3F32D
330
1F
100
AcDbEntity
  8
0
100
AcDbSpline
210
0.0
220
0.0
230
1.0
 70
     8
 71
     3
 72
    26
 73
    22
 74
     0
 42
0.0000000001
 43
0.0000000001
 40
0.0
 40
0.0
 40
0.0
 40
0.0
 40
0.058955354
 40
0.1209817146
 40
0.1858451096
 40
0.2530698518
 40
0.3220033465
 40
0.3918739496
 40
0.4618478097
 40
0.5310843984
 40
0.5987916961000001
 40
0.6642827057
 40
0.7270337687000003
 40
0.7867445991000001
 40
0.8433969904999999
 40
0.8706902313
 40
0.897364752
 40
0.9235133393999999
 40
0.9492480394000001
 40
0.9746969879999999
 40
1.0
 40
1.0
 40
1.0
 40
1.0
 10
793.5552462713467
 20
200.4174861460997
 30
0.0
 10
793.453253498997
 20
200.0874374137997
 30
0.0
 10
793.1842920812965
 20
199.4275465206497
 30
0.0
 10
792.6222899084466
 20
198.4906310127496
 30
0.0
 10
791.9057205137967
 20
197.6029110389496
 30
0.0
 10
791.0527033999467
 20
196.7863058627996
 30
0.0
 10
790.0844171595966
 20
196.0606422836497
 30
0.0
 10
789.024894522597
 20
195.4437674848996
 30
0.0
 10
787.9003742100969
 20
194.9509079887497
 30
0.0
 10
786.7386871843466
 20
194.5942867676497
 30
0.0
 10
785.5685179306965
 20
194.3828339464996
 30
0.0
 10
784.4187123732965
 20
194.3219887044496
 30
0.0
 10
783.3174602340966
 20
194.4137192514996
 30
0.0
 10
782.2921006354468
 20
194.6563593949996
 30
0.0
 10
781.5118572563467
 20
194.9848164469996
 30
0.0
 10
780.9546922897467
 20
195.3177039914496
 30
0.0
 10
780.5762336046467
 20
195.5967848968996
 30
0.0
 10
780.2346626085467
 20
195.9065569209496
 30
0.0
 10
779.9321758346467
 20
196.2451077779997
 30
0.0
 10
779.6708163910968
 20
196.6102216426997
 30
0.0
 10
779.5249254993968
 20
196.8701739807496
 30
0.0
 10
779.4596092402469
 20
197.0032741583496
 30
0.0
  0
SPLINE
  5
3F32E
330
1F
100
AcDbEntity
  8
0
100
AcDbSpline
210
0.0
220
0.0
230
1.0
 70
     8
 71
     3
 72
     9
 73
     5
 74
     0
 42
0.0000000001
 43
0.0000000001
 40
0.0
 40
0.0
 40
0.0
 40
0.0
 40
0.2470478834
 40
1.0
 40
1.0
 40
1.0
 40
1.0
 10
791.879048587497
 20
203.5554865628997
 30
0.0
 10
791.947367941997
 20
203.5658862401997
 30
0.0
 10
792.222889304497
 20
203.6145011018497
 30
0.0
 10
792.493827094447
 20
203.6886270489497
 30
0.0
 10
792.6929336957464
 20
203.7573167696497
 30
0.0
  0
SPLINE
  5
3F32F
330
1F
100
AcDbEntity
  8
0
100
AcDbSpline
210
0.0
220
0.0
230
1.0
 70
     8
 71
     3
 72
    15
 73
    11
 74
     0
 42
0.0000000001
 43
0.0000000001
 40
0.0
 40
0.0
 40
0.0
 40
0.0
 40
0.0544752041
 40
0.1092710953
 40
0.2209489388
 40
0.3375863685
 40
0.4605295950000003
 40
0.58988295
 40
0.7245261231
 40
1.0
 40
1.0
 40
1.0
 40
1.0
 10
793.7740875021968
 20
205.5228114825996
 30
0.0
 10
793.7926153110968
 20
205.4850557776997
 30
0.0
 10
793.8241759378967
 20
205.4064183285997
 30
0.0
 10
793.8640984354467
 20
205.2400608462497
 30
0.0
 10
793.8683250108469
 20
205.0184921554996
 30
0.0
 10
793.8032047684465
 20
204.7526094929497
 30
0.0
 10
793.6745899661968
 20
204.4961387456496
 30
0.0
 10
793.4899674366969
 20
204.2589980326496
 30
0.0
 10
793.1796717879469
 20
203.9790895159497
 30
0.0
 10
792.893981386297
 20
203.8266761460497
 30
0.0
 10
792.6929336957464
 20
203.7573167696497
 30
0.0
  0
SPLINE
  5
3F330
330
1F
100
AcDbEntity
  8
0
100
AcDbSpline
210
0.0
220
0.0
230
1.0
 70
     8
 71
     3
 72
    11
 73
     7
 74
     0
 42
0.0000000001
 43
0.0000000001
 40
0.0
 40
0.0
 40
0.0
 40
0.0
 40
0.2470167543
 40
0.4952575147000001
 40
0.7459293106000004
 40
1.0
 40
1.0
 40
1.0
 40
1.0
 10
791.6419418450467
 20
208.4971051302997
 30
0.0
 10
791.7101091627968
 20
208.3582658366996
 30
0.0
 10
791.8320384611464
 20
208.0723853727997
 30
0.0
 10
791.9690867987468
 20
207.6250080953497
 30
0.0
 10
792.0596562709468
 20
207.1614793329997
 30
0.0
 10
792.0885902601469
 20
206.8461408857996
 30
0.0
 10
792.0953947683969
 20
206.6871985625497
 30
0.0
  0
SPLINE
  5
3F331
330
1F
100
AcDbEntity
  8
0
100
AcDbSpline
210
0.0
220
0.0
230
1.0
 70
     8
 71
     3
 72
    10
 73
     6
 74
     0
 42
0.0000000001
 43
0.0000000001
 40
0.0
 40
0.0
 40
0.0
 40
0.0
 40
0.5161335967000003
 40
0.7604979175
 40
1.0
 40
1.0
 40
1.0
 40
1.0
 10
792.8419007020468
 20
205.3903658922997
 30
0.0
 10
792.8504772314465
 20
205.4181195515497
 30
0.0
 10
792.8569070333967
 20
205.4616545803497
 30
0.0
 10
792.8485707036466
 20
205.5176091157497
 30
0.0
 10
792.8391197068466
 20
205.5434034346997
 30
0.0
 10
792.8331819358967
 20
205.5555046286497
 30
0.0
  0
SPLINE
  5
3F332
330
1F
100
AcDbEntity
  8
0
100
AcDbSpline
210
0.0
220
0.0
230
1.0
 70
     8
 71
     3
 72
    24
 73
    20
 74
     0
 42
0.0000000001
 43
0.0000000001
 40
0.0
 40
0.0
 40
0.0
 40
0.0
 40
0.1295551422
 40
0.1972396486
 40
0.2660925578
 40
0.3355013134
 40
0.4048227899000001
 40
0.4734186994
 40
0.5406906039
 40
0.6061155683
 40
0.6692822897
 40
0.7299269050000003
 40
0.7879673547000002
 40
0.8435306856
 40
0.8969670056
 40
0.9230841943999999
 40
0.9488966803
 40
0.9745011960999999
 40
1.0
 40
1.0
 40
1.0
 40
1.0
 10
790.9661984046469
 20
202.9903371392496
 30
0.0
 10
790.5712182774967
 20
202.3870210662496
 30
0.0
 10
789.8480277919467
 20
201.5435675156497
 30
0.0
 10
788.7146457586467
 20
200.5878812982496
 30
0.0
 10
787.7638494771962
 20
199.9433990388496
 30
0.0
 10
786.7444788118968
 20
199.3953874122496
 30
0.0
 10
785.6760054269971
 20
198.9541095766997
 30
0.0
 10
784.5792248276469
 20
198.6282700109996
 30
0.0
 10
783.4753053224971
 20
198.4243005492997
 30
0.0
 10
782.3855025568467
 20
198.3464181847496
 30
0.0
 10
781.3307178507471
 20
198.3965787932996
 30
0.0
 10
780.3311981188969
 20
198.5745130472496
 30
0.0
 10
779.4062539369469
 20
198.8778798102496
 30
0.0
 10
778.5744314916968
 20
199.3019609405996
 30
0.0
 10
777.9682000326967
 20
199.7542762811996
 30
0.0
 10
777.5503496862469
 20
200.1668296190496
 30
0.0
 10
777.2725392343468
 20
200.4979653789996
 30
0.0
 10
777.0297243093968
 20
200.8513261079497
 30
0.0
 10
776.8918731923966
 20
201.1007440920997
 30
0.0
 10
776.8293736872467
 20
201.2281695065496
 30
0.0
  0
SPLINE
  5
3F333
330
1F
100
AcDbEntity
  8
0
100
AcDbSpline
210
0.0
220
0.0
230
1.0
 70
     8
 71
     3
 72
    11
 73
     7
 74
     0
 42
0.0000000001
 43
0.0000000001
 40
0.0
 40
0.0
 40
0.0
 40
0.0
 40
0.238220459
 40
0.4909604790000003
 40
0.7483569937000001
 40
1.0
 40
1.0
 40
1.0
 40
1.0
 10
790.985889723347
 20
203.0193073547497
 30
0.0
 10
791.0347041945969
 20
203.0885541060496
 30
0.0
 10
791.1527330900971
 20
203.2194374520496
 30
0.0
 10
791.3683068790967
 20
203.3781999652997
 30
0.0
 10
791.6140807902469
 20
203.4958036947497
 30
0.0
 10
791.7905712009967
 20
203.5420183989497
 30
0.0
 10
791.879048587497
 20
203.5554865628997
 30
0.0
  0
SPLINE
  5
3F334
330
1F
100
AcDbEntity
  8
0
100
AcDbSpline
210
0.0
220
0.0
230
1.0
 70
     8
 71
     3
 72
    31
 73
    27
 74
     0
 42
0.0000000001
 43
0.0000000001
 40
0.0
 40
0.0
 40
0.0
 40
0.0
 40
0.0265265532
 40
0.0532549485
 40
0.0803683816
 40
0.1080380919
 40
0.136403497
 40
0.1655711656
 40
0.1956111548
 40
0.2265562811
 40
0.2910522763999999
 40
0.3587223132
 40
0.4287399741
 40
0.5000008306
 40
0.5712616282000002
 40
0.6412791162
 40
0.7089488792000001
 40
0.7734445645
 40
0.8043895216999999
 40
0.8344293525000001
 40
0.8635968755
 40
0.8919621514999999
 40
0.9196317586999999
 40
0.9467451089999999
 40
0.9734734639999999
 40
1.0
 40
1.0
 40
1.0
 40
1.0
 10
776.6466629603467
 20
201.6004860516997
 30
0.0
 10
776.5588555801468
 20
201.7794186796997
 30
0.0
 10
776.4068133269469
 20
202.1511199226496
 30
0.0
 10
776.2548742666965
 20
202.7373245458997
 30
0.0
 10
776.179910805797
 20
203.3469173430997
 30
0.0
 10
776.1822606346968
 20
203.9732485929997
 30
0.0
 10
776.2613292255966
 20
204.6100070242996
 30
0.0
 10
776.4157423379469
 20
205.2509835284496
 30
0.0
 10
776.6435274738967
 20
205.8902226113497
 30
0.0
 10
777.0470419618967
 20
206.7437897783496
 30
0.0
 10
777.7255715540468
 20
207.7728566767497
 30
0.0
 10
778.7636675782468
 20
208.8903017731996
 30
0.0
 10
779.9982320686466
 20
209.8695003890497
 30
0.0
 10
781.3833636437467
 20
210.6750483718996
 30
0.0
 10
782.868020203647
 20
211.2777816511496
 30
0.0
 10
784.3979035033969
 20
211.6551736498496
 30
0.0
 10
785.9169261591968
 20
211.7925761176997
 30
0.0
 10
787.1460442884965
 20
211.6996480530996
 30
0.0
 10
788.0680800578971
 20
211.4965671209496
 30
0.0
 10
788.7130694926468
 20
211.2856253744496
 30
0.0
 10
789.3145414265468
 20
211.0155855643997
 30
0.0
 10
789.8665782855466
 20
210.6885308204996
 30
0.0
 10
790.3634280329469
 20
210.3071731383997
 30
0.0
 10
790.7997354908467
 20
209.8749040167496
 30
0.0
 10
791.1704466878467
 20
209.3960582470996
 30
0.0
 10
791.3714279190469
 20
209.0483732608997
 30
0.0
 10
791.4592352424469
 20
208.8694407486996
 30
0.0
  0
SPLINE
  5
3F335
330
1F
100
AcDbEntity
  8
0
100
AcDbSpline
210
0.0
220
0.0
230
1.0
 70
     8
 71
     3
 72
    13
 73
     9
 74
     0
 42
0.0000000001
 43
0.0000000001
 40
0.0
 40
0.0
 40
0.0
 40
0.0
 40
0.2642665628
 40
0.5167651254
 40
0.6396232141000004
 40
0.7607460325
 40
0.8806767630999999
 40
1.0
 40
1.0
 40
1.0
 40
1.0
 10
793.5552462713467
 20
200.4174861460997
 30
0.0
 10
793.6462764014967
 20
200.7120597552997
 30
0.0
 10
793.7796362426468
 20
201.3033238893497
 30
0.0
 10
793.8132783571968
 20
202.0533614980997
 30
0.0
 10
793.7550716210968
 20
202.6304927150996
 30
0.0
 10
793.6707563270466
 20
203.0473672046996
 30
0.0
 10
793.5458246258963
 20
203.4495557431496
 30
0.0
 10
793.4357676051967
 20
203.7067216673497
 30
0.0
 10
793.3744378953969
 20
203.8316981338497
 30
0.0
  0
SPLINE
  5
3F336
330
1F
100
AcDbEntity
  8
0
100
AcDbSpline
210
0.0
220
0.0
230
1.0
 70
     8
 71
     3
 72
    11
 73
     7
 74
     0
 42
0.0000000001
 43
0.0000000001
 40
0.0
 40
0.0
 40
0.0
 40
0.0
 40
0.2112141334
 40
0.4416981455000001
 40
0.7033337507999999
 40
1.0
 40
1.0
 40
1.0
 40
1.0
 10
791.9606705473967
 20
206.8379848373996
 30
0.0
 10
791.9770578813968
 20
206.8045909616996
 30
0.0
 10
792.021494431597
 20
206.7393412767497
 30
0.0
 10
792.1170631403969
 20
206.6585041067497
 30
0.0
 10
792.2424822720967
 20
206.5961458394996
 30
0.0
 10
792.3383924158469
 20
206.5713974847997
 30
0.0
 10
792.389917590347
 20
206.5627397207496
 30
0.0
  0
SPLINE
  5
3F337
330
1F
100
AcDbEntity
  8
0
100
AcDbSpline
210
0.0
220
0.0
230
1.0
 70
     8
 71
     3
 72
     9
 73
     5
 74
     0
 42
0.0000000001
 43
0.0000000001
 40
0.0
 40
0.0
 40
0.0
 40
0.0
 40
0.4918938224
 40
1.0
 40
1.0
 40
1.0
 40
1.0
 10
793.096368167597
 20
206.3554772299997
 30
0.0
 10
792.9856036920964
 20
206.4040455557497
 30
0.0
 10
792.7535503839964
 20
206.4876354276997
 30
0.0
 10
792.5131214814467
 20
206.5420377972997
 30
0.0
 10
792.389917590347
 20
206.5627397207496
 30
0.0
  0
SPLINE
  5
3F338
330
1F
100
AcDbEntity
  8
0
100
AcDbSpline
210
0.0
220
0.0
230
1.0
 70
     8
 71
     3
 72
    11
 73
     7
 74
     0
 42
0.0000000001
 43
0.0000000001
 40
0.0
 40
0.0
 40
0.0
 40
0.0
 40
0.2559624746
 40
0.5068767828000002
 40
0.7542454335
 40
1.0
 40
1.0
 40
1.0
 40
1.0
 10
793.096368167597
 20
206.3554772299997
 30
0.0
 10
793.1501791608467
 20
206.3318820309496
 30
0.0
 10
793.2533991302967
 20
206.2769260612497
 30
0.0
 10
793.391222014647
 20
206.1707471202997
 30
0.0
 10
793.506586153297
 20
206.0435689794997
 30
0.0
 10
793.5662098224969
 20
205.9464216555997
 30
0.0
 10
793.5910623822467
 20
205.8957774635997
 30
0.0
  0
SPLINE
  5
3F339
330
1F
100
AcDbEntity
  8
0
100
AcDbSpline
210
0.0
220
0.0
230
1.0
 70
     8
 71
     3
 72
    17
 73
    13
 74
     0
 42
0.0000000001
 43
0.0000000001
 40
0.0
 40
0.0
 40
0.0
 40
0.0
 40
0.0507858036
 40
0.1027088059
 40
0.2130286618
 40
0.3354052693
 40
0.4686217270000001
 40
0.6078988157000002
 40
0.6779229867000001
 40
0.7470102901000001
 40
0.8791028728
 40
1.0
 40
1.0
 40
1.0
 40
1.0
 10
792.1598237226469
 20
205.2252271559497
 30
0.0
 10
792.1661533329469
 20
205.2123273923996
 30
0.0
 10
792.1819185650469
 20
205.1875839837996
 30
0.0
 10
792.2247576441467
 20
205.1446117044496
 30
0.0
 10
792.2982006268469
 20
205.1068058149997
 30
0.0
 10
792.4020835953967
 20
205.0917774801496
 30
0.0
 10
792.5140928811969
 20
205.1055941648497
 30
0.0
 10
792.6057304760469
 20
205.1398384425497
 30
0.0
 10
792.6739335029966
 20
205.1795358590497
 30
0.0
 10
792.7354482028467
 20
205.2256505434497
 30
0.0
 10
792.7983468380968
 20
205.2928928998997
 30
0.0
 10
792.831801526347
 20
205.3576849477996
 30
0.0
 10
792.8419007020468
 20
205.3903658922997
 30
0.0
  0
SPLINE
  5
3F33A
330
1F
100
AcDbEntity
  8
0
100
AcDbSpline
210
0.0
220
0.0
230
1.0
 70
     8
 71
     3
 72
    11
 73
     7
 74
     0
 42
0.0000000001
 43
0.0000000001
 40
0.0
 40
0.0
 40
0.0
 40
0.0
 40
0.1610800195
 40
0.3707867642
 40
0.6500355765000001
 40
1.0
 40
1.0
 40
1.0
 40
1.0
 10
791.8790478007966
 20
203.5554917281996
 30
0.0
 10
791.8764654859468
 20
203.5550954123497
 30
0.0
 10
791.8701954520967
 20
203.5564686587496
 30
0.0
 10
791.861963695397
 20
203.5633371913497
 30
0.0
 10
791.8537113171968
 20
203.5742237187496
 30
0.0
 10
791.8487933796467
 20
203.5832029704997
 30
0.0
 10
791.8462928338469
 20
203.5882985469997
 30
0.0
  0
SPLINE
  5
3F33B
330
1F
100
AcDbEntity
  8
0
100
AcDbSpline
210
0.0
220
0.0
230
1.0
 70
     8
 71
     3
 72
    11
 73
     7
 74
     0
 42
0.0000000001
 43
0.0000000001
 40
0.0
 40
0.0
 40
0.0
 40
0.0
 40
0.2077683347
 40
0.4357574570000002
 40
0.6980909131999999
 40
1.0
 40
1.0
 40
1.0
 40
1.0
 10
790.9661980745466
 20
202.9903373553997
 30
0.0
 10
790.9681428127464
 20
202.9933034456997
 30
0.0
 10
790.9710424473967
 20
203.0003571120496
 30
0.0
 10
790.9716867500467
 20
203.0124225949496
 30
0.0
 10
790.9689478701966
 20
203.0257736592997
 30
0.0
 10
790.9652812730467
 20
203.0347323507997
 30
0.0
 10
790.9630107811469
 20
203.0393591267997
 30
0.0
  0
SPLINE
  5
3F33C
330
1F
100
AcDbEntity
  8
0
100
AcDbSpline
210
0.0
220
0.0
230
1.0
 70
     8
 71
     3
 72
    24
 73
    20
 74
     0
 42
0.0000000001
 43
0.0000000001
 40
0.0
 40
0.0
 40
0.0
 40
0.0
 40
0.1289644642
 40
0.1963397625
 40
0.264912565
 40
0.3341029041
 40
0.4033012886
 40
0.4718977192000002
 40
0.5393112620000001
 40
0.6050198664000001
 40
0.6685911424000001
 40
0.7297140847
 40
0.7882311506999999
 40
0.8441685145000001
 40
0.8977596027
 40
0.9238319847999999
 40
0.9495036193999998
 40
0.9748610348999999
 40
1.0
 40
1.0
 40
1.0
 40
1.0
 10
790.9428853996968
 20
203.0087663600497
 30
0.0
 10
790.5587313540467
 20
202.4276107117497
 30
0.0
 10
789.8610597202464
 20
201.6131231805997
 30
0.0
 10
788.7716203596466
 20
200.6832370665996
 30
0.0
 10
787.858615862547
 20
200.0515491993997
 30
0.0
 10
786.8794426770468
 20
199.5084515181496
 30
0.0
 10
785.8516970005969
 20
199.0635358880996
 30
0.0
 10
784.7942137284468
 20
198.7250230292496
 30
0.0
 10
783.7262498401967
 20
198.4991144449496
 30
0.0
 10
782.6672497862967
 20
198.3900272171496
 30
0.0
 10
781.636451999247
 20
198.3999149076997
 30
0.0
 10
780.6525856119467
 20
198.5288612259496
 30
0.0
 10
779.7335192910968
 20
198.7749932585497
 30
0.0
 10
778.8962915751966
 20
199.1342940898994
 30
0.0
 10
778.2737733766968
 20
199.5272168097995
 30
0.0
 10
777.8352849957467
 20
199.8908121961997
 30
0.0
 10
777.5389469185469
 20
200.1842971568497
 30
0.0
 10
777.273710968347
 20
200.4995571699496
 30
0.0
 10
777.1179472397467
 20
200.7240575835997
 30
0.0
 10
777.0458703231468
 20
200.8391475751997
 30
0.0
  0
LINE
  5
3F33D
330
1F
100
AcDbEntity
  8
0
100
AcDbLine
 10
776.8321680262967
 20
201.2224826704497
 30
0.0
 11
776.8296913436467
 21
201.2275216721997
 31
0.0
  0
SPLINE
  5
3F33E
330
1F
100
AcDbEntity
  8
0
100
AcDbSpline
210
0.0
220
0.0
230
1.0
 70
     8
 71
     3
 72
     9
 73
     5
 74
     0
 42
0.0000000001
 43
0.0000000001
 40
0.0
 40
0.0
 40
0.0
 40
0.0
 40
0.4948460658000001
 40
1.0
 40
1.0
 40
1.0
 40
1.0
 10
791.9606695644969
 20
206.8379843550497
 30
0.0
 10
791.944139181497
 20
206.8716672547497
 30
0.0
 10
791.9181140686966
 20
206.9435946968997
 30
0.0
 10
791.9078635893469
 20
207.0193252551996
 30
0.0
 10
791.906461325247
 20
207.0576016926997
 30
0.0
  0
SPLINE
  5
3F33F
330
1F
100
AcDbEntity
  8
0
100
AcDbSpline
210
0.0
220
0.0
230
1.0
 70
     8
 71
     3
 72
     9
 73
     5
 74
     0
 42
0.0000000001
 43
0.0000000001
 40
0.0
 40
0.0
 40
0.0
 40
0.0
 40
0.5049630843
 40
1.0
 40
1.0
 40
1.0
 40
1.0
 10
791.906461325247
 20
207.0576016926997
 30
0.0
 10
791.8974192807968
 20
207.3044148602497
 30
0.0
 10
791.8420674363467
 20
207.7926916815997
 30
0.0
 10
791.7079029851967
 20
208.2656862293496
 30
0.0
 10
791.6224584238467
 20
208.4922324145997
 30
0.0
  0
SPLINE
  5
3F340
330
1F
100
AcDbEntity
  8
0
100
AcDbSpline
210
0.0
220
0.0
230
1.0
 70
     8
 71
     3
 72
     9
 73
     5
 74
     0
 42
0.0000000001
 43
0.0000000001
 40
0.0
 40
0.0
 40
0.0
 40
0.0
 40
0.2479923184
 40
1.0
 40
1.0
 40
1.0
 40
1.0
 10
793.8270366552967
 20
205.3822567150497
 30
0.0
 10
793.8302712075969
 20
205.3703450126497
 30
0.0
 10
793.8422059862467
 20
205.3220168846496
 30
0.0
 10
793.849688188547
 20
205.2726012938997
 30
0.0
 10
793.8528582845467
 20
205.2353069167997
 30
0.0
  0
SPLINE
  5
3F341
330
1F
100
AcDbEntity
  8
0
100
AcDbSpline
210
0.0
220
0.0
230
1.0
 70
     8
 71
     3
 72
    14
 73
    10
 74
     0
 42
0.0000000001
 43
0.0000000001
 40
0.0
 40
0.0
 40
0.0
 40
0.0
 40
0.1055618129
 40
0.2172477536
 40
0.3357527509
 40
0.4608565005
 40
0.5915935296
 40
0.7264152762000001
 40
1.0
 40
1.0
 40
1.0
 40
1.0
 10
793.8549827716467
 20
205.2032730546497
 30
0.0
 10
793.8582802665965
 20
205.1343080508496
 30
0.0
 10
793.8482079758967
 20
204.9911981136996
 30
0.0
 10
793.787378120547
 20
204.7788191777497
 30
0.0
 10
793.6830672340469
 20
204.5698300115497
 30
0.0
 10
793.5388831179467
 20
204.3707477195496
 30
0.0
 10
793.3594129445967
 20
204.1875711478997
 30
0.0
 10
793.0799123538466
 20
203.9713797475997
 30
0.0
 10
792.8372302834967
 20
203.8504863397997
 30
0.0
 10
792.6680728341469
 20
203.7921287671496
 30
0.0
  0
SPLINE
  5
3F342
330
1F
100
AcDbEntity
  8
0
100
AcDbSpline
210
0.0
220
0.0
230
1.0
 70
     8
 71
     3
 72
     9
 73
     5
 74
     0
 42
0.0000000001
 43
0.0000000001
 40
0.0
 40
0.0
 40
0.0
 40
0.0
 40
0.2530166616
 40
1.0
 40
1.0
 40
1.0
 40
1.0
 10
792.6680728341469
 20
203.7921287671496
 30
0.0
 10
792.6005175165466
 20
203.7688228804496
 30
0.0
 10
792.3315412404466
 20
203.6825789219996
 30
0.0
 10
792.0548694647467
 20
203.6200484027996
 30
0.0
 10
791.8462928330967
 20
203.5882985468496
 30
0.0
  0
SPLINE
  5
3F343
330
1F
100
AcDbEntity
  8
0
100
AcDbSpline
210
0.0
220
0.0
230
1.0
 70
     8
 71
     3
 72
     9
 73
     5
 74
     0
 42
0.0000000001
 43
0.0000000001
 40
0.0
 40
0.0
 40
0.0
 40
0.0
 40
0.2468321325
 40
1.0
 40
1.0
 40
1.0
 40
1.0
 10
791.6632677131469
 20
203.9612645277997
 30
0.0
 10
791.7321903579468
 20
203.9717560388997
 30
0.0
 10
792.0103867755969
 20
204.0208498115997
 30
0.0
 10
792.2839497347966
 20
204.0957180225497
 30
0.0
 10
792.4850477141467
 20
204.1650947480997
 30
0.0
  0
SPLINE
  5
3F344
330
1F
100
AcDbEntity
  8
0
100
AcDbSpline
210
0.0
220
0.0
230
1.0
 70
     8
 71
     3
 72
    12
 73
     8
 74
     0
 42
0.0000000001
 43
0.0000000001
 40
0.0
 40
0.0
 40
0.0
 40
0.0
 40
0.0975090785
 40
0.1821273737
 40
0.2936392147
 40
0.5972957496
 40
1.0
 40
1.0
 40
1.0
 40
1.0
 10
792.6929315369467
 20
203.7573230268997
 30
0.0
 10
792.6915869925466
 20
203.7568570658497
 30
0.0
 10
792.6888112695468
 20
203.7586144609496
 30
0.0
 10
792.6860164817468
 20
203.7615967346496
 30
0.0
 10
792.6815078258465
 20
203.7674647347496
 30
0.0
 10
792.6754163124467
 20
203.7776805655497
 30
0.0
 10
792.670661840047
 20
203.7868529277496
 30
0.0
 10
792.6680728341469
 20
203.7921287671496
 30
0.0
  0
SPLINE
  5
3F345
330
1F
100
AcDbEntity
  8
0
100
AcDbSpline
210
0.0
220
0.0
230
1.0
 70
     8
 71
     3
 72
    16
 73
    12
 74
     0
 42
0.0000000001
 43
0.0000000001
 40
0.0
 40
0.0
 40
0.0
 40
0.0
 40
0.2825567093
 40
0.4201454012000001
 40
0.5513301457000001
 40
0.6743995771
 40
0.7889627615000001
 40
0.8435091101000001
 40
0.8965625486
 40
0.9485566357999999
 40
1.0
 40
1.0
 40
1.0
 40
1.0
 10
792.4850477141467
 20
204.1650947480997
 30
0.0
 10
792.6891452613967
 20
204.2355062935496
 30
0.0
 10
792.9789653023965
 20
204.3893711485497
 30
0.0
 10
793.2943109199467
 20
204.6707657268497
 30
0.0
 10
793.4811159774966
 20
204.9070383639996
 30
0.0
 10
793.6108315859967
 20
205.1593880688997
 30
0.0
 10
793.666738529247
 20
205.3780551028497
 30
0.0
 10
793.6756995939465
 20
205.5480346644497
 30
0.0
 10
793.6652641349968
 20
205.6699572362496
 30
0.0
 10
793.6378633414967
 20
205.7867744076997
 30
0.0
 10
793.6083741887467
 20
205.8604870390496
 30
0.0
 10
793.591054243347
 20
205.8957734650996
 30
0.0
  0
SPLINE
  5
3F346
330
1F
100
AcDbEntity
  8
0
100
AcDbSpline
210
0.0
220
0.0
230
1.0
 70
     8
 71
     3
 72
    10
 73
     6
 74
     0
 42
0.0000000001
 43
0.0000000001
 40
0.0
 40
0.0
 40
0.0
 40
0.0
 40
0.5161335967000003
 40
0.7604979175
 40
1.0
 40
1.0
 40
1.0
 40
1.0
 10
792.1511049565467
 20
205.3903658922997
 30
0.0
 10
792.1425284271463
 20
205.3626122329997
 30
0.0
 10
792.1360986251469
 20
205.3190772042496
 30
0.0
 10
792.1444349549467
 20
205.2631226687996
 30
0.0
 10
792.1538859516966
 20
205.2373283498497
 30
0.0
 10
792.1598237226469
 20
205.2252271559497
 30
0.0
  0
SPLINE
  5
3F347
330
1F
100
AcDbEntity
  8
0
100
AcDbSpline
210
0.0
220
0.0
230
1.0
 70
     8
 71
     3
 72
    11
 73
     7
 74
     0
 42
0.0000000001
 43
0.0000000001
 40
0.0
 40
0.0
 40
0.0
 40
0.0
 40
0.252101409
 40
0.5087229325
 40
0.760756559
 40
1.0
 40
1.0
 40
1.0
 40
1.0
 10
791.8462928330967
 20
203.5882985468496
 30
0.0
 10
791.7576146244465
 20
203.5747998134497
 30
0.0
 10
791.5812084971968
 20
203.5279883359997
 30
0.0
 10
791.336800748997
 20
203.4078388084997
 30
0.0
 10
791.1241328930968
 20
203.2450454880997
 30
0.0
 10
791.009636938047
 20
203.1105786843997
 30
0.0
 10
790.9630107811469
 20
203.0393591267997
 30
0.0
  0
SPLINE
  5
3F348
330
1F
100
AcDbEntity
  8
0
100
AcDbSpline
210
0.0
220
0.0
230
1.0
 70
     8
 71
     3
 72
    11
 73
     7
 74
     0
 42
0.0000000001
 43
0.0000000001
 40
0.0
 40
0.0
 40
0.0
 40
0.0
 40
0.239243441
 40
0.4912770675
 40
0.7478985909999999
 40
1.0
 40
1.0
 40
1.0
 40
1.0
 10
790.7799856611467
 20
203.4123251077497
 30
0.0
 10
790.8266118180464
 20
203.4835446653497
 30
0.0
 10
790.9411077730967
 20
203.6180114690496
 30
0.0
 10
791.1537756289972
 20
203.7808047894497
 30
0.0
 10
791.3981833771964
 20
203.9009543169497
 30
0.0
 10
791.5745895044469
 20
203.9477657944495
 30
0.0
 10
791.6632677131469
 20
203.9612645277997
 30
0.0
  0
SPLINE
  5
3F349
330
1F
100
AcDbEntity
  8
0
100
AcDbSpline
210
0.0
220
0.0
230
1.0
 70
     8
 71
     3
 72
    11
 73
     7
 74
     0
 42
0.0000000001
 43
0.0000000001
 40
0.0
 40
0.0
 40
0.0
 40
0.0
 40
0.23397876
 40
0.5056759603000001
 40
0.7744189876
 40
1.0
 40
1.0
 40
1.0
 40
1.0
 10
792.3686901121467
 20
204.4988086821996
 30
0.0
 10
792.3747469788467
 20
204.4718738742497
 30
0.0
 10
792.3904326536471
 20
204.4142547453497
 30
0.0
 10
792.4185999534967
 20
204.3273044070496
 30
0.0
 10
792.4502362315469
 20
204.2426157093497
 30
0.0
 10
792.4733219835469
 20
204.1889892747497
 30
0.0
 10
792.4850477140968
 20
204.1650947480997
 30
0.0
  0
SPLINE
  5
3F34A
330
1F
100
AcDbEntity
  8
0
100
AcDbSpline
210
0.0
220
0.0
230
1.0
 70
     8
 71
     3
 72
    12
 73
     8
 74
     0
 42
0.0000000001
 43
0.0000000001
 40
0.0
 40
0.0
 40
0.0
 40
0.0
 40
0.3011494786
 40
0.5666113131000003
 40
0.7950469314000001
 40
0.8992602251999999
 40
1.0
 40
1.0
 40
1.0
 40
1.0
 10
792.9197141438971
 20
206.2819231023997
 30
0.0
 10
792.9329025489967
 20
206.2975692311496
 30
0.0
 10
792.9604328201469
 20
206.3249259910997
 30
0.0
 10
793.0066987748467
 20
206.3538413730997
 30
0.0
 10
793.0470226509967
 20
206.3642362832496
 30
0.0
 10
793.0766290755967
 20
206.3623172723496
 30
0.0
 10
793.0900991391967
 20
206.3582261561996
 30
0.0
 10
793.0963683924967
 20
206.3554777428997
 30
0.0
  0
SPLINE
  5
3F34B
330
1F
100
AcDbEntity
  8
0
100
AcDbSpline
210
0.0
220
0.0
230
1.0
 70
     8
 71
     3
 72
    11
 73
     7
 74
     0
 42
0.0000000001
 43
0.0000000001
 40
0.0
 40
0.0
 40
0.0
 40
0.0
 40
0.315161492
 40
0.5843057082000001
 40
0.8074304264
 40
1.0
 40
1.0
 40
1.0
 40
1.0
 10
792.2722304275467
 20
206.4715984462997
 30
0.0
 10
792.2799778734468
 20
206.4862198360996
 30
0.0
 10
792.2963339454968
 20
206.5123826500996
 30
0.0
 10
792.3256838083467
 20
206.5434678221496
 30
0.0
 10
792.3572565352467
 20
206.5621026667997
 30
0.0
 10
792.3799467414966
 20
206.5644150414497
 30
0.0
 10
792.3899177637967
 20
206.5627407530997
 30
0.0
  0
SPLINE
  5
3F34C
330
1F
100
AcDbEntity
  8
0
100
AcDbSpline
210
0.0
220
0.0
230
1.0
 70
     8
 71
     3
 72
    12
 73
     8
 74
     0
 42
0.0000000001
 43
0.0000000001
 40
0.0
 40
0.0
 40
0.0
 40
0.0
 40
0.2773946711
 40
0.5482507237
 40
0.6747998808000001
 40
0.7926668943000001
 40
1.0
 40
1.0
 40
1.0
 40
1.0
 10
791.5922156396467
 20
207.1577727213497
 30
0.0
 10
791.6238207887967
 20
207.1651076249497
 30
0.0
 10
791.6884674660966
 20
207.1711766348496
 30
0.0
 10
791.7673943211467
 20
207.1586040662996
 30
0.0
 10
791.8236276516465
 20
207.1361323479497
 30
0.0
 10
791.8688523746467
 20
207.1086990069497
 30
0.0
 10
791.8957779609967
 20
207.0793721000497
 30
0.0
 10
791.906461325247
 20
207.0576016926997
 30
0.0
  0
SPLINE
  5
3F34D
330
1F
100
AcDbEntity
  8
0
100
AcDbSpline
210
0.0
220
0.0
230
1.0
 70
     8
 71
     3
 72
    12
 73
     8
 74
     0
 42
0.0000000001
 43
0.0000000001
 40
0.0
 40
0.0
 40
0.0
 40
0.0
 40
0.2512816946
 40
0.5231030407000004
 40
0.78244081
 40
0.8980314365999999
 40
1.0
 40
1.0
 40
1.0
 40
1.0
 10
790.499875601747
 20
203.6229590631497
 30
0.0
 10
790.5288558415468
 20
203.6151070923996
 30
0.0
 10
790.5871864366964
 20
203.5912232440496
 30
0.0
 10
790.6666841707965
 20
203.5414223614997
 30
0.0
 10
790.7249493503967
 20
203.4898298429997
 30
0.0
 10
790.7609472105465
 20
203.4455231583497
 30
0.0
 10
790.774618084897
 20
203.4232630769996
 30
0.0
 10
790.7799856608471
 20
203.4123251072997
 30
0.0
  0
SPLINE
  5
3F34E
330
1F
100
AcDbEntity
  8
0
100
AcDbSpline
210
0.0
220
0.0
230
1.0
 70
     8
 71
     3
 72
    12
 73
     8
 74
     0
 42
0.0000000001
 43
0.0000000001
 40
0.0
 40
0.0
 40
0.0
 40
0.0
 40
0.2401435248
 40
0.5118889522
 40
0.7773384693000001
 40
0.8961488765
 40
1.0
 40
1.0
 40
1.0
 40
1.0
 10
791.6039781667469
 20
204.3091333382997
 30
0.0
 10
791.6014749811469
 20
204.2807448416996
 30
0.0
 10
791.6018315861465
 20
204.2197431468496
 30
0.0
 10
791.6125790514969
 20
204.1280121213497
 30
0.0
 10
791.6295280466969
 20
204.0518152299496
 30
0.0
 10
791.647611966447
 20
203.9967470450997
 30
0.0
 10
791.657838304547
 20
203.9723284991997
 30
0.0
 10
791.6632677131469
 20
203.9612645277997
 30
0.0
  0
SPLINE
  5
3F34F
330
1F
100
AcDbEntity
  8
0
100
AcDbSpline
210
0.0
220
0.0
230
1.0
 70
     8
 71
     3
 72
    17
 73
    13
 74
     0
 42
0.0000000001
 43
0.0000000001
 40
0.0
 40
0.0
 40
0.0
 40
0.0
 40
0.0507858036
 40
0.1027088059
 40
0.2130286618
 40
0.3354052693
 40
0.4686217270000001
 40
0.6078988157000002
 40
0.6779229867000001
 40
0.7470102901000001
 40
0.8791028728
 40
1.0
 40
1.0
 40
1.0
 40
1.0
 10
792.8331819358967
 20
205.5555046286497
 30
0.0
 10
792.8268523255967
 20
205.5684043921997
 30
0.0
 10
792.8110870935469
 20
205.5931478007496
 30
0.0
 10
792.7682480143968
 20
205.6361200800997
 30
0.0
 10
792.6948050317466
 20
205.6739259695996
 30
0.0
 10
792.5909220631969
 20
205.6889543043996
 30
0.0
 10
792.4789127773467
 20
205.6751376196996
 30
0.0
 10
792.3872751824967
 20
205.6408933419997
 30
0.0
 10
792.3190721555469
 20
205.6011959254996
 30
0.0
 10
792.2575574556965
 20
205.5550812410996
 30
0.0
 10
792.1946588204968
 20
205.4878388846997
 30
0.0
 10
792.1612041321966
 20
205.4230468367997
 30
0.0
 10
792.1511049565467
 20
205.3903658922997
 30
0.0
  0
SPLINE
  5
3F350
330
1F
100
AcDbEntity
  8
0
100
AcDbSpline
210
0.0
220
0.0
230
1.0
 70
     8
 71
     3
 72
    20
 73
    16
 74
     0
 42
0.0000000001
 43
0.0000000001
 40
0.0
 40
0.0
 40
0.0
 40
0.0
 40
0.1469832835
 40
0.2916620945
 40
0.4288919504999999
 40
0.4936794775
 40
0.5555471599000003
 40
0.6145594684000001
 40
0.6710373389999999
 40
0.7255649011000001
 40
0.7789593601000001
 40
0.8321789552
 40
0.8862017881999999
 40
0.9419409067
 40
1.0
 40
1.0
 40
1.0
 40
1.0
 10
792.3686901121467
 20
204.4988086821996
 30
0.0
 10
792.4809986482967
 20
204.5375539669997
 30
0.0
 10
792.6964626241469
 20
204.6380238973496
 30
0.0
 10
792.9762053093968
 20
204.8466387278496
 30
0.0
 10
793.1610099280967
 20
205.0611959689996
 30
0.0
 10
793.266812560997
 20
205.2470540614497
 30
0.0
 10
793.3224212906468
 20
205.3870287875497
 30
0.0
 10
793.3545294383471
 20
205.5273731215997
 30
0.0
 10
793.3623050400965
 20
205.6652883946997
 30
0.0
 10
793.3453773264964
 20
205.7978897099497
 30
0.0
 10
793.3039484413471
 20
205.9222727739497
 30
0.0
 10
793.2388644394968
 20
206.0356155016497
 30
0.0
 10
793.151607250047
 20
206.1354118142997
 30
0.0
 10
793.0442502375467
 20
206.2194892343997
 30
0.0
 10
792.9626922009465
 20
206.2630779602997
 30
0.0
 10
792.9197141438971
 20
206.2819231023997
 30
0.0
  0
SPLINE
  5
3F351
330
1F
100
AcDbEntity
  8
0
100
AcDbSpline
210
0.0
220
0.0
230
1.0
 70
     8
 71
     3
 72
     9
 73
     5
 74
     0
 42
0.0000000001
 43
0.0000000001
 40
0.0
 40
0.0
 40
0.0
 40
0.0
 40
0.2468321283
 40
1.0
 40
1.0
 40
1.0
 40
1.0
 10
791.6039781667469
 20
204.3091333382997
 30
0.0
 10
791.6681145157467
 20
204.3188962720996
 30
0.0
 10
791.9269917377968
 20
204.3645807543996
 30
0.0
 10
792.1815572691969
 20
204.4342497844497
 30
0.0
 10
792.3686901121467
 20
204.4988086821996
 30
0.0
  0
SPLINE
  5
3F352
330
1F
100
AcDbEntity
  8
0
100
AcDbSpline
210
0.0
220
0.0
230
1.0
 70
     8
 71
     3
 72
    11
 73
     7
 74
     0
 42
0.0000000001
 43
0.0000000001
 40
0.0
 40
0.0
 40
0.0
 40
0.0
 40
0.239240956
 40
0.4912770507000002
 40
0.7479012192
 40
1.0
 40
1.0
 40
1.0
 40
1.0
 10
790.499875601747
 20
203.6229590632497
 30
0.0
 10
790.5581576901465
 20
203.7119825817997
 30
0.0
 10
790.7012777277968
 20
203.8800658607497
 30
0.0
 10
790.9671127344465
 20
204.0835593008996
 30
0.0
 10
791.2726240604968
 20
204.2337455391996
 30
0.0
 10
791.4931315661466
 20
204.2922600981496
 30
0.0
 10
791.6039781667469
 20
204.3091333382997
 30
0.0
  0
SPLINE
  5
3F353
330
1F
100
AcDbEntity
  8
0
100
AcDbSpline
210
0.0
220
0.0
230
1.0
 70
     8
 71
     3
 72
    24
 73
    20
 74
     0
 42
0.0000000001
 43
0.0000000001
 40
0.0
 40
0.0
 40
0.0
 40
0.0
 40
0.0251390757
 40
0.0504899757
 40
0.0761500979
 40
0.102207512
 40
0.1557639346
 40
0.2116698993
 40
0.2701664888
 40
0.331284031
 40
0.3948658859
 40
0.4605992415
 40
0.5280478279000002
 40
0.5966842797
 40
0.6659215317000001
 40
0.7351432230000004
 40
0.8037339119
 40
0.8711084217999999
 40
1.0
 40
1.0
 40
1.0
 40
1.0
 10
776.845198924247
 20
201.2405341283996
 30
0.0
 10
776.916691128947
 20
201.1243912491997
 30
0.0
 10
777.0714217976467
 20
200.8977853019997
 30
0.0
 10
777.3355482394967
 20
200.5794012913997
 30
0.0
 10
777.6311841898468
 20
200.2829070767997
 30
0.0
 10
778.0692300535469
 20
199.9154516399496
 30
0.0
 10
778.6922221873468
 20
199.5180767816996
 30
0.0
 10
779.5313596366467
 20
199.1543565551496
 30
0.0
 10
780.4534718862967
 20
198.9048043271996
 30
0.0
 10
781.4412937738969
 20
198.7735271309997
 30
0.0
 10
782.4767125618969
 20
198.7624490994496
 30
0.0
 10
783.5407363286472
 20
198.8715022690995
 30
0.0
 10
784.6138517727966
 20
199.0985102713996
 30
0.0
 10
785.6763345939969
 20
199.4391940602496
 30
0.0
 10
786.708652132147
 20
199.8872527822997
 30
0.0
 10
787.6917047968968
 20
200.4343279414996
 30
0.0
 10
788.6076581516467
 20
201.0706679271997
 30
0.0
 10
789.699244209747
 20
202.0070921335997
 30
0.0
 10
790.3969766417469
 20
202.8272944146996
 30
0.0
 10
790.7799856611467
 20
203.4123251077497
 30
0.0
  0
SPLINE
  5
3F354
330
1F
100
AcDbEntity
  8
0
100
AcDbSpline
210
0.0
220
0.0
230
1.0
 70
     8
 71
     3
 72
    32
 73
    28
 74
     0
 42
0.0000000001
 43
0.0000000001
 40
0.0
 40
0.0
 40
0.0
 40
0.0
 40
0.0269829793
 40
0.0534823942
 40
0.0797170724
 40
0.105944923
 40
0.1324148558
 40
0.1593606372
 40
0.1869852696
 40
0.2154496058
 40
0.2448669933
 40
0.2753022272
 40
0.3391825409
 40
0.3726116427
 40
0.4068915506000001
 40
0.4774320873
 40
0.5496365556000004
 40
0.6220888396000001
 40
0.6933458095000004
 40
0.7620965463
 40
0.7952317190000004
 40
0.8273953643999998
 40
0.8885584103000001
 40
0.9176614795999999
 40
0.9458423572999999
 40
0.9732301878000001
 40
1.0
 40
1.0
 40
1.0
 40
1.0
 10
791.5922156396467
 20
207.1577727213497
 30
0.0
 10
791.5847741246467
 20
207.3608975682997
 30
0.0
 10
791.543840436197
 20
207.7631214730997
 30
0.0
 10
791.401486473247
 20
208.3484323816497
 30
0.0
 10
791.1801216554463
 20
208.9027129625997
 30
0.0
 10
790.8822599797465
 20
209.4196383004497
 30
0.0
 10
790.5111856220967
 20
209.8935565048497
 30
0.0
 10
790.071140579147
 20
210.3193454862997
 30
0.0
 10
789.5670533444467
 20
210.6925603214996
 30
0.0
 10
789.0044630541969
 20
211.0093777574997
 30
0.0
 10
788.3893735170967
 20
211.2666892851996
 30
0.0
 10
787.494092210797
 20
211.5312192361997
 30
0.0
 10
786.533283191597
 20
211.6594140628997
 30
0.0
 10
785.5412356078967
 20
211.6599282399997
 30
0.0
 10
784.5023541436971
 20
211.5720925984997
 30
0.0
 10
783.1914312457469
 20
211.2970841399497
 30
0.0
 10
781.6675771287466
 20
210.7275165778497
 30
0.0
 10
780.2385926727969
 20
209.9382544685997
 30
0.0
 10
778.963132662397
 20
208.9616506171997
 30
0.0
 10
778.0597878415966
 20
208.0119097152496
 30
0.0
 10
777.4643647592969
 20
207.1947194452496
 30
0.0
 10
776.9754404676468
 20
206.3761158200997
 30
0.0
 10
776.6173351007968
 20
205.5175305926497
 30
0.0
 10
776.4173303401968
 20
204.6462429411997
 30
0.0
 10
776.3493345876967
 20
204.0103564257497
 30
0.0
 10
776.3619296396966
 20
203.3885821775997
 30
0.0
 10
776.424752110597
 20
202.9839567912997
 30
0.0
 10
776.4695614946466
 20
202.7873429717497
 30
0.0
  0
SPLINE
  5
3F355
330
1F
100
AcDbEntity
  8
0
100
AcDbSpline
210
0.0
220
0.0
230
1.0
 70
     8
 71
     3
 72
    15
 73
    11
 74
     0
 42
0.0000000001
 43
0.0000000001
 40
0.0
 40
0.0
 40
0.0
 40
0.0
 40
0.1394314569
 40
0.2728003493
 40
0.4003356034000002
 40
0.5230927202000001
 40
0.6425331408
 40
0.7604861983
 40
0.8790513132999999
 40
1.0
 40
1.0
 40
1.0
 40
1.0
 10
792.2722304273967
 20
206.4715984462497
 30
0.0
 10
792.2240963432467
 20
206.4796864060996
 30
0.0
 10
792.1307860213968
 20
206.5015512514997
 30
0.0
 10
791.9997571193468
 20
206.5526408671496
 30
0.0
 10
791.8832134401966
 20
206.6205882081997
 30
0.0
 10
791.7835339752968
 20
206.7041877748997
 30
0.0
 10
791.7026873373965
 20
206.8018745153996
 30
0.0
 10
791.6424509574469
 20
206.9118378617496
 30
0.0
 10
791.6041486805969
 20
207.0317223069496
 30
0.0
 10
791.5937656912467
 20
207.1154622521997
 30
0.0
 10
791.5922156396467
 20
207.1577727213497
 30
0.0
  0
SPLINE
  5
3F356
330
1F
100
AcDbEntity
  8
0
100
AcDbSpline
210
0.0
220
0.0
230
1.0
 70
     8
 71
     3
 72
     9
 73
     5
 74
     0
 42
0.0000000001
 43
0.0000000001
 40
0.0
 40
0.0
 40
0.0
 40
0.0
 40
0.2476806451
 40
1.0
 40
1.0
 40
1.0
 40
1.0
 10
791.9821643281967
 20
207.5265644469497
 30
0.0
 10
791.9973379940469
 20
207.4585476863997
 30
0.0
 10
792.0521706139467
 20
207.1825278320997
 30
0.0
 10
792.0813064923967
 20
206.9014835794996
 30
0.0
 10
792.0892885498468
 20
206.6899575795496
 30
0.0
  0
LINE
  5
3F357
330
1F
100
AcDbEntity
  8
0
100
AcDbLine
 10
792.0892885498468
 20
206.6899575795496
 30
0.0
 11
792.0894864451967
 21
206.6846357116997
 31
0.0
  0
SPLINE
  5
3F358
330
1F
100
AcDbEntity
  8
0
100
AcDbSpline
210
0.0
220
0.0
230
1.0
 70
     8
 71
     3
 72
     9
 73
     5
 74
     0
 42
0.0000000001
 43
0.0000000001
 40
0.0
 40
0.0
 40
0.0
 40
0.0
 40
0.2428187357
 40
1.0
 40
1.0
 40
1.0
 40
1.0
 10
792.9197141438971
 20
206.2819231023997
 30
0.0
 10
792.8696286277968
 20
206.3038847434997
 30
0.0
 10
792.6603421957968
 20
206.3873795694997
 30
0.0
 10
792.4404089916969
 20
206.4433394380996
 30
0.0
 10
792.2722304273967
 20
206.4715984462497
 30
0.0
  0
SPLINE
  5
3F359
330
1F
100
AcDbEntity
  8
0
100
AcDbSpline
210
0.0
220
0.0
230
1.0
 70
     8
 71
     3
 72
    26
 73
    22
 74
     0
 42
0.0000000001
 43
0.0000000001
 40
0.0
 40
0.0
 40
0.0
 40
0.0
 40
0.0257119728
 40
0.0512599724
 40
0.0767773575
 40
0.1023986162
 40
0.12825451
 40
0.1544665979
 40
0.1811440618
 40
0.2083796411
 40
0.2647543669
 40
0.3240214756
 40
0.3862553488
 40
0.4512674531
 40
0.518653285
 40
0.5878426975
 40
0.6581494593000004
 40
0.7288192633000003
 40
0.7990759005000001
 40
0.8681687956999999
 40
1.0
 40
1.0
 40
1.0
 40
1.0
 10
776.4695614946466
 20
202.7873429717497
 30
0.0
 10
776.5022366080469
 20
202.6439716895496
 30
0.0
 10
776.5820557521966
 20
202.3612472714997
 30
0.0
 10
776.7450460920465
 20
201.9526960682997
 30
0.0
 10
776.949904727447
 20
201.5639796708997
 30
0.0
 10
777.1953218422967
 20
201.1974172629997
 30
0.0
 10
777.4798952989466
 20
200.8551868760997
 30
0.0
 10
777.8018624116969
 20
200.5392463668997
 30
0.0
 10
778.1593682313967
 20
200.2514284501497
 30
0.0
 10
778.6863727315971
 20
199.9034407084997
 30
0.0
 10
779.4273642211467
 20
199.5485185347996
 30
0.0
 10
780.407914482047
 20
199.2632343428496
 30
0.0
 10
781.468309192547
 20
199.1185018357496
 30
0.0
 10
782.5844781817967
 20
199.1170071227997
 30
0.0
 10
783.7314578216967
 20
199.2582955159496
 30
0.0
 10
784.8834745294468
 20
199.5389436740496
 30
0.0
 10
786.0146402111967
 20
199.9525202012996
 30
0.0
 10
787.0993397713464
 20
200.4895315104997
 30
0.0
 10
788.1134906099464
 20
201.1382615701997
 30
0.0
 10
789.3200581168469
 20
202.1153283617497
 30
0.0
 10
790.0869094891967
 20
202.9921701292496
 30
0.0
 10
790.499875601747
 20
203.6229590632497
 30
0.0
  0
DIMENSION
  5
3F7E4
330
1F
100
AcDbEntity
  8
DIM
100
AcDbDimension
  2
*D8
 10
795.415926509586
 20
237.1936665405989
 30
0.0
 11
825.9038041737731
 21
262.7203072033419
 31
0.0
 70
   163
 71
     5
 42
33.00000000000011
  3
02$3
100
AcDbDiametricDimension
 15
819.7807953260294
 25
259.4501974373383
 35
0.0
 40
0.0
1001
ACAD_DSTYLE_DIMRADIAL_EXTENSION
1070
   387
1070
     1
1070
   388
1040
0.2859148891351866
1070
   390
1040
5.997270418110771
1001
ACAD
1000
DSTYLE
1002
{
1070
   340
1005
FD48
1070
   288
1070
     1
1002
}
  0
ENDSEC
  0
SECTION
  2
OBJECTS
  0
DICTIONARY
  5
C
330
0
100
AcDbDictionary
281
     1
  3
ACAD_COLOR
350
4FFE
  3
ACAD_GROUP
350
D
  3
ACAD_LAYOUT
350
1A
  3
ACAD_MATERIAL
350
4FE5
  3
ACAD_MLEADERSTYLE
350
5022
  3
ACAD_MLINESTYLE
350
17
  3
ACAD_PLOTSETTINGS
350
19
  3
ACAD_PLOTSTYLENAME
350
E
  3
ACAD_RENDER_PLOT_SETTINGS
350
6537
  3
ACAD_SCALELIST
350
5000
  3
ACAD_TABLESTYLE
350
4FE3
  3
ACAD_VISUALSTYLE
350
2A
  3
ACDB_RECOMPOSE_DATA
350
50EC
  3
AcDbVariableDictionary
350
5108
  3
ASE_INDEX_DICTIONARY
350
11ACE
  3
lxx_dict
350
11B4E
  0
DICTIONARY
  5
50EE
330
8
100
AcDbDictionary
280
     1
281
     1
  0
DICTIONARY
  5
50B8
330
2
100
AcDbDictionary
280
     1
281
     1
  3
ACAD_LAYERFILTERS
360
11B10
  3
ACAD_LAYERSTATES
360
50B9
  3
ACLYDICTIONARY
360
11B0F
  0
DICTIONARY
  5
50D0
330
10
100
AcDbDictionary
280
     1
281
     1
  3
ADSK_XREC_LAYER_RECONCILED
360
50D1
  0
DICTIONARY
  5
50D2
330
3B
100
AcDbDictionary
280
     1
281
     1
  3
ADSK_XREC_LAYER_RECONCILED
360
50D3
  0
DICTIONARY
  5
50AF
330
50AE
100
AcDbDictionary
280
     1
281
     1
  3
ADSK_XREC_LAYER_RECONCILED
360
50D4
  0
DICTIONARY
  5
67C0
330
1F
100
AcDbDictionary
280
     1
281
     1
  3
ACAD_SORTENTS
360
67C1
  0
DICTIONARY
  5
3FAF9
330
10FE8
100
AcDbDictionary
280
     1
281
     1
  0
DICTIONARY
  5
3FE0F
330
3FA65
100
AcDbDictionary
280
     1
281
     1
  3
ACAD_MTEXT_2008_RT
360
3FE2A
  0
DICTIONARY
  5
3FE11
330
3FAA7
100
AcDbDictionary
280
     1
281
     1
  3
ACAD_MTEXT_2008_RT
360
3FE2B
  0
DICTIONARY
  5
3FE13
330
3FAA8
100
AcDbDictionary
280
     1
281
     1
  3
ACAD_MTEXT_2008_RT
360
3FE2C
  0
DICTIONARY
  5
3FE15
330
3FACD
100
AcDbDictionary
280
     1
281
     1
  3
ACAD_MTEXT_2008_RT
360
3FE2D
  0
DICTIONARY
  5
3FE17
330
3FAD0
100
AcDbDictionary
280
     1
281
     1
  3
ACAD_MTEXT_2008_RT
360
3FE2E
  0
DICTIONARY
  5
3FE19
330
3FAD1
100
AcDbDictionary
280
     1
281
     1
  3
ACAD_MTEXT_2008_RT
360
3FE2F
  0
DICTIONARY
  5
3FE1B
330
3FADB
100
AcDbDictionary
280
     1
281
     1
  3
ACAD_MTEXT_2008_RT
360
3FE30
  0
DICTIONARY
  5
3FE1D
330
3FADC
100
AcDbDictionary
280
     1
281
     1
  3
ACAD_MTEXT_2008_RT
360
3FE31
  0
DICTIONARY
  5
3FE1F
330
3FADD
100
AcDbDictionary
280
     1
281
     1
  3
ACAD_MTEXT_2008_RT
360
3FE32
  0
DICTIONARY
  5
3FE21
330
3FAEB
100
AcDbDictionary
280
     1
281
     1
  3
ACAD_MTEXT_2008_RT
360
3FE33
  0
DICTIONARY
  5
3FE23
330
3FAEC
100
AcDbDictionary
280
     1
281
     1
  3
ACAD_MTEXT_2008_RT
360
3FE34
  0
DICTIONARY
  5
3FE25
330
3FAED
100
AcDbDictionary
280
     1
281
     1
  3
ACAD_MTEXT_2008_RT
360
3FE35
  0
DICTIONARY
  5
3FE36
330
3FB38
100
AcDbDictionary
280
     1
281
     1
  3
ACAD_MTEXT_2008_RT
360
3FE37
  0
DICTIONARY
  5
13B18
330
12DE1
100
AcDbDictionary
280
     1
281
     1
  0
DICTIONARY
  5
3FE0B
330
1DE52
100
AcDbDictionary
280
     1
281
     1
  3
ACAD_MTEXT_2008_RT
360
3FE28
  0
DICTIONARY
  5
3FE0D
330
1DE53
100
AcDbDictionary
280
     1
281
     1
  3
ACAD_MTEXT_2008_RT
360
3FE29
  0
DICTIONARY
  5
3F18C
330
3F18B
100
AcDbDictionary
280
     1
281
     1
  3
ACAD_DIMASSOC
360
3F18D
  0
DICTIONARY
  5
4FFE
102
{ACAD_REACTORS
330
C
102
}
330
C
100
AcDbDictionary
281
     1
  0
DICTIONARY
  5
D
102
{ACAD_REACTORS
330
C
102
}
330
C
100
AcDbDictionary
281
     1
  0
DICTIONARY
  5
1A
102
{ACAD_REACTORS
330
C
102
}
330
C
100
AcDbDictionary
281
     1
  3
Layout1
350
1E
  3
Layout2
350
26
  3
Model
350
22
  0
DICTIONARY
  5
4FE5
102
{ACAD_REACTORS
330
C
102
}
330
C
100
AcDbDictionary
281
     1
  3
ByBlock
350
4FEE
  3
ByLayer
350
4FE6
  3
Global
350
4FF6
  0
DICTIONARY
  5
5022
102
{ACAD_REACTORS
330
C
102
}
330
C
100
AcDbDictionary
281
     1
  3
Standard
350
5023
  0
DICTIONARY
  5
17
102
{ACAD_REACTORS
330
C
102
}
330
C
100
AcDbDictionary
281
     1
  3
Standard
350
18
  0
DICTIONARY
  5
19
102
{ACAD_REACTORS
330
C
102
}
330
C
100
AcDbDictionary
281
     1
  0
ACDBDICTIONARYWDFLT
  5
E
102
{ACAD_REACTORS
330
C
102
}
330
C
100
AcDbDictionary
281
     1
  3
Normal
350
F
100
AcDbDictionaryWithDefault
340
F
  0
DICTIONARY
  5
6537
102
{ACAD_REACTORS
330
C
102
}
330
C
100
AcDbDictionary
281
     1
  3
{1DC63513-1B1A-422F-9880-65CFD2B8D533}
350
6538
  0
DICTIONARY
  5
5000
102
{ACAD_REACTORS
330
C
102
}
330
C
100
AcDbDictionary
281
     1
  3
A0
350
5001
  3
A1
350
5002
  3
A2
350
5003
  3
A3
350
5004
  3
A4
350
5005
  3
A5
350
5006
  3
A6
350
5007
  3
A7
350
5008
  3
A8
350
5009
  3
A9
350
500A
  3
B0
350
500B
  3
B1
350
500C
  3
B2
350
500D
  3
B3
350
500E
  3
B4
350
500F
  3
B5
350
5010
  3
B6
350
5011
  3
B7
350
5012
  3
B8
350
5013
  3
B9
350
5014
  3
C0
350
5015
  3
C1
350
5016
  3
C2
350
5017
  3
C3
350
5018
  3
C4
350
5019
  3
C5
350
501A
  3
C6
350
501B
  3
C7
350
501C
  3
C8
350
501D
  3
C9
350
501E
  3
D0
350
501F
  3
D1
350
5020
  3
D2
350
5021
  0
DICTIONARY
  5
4FE3
102
{ACAD_REACTORS
330
C
102
}
330
C
100
AcDbDictionary
281
     1
  3
Standard
350
4FFF
  0
DICTIONARY
  5
2A
102
{ACAD_REACTORS
330
C
102
}
330
C
100
AcDbDictionary
281
     1
  3
2dWireframe
350
2F
  3
3D Hidden
350
31
  3
3dWireframe
350
30
  3
Basic
350
32
  3
Brighten
350
36
  3
ColorChange
350
3A
  3
Conceptual
350
34
  3
Dim
350
35
  3
Facepattern
350
39
  3
Flat
350
2B
  3
FlatWithEdges
350
2C
  3
Gouraud
350
2D
  3
GouraudWithEdges
350
2E
  3
Linepattern
350
38
  3
Realistic
350
33
  3
Thicken
350
37
  0
XRECORD
  5
50EC
102
{ACAD_REACTORS
330
C
102
}
330
C
100
AcDbXrecord
280
     1
 90
        1
330
4FFF
330
1DE52
330
1DE53
330
3FA65
330
3FAA7
330
3FAA8
330
3FACD
330
3FAD0
330
3FAD1
330
3FADB
330
3FADC
330
3FADD
330
3FAEB
330
3FAEC
330
3FAED
  0
DICTIONARY
  5
5108
102
{ACAD_REACTORS
330
C
102
}
330
C
100
AcDbDictionary
281
     1
  3
CANNOSCALE
350
510B
  3
CMLEADERSTYLE
350
510A
  3
CTABLESTYLE
350
5109
  3
DIMASSOC
350
510E
  3
INDEXCTL
350
510D
  3
LIGHTINGUNITS
350
137BB
  3
MSLTSCALE
350
137BA
  3
SORTENTS
350
510C
  0
DICTIONARY
  5
11ACE
102
{ACAD_REACTORS
330
C
102
}
330
C
100
AcDbDictionary
281
     1
  3
ASEBlockHierarchyIndexRecord
350
11ACF
1001
DCO15
1040
1901610418.781
  0
DICTIONARY
  5
11B4E
102
{ACAD_REACTORS
330
C
102
}
330
C
100
AcDbDictionary
281
     1
  3
lxx_dimth
350
11B4F
  0
DICTIONARY
  5
11B10
102
{ACAD_REACTORS
330
50B8
102
}
330
50B8
100
AcDbDictionary
281
     1
  0
DICTIONARY
  5
50B9
102
{ACAD_REACTORS
330
50B8
102
}
330
50B8
100
AcDbDictionary
281
     1
  0
DICTIONARY
  5
11B0F
102
{ACAD_REACTORS
330
50B8
102
}
330
50B8
100
AcDbDictionary
281
     1
1001
ACAD
1000
<All
  0
XRECORD
  5
50D1
102
{ACAD_REACTORS
330
50D0
102
}
330
50D0
100
AcDbXrecord
280
     1
290
     1
  0
XRECORD
  5
50D3
102
{ACAD_REACTORS
330
50D2
102
}
330
50D2
100
AcDbXrecord
280
     1
290
     1
  0
XRECORD
  5
50D4
102
{ACAD_REACTORS
330
50AF
102
}
330
50AF
100
AcDbXrecord
280
     1
290
     1
  0
SORTENTSTABLE
  5
67C1
102
{ACAD_REACTORS
330
67C0
102
}
330
67C0
100
AcDbSortentsTable
330
1F
331
12DE1
  5
12DE1
331
3943
  5
4842
331
134E8
  5
134E8
331
3895
  5
3943
331
2C65
  5
2EE7
331
35D8
  5
3807
331
4842
  5
4E94
331
1DE53
  5
1DE53
331
3807
  5
3895
331
35C8
  5
35D8
331
134E7
  5
134E7
331
2FDE
  5
35C8
331
2F93
  5
2FDE
331
1349F
  5
1349F
331
1DE52
  5
1DE52
331
28AE
  5
2A38
331
2EE7
  5
2F93
  0
XRECORD
  5
3FE2A
102
{ACAD_REACTORS
330
3FE0F
102
}
330
3FE0F
100
AcDbXrecord
280
     1
 40
2554.0
  1
\pxqc;HQ ZHANG
  0
XRECORD
  5
3FE2B
102
{ACAD_REACTORS
330
3FE11
102
}
330
3FE11
100
AcDbXrecord
280
     1
 40
382080.0
  1
\pxqc;档案员{\H0.7x;\P\Fromans|c134;Filing Clerk\fFangSong_GB2312|b0|i0|c134|p49; }
  0
XRECORD
  5
3FE2C
102
{ACAD_REACTORS
330
3FE13
102
}
330
3FE13
100
AcDbXrecord
280
     1
 40
48245.0
  1
\pxqc;日期{\Fromans|c134;/Date}
  0
XRECORD
  5
3FE2D
102
{ACAD_REACTORS
330
3FE15
102
}
330
3FE15
100
AcDbXrecord
280
     1
 40
71634.0
  1
\pxsm0.7;{\fFangSong_GB2312|b0|i0|c134|p49;标准化}\PStand.
  0
XRECORD
  5
3FE2E
102
{ACAD_REACTORS
330
3FE17
102
}
330
3FE17
100
AcDbXrecord
280
     1
 40
48353.0
  1
\pxsm0.7;签名\P{\Fromans|c134;Signature} 
  0
XRECORD
  5
3FE2F
102
{ACAD_REACTORS
330
3FE19
102
}
330
3FE19
100
AcDbXrecord
280
     1
 40
38427.0
  1
\pxsm0.7,qc;处数\P{\Fromans|c134;Number }
  0
XRECORD
  5
3FE30
102
{ACAD_REACTORS
330
3FE1B
102
}
330
3FE1B
100
AcDbXrecord
280
     1
 40
31190.0
  1
\pxsm0.7;标记\P{\Fromans|c134;Mark}
  0
XRECORD
  5
3FE31
102
{ACAD_REACTORS
330
3FE1D
102
}
330
3FE1D
100
AcDbXrecord
280
     1
 40
39355.0
  1
\pxsm0.7;审核\P{\Fromans|c134;Checked}
  0
XRECORD
  5
3FE32
102
{ACAD_REACTORS
330
3FE1F
102
}
330
3FE1F
100
AcDbXrecord
280
     1
 40
66730.0
  1
\pxsm0.7;绘图\P{\Fromans|c134;Drawn\Ftxt|c134; }
  0
XRECORD
  5
3FE33
102
{ACAD_REACTORS
330
3FE21
102
}
330
3FE21
100
AcDbXrecord
280
     1
 40
43787.0
  1
\pxsm0.7;批准\P{\Fromans|c134;Approved}
  0
XRECORD
  5
3FE34
102
{ACAD_REACTORS
330
3FE23
102
}
330
3FE23
100
AcDbXrecord
280
     1
 40
40691.0
  1
\pxsm0.7;工艺\P{\Fromans|c134;Process}
  0
XRECORD
  5
3FE35
102
{ACAD_REACTORS
330
3FE25
102
}
330
3FE25
100
AcDbXrecord
280
     1
 40
30977.0
  1
\pxsm0.7;日期\P{\Fromans|c134;Date}
  0
XRECORD
  5
3FE37
102
{ACAD_REACTORS
330
3FE36
102
}
330
3FE36
100
AcDbXrecord
280
     1
 40
5064.0
  1
\A1;\U+220533
  0
XRECORD
  5
3FE28
102
{ACAD_REACTORS
330
3FE0B
102
}
330
3FE0B
100
AcDbXrecord
280
     1
 40
1033188.0
  1
\A1;\pxql;技术参数：{\Fromans|c134;                             \P- }温度范围：{\Fromans|c134;-40}℃{\Fromans|c134; ... +85}℃{\Fromans|c134;          \P- }材料：硅橡胶{\Fromans|c134;\P- }防护等级：{\Fromans|c134;IP67 }
  0
XRECORD
  5
3FE29
102
{ACAD_REACTORS
330
3FE0D
102
}
330
3FE0D
100
AcDbXrecord
280
     1
 40
1633752.0
  1
\A1;\pxql;{\Fromans|c134;Technical specification:\P- \A0;Temperature range\A1;: -40}℃{\Fromans|c134; ... +85}℃{\Fromans|c134;\P- \A0;Degree of protection\A1;: IP67\P- \A0;Material:\A1;Silicone rubber\P  }
  0
DIMASSOC
  5
3F18D
102
{ACAD_REACTORS
330
3F18C
102
}
330
3F18C
100
AcDbDimAssoc
330
3F18B
 90
        3
 70
     0
 71
     0
  1
AcDbOsnapPointRef
 72
     1
331
3F176
 73
     2
 91
        0
 40
1.0
 10
0.0
 20
0.0
 30
2.000000000000000E+50
 75
     0
  1
AcDbOsnapPointRef
 72
     1
331
3F180
 73
     2
 91
        0
 40
1.0
 10
0.0
 20
0.0
 30
2.000000000000000E+50
 75
     0
  0
LAYOUT
  5
1E
102
{ACAD_REACTORS
330
1A
102
}
330
1A
100
AcDbPlotSettings
  1

  2
none_device
  4

  6

 40
0.0
 41
0.0
 42
0.0
 43
0.0
 44
0.0
 45
0.0
 46
0.0
 47
0.0
 48
0.0
 49
0.0
140
0.0
141
0.0
142
1.0
143
1.0
 70
   688
 72
     0
 73
     0
 74
     5
  7

 75
    16
147
1.0
 76
     0
 77
     2
 78
   300
148
0.0
149
0.0
100
AcDbLayout
  1
Layout1
 70
     1
 71
     1
 10
0.0
 20
0.0
 11
12.0
 21
9.0
 12
0.0
 22
0.0
 32
0.0
 14
1.000000000000000E+20
 24
1.000000000000000E+20
 34
1.000000000000000E+20
 15
-1.000000000000000E+20
 25
-1.000000000000000E+20
 35
-1.000000000000000E+20
146
0.0
 13
0.0
 23
0.0
 33
0.0
 16
1.0
 26
0.0
 36
0.0
 17
0.0
 27
1.0
 37
0.0
 76
     0
330
1B
  0
LAYOUT
  5
26
102
{ACAD_REACTORS
330
1A
102
}
330
1A
100
AcDbPlotSettings
  1

  2
none_device
  4

  6

 40
0.0
 41
0.0
 42
0.0
 43
0.0
 44
0.0
 45
0.0
 46
0.0
 47
0.0
 48
0.0
 49
0.0
140
0.0
141
0.0
142
1.0
143
1.0
 70
   688
 72
     0
 73
     0
 74
     5
  7

 75
    16
147
1.0
 76
     0
 77
     2
 78
   300
148
0.0
149
0.0
100
AcDbLayout
  1
Layout2
 70
     1
 71
     2
 10
0.0
 20
0.0
 11
0.0
 21
0.0
 12
0.0
 22
0.0
 32
0.0
 14
0.0
 24
0.0
 34
0.0
 15
0.0
 25
0.0
 35
0.0
146
0.0
 13
0.0
 23
0.0
 33
0.0
 16
1.0
 26
0.0
 36
0.0
 17
0.0
 27
1.0
 37
0.0
 76
     0
330
23
  0
LAYOUT
  5
22
102
{ACAD_REACTORS
330
1A
102
}
330
1A
100
AcDbPlotSettings
  1

  2
Adobe PDF Converter.pc3
  4
A4
  6

 40
3.174999952316281
 41
3.174999952316281
 42
3.17498779296875
 43
3.175003051757812
 44
297.0318298339844
 45
209.9733276367186
 46
0.0000000000000076
 47
1.630241740247063
 48
246.9897427644609
 49
39.36804549891383
140
544.952097801264
141
244.7492402188181
142
1.0
143
1.025046328645055
 70
  3764
 72
     1
 73
     0
 74
     4
  7
monochrome.ctb
 75
     0
147
0.9755656618192436
 76
     1
 77
     2
 78
   300
148
-246.9897427644609
149
-39.36804549891383
100
AcDbLayout
  1
Model
 70
     1
 71
     0
 10
0.0
 20
0.0
 11
12.0
 21
9.0
 12
0.0
 22
0.0
 32
0.0
 14
1.000000000000000E+20
 24
1.000000000000000E+20
 34
1.000000000000000E+20
 15
-1.000000000000000E+20
 25
-1.000000000000000E+20
 35
-1.000000000000000E+20
146
0.0
 13
0.0
 23
0.0
 33
0.0
 16
1.0
 26
0.0
 36
0.0
 17
0.0
 27
1.0
 37
0.0
 76
     0
330
1F
331
29
1001
ACAD_PSEXT
1000
Adobe PDF Converter.pc3
1000
Adobe PDF Converter
1000
桌面\*.pdf
1000

1070
     0
  0
MATERIAL
  5
4FEE
102
{ACAD_XDICTIONARY
360
4FEF
102
}
102
{ACAD_REACTORS
330
4FE5
102
}
330
4FE5
100
AcDbMaterial
  1
ByBlock
 72
     0
 43
0.0208333333333333
 43
0.0
 43
0.0
 43
0.0
 43
0.0
 43
0.0208333333333333
 43
0.0
 43
0.0
 43
0.0
 43
0.0
 43
1.0
 43
0.0
 43
0.0
 43
0.0
 43
0.0
 43
1.0
 77
     0
 47
0.0208333333333333
 47
0.0
 47
0.0
 47
0.0
 47
0.0
 47
0.0208333333333333
 47
0.0
 47
0.0
 47
0.0
 47
0.0
 47
1.0
 47
0.0
 47
0.0
 47
0.0
 47
0.0
 47
1.0
171
     0
 49
0.0208333333333333
 49
0.0
 49
0.0
 49
0.0
 49
0.0
 49
0.0208333333333333
 49
0.0
 49
0.0
 49
0.0
 49
0.0
 49
1.0
 49
0.0
 49
0.0
 49
0.0
 49
0.0
 49
1.0
175
     0
142
0.0208333333333333
142
0.0
142
0.0
142
0.0
142
0.0
142
0.0208333333333333
142
0.0
142
0.0
142
0.0
142
0.0
142
1.0
142
0.0
142
0.0
142
0.0
142
0.0
142
1.0
179
     0
144
0.0208333333333333
144
0.0
144
0.0
144
0.0
144
0.0
144
0.0208333333333333
144
0.0
144
0.0
144
0.0
144
0.0
144
1.0
144
0.0
144
0.0
144
0.0
144
0.0
144
1.0
147
0.0208333333333333
147
0.0
147
0.0
147
0.0
147
0.0
147
0.0208333333333333
147
0.0
147
0.0
147
0.0
147
0.0
147
1.0
147
0.0
147
0.0
147
0.0
147
0.0
147
1.0
  0
MATERIAL
  5
4FE6
102
{ACAD_XDICTIONARY
360
4FE7
102
}
102
{ACAD_REACTORS
330
4FE5
102
}
330
4FE5
100
AcDbMaterial
  1
ByLayer
 72
     0
 43
0.0208333333333333
 43
0.0
 43
0.0
 43
0.0
 43
0.0
 43
0.0208333333333333
 43
0.0
 43
0.0
 43
0.0
 43
0.0
 43
1.0
 43
0.0
 43
0.0
 43
0.0
 43
0.0
 43
1.0
 77
     0
 47
0.0208333333333333
 47
0.0
 47
0.0
 47
0.0
 47
0.0
 47
0.0208333333333333
 47
0.0
 47
0.0
 47
0.0
 47
0.0
 47
1.0
 47
0.0
 47
0.0
 47
0.0
 47
0.0
 47
1.0
171
     0
 49
0.0208333333333333
 49
0.0
 49
0.0
 49
0.0
 49
0.0
 49
0.0208333333333333
 49
0.0
 49
0.0
 49
0.0
 49
0.0
 49
1.0
 49
0.0
 49
0.0
 49
0.0
 49
0.0
 49
1.0
175
     0
142
0.0208333333333333
142
0.0
142
0.0
142
0.0
142
0.0
142
0.0208333333333333
142
0.0
142
0.0
142
0.0
142
0.0
142
1.0
142
0.0
142
0.0
142
0.0
142
0.0
142
1.0
179
     0
144
0.0208333333333333
144
0.0
144
0.0
144
0.0
144
0.0
144
0.0208333333333333
144
0.0
144
0.0
144
0.0
144
0.0
144
1.0
144
0.0
144
0.0
144
0.0
144
0.0
144
1.0
147
0.0208333333333333
147
0.0
147
0.0
147
0.0
147
0.0
147
0.0208333333333333
147
0.0
147
0.0
147
0.0
147
0.0
147
1.0
147
0.0
147
0.0
147
0.0
147
0.0
147
1.0
  0
MATERIAL
  5
4FF6
102
{ACAD_XDICTIONARY
360
4FF7
102
}
102
{ACAD_REACTORS
330
4FE5
102
}
330
4FE5
100
AcDbMaterial
  1
Global
 72
     0
 43
0.0208333333333333
 43
0.0
 43
0.0
 43
0.0
 43
0.0
 43
0.0208333333333333
 43
0.0
 43
0.0
 43
0.0
 43
0.0
 43
1.0
 43
0.0
 43
0.0
 43
0.0
 43
0.0
 43
1.0
 77
     0
 47
0.0208333333333333
 47
0.0
 47
0.0
 47
0.0
 47
0.0
 47
0.0208333333333333
 47
0.0
 47
0.0
 47
0.0
 47
0.0
 47
1.0
 47
0.0
 47
0.0
 47
0.0
 47
0.0
 47
1.0
171
     0
 49
0.0208333333333333
 49
0.0
 49
0.0
 49
0.0
 49
0.0
 49
0.0208333333333333
 49
0.0
 49
0.0
 49
0.0
 49
0.0
 49
1.0
 49
0.0
 49
0.0
 49
0.0
 49
0.0
 49
1.0
175
     0
142
0.0208333333333333
142
0.0
142
0.0
142
0.0
142
0.0
142
0.0208333333333333
142
0.0
142
0.0
142
0.0
142
0.0
142
1.0
142
0.0
142
0.0
142
0.0
142
0.0
142
1.0
179
     0
144
0.0208333333333333
144
0.0
144
0.0
144
0.0
144
0.0
144
0.0208333333333333
144
0.0
144
0.0
144
0.0
144
0.0
144
1.0
144
0.0
144
0.0
144
0.0
144
0.0
144
1.0
147
0.0208333333333333
147
0.0
147
0.0
147
0.0
147
0.0
147
0.0208333333333333
147
0.0
147
0.0
147
0.0
147
0.0
147
1.0
147
0.0
147
0.0
147
0.0
147
0.0
147
1.0
  0
MLEADERSTYLE
  5
5023
102
{ACAD_REACTORS
330
5022
102
}
330
5022
100
AcDbMLeaderStyle
170
     2
171
     1
172
     0
 90
        2
 40
0.0
 41
0.0
173
     1
 91
-1056964608
340
14
 92
       -2
290
     1
 42
0.09
291
     1
 43
0.36
  3
Standard
 44
0.18
300

342
11
174
     1
178
     6
175
     1
176
     0
 93
-1056964608
 45
0.18
292
     0
297
     0
 46
0.18
 94
-1056964608
 47
1.0
 49
1.0
140
1.0
293
     1
141
0.0
294
     1
177
     0
142
1.0
295
     0
296
     0
143
0.125
1001
ACAD_MLEADERVER
1070
     2
  0
MLINESTYLE
  5
18
102
{ACAD_REACTORS
330
17
102
}
330
17
100
AcDbMlineStyle
  2
STANDARD
 70
     0
  3

 62
   256
 51
90.0
 52
90.0
 71
     2
 49
0.5
 62
   256
  6
BYLAYER
 49
-0.5
 62
   256
  6
BYLAYER
  0
ACDBPLACEHOLDER
  5
F
102
{ACAD_REACTORS
330
E
102
}
330
E
  0
MENTALRAYRENDERSETTINGS
  5
6538
102
{ACAD_REACTORS
330
6537
102
}
330
6537
100
AcDbRenderSettings
 90
        2
  1
中
290
     1
290
     1
290
     1
290
     1
  1

  1
渲染质量好于“低级”。包括纹理过滤并且强制双面处于激活状态。处理中等级反锯齿和 5 反射/折射的光线跟踪深度。
 90
        0
100
AcDbMentalRayRenderSettings
 90
        2
 90
        0
 90
        1
 70
     2
 40
3.0
 40
3.0
 40
0.0500000007450581
 40
0.0500000007450581
 40
0.0500000007450581
 40
0.0500000007450581
 70
     0
290
     0
290
     1
 90
        5
 90
        5
 90
        5
290
     0
 90
      500
290
     0
 40
1.0
 90
    10000
 90
        5
 90
        5
 90
        5
290
     0
 90
      200
290
     0
290
     0
290
     0
 40
0.1
 40
1.0
 40
1500.0
 70
     0
 70
     0
 40
10.0
 70
     0
 70
     0
290
     0
  1

 90
       32
 70
     0
 90
     1048
290
     0
 40
1.0
  0
SCALE
  5
5001
102
{ACAD_REACTORS
330
5000
102
}
330
5000
100
AcDbScale
 70
     0
300
1:1
140
1.0
141
1.0
290
     1
  0
SCALE
  5
5002
102
{ACAD_REACTORS
330
5000
102
}
330
5000
100
AcDbScale
 70
     0
300
1:2
140
1.0
141
2.0
290
     0
  0
SCALE
  5
5003
102
{ACAD_REACTORS
330
5000
102
}
330
5000
100
AcDbScale
 70
     0
300
1:4
140
1.0
141
4.0
290
     0
  0
SCALE
  5
5004
102
{ACAD_REACTORS
330
5000
102
}
330
5000
100
AcDbScale
 70
     0
300
1:5
140
1.0
141
5.0
290
     0
  0
SCALE
  5
5005
102
{ACAD_REACTORS
330
5000
102
}
330
5000
100
AcDbScale
 70
     0
300
1:8
140
1.0
141
8.0
290
     0
  0
SCALE
  5
5006
102
{ACAD_REACTORS
330
5000
102
}
330
5000
100
AcDbScale
 70
     0
300
1:10
140
1.0
141
10.0
290
     0
  0
SCALE
  5
5007
102
{ACAD_REACTORS
330
5000
102
}
330
5000
100
AcDbScale
 70
     0
300
1:16
140
1.0
141
16.0
290
     0
  0
SCALE
  5
5008
102
{ACAD_REACTORS
330
5000
102
}
330
5000
100
AcDbScale
 70
     0
300
1:20
140
1.0
141
20.0
290
     0
  0
SCALE
  5
5009
102
{ACAD_REACTORS
330
5000
102
}
330
5000
100
AcDbScale
 70
     0
300
1:30
140
1.0
141
30.0
290
     0
  0
SCALE
  5
500A
102
{ACAD_REACTORS
330
5000
102
}
330
5000
100
AcDbScale
 70
     0
300
1:40
140
1.0
141
40.0
290
     0
  0
SCALE
  5
500B
102
{ACAD_REACTORS
330
5000
102
}
330
5000
100
AcDbScale
 70
     0
300
1:50
140
1.0
141
50.0
290
     0
  0
SCALE
  5
500C
102
{ACAD_REACTORS
330
5000
102
}
330
5000
100
AcDbScale
 70
     0
300
1:100
140
1.0
141
100.0
290
     0
  0
SCALE
  5
500D
102
{ACAD_REACTORS
330
5000
102
}
330
5000
100
AcDbScale
 70
     0
300
2:1
140
2.0
141
1.0
290
     0
  0
SCALE
  5
500E
102
{ACAD_REACTORS
330
5000
102
}
330
5000
100
AcDbScale
 70
     0
300
4:1
140
4.0
141
1.0
290
     0
  0
SCALE
  5
500F
102
{ACAD_REACTORS
330
5000
102
}
330
5000
100
AcDbScale
 70
     0
300
8:1
140
8.0
141
1.0
290
     0
  0
SCALE
  5
5010
102
{ACAD_REACTORS
330
5000
102
}
330
5000
100
AcDbScale
 70
     0
300
10:1
140
10.0
141
1.0
290
     0
  0
SCALE
  5
5011
102
{ACAD_REACTORS
330
5000
102
}
330
5000
100
AcDbScale
 70
     0
300
100:1
140
100.0
141
1.0
290
     0
  0
SCALE
  5
5012
102
{ACAD_REACTORS
330
5000
102
}
330
5000
100
AcDbScale
 70
     0
300
1/128" = 1'-0"
140
0.0078125
141
12.0
290
     0
  0
SCALE
  5
5013
102
{ACAD_REACTORS
330
5000
102
}
330
5000
100
AcDbScale
 70
     0
300
1/64" = 1'-0"
140
0.015625
141
12.0
290
     0
  0
SCALE
  5
5014
102
{ACAD_REACTORS
330
5000
102
}
330
5000
100
AcDbScale
 70
     0
300
1/32" = 1'-0"
140
0.03125
141
12.0
290
     0
  0
SCALE
  5
5015
102
{ACAD_REACTORS
330
5000
102
}
330
5000
100
AcDbScale
 70
     0
300
1/16" = 1'-0"
140
0.0625
141
12.0
290
     0
  0
SCALE
  5
5016
102
{ACAD_REACTORS
330
5000
102
}
330
5000
100
AcDbScale
 70
     0
300
3/32" = 1'-0"
140
0.09375
141
12.0
290
     0
  0
SCALE
  5
5017
102
{ACAD_REACTORS
330
5000
102
}
330
5000
100
AcDbScale
 70
     0
300
1/8" = 1'-0"
140
0.125
141
12.0
290
     0
  0
SCALE
  5
5018
102
{ACAD_REACTORS
330
5000
102
}
330
5000
100
AcDbScale
 70
     0
300
3/16" = 1'-0"
140
0.1875
141
12.0
290
     0
  0
SCALE
  5
5019
102
{ACAD_REACTORS
330
5000
102
}
330
5000
100
AcDbScale
 70
     0
300
1/4" = 1'-0"
140
0.25
141
12.0
290
     0
  0
SCALE
  5
501A
102
{ACAD_REACTORS
330
5000
102
}
330
5000
100
AcDbScale
 70
     0
300
3/8" = 1'-0"
140
0.375
141
12.0
290
     0
  0
SCALE
  5
501B
102
{ACAD_REACTORS
330
5000
102
}
330
5000
100
AcDbScale
 70
     0
300
1/2" = 1'-0"
140
0.5
141
12.0
290
     0
  0
SCALE
  5
501C
102
{ACAD_REACTORS
330
5000
102
}
330
5000
100
AcDbScale
 70
     0
300
3/4" = 1'-0"
140
0.75
141
12.0
290
     0
  0
SCALE
  5
501D
102
{ACAD_REACTORS
330
5000
102
}
330
5000
100
AcDbScale
 70
     0
300
1" = 1'-0"
140
1.0
141
12.0
290
     0
  0
SCALE
  5
501E
102
{ACAD_REACTORS
330
5000
102
}
330
5000
100
AcDbScale
 70
     0
300
1-1/2" = 1'-0"
140
1.5
141
12.0
290
     0
  0
SCALE
  5
501F
102
{ACAD_REACTORS
330
5000
102
}
330
5000
100
AcDbScale
 70
     0
300
3" = 1'-0"
140
3.0
141
12.0
290
     0
  0
SCALE
  5
5020
102
{ACAD_REACTORS
330
5000
102
}
330
5000
100
AcDbScale
 70
     0
300
6" = 1'-0"
140
6.0
141
12.0
290
     0
  0
SCALE
  5
5021
102
{ACAD_REACTORS
330
5000
102
}
330
5000
100
AcDbScale
 70
     0
300
1'-0" = 1'-0"
140
12.0
141
12.0
290
     0
  0
TABLESTYLE
  5
4FFF
102
{ACAD_XDICTIONARY
360
50D6
102
}
102
{ACAD_REACTORS
330
4FE3
102
}
330
4FE3
100
AcDbTableStyle
  3
Standard
 70
     0
 71
     0
 40
0.06
 41
0.06
280
     0
281
     0
  7
Standard
140
0.18
170
     2
 62
     0
 63
     7
283
     0
274
    -2
284
     1
 64
     0
275
    -2
285
     1
 65
     0
276
    -2
286
     1
 66
     0
277
    -2
287
     1
 67
     0
278
    -2
288
     1
 68
     0
279
    -2
289
     1
 69
     0
  7
Standard
140
0.25
170
     5
 62
     0
 63
     7
283
     0
274
    -2
284
     1
 64
     0
275
    -2
285
     1
 65
     0
276
    -2
286
     1
 66
     0
277
    -2
287
     1
 67
     0
278
    -2
288
     1
 68
     0
279
    -2
289
     1
 69
     0
  7
Standard
140
0.18
170
     5
 62
     0
 63
     7
283
     0
274
    -2
284
     1
 64
     0
275
    -2
285
     1
 65
     0
276
    -2
286
     1
 66
     0
277
    -2
287
     1
 67
     0
278
    -2
288
     1
 68
     0
279
    -2
289
     1
 69
     0
  0
VISUALSTYLE
  5
2F
102
{ACAD_REACTORS
330
2A
102
}
330
2A
100
AcDbVisualStyle
  2
2dWireframe
 70
     4
 71
     0
 72
     2
 73
     0
 90
        0
 40
-0.6
 41
-30.0
 62
     5
 63
     7
 74
     1
 91
        4
 64
     7
 65
   257
 75
     1
175
     1
 42
1.0
 92
        0
 66
   257
 43
1.0
 76
     1
 77
     6
 78
     2
 67
     7
 79
     5
170
     0
171
     0
290
     0
174
     0
 93
        1
 44
0.0
173
     0
291
     0
 45
0.0
1001
ACAD
1000
AcDbSavedByObjectVersion
1070
     0
1000
AcDbSavedByObjectVersion
1070
     0
1000
AcDbSavedByObjectVersion
1070
     0
1000
AcDbSavedByObjectVersion
1070
     0
1000
AcDbSavedByObjectVersion
1070
     0
1000
AcDbSavedByObjectVersion
1070
     0
1000
AcDbSavedByObjectVersion
1070
     0
1000
AcDbSavedByObjectVersion
1070
     0
1000
AcDbSavedByObjectVersion
1070
     0
1000
AcDbSavedByObjectVersion
1070
     0
1000
AcDbSavedByObjectVersion
1070
     0
1000
AcDbSavedByObjectVersion
1070
     0
1000
AcDbSavedByObjectVersion
1070
     0
1000
AcDbSavedByObjectVersion
1070
     0
1000
AcDbSavedByObjectVersion
1070
     0
1000
AcDbSavedByObjectVersion
1070
     0
1000
AcDbSavedByObjectVersion
1070
     0
1000
AcDbSavedByObjectVersion
1070
     0
1000
AcDbSavedByObjectVersion
1070
     0
1000
AcDbSavedByObjectVersion
1070
     0
1000
AcDbSavedByObjectVersion
1070
     0
1000
AcDbSavedByObjectVersion
1070
     0
1000
AcDbSavedByObjectVersion
1070
     0
1000
AcDbSavedByObjectVersion
1070
     0
1000
AcDbSavedByObjectVersion
1070
     0
1000
AcDbSavedByObjectVersion
1070
     0
1000
AcDbSavedByObjectVersion
1070
     0
1000
AcDbSavedByObjectVersion
1070
     0
1000
AcDbSavedByObjectVersion
1070
     0
1000
AcDbSavedByObjectVersion
1070
     0
1000
AcDbSavedByObjectVersion
1070
     0
1000
AcDbSavedByObjectVersion
1070
     0
1000
AcDbSavedByObjectVersion
1070
     0
1000
AcDbSavedByObjectVersion
1070
     0
1000
AcDbSavedByObjectVersion
1070
     0
1000
AcDbSavedByObjectVersion
1070
     0
1000
AcDbSavedByObjectVersion
1070
     0
1000
AcDbSavedByObjectVersion
1070
     0
1000
AcDbSavedByObjectVersion
1070
     0
1000
AcDbSavedByObjectVersion
1070
     0
1000
AcDbSavedByObjectVersion
1070
     0
1000
AcDbSavedByObjectVersion
1070
     0
1000
AcDbSavedByObjectVersion
1070
     0
1000
AcDbSavedByObjectVersion
1070
     0
  0
VISUALSTYLE
  5
31
102
{ACAD_REACTORS
330
2A
102
}
330
2A
100
AcDbVisualStyle
  2
3D Hidden
 70
     6
 71
     1
 72
     2
 73
     2
 90
        0
 40
-0.6
 41
-30.0
 62
     5
 63
     7
 74
     2
 91
        2
 64
     7
 65
   257
 75
     2
175
     1
 42
40.0
 92
        0
 66
   257
 43
1.0
 76
     1
 77
     6
 78
     2
 67
     7
 79
     3
170
     0
171
     0
290
     0
174
     0
 93
        1
 44
0.0
173
     0
291
     0
 45
0.0
1001
ACAD
1000
AcDbSavedByObjectVersion
1070
     0
1000
AcDbSavedByObjectVersion
1070
     0
1000
AcDbSavedByObjectVersion
1070
     0
1000
AcDbSavedByObjectVersion
1070
     0
1000
AcDbSavedByObjectVersion
1070
     0
1000
AcDbSavedByObjectVersion
1070
     0
1000
AcDbSavedByObjectVersion
1070
     0
1000
AcDbSavedByObjectVersion
1070
     0
1000
AcDbSavedByObjectVersion
1070
     0
1000
AcDbSavedByObjectVersion
1070
     0
1000
AcDbSavedByObjectVersion
1070
     0
1000
AcDbSavedByObjectVersion
1070
     0
1000
AcDbSavedByObjectVersion
1070
     0
1000
AcDbSavedByObjectVersion
1070
     0
1000
AcDbSavedByObjectVersion
1070
     0
1000
AcDbSavedByObjectVersion
1070
     0
1000
AcDbSavedByObjectVersion
1070
     0
1000
AcDbSavedByObjectVersion
1070
     0
1000
AcDbSavedByObjectVersion
1070
     0
1000
AcDbSavedByObjectVersion
1070
     0
1000
AcDbSavedByObjectVersion
1070
     0
1000
AcDbSavedByObjectVersion
1070
     0
1000
AcDbSavedByObjectVersion
1070
     0
1000
AcDbSavedByObjectVersion
1070
     0
1000
AcDbSavedByObjectVersion
1070
     0
1000
AcDbSavedByObjectVersion
1070
     0
1000
AcDbSavedByObjectVersion
1070
     0
1000
AcDbSavedByObjectVersion
1070
     0
1000
AcDbSavedByObjectVersion
1070
     0
1000
AcDbSavedByObjectVersion
1070
     0
1000
AcDbSavedByObjectVersion
1070
     0
1000
AcDbSavedByObjectVersion
1070
     0
1000
AcDbSavedByObjectVersion
1070
     0
1000
AcDbSavedByObjectVersion
1070
     0
1000
AcDbSavedByObjectVersion
1070
     0
1000
AcDbSavedByObjectVersion
1070
     0
1000
AcDbSavedByObjectVersion
1070
     0
1000
AcDbSavedByObjectVersion
1070
     0
1000
AcDbSavedByObjectVersion
1070
     0
1000
AcDbSavedByObjectVersion
1070
     0
1000
AcDbSavedByObjectVersion
1070
     0
1000
AcDbSavedByObjectVersion
1070
     0
1000
AcDbSavedByObjectVersion
1070
     0
1000
AcDbSavedByObjectVersion
1070
     0
  0
VISUALSTYLE
  5
30
102
{ACAD_REACTORS
330
2A
102
}
330
2A
100
AcDbVisualStyle
  2
3dWireframe
 70
     5
 71
     0
 72
     2
 73
     0
 90
        0
 40
-0.6
 41
-30.0
 62
     5
 63
     7
 74
     1
 91
        4
 64
     7
 65
   257
 75
     1
175
     1
 42
1.0
 92
        0
 66
   257
 43
1.0
 76
     1
 77
     6
 78
     2
 67
     7
 79
     5
170
     0
171
     0
290
     0
174
     0
 93
        1
 44
0.0
173
     0
291
     0
 45
0.0
1001
ACAD
1000
AcDbSavedByObjectVersion
1070
     0
1000
AcDbSavedByObjectVersion
1070
     0
1000
AcDbSavedByObjectVersion
1070
     0
1000
AcDbSavedByObjectVersion
1070
     0
1000
AcDbSavedByObjectVersion
1070
     0
1000
AcDbSavedByObjectVersion
1070
     0
1000
AcDbSavedByObjectVersion
1070
     0
1000
AcDbSavedByObjectVersion
1070
     0
1000
AcDbSavedByObjectVersion
1070
     0
1000
AcDbSavedByObjectVersion
1070
     0
1000
AcDbSavedByObjectVersion
1070
     0
1000
AcDbSavedByObjectVersion
1070
     0
1000
AcDbSavedByObjectVersion
1070
     0
1000
AcDbSavedByObjectVersion
1070
     0
1000
AcDbSavedByObjectVersion
1070
     0
1000
AcDbSavedByObjectVersion
1070
     0
1000
AcDbSavedByObjectVersion
1070
     0
1000
AcDbSavedByObjectVersion
1070
     0
1000
AcDbSavedByObjectVersion
1070
     0
1000
AcDbSavedByObjectVersion
1070
     0
1000
AcDbSavedByObjectVersion
1070
     0
1000
AcDbSavedByObjectVersion
1070
     0
1000
AcDbSavedByObjectVersion
1070
     0
1000
AcDbSavedByObjectVersion
1070
     0
1000
AcDbSavedByObjectVersion
1070
     0
1000
AcDbSavedByObjectVersion
1070
     0
1000
AcDbSavedByObjectVersion
1070
     0
1000
AcDbSavedByObjectVersion
1070
     0
1000
AcDbSavedByObjectVersion
1070
     0
1000
AcDbSavedByObjectVersion
1070
     0
1000
AcDbSavedByObjectVersion
1070
     0
1000
AcDbSavedByObjectVersion
1070
     0
1000
AcDbSavedByObjectVersion
1070
     0
1000
AcDbSavedByObjectVersion
1070
     0
1000
AcDbSavedByObjectVersion
1070
     0
1000
AcDbSavedByObjectVersion
1070
     0
1000
AcDbSavedByObjectVersion
1070
     0
1000
AcDbSavedByObjectVersion
1070
     0
1000
AcDbSavedByObjectVersion
1070
     0
1000
AcDbSavedByObjectVersion
1070
     0
1000
AcDbSavedByObjectVersion
1070
     0
1000
AcDbSavedByObjectVersion
1070
     0
1000
AcDbSavedByObjectVersion
1070
     0
1000
AcDbSavedByObjectVersion
1070
     0
  0
VISUALSTYLE
  5
32
102
{ACAD_REACTORS
330
2A
102
}
330
2A
100
AcDbVisualStyle
  2
Basic
 70
     7
 71
     1
 72
     0
 73
     1
 90
        0
 40
-0.6
 41
-30.0
 62
     5
 63
     7
 74
     0
 91
        4
 64
     7
 65
   257
 75
     1
175
     1
 42
1.0
 92
        8
 66
     7
 43
1.0
 76
     1
 77
     6
 78
     2
 67
     7
 79
     5
170
     0
171
     0
290
     0
174
     0
 93
        1
 44
0.0
173
     0
291
     1
 45
0.0
1001
ACAD
1000
AcDbSavedByObjectVersion
1070
     0
1000
AcDbSavedByObjectVersion
1070
     0
1000
AcDbSavedByObjectVersion
1070
     0
1000
AcDbSavedByObjectVersion
1070
     0
1000
AcDbSavedByObjectVersion
1070
     0
1000
AcDbSavedByObjectVersion
1070
     0
1000
AcDbSavedByObjectVersion
1070
     0
1000
AcDbSavedByObjectVersion
1070
     0
1000
AcDbSavedByObjectVersion
1070
     0
1000
AcDbSavedByObjectVersion
1070
     0
1000
AcDbSavedByObjectVersion
1070
     0
1000
AcDbSavedByObjectVersion
1070
     0
1000
AcDbSavedByObjectVersion
1070
     0
1000
AcDbSavedByObjectVersion
1070
     0
1000
AcDbSavedByObjectVersion
1070
     0
1000
AcDbSavedByObjectVersion
1070
     0
1000
AcDbSavedByObjectVersion
1070
     0
1000
AcDbSavedByObjectVersion
1070
     0
1000
AcDbSavedByObjectVersion
1070
     0
1000
AcDbSavedByObjectVersion
1070
     0
1000
AcDbSavedByObjectVersion
1070
     0
1000
AcDbSavedByObjectVersion
1070
     0
1000
AcDbSavedByObjectVersion
1070
     0
1000
AcDbSavedByObjectVersion
1070
     0
1000
AcDbSavedByObjectVersion
1070
     0
1000
AcDbSavedByObjectVersion
1070
     0
1000
AcDbSavedByObjectVersion
1070
     0
1000
AcDbSavedByObjectVersion
1070
     0
1000
AcDbSavedByObjectVersion
1070
     0
1000
AcDbSavedByObjectVersion
1070
     0
1000
AcDbSavedByObjectVersion
1070
     0
1000
AcDbSavedByObjectVersion
1070
     0
1000
AcDbSavedByObjectVersion
1070
     0
1000
AcDbSavedByObjectVersion
1070
     0
1000
AcDbSavedByObjectVersion
1070
     0
1000
AcDbSavedByObjectVersion
1070
     0
1000
AcDbSavedByObjectVersion
1070
     0
1000
AcDbSavedByObjectVersion
1070
     0
1000
AcDbSavedByObjectVersion
1070
     0
1000
AcDbSavedByObjectVersion
1070
     0
1000
AcDbSavedByObjectVersion
1070
     0
1000
AcDbSavedByObjectVersion
1070
     0
1000
AcDbSavedByObjectVersion
1070
     0
1000
AcDbSavedByObjectVersion
1070
     0
  0
VISUALSTYLE
  5
36
102
{ACAD_REACTORS
330
2A
102
}
330
2A
100
AcDbVisualStyle
  2
Brighten
 70
    12
 71
     2
 72
     2
 73
     0
 90
        0
 40
-0.6
 41
-30.0
 62
     5
 63
     7
 74
     1
 91
        4
 64
     7
 65
   257
 75
     1
175
     1
 42
1.0
 92
        8
 66
     7
 43
1.0
 76
     1
 77
     6
 78
     2
 67
     7
 79
     5
170
     0
171
     0
290
     0
174
     0
 93
        1
 44
50.0
173
     0
291
     1
 45
0.0
1001
ACAD
1000
AcDbSavedByObjectVersion
1070
     0
1000
AcDbSavedByObjectVersion
1070
     0
1000
AcDbSavedByObjectVersion
1070
     0
1000
AcDbSavedByObjectVersion
1070
     0
1000
AcDbSavedByObjectVersion
1070
     0
1000
AcDbSavedByObjectVersion
1070
     0
1000
AcDbSavedByObjectVersion
1070
     0
1000
AcDbSavedByObjectVersion
1070
     0
1000
AcDbSavedByObjectVersion
1070
     0
1000
AcDbSavedByObjectVersion
1070
     0
1000
AcDbSavedByObjectVersion
1070
     0
1000
AcDbSavedByObjectVersion
1070
     0
1000
AcDbSavedByObjectVersion
1070
     0
1000
AcDbSavedByObjectVersion
1070
     0
1000
AcDbSavedByObjectVersion
1070
     0
1000
AcDbSavedByObjectVersion
1070
     0
1000
AcDbSavedByObjectVersion
1070
     0
1000
AcDbSavedByObjectVersion
1070
     0
1000
AcDbSavedByObjectVersion
1070
     0
1000
AcDbSavedByObjectVersion
1070
     0
1000
AcDbSavedByObjectVersion
1070
     0
1000
AcDbSavedByObjectVersion
1070
     0
1000
AcDbSavedByObjectVersion
1070
     0
1000
AcDbSavedByObjectVersion
1070
     0
1000
AcDbSavedByObjectVersion
1070
     0
1000
AcDbSavedByObjectVersion
1070
     0
1000
AcDbSavedByObjectVersion
1070
     0
1000
AcDbSavedByObjectVersion
1070
     0
1000
AcDbSavedByObjectVersion
1070
     0
1000
AcDbSavedByObjectVersion
1070
     0
1000
AcDbSavedByObjectVersion
1070
     0
1000
AcDbSavedByObjectVersion
1070
     0
1000
AcDbSavedByObjectVersion
1070
     0
1000
AcDbSavedByObjectVersion
1070
     0
1000
AcDbSavedByObjectVersion
1070
     0
1000
AcDbSavedByObjectVersion
1070
     0
1000
AcDbSavedByObjectVersion
1070
     0
1000
AcDbSavedByObjectVersion
1070
     0
1000
AcDbSavedByObjectVersion
1070
     0
1000
AcDbSavedByObjectVersion
1070
     0
1000
AcDbSavedByObjectVersion
1070
     0
1000
AcDbSavedByObjectVersion
1070
     0
1000
AcDbSavedByObjectVersion
1070
     0
1000
AcDbSavedByObjectVersion
1070
     0
  0
VISUALSTYLE
  5
3A
102
{ACAD_REACTORS
330
2A
102
}
330
2A
100
AcDbVisualStyle
  2
ColorChange
 70
    16
 71
     2
 72
     2
 73
     3
 90
        0
 40
-0.6
 41
-30.0
 62
     5
 63
     8
 74
     1
 91
        4
 64
     7
 65
   257
 75
     1
175
     1
 42
1.0
 92
        8
 66
     8
 43
1.0
 76
     1
 77
     6
 78
     2
 67
     7
 79
     5
170
     0
171
     0
290
     0
174
     0
 93
        1
 44
0.0
173
     0
291
     1
 45
0.0
1001
ACAD
1000
AcDbSavedByObjectVersion
1070
     0
1000
AcDbSavedByObjectVersion
1070
     0
1000
AcDbSavedByObjectVersion
1070
     0
1000
AcDbSavedByObjectVersion
1070
     0
1000
AcDbSavedByObjectVersion
1070
     0
1000
AcDbSavedByObjectVersion
1070
     0
1000
AcDbSavedByObjectVersion
1070
     0
1000
AcDbSavedByObjectVersion
1070
     0
1000
AcDbSavedByObjectVersion
1070
     0
1000
AcDbSavedByObjectVersion
1070
     0
1000
AcDbSavedByObjectVersion
1070
     0
1000
AcDbSavedByObjectVersion
1070
     0
1000
AcDbSavedByObjectVersion
1070
     0
1000
AcDbSavedByObjectVersion
1070
     0
1000
AcDbSavedByObjectVersion
1070
     0
1000
AcDbSavedByObjectVersion
1070
     0
1000
AcDbSavedByObjectVersion
1070
     0
1000
AcDbSavedByObjectVersion
1070
     0
1000
AcDbSavedByObjectVersion
1070
     0
1000
AcDbSavedByObjectVersion
1070
     0
1000
AcDbSavedByObjectVersion
1070
     0
1000
AcDbSavedByObjectVersion
1070
     0
1000
AcDbSavedByObjectVersion
1070
     0
1000
AcDbSavedByObjectVersion
1070
     0
1000
AcDbSavedByObjectVersion
1070
     0
1000
AcDbSavedByObjectVersion
1070
     0
1000
AcDbSavedByObjectVersion
1070
     0
1000
AcDbSavedByObjectVersion
1070
     0
1000
AcDbSavedByObjectVersion
1070
     0
1000
AcDbSavedByObjectVersion
1070
     0
1000
AcDbSavedByObjectVersion
1070
     0
1000
AcDbSavedByObjectVersion
1070
     0
1000
AcDbSavedByObjectVersion
1070
     0
1000
AcDbSavedByObjectVersion
1070
     0
1000
AcDbSavedByObjectVersion
1070
     0
1000
AcDbSavedByObjectVersion
1070
     0
1000
AcDbSavedByObjectVersion
1070
     0
1000
AcDbSavedByObjectVersion
1070
     0
1000
AcDbSavedByObjectVersion
1070
     0
1000
AcDbSavedByObjectVersion
1070
     0
1000
AcDbSavedByObjectVersion
1070
     0
1000
AcDbSavedByObjectVersion
1070
     0
1000
AcDbSavedByObjectVersion
1070
     0
1000
AcDbSavedByObjectVersion
1070
     0
  0
VISUALSTYLE
  5
34
102
{ACAD_REACTORS
330
2A
102
}
330
2A
100
AcDbVisualStyle
  2
Conceptual
 70
     9
 71
     3
 72
     2
 73
     0
 90
        0
 40
-0.6
 41
-30.0
 62
     5
 63
     7
 74
     2
 91
        2
 64
     7
 65
   257
 75
     1
175
     1
 42
40.0
 92
        8
 66
     7
 43
1.0
 76
     1
 77
     6
 78
     2
 67
     7
 79
     3
170
     0
171
     0
290
     0
174
     0
 93
        1
 44
0.0
173
     0
291
     0
 45
0.0
1001
ACAD
1000
AcDbSavedByObjectVersion
1070
     0
1000
AcDbSavedByObjectVersion
1070
     0
1000
AcDbSavedByObjectVersion
1070
     0
1000
AcDbSavedByObjectVersion
1070
     0
1000
AcDbSavedByObjectVersion
1070
     0
1000
AcDbSavedByObjectVersion
1070
     0
1000
AcDbSavedByObjectVersion
1070
     0
1000
AcDbSavedByObjectVersion
1070
     0
1000
AcDbSavedByObjectVersion
1070
     0
1000
AcDbSavedByObjectVersion
1070
     0
1000
AcDbSavedByObjectVersion
1070
     0
1000
AcDbSavedByObjectVersion
1070
     0
1000
AcDbSavedByObjectVersion
1070
     0
1000
AcDbSavedByObjectVersion
1070
     0
1000
AcDbSavedByObjectVersion
1070
     0
1000
AcDbSavedByObjectVersion
1070
     0
1000
AcDbSavedByObjectVersion
1070
     0
1000
AcDbSavedByObjectVersion
1070
     0
1000
AcDbSavedByObjectVersion
1070
     0
1000
AcDbSavedByObjectVersion
1070
     0
1000
AcDbSavedByObjectVersion
1070
     0
1000
AcDbSavedByObjectVersion
1070
     0
1000
AcDbSavedByObjectVersion
1070
     0
1000
AcDbSavedByObjectVersion
1070
     0
1000
AcDbSavedByObjectVersion
1070
     0
1000
AcDbSavedByObjectVersion
1070
     0
1000
AcDbSavedByObjectVersion
1070
     0
1000
AcDbSavedByObjectVersion
1070
     0
1000
AcDbSavedByObjectVersion
1070
     0
1000
AcDbSavedByObjectVersion
1070
     0
1000
AcDbSavedByObjectVersion
1070
     0
1000
AcDbSavedByObjectVersion
1070
     0
1000
AcDbSavedByObjectVersion
1070
     0
1000
AcDbSavedByObjectVersion
1070
     0
1000
AcDbSavedByObjectVersion
1070
     0
1000
AcDbSavedByObjectVersion
1070
     0
1000
AcDbSavedByObjectVersion
1070
     0
1000
AcDbSavedByObjectVersion
1070
     0
1000
AcDbSavedByObjectVersion
1070
     0
1000
AcDbSavedByObjectVersion
1070
     0
1000
AcDbSavedByObjectVersion
1070
     0
1000
AcDbSavedByObjectVersion
1070
     0
1000
AcDbSavedByObjectVersion
1070
     0
1000
AcDbSavedByObjectVersion
1070
     0
  0
VISUALSTYLE
  5
35
102
{ACAD_REACTORS
330
2A
102
}
330
2A
100
AcDbVisualStyle
  2
Dim
 70
    11
 71
     2
 72
     2
 73
     0
 90
        0
 40
-0.6
 41
-30.0
 62
     5
 63
     7
 74
     1
 91
        4
 64
     7
 65
   257
 75
     1
175
     1
 42
1.0
 92
        8
 66
     7
 43
1.0
 76
     1
 77
     6
 78
     2
 67
     7
 79
     5
170
     0
171
     0
290
     0
174
     0
 93
        1
 44
-50.0
173
     0
291
     1
 45
0.0
1001
ACAD
1000
AcDbSavedByObjectVersion
1070
     0
1000
AcDbSavedByObjectVersion
1070
     0
1000
AcDbSavedByObjectVersion
1070
     0
1000
AcDbSavedByObjectVersion
1070
     0
1000
AcDbSavedByObjectVersion
1070
     0
1000
AcDbSavedByObjectVersion
1070
     0
1000
AcDbSavedByObjectVersion
1070
     0
1000
AcDbSavedByObjectVersion
1070
     0
1000
AcDbSavedByObjectVersion
1070
     0
1000
AcDbSavedByObjectVersion
1070
     0
1000
AcDbSavedByObjectVersion
1070
     0
1000
AcDbSavedByObjectVersion
1070
     0
1000
AcDbSavedByObjectVersion
1070
     0
1000
AcDbSavedByObjectVersion
1070
     0
1000
AcDbSavedByObjectVersion
1070
     0
1000
AcDbSavedByObjectVersion
1070
     0
1000
AcDbSavedByObjectVersion
1070
     0
1000
AcDbSavedByObjectVersion
1070
     0
1000
AcDbSavedByObjectVersion
1070
     0
1000
AcDbSavedByObjectVersion
1070
     0
1000
AcDbSavedByObjectVersion
1070
     0
1000
AcDbSavedByObjectVersion
1070
     0
1000
AcDbSavedByObjectVersion
1070
     0
1000
AcDbSavedByObjectVersion
1070
     0
1000
AcDbSavedByObjectVersion
1070
     0
1000
AcDbSavedByObjectVersion
1070
     0
1000
AcDbSavedByObjectVersion
1070
     0
1000
AcDbSavedByObjectVersion
1070
     0
1000
AcDbSavedByObjectVersion
1070
     0
1000
AcDbSavedByObjectVersion
1070
     0
1000
AcDbSavedByObjectVersion
1070
     0
1000
AcDbSavedByObjectVersion
1070
     0
1000
AcDbSavedByObjectVersion
1070
     0
1000
AcDbSavedByObjectVersion
1070
     0
1000
AcDbSavedByObjectVersion
1070
     0
1000
AcDbSavedByObjectVersion
1070
     0
1000
AcDbSavedByObjectVersion
1070
     0
1000
AcDbSavedByObjectVersion
1070
     0
1000
AcDbSavedByObjectVersion
1070
     0
1000
AcDbSavedByObjectVersion
1070
     0
1000
AcDbSavedByObjectVersion
1070
     0
1000
AcDbSavedByObjectVersion
1070
     0
1000
AcDbSavedByObjectVersion
1070
     0
1000
AcDbSavedByObjectVersion
1070
     0
  0
VISUALSTYLE
  5
39
102
{ACAD_REACTORS
330
2A
102
}
330
2A
100
AcDbVisualStyle
  2
Facepattern
 70
    15
 71
     2
 72
     2
 73
     0
 90
        0
 40
-0.6
 41
-30.0
 62
     5
 63
     7
 74
     1
 91
        4
 64
     7
 65
   257
 75
     1
175
     1
 42
1.0
 92
        8
 66
     7
 43
1.0
 76
     1
 77
     6
 78
     2
 67
     7
 79
     5
170
     0
171
     0
290
     0
174
     0
 93
        1
 44
0.0
173
     0
291
     1
 45
0.0
1001
ACAD
1000
AcDbSavedByObjectVersion
1070
     0
1000
AcDbSavedByObjectVersion
1070
     0
1000
AcDbSavedByObjectVersion
1070
     0
1000
AcDbSavedByObjectVersion
1070
     0
1000
AcDbSavedByObjectVersion
1070
     0
1000
AcDbSavedByObjectVersion
1070
     0
1000
AcDbSavedByObjectVersion
1070
     0
1000
AcDbSavedByObjectVersion
1070
     0
1000
AcDbSavedByObjectVersion
1070
     0
1000
AcDbSavedByObjectVersion
1070
     0
1000
AcDbSavedByObjectVersion
1070
     0
1000
AcDbSavedByObjectVersion
1070
     0
1000
AcDbSavedByObjectVersion
1070
     0
1000
AcDbSavedByObjectVersion
1070
     0
1000
AcDbSavedByObjectVersion
1070
     0
1000
AcDbSavedByObjectVersion
1070
     0
1000
AcDbSavedByObjectVersion
1070
     0
1000
AcDbSavedByObjectVersion
1070
     0
1000
AcDbSavedByObjectVersion
1070
     0
1000
AcDbSavedByObjectVersion
1070
     0
1000
AcDbSavedByObjectVersion
1070
     0
1000
AcDbSavedByObjectVersion
1070
     0
1000
AcDbSavedByObjectVersion
1070
     0
1000
AcDbSavedByObjectVersion
1070
     0
1000
AcDbSavedByObjectVersion
1070
     0
1000
AcDbSavedByObjectVersion
1070
     0
1000
AcDbSavedByObjectVersion
1070
     0
1000
AcDbSavedByObjectVersion
1070
     0
1000
AcDbSavedByObjectVersion
1070
     0
1000
AcDbSavedByObjectVersion
1070
     0
1000
AcDbSavedByObjectVersion
1070
     0
1000
AcDbSavedByObjectVersion
1070
     0
1000
AcDbSavedByObjectVersion
1070
     0
1000
AcDbSavedByObjectVersion
1070
     0
1000
AcDbSavedByObjectVersion
1070
     0
1000
AcDbSavedByObjectVersion
1070
     0
1000
AcDbSavedByObjectVersion
1070
     0
1000
AcDbSavedByObjectVersion
1070
     0
1000
AcDbSavedByObjectVersion
1070
     0
1000
AcDbSavedByObjectVersion
1070
     0
1000
AcDbSavedByObjectVersion
1070
     0
1000
AcDbSavedByObjectVersion
1070
     0
1000
AcDbSavedByObjectVersion
1070
     0
1000
AcDbSavedByObjectVersion
1070
     0
  0
VISUALSTYLE
  5
2B
102
{ACAD_REACTORS
330
2A
102
}
330
2A
100
AcDbVisualStyle
  2
Flat
 70
     0
 71
     2
 72
     1
 73
     1
 90
        2
 40
-0.6
 41
30.0
 62
     5
 63
     7
 74
     0
 91
        4
 64
     7
 65
   257
 75
     1
175
     1
 42
1.0
 92
        8
 66
     7
 43
1.0
 76
     1
 77
     6
 78
     2
 67
     7
 79
     5
170
     0
171
     0
290
     0
174
     0
 93
       13
 44
0.0
173
     0
291
     1
 45
0.0
1001
ACAD
1000
AcDbSavedByObjectVersion
1070
     0
1000
AcDbSavedByObjectVersion
1070
     0
1000
AcDbSavedByObjectVersion
1070
     0
1000
AcDbSavedByObjectVersion
1070
     0
1000
AcDbSavedByObjectVersion
1070
     0
1000
AcDbSavedByObjectVersion
1070
     0
1000
AcDbSavedByObjectVersion
1070
     0
1000
AcDbSavedByObjectVersion
1070
     0
1000
AcDbSavedByObjectVersion
1070
     0
1000
AcDbSavedByObjectVersion
1070
     0
1000
AcDbSavedByObjectVersion
1070
     0
1000
AcDbSavedByObjectVersion
1070
     0
1000
AcDbSavedByObjectVersion
1070
     0
1000
AcDbSavedByObjectVersion
1070
     0
1000
AcDbSavedByObjectVersion
1070
     0
1000
AcDbSavedByObjectVersion
1070
     0
1000
AcDbSavedByObjectVersion
1070
     0
1000
AcDbSavedByObjectVersion
1070
     0
1000
AcDbSavedByObjectVersion
1070
     0
1000
AcDbSavedByObjectVersion
1070
     0
1000
AcDbSavedByObjectVersion
1070
     0
1000
AcDbSavedByObjectVersion
1070
     0
1000
AcDbSavedByObjectVersion
1070
     0
1000
AcDbSavedByObjectVersion
1070
     0
1000
AcDbSavedByObjectVersion
1070
     0
1000
AcDbSavedByObjectVersion
1070
     0
1000
AcDbSavedByObjectVersion
1070
     0
1000
AcDbSavedByObjectVersion
1070
     0
1000
AcDbSavedByObjectVersion
1070
     0
1000
AcDbSavedByObjectVersion
1070
     0
1000
AcDbSavedByObjectVersion
1070
     0
1000
AcDbSavedByObjectVersion
1070
     0
1000
AcDbSavedByObjectVersion
1070
     0
1000
AcDbSavedByObjectVersion
1070
     0
1000
AcDbSavedByObjectVersion
1070
     0
1000
AcDbSavedByObjectVersion
1070
     0
1000
AcDbSavedByObjectVersion
1070
     0
1000
AcDbSavedByObjectVersion
1070
     0
1000
AcDbSavedByObjectVersion
1070
     0
1000
AcDbSavedByObjectVersion
1070
     0
1000
AcDbSavedByObjectVersion
1070
     0
1000
AcDbSavedByObjectVersion
1070
     0
1000
AcDbSavedByObjectVersion
1070
     0
1000
AcDbSavedByObjectVersion
1070
     0
  0
VISUALSTYLE
  5
2C
102
{ACAD_REACTORS
330
2A
102
}
330
2A
100
AcDbVisualStyle
  2
FlatWithEdges
 70
     1
 71
     2
 72
     1
 73
     1
 90
        2
 40
-0.6
 41
30.0
 62
     5
 63
     7
 74
     1
 91
        4
 64
     7
 65
   257
 75
     1
175
     1
 42
1.0
 92
        0
 66
   257
 43
1.0
 76
     1
 77
     6
 78
     2
 67
     7
 79
     5
170
     0
171
     0
290
     0
174
     0
 93
       13
 44
0.0
173
     0
291
     1
 45
0.0
1001
ACAD
1000
AcDbSavedByObjectVersion
1070
     0
1000
AcDbSavedByObjectVersion
1070
     0
1000
AcDbSavedByObjectVersion
1070
     0
1000
AcDbSavedByObjectVersion
1070
     0
1000
AcDbSavedByObjectVersion
1070
     0
1000
AcDbSavedByObjectVersion
1070
     0
1000
AcDbSavedByObjectVersion
1070
     0
1000
AcDbSavedByObjectVersion
1070
     0
1000
AcDbSavedByObjectVersion
1070
     0
1000
AcDbSavedByObjectVersion
1070
     0
1000
AcDbSavedByObjectVersion
1070
     0
1000
AcDbSavedByObjectVersion
1070
     0
1000
AcDbSavedByObjectVersion
1070
     0
1000
AcDbSavedByObjectVersion
1070
     0
1000
AcDbSavedByObjectVersion
1070
     0
1000
AcDbSavedByObjectVersion
1070
     0
1000
AcDbSavedByObjectVersion
1070
     0
1000
AcDbSavedByObjectVersion
1070
     0
1000
AcDbSavedByObjectVersion
1070
     0
1000
AcDbSavedByObjectVersion
1070
     0
1000
AcDbSavedByObjectVersion
1070
     0
1000
AcDbSavedByObjectVersion
1070
     0
1000
AcDbSavedByObjectVersion
1070
     0
1000
AcDbSavedByObjectVersion
1070
     0
1000
AcDbSavedByObjectVersion
1070
     0
1000
AcDbSavedByObjectVersion
1070
     0
1000
AcDbSavedByObjectVersion
1070
     0
1000
AcDbSavedByObjectVersion
1070
     0
1000
AcDbSavedByObjectVersion
1070
     0
1000
AcDbSavedByObjectVersion
1070
     0
1000
AcDbSavedByObjectVersion
1070
     0
1000
AcDbSavedByObjectVersion
1070
     0
1000
AcDbSavedByObjectVersion
1070
     0
1000
AcDbSavedByObjectVersion
1070
     0
1000
AcDbSavedByObjectVersion
1070
     0
1000
AcDbSavedByObjectVersion
1070
     0
1000
AcDbSavedByObjectVersion
1070
     0
1000
AcDbSavedByObjectVersion
1070
     0
1000
AcDbSavedByObjectVersion
1070
     0
1000
AcDbSavedByObjectVersion
1070
     0
1000
AcDbSavedByObjectVersion
1070
     0
1000
AcDbSavedByObjectVersion
1070
     0
1000
AcDbSavedByObjectVersion
1070
     0
1000
AcDbSavedByObjectVersion
1070
     0
  0
VISUALSTYLE
  5
2D
102
{ACAD_REACTORS
330
2A
102
}
330
2A
100
AcDbVisualStyle
  2
Gouraud
 70
     2
 71
     2
 72
     2
 73
     1
 90
        2
 40
-0.6
 41
30.0
 62
     5
 63
     7
 74
     0
 91
        4
 64
     7
 65
   257
 75
     1
175
     1
 42
1.0
 92
        0
 66
     7
 43
1.0
 76
     1
 77
     6
 78
     2
 67
     7
 79
     5
170
     0
171
     0
290
     0
174
     0
 93
       13
 44
0.0
173
     0
291
     1
 45
0.0
1001
ACAD
1000
AcDbSavedByObjectVersion
1070
     0
1000
AcDbSavedByObjectVersion
1070
     0
1000
AcDbSavedByObjectVersion
1070
     0
1000
AcDbSavedByObjectVersion
1070
     0
1000
AcDbSavedByObjectVersion
1070
     0
1000
AcDbSavedByObjectVersion
1070
     0
1000
AcDbSavedByObjectVersion
1070
     0
1000
AcDbSavedByObjectVersion
1070
     0
1000
AcDbSavedByObjectVersion
1070
     0
1000
AcDbSavedByObjectVersion
1070
     0
1000
AcDbSavedByObjectVersion
1070
     0
1000
AcDbSavedByObjectVersion
1070
     0
1000
AcDbSavedByObjectVersion
1070
     0
1000
AcDbSavedByObjectVersion
1070
     0
1000
AcDbSavedByObjectVersion
1070
     0
1000
AcDbSavedByObjectVersion
1070
     0
1000
AcDbSavedByObjectVersion
1070
     0
1000
AcDbSavedByObjectVersion
1070
     0
1000
AcDbSavedByObjectVersion
1070
     0
1000
AcDbSavedByObjectVersion
1070
     0
1000
AcDbSavedByObjectVersion
1070
     0
1000
AcDbSavedByObjectVersion
1070
     0
1000
AcDbSavedByObjectVersion
1070
     0
1000
AcDbSavedByObjectVersion
1070
     0
1000
AcDbSavedByObjectVersion
1070
     0
1000
AcDbSavedByObjectVersion
1070
     0
1000
AcDbSavedByObjectVersion
1070
     0
1000
AcDbSavedByObjectVersion
1070
     0
1000
AcDbSavedByObjectVersion
1070
     0
1000
AcDbSavedByObjectVersion
1070
     0
1000
AcDbSavedByObjectVersion
1070
     0
1000
AcDbSavedByObjectVersion
1070
     0
1000
AcDbSavedByObjectVersion
1070
     0
1000
AcDbSavedByObjectVersion
1070
     0
1000
AcDbSavedByObjectVersion
1070
     0
1000
AcDbSavedByObjectVersion
1070
     0
1000
AcDbSavedByObjectVersion
1070
     0
1000
AcDbSavedByObjectVersion
1070
     0
1000
AcDbSavedByObjectVersion
1070
     0
1000
AcDbSavedByObjectVersion
1070
     0
1000
AcDbSavedByObjectVersion
1070
     0
1000
AcDbSavedByObjectVersion
1070
     0
1000
AcDbSavedByObjectVersion
1070
     0
1000
AcDbSavedByObjectVersion
1070
     0
  0
VISUALSTYLE
  5
2E
102
{ACAD_REACTORS
330
2A
102
}
330
2A
100
AcDbVisualStyle
  2
GouraudWithEdges
 70
     3
 71
     2
 72
     2
 73
     1
 90
        2
 40
-0.6
 41
30.0
 62
     5
 63
     7
 74
     1
 91
        4
 64
     7
 65
   257
 75
     1
175
     1
 42
1.0
 92
        0
 66
   257
 43
1.0
 76
     1
 77
     6
 78
     2
 67
     7
 79
     5
170
     0
171
     0
290
     0
174
     0
 93
       13
 44
0.0
173
     0
291
     1
 45
0.0
1001
ACAD
1000
AcDbSavedByObjectVersion
1070
     0
1000
AcDbSavedByObjectVersion
1070
     0
1000
AcDbSavedByObjectVersion
1070
     0
1000
AcDbSavedByObjectVersion
1070
     0
1000
AcDbSavedByObjectVersion
1070
     0
1000
AcDbSavedByObjectVersion
1070
     0
1000
AcDbSavedByObjectVersion
1070
     0
1000
AcDbSavedByObjectVersion
1070
     0
1000
AcDbSavedByObjectVersion
1070
     0
1000
AcDbSavedByObjectVersion
1070
     0
1000
AcDbSavedByObjectVersion
1070
     0
1000
AcDbSavedByObjectVersion
1070
     0
1000
AcDbSavedByObjectVersion
1070
     0
1000
AcDbSavedByObjectVersion
1070
     0
1000
AcDbSavedByObjectVersion
1070
     0
1000
AcDbSavedByObjectVersion
1070
     0
1000
AcDbSavedByObjectVersion
1070
     0
1000
AcDbSavedByObjectVersion
1070
     0
1000
AcDbSavedByObjectVersion
1070
     0
1000
AcDbSavedByObjectVersion
1070
     0
1000
AcDbSavedByObjectVersion
1070
     0
1000
AcDbSavedByObjectVersion
1070
     0
1000
AcDbSavedByObjectVersion
1070
     0
1000
AcDbSavedByObjectVersion
1070
     0
1000
AcDbSavedByObjectVersion
1070
     0
1000
AcDbSavedByObjectVersion
1070
     0
1000
AcDbSavedByObjectVersion
1070
     0
1000
AcDbSavedByObjectVersion
1070
     0
1000
AcDbSavedByObjectVersion
1070
     0
1000
AcDbSavedByObjectVersion
1070
     0
1000
AcDbSavedByObjectVersion
1070
     0
1000
AcDbSavedByObjectVersion
1070
     0
1000
AcDbSavedByObjectVersion
1070
     0
1000
AcDbSavedByObjectVersion
1070
     0
1000
AcDbSavedByObjectVersion
1070
     0
1000
AcDbSavedByObjectVersion
1070
     0
1000
AcDbSavedByObjectVersion
1070
     0
1000
AcDbSavedByObjectVersion
1070
     0
1000
AcDbSavedByObjectVersion
1070
     0
1000
AcDbSavedByObjectVersion
1070
     0
1000
AcDbSavedByObjectVersion
1070
     0
1000
AcDbSavedByObjectVersion
1070
     0
1000
AcDbSavedByObjectVersion
1070
     0
1000
AcDbSavedByObjectVersion
1070
     0
  0
VISUALSTYLE
  5
38
102
{ACAD_REACTORS
330
2A
102
}
330
2A
100
AcDbVisualStyle
  2
Linepattern
 70
    14
 71
     2
 72
     2
 73
     0
 90
        0
 40
-0.6
 41
-30.0
 62
     5
 63
     7
 74
     1
 91
        4
 64
     7
 65
   257
 75
     7
175
     7
 42
1.0
 92
        8
 66
     7
 43
1.0
 76
     1
 77
     6
 78
     2
 67
     7
 79
     5
170
     0
171
     0
290
     0
174
     0
 93
        1
 44
0.0
173
     0
291
     1
 45
0.0
1001
ACAD
1000
AcDbSavedByObjectVersion
1070
     0
1000
AcDbSavedByObjectVersion
1070
     0
1000
AcDbSavedByObjectVersion
1070
     0
1000
AcDbSavedByObjectVersion
1070
     0
1000
AcDbSavedByObjectVersion
1070
     0
1000
AcDbSavedByObjectVersion
1070
     0
1000
AcDbSavedByObjectVersion
1070
     0
1000
AcDbSavedByObjectVersion
1070
     0
1000
AcDbSavedByObjectVersion
1070
     0
1000
AcDbSavedByObjectVersion
1070
     0
1000
AcDbSavedByObjectVersion
1070
     0
1000
AcDbSavedByObjectVersion
1070
     0
1000
AcDbSavedByObjectVersion
1070
     0
1000
AcDbSavedByObjectVersion
1070
     0
1000
AcDbSavedByObjectVersion
1070
     0
1000
AcDbSavedByObjectVersion
1070
     0
1000
AcDbSavedByObjectVersion
1070
     0
1000
AcDbSavedByObjectVersion
1070
     0
1000
AcDbSavedByObjectVersion
1070
     0
1000
AcDbSavedByObjectVersion
1070
     0
1000
AcDbSavedByObjectVersion
1070
     0
1000
AcDbSavedByObjectVersion
1070
     0
1000
AcDbSavedByObjectVersion
1070
     0
1000
AcDbSavedByObjectVersion
1070
     0
1000
AcDbSavedByObjectVersion
1070
     0
1000
AcDbSavedByObjectVersion
1070
     0
1000
AcDbSavedByObjectVersion
1070
     0
1000
AcDbSavedByObjectVersion
1070
     0
1000
AcDbSavedByObjectVersion
1070
     0
1000
AcDbSavedByObjectVersion
1070
     0
1000
AcDbSavedByObjectVersion
1070
     0
1000
AcDbSavedByObjectVersion
1070
     0
1000
AcDbSavedByObjectVersion
1070
     0
1000
AcDbSavedByObjectVersion
1070
     0
1000
AcDbSavedByObjectVersion
1070
     0
1000
AcDbSavedByObjectVersion
1070
     0
1000
AcDbSavedByObjectVersion
1070
     0
1000
AcDbSavedByObjectVersion
1070
     0
1000
AcDbSavedByObjectVersion
1070
     0
1000
AcDbSavedByObjectVersion
1070
     0
1000
AcDbSavedByObjectVersion
1070
     0
1000
AcDbSavedByObjectVersion
1070
     0
1000
AcDbSavedByObjectVersion
1070
     0
1000
AcDbSavedByObjectVersion
1070
     0
  0
VISUALSTYLE
  5
33
102
{ACAD_REACTORS
330
2A
102
}
330
2A
100
AcDbVisualStyle
  2
Realistic
 70
     8
 71
     2
 72
     2
 73
     0
 90
        0
 40
-0.6
 41
-30.0
 62
     5
 63
     7
 74
     1
 91
        0
 64
     7
 65
   257
 75
     1
175
     1
 42
1.0
 92
        8
 66
     8
 43
1.0
 76
     1
 77
     6
 78
     2
 67
     7
 79
     5
170
     0
171
     0
290
     0
174
     0
 93
       13
 44
0.0
173
     0
291
     0
 45
0.0
1001
ACAD
1000
AcDbSavedByObjectVersion
1070
     0
1000
AcDbSavedByObjectVersion
1070
     0
1000
AcDbSavedByObjectVersion
1070
     0
1000
AcDbSavedByObjectVersion
1070
     0
1000
AcDbSavedByObjectVersion
1070
     0
1000
AcDbSavedByObjectVersion
1070
     0
1000
AcDbSavedByObjectVersion
1070
     0
1000
AcDbSavedByObjectVersion
1070
     0
1000
AcDbSavedByObjectVersion
1070
     0
1000
AcDbSavedByObjectVersion
1070
     0
1000
AcDbSavedByObjectVersion
1070
     0
1000
AcDbSavedByObjectVersion
1070
     0
1000
AcDbSavedByObjectVersion
1070
     0
1000
AcDbSavedByObjectVersion
1070
     0
1000
AcDbSavedByObjectVersion
1070
     0
1000
AcDbSavedByObjectVersion
1070
     0
1000
AcDbSavedByObjectVersion
1070
     0
1000
AcDbSavedByObjectVersion
1070
     0
1000
AcDbSavedByObjectVersion
1070
     0
1000
AcDbSavedByObjectVersion
1070
     0
1000
AcDbSavedByObjectVersion
1070
     0
1000
AcDbSavedByObjectVersion
1070
     0
1000
AcDbSavedByObjectVersion
1070
     0
1000
AcDbSavedByObjectVersion
1070
     0
1000
AcDbSavedByObjectVersion
1070
     0
1000
AcDbSavedByObjectVersion
1070
     0
1000
AcDbSavedByObjectVersion
1070
     0
1000
AcDbSavedByObjectVersion
1070
     0
1000
AcDbSavedByObjectVersion
1070
     0
1000
AcDbSavedByObjectVersion
1070
     0
1000
AcDbSavedByObjectVersion
1070
     0
1000
AcDbSavedByObjectVersion
1070
     0
1000
AcDbSavedByObjectVersion
1070
     0
1000
AcDbSavedByObjectVersion
1070
     0
1000
AcDbSavedByObjectVersion
1070
     0
1000
AcDbSavedByObjectVersion
1070
     0
1000
AcDbSavedByObjectVersion
1070
     0
1000
AcDbSavedByObjectVersion
1070
     0
1000
AcDbSavedByObjectVersion
1070
     0
1000
AcDbSavedByObjectVersion
1070
     0
1000
AcDbSavedByObjectVersion
1070
     0
1000
AcDbSavedByObjectVersion
1070
     0
1000
AcDbSavedByObjectVersion
1070
     0
1000
AcDbSavedByObjectVersion
1070
     0
  0
VISUALSTYLE
  5
37
102
{ACAD_REACTORS
330
2A
102
}
330
2A
100
AcDbVisualStyle
  2
Thicken
 70
    13
 71
     2
 72
     2
 73
     0
 90
        0
 40
-0.6
 41
-30.0
 62
     5
 63
     7
 74
     1
 91
        4
 64
     7
 65
   257
 75
     1
175
     1
 42
1.0
 92
       12
 66
     7
 43
1.0
 76
     1
 77
     6
 78
     2
 67
     7
 79
     5
170
     0
171
     0
290
     0
174
     0
 93
        1
 44
0.0
173
     0
291
     1
 45
0.0
1001
ACAD
1000
AcDbSavedByObjectVersion
1070
     0
1000
AcDbSavedByObjectVersion
1070
     0
1000
AcDbSavedByObjectVersion
1070
     0
1000
AcDbSavedByObjectVersion
1070
     0
1000
AcDbSavedByObjectVersion
1070
     0
1000
AcDbSavedByObjectVersion
1070
     0
1000
AcDbSavedByObjectVersion
1070
     0
1000
AcDbSavedByObjectVersion
1070
     0
1000
AcDbSavedByObjectVersion
1070
     0
1000
AcDbSavedByObjectVersion
1070
     0
1000
AcDbSavedByObjectVersion
1070
     0
1000
AcDbSavedByObjectVersion
1070
     0
1000
AcDbSavedByObjectVersion
1070
     0
1000
AcDbSavedByObjectVersion
1070
     0
1000
AcDbSavedByObjectVersion
1070
     0
1000
AcDbSavedByObjectVersion
1070
     0
1000
AcDbSavedByObjectVersion
1070
     0
1000
AcDbSavedByObjectVersion
1070
     0
1000
AcDbSavedByObjectVersion
1070
     0
1000
AcDbSavedByObjectVersion
1070
     0
1000
AcDbSavedByObjectVersion
1070
     0
1000
AcDbSavedByObjectVersion
1070
     0
1000
AcDbSavedByObjectVersion
1070
     0
1000
AcDbSavedByObjectVersion
1070
     0
1000
AcDbSavedByObjectVersion
1070
     0
1000
AcDbSavedByObjectVersion
1070
     0
1000
AcDbSavedByObjectVersion
1070
     0
1000
AcDbSavedByObjectVersion
1070
     0
1000
AcDbSavedByObjectVersion
1070
     0
1000
AcDbSavedByObjectVersion
1070
     0
1000
AcDbSavedByObjectVersion
1070
     0
1000
AcDbSavedByObjectVersion
1070
     0
1000
AcDbSavedByObjectVersion
1070
     0
1000
AcDbSavedByObjectVersion
1070
     0
1000
AcDbSavedByObjectVersion
1070
     0
1000
AcDbSavedByObjectVersion
1070
     0
1000
AcDbSavedByObjectVersion
1070
     0
1000
AcDbSavedByObjectVersion
1070
     0
1000
AcDbSavedByObjectVersion
1070
     0
1000
AcDbSavedByObjectVersion
1070
     0
1000
AcDbSavedByObjectVersion
1070
     0
1000
AcDbSavedByObjectVersion
1070
     0
1000
AcDbSavedByObjectVersion
1070
     0
1000
AcDbSavedByObjectVersion
1070
     0
  0
DICTIONARYVAR
  5
510B
102
{ACAD_REACTORS
330
5108
102
}
330
5108
100
DictionaryVariables
280
     0
  1
1:1
  0
DICTIONARYVAR
  5
510A
102
{ACAD_REACTORS
330
5108
102
}
330
5108
100
DictionaryVariables
280
     0
  1
STANDARD
  0
DICTIONARYVAR
  5
5109
102
{ACAD_REACTORS
330
5108
102
}
330
5108
100
DictionaryVariables
280
     0
  1
STANDARD
  0
DICTIONARYVAR
  5
510E
102
{ACAD_REACTORS
330
5108
102
}
330
5108
100
DictionaryVariables
280
     0
  1
1
  0
DICTIONARYVAR
  5
510D
102
{ACAD_REACTORS
330
5108
102
}
330
5108
100
DictionaryVariables
280
     0
  1
0
  0
DICTIONARYVAR
  5
137BB
102
{ACAD_REACTORS
330
5108
102
}
330
5108
100
DictionaryVariables
280
     0
  1
0
  0
DICTIONARYVAR
  5
137BA
102
{ACAD_REACTORS
330
5108
102
}
330
5108
100
DictionaryVariables
280
     0
  1
0
  0
DICTIONARYVAR
  5
510C
102
{ACAD_REACTORS
330
5108
102
}
330
5108
100
DictionaryVariables
280
     0
  1
127
  0
XRECORD
  5
11ACF
102
{ACAD_REACTORS
330
11ACE
102
}
330
11ACE
100
AcDbXrecord
280
     1
330
0
  0
VLO-VL
  5
11B4F
102
{ACAD_REACTORS
330
11B4E
102
}
330
11B4E
100
vlo_VL
 90
   -64512
 91
       12
 92
        1
 40
2.5
300
(&VLO-R . 0)
  0
DICTIONARY
  5
4FEF
330
4FEE
100
AcDbDictionary
280
     1
281
     1
  3
ACAD_XREC_ROUNDTRIP
360
13763
  3
BUMPTILE
360
4FF1
  3
DIFFUSETILE
360
4FF0
  3
OPACITYTILE
360
4FF4
  3
REFLECTIONTILE
360
4FF3
  3
REFRACTIONTILE
360
4FF5
  3
SPECULARTILE
360
4FF2
  0
DICTIONARY
  5
4FE7
330
4FE6
100
AcDbDictionary
280
     1
281
     1
  3
ACAD_XREC_ROUNDTRIP
360
13762
  3
BUMPTILE
360
4FE9
  3
DIFFUSETILE
360
4FE8
  3
OPACITYTILE
360
4FEC
  3
REFLECTIONTILE
360
4FEB
  3
REFRACTIONTILE
360
4FED
  3
SPECULARTILE
360
4FEA
  0
DICTIONARY
  5
4FF7
330
4FF6
100
AcDbDictionary
280
     1
281
     1
  3
ACAD_XREC_ROUNDTRIP
360
13764
  3
BUMPTILE
360
4FF9
  3
DIFFUSETILE
360
4FF8
  3
OPACITYTILE
360
4FFC
  3
REFLECTIONTILE
360
4FFB
  3
REFRACTIONTILE
360
4FFD
  3
SPECULARTILE
360
4FFA
  0
DICTIONARY
  5
50D6
330
4FFF
100
AcDbDictionary
280
     1
281
     1
  3
ACAD_ROUNDTRIP_2008_TABLESTYLE_CELLSTYLEMAP
360
3FE0A
  3
ACAD_XREC_ROUNDTRIP
360
3FE27
  0
XRECORD
  5
13763
102
{ACAD_REACTORS
330
4FEF
102
}
330
4FEF
100
AcDbXrecord
280
     1
102
MATERIAL
148
0.0
149
0.0
149
0.0
 93
        0
 94
      127
282
     0
 72
     0
 77
     0
171
     0
175
     0
179
     0
273
     0
  0
XRECORD
  5
4FF1
102
{ACAD_REACTORS
330
4FEF
102
}
330
4FEF
100
AcDbXrecord
280
     1
270
     1
271
     1
  0
XRECORD
  5
4FF0
102
{ACAD_REACTORS
330
4FEF
102
}
330
4FEF
100
AcDbXrecord
280
     1
270
     1
271
     1
  0
XRECORD
  5
4FF4
102
{ACAD_REACTORS
330
4FEF
102
}
330
4FEF
100
AcDbXrecord
280
     1
270
     1
271
     1
  0
XRECORD
  5
4FF3
102
{ACAD_REACTORS
330
4FEF
102
}
330
4FEF
100
AcDbXrecord
280
     1
270
     1
271
     1
  0
XRECORD
  5
4FF5
102
{ACAD_REACTORS
330
4FEF
102
}
330
4FEF
100
AcDbXrecord
280
     1
270
     1
271
     1
  0
XRECORD
  5
4FF2
102
{ACAD_REACTORS
330
4FEF
102
}
330
4FEF
100
AcDbXrecord
280
     1
270
     1
271
     1
  0
XRECORD
  5
13762
102
{ACAD_REACTORS
330
4FE7
102
}
330
4FE7
100
AcDbXrecord
280
     1
102
MATERIAL
148
0.0
149
0.0
149
0.0
 93
        0
 94
      127
282
     0
 72
     0
 77
     0
171
     0
175
     0
179
     0
273
     0
  0
XRECORD
  5
4FE9
102
{ACAD_REACTORS
330
4FE7
102
}
330
4FE7
100
AcDbXrecord
280
     1
270
     1
271
     1
  0
XRECORD
  5
4FE8
102
{ACAD_REACTORS
330
4FE7
102
}
330
4FE7
100
AcDbXrecord
280
     1
270
     1
271
     1
  0
XRECORD
  5
4FEC
102
{ACAD_REACTORS
330
4FE7
102
}
330
4FE7
100
AcDbXrecord
280
     1
270
     1
271
     1
  0
XRECORD
  5
4FEB
102
{ACAD_REACTORS
330
4FE7
102
}
330
4FE7
100
AcDbXrecord
280
     1
270
     1
271
     1
  0
XRECORD
  5
4FED
102
{ACAD_REACTORS
330
4FE7
102
}
330
4FE7
100
AcDbXrecord
280
     1
270
     1
271
     1
  0
XRECORD
  5
4FEA
102
{ACAD_REACTORS
330
4FE7
102
}
330
4FE7
100
AcDbXrecord
280
     1
270
     1
271
     1
  0
XRECORD
  5
13764
102
{ACAD_REACTORS
330
4FF7
102
}
330
4FF7
100
AcDbXrecord
280
     1
102
MATERIAL
148
0.0
149
0.0
149
0.0
 93
        0
 94
      127
282
     0
 72
     0
 77
     0
171
     0
175
     0
179
     0
273
     0
  0
XRECORD
  5
4FF9
102
{ACAD_REACTORS
330
4FF7
102
}
330
4FF7
100
AcDbXrecord
280
     1
270
     1
271
     1
  0
XRECORD
  5
4FF8
102
{ACAD_REACTORS
330
4FF7
102
}
330
4FF7
100
AcDbXrecord
280
     1
270
     1
271
     1
  0
XRECORD
  5
4FFC
102
{ACAD_REACTORS
330
4FF7
102
}
330
4FF7
100
AcDbXrecord
280
     1
270
     1
271
     1
  0
XRECORD
  5
4FFB
102
{ACAD_REACTORS
330
4FF7
102
}
330
4FF7
100
AcDbXrecord
280
     1
270
     1
271
     1
  0
XRECORD
  5
4FFD
102
{ACAD_REACTORS
330
4FF7
102
}
330
4FF7
100
AcDbXrecord
280
     1
270
     1
271
     1
  0
XRECORD
  5
4FFA
102
{ACAD_REACTORS
330
4FF7
102
}
330
4FF7
100
AcDbXrecord
280
     1
270
     1
271
     1
  0
CELLSTYLEMAP
  5
3FE0A
102
{ACAD_REACTORS
330
50D6
102
}
330
50D6
100
AcDbCellStyleMap
 90
        3
300
CELLSTYLE
  1
TABLEFORMAT_BEGIN
 90
        5
170
     1
 91
        0
 92
    32768
 62
   257
 93
        1
300
CONTENTFORMAT
  1
CONTENTFORMAT_BEGIN
 90
        0
 91
        0
 92
      512
 93
        0
300

 40
0.0
140
1.0
 94
        5
 62
     0
340
11
144
0.25
309
CONTENTFORMAT_END
171
     1
301
MARGIN
  1
CELLMARGIN_BEGIN
 40
0.06
 40
0.06
 40
0.06
 40
0.06
 40
0.18
 40
0.18
309
CELLMARGIN_END
 94
        6
 95
        1
302
GRIDFORMAT
  1
GRIDFORMAT_BEGIN
 90
        0
 91
        1
 62
     0
 92
       -2
340
0
 93
        0
 40
0.045
309
GRIDFORMAT_END
 95
        2
302
GRIDFORMAT
  1
GRIDFORMAT_BEGIN
 90
        0
 91
        1
 62
     0
 92
       -2
340
0
 93
        0
 40
0.045
309
GRIDFORMAT_END
 95
        4
302
GRIDFORMAT
  1
GRIDFORMAT_BEGIN
 90
        0
 91
        1
 62
     0
 92
       -2
340
0
 93
        0
 40
0.045
309
GRIDFORMAT_END
 95
        8
302
GRIDFORMAT
  1
GRIDFORMAT_BEGIN
 90
        0
 91
        1
 62
     0
 92
       -2
340
0
 93
        0
 40
0.045
309
GRIDFORMAT_END
 95
       16
302
GRIDFORMAT
  1
GRIDFORMAT_BEGIN
 90
        0
 91
        1
 62
     0
 92
       -2
340
0
 93
        0
 40
0.045
309
GRIDFORMAT_END
 95
       32
302
GRIDFORMAT
  1
GRIDFORMAT_BEGIN
 90
        0
 91
        1
 62
     0
 92
       -2
340
0
 93
        0
 40
0.045
309
GRIDFORMAT_END
309
TABLEFORMAT_END
  1
CELLSTYLE_BEGIN
 90
        1
 91
        1
300
_TITLE
309
CELLSTYLE_END
300
CELLSTYLE
  1
TABLEFORMAT_BEGIN
 90
        5
170
     1
 91
        0
 92
        0
 62
   257
 93
        1
300
CONTENTFORMAT
  1
CONTENTFORMAT_BEGIN
 90
        0
 91
        0
 92
      512
 93
        0
300

 40
0.0
140
1.0
 94
        5
 62
     0
340
11
144
0.18
309
CONTENTFORMAT_END
171
     1
301
MARGIN
  1
CELLMARGIN_BEGIN
 40
0.06
 40
0.06
 40
0.06
 40
0.06
 40
0.18
 40
0.18
309
CELLMARGIN_END
 94
        6
 95
        1
302
GRIDFORMAT
  1
GRIDFORMAT_BEGIN
 90
        0
 91
        1
 62
     0
 92
       -2
340
0
 93
        0
 40
0.045
309
GRIDFORMAT_END
 95
        2
302
GRIDFORMAT
  1
GRIDFORMAT_BEGIN
 90
        0
 91
        1
 62
     0
 92
       -2
340
0
 93
        0
 40
0.045
309
GRIDFORMAT_END
 95
        4
302
GRIDFORMAT
  1
GRIDFORMAT_BEGIN
 90
        0
 91
        1
 62
     0
 92
       -2
340
0
 93
        0
 40
0.045
309
GRIDFORMAT_END
 95
        8
302
GRIDFORMAT
  1
GRIDFORMAT_BEGIN
 90
        0
 91
        1
 62
     0
 92
       -2
340
0
 93
        0
 40
0.045
309
GRIDFORMAT_END
 95
       16
302
GRIDFORMAT
  1
GRIDFORMAT_BEGIN
 90
        0
 91
        1
 62
     0
 92
       -2
340
0
 93
        0
 40
0.045
309
GRIDFORMAT_END
 95
       32
302
GRIDFORMAT
  1
GRIDFORMAT_BEGIN
 90
        0
 91
        1
 62
     0
 92
       -2
340
0
 93
        0
 40
0.045
309
GRIDFORMAT_END
309
TABLEFORMAT_END
  1
CELLSTYLE_BEGIN
 90
        2
 91
        1
300
_HEADER
309
CELLSTYLE_END
300
CELLSTYLE
  1
TABLEFORMAT_BEGIN
 90
        5
170
     1
 91
        0
 92
        0
 62
   257
 93
        1
300
CONTENTFORMAT
  1
CONTENTFORMAT_BEGIN
 90
        0
 91
        0
 92
      512
 93
        0
300

 40
0.0
140
1.0
 94
        2
 62
     0
340
11
144
0.18
309
CONTENTFORMAT_END
171
     1
301
MARGIN
  1
CELLMARGIN_BEGIN
 40
0.06
 40
0.06
 40
0.06
 40
0.06
 40
0.18
 40
0.18
309
CELLMARGIN_END
 94
        6
 95
        1
302
GRIDFORMAT
  1
GRIDFORMAT_BEGIN
 90
        0
 91
        1
 62
     0
 92
       -2
340
0
 93
        0
 40
0.045
309
GRIDFORMAT_END
 95
        2
302
GRIDFORMAT
  1
GRIDFORMAT_BEGIN
 90
        0
 91
        1
 62
     0
 92
       -2
340
0
 93
        0
 40
0.045
309
GRIDFORMAT_END
 95
        4
302
GRIDFORMAT
  1
GRIDFORMAT_BEGIN
 90
        0
 91
        1
 62
     0
 92
       -2
340
0
 93
        0
 40
0.045
309
GRIDFORMAT_END
 95
        8
302
GRIDFORMAT
  1
GRIDFORMAT_BEGIN
 90
        0
 91
        1
 62
     0
 92
       -2
340
0
 93
        0
 40
0.045
309
GRIDFORMAT_END
 95
       16
302
GRIDFORMAT
  1
GRIDFORMAT_BEGIN
 90
        0
 91
        1
 62
     0
 92
       -2
340
0
 93
        0
 40
0.045
309
GRIDFORMAT_END
 95
       32
302
GRIDFORMAT
  1
GRIDFORMAT_BEGIN
 90
        0
 91
        1
 62
     0
 92
       -2
340
0
 93
        0
 40
0.045
309
GRIDFORMAT_END
309
TABLEFORMAT_END
  1
CELLSTYLE_BEGIN
 90
        3
 91
        2
300
_DATA
309
CELLSTYLE_END
  0
XRECORD
  5
3FE27
102
{ACAD_REACTORS
330
50D6
102
}
330
50D6
100
AcDbXrecord
280
     1
102
ACAD_ROUNDTRIP_PRE2007_TABLESTYLE
 90
      512
 91
        0
  1

 92
      512
 93
        0
  2

 94
      512
 95
        0
  3

  0
ENDSEC
  0
EOF
