  0
SECTION
  2
HEADER
  9
$ACADVER
  1
AC1021
  9
$ACADMAINTVER
 70
    25
  9
$DWGCODEPAGE
  3
ANSI_936
  9
$LASTSAVEDBY
  1
yp.zhu
  9
$INSBASE
 10
0.0
 20
0.0
 30
0.0
  9
$EXTMIN
 10
460.6786082154463
 20
209.9231617638111
 30
-0.0015258207003583
  9
$EXTMAX
 10
609.2762625495366
 20
314.9743031953121
 30
0.0000000349246037
  9
$LIMMIN
 10
0.0
 20
0.0
  9
$LIMMAX
 10
12.0
 20
9.0
  9
$ORTHOMODE
 70
     1
  9
$REGENMODE
 70
     1
  9
$FILLMODE
 70
     1
  9
$QTEXTMODE
 70
     0
  9
$MIRRTEXT
 70
     1
  9
$LTSCALE
 40
1.0
  9
$ATTMODE
 70
     1
  9
$TEXTSIZE
 40
0.2
  9
$TRACEWID
 40
0.05
  9
$TEXTSTYLE
  7
Standard
  9
$CLAYER
  8
DIM
  9
$CELTYPE
  6
ByLayer
  9
$CECOLOR
 62
   256
  9
$CELTSCALE
 40
1.0
  9
$DISPSILH
 70
     0
  9
$DIMSCALE
 40
1.0
  9
$DIMASZ
 40
3.0
  9
$DIMEXO
 40
0.2
  9
$DIMDLI
 40
0.2
  9
$DIMRND
 40
0.0
  9
$DIMDLE
 40
0.0
  9
$DIMEXE
 40
1.199999999999999
  9
$DIMTP
 40
0.0
  9
$DIMTM
 40
0.0
  9
$DIMTXT
 40
3.5
  9
$DIMCEN
 40
0.0
  9
$DIMTSZ
 40
0.0
  9
$DIMTOL
 70
     0
  9
$DIMLIM
 70
     0
  9
$DIMTIH
 70
     0
  9
$DIMTOH
 70
     0
  9
$DIMSE1
 70
     0
  9
$DIMSE2
 70
     0
  9
$DIMTAD
 70
     1
  9
$DIMZIN
 70
     8
  9
$DIMBLK
  1

  9
$DIMASO
 70
     1
  9
$DIMSHO
 70
     1
  9
$DIMPOST
  1

  9
$DIMAPOST
  1

  9
$DIMALT
 70
     0
  9
$DIMALTD
 70
     2
  9
$DIMALTF
 40
25.4
  9
$DIMLFAC
 40
1.0
  9
$DIMTOFL
 70
     0
  9
$DIMTVP
 40
0.0
  9
$DIMTIX
 70
     0
  9
$DIMSOXD
 70
     0
  9
$DIMSAH
 70
     0
  9
$DIMBLK1
  1

  9
$DIMBLK2
  1

  9
$DIMSTYLE
  2
01
  9
$DIMCLRD
 70
     1
  9
$DIMCLRE
 70
     6
  9
$DIMCLRT
 70
     4
  9
$DIMTFAC
 40
1.0
  9
$DIMGAP
 40
0.8
  9
$DIMJUST
 70
     0
  9
$DIMSD1
 70
     0
  9
$DIMSD2
 70
     0
  9
$DIMTOLJ
 70
     1
  9
$DIMTZIN
 70
     0
  9
$DIMALTZ
 70
     0
  9
$DIMALTTZ
 70
     0
  9
$DIMUPT
 70
     0
  9
$DIMDEC
 70
     1
  9
$DIMTDEC
 70
     1
  9
$DIMALTU
 70
     2
  9
$DIMALTTD
 70
     2
  9
$DIMTXSTY
  7
Romans字体
  9
$DIMAUNIT
 70
     0
  9
$DIMADEC
 70
     2
  9
$DIMALTRND
 40
0.0
  9
$DIMAZIN
 70
     2
  9
$DIMDSEP
 70
    46
  9
$DIMATFIT
 70
     3
  9
$DIMFRAC
 70
     0
  9
$DIMLDRBLK
  1

  9
$DIMLUNIT
 70
     2
  9
$DIMLWD
 70
    -2
  9
$DIMLWE
 70
    -2
  9
$DIMTMOVE
 70
     0
  9
$DIMFXL
 40
1.0
  9
$DIMFXLON
 70
     0
  9
$DIMJOGANG
 40
0.7853981633974483
  9
$DIMTFILL
 70
     0
  9
$DIMTFILLCLR
 70
     0
  9
$DIMARCSYM
 70
     0
  9
$DIMLTYPE
  6

  9
$DIMLTEX1
  6

  9
$DIMLTEX2
  6

  9
$LUNITS
 70
     2
  9
$LUPREC
 70
     4
  9
$SKETCHINC
 40
0.1
  9
$FILLETRAD
 40
0.5
  9
$AUNITS
 70
     0
  9
$AUPREC
 70
     0
  9
$MENU
  1
.
  9
$ELEVATION
 40
0.0
  9
$PELEVATION
 40
0.0
  9
$THICKNESS
 40
0.0
  9
$LIMCHECK
 70
     0
  9
$CHAMFERA
 40
0.5
  9
$CHAMFERB
 40
0.5
  9
$CHAMFERC
 40
1.0
  9
$CHAMFERD
 40
0.0
  9
$SKPOLY
 70
     0
  9
$TDCREATE
 40
2456524.383632987
  9
$TDUCREATE
 40
2456524.050299653
  9
$TDUPDATE
 40
2460322.582013762
  9
$TDUUPDATE
 40
2460322.248680428
  9
$TDINDWG
 40
0.9596752662
  9
$TDUSRTIMER
 40
0.9596498843
  9
$USRTIMER
 70
     1
  9
$ANGBASE
 50
0.0
  9
$ANGDIR
 70
     0
  9
$PDMODE
 70
     0
  9
$PDSIZE
 40
0.0
  9
$PLINEWID
 40
0.0
  9
$SPLFRAME
 70
     0
  9
$SPLINETYPE
 70
     6
  9
$SPLINESEGS
 70
     8
  9
$HANDSEED
  5
1B22F
  9
$SURFTAB1
 70
     6
  9
$SURFTAB2
 70
     6
  9
$SURFTYPE
 70
     6
  9
$SURFU
 70
     6
  9
$SURFV
 70
     6
  9
$UCSBASE
  2

  9
$UCSNAME
  2

  9
$UCSORG
 10
0.0
 20
0.0
 30
0.0
  9
$UCSXDIR
 10
1.0
 20
0.0
 30
0.0
  9
$UCSYDIR
 10
0.0
 20
1.0
 30
0.0
  9
$UCSORTHOREF
  2

  9
$UCSORTHOVIEW
 70
     0
  9
$UCSORGTOP
 10
0.0
 20
0.0
 30
0.0
  9
$UCSORGBOTTOM
 10
0.0
 20
0.0
 30
0.0
  9
$UCSORGLEFT
 10
0.0
 20
0.0
 30
0.0
  9
$UCSORGRIGHT
 10
0.0
 20
0.0
 30
0.0
  9
$UCSORGFRONT
 10
0.0
 20
0.0
 30
0.0
  9
$UCSORGBACK
 10
0.0
 20
0.0
 30
0.0
  9
$PUCSBASE
  2

  9
$PUCSNAME
  2

  9
$PUCSORG
 10
0.0
 20
0.0
 30
0.0
  9
$PUCSXDIR
 10
1.0
 20
0.0
 30
0.0
  9
$PUCSYDIR
 10
0.0
 20
1.0
 30
0.0
  9
$PUCSORTHOREF
  2

  9
$PUCSORTHOVIEW
 70
     0
  9
$PUCSORGTOP
 10
0.0
 20
0.0
 30
0.0
  9
$PUCSORGBOTTOM
 10
0.0
 20
0.0
 30
0.0
  9
$PUCSORGLEFT
 10
0.0
 20
0.0
 30
0.0
  9
$PUCSORGRIGHT
 10
0.0
 20
0.0
 30
0.0
  9
$PUCSORGFRONT
 10
0.0
 20
0.0
 30
0.0
  9
$PUCSORGBACK
 10
0.0
 20
0.0
 30
0.0
  9
$USERI1
 70
     0
  9
$USERI2
 70
     0
  9
$USERI3
 70
     0
  9
$USERI4
 70
     0
  9
$USERI5
 70
     0
  9
$USERR1
 40
0.0
  9
$USERR2
 40
0.0
  9
$USERR3
 40
0.0
  9
$USERR4
 40
0.0
  9
$USERR5
 40
2.5
  9
$WORLDVIEW
 70
     1
  9
$SHADEDGE
 70
     3
  9
$SHADEDIF
 70
    70
  9
$TILEMODE
 70
     1
  9
$MAXACTVP
 70
    64
  9
$PINSBASE
 10
0.0
 20
0.0
 30
0.0
  9
$PLIMCHECK
 70
     0
  9
$PEXTMIN
 10
1.000000000000000E+20
 20
1.000000000000000E+20
 30
1.000000000000000E+20
  9
$PEXTMAX
 10
-1.000000000000000E+20
 20
-1.000000000000000E+20
 30
-1.000000000000000E+20
  9
$PLIMMIN
 10
0.0
 20
0.0
  9
$PLIMMAX
 10
12.0
 20
9.0
  9
$UNITMODE
 70
     0
  9
$VISRETAIN
 70
     1
  9
$PLINEGEN
 70
     0
  9
$PSLTSCALE
 70
     1
  9
$TREEDEPTH
 70
  3020
  9
$CMLSTYLE
  2
Standard
  9
$CMLJUST
 70
     0
  9
$CMLSCALE
 40
1.0
  9
$PROXYGRAPHICS
 70
     1
  9
$MEASUREMENT
 70
     0
  9
$CELWEIGHT
370
    -1
  9
$ENDCAPS
280
     0
  9
$JOINSTYLE
280
     0
  9
$LWDISPLAY
290
     0
  9
$INSUNITS
 70
     4
  9
$HYPERLINKBASE
  1

  9
$STYLESHEET
  1
MONOCHROME.CTB
  9
$XEDIT
290
     1
  9
$CEPSNTYPE
380
     0
  9
$PSTYLEMODE
290
     1
  9
$FINGERPRINTGUID
  2
{4A02065B-8BB3-4A96-9036-502DC906C165}
  9
$VERSIONGUID
  2
{00EC9233-EC2E-4DE7-8209-B187AFEBFF6B}
  9
$EXTNAMES
290
     1
  9
$PSVPSCALE
 40
0.0
  9
$OLESTARTUP
290
     0
  9
$SORTENTS
280
   127
  9
$INDEXCTL
280
     0
  9
$HIDETEXT
280
     0
  9
$XCLIPFRAME
290
     0
  9
$HALOGAP
280
     0
  9
$OBSCOLOR
 70
   257
  9
$OBSLTYPE
280
     0
  9
$INTERSECTIONDISPLAY
280
     0
  9
$INTERSECTIONCOLOR
 70
   257
  9
$DIMASSOC
280
     1
  9
$PROJECTNAME
  1

  9
$CAMERADISPLAY
290
     0
  9
$LENSLENGTH
 40
50.0
  9
$CAMERAHEIGHT
 40
0.0
  9
$STEPSPERSEC
 40
2.0
  9
$STEPSIZE
 40
6.0
  9
$3DDWFPREC
 40
2.0
  9
$PSOLWIDTH
 40
0.25
  9
$PSOLHEIGHT
 40
4.0
  9
$LOFTANG1
 40
1.570796326794896
  9
$LOFTANG2
 40
1.570796326794896
  9
$LOFTMAG1
 40
0.0
  9
$LOFTMAG2
 40
0.0
  9
$LOFTPARAM
 70
     7
  9
$LOFTNORMALS
280
     1
  9
$LATITUDE
 40
37.795
  9
$LONGITUDE
 40
-122.394
  9
$NORTHDIRECTION
 40
0.0
  9
$TIMEZONE
 70
 -8000
  9
$LIGHTGLYPHDISPLAY
280
     1
  9
$TILEMODELIGHTSYNCH
280
     1
  9
$CMATERIAL
347
4FE6
  9
$SOLIDHIST
280
     1
  9
$SHOWHIST
280
     1
  9
$DWFFRAME
280
     2
  9
$DGNFRAME
280
     0
  9
$REALWORLDSCALE
290
     1
  9
$INTERFERECOLOR
 62
     1
  9
$INTERFEREOBJVS
345
33
  9
$INTERFEREVPVS
346
30
  9
$CSHADOW
280
     0
  9
$SHADOWPLANELOCATION
 40
0.0
  0
ENDSEC
  0
SECTION
  2
CLASSES
  0
CLASS
  1
ACDBDICTIONARYWDFLT
  2
AcDbDictionaryWithDefault
  3
ObjectDBX Classes
 90
        0
 91
        1
280
     0
281
     0
  0
CLASS
  1
VISUALSTYLE
  2
AcDbVisualStyle
  3
ObjectDBX Classes
 90
     4095
 91
       16
280
     0
281
     0
  0
CLASS
  1
MATERIAL
  2
AcDbMaterial
  3
ObjectDBX Classes
 90
     1153
 91
        3
280
     0
281
     0
  0
CLASS
  1
TABLESTYLE
  2
AcDbTableStyle
  3
ObjectDBX Classes
 90
     4095
 91
        1
280
     0
281
     0
  0
CLASS
  1
SCALE
  2
AcDbScale
  3
ObjectDBX Classes
 90
     1153
 91
       33
280
     0
281
     0
  0
CLASS
  1
MLEADERSTYLE
  2
AcDbMLeaderStyle
  3
ACDB_MLEADERSTYLE_CLASS
 90
     4095
 91
        1
280
     0
281
     0
  0
CLASS
  1
CELLSTYLEMAP
  2
AcDbCellStyleMap
  3
ObjectDBX Classes
 90
     1152
 91
        3
280
     0
281
     0
  0
CLASS
  1
DICTIONARYVAR
  2
AcDbDictionaryVar
  3
ObjectDBX Classes
 90
        0
 91
        8
280
     0
281
     0
  0
CLASS
  1
SORTENTSTABLE
  2
AcDbSortentsTable
  3
ObjectDBX Classes
 90
        0
 91
        1
280
     0
281
     0
  0
CLASS
  1
ACAD_EVALUATION_GRAPH
  2
AcDbEvalGraph
  3
ObjectDBX Classes
 90
     1153
 91
        1
280
     0
281
     0
  0
CLASS
  1
ACAECUSTOBJ
  2
AcAeEditorObj
  3
AcAeEditorObj
 90
     1024
 91
        1
280
     0
281
     0
  0
CLASS
  1
ACDB_DYNAMICBLOCKPURGEPREVENTER_VERSION
  2
AcDbDynamicBlockPurgePreventer
  3
ObjectDBX Classes
 90
     1153
 91
        1
280
     0
281
     0
  0
CLASS
  1
MENTALRAYRENDERSETTINGS
  2
AcDbMentalRayRenderSettings
  3
SCENEOE
 90
     1024
 91
        1
280
     0
281
     0
  0
CLASS
  1
ACDB_BLOCKREPRESENTATION_DATA
  2
AcDbBlockRepresentationData
  3
ObjectDBX Classes
 90
     1153
 91
        0
280
     0
281
     0
  0
CLASS
  1
DIMASSOC
  2
AcDbDimAssoc
  3
"AcDbDimAssoc|Product Desc:     AcDim ARX App For Dimension|Company:          Autodesk, Inc.|WEB Address:      www.autodesk.com"
 90
        0
 91
        4
280
     0
281
     0
  0
CLASS
  1
VLO-VL
  2
vlo_VL
  3
VL|AutoLISP based application
 90
      129
 91
        1
280
     0
281
     0
  0
ENDSEC
  0
SECTION
  2
TABLES
  0
TABLE
  2
VPORT
  5
8
102
{ACAD_XDICTIONARY
360
50EE
102
}
330
0
100
AcDbSymbolTable
 70
     1
  0
VPORT
  5
29
330
8
100
AcDbSymbolTableRecord
100
AcDbViewportTableRecord
  2
*Active
 70
     0
 10
0.0
 20
0.0
 11
1.0
 21
1.0
 12
430.0119385105828
 22
113.9465017109638
 13
0.0
 23
0.0
 14
0.5
 24
0.5
 15
0.5
 25
0.5
 16
0.0
 26
0.0
 36
1.0
 17
104.9654968719086
 27
148.5022307685978
 37
0.0
 40
105.8133020706655
 41
2.203389830508474
 42
50.0
 43
0.0
 44
0.0
 50
0.0
 51
0.0
 71
     0
 72
   100
 73
     1
 74
     3
 75
     0
 76
     0
 77
     0
 78
     0
281
     0
 65
     1
110
0.0
120
0.0
130
0.0
111
1.0
121
0.0
131
0.0
112
0.0
122
1.0
132
0.0
 79
     0
146
0.0
348
2F
 60
     3
 61
     5
292
     1
282
     1
141
0.0
142
0.0
 63
   250
421
  3355443
  0
ENDTAB
  0
TABLE
  2
LTYPE
  5
5
330
0
100
AcDbSymbolTable
 70
     3
  0
LTYPE
  5
14
330
5
100
AcDbSymbolTableRecord
100
AcDbLinetypeTableRecord
  2
ByBlock
 70
     0
  3

 72
    65
 73
     0
 40
0.0
  0
LTYPE
  5
15
330
5
100
AcDbSymbolTableRecord
100
AcDbLinetypeTableRecord
  2
ByLayer
 70
     0
  3

 72
    65
 73
     0
 40
0.0
  0
LTYPE
  5
16
330
5
100
AcDbSymbolTableRecord
100
AcDbLinetypeTableRecord
  2
Continuous
 70
     0
  3
Solid line
 72
    65
 73
     0
 40
0.0
  0
LTYPE
  5
67BA
330
5
100
AcDbSymbolTableRecord
100
AcDbLinetypeTableRecord
  2
CENTER
 70
     0
  3
Center ____ _ ____ _ ____ _ ____ _ ____ _ ____
 72
    65
 73
     4
 40
2.0
 49
1.25
 74
     0
 49
-0.25
 74
     0
 49
0.25
 74
     0
 49
-0.25
 74
     0
  0
LTYPE
  5
1A9A1
330
5
100
AcDbSymbolTableRecord
100
AcDbLinetypeTableRecord
  2
HIDDEN
 70
     0
  3
- - - - - - - - - - - - - - - - - - - -
 72
    65
 73
     2
 40
0.2
 49
0.1
 74
     0
 49
-0.1
 74
     0
  0
ENDTAB
  0
TABLE
  2
LAYER
  5
2
102
{ACAD_XDICTIONARY
360
50B8
102
}
330
0
100
AcDbSymbolTable
 70
     8
  0
LAYER
  5
10
102
{ACAD_XDICTIONARY
360
50D0
102
}
330
2
100
AcDbSymbolTableRecord
100
AcDbLayerTableRecord
  2
0
 70
     0
 62
     7
  6
Continuous
370
    30
390
F
347
4FF6
  0
LAYER
  5
3B
102
{ACAD_XDICTIONARY
360
50D2
102
}
330
2
100
AcDbSymbolTableRecord
100
AcDbLayerTableRecord
  2
图层 1
 70
     0
 62
     7
  6
Continuous
370
    -3
390
F
347
4FF6
  0
LAYER
  5
50AE
102
{ACAD_XDICTIONARY
360
50AF
102
}
330
2
100
AcDbSymbolTableRecord
100
AcDbLayerTableRecord
  2
图框
 70
     0
 62
     7
  6
Continuous
370
    20
390
F
347
4FF6
  0
LAYER
  5
5141
330
2
100
AcDbSymbolTableRecord
100
AcDbLayerTableRecord
  2
Defpoints
 70
     0
 62
     7
  6
Continuous
290
     0
370
    -3
390
F
347
4FF6
  0
LAYER
  5
5144
330
2
100
AcDbSymbolTableRecord
100
AcDbLayerTableRecord
  2
DIM
 70
     0
 62
     3
  6
Continuous
370
    15
390
F
347
4FF6
1001
AcAecLayerStandard
1000

1000

  0
LAYER
  5
52F3
330
2
100
AcDbSymbolTableRecord
100
AcDbLayerTableRecord
  2
打标文字
 70
     0
 62
     3
  6
Continuous
370
    20
390
F
347
4FF6
  0
LAYER
  5
1A670
330
2
100
AcDbSymbolTableRecord
100
AcDbLayerTableRecord
  2
CEN
 70
     0
 62
     1
  6
CENTER
370
    15
390
F
347
4FF6
1001
AcAecLayerStandard
1000

1000

  0
LAYER
  5
1A9A2
330
2
100
AcDbSymbolTableRecord
100
AcDbLayerTableRecord
  2
3
 70
     0
 62
     7
  6
Continuous
370
    -3
390
F
347
4FF6
  0
ENDTAB
  0
TABLE
  2
STYLE
  5
3
330
0
100
AcDbSymbolTable
 70
     4
  0
STYLE
  5
11
330
3
100
AcDbSymbolTableRecord
100
AcDbTextStyleTableRecord
  2
Standard
 70
     0
 40
0.0
 41
0.75
 50
0.0
 71
     0
 42
0.2
  3

  4

1001
ACAD
1000
仿宋_GB2312
1071
    34353
  0
STYLE
  5
FD48
330
3
100
AcDbSymbolTableRecord
100
AcDbTextStyleTableRecord
  2
Romans字体
 70
     0
 40
0.0
 41
0.75
 50
0.0
 71
     0
 42
0.2
  3
romans.shx
  4

  0
STYLE
  5
11080
330
3
100
AcDbSymbolTableRecord
100
AcDbTextStyleTableRecord
  2
工程字
 70
     0
 40
0.0
 41
1.0
 50
0.0
 71
     0
 42
3.5
  3
gbenor.shx
  4
gbcbig.shx
  0
STYLE
  5
11081
330
3
100
AcDbSymbolTableRecord
100
AcDbTextStyleTableRecord
  2
Chinese
 70
     0
 40
0.0
 41
1.0
 50
0.0
 71
     0
 42
2.5
  3
PMingLiU.ttf
  4

1001
ACAD
1000
PMingLiU
1071
    34834
  0
ENDTAB
  0
TABLE
  2
VIEW
  5
6
330
0
100
AcDbSymbolTable
 70
     0
  0
ENDTAB
  0
TABLE
  2
UCS
  5
7
330
0
100
AcDbSymbolTable
 70
     0
  0
ENDTAB
  0
TABLE
  2
APPID
  5
9
330
0
100
AcDbSymbolTable
 70
    19
  0
APPID
  5
12
330
9
100
AcDbSymbolTableRecord
100
AcDbRegAppTableRecord
  2
ACAD
 70
     0
  0
APPID
  5
5024
330
9
100
AcDbSymbolTableRecord
100
AcDbRegAppTableRecord
  2
ACAD_MLEADERVER
 70
     0
  0
APPID
  5
50B5
330
9
100
AcDbSymbolTableRecord
100
AcDbRegAppTableRecord
  2
AcDbDynamicBlockGUID
 70
     0
  0
APPID
  5
50B6
330
9
100
AcDbSymbolTableRecord
100
AcDbRegAppTableRecord
  2
AcDbBlockRepETag
 70
     0
  0
APPID
  5
50B7
330
9
100
AcDbSymbolTableRecord
100
AcDbRegAppTableRecord
  2
ACAD_PSEXT
 70
     0
  0
APPID
  5
50CF
330
9
100
AcDbSymbolTableRecord
100
AcDbRegAppTableRecord
  2
AcadAnnoPO
 70
     0
  0
APPID
  5
5146
330
9
100
AcDbSymbolTableRecord
100
AcDbRegAppTableRecord
  2
AcAecLayerStandard
 70
     0
  0
APPID
  5
5147
330
9
100
AcDbSymbolTableRecord
100
AcDbRegAppTableRecord
  2
ACAD_DSTYLE_DIMJAG
 70
     0
  0
APPID
  5
5148
330
9
100
AcDbSymbolTableRecord
100
AcDbRegAppTableRecord
  2
ACAD_DSTYLE_DIMTALN
 70
     0
  0
APPID
  5
52AD
330
9
100
AcDbSymbolTableRecord
100
AcDbRegAppTableRecord
  2
ACAUTHENVIRON
 70
     0
  0
APPID
  5
52B0
330
9
100
AcDbSymbolTableRecord
100
AcDbRegAppTableRecord
  2
AcDbDynamicBlockTrueName
 70
     0
  0
APPID
  5
67C6
330
9
100
AcDbSymbolTableRecord
100
AcDbRegAppTableRecord
  2
ACAD_EXEMPT_FROM_CAD_STANDARDS
 70
     0
  0
APPID
  5
6838
330
9
100
AcDbSymbolTableRecord
100
AcDbRegAppTableRecord
  2
ACAD_NAV_VCDISPLAY
 70
     0
  0
APPID
  5
70A9
330
9
100
AcDbSymbolTableRecord
100
AcDbRegAppTableRecord
  2
DCO15
 70
     0
  0
APPID
  5
8725
330
9
100
AcDbSymbolTableRecord
100
AcDbRegAppTableRecord
  2
AcDbBlockRepBTag
 70
     0
  0
APPID
  5
FE64
330
9
100
AcDbSymbolTableRecord
100
AcDbRegAppTableRecord
  2
ACAD_DSTYLE_DIMRADIAL_EXTENSION
 70
     0
  0
APPID
  5
FF93
330
9
100
AcDbSymbolTableRecord
100
AcDbRegAppTableRecord
  2
ACAD_DSTYLE_DIMBREAK
 70
     0
  0
APPID
  5
14250
330
9
100
AcDbSymbolTableRecord
100
AcDbRegAppTableRecord
  2
GradientColor1ACI
 70
     0
  0
APPID
  5
14251
330
9
100
AcDbSymbolTableRecord
100
AcDbRegAppTableRecord
  2
GradientColor2ACI
 70
     0
  0
ENDTAB
  0
TABLE
  2
DIMSTYLE
  5
A
330
0
100
AcDbSymbolTable
 70
     3
100
AcDbDimStyleTable
 71
     2
340
5145
340
27
  0
DIMSTYLE
105
27
330
A
100
AcDbSymbolTableRecord
100
AcDbDimStyleTableRecord
  2
Standard
 70
     0
340
11
  0
DIMSTYLE
105
5145
102
{ACAD_REACTORS
330
1AC30
330
1ACC3
330
1ACC2
330
1ACC9
330
1ACBF
330
1AC33
102
}
330
A
100
AcDbSymbolTableRecord
100
AcDbDimStyleTableRecord
  2
01
 70
     0
 41
3.0
 42
0.2
 43
0.2
 44
1.199999999999999
 73
     0
 74
     0
 77
     1
 78
     8
 79
     2
140
3.5
141
0.0
147
0.8
176
     1
177
     6
178
     4
179
     2
271
     1
272
     1
340
FD48
1001
ACAD_DSTYLE_DIMJAG
1070
   388
1040
1.5
1001
ACAD_DSTYLE_DIMTALN
1070
   392
1070
     0
  0
DIMSTYLE
105
1A094
102
{ACAD_REACTORS
330
1AC36
102
}
330
A
100
AcDbSymbolTableRecord
100
AcDbDimStyleTableRecord
  2
01$3
 70
     0
 41
2.0
 42
0.0
 43
0.2
 44
0.5
 78
     8
 79
     2
140
2.5
141
0.0
147
0.3
176
     1
177
     6
178
     4
179
     2
271
     2
272
     2
340
FD48
1001
ACAD_DSTYLE_DIMJAG
1070
   388
1040
1.5
1001
ACAD_DSTYLE_DIMTALN
1070
   392
1070
     0
  0
ENDTAB
  0
TABLE
  2
BLOCK_RECORD
  5
1
330
0
100
AcDbSymbolTable
 70
    10
  0
BLOCK_RECORD
  5
1F
102
{ACAD_XDICTIONARY
360
67C0
102
}
330
1
100
AcDbSymbolTableRecord
100
AcDbBlockTableRecord
  2
*Model_Space
340
22
 70
     0
280
     1
281
     0
  0
BLOCK_RECORD
  5
1B
330
1
100
AcDbSymbolTableRecord
100
AcDbBlockTableRecord
  2
*Paper_Space
340
1E
 70
     0
280
     1
281
     0
  0
BLOCK_RECORD
  5
23
330
1
100
AcDbSymbolTableRecord
100
AcDbBlockTableRecord
  2
*Paper_Space0
340
26
 70
     0
280
     1
281
     0
  0
BLOCK_RECORD
  5
10FE8
102
{ACAD_XDICTIONARY
360
1B1F3
102
}
330
1
100
AcDbSymbolTableRecord
100
AcDbBlockTableRecord
  2
A4图框-NEW
340
0
310
2800000020000000200000000100080000000000000400000000000000000000000000000000000000000000000080000080000000808000800000008000800080800000C0C0C000C0DCC000F0CAA6000020400000206000002080000020A0000020C0000020E00000400000004020000040400000406000004080000040A0
310
000040C0000040E00000600000006020000060400000606000006080000060A0000060C0000060E00000800000008020000080400000806000008080000080A0000080C0000080E00000A0000000A0200000A0400000A0600000A0800000A0A00000A0C00000A0E00000C0000000C0200000C0400000C0600000C0800000C0
310
A00000C0C00000C0E00000E0000000E0200000E0400000E0600000E0800000E0A00000E0C00000E0E00040000000400020004000400040006000400080004000A0004000C0004000E00040200000402020004020400040206000402080004020A0004020C0004020E000404000004040200040404000404060004040800040
310
40A0004040C0004040E00040600000406020004060400040606000406080004060A0004060C0004060E00040800000408020004080400040806000408080004080A0004080C0004080E00040A0000040A0200040A0400040A0600040A0800040A0A00040A0C00040A0E00040C0000040C0200040C0400040C0600040C08000
310
40C0A00040C0C00040C0E00040E0000040E0200040E0400040E0600040E0800040E0A00040E0C00040E0E00080000000800020008000400080006000800080008000A0008000C0008000E00080200000802020008020400080206000802080008020A0008020C0008020E00080400000804020008040400080406000804080
310
008040A0008040C0008040E00080600000806020008060400080606000806080008060A0008060C0008060E00080800000808020008080400080806000808080008080A0008080C0008080E00080A0000080A0200080A0400080A0600080A0800080A0A00080A0C00080A0E00080C0000080C0200080C0400080C0600080C0
310
800080C0A00080C0C00080C0E00080E0000080E0200080E0400080E0600080E0800080E0A00080E0C00080E0E000C0000000C0002000C0004000C0006000C0008000C000A000C000C000C000E000C0200000C0202000C0204000C0206000C0208000C020A000C020C000C020E000C0400000C0402000C0404000C0406000C0
310
408000C040A000C040C000C040E000C0600000C0602000C0604000C0606000C0608000C060A000C060C000C060E000C0800000C0802000C0804000C0806000C0808000C080A000C080C000C080E000C0A00000C0A02000C0A04000C0A06000C0A08000C0A0A000C0A0C000C0A0E000C0C00000C0C02000C0C04000C0C06000
310
C0C08000C0C0A000F0FBFF00A4A0A000808080000000FF0000FF000000FFFF00FF000000FF00FF00FFFF0000FFFFFF0000000000000000000000000000000000000000000000000000000000000000000000000000000000000000000000000000000000000000000000000000000000000000000000000000000000000000
310
000000000000000000000000000000000000000000000000000000000000000000000000000000000000000000000000000000000000000000000000000000000000000000000000000000000000000000000000000000000000000000000000000000000000000000000000000000000000F9F9F9F9F9F9F9F9F9F9F9F9F9
310
F9F9F9F9F9F9F9F9F9F9F9F9F9F9FF00000000F9FF000000000000000000FFFFFFFFFFFFFFFFFFFFFFFFF9FAFAFAFF00000000F9FF000000000000000000FFFFFFFFFFFFFFFFFFFFFFFFFFFFFFFFFF00000000F9FD000000000000000000FFFFFFFFFFFFFFFFFFFFFFFFFFFFFFFFFF00000000F9FF000000000000000000FF
310
FFFFFFFFFFFFFFFFFFFFFFFFFFFFFFFF00000000F9FD000000000000000000FFFFFFFFFFFFFFFFFFFFFFFFFFFFFFFFFF00000000F9FF00000000000000000000000000000000000000000000000000FF00000000F9FD00000000000000000000000000000000000000000000000000FF00000000F9FF000000000000000000
310
00000000000000000000000000000000FF00000000F9FD00000000000000000000000000000000000000000000000000FF00000000F9FF00000000000000000000000000000000000000000000000000FF00000000F9FD00000000000000000000000000000000000000000000000000FF00000000F9FD0000000000000000
310
0000000000000000000000000000000000FF00000000F9FF00000000000000000000000000000000000000000000000000FF00000000F9FD00000000000000000000000000000000000000000000000000FF00000000F9FF00000000000000000000000000000000000000000000000000FF00000000F9FD00000000000000
310
000000000000000000000000000000000000FF00000000F9FF00000000000000000000000000000000000000000000000000FF00000000F9FFFFFFFFFFFFFFFFFFFFFFFFFFFFFFFFFFFFFFFFFFFFFFFFFFFFFF00000000F9FFFFFFF9F9F9F9F9F9F9F9F9F9F9F9F9F9F9F9F9F9F9F9F9F9F9F9000000000000000000000000
310
00000000000000000000000000000000000000000000000000000000000000000000000000000000000000000000000000000000000000000000000000000000000000000000000000000000000000000000000000000000000000000000000000000000000000000000000000000000000000000000000000000000000000
310
0000000000000000000000000000000000000000000000000000000000000000000000000000000000000000000000000000000000000000
102
{BLKREFS
331
11089
102
}
 70
     4
280
     1
281
     0
1001
AcDbDynamicBlockGUID
1000
{9202BFA2-1751-4F46-9BBF-803F405FC44A}
1001
AcDbBlockRepETag
1070
     1
1071
      148
  0
BLOCK_RECORD
  5
1AEB7
330
1
100
AcDbSymbolTableRecord
100
AcDbBlockTableRecord
  2
*D2
340
0
 70
     0
280
     1
281
     0
  0
BLOCK_RECORD
  5
1AEC3
330
1
100
AcDbSymbolTableRecord
100
AcDbBlockTableRecord
  2
*D3
340
0
 70
     0
280
     1
281
     0
  0
BLOCK_RECORD
  5
1AED0
330
1
100
AcDbSymbolTableRecord
100
AcDbBlockTableRecord
  2
*D4
340
0
 70
     0
280
     1
281
     0
  0
BLOCK_RECORD
  5
1AEDC
330
1
100
AcDbSymbolTableRecord
100
AcDbBlockTableRecord
  2
*D5
340
0
 70
     0
280
     1
281
     0
  0
BLOCK_RECORD
  5
1AEE9
330
1
100
AcDbSymbolTableRecord
100
AcDbBlockTableRecord
  2
*D6
340
0
 70
     0
280
     1
281
     0
  0
BLOCK_RECORD
  5
1AEF2
330
1
100
AcDbSymbolTableRecord
100
AcDbBlockTableRecord
  2
*D7
340
0
 70
     0
280
     1
281
     0
  0
BLOCK_RECORD
  5
1AEFB
330
1
100
AcDbSymbolTableRecord
100
AcDbBlockTableRecord
  2
*D8
340
0
 70
     0
280
     1
281
     0
  0
ENDTAB
  0
ENDSEC
  0
SECTION
  2
BLOCKS
  0
BLOCK
  5
20
330
1F
100
AcDbEntity
  8
0
100
AcDbBlockBegin
  2
*Model_Space
 70
     0
 10
0.0
 20
0.0
 30
0.0
  3
*Model_Space
  1

  0
ENDBLK
  5
21
330
1F
100
AcDbEntity
  8
0
100
AcDbBlockEnd
  0
BLOCK
  5
1C
330
1B
100
AcDbEntity
 67
     1
  8
0
100
AcDbBlockBegin
  2
*Paper_Space
 70
     0
 10
0.0
 20
0.0
 30
0.0
  3
*Paper_Space
  1

  0
ENDBLK
  5
1D
330
1B
100
AcDbEntity
 67
     1
  8
0
100
AcDbBlockEnd
  0
BLOCK
  5
24
330
23
100
AcDbEntity
 67
     1
  8
0
100
AcDbBlockBegin
  2
*Paper_Space0
 70
     0
 10
0.0
 20
0.0
 30
0.0
  3
*Paper_Space0
  1

  0
ENDBLK
  5
25
330
23
100
AcDbEntity
 67
     1
  8
0
100
AcDbBlockEnd
  0
BLOCK
  5
10FEA
330
10FE8
100
AcDbEntity
  8
0
100
AcDbBlockBegin
  2
A4图框-NEW
 70
     0
 10
0.0
 20
0.0
 30
0.0
  3
A4图框-NEW
  1

  0
MTEXT
  5
1B15F
102
{ACAD_XDICTIONARY
360
1B217
102
}
330
10FE8
100
AcDbEntity
  8
图框
 62
     3
100
AcDbMText
 10
967.6594956750133
 20
499.7664151964293
 30
0.0
 40
2.985513575034151
 41
15.50176341157864
 46
6.292658374511018
 71
     5
 72
     5
  1
BQ LUO
  7
Romans字体
 73
     1
 44
1.0
1001
AcDbBlockRepETag
1070
     1
1071
        0
1005
1B15F
1001
ACAD
1000
ACAD_MTEXT_DEFINED_HEIGHT_BEGIN
1070
    46
1040
6.292658374511018
1000
ACAD_MTEXT_DEFINED_HEIGHT_END
  0
MTEXT
  5
1B160
330
10FE8
100
AcDbEntity
  8
图框
 62
     3
100
AcDbMText
 10
983.041569333247
 20
499.7664151964293
 30
0.0
 40
2.487927979195124
 41
15.26238390489051
 46
6.292658374511042
 71
     5
 72
     5
  1
{\W0.7;18.10.2010}
  7
Romans字体
 73
     1
 44
1.0
1001
AcDbBlockRepETag
1070
     1
1071
        1
1005
1B160
1001
ACAD
1000
ACAD_MTEXT_DEFINED_HEIGHT_BEGIN
1070
    46
1040
6.292658374511042
1000
ACAD_MTEXT_DEFINED_HEIGHT_END
  0
MTEXT
  5
1B161
330
10FE8
100
AcDbEntity
  8
图框
 62
     3
100
AcDbMText
 10
1012.477254728976
 20
487.1810984474071
 30
0.0
 40
2.985513575034151
 41
17.64876416884615
 46
6.292658374511455
 71
     5
 72
     5
  1
YY LIN
  7
Romans字体
 73
     1
 44
1.0
1001
AcDbBlockRepETag
1070
     1
1071
        2
1005
1B161
1001
ACAD
1000
ACAD_MTEXT_DEFINED_HEIGHT_BEGIN
1070
    46
1040
6.292658374511455
1000
ACAD_MTEXT_DEFINED_HEIGHT_END
  0
MTEXT
  5
1B162
330
10FE8
100
AcDbEntity
  8
图框
 62
     3
100
AcDbMText
 10
1028.977802139886
 20
487.1810984474071
 30
0.0
 40
2.487927979195124
 41
15.35233065297276
 46
6.292658374511495
 71
     5
 72
     5
  1
{\W0.7;18.10.2010}
  7
Romans字体
 73
     1
 44
1.0
1001
AcDbBlockRepETag
1070
     1
1071
        3
1005
1B162
1001
ACAD
1000
ACAD_MTEXT_DEFINED_HEIGHT_BEGIN
1070
    46
1040
6.292658374511495
1000
ACAD_MTEXT_DEFINED_HEIGHT_END
  0
MTEXT
  5
1B163
330
10FE8
100
AcDbEntity
  8
图框
 62
     3
100
AcDbMText
 10
1063.722665487208
 20
525.4145966538831
 30
0.0
 40
2.985513575034151
 41
32.4973914334545
 46
11.82914190181707
 71
     5
 72
     5
  1
-
  7
Romans字体
 73
     1
 44
1.0
1001
AcDbBlockRepETag
1070
     1
1071
        4
1005
1B163
1001
ACAD
1000
ACAD_MTEXT_DEFINED_HEIGHT_BEGIN
1070
    46
1040
11.82914190181707
1000
ACAD_MTEXT_DEFINED_HEIGHT_END
  0
MTEXT
  5
1B164
330
10FE8
100
AcDbEntity
  8
图框
 62
     3
100
AcDbMText
 10
1063.727338552349
 20
513.5854547520641
 30
0.0
 40
2.985513575034151
 41
32.48804530317308
 46
11.82914190182139
 71
     5
 72
     5
  1
-
  7
Romans字体
 73
     1
 44
1.0
1001
AcDbBlockRepETag
1070
     1
1071
        5
1005
1B164
1001
ACAD
1000
ACAD_MTEXT_DEFINED_HEIGHT_BEGIN
1070
    46
1040
11.82914190182139
1000
ACAD_MTEXT_DEFINED_HEIGHT_END
  0
MTEXT
  5
1B165
330
10FE8
100
AcDbEntity
  8
图框
 62
     3
100
AcDbMText
 10
1110.122306614152
 20
526.8006839312707
 30
0.0
 40
2.985513575034151
 41
33.61239199242139
 46
9.05696734704178
 71
     5
 72
     5
  1
-
  7
Romans字体
 73
     1
 44
1.0
1001
AcDbBlockRepETag
1070
     1
1071
        6
1005
1B165
1001
ACAD
1000
ACAD_MTEXT_DEFINED_HEIGHT_BEGIN
1070
    46
1040
9.05696734704178
1000
ACAD_MTEXT_DEFINED_HEIGHT_END
  0
MTEXT
  5
1B166
330
10FE8
100
AcDbEntity
  8
图框
 62
     3
100
AcDbMText
 10
1110.122306614152
 20
500.2775205517162
 30
0.0
 40
2.985513575034151
 41
33.61239199242139
 46
8.871557304763419
 71
     5
 72
     5
  1
-
  7
Romans字体
 73
     1
 44
1.0
1001
AcDbBlockRepETag
1070
     1
1071
        7
1005
1B166
1001
ACAD
1000
ACAD_MTEXT_DEFINED_HEIGHT_BEGIN
1070
    46
1040
8.871557304763419
1000
ACAD_MTEXT_DEFINED_HEIGHT_END
  0
MTEXT
  5
1B167
330
10FE8
100
AcDbEntity
  8
图框
 62
     3
100
AcDbMText
 10
967.6594956750133
 20
493.4737568219182
 30
0.0
 40
2.985513575034151
 41
15.50176341157864
 46
6.292658374510335
 71
     5
 72
     5
  1
P RAO
  7
Romans字体
 73
     1
 44
1.0
1001
AcDbBlockRepETag
1070
     1
1071
        8
1005
1B167
1001
ACAD
1000
ACAD_MTEXT_DEFINED_HEIGHT_BEGIN
1070
    46
1040
6.292658374510335
1000
ACAD_MTEXT_DEFINED_HEIGHT_END
  0
MTEXT
  5
1B168
330
10FE8
100
AcDbEntity
  8
图框
 62
     3
100
AcDbMText
 10
983.041569333247
 20
493.2441970450405
 30
0.0
 40
2.487927979195124
 41
15.26238390489051
 46
6.751777928266487
 71
     5
 72
     5
  1
{\W0.7;18.10.2010}
  7
Romans字体
 73
     1
 44
1.0
1001
AcDbBlockRepETag
1070
     1
1071
        9
1005
1B168
1001
ACAD
1000
ACAD_MTEXT_DEFINED_HEIGHT_BEGIN
1070
    46
1040
6.751777928266487
1000
ACAD_MTEXT_DEFINED_HEIGHT_END
  0
MTEXT
  5
1B169
330
10FE8
100
AcDbEntity
  8
图框
 62
     3
100
AcDbMText
 10
1012.477254728976
 20
499.7664151964291
 30
0.0
 40
2.985513575034151
 41
17.64876416884615
 46
6.292658374511397
 71
     5
 72
     5
  1
-
  7
Romans字体
 73
     1
 44
1.0
1001
AcDbBlockRepETag
1070
     1
1071
       10
1005
1B169
1001
ACAD
1000
ACAD_MTEXT_DEFINED_HEIGHT_BEGIN
1070
    46
1040
6.292658374511397
1000
ACAD_MTEXT_DEFINED_HEIGHT_END
  0
MTEXT
  5
1B16A
330
10FE8
100
AcDbEntity
  8
图框
 62
     3
100
AcDbMText
 10
1028.977802139886
 20
499.7664151964289
 30
0.0
 40
2.487927979195124
 41
15.35233065297265
 46
6.292658374511382
 71
     5
 72
     5
  1
-
  7
Romans字体
 73
     1
 44
1.0
1001
AcDbBlockRepETag
1070
     1
1071
       11
1005
1B16A
1001
ACAD
1000
ACAD_MTEXT_DEFINED_HEIGHT_BEGIN
1070
    46
1040
6.292658374511382
1000
ACAD_MTEXT_DEFINED_HEIGHT_END
  0
MTEXT
  5
1B16B
330
10FE8
100
AcDbEntity
  8
图框
 62
     3
100
AcDbMText
 10
967.6594956750133
 20
487.1810984474071
 30
0.0
 40
2.985513575034151
 41
15.50176341157863
 46
6.292658374511478
 71
     5
 72
     5
  1
-
  7
Romans字体
 73
     1
 44
1.0
1001
AcDbBlockRepETag
1070
     1
1071
       12
1005
1B16B
1001
ACAD
1000
ACAD_MTEXT_DEFINED_HEIGHT_BEGIN
1070
    46
1040
6.292658374511478
1000
ACAD_MTEXT_DEFINED_HEIGHT_END
  0
MTEXT
  5
1B16C
330
10FE8
100
AcDbEntity
  8
图框
 62
     3
100
AcDbMText
 10
983.041569333247
 20
487.1810984474071
 30
0.0
 40
2.487927979195124
 41
15.26238390489062
 46
6.292658374511495
 71
     5
 72
     5
  1
-
  7
Romans字体
 73
     1
 44
1.0
1001
AcDbBlockRepETag
1070
     1
1071
       13
1005
1B16C
1001
ACAD
1000
ACAD_MTEXT_DEFINED_HEIGHT_BEGIN
1070
    46
1040
6.292658374511495
1000
ACAD_MTEXT_DEFINED_HEIGHT_END
  0
MTEXT
  5
1B16D
330
10FE8
100
AcDbEntity
  8
图框
 62
     3
100
AcDbMText
 10
1074.556686986741
 20
495.8417418993361
 30
0.0
 40
2.985513575034151
 41
10.82934843438978
 46
7.886094601210427
 71
     5
 72
     5
  1
-
  7
Romans字体
 73
     1
 44
1.0
1001
AcDbBlockRepETag
1070
     1
1071
       14
1005
1B16D
1001
ACAD
1000
ACAD_MTEXT_DEFINED_HEIGHT_BEGIN
1070
    46
1040
7.886094601210427
1000
ACAD_MTEXT_DEFINED_HEIGHT_END
  0
LINE
  5
1B16E
330
10FE8
100
AcDbEntity
  8
图框
370
    -3
100
AcDbLine
 10
1036.653967466372
 20
499.7847891999413
 30
0.0
 11
1079.971361203936
 21
499.7847891999413
 31
0.0
1001
AcDbBlockRepETag
1070
     1
1071
       15
1005
1B16E
  0
MTEXT
  5
1B16F
330
10FE8
100
AcDbEntity
  8
图框
 62
     1
370
    20
100
AcDbMText
 10
1108.26336443907
 20
491.5162596080882
 30
0.0
 40
2.699054613030988
 41
82.30831305643079
 46
0.0
 71
     5
 72
     5
  1
{\fSimHei|b0|i0|c134|p2;厦门唯恩电气有限公司}
 73
     1
 44
1.0
1001
AcDbBlockRepETag
1070
     1
1071
       16
1005
1B16F
  0
MTEXT
  5
1B170
330
10FE8
100
AcDbEntity
  8
图框
 62
     3
370
    20
100
AcDbMText
 10
1108.435451459908
 20
487.298967726064
 30
0.0
 40
1.652482416141417
 41
68.08558693693567
 46
0.0
 71
     5
 72
     5
  1
{\fArial Narrow|b0|i0|c0|p34;XIAMEN WAIN ELECTRICAL CO.LTD}
  7
工程字
 73
     1
 44
1.0
1001
AcDbBlockRepETag
1070
     1
1071
       17
1005
1B170
  0
MTEXT
  5
1B171
330
10FE8
100
AcDbEntity
  8
图框
 62
     1
370
    20
100
AcDbMText
 10
1085.711816899387
 20
491.0944802995856
 30
0.0
 40
2.005930044038334
 41
5.047240019334847
 46
0.0
 71
     1
 72
     5
  1
{\fArial|b0|i0|c0|p34;A}
  7
Chinese
 73
     1
 44
1.0
1001
AcDbBlockRepETag
1070
     1
1071
       18
1005
1B171
  0
MTEXT
  5
1B172
330
10FE8
100
AcDbEntity
  8
图框
 62
     1
370
    20
100
AcDbMText
 10
1088.213485935716
 20
491.0944802995856
 30
0.0
 40
2.005930044038334
 41
5.047240019334847
 46
0.0
 71
     1
 72
     5
  1
{\fArial|b0|i0|c0|p34;I}
  7
Chinese
 73
     1
 44
1.0
1001
AcDbBlockRepETag
1070
     1
1071
       19
1005
1B172
  0
MTEXT
  5
1B173
330
10FE8
100
AcDbEntity
  8
图框
 62
     1
370
    20
100
AcDbMText
 10
1089.142375222864
 20
491.0822866326808
 30
0.0
 40
2.005930044038334
 41
5.047240019334847
 46
0.0
 71
     1
 72
     5
  1
{\fArial|b0|i0|c0|p34;N}
  7
Chinese
 73
     1
 44
1.0
1001
AcDbBlockRepETag
1070
     1
1071
       20
1005
1B173
  0
MTEXT
  5
1B174
330
10FE8
100
AcDbEntity
  8
图框
100
AcDbMText
 10
1069.142012769545
 20
487.9667319294409
 30
0.0
 40
2.252848170144607
 41
21.65869686878327
 46
7.863925338579296
 71
     5
 72
     5
  1
{\W0.5;\C1;All Dimensions in mm\POriginal Size DIN A 4}
  7
Romans字体
 73
     1
 44
1.0
1001
AcDbBlockRepETag
1070
     1
1071
       21
1005
1B174
1001
ACAD
1000
ACAD_MTEXT_DEFINED_HEIGHT_BEGIN
1070
    46
1040
7.863925338579296
1000
ACAD_MTEXT_DEFINED_HEIGHT_END
  0
MTEXT
  5
1B175
330
10FE8
100
AcDbEntity
  8
图框
  6
ByBlock
 62
     6
370
    18
100
AcDbMText
 10
1127.40434942308
 20
508.7896535755975
 30
0.0
 40
2.651776162684904
 41
2.557913877927211
 46
0.0
 71
     1
 72
     5
  1
A
  7
Romans字体
 11
0.0000000000000001
 21
1.0
 31
0.0
 73
     1
 44
1.0
1001
AcDbBlockRepETag
1070
     1
1071
       22
1005
1B175
  0
MTEXT
  5
1B176
330
10FE8
100
AcDbEntity
  8
图框
 62
     6
100
AcDbMText
 10
1127.40434942308
 20
556.3746573232886
 30
0.0
 40
2.651776162684904
 41
2.557913877927211
 46
0.0
 71
     1
 72
     5
  1
B
  7
Romans字体
 11
0.0000000000000001
 21
1.0
 31
0.0
 73
     1
 44
1.0
1001
AcDbBlockRepETag
1070
     1
1071
       23
1005
1B176
  0
MTEXT
  5
1B177
330
10FE8
100
AcDbEntity
  8
图框
 62
     6
100
AcDbMText
 10
1127.40434942308
 20
607.5539372630998
 30
0.0
 40
2.651776162684904
 41
2.557913877927211
 46
0.0
 71
     1
 72
     5
  1
C
  7
Romans字体
 11
0.0000000000000001
 21
1.0
 31
0.0
 73
     1
 44
1.0
1001
AcDbBlockRepETag
1070
     1
1071
       24
1005
1B177
  0
MTEXT
  5
1B178
330
10FE8
100
AcDbEntity
  8
图框
 62
     6
100
AcDbMText
 10
1127.40434942308
 20
658.7332172029115
 30
0.0
 40
2.651776162684904
 41
2.557913877927211
 46
0.0
 71
     1
 72
     5
  1
D
  7
Romans字体
 11
0.0000000000000001
 21
1.0
 31
0.0
 73
     1
 44
1.0
1001
AcDbBlockRepETag
1070
     1
1071
       25
1005
1B178
  0
LINE
  5
1B179
330
10FE8
100
AcDbEntity
  8
图框
 62
     6
100
AcDbLine
 10
1130.411601781241
 20
634.0726090796082
 30
0.0
 11
1126.928502610363
 21
634.0726090796082
 31
0.0
1001
AcDbBlockRepETag
1070
     1
1071
       26
1005
1B179
  0
LINE
  5
1B17A
330
10FE8
100
AcDbEntity
  8
图框
 62
     6
100
AcDbLine
 10
1130.411601781241
 20
582.89332913979
 30
0.0
 11
1126.928502610363
 21
582.89332913979
 31
0.0
1001
AcDbBlockRepETag
1070
     1
1071
       27
1005
1B17A
  0
MTEXT
  5
1B17B
330
10FE8
100
AcDbEntity
  8
图框
 62
     6
100
AcDbMText
 10
1105.329704038389
 20
483.6164543011163
 30
0.0
 40
2.651776162684904
 41
2.557913877927211
 46
0.0
 71
     1
 72
     5
  1
6
  7
Romans字体
 73
     1
 44
1.0
1001
AcDbBlockRepETag
1070
     1
1071
       28
1005
1B17B
  0
LINE
  5
1B17C
330
10FE8
100
AcDbEntity
  8
图框
 62
     6
100
AcDbLine
 10
1081.088565155284
 20
484.0347692601515
 30
0.0
 11
1081.088565155284
 21
480.5347692601475
 31
0.0
1001
AcDbBlockRepETag
1070
     1
1071
       29
1005
1B17C
  0
MTEXT
  5
1B17D
330
10FE8
100
AcDbEntity
  8
图框
 62
     6
100
AcDbMText
 10
1055.900596365941
 20
483.520053108993
 30
0.0
 40
2.651776162684904
 41
2.557913877927211
 46
0.0
 71
     1
 72
     5
  1
5
  7
Romans字体
 73
     1
 44
1.0
1001
AcDbBlockRepETag
1070
     1
1071
       30
1005
1B17D
  0
LINE
  5
1B17E
330
10FE8
100
AcDbEntity
  8
图框
 62
     6
100
AcDbLine
 10
1031.553386436349
 20
484.0347692601515
 30
0.0
 11
1031.553386436349
 21
480.5347692601475
 31
0.0
1001
AcDbBlockRepETag
1070
     1
1071
       31
1005
1B17E
  0
MTEXT
  5
1B17F
330
10FE8
100
AcDbEntity
  8
图框
 62
     6
100
AcDbMText
 10
1006.383180575197
 20
483.5687958215896
 30
0.0
 40
2.651776162684904
 41
2.557913877927211
 46
0.0
 71
     1
 72
     5
  1
4
  7
Romans字体
 73
     1
 44
1.0
1001
AcDbBlockRepETag
1070
     1
1071
       32
1005
1B17F
  0
LINE
  5
1B180
330
10FE8
100
AcDbEntity
  8
图框
 62
     6
100
AcDbLine
 10
982.0182077173887
 20
484.0347692601515
 30
0.0
 11
982.0182077173887
 21
480.5347692601475
 31
0.0
1001
AcDbBlockRepETag
1070
     1
1071
       33
1005
1B180
  0
MTEXT
  5
1B181
330
10FE8
100
AcDbEntity
  8
图框
 62
     6
100
AcDbMText
 10
956.8302389280352
 20
483.5989680297948
 30
0.0
 40
2.651776162684904
 41
2.557913877927211
 46
0.0
 71
     1
 72
     5
  1
3
  7
Romans字体
 73
     1
 44
1.0
1001
AcDbBlockRepETag
1070
     1
1071
       34
1005
1B181
  0
LINE
  5
1B182
330
10FE8
100
AcDbEntity
  8
图框
 62
     6
100
AcDbLine
 10
932.4830289984245
 20
484.0347692601515
 30
0.0
 11
932.4830289984245
 21
480.5347692601475
 31
0.0
1001
AcDbBlockRepETag
1070
     1
1071
       35
1005
1B182
  0
MTEXT
  5
1B183
330
10FE8
100
AcDbEntity
  8
图框
 62
     6
100
AcDbMText
 10
906.0252349826365
 20
483.6475250013156
 30
0.0
 40
2.651776162684904
 41
2.557913877927211
 46
0.0
 71
     1
 72
     5
  1
2
  7
Romans字体
 73
     1
 44
1.0
1001
AcDbBlockRepETag
1070
     1
1071
       36
1005
1B183
  0
LINE
  5
1B184
330
10FE8
100
AcDbEntity
  8
图框
 62
     6
100
AcDbLine
 10
882.9478502794648
 20
484.0347692601515
 30
0.0
 11
882.9478502794648
 21
480.5347692601475
 31
0.0
1001
AcDbBlockRepETag
1070
     1
1071
       37
1005
1B184
  0
MTEXT
  5
1B185
330
10FE8
100
AcDbEntity
  8
图框
 62
     6
100
AcDbMText
 10
857.7598814901191
 20
483.651829494754
 30
0.0
 40
2.651776162684904
 41
2.557913877927211
 46
0.0
 71
     1
 72
     5
  1
1
  7
Romans字体
 73
     1
 44
1.0
1001
AcDbBlockRepETag
1070
     1
1071
       38
1005
1B185
  0
LINE
  5
1B186
330
10FE8
100
AcDbEntity
  8
图框
370
    50
100
AcDbLine
 10
836.8548209370597
 20
484.0347692601515
 30
0.0
 11
1126.928502610363
 21
484.0347692601515
 31
0.0
1001
AcDbBlockRepETag
1070
     1
1071
       39
1005
1B186
  0
LINE
  5
1B187
330
10FE8
100
AcDbEntity
  8
图框
370
    50
100
AcDbLine
 10
836.9128518455362
 20
484.0178684310246
 30
0.0
 11
836.9128518455394
 21
675.0207195125422
 31
0.0
1001
AcDbBlockRepETag
1070
     1
1071
       40
1005
1B187
  0
MTEXT
  5
1B188
330
10FE8
100
AcDbEntity
  8
图框
 62
     6
100
AcDbMText
 10
833.8475685789031
 20
658.7332172029115
 30
0.0
 40
2.651776162684904
 41
2.557913877927211
 46
0.0
 71
     1
 72
     5
  1
D
  7
Romans字体
 11
0.0000000000000001
 21
1.0
 31
0.0
 73
     1
 44
1.0
1001
AcDbBlockRepETag
1070
     1
1071
       41
1005
1B188
  0
LINE
  5
1B189
330
10FE8
100
AcDbEntity
  8
图框
 62
     6
100
AcDbLine
 10
836.9128518455386
 20
634.0726090796082
 30
0.0
 11
833.4128518455365
 21
634.0726090796082
 31
0.0
1001
AcDbBlockRepETag
1070
     1
1071
       42
1005
1B189
  0
MTEXT
  5
1B18A
330
10FE8
100
AcDbEntity
  8
图框
 62
     6
100
AcDbMText
 10
833.9039177480142
 20
607.5539372630998
 30
0.0
 40
2.651776162684904
 41
2.557913877927211
 46
0.0
 71
     1
 72
     5
  1
C
  7
Romans字体
 11
0.0000000000000001
 21
1.0
 31
0.0
 73
     1
 44
1.0
1001
AcDbBlockRepETag
1070
     1
1071
       43
1005
1B18A
  0
LINE
  5
1B18B
330
10FE8
100
AcDbEntity
  8
图框
 62
     6
100
AcDbLine
 10
836.9128518455378
 20
582.89332913979
 30
0.0
 11
833.4128518455365
 21
582.89332913979
 31
0.0
1001
AcDbBlockRepETag
1070
     1
1071
       44
1005
1B18B
  0
MTEXT
  5
1B18C
330
10FE8
100
AcDbEntity
  8
图框
 62
     6
100
AcDbMText
 10
833.9039177480142
 20
556.3746573232886
 30
0.0
 40
2.651776162684904
 41
2.557913877927211
 46
0.0
 71
     1
 72
     5
  1
B
  7
Romans字体
 11
0.0000000000000001
 21
1.0
 31
0.0
 73
     1
 44
1.0
1001
AcDbBlockRepETag
1070
     1
1071
       45
1005
1B18C
  0
LINE
  5
1B18D
330
10FE8
100
AcDbEntity
  8
图框
 62
     6
100
AcDbLine
 10
836.9128518455367
 20
531.714049199969
 30
0.0
 11
833.4128518455365
 21
531.714049199969
 31
0.0
1001
AcDbBlockRepETag
1070
     1
1071
       46
1005
1B18D
  0
MTEXT
  5
1B18E
330
10FE8
100
AcDbEntity
  8
图框
 62
     6
100
AcDbMText
 10
833.9039177480142
 20
508.7896535755975
 30
0.0
 40
2.651776162684904
 41
2.557913877927211
 46
0.0
 71
     1
 72
     5
  1
A
  7
Romans字体
 11
0.0000000000000001
 21
1.0
 31
0.0
 73
     1
 44
1.0
1001
AcDbBlockRepETag
1070
     1
1071
       47
1005
1B18E
  0
LINE
  5
1B18F
330
10FE8
100
AcDbEntity
  8
图框
370
    -3
100
AcDbLine
 10
836.9128518455394
 20
675.0207195125422
 30
0.0
 11
836.9128518455394
 21
684.5021384922564
 31
0.0
1001
AcDbBlockRepETag
1070
     1
1071
       48
1005
1B18F
  0
LINE
  5
1B190
330
10FE8
100
AcDbEntity
  8
图框
370
    -3
100
AcDbLine
 10
842.6237321475781
 20
675.5347692601515
 30
0.0
 11
842.6237321475781
 21
685.0161882398658
 31
0.0
1001
AcDbBlockRepETag
1070
     1
1071
       49
1005
1B190
  0
LINE
  5
1B191
330
10FE8
100
AcDbEntity
  8
图框
370
    -3
100
AcDbLine
 10
848.3346124496179
 20
675.5347692601515
 30
0.0
 11
848.3346124496179
 21
685.0161882398658
 31
0.0
1001
AcDbBlockRepETag
1070
     1
1071
       50
1005
1B191
  0
LINE
  5
1B192
330
10FE8
100
AcDbEntity
  8
图框
370
    -3
100
AcDbLine
 10
854.0454927516588
 20
675.5347692601515
 30
0.0
 11
854.0454927516588
 21
685.0161882398658
 31
0.0
1001
AcDbBlockRepETag
1070
     1
1071
       51
1005
1B192
  0
LINE
  5
1B193
330
10FE8
100
AcDbEntity
  8
图框
370
    -3
100
AcDbLine
 10
861.5351874539182
 20
675.5347692601515
 30
0.0
 11
861.5351874539182
 21
686.7901958362482
 31
0.0
1001
AcDbBlockRepETag
1070
     1
1071
       52
1005
1B193
  0
MTEXT
  5
1B194
330
10FE8
100
AcDbEntity
  8
图框
 62
     6
100
AcDbMText
 10
1105.329704038389
 20
678.859919059449
 30
0.0
 40
2.651776162684904
 41
2.557913877927211
 46
0.0
 71
     1
 72
     5
  1
6
  7
Romans字体
 73
     1
 44
1.0
1001
AcDbBlockRepETag
1070
     1
1071
       53
1005
1B194
  0
LINE
  5
1B195
330
10FE8
100
AcDbEntity
  8
图框
 62
     6
100
AcDbLine
 10
1081.088565155284
 20
679.0347692601516
 30
0.0
 11
1081.088565155284
 21
675.5347692601515
 31
0.0
1001
AcDbBlockRepETag
1070
     1
1071
       54
1005
1B195
  0
MTEXT
  5
1B196
330
10FE8
100
AcDbEntity
  8
图框
 62
     6
100
AcDbMText
 10
1055.900596365941
 20
678.859919059449
 30
0.0
 40
2.651776162684904
 41
2.557913877927211
 46
0.0
 71
     1
 72
     5
  1
5
  7
Romans字体
 73
     1
 44
1.0
1001
AcDbBlockRepETag
1070
     1
1071
       55
1005
1B196
  0
LINE
  5
1B197
330
10FE8
100
AcDbEntity
  8
图框
 62
     6
100
AcDbLine
 10
1031.553386436349
 20
679.0347692601516
 30
0.0
 11
1031.553386436349
 21
675.5347692601515
 31
0.0
1001
AcDbBlockRepETag
1070
     1
1071
       56
1005
1B197
  0
MTEXT
  5
1B198
330
10FE8
100
AcDbEntity
  8
图框
 62
     6
100
AcDbMText
 10
1006.36541764698
 20
678.7312083656147
 30
0.0
 40
2.651776162684904
 41
2.557913877927211
 46
0.0
 71
     1
 72
     5
  1
4
  7
Romans字体
 73
     1
 44
1.0
1001
AcDbBlockRepETag
1070
     1
1071
       57
1005
1B198
  0
LINE
  5
1B199
330
10FE8
100
AcDbEntity
  8
图框
 62
     6
100
AcDbLine
 10
982.0182077173887
 20
679.0347692601516
 30
0.0
 11
982.0182077173887
 21
675.5347692601515
 31
0.0
1001
AcDbBlockRepETag
1070
     1
1071
       58
1005
1B199
  0
MTEXT
  5
1B19A
330
10FE8
100
AcDbEntity
  8
图框
 62
     6
100
AcDbMText
 10
956.8302389280352
 20
678.859919059449
 30
0.0
 40
2.651776162684904
 41
2.557913877927211
 46
0.0
 71
     1
 72
     5
  1
3
  7
Romans字体
 73
     1
 44
1.0
1001
AcDbBlockRepETag
1070
     1
1071
       59
1005
1B19A
  0
LINE
  5
1B19B
330
10FE8
100
AcDbEntity
  8
图框
 62
     6
100
AcDbLine
 10
932.4830289984245
 20
679.0347692601516
 30
0.0
 11
932.4830289984245
 21
675.5347692601515
 31
0.0
1001
AcDbBlockRepETag
1070
     1
1071
       60
1005
1B19B
  0
MTEXT
  5
1B19C
330
10FE8
100
AcDbEntity
  8
图框
 62
     6
100
AcDbMText
 10
907.295060209082
 20
678.859919059449
 30
0.0
 40
2.651776162684904
 41
2.557913877927211
 46
0.0
 71
     1
 72
     5
  1
2
  7
Romans字体
 73
     1
 44
1.0
1001
AcDbBlockRepETag
1070
     1
1071
       61
1005
1B19C
  0
LINE
  5
1B19D
330
10FE8
100
AcDbEntity
  8
图框
 62
     6
100
AcDbLine
 10
882.9478502794648
 20
678.7962435131815
 30
0.0
 11
882.9478502794648
 21
675.5347692601515
 31
0.0
1001
AcDbBlockRepETag
1070
     1
1071
       62
1005
1B19D
  0
MTEXT
  5
1B19E
330
10FE8
100
AcDbEntity
  8
图框
 62
     6
100
AcDbMText
 10
862.6286629643733
 20
678.859919059449
 30
0.0
 40
2.651776162684904
 41
2.557913877927211
 46
0.0
 71
     1
 72
     5
  1
1
  7
Romans字体
 73
     1
 44
1.0
1001
AcDbBlockRepETag
1070
     1
1071
       63
1005
1B19E
  0
LINE
  5
1B19F
330
10FE8
100
AcDbEntity
  8
图框
370
    -3
100
AcDbLine
 10
836.9128518455394
 20
675.0207195125422
 30
0.0
 11
836.9128518455394
 21
686.7901958362482
 31
0.0
1001
AcDbBlockRepETag
1070
     1
1071
       64
1005
1B19F
  0
LINE
  5
1B1A0
330
10FE8
100
AcDbEntity
  8
图框
370
    50
100
AcDbLine
 10
836.9128518455394
 20
675.5347692601515
 30
0.0
 11
1126.928502610363
 21
675.5347692601515
 31
0.0
1001
AcDbBlockRepETag
1070
     1
1071
       65
1005
1B1A0
  0
LINE
  5
1B1A1
330
10FE8
100
AcDbEntity
  8
图框
370
    -3
100
AcDbLine
 10
842.6237321475781
 20
675.5347692601515
 30
0.0
 11
842.6237321475781
 21
686.7901958362482
 31
0.0
1001
AcDbBlockRepETag
1070
     1
1071
       66
1005
1B1A1
  0
LINE
  5
1B1A2
330
10FE8
100
AcDbEntity
  8
图框
370
    -3
100
AcDbLine
 10
848.3346124496179
 20
675.5347692601515
 30
0.0
 11
848.3346124496179
 21
686.7901958362482
 31
0.0
1001
AcDbBlockRepETag
1070
     1
1071
       67
1005
1B1A2
  0
MTEXT
  5
1B1A3
102
{ACAD_XDICTIONARY
360
1B219
102
}
330
10FE8
100
AcDbEntity
  8
图框
100
AcDbMText
 10
857.7903401027889
 20
686.7901958362482
 30
0.0
 40
1.958998408821398
 41
11.25542657609672
 46
7.489694702258906
 71
     4
 72
     5
  1
\pi2.8203;档案员{\H0.7x;\P\pi1.4159;\Fromans|c134;Filing Clerk\fFangSong_GB2312|b0|i0|c134|p49; }
 11
-0.0000000000000002
 21
-1.0
 31
0.0
 73
     1
 44
1.0
1001
AcDbBlockRepETag
1070
     1
1071
       68
1005
1B1A3
1001
ACAD
1000
ACAD_MTEXT_DEFINED_HEIGHT_BEGIN
1070
    46
1040
7.489694702258906
1000
ACAD_MTEXT_DEFINED_HEIGHT_END
  0
MTEXT
  5
1B1A4
102
{ACAD_XDICTIONARY
360
1B21B
102
}
330
10FE8
100
AcDbEntity
  8
图框
100
AcDbMText
 10
845.479172298598
 20
686.7901958362482
 30
0.0
 40
1.958998408821398
 41
11.25542657609672
 46
5.710880302039671
 71
     4
 72
     5
  1
\pi0.7115;日期{\Fromans|c134;/Date}
 11
-0.0000000000000002
 21
-1.0
 31
0.0
 73
     1
 44
1.0
1001
AcDbBlockRepETag
1070
     1
1071
       69
1005
1B1A4
1001
ACAD
1000
ACAD_MTEXT_DEFINED_HEIGHT_BEGIN
1070
    46
1040
5.710880302039671
1000
ACAD_MTEXT_DEFINED_HEIGHT_END
  0
LINE
  5
1B1A5
330
10FE8
100
AcDbEntity
  8
图框
370
    -3
100
AcDbLine
 10
854.0454927516588
 20
675.5347692601515
 30
0.0
 11
854.0454927516588
 21
686.7901958362482
 31
0.0
1001
AcDbBlockRepETag
1070
     1
1071
       70
1005
1B1A5
  0
LINE
  5
1B1A6
330
10FE8
100
AcDbEntity
  8
图框
370
    -3
100
AcDbLine
 10
1036.653967466372
 20
531.3291676047914
 30
0.0
 11
1036.653967466372
 21
484.0126019753161
 31
0.0
1001
AcDbBlockRepETag
1070
     1
1071
       71
1005
1B1A6
  0
LINE
  5
1B1A7
330
10FE8
100
AcDbEntity
  8
图框
370
    -3
100
AcDbLine
 10
1047.483315900763
 20
507.6708838011533
 30
0.0
 11
1047.483315900763
 21
491.8986945987308
 31
0.0
1001
AcDbBlockRepETag
1070
     1
1071
       72
1005
1B1A7
  0
LINE
  5
1B1A8
330
10FE8
100
AcDbEntity
  8
图框
370
    -3
100
AcDbLine
 10
1058.312664335153
 20
507.6708838011533
 30
0.0
 11
1058.312664335153
 21
484.0347692601515
 31
0.0
1001
AcDbBlockRepETag
1070
     1
1071
       73
1005
1B1A8
  0
LINE
  5
1B1A9
330
10FE8
100
AcDbEntity
  8
图框
370
    25
100
AcDbLine
 10
1048.474135214456
 20
488.1095628329926
 30
0.0
 11
1054.946420288459
 21
488.1095628329926
 31
0.0
1001
AcDbBlockRepETag
1070
     1
1071
       74
1005
1B1A9
  0
LINE
  5
1B1AA
330
10FE8
100
AcDbEntity
  8
图框
370
    25
100
AcDbLine
 10
1054.232527365989
 20
487.0761716842634
 30
0.0
 11
1049.156490914508
 21
486.4576273751
 31
0.0
1001
AcDbBlockRepETag
1070
     1
1071
       75
1005
1B1AA
  0
LINE
  5
1B1AB
330
10FE8
100
AcDbEntity
  8
图框
370
    25
100
AcDbLine
 10
1054.232527365989
 20
489.1429539817209
 30
0.0
 11
1049.156490914508
 21
489.7614982908846
 31
0.0
1001
AcDbBlockRepETag
1070
     1
1071
       76
1005
1B1AB
  0
LINE
  5
1B1AC
330
10FE8
100
AcDbEntity
  8
图框
370
    25
100
AcDbLine
 10
1049.156490914508
 20
489.7614982908846
 30
0.0
 11
1049.156490914508
 21
486.4576273751
 31
0.0
1001
AcDbBlockRepETag
1070
     1
1071
       77
1005
1B1AC
  0
LINE
  5
1B1AD
330
10FE8
100
AcDbEntity
  8
图框
370
    25
100
AcDbLine
 10
1054.232527365989
 20
489.1429539817209
 30
0.0
 11
1054.232527365989
 21
487.0761716842634
 31
0.0
1001
AcDbBlockRepETag
1070
     1
1071
       78
1005
1B1AD
  0
CIRCLE
  5
1B1AE
330
10FE8
100
AcDbEntity
  8
图框
370
    25
100
AcDbCircle
 10
1042.502700458579
 20
488.1095628329926
 30
0.0
 40
1.651935457891863
1001
AcDbBlockRepETag
1070
     1
1071
       79
1005
1B1AE
  0
CIRCLE
  5
1B1AF
330
10FE8
100
AcDbEntity
  8
图框
370
    25
100
AcDbCircle
 10
1042.502700458579
 20
488.1095628329926
 30
0.0
 40
1.033391148728775
1001
AcDbBlockRepETag
1070
     1
1071
       80
1005
1B1AF
  0
LINE
  5
1B1B0
330
10FE8
100
AcDbEntity
  8
图框
370
    25
100
AcDbLine
 10
1040.136872078216
 20
488.1095628329926
 30
0.0
 11
1044.868528838943
 21
488.1095628329926
 31
0.0
1001
AcDbBlockRepETag
1070
     1
1071
       81
1005
1B1B0
  0
LINE
  5
1B1B1
330
10FE8
100
AcDbEntity
  8
图框
370
    25
100
AcDbLine
 10
1042.502700458579
 20
490.475391213355
 30
0.0
 11
1042.502700458579
 21
485.743734452629
 31
0.0
1001
AcDbBlockRepETag
1070
     1
1071
       82
1005
1B1B1
  0
LINE
  5
1B1B2
330
10FE8
100
AcDbEntity
  8
图框
370
    -3
100
AcDbLine
 10
1069.142012769546
 20
507.6708838011533
 30
0.0
 11
1069.142012769546
 21
491.8986945987308
 31
0.0
1001
AcDbBlockRepETag
1070
     1
1071
       83
1005
1B1B2
  0
MTEXT
  5
1B1B3
330
10FE8
100
AcDbEntity
  8
图框
100
AcDbMText
 10
1086.643735910939
 20
526.8006839312707
 30
0.0
 40
2.154898249703542
 41
13.34474941400573
 46
9.056967347041775
 71
     5
 72
     5
  1
图号{\Ftxt|c134;\P\Fromans|c134;\W0.65;Drawing No.}
 73
     1
 44
1.0
1001
AcDbBlockRepETag
1070
     1
1071
       84
1005
1B1B3
1001
ACAD
1000
ACAD_MTEXT_DEFINED_HEIGHT_BEGIN
1070
    46
1040
9.056967347041775
1000
ACAD_MTEXT_DEFINED_HEIGHT_END
  0
LINE
  5
1B1B4
330
10FE8
100
AcDbEntity
  8
图框
370
    -3
100
AcDbLine
 10
1093.316110617942
 20
531.3291676047914
 30
0.0
 11
1093.316110617942
 21
495.8417418993347
 31
0.0
1001
AcDbBlockRepETag
1070
     1
1071
       85
1005
1B1B4
  0
LINE
  5
1B1B5
330
10FE8
100
AcDbEntity
  8
图框
370
    -3
100
AcDbLine
 10
1047.473969770481
 20
531.3291676047914
 30
0.0
 11
1047.473969770481
 21
507.6708838011533
 31
0.0
1001
AcDbBlockRepETag
1070
     1
1071
       86
1005
1B1B5
  0
MTEXT
  5
1B1B6
330
10FE8
100
AcDbEntity
  8
图框
100
AcDbMText
 10
1063.72733855235
 20
503.7278365005473
 30
0.0
 40
2.252848170144607
 41
10.82934843439208
 46
7.886094601212128
 71
     5
 72
     5
  1
重量\P{\Fromans|c134;Weight}
 73
     1
 44
1.0
1001
AcDbBlockRepETag
1070
     1
1071
       87
1005
1B1B6
1001
ACAD
1000
ACAD_MTEXT_DEFINED_HEIGHT_BEGIN
1070
    46
1040
7.886094601212128
1000
ACAD_MTEXT_DEFINED_HEIGHT_END
  0
LINE
  5
1B1B7
330
10FE8
100
AcDbEntity
  8
图框
370
    -3
100
AcDbLine
 10
1036.653967466372
 20
519.5000257029746
 30
0.0
 11
1079.971361203936
 21
519.5000257029746
 31
0.0
1001
AcDbBlockRepETag
1070
     1
1071
       88
1005
1B1B7
  0
MTEXT
  5
1B1B8
330
10FE8
100
AcDbEntity
  8
图框
100
AcDbMText
 10
1074.556686986741
 20
503.7278365005473
 30
0.0
 40
2.252848170144607
 41
10.82934843438984
 46
7.886094601212141
 71
     5
 72
     5
  1
数量\P{\Fromans|c134;Qty.}
 73
     1
 44
1.0
1001
AcDbBlockRepETag
1070
     1
1071
       89
1005
1B1B8
1001
ACAD
1000
ACAD_MTEXT_DEFINED_HEIGHT_BEGIN
1070
    46
1040
7.886094601212141
1000
ACAD_MTEXT_DEFINED_HEIGHT_END
  0
LINE
  5
1B1B9
330
10FE8
100
AcDbEntity
  8
图框
370
    -3
100
AcDbLine
 10
1079.971361203936
 20
495.8417418993347
 30
0.0
 11
1126.928502610363
 21
495.8417418993342
 31
0.0
1001
AcDbBlockRepETag
1070
     1
1071
       90
1005
1B1B9
  0
LINE
  5
1B1BA
330
10FE8
100
AcDbEntity
  8
图框
370
    -3
100
AcDbLine
 10
1079.971361203936
 20
504.7132992040975
 30
0.0
 11
1126.928502610363
 21
504.7132992040975
 31
0.0
1001
AcDbBlockRepETag
1070
     1
1071
       91
1005
1B1BA
  0
MTEXT
  5
1B1BB
330
10FE8
100
AcDbEntity
  8
图框
100
AcDbMText
 10
1052.893317052817
 20
503.7278365005473
 30
0.0
 40
2.252848170144607
 41
10.83869456467139
 46
7.886094601212101
 71
     5
 72
     5
  1
版本\P{\Fromans|c134;REV.}
 73
     1
 44
1.0
1001
AcDbBlockRepETag
1070
     1
1071
       92
1005
1B1BB
1001
ACAD
1000
ACAD_MTEXT_DEFINED_HEIGHT_BEGIN
1070
    46
1040
7.886094601212101
1000
ACAD_MTEXT_DEFINED_HEIGHT_END
  0
MTEXT
  5
1B1BC
330
10FE8
100
AcDbEntity
  8
图框
100
AcDbMText
 10
1042.068641683568
 20
503.7278365005473
 30
0.0
 40
2.252848170144607
 41
10.8293484343908
 46
7.886094601212136
 71
     5
 72
     5
  1
比例\P{\Fromans|c134;Scale}
 73
     1
 44
1.0
1001
AcDbBlockRepETag
1070
     1
1071
       93
1005
1B1BC
1001
ACAD
1000
ACAD_MTEXT_DEFINED_HEIGHT_BEGIN
1070
    46
1040
7.886094601212136
1000
ACAD_MTEXT_DEFINED_HEIGHT_END
  0
LINE
  5
1B1BD
330
10FE8
100
AcDbEntity
  8
图框
370
    -3
100
AcDbLine
 10
1036.653967466372
 20
507.6708838011533
 30
0.0
 11
1079.971361203936
 21
507.6708838011533
 31
0.0
1001
AcDbBlockRepETag
1070
     1
1071
       94
1005
1B1BD
  0
LINE
  5
1B1BE
330
10FE8
100
AcDbEntity
  8
图框
370
    -3
100
AcDbLine
 10
1036.653967466372
 20
491.8986945987308
 30
0.0
 11
1079.971361203936
 21
491.8986945987308
 31
0.0
1001
AcDbBlockRepETag
1070
     1
1071
       95
1005
1B1BE
  0
LINE
  5
1B1BF
330
10FE8
100
AcDbEntity
  8
图框
370
    -3
100
AcDbLine
 10
1079.971361203936
 20
531.3291676047914
 30
0.0
 11
1079.971361203936
 21
484.0125999975168
 31
0.0
1001
AcDbBlockRepETag
1070
     1
1071
       96
1005
1B1BF
  0
MTEXT
  5
1B1C0
330
10FE8
100
AcDbEntity
  8
图框
100
AcDbMText
 10
1042.063968618426
 20
525.4145966538832
 30
0.0
 40
2.252848170144607
 41
10.82000230410933
 46
11.82914190181708
 71
     5
 72
     5
  1
表面处理\P{\Fromans|c134;Finish}
 73
     1
 44
1.0
1001
AcDbBlockRepETag
1070
     1
1071
       97
1005
1B1C0
1001
ACAD
1000
ACAD_MTEXT_DEFINED_HEIGHT_BEGIN
1070
    46
1040
11.82914190181708
1000
ACAD_MTEXT_DEFINED_HEIGHT_END
  0
MTEXT
  5
1B1C1
330
10FE8
100
AcDbEntity
  8
图框
100
AcDbMText
 10
1042.063968618426
 20
513.5854547520639
 30
0.0
 40
2.252848170144607
 41
10.82000230410933
 46
11.8291419018212
 71
     5
 72
     5
  1
材料\P{\Fromans|c134;Material}
 73
     1
 44
1.0
1001
AcDbBlockRepETag
1070
     1
1071
       98
1005
1B1C1
1001
ACAD
1000
ACAD_MTEXT_DEFINED_HEIGHT_BEGIN
1070
    46
1040
11.8291419018212
1000
ACAD_MTEXT_DEFINED_HEIGHT_END
  0
LINE
  5
1B1C2
330
10FE8
100
AcDbEntity
  8
图框
370
    -3
100
AcDbLine
 10
1079.971361203936
 20
522.27220025775
 30
0.0
 11
1126.928502610363
 21
522.27220025775
 31
0.0
1001
AcDbBlockRepETag
1070
     1
1071
       99
1005
1B1C2
  0
LINE
  5
1B1C3
330
10FE8
100
AcDbEntity
  8
图框
370
    -3
100
AcDbLine
 10
1079.971361203936
 20
513.5854547520641
 30
0.0
 11
1126.928502610363
 21
513.5854547520639
 31
0.0
1001
AcDbBlockRepETag
1070
     1
1071
      100
1005
1B1C3
  0
MTEXT
  5
1B1C4
330
10FE8
100
AcDbEntity
  8
图框
100
AcDbMText
 10
1086.643735910939
 20
517.9288275049072
 30
0.0
 40
1.958998408821398
 41
13.34474941400573
 46
8.686745505685811
 71
     5
 72
     5
  1
产品代号\P{\Fromans|c134;Part Code}
 73
     1
 44
1.0
1001
AcDbBlockRepETag
1070
     1
1071
      101
1005
1B1C4
1001
ACAD
1000
ACAD_MTEXT_DEFINED_HEIGHT_BEGIN
1070
    46
1040
8.686745505685811
1000
ACAD_MTEXT_DEFINED_HEIGHT_END
  0
LINE
  5
1B1C5
330
10FE8
100
AcDbEntity
  8
图框
370
    -3
100
AcDbLine
 10
946.9285026103634
 20
525.7982263931411
 30
0.0
 11
1036.653967466372
 21
525.7982263931411
 31
0.0
1001
AcDbBlockRepETag
1070
     1
1071
      102
1005
1B1C5
  0
LINE
  5
1B1C6
330
10FE8
100
AcDbEntity
  8
图框
370
    -3
100
AcDbLine
 10
946.9285026103634
 20
520.2672851814959
 30
0.0
 11
1036.653967466372
 21
520.2672851814959
 31
0.0
1001
AcDbBlockRepETag
1070
     1
1071
      103
1005
1B1C6
  0
LINE
  5
1B1C7
330
10FE8
100
AcDbEntity
  8
图框
370
    35
100
AcDbLine
 10
946.9285026103634
 20
531.3291676047914
 30
0.0
 11
1126.928502610363
 21
531.3291676047914
 31
0.0
1001
AcDbBlockRepETag
1070
     1
1071
      104
1005
1B1C7
  0
LINE
  5
1B1C8
330
10FE8
100
AcDbEntity
  8
图框
370
    -3
100
AcDbLine
 10
990.6727612856927
 20
509.2054027581959
 30
0.0
 11
990.6727612856927
 21
484.0347692601515
 31
0.0
1001
AcDbBlockRepETag
1070
     1
1071
      105
1005
1B1C8
  0
MTEXT
  5
1B1C9
102
{ACAD_XDICTIONARY
360
1B21D
102
}
330
10FE8
100
AcDbEntity
  8
图框
100
AcDbMText
 10
997.1628169651232
 20
499.816589978722
 30
0.0
 40
2.252848170144607
 41
12.98011135886052
 46
6.19230880992475
 71
     5
 72
     5
  1
{\f仿宋_GB2312|b0|i0|c134|p49;标准化}\PStand.
  7
Romans字体
 73
     1
 44
1.0
1001
AcDbBlockRepETag
1070
     1
1071
      106
1005
1B1C9
1001
ACAD
1000
ACAD_MTEXT_DEFINED_HEIGHT_BEGIN
1070
    46
1040
6.19230880992475
1000
ACAD_MTEXT_DEFINED_HEIGHT_END
  0
LINE
  5
1B1CA
330
10FE8
100
AcDbEntity
  8
图框
370
    -3
100
AcDbLine
 10
975.4103773808022
 20
509.2054027581959
 30
0.0
 11
975.4103773808022
 21
484.0347692601515
 31
0.0
1001
AcDbBlockRepETag
1070
     1
1071
      107
1005
1B1CA
  0
MTEXT
  5
1B1CB
330
10FE8
100
AcDbEntity
  8
图框
100
AcDbMText
 10
984.5089229802068
 20
511.9708733640202
 30
0.0
 40
2.448748011026752
 41
38.287899328693
 46
5.530941211648832
 71
     5
 72
     5
  1
  变更描述{\Fromans|c134;/Description}
 73
     1
 44
1.0
1001
AcDbBlockRepETag
1070
     1
1071
      108
1005
1B1CB
1001
ACAD
1000
ACAD_MTEXT_DEFINED_HEIGHT_BEGIN
1070
    46
1040
5.530941211648832
1000
ACAD_MTEXT_DEFINED_HEIGHT_END
  0
MTEXT
  5
1B1CC
102
{ACAD_XDICTIONARY
360
1B21F
102
}
330
10FE8
100
AcDbEntity
  8
图框
100
AcDbMText
 10
1012.466086049227
 20
511.9708733640202
 30
0.0
 40
1.958998408821398
 41
17.6264268093469
 46
5.530941211648825
 71
     5
 72
     5
  1
签名\P{\Fromans|c134;Signature} 
 73
     1
 44
1.0
1001
AcDbBlockRepETag
1070
     1
1071
      109
1005
1B1CC
1001
ACAD
1000
ACAD_MTEXT_DEFINED_HEIGHT_BEGIN
1070
    46
1040
5.530941211648825
1000
ACAD_MTEXT_DEFINED_HEIGHT_END
  0
MTEXT
  5
1B1CD
102
{ACAD_XDICTIONARY
360
1B221
102
}
330
10FE8
100
AcDbEntity
  8
图框
100
AcDbMText
 10
960.7558556394856
 20
511.9708733640202
 30
0.0
 40
1.958998408821398
 41
9.218235352749283
 46
5.530941211648841
 71
     5
 72
     5
  1
处数\P{\Fromans|c134;Number }
 73
     1
 44
1.0
1001
AcDbBlockRepETag
1070
     1
1071
      110
1005
1B1CD
1001
ACAD
1000
ACAD_MTEXT_DEFINED_HEIGHT_BEGIN
1070
    46
1040
5.530941211648841
1000
ACAD_MTEXT_DEFINED_HEIGHT_END
  0
LINE
  5
1B1CE
330
10FE8
100
AcDbEntity
  8
图框
370
    -3
100
AcDbLine
 10
946.9285026103634
 20
514.7363439698449
 30
0.0
 11
1036.653967466372
 21
514.7363439698449
 31
0.0
1001
AcDbBlockRepETag
1070
     1
1071
      111
1005
1B1CE
  0
LINE
  5
1B1CF
330
10FE8
100
AcDbEntity
  8
图框
370
    -3
100
AcDbLine
 10
946.9285026103634
 20
509.2054027581959
 30
0.0
 11
1036.653967466372
 21
509.2054027581959
 31
0.0
1001
AcDbBlockRepETag
1070
     1
1071
      112
1005
1B1CF
  0
LINE
  5
1B1D0
330
10FE8
100
AcDbEntity
  8
图框
370
    -3
100
AcDbLine
 10
946.9285026103634
 20
502.9127443836848
 30
0.0
 11
1036.653967466372
 21
502.9127443836848
 31
0.0
1001
AcDbBlockRepETag
1070
     1
1071
      113
1005
1B1D0
  0
LINE
  5
1B1D1
330
10FE8
100
AcDbEntity
  8
图框
370
    -3
100
AcDbLine
 10
946.9285026103634
 20
496.620086009173
 30
0.0
 11
1036.653967466372
 21
496.620086009173
 31
0.0
1001
AcDbBlockRepETag
1070
     1
1071
      114
1005
1B1D1
  0
LINE
  5
1B1D2
330
10FE8
100
AcDbEntity
  8
图框
370
    35
380
     1
100
AcDbLine
 10
946.9285026103634
 20
531.3291676047914
 30
0.0
 11
946.9285026103634
 21
484.0347692601515
 31
0.0
1001
AcDbBlockRepETag
1070
     1
1071
      115
1005
1B1D2
  0
LINE
  5
1B1D3
330
10FE8
100
AcDbEntity
  8
图框
370
    -3
100
AcDbLine
 10
1021.301636813399
 20
531.3291676047914
 30
0.0
 11
1021.301636813399
 21
484.0347692601515
 31
0.0
1001
AcDbBlockRepETag
1070
     1
1071
      116
1005
1B1D3
  0
LINE
  5
1B1D4
330
10FE8
100
AcDbEntity
  8
图框
370
    -3
100
AcDbLine
 10
1003.652872644553
 20
531.3291676047914
 30
0.0
 11
1003.652872644553
 21
484.0347692601515
 31
0.0
1001
AcDbBlockRepETag
1070
     1
1071
      117
1005
1B1D4
  0
LINE
  5
1B1D5
330
10FE8
100
AcDbEntity
  8
图框
370
    -3
100
AcDbLine
 10
965.3649733158603
 20
531.3291676047914
 30
0.0
 11
965.3649733158603
 21
509.2054027581959
 31
0.0
1001
AcDbBlockRepETag
1070
     1
1071
      118
1005
1B1D5
  0
LINE
  5
1B1D6
330
10FE8
100
AcDbEntity
  8
图框
370
    -3
100
AcDbLine
 10
956.1467379631109
 20
531.3291676047914
 30
0.0
 11
956.1467379631109
 21
509.2054027581959
 31
0.0
1001
AcDbBlockRepETag
1070
     1
1071
      119
1005
1B1D6
  0
MTEXT
  5
1B1D7
102
{ACAD_XDICTIONARY
360
1B223
102
}
330
10FE8
100
AcDbEntity
  8
图框
100
AcDbMText
 10
951.537620286737
 20
511.9708733640202
 30
0.0
 40
1.958998408821398
 41
9.218235352747692
 46
5.530941211648832
 71
     5
 72
     5
  1
标记\P{\Fromans|c134;Mark}
 73
     1
 44
1.0
1001
AcDbBlockRepETag
1070
     1
1071
      120
1005
1B1D7
1001
ACAD
1000
ACAD_MTEXT_DEFINED_HEIGHT_BEGIN
1070
    46
1040
5.530941211648832
1000
ACAD_MTEXT_DEFINED_HEIGHT_END
  0
MTEXT
  5
1B1D8
102
{ACAD_XDICTIONARY
360
1B225
102
}
330
10FE8
100
AcDbEntity
  8
图框
100
AcDbMText
 10
953.4185582897936
 20
493.4737568219182
 30
0.0
 40
2.252848170144607
 41
12.98011135886041
 46
6.292658374510382
 71
     5
 72
     5
  1
审核\P{\Fromans|c134;Checked}
 73
     1
 44
1.0
1001
AcDbBlockRepETag
1070
     1
1071
      121
1005
1B1D8
1001
ACAD
1000
ACAD_MTEXT_DEFINED_HEIGHT_BEGIN
1070
    46
1040
6.292658374510382
1000
ACAD_MTEXT_DEFINED_HEIGHT_END
  0
MTEXT
  5
1B1D9
102
{ACAD_XDICTIONARY
360
1B227
102
}
330
10FE8
100
AcDbEntity
  8
图框
100
AcDbMText
 10
953.4185582897936
 20
499.8775635376777
 30
0.0
 40
2.252848170144607
 41
12.98011135886041
 46
6.070361692014189
 71
     5
 72
     5
  1
绘图\P{\Fromans|c134;Drawn\Ftxt|c134; }
 73
     1
 44
1.0
1001
AcDbBlockRepETag
1070
     1
1071
      122
1005
1B1D9
1001
ACAD
1000
ACAD_MTEXT_DEFINED_HEIGHT_BEGIN
1070
    46
1040
6.070361692014189
1000
ACAD_MTEXT_DEFINED_HEIGHT_END
  0
ARC
  5
1B1DA
330
10FE8
100
AcDbEntity
  8
图框
 62
     4
370
    35
100
AcDbCircle
 10
1086.900627017421
 20
490.0179944151195
 30
0.0
 40
4.063310408393665
100
AcDbArc
 50
18.95237904564806
 51
161.0476209543519
1001
AcDbBlockRepETag
1070
     1
1071
      123
1005
1B1DA
  0
ARC
  5
1B1DB
330
10FE8
100
AcDbEntity
  8
图框
 62
     4
370
    35
100
AcDbCircle
 10
1086.900627017421
 20
490.0179944151195
 30
0.0
 40
4.063310408393665
100
AcDbArc
 50
198.952379045648
 51
341.0476209543519
1001
AcDbBlockRepETag
1070
     1
1071
      124
1005
1B1DB
  0
LINE
  5
1B1DC
330
10FE8
100
AcDbEntity
  8
图框
 62
     4
370
    35
100
AcDbLine
 10
1083.057593369548
 20
488.6983035966752
 30
0.0
 11
1090.74366066529
 21
488.6983035966752
 31
0.0
1001
AcDbBlockRepETag
1070
     1
1071
      125
1005
1B1DC
  0
LINE
  5
1B1DD
330
10FE8
100
AcDbEntity
  8
图框
 62
     4
370
    35
100
AcDbLine
 10
1083.057593369548
 20
491.3376852335652
 30
0.0
 11
1090.74366066529
 21
491.3376852335652
 31
0.0
1001
AcDbBlockRepETag
1070
     1
1071
      126
1005
1B1DD
  0
MTEXT
  5
1B1DE
330
10FE8
100
AcDbEntity
  8
图框
 62
     1
370
    20
100
AcDbMText
 10
1083.034582879669
 20
491.0506288081688
 30
0.0
 40
2.005930044038334
 41
5.047240019334847
 46
0.0
 71
     1
 72
     5
  1
{\fArial|b0|i0|c0|p34;W}
  7
Chinese
 73
     1
 44
1.0
1001
AcDbBlockRepETag
1070
     1
1071
      127
1005
1B1DE
  0
LINE
  5
1B1DF
330
10FE8
100
AcDbEntity
  8
图框
370
    -3
100
AcDbLine
 10
946.9285026103634
 20
490.327427634663
 30
0.0
 11
1036.653967466372
 21
490.327427634663
 31
0.0
1001
AcDbBlockRepETag
1070
     1
1071
      128
1005
1B1DF
  0
LINE
  5
1B1E0
330
10FE8
100
AcDbEntity
  8
图框
370
    -3
100
AcDbLine
 10
959.9086139692238
 20
509.2054027581959
 30
0.0
 11
959.9086139692238
 21
484.0347692601515
 31
0.0
1001
AcDbBlockRepETag
1070
     1
1071
      129
1005
1B1E0
  0
MTEXT
  5
1B1E1
330
10FE8
100
AcDbEntity
  8
图框
100
AcDbMText
 10
967.6594956750129
 20
506.0590735709403
 30
0.0
 40
2.252848170144607
 41
15.50176341157869
 46
6.292658374511246
 71
     5
 72
     5
  1
姓名{\Fromans|c134;/Name\Ftxt|c134; }
 73
     1
 44
1.0
1001
AcDbBlockRepETag
1070
     1
1071
      130
1005
1B1E1
1001
ACAD
1000
ACAD_MTEXT_DEFINED_HEIGHT_BEGIN
1070
    46
1040
6.292658374511246
1000
ACAD_MTEXT_DEFINED_HEIGHT_END
  0
MTEXT
  5
1B1E2
330
10FE8
100
AcDbEntity
  8
图框
100
AcDbMText
 10
983.0415693332477
 20
506.0590735709403
 30
0.0
 40
2.252848170144607
 41
15.26238390489042
 46
6.2926583745112
 71
     5
 72
     5
  1
日期{\Fromans|c134;/Date}
 73
     1
 44
1.0
1001
AcDbBlockRepETag
1070
     1
1071
      131
1005
1B1E2
1001
ACAD
1000
ACAD_MTEXT_DEFINED_HEIGHT_BEGIN
1070
    46
1040
6.2926583745112
1000
ACAD_MTEXT_DEFINED_HEIGHT_END
  0
LINE
  5
1B1E3
330
10FE8
100
AcDbEntity
  8
图框
370
    -3
100
AcDbLine
 10
946.9285026103634
 20
509.2054027581959
 30
0.0
 11
959.9086139692238
 21
502.9127443836848
 31
0.0
1001
AcDbBlockRepETag
1070
     1
1071
      132
1005
1B1E3
  0
MTEXT
  5
1B1E4
330
10FE8
100
AcDbEntity
  8
图框
100
AcDbMText
 10
1012.931405110086
 20
506.0185715840725
 30
0.0
 40
2.252848170144607
 41
16.93492221063566
 46
0.0
 71
     5
 72
     5
  1
姓名{\Fromans|c134;/Name}
 73
     1
 44
1.0
1001
AcDbBlockRepETag
1070
     1
1071
      133
1005
1B1E4
  0
MTEXT
  5
1B1E5
330
10FE8
100
AcDbEntity
  8
图框
100
AcDbMText
 10
1028.977802139886
 20
506.0590735709403
 30
0.0
 40
2.252848170144607
 41
15.35233065297283
 46
6.292658374511256
 71
     5
 72
     5
  1
日期{\Fromans|c134;/Date}
 73
     1
 44
1.0
1001
AcDbBlockRepETag
1070
     1
1071
      134
1005
1B1E5
1001
ACAD
1000
ACAD_MTEXT_DEFINED_HEIGHT_BEGIN
1070
    46
1040
6.292658374511256
1000
ACAD_MTEXT_DEFINED_HEIGHT_END
  0
LINE
  5
1B1E6
330
10FE8
100
AcDbEntity
  8
图框
370
    -3
100
AcDbLine
 10
1003.652872644553
 20
502.9127443836848
 30
0.0
 11
990.6727612856927
 21
509.2054027581959
 31
0.0
1001
AcDbBlockRepETag
1070
     1
1071
      135
1005
1B1E6
  0
MTEXT
  5
1B1E7
102
{ACAD_XDICTIONARY
360
1B229
102
}
330
10FE8
100
AcDbEntity
  8
图框
100
AcDbMText
 10
997.1628169651232
 20
487.1810984474071
 30
0.0
 40
2.252848170144607
 41
12.98011135886052
 46
6.292658374511517
 71
     5
 72
     5
  1
批准\P{\Fromans|c134;Approved}
 73
     1
 44
1.0
1001
AcDbBlockRepETag
1070
     1
1071
      136
1005
1B1E7
1001
ACAD
1000
ACAD_MTEXT_DEFINED_HEIGHT_BEGIN
1070
    46
1040
6.292658374511517
1000
ACAD_MTEXT_DEFINED_HEIGHT_END
  0
MTEXT
  5
1B1E8
102
{ACAD_XDICTIONARY
360
1B22B
102
}
330
10FE8
100
AcDbEntity
  8
图框
100
AcDbMText
 10
953.4185582897936
 20
487.1810984474071
 30
0.0
 40
2.252848170144607
 41
12.98011135886041
 46
6.292658374511495
 71
     5
 72
     5
  1
工艺\P{\Fromans|c134;Process}
 73
     1
 44
1.0
1001
AcDbBlockRepETag
1070
     1
1071
      137
1005
1B1E8
1001
ACAD
1000
ACAD_MTEXT_DEFINED_HEIGHT_BEGIN
1070
    46
1040
6.292658374511495
1000
ACAD_MTEXT_DEFINED_HEIGHT_END
  0
MTEXT
  5
1B1E9
102
{ACAD_XDICTIONARY
360
1B22D
102
}
330
10FE8
100
AcDbEntity
  8
图框
100
AcDbMText
 10
1028.977802139886
 20
511.8287965307664
 30
0.0
 40
1.958998408821398
 41
15.3523306529728
 46
5.246787545140668
 71
     5
 72
     5
  1
日期\P{\Fromans|c134;Date}
 73
     1
 44
1.0
1001
AcDbBlockRepETag
1070
     1
1071
      138
1005
1B1E9
1001
ACAD
1000
ACAD_MTEXT_DEFINED_HEIGHT_BEGIN
1070
    46
1040
5.246787545140668
1000
ACAD_MTEXT_DEFINED_HEIGHT_END
  0
MTEXT
  5
1B1EA
330
10FE8
100
AcDbEntity
  8
图框
100
AcDbMText
 10
1086.643735910939
 20
509.1493769780809
 30
0.0
 40
2.154898249703542
 41
13.34474941400573
 46
8.87215554796615
 71
     5
 72
     5
  1
产品料号\P{\Fromans|c134;Part No.}
 73
     1
 44
1.0
1001
AcDbBlockRepETag
1070
     1
1071
      139
1005
1B1EA
1001
ACAD
1000
ACAD_MTEXT_DEFINED_HEIGHT_BEGIN
1070
    46
1040
8.87215554796615
1000
ACAD_MTEXT_DEFINED_HEIGHT_END
  0
MTEXT
  5
1B1EB
330
10FE8
100
AcDbEntity
  8
图框
100
AcDbMText
 10
1086.643735910939
 20
500.2775205517163
 30
0.0
 40
1.958998408821398
 41
13.34474941400573
 46
8.871557304763321
 71
     5
 72
     5
  1
产品名称\P{\Fromans|c134;Part Name}
 73
     1
 44
1.0
1001
AcDbBlockRepETag
1070
     1
1071
      140
1005
1B1EB
1001
ACAD
1000
ACAD_MTEXT_DEFINED_HEIGHT_BEGIN
1070
    46
1040
8.871557304763321
1000
ACAD_MTEXT_DEFINED_HEIGHT_END
  0
LINE
  5
1B1EC
330
10FE8
100
AcDbEntity
  8
图框
 62
     1
370
    18
100
AcDbLine
 10
833.4128518455365
 20
690.5347692601515
 30
0.0
 11
833.4128518455365
 21
480.5347692601515
 31
0.0
1001
AcDbBlockRepETag
1070
     1
1071
      141
1005
1B1EC
  0
LINE
  5
1B1ED
330
10FE8
100
AcDbEntity
  8
图框
 62
     1
370
    18
100
AcDbLine
 10
833.4128518455365
 20
480.5347692601515
 30
0.0
 11
1130.411601781236
 21
480.5347692601515
 31
0.0
1001
AcDbBlockRepETag
1070
     1
1071
      142
1005
1B1ED
  0
LINE
  5
1B1EE
330
10FE8
100
AcDbEntity
  8
图框
 62
     1
370
    18
100
AcDbLine
 10
833.4128518455365
 20
690.5347692601515
 30
0.0
 11
1130.411601781236
 21
690.5347692601515
 31
0.0
1001
AcDbBlockRepETag
1070
     1
1071
      143
1005
1B1EE
  0
LINE
  5
1B1EF
330
10FE8
100
AcDbEntity
  8
图框
 62
     1
370
    18
100
AcDbLine
 10
1130.411601781236
 20
480.5347692601515
 30
0.0
 11
1130.411601781236
 21
690.5347692601515
 31
0.0
1001
AcDbBlockRepETag
1070
     1
1071
      144
1005
1B1EF
  0
LINE
  5
1B1F0
330
10FE8
100
AcDbEntity
  8
图框
370
    18
100
AcDbLine
 10
836.9128518455394
 20
686.7901958362482
 30
0.0
 11
861.5351874539182
 21
686.7901958362482
 31
0.0
1001
AcDbBlockRepETag
1070
     1
1071
      145
1005
1B1F0
  0
LINE
  5
1B1F1
330
10FE8
100
AcDbEntity
  8
图框
370
    50
100
AcDbLine
 10
1126.928502610363
 20
484.3410054693078
 30
0.0
 11
1126.928502610363
 21
675.5347692601515
 31
0.0
1001
AcDbBlockRepETag
1070
     1
1071
      146
1005
1B1F1
  0
MTEXT
  5
1B1F2
330
10FE8
100
AcDbEntity
  8
图框
 62
     3
100
AcDbMText
 10
1052.897990117958
 20
495.8417418993364
 30
0.0
 40
2.985513575034151
 41
10.82934843439114
 46
7.886094601211307
 71
     5
 72
     5
  1
V1.0
  7
Romans字体
 73
     1
 44
1.0
1001
AcDbBlockRepETag
1070
     1
1071
      147
1005
1B1F2
1001
ACAD
1000
ACAD_MTEXT_DEFINED_HEIGHT_BEGIN
1070
    46
1040
7.886094601211307
1000
ACAD_MTEXT_DEFINED_HEIGHT_END
  0
ENDBLK
  5
1107F
330
10FE8
100
AcDbEntity
  8
0
100
AcDbBlockEnd
  0
BLOCK
  5
1AEB8
330
1AEB7
100
AcDbEntity
  8
0
100
AcDbBlockBegin
  2
*D2
 70
     1
 10
0.0
 20
0.0
 30
0.0
  3
*D2
  1

  0
LINE
  5
1B023
330
1AEB7
100
AcDbEntity
  8
DIM
 62
     6
370
    -2
100
AcDbLine
 10
531.8995891139377
 20
265.209050785768
 30
0.0
 11
531.8995891139377
 21
273.3257316659934
 31
0.0
  0
LINE
  5
1B024
330
1AEB7
100
AcDbEntity
  8
DIM
 62
     6
370
    -2
100
AcDbLine
 10
507.0995891139378
 20
267.691534505762
 30
0.0
 11
507.0995891139378
 21
273.3257316659934
 31
0.0
  0
LINE
  5
1B025
330
1AEB7
100
AcDbEntity
  8
DIM
 62
     1
370
    -2
100
AcDbLine
 10
530.0995891139375
 20
272.6057316659934
 30
0.0
 11
508.8995891139378
 21
272.6057316659934
 31
0.0
  0
SOLID
  5
1B026
330
1AEB7
100
AcDbEntity
  8
DIM
 62
     1
100
AcDbTrace
 10
530.0995891139375
 20
272.9057316659934
 30
0.0
 11
530.0995891139375
 21
272.3057316659935
 31
0.0
 12
531.8995891139377
 22
272.6057316659934
 32
0.0
 13
531.8995891139377
 23
272.6057316659934
 33
0.0
  0
SOLID
  5
1B027
330
1AEB7
100
AcDbEntity
  8
DIM
 62
     1
100
AcDbTrace
 10
508.8995891139378
 20
272.9057316659934
 30
0.0
 11
508.8995891139378
 21
272.3057316659935
 31
0.0
 12
507.0995891139378
 22
272.6057316659934
 32
0.0
 13
507.0995891139378
 23
272.6057316659934
 33
0.0
  0
MTEXT
  5
1B028
330
1AEB7
100
AcDbEntity
  8
DIM
 62
     4
100
AcDbMText
 10
519.4995891139376
 20
274.1357316659934
 30
0.0
 40
2.1
 41
0.0
 46
0.0
 71
     5
 72
     1
  1
\A1;24.8
  7
Romans字体
 73
     1
 44
1.0
  0
POINT
  5
1B029
330
1AEB7
100
AcDbEntity
  8
Defpoints
 62
     0
100
AcDbPoint
 10
531.8995891139377
 20
265.089050785768
 30
0.0
  0
POINT
  5
1B02A
330
1AEB7
100
AcDbEntity
  8
Defpoints
 62
     0
100
AcDbPoint
 10
507.0995891139378
 20
267.571534505762
 30
0.0
  0
POINT
  5
1B02B
330
1AEB7
100
AcDbEntity
  8
Defpoints
 62
     0
100
AcDbPoint
 10
507.0995891139378
 20
272.6057316659934
 30
0.0
  0
ENDBLK
  5
1AEB9
330
1AEB7
100
AcDbEntity
  8
0
100
AcDbBlockEnd
  0
BLOCK
  5
1AEC4
330
1AEC3
100
AcDbEntity
  8
0
100
AcDbBlockBegin
  2
*D3
 70
     1
 10
0.0
 20
0.0
 30
0.0
  3
*D3
  1

  0
LINE
  5
1B02C
330
1AEC3
100
AcDbEntity
  8
DIM
 62
     6
370
    -2
100
AcDbLine
 10
506.9795891139376
 20
263.2890508232305
 30
0.0
 11
502.034472138987
 21
263.2890508232305
 31
0.0
  0
LINE
  5
1B02D
330
1AEC3
100
AcDbEntity
  8
DIM
 62
     6
370
    -2
100
AcDbLine
 10
506.9795891139376
 20
264.3890508232305
 30
0.0
 11
502.034472138987
 21
264.3890508232305
 31
0.0
  0
LINE
  5
1B02E
330
1AEC3
100
AcDbEntity
  8
DIM
 62
     1
370
    -2
100
AcDbLine
 10
502.7544721389869
 20
261.4890508232305
 30
0.0
 11
502.7544721389869
 21
259.6890508232305
 31
0.0
  0
LINE
  5
1B02F
330
1AEC3
100
AcDbEntity
  8
DIM
 62
     1
370
    -2
100
AcDbLine
 10
502.7544721389869
 20
266.1890508232305
 30
0.0
 11
502.7544721389869
 21
271.5740508232304
 31
0.0
  0
SOLID
  5
1B030
330
1AEC3
100
AcDbEntity
  8
DIM
 62
     1
100
AcDbTrace
 10
502.4544721389869
 20
261.4890508232305
 30
0.0
 11
503.0544721389869
 21
261.4890508232305
 31
0.0
 12
502.7544721389869
 22
263.2890508232305
 32
0.0
 13
502.7544721389869
 23
263.2890508232305
 33
0.0
  0
SOLID
  5
1B031
330
1AEC3
100
AcDbEntity
  8
DIM
 62
     1
100
AcDbTrace
 10
502.4544721389869
 20
266.1890508232305
 30
0.0
 11
503.0544721389869
 21
266.1890508232305
 31
0.0
 12
502.7544721389869
 22
264.3890508232305
 32
0.0
 13
502.7544721389869
 23
264.3890508232305
 33
0.0
  0
MTEXT
  5
1B032
330
1AEC3
100
AcDbEntity
  8
DIM
 62
     4
100
AcDbMText
 10
501.2244721389868
 20
269.7815508232305
 30
0.0
 40
2.1
 41
0.0
 46
0.0
 71
     5
 72
     1
  1
\A1;1.1
  7
Romans字体
 11
0.0000000000000001
 21
1.0
 31
0.0
 73
     1
 44
1.0
  0
POINT
  5
1B033
330
1AEC3
100
AcDbEntity
  8
Defpoints
 62
     0
100
AcDbPoint
 10
507.0995891139376
 20
263.2890508232305
 30
0.0
  0
POINT
  5
1B034
330
1AEC3
100
AcDbEntity
  8
Defpoints
 62
     0
100
AcDbPoint
 10
507.0995891139378
 20
264.3890508232305
 30
0.0
  0
POINT
  5
1B035
330
1AEC3
100
AcDbEntity
  8
Defpoints
 62
     0
100
AcDbPoint
 10
502.7544721389869
 20
264.3890508232305
 30
0.0
  0
ENDBLK
  5
1AEC5
330
1AEC3
100
AcDbEntity
  8
0
100
AcDbBlockEnd
  0
BLOCK
  5
1AED1
330
1AED0
100
AcDbEntity
  8
0
100
AcDbBlockBegin
  2
*D4
 70
     1
 10
0.0
 20
0.0
 30
0.0
  3
*D4
  1

  0
LINE
  5
1B036
330
1AED0
100
AcDbEntity
  8
DIM
 62
     6
370
    -2
100
AcDbLine
 10
522.8995891139377
 20
265.9590508232305
 30
0.0
 11
522.8995891139377
 21
269.7411587177299
 31
0.0
  0
LINE
  5
1B037
330
1AED0
100
AcDbEntity
  8
DIM
 62
     6
370
    -2
100
AcDbLine
 10
531.8995891139377
 20
265.4590508232305
 30
0.0
 11
531.8995891139377
 21
269.7411587177299
 31
0.0
  0
LINE
  5
1B038
330
1AED0
100
AcDbEntity
  8
DIM
 62
     1
370
    -2
100
AcDbLine
 10
524.6995891139375
 20
269.0211587177298
 30
0.0
 11
530.0995891139375
 21
269.0211587177298
 31
0.0
  0
SOLID
  5
1B039
330
1AED0
100
AcDbEntity
  8
DIM
 62
     1
100
AcDbTrace
 10
524.6995891139375
 20
269.3211587177299
 30
0.0
 11
524.6995891139375
 21
268.7211587177298
 31
0.0
 12
522.8995891139377
 22
269.0211587177298
 32
0.0
 13
522.8995891139377
 23
269.0211587177298
 33
0.0
  0
SOLID
  5
1B03A
330
1AED0
100
AcDbEntity
  8
DIM
 62
     1
100
AcDbTrace
 10
530.0995891139375
 20
269.3211587177299
 30
0.0
 11
530.0995891139375
 21
268.7211587177298
 31
0.0
 12
531.8995891139377
 22
269.0211587177298
 32
0.0
 13
531.8995891139377
 23
269.0211587177298
 33
0.0
  0
MTEXT
  5
1B03B
330
1AED0
100
AcDbEntity
  8
DIM
 62
     4
100
AcDbMText
 10
527.3995891139377
 20
270.5511587177298
 30
0.0
 40
2.1
 41
0.0
 46
0.0
 71
     5
 72
     1
  1
\A1;9
  7
Romans字体
 73
     1
 44
1.0
  0
POINT
  5
1B03C
330
1AED0
100
AcDbEntity
  8
Defpoints
 62
     0
100
AcDbPoint
 10
522.8995891139377
 20
265.8390508232305
 30
0.0
  0
POINT
  5
1B03D
330
1AED0
100
AcDbEntity
  8
Defpoints
 62
     0
100
AcDbPoint
 10
531.8995891139377
 20
265.3390508232305
 30
0.0
  0
POINT
  5
1B03E
330
1AED0
100
AcDbEntity
  8
Defpoints
 62
     0
100
AcDbPoint
 10
531.8995891139377
 20
269.0211587177298
 30
0.0
  0
ENDBLK
  5
1AED2
330
1AED0
100
AcDbEntity
  8
0
100
AcDbBlockEnd
  0
BLOCK
  5
1AEDD
330
1AEDC
100
AcDbEntity
  8
0
100
AcDbBlockBegin
  2
*D5
 70
     1
 10
0.0
 20
0.0
 30
0.0
  3
*D5
  1

  0
LINE
  5
1B003
330
1AEDC
100
AcDbEntity
  8
DIM
 62
     6
370
    -2
100
AcDbLine
 10
507.0995891139378
 20
264.5090508232305
 30
0.0
 11
507.0995891139378
 21
269.7411587177299
 31
0.0
  0
LINE
  5
1B004
330
1AEDC
100
AcDbEntity
  8
DIM
 62
     6
370
    -2
100
AcDbLine
 10
509.0995891139376
 20
264.5090508232304
 30
0.0
 11
509.0995891139376
 21
269.7411587177299
 31
0.0
  0
LINE
  5
1B005
330
1AEDC
100
AcDbEntity
  8
DIM
 62
     1
370
    -2
100
AcDbLine
 10
505.2995891139375
 20
269.0211587177298
 30
0.0
 11
503.4995891139375
 21
269.0211587177298
 31
0.0
  0
LINE
  5
1B006
330
1AEDC
100
AcDbEntity
  8
DIM
 62
     1
370
    -2
100
AcDbLine
 10
510.8995891139378
 20
269.0211587177298
 30
0.0
 11
514.7095891139378
 21
269.0211587177298
 31
0.0
  0
SOLID
  5
1B007
330
1AEDC
100
AcDbEntity
  8
DIM
 62
     1
100
AcDbTrace
 10
505.2995891139375
 20
269.3211587177299
 30
0.0
 11
505.2995891139375
 21
268.7211587177298
 31
0.0
 12
507.0995891139378
 22
269.0211587177298
 32
0.0
 13
507.0995891139378
 23
269.0211587177298
 33
0.0
  0
SOLID
  5
1B008
330
1AEDC
100
AcDbEntity
  8
DIM
 62
     1
100
AcDbTrace
 10
510.8995891139378
 20
269.3211587177299
 30
0.0
 11
510.8995891139378
 21
268.7211587177298
 31
0.0
 12
509.0995891139376
 22
269.0211587177298
 32
0.0
 13
509.0995891139376
 23
269.0211587177298
 33
0.0
  0
MTEXT
  5
1B009
330
1AEDC
100
AcDbEntity
  8
DIM
 62
     4
100
AcDbMText
 10
513.7045891139377
 20
270.5511587177298
 30
0.0
 40
2.1
 41
0.0
 46
0.0
 71
     5
 72
     1
  1
\A1;2
  7
Romans字体
 73
     1
 44
1.0
  0
POINT
  5
1B00A
330
1AEDC
100
AcDbEntity
  8
Defpoints
 62
     0
100
AcDbPoint
 10
507.0995891139378
 20
264.3890508232305
 30
0.0
  0
POINT
  5
1B00B
330
1AEDC
100
AcDbEntity
  8
Defpoints
 62
     0
100
AcDbPoint
 10
509.0995891139376
 20
264.3890508232304
 30
0.0
  0
POINT
  5
1B00C
330
1AEDC
100
AcDbEntity
  8
Defpoints
 62
     0
100
AcDbPoint
 10
509.0995891139376
 20
269.0211587177298
 30
0.0
  0
ENDBLK
  5
1AEDE
330
1AEDC
100
AcDbEntity
  8
0
100
AcDbBlockEnd
  0
BLOCK
  5
1AEEA
330
1AEE9
100
AcDbEntity
  8
0
100
AcDbBlockBegin
  2
*D6
 70
     1
 10
0.0
 20
0.0
 30
0.0
  3
*D6
  1

  0
LINE
  5
1B03F
330
1AEE9
100
AcDbEntity
  8
DIM
 62
     1
370
    -2
100
AcDbLine
 10
505.3097614465378
 20
258.0886940087968
 30
0.0
 11
507.3097614465376
 21
258.0886940087968
 31
0.0
  0
LINE
  5
1B040
330
1AEE9
100
AcDbEntity
  8
DIM
 62
     1
370
    -2
100
AcDbLine
 10
507.3097614465376
 20
258.0886940087968
 30
0.0
 11
507.8806668197721
 21
260.0054796136082
 31
0.0
  0
MTEXT
  5
1B041
330
1AEE9
100
AcDbEntity
  8
DIM
 62
     4
100
AcDbMText
 10
503.4919043036807
 20
258.0886940087968
 30
0.0
 40
2.5
 41
0.0
 46
0.0
 71
     5
 72
     1
  1
\A1;R2
  7
Romans字体
 73
     1
 44
1.0
  0
SOLID
  5
1B042
330
1AEE9
100
AcDbEntity
  8
DIM
 62
     1
100
AcDbTrace
 10
507.5612025523033
 20
260.1006305091473
 30
0.0
 11
508.2001310872406
 21
259.9103287180692
 31
0.0
 12
508.4515721930062
 22
261.9222652184196
 32
0.0
 13
508.4515721930062
 23
261.9222652184196
 33
0.0
  0
POINT
  5
1B043
330
1AEE9
100
AcDbEntity
  8
Defpoints
 62
     0
100
AcDbPoint
 10
508.4515721930062
 20
261.9222652184196
 30
0.0
  0
POINT
  5
1B044
330
1AEE9
100
AcDbEntity
  8
Defpoints
 62
     0
100
AcDbPoint
 10
509.0224775662407
 20
263.8390508232305
 30
0.0
  0
ENDBLK
  5
1AEEB
330
1AEE9
100
AcDbEntity
  8
0
100
AcDbBlockEnd
  0
BLOCK
  5
1AEF3
330
1AEF2
100
AcDbEntity
  8
0
100
AcDbBlockBegin
  2
*D7
 70
     1
 10
0.0
 20
0.0
 30
0.0
  3
*D7
  1

  0
LINE
  5
1B04B
330
1AEF2
100
AcDbEntity
  8
DIM
 62
     1
370
    -2
100
AcDbLine
 10
546.1808004656262
 20
258.5228852941928
 30
0.0
 11
544.1808004656255
 21
258.5228852941928
 31
0.0
  0
LINE
  5
1B04C
330
1AEF2
100
AcDbEntity
  8
DIM
 62
     1
370
    -2
100
AcDbLine
 10
544.1808004656255
 20
258.5228852941928
 30
0.0
 11
545.9808733144059
 21
260.7359427948592
 31
0.0
  0
MTEXT
  5
1B04D
330
1AEF2
100
AcDbEntity
  8
DIM
 62
     4
100
AcDbMText
 10
547.9986576084835
 20
258.5228852941928
 30
0.0
 40
2.5
 41
0.0
 46
0.0
 71
     5
 72
     1
  1
\A1;∅4
  7
Romans字体
 73
     1
 44
1.0
  0
SOLID
  5
1B04E
330
1AEF2
100
AcDbEntity
  8
DIM
 62
     1
100
AcDbTrace
 10
545.7222809787083
 20
260.946278514673
 30
0.0
 11
546.2394656501035
 21
260.5256070750455
 31
0.0
 12
547.2428876332883
 22
262.2874968090449
 32
0.0
 13
547.2428876332883
 23
262.2874968090449
 33
0.0
  0
POINT
  5
1B04F
330
1AEF2
100
AcDbEntity
  8
Defpoints
 62
     0
100
AcDbPoint
 10
547.2428876332883
 20
262.2874968090449
 30
0.0
  0
POINT
  5
1B050
330
1AEF2
100
AcDbEntity
  8
Defpoints
 62
     0
100
AcDbPoint
 10
549.7669162710526
 20
265.3906048374151
 30
0.0
  0
ENDBLK
  5
1AEF4
330
1AEF2
100
AcDbEntity
  8
0
100
AcDbBlockEnd
  0
BLOCK
  5
1AEFC
330
1AEFB
100
AcDbEntity
  8
0
100
AcDbBlockBegin
  2
*D8
 70
     1
 10
0.0
 20
0.0
 30
0.0
  3
*D8
  1

  0
LINE
  5
1B019
330
1AEFB
100
AcDbEntity
  8
DIM
 62
     6
370
    -2
100
AcDbLine
 10
531.8945891139376
 20
265.3390508232305
 30
0.0
 11
536.9045084122841
 21
265.3390508232305
 31
0.0
  0
LINE
  5
1B01A
330
1AEFB
100
AcDbEntity
  8
DIM
 62
     6
370
    -2
100
AcDbLine
 10
531.8945891139376
 20
262.3390508232304
 30
0.0
 11
536.9045084122841
 21
262.3390508232304
 31
0.0
  0
LINE
  5
1B01B
330
1AEFB
100
AcDbEntity
  8
DIM
 62
     1
370
    -2
100
AcDbLine
 10
536.1845084122839
 20
260.5390508232304
 30
0.0
 11
536.1845084122839
 21
258.7390508232304
 31
0.0
  0
LINE
  5
1B01C
330
1AEFB
100
AcDbEntity
  8
DIM
 62
     1
370
    -2
100
AcDbLine
 10
536.1845084122839
 20
267.1390508232306
 30
0.0
 11
536.1845084122839
 21
277.6240508232306
 31
0.0
  0
SOLID
  5
1B01D
330
1AEFB
100
AcDbEntity
  8
DIM
 62
     1
100
AcDbTrace
 10
535.884508412284
 20
260.5390508232304
 30
0.0
 11
536.4845084122841
 21
260.5390508232304
 31
0.0
 12
536.1845084122839
 22
262.3390508232304
 32
0.0
 13
536.1845084122839
 23
262.3390508232304
 33
0.0
  0
SOLID
  5
1B01E
330
1AEFB
100
AcDbEntity
  8
DIM
 62
     1
100
AcDbTrace
 10
535.884508412284
 20
267.1390508232306
 30
0.0
 11
536.4845084122841
 21
267.1390508232306
 31
0.0
 12
536.1845084122839
 22
265.3390508232305
 32
0.0
 13
536.1845084122839
 23
265.3390508232305
 33
0.0
  0
MTEXT
  5
1B01F
330
1AEFB
100
AcDbEntity
  8
DIM
 62
     4
100
AcDbMText
 10
534.6545084122841
 20
273.2815508232306
 30
0.0
 40
2.1
 41
0.0
 46
0.0
 71
     5
 72
     1
  1
\A1;M3*0.5
  7
Romans字体
 11
0.0000000000000001
 21
1.0
 31
0.0
 73
     1
 44
1.0
  0
POINT
  5
1B020
330
1AEFB
100
AcDbEntity
  8
Defpoints
 62
     0
100
AcDbPoint
 10
531.7745891139377
 20
265.3390508232305
 30
0.0
  0
POINT
  5
1B021
330
1AEFB
100
AcDbEntity
  8
Defpoints
 62
     0
100
AcDbPoint
 10
531.7745891139377
 20
262.3390508232304
 30
0.0
  0
POINT
  5
1B022
330
1AEFB
100
AcDbEntity
  8
Defpoints
 62
     0
100
AcDbPoint
 10
536.1845084122839
 20
262.3390508232304
 30
0.0
  0
ENDBLK
  5
1AEFD
330
1AEFB
100
AcDbEntity
  8
0
100
AcDbBlockEnd
  0
ENDSEC
  0
SECTION
  2
ENTITIES
  0
HATCH
  5
28AE
330
1F
100
AcDbEntity
  8
图层 1
 62
     7
100
AcDbHatch
 10
0.0
 20
0.0
 30
0.0
210
0.0
220
0.0
230
1.0
  2
SOLID
 70
     1
 71
     0
 91
        1
 92
        1
 93
        2
 72
     4
 94
        3
 73
     0
 74
     0
 95
       17
 96
       13
 40
0.0
 40
0.0
 40
0.0
 40
0.0
 40
0.3527780104152769
 40
0.3527780104152769
 40
0.3527780104152769
 40
0.7055560208305538
 40
0.7055560208305538
 40
0.7055560208305538
 40
1.058334031245828
 40
1.058334031245828
 40
1.058334031245828
 40
1.411112041661104
 40
1.411112041661104
 40
1.411112041661104
 40
1.411112041661104
 10
11.07013262565829
 20
29.50312817963231
 10
11.07013262565829
 20
29.50312817963231
 10
10.9431807732774
 20
29.50312817963231
 10
10.9431807732774
 20
29.50312817963231
 10
10.9431807732774
 20
29.50312817963231
 10
10.85843136843155
 20
29.22786486877117
 10
10.85843136843155
 20
29.22786486877117
 10
10.85843136843155
 20
29.22786486877117
 10
10.90080607085448
 20
29.2068497724476
 10
10.90080607085448
 20
29.2068497724476
 10
10.94455881238059
 20
29.31571486159919
 10
11.00346998404173
 20
29.40907701083995
 10
11.07013262565829
 20
29.50312817963231
 72
     1
 10
11.07013262565829
 20
29.50312817963231
 11
11.07013262565829
 21
29.50312817963231
 97
        0
 75
     0
 76
     1
 98
        0
450
        0
451
        0
460
0.0
461
0.0
452
        0
462
0.0
453
        0
470

  0
HATCH
  5
2C65
330
1F
100
AcDbEntity
  8
图层 1
 62
     7
100
AcDbHatch
 10
0.0
 20
0.0
 30
0.0
210
0.0
220
0.0
230
1.0
  2
SOLID
 70
     1
 71
     0
 91
        1
 92
        1
 93
        2
 72
     4
 94
        3
 73
     0
 74
     0
 95
       47
 96
       43
 40
0.0
 40
0.0
 40
0.0
 40
0.0
 40
0.3527780104152769
 40
0.3527780104152769
 40
0.3527780104152769
 40
0.7055560208305538
 40
0.7055560208305538
 40
0.7055560208305538
 40
1.058334031245828
 40
1.058334031245828
 40
1.058334031245828
 40
1.411112041661104
 40
1.411112041661104
 40
1.411112041661104
 40
1.763890052076384
 40
1.763890052076384
 40
1.763890052076384
 40
2.116668062491659
 40
2.116668062491659
 40
2.116668062491659
 40
2.469446072906936
 40
2.469446072906936
 40
2.469446072906936
 40
2.822224083322215
 40
2.822224083322215
 40
2.822224083322215
 40
3.175002093737492
 40
3.175002093737492
 40
3.175002093737492
 40
3.527780104152768
 40
3.527780104152768
 40
3.527780104152768
 40
3.880558114568044
 40
3.880558114568044
 40
3.880558114568044
 40
4.233336124983321
 40
4.233336124983321
 40
4.233336124983321
 40
4.586114135398599
 40
4.586114135398599
 40
4.586114135398599
 40
4.938892145813873
 40
4.938892145813873
 40
4.938892145813873
 40
4.938892145813873
 10
162.8986914070121
 20
257.4895347631509
 10
162.8986914070121
 20
257.4895347631509
 10
162.9200510131114
 20
257.4471600607279
 10
162.9200510131114
 20
257.4471600607279
 10
162.9200510131114
 20
257.4471600607279
 10
162.9200510131114
 20
257.404785358305
 10
162.9200510131114
 20
257.404785358305
 10
162.9200510131114
 20
257.404785358305
 10
162.8986914070121
 20
257.36258291077
 10
162.8986914070121
 20
257.36258291077
 10
162.8986914070121
 20
257.36258291077
 10
162.8986914070121
 20
257.320208208347
 10
162.8986914070121
 20
257.320208208347
 10
162.8986914070121
 20
257.320208208347
 10
162.8563167045891
 20
257.2990208571356
 10
162.8563167045891
 20
257.2990208571356
 10
162.8563167045891
 20
257.2990208571356
 10
162.8139420021662
 20
257.2563016449369
 10
162.8139420021662
 20
257.2563016449369
 10
162.8139420021662
 20
257.2563016449369
 10
162.7295371070961
 20
257.2563016449369
 10
162.7295371070961
 20
257.2563016449369
 10
162.7295371070961
 20
257.2563016449369
 10
162.6658027985738
 20
257.2778335059241
 10
162.6658027985738
 20
257.2778335059241
 10
162.6658027985738
 20
257.2778335059241
 10
162.6237726059267
 20
257.2990208571356
 10
162.6237726059267
 20
257.2990208571356
 10
162.6237726059267
 20
257.2990208571356
 10
162.5813979035038
 20
257.3413955595585
 10
162.5813979035038
 20
257.3413955595585
 10
162.5813979035038
 20
257.3413955595585
 10
162.5813979035038
 20
257.4895347631509
 10
162.5813979035038
 20
257.4895347631509
 10
162.5813979035038
 20
257.4895347631509
 10
162.6447877022503
 20
257.5525800521216
 10
162.6447877022503
 20
257.5525800521216
 10
162.6447877022503
 20
257.5525800521216
 10
162.7081775009967
 20
257.5525800521216
 10
162.7081775009967
 20
257.5525800521216
 10
162.8749202324821
 20
257.5424170137356
 10
162.7918933765152
 20
257.5939212252171
 10
162.8986914070121
 20
257.4895347631509
 72
     1
 10
162.8986914070121
 20
257.4895347631509
 11
162.8986914070121
 21
257.4895347631509
 97
        0
 75
     0
 76
     1
 98
        0
450
        0
451
        0
460
0.0
461
0.0
452
        0
462
0.0
453
        0
470

  0
HATCH
  5
2EE7
330
1F
100
AcDbEntity
  8
图层 1
 62
     7
100
AcDbHatch
 10
0.0
 20
0.0
 30
0.0
210
0.0
220
0.0
230
1.0
  2
SOLID
 70
     1
 71
     0
 91
        1
 92
        1
 93
        2
 72
     4
 94
        3
 73
     0
 74
     0
 95
       56
 96
       52
 40
0.0
 40
0.0
 40
0.0
 40
0.0
 40
0.3527780104152769
 40
0.3527780104152769
 40
0.3527780104152769
 40
0.7055560208305538
 40
0.7055560208305538
 40
0.7055560208305538
 40
1.058334031245828
 40
1.058334031245828
 40
1.058334031245828
 40
1.411112041661104
 40
1.411112041661104
 40
1.411112041661104
 40
1.763890052076384
 40
1.763890052076384
 40
1.763890052076384
 40
2.116668062491659
 40
2.116668062491659
 40
2.116668062491659
 40
2.469446072906936
 40
2.469446072906936
 40
2.469446072906936
 40
2.822224083322215
 40
2.822224083322215
 40
2.822224083322215
 40
3.175002093737492
 40
3.175002093737492
 40
3.175002093737492
 40
3.527780104152768
 40
3.527780104152768
 40
3.527780104152768
 40
3.880558114568044
 40
3.880558114568044
 40
3.880558114568044
 40
4.233336124983321
 40
4.233336124983321
 40
4.233336124983321
 40
4.586114135398599
 40
4.586114135398599
 40
4.586114135398599
 40
4.938892145813873
 40
4.938892145813873
 40
4.938892145813873
 40
5.291670156229153
 40
5.291670156229153
 40
5.291670156229153
 40
5.64444816664443
 40
5.64444816664443
 40
5.64444816664443
 40
5.997226177059705
 40
5.997226177059705
 40
5.997226177059705
 40
5.997226177059705
 10
185.4837187788815
 20
241.4451977396596
 10
185.4837187788815
 20
241.4451977396596
 10
185.4837187788815
 20
241.4028230372367
 10
185.4837187788815
 20
241.4028230372367
 10
185.4837187788815
 20
241.4028230372367
 10
185.5047338752051
 20
241.3604483348137
 10
185.5047338752051
 20
241.3604483348137
 10
185.4520238795082
 20
241.2782827532863
 10
185.4671823096433
 20
241.1897437409066
 10
185.335579575289
 20
241.2119646214456
 10
185.335579575289
 20
241.2119646214456
 10
185.2932048728662
 20
241.2119646214456
 10
185.2932048728662
 20
241.2119646214456
 10
185.2932048728662
 20
241.2119646214456
 10
185.2294705643439
 20
241.2334964824328
 10
185.2294705643439
 20
241.2334964824328
 10
185.2294705643439
 20
241.2334964824328
 10
185.1660807655974
 20
241.2543393238685
 10
185.1660807655974
 20
241.2543393238685
 10
185.1660807655974
 20
241.2543393238685
 10
185.1450656692739
 20
241.2758711848558
 10
185.1450656692739
 20
241.2758711848558
 10
185.1450656692739
 20
241.2758711848558
 10
185.1450656692739
 20
241.2967140262914
 10
185.1450656692739
 20
241.2967140262914
 10
185.1450656692739
 20
241.2967140262914
 10
185.1237060631745
 20
241.3604483348137
 10
185.1237060631745
 20
241.3604483348137
 10
185.1237060631745
 20
241.3604483348137
 10
185.1237060631745
 20
241.4028230372367
 10
185.1237060631745
 20
241.4028230372367
 10
185.1237060631745
 20
241.4028230372367
 10
185.1660807655974
 20
241.4875724420825
 10
185.1660807655974
 20
241.4875724420825
 10
185.1660807655974
 20
241.4875724420825
 10
185.2084554680203
 20
241.5085875384061
 10
185.2084554680203
 20
241.5085875384061
 10
185.2084554680203
 20
241.5085875384061
 10
185.2718452667668
 20
241.5297748896175
 10
185.2718452667668
 20
241.5297748896175
 10
185.2718452667668
 20
241.5297748896175
 10
185.3565946716127
 20
241.5297748896175
 10
185.3565946716127
 20
241.5297748896175
 10
185.3565946716127
 20
241.5297748896175
 10
185.4199844703592
 20
241.5085875384061
 10
185.4199844703592
 20
241.5085875384061
 10
185.4199844703592
 20
241.5085875384061
 10
185.4623591727821
 20
241.4875724420825
 10
185.4623591727821
 20
241.4875724420825
 10
185.4623591727821
 20
241.4875724420825
 10
185.4837187788815
 20
241.4451977396596
 10
185.4837187788815
 20
241.4451977396596
 72
     1
 10
185.4837187788815
 20
241.4451977396596
 11
185.4837187788815
 21
241.4451977396596
 97
        0
 75
     0
 76
     1
 98
        0
450
        0
451
        0
460
0.0
461
0.0
452
        0
462
0.0
453
        0
470

  0
HATCH
  5
2F93
330
1F
100
AcDbEntity
  8
图层 1
 62
     7
100
AcDbHatch
 10
0.0
 20
0.0
 30
0.0
210
0.0
220
0.0
230
1.0
  2
SOLID
 70
     1
 71
     0
 91
        1
 92
        1
 93
        2
 72
     4
 94
        3
 73
     0
 74
     0
 95
       38
 96
       34
 40
0.0
 40
0.0
 40
0.0
 40
0.0
 40
0.3527780104152769
 40
0.3527780104152769
 40
0.3527780104152769
 40
0.7055560208305538
 40
0.7055560208305538
 40
0.7055560208305538
 40
1.058334031245828
 40
1.058334031245828
 40
1.058334031245828
 40
1.411112041661104
 40
1.411112041661104
 40
1.411112041661104
 40
1.763890052076384
 40
1.763890052076384
 40
1.763890052076384
 40
2.116668062491659
 40
2.116668062491659
 40
2.116668062491659
 40
2.469446072906936
 40
2.469446072906936
 40
2.469446072906936
 40
2.822224083322215
 40
2.822224083322215
 40
2.822224083322215
 40
3.175002093737492
 40
3.175002093737492
 40
3.175002093737492
 40
3.527780104152768
 40
3.527780104152768
 40
3.527780104152768
 40
3.880558114568044
 40
3.880558114568044
 40
3.880558114568044
 40
3.880558114568044
 10
185.907121293335
 20
220.1937677098971
 10
185.9005756075949
 20
220.0449394867532
 10
185.9329595265197
 20
220.1136691870245
 10
185.864746590912
 20
219.9817219428946
 10
185.864746590912
 20
219.9817219428946
 10
185.822371888489
 20
219.9605345916831
 10
185.822371888489
 20
219.9605345916831
 10
185.822371888489
 20
219.9605345916831
 10
185.6528730787974
 20
219.9605345916831
 10
185.6528730787974
 20
219.9605345916831
 10
185.6528730787974
 20
219.9605345916831
 10
185.5894832800509
 20
220.002909294106
 10
185.5894832800509
 20
220.002909294106
 10
185.5894832800509
 20
220.002909294106
 10
185.5681236739515
 20
220.0240966453175
 10
185.5681236739515
 20
220.0240966453175
 10
185.5681236739515
 20
220.0240966453175
 10
185.5681236739515
 20
220.045283996529
 10
185.5681236739515
 20
220.045283996529
 10
185.5681236739515
 20
220.045283996529
 10
185.547108577628
 20
220.0876586989519
 10
185.547108577628
 20
220.0876586989519
 10
185.547108577628
 20
220.0876586989519
 10
185.547108577628
 20
220.1513930074742
 10
185.547108577628
 20
220.1513930074742
 10
185.547108577628
 20
220.1513930074742
 10
185.5894832800509
 20
220.23614241232
 10
185.5894832800509
 20
220.23614241232
 10
185.5894832800509
 20
220.23614241232
 10
185.6318579824738
 20
220.2573297635315
 10
185.6318579824738
 20
220.2573297635315
 10
185.7055830744942
 20
220.2566407439799
 10
185.8416644359337
 20
220.3310548555519
 10
185.907121293335
 20
220.1937677098971
 72
     1
 10
185.907121293335
 20
220.1937677098971
 11
185.907121293335
 21
220.1937677098971
 97
        0
 75
     0
 76
     1
 98
        0
450
        0
451
        0
460
0.0
461
0.0
452
        0
462
0.0
453
        0
470

  0
HATCH
  5
2FDE
330
1F
100
AcDbEntity
  8
图层 1
 62
     7
100
AcDbHatch
 10
0.0
 20
0.0
 30
0.0
210
0.0
220
0.0
230
1.0
  2
SOLID
 70
     1
 71
     0
 91
        1
 92
        1
 93
        2
 72
     4
 94
        3
 73
     0
 74
     0
 95
       50
 96
       46
 40
0.0
 40
0.0
 40
0.0
 40
0.0
 40
0.3527780104152769
 40
0.3527780104152769
 40
0.3527780104152769
 40
0.7055560208305538
 40
0.7055560208305538
 40
0.7055560208305538
 40
1.058334031245828
 40
1.058334031245828
 40
1.058334031245828
 40
1.411112041661104
 40
1.411112041661104
 40
1.411112041661104
 40
1.763890052076384
 40
1.763890052076384
 40
1.763890052076384
 40
2.116668062491659
 40
2.116668062491659
 40
2.116668062491659
 40
2.469446072906936
 40
2.469446072906936
 40
2.469446072906936
 40
2.822224083322215
 40
2.822224083322215
 40
2.822224083322215
 40
3.175002093737492
 40
3.175002093737492
 40
3.175002093737492
 40
3.527780104152768
 40
3.527780104152768
 40
3.527780104152768
 40
3.880558114568044
 40
3.880558114568044
 40
3.880558114568044
 40
4.233336124983321
 40
4.233336124983321
 40
4.233336124983321
 40
4.586114135398599
 40
4.586114135398599
 40
4.586114135398599
 40
4.938892145813873
 40
4.938892145813873
 40
4.938892145813873
 40
5.291670156229153
 40
5.291670156229153
 40
5.291670156229153
 40
5.291670156229153
 10
180.9117295442905
 20
208.9327766684477
 10
180.9117295442905
 20
208.9327766684477
 10
180.9117295442905
 20
208.7637946234197
 10
180.9117295442905
 20
208.7637946234197
 10
181.2273004989198
 20
208.6749111012643
 10
181.3833634273555
 20
208.6776671794706
 10
181.6948002646751
 20
208.5097186637701
 10
181.9542161258496
 20
208.4294478860095
 10
182.1388733656765
 20
208.2134402565853
 10
182.3297317814676
 20
208.02292635057
 10
182.3297317814676
 20
208.02292635057
 10
182.435496282637
 20
208.065301052993
 10
182.435496282637
 20
208.065301052993
 10
182.288390608372
 20
208.2733849575739
 10
182.3752070718726
 20
208.2134402565853
 10
182.1605774815516
 20
208.3824223016133
 10
182.1605774815516
 20
208.3824223016133
 10
182.1182027791287
 20
208.4247970040363
 10
182.1182027791287
 20
208.4247970040363
 10
182.1182027791287
 20
208.4247970040363
 10
182.0968431730294
 20
208.467516216235
 10
182.0968431730294
 20
208.467516216235
 10
182.0968431730294
 20
208.467516216235
 10
182.0544684706064
 20
208.4883590576707
 10
182.0544684706064
 20
208.4883590576707
 10
182.0544684706064
 20
208.4883590576707
 10
181.9910786718599
 20
208.5305615052057
 10
181.9910786718599
 20
208.5305615052057
 10
181.9910786718599
 20
208.5305615052057
 10
181.948703969437
 20
208.552093366193
 10
181.948703969437
 20
208.552093366193
 10
181.948703969437
 20
208.552093366193
 10
181.9063292670141
 20
208.5729362076286
 10
181.9063292670141
 20
208.5729362076286
 10
181.9063292670141
 20
208.5729362076286
 10
181.8639545645911
 20
208.6156554198274
 10
181.8639545645911
 20
208.6156554198274
 10
181.8639545645911
 20
208.6156554198274
 10
181.821924371944
 20
208.6368427710388
 10
181.821924371944
 20
208.6368427710388
 10
181.6637943848536
 20
208.6742220817127
 10
181.5452830219797
 20
208.8092699138248
 10
181.3771622513911
 20
208.8061693258427
 10
181.2803550043924
 20
208.8573290275484
 10
181.0126709085988
 20
208.8971199066528
 10
180.9117295442905
 20
208.9327766684477
 72
     1
 10
180.9117295442905
 20
208.9327766684477
 11
180.9117295442905
 21
208.9327766684477
 97
        0
 75
     0
 76
     1
 98
        0
450
        0
451
        0
460
0.0
461
0.0
452
        0
462
0.0
453
        0
470

  0
HATCH
  5
35C8
330
1F
100
AcDbEntity
  8
图层 1
 62
     7
100
AcDbHatch
 10
0.0
 20
0.0
 30
0.0
210
0.0
220
0.0
230
1.0
  2
SOLID
 70
     1
 71
     0
 91
        1
 92
        1
 93
        2
 72
     4
 94
        3
 73
     0
 74
     0
 95
       38
 96
       34
 40
0.0
 40
0.0
 40
0.0
 40
0.0
 40
0.3527780104152769
 40
0.3527780104152769
 40
0.3527780104152769
 40
0.7055560208305538
 40
0.7055560208305538
 40
0.7055560208305538
 40
1.058334031245828
 40
1.058334031245828
 40
1.058334031245828
 40
1.411112041661104
 40
1.411112041661104
 40
1.411112041661104
 40
1.763890052076384
 40
1.763890052076384
 40
1.763890052076384
 40
2.116668062491659
 40
2.116668062491659
 40
2.116668062491659
 40
2.469446072906936
 40
2.469446072906936
 40
2.469446072906936
 40
2.822224083322215
 40
2.822224083322215
 40
2.822224083322215
 40
3.175002093737492
 40
3.175002093737492
 40
3.175002093737492
 40
3.527780104152768
 40
3.527780104152768
 40
3.527780104152768
 40
3.880558114568044
 40
3.880558114568044
 40
3.880558114568044
 40
3.880558114568044
 10
189.145513185819
 20
166.8326485368285
 10
189.207869455238
 20
166.740492171803
 10
189.1317327947871
 20
166.6833035490209
 10
189.103138483396
 20
166.6209472796017
 10
189.103138483396
 20
166.6209472796017
 10
189.0607637809731
 20
166.5997599283903
 10
189.0607637809731
 20
166.5997599283903
 10
189.0607637809731
 20
166.5997599283903
 10
188.9973739822266
 20
166.5785725771788
 10
188.9973739822266
 20
166.5785725771788
 10
188.9973739822266
 20
166.5785725771788
 10
188.9549992798037
 20
166.5997599283903
 10
188.9549992798037
 20
166.5997599283903
 10
188.9549992798037
 20
166.5997599283903
 10
188.8916094810572
 20
166.5997599283903
 10
188.8916094810572
 20
166.5997599283903
 10
188.8916094810572
 20
166.5997599283903
 10
188.8492347786343
 20
166.6209472796017
 10
188.8492347786343
 20
166.6209472796017
 10
188.8492347786343
 20
166.6209472796017
 10
188.8278751725349
 20
166.6633219820247
 10
188.8278751725349
 20
166.6633219820247
 10
188.8278751725349
 20
166.6633219820247
 10
188.8068600762114
 20
166.6845093332361
 10
188.8068600762114
 20
166.6845093332361
 10
188.8068600762114
 20
166.6845093332361
 10
188.8068600762114
 20
166.8326485368285
 10
188.8068600762114
 20
166.8326485368285
 10
188.8068600762114
 20
166.8326485368285
 10
188.8702498749578
 20
166.896038335575
 10
188.8702498749578
 20
166.896038335575
 10
189.0228677056355
 20
166.8819134347673
 10
189.0686875058164
 20
166.9411691162043
 10
189.145513185819
 20
166.8326485368285
 72
     1
 10
189.145513185819
 20
166.8326485368285
 11
189.145513185819
 21
166.8326485368285
 97
        0
 75
     0
 76
     1
 98
        0
450
        0
451
        0
460
0.0
461
0.0
452
        0
462
0.0
453
        0
470

  0
HATCH
  5
35D8
330
1F
100
AcDbEntity
  8
图层 1
 62
     7
100
AcDbHatch
 10
0.0
 20
0.0
 30
0.0
210
0.0
220
0.0
230
1.0
  2
SOLID
 70
     1
 71
     0
 91
        1
 92
        1
 93
        2
 72
     4
 94
        3
 73
     0
 74
     0
 95
       68
 96
       64
 40
0.0
 40
0.0
 40
0.0
 40
0.0
 40
0.3527780104152769
 40
0.3527780104152769
 40
0.3527780104152769
 40
0.7055560208305538
 40
0.7055560208305538
 40
0.7055560208305538
 40
1.058334031245828
 40
1.058334031245828
 40
1.058334031245828
 40
1.411112041661104
 40
1.411112041661104
 40
1.411112041661104
 40
1.763890052076384
 40
1.763890052076384
 40
1.763890052076384
 40
2.116668062491659
 40
2.116668062491659
 40
2.116668062491659
 40
2.469446072906936
 40
2.469446072906936
 40
2.469446072906936
 40
2.822224083322215
 40
2.822224083322215
 40
2.822224083322215
 40
3.175002093737492
 40
3.175002093737492
 40
3.175002093737492
 40
3.527780104152768
 40
3.527780104152768
 40
3.527780104152768
 40
3.880558114568044
 40
3.880558114568044
 40
3.880558114568044
 40
4.233336124983321
 40
4.233336124983321
 40
4.233336124983321
 40
4.586114135398599
 40
4.586114135398599
 40
4.586114135398599
 40
4.938892145813873
 40
4.938892145813873
 40
4.938892145813873
 40
5.291670156229153
 40
5.291670156229153
 40
5.291670156229153
 40
5.64444816664443
 40
5.64444816664443
 40
5.64444816664443
 40
5.997226177059705
 40
5.997226177059705
 40
5.997226177059705
 40
6.350004187474984
 40
6.350004187474984
 40
6.350004187474984
 40
6.702782197890257
 40
6.702782197890257
 40
6.702782197890257
 40
7.055560208305537
 40
7.055560208305537
 40
7.055560208305537
 40
7.408338218720808
 40
7.408338218720808
 40
7.408338218720808
 40
7.408338218720808
 10
174.7732543591544
 20
135.4846705078077
 10
174.7732543591544
 20
135.4846705078077
 10
174.7732543591544
 20
135.3789060066383
 10
174.7732543591544
 20
135.3789060066383
 10
174.7732543591544
 20
135.3789060066383
 10
174.8156290615773
 20
135.3789060066383
 10
174.8156290615773
 20
135.3789060066383
 10
174.8156290615773
 20
135.3789060066383
 10
174.8580037640002
 20
135.3578909103147
 10
174.8580037640002
 20
135.3578909103147
 10
174.8580037640002
 20
135.3578909103147
 10
174.9213935627468
 20
135.3578909103147
 10
174.9213935627468
 20
135.3578909103147
 10
174.9213935627468
 20
135.3578909103147
 10
174.9637682651697
 20
135.3365313042154
 10
174.9637682651697
 20
135.3365313042154
 10
174.9637682651697
 20
135.3365313042154
 10
174.9847833614933
 20
135.3365313042154
 10
174.9847833614933
 20
135.3365313042154
 10
174.9847833614933
 20
135.3365313042154
 10
175.0271580639162
 20
135.3155162078918
 10
175.0271580639162
 20
135.3155162078918
 10
175.0271580639162
 20
135.3155162078918
 10
175.0485176700155
 20
135.2941566017924
 10
175.0485176700155
 20
135.2941566017924
 10
175.0485176700155
 20
135.2941566017924
 10
175.0695327663391
 20
135.2941566017924
 10
175.0695327663391
 20
135.2941566017924
 10
175.0695327663391
 20
135.2941566017924
 10
175.0908923724385
 20
135.2731415054689
 10
175.0908923724385
 20
135.2731415054689
 10
175.0908923724385
 20
135.2731415054689
 10
175.1332670748614
 20
135.2731415054689
 10
175.1332670748614
 20
135.2731415054689
 10
175.1332670748614
 20
135.2731415054689
 10
175.154282171185
 20
135.2517818993695
 10
175.154282171185
 20
135.2517818993695
 10
175.154282171185
 20
135.2517818993695
 10
175.154282171185
 20
135.3578909103147
 10
175.154282171185
 20
135.3578909103147
 10
175.154282171185
 20
135.3578909103147
 10
175.1332670748614
 20
135.3789060066383
 10
175.1332670748614
 20
135.3789060066383
 10
175.1332670748614
 20
135.3789060066383
 10
175.0908923724385
 20
135.3789060066383
 10
175.0908923724385
 20
135.3789060066383
 10
175.0908923724385
 20
135.3789060066383
 10
175.0908923724385
 20
135.3999211029619
 10
175.0908923724385
 20
135.3999211029619
 10
175.0908923724385
 20
135.3999211029619
 10
175.0695327663391
 20
135.3999211029619
 10
175.0695327663391
 20
135.3999211029619
 10
175.0695327663391
 20
135.3999211029619
 10
175.0271580639162
 20
135.4212807090612
 10
175.0271580639162
 20
135.4212807090612
 10
175.0271580639162
 20
135.4212807090612
 10
175.0061429675926
 20
135.4212807090612
 10
175.0061429675926
 20
135.4212807090612
 10
175.0061429675926
 20
135.4212807090612
 10
174.9637682651697
 20
135.4422958053848
 10
174.9637682651697
 20
135.4422958053848
 10
174.8996894468716
 20
135.4498750204523
 10
174.8394002361073
 20
135.4860485469109
 10
174.7732543591544
 20
135.4846705078077
 72
     1
 10
174.7732543591544
 20
135.4846705078077
 11
174.7732543591544
 21
135.4846705078077
 97
        0
 75
     0
 76
     1
 98
        0
450
        0
451
        0
460
0.0
461
0.0
452
        0
462
0.0
453
        0
470

  0
HATCH
  5
3807
330
1F
100
AcDbEntity
  8
图层 1
 62
     7
100
AcDbHatch
 10
0.0
 20
0.0
 30
0.0
210
0.0
220
0.0
230
1.0
  2
SOLID
 70
     1
 71
     0
 91
        1
 92
        1
 93
        2
 72
     4
 94
        3
 73
     0
 74
     0
 95
       29
 96
       25
 40
0.0
 40
0.0
 40
0.0
 40
0.0
 40
0.3527780104152769
 40
0.3527780104152769
 40
0.3527780104152769
 40
0.7055560208305538
 40
0.7055560208305538
 40
0.7055560208305538
 40
1.058334031245828
 40
1.058334031245828
 40
1.058334031245828
 40
1.411112041661104
 40
1.411112041661104
 40
1.411112041661104
 40
1.763890052076384
 40
1.763890052076384
 40
1.763890052076384
 40
2.116668062491659
 40
2.116668062491659
 40
2.116668062491659
 40
2.469446072906936
 40
2.469446072906936
 40
2.469446072906936
 40
2.822224083322215
 40
2.822224083322215
 40
2.822224083322215
 40
2.822224083322215
 10
175.4929352807925
 20
164.0174869039101
 10
175.4929352807925
 20
164.0174869039101
 10
175.5139503771161
 20
163.9751122014871
 10
175.5139503771161
 20
163.9751122014871
 10
175.5139503771161
 20
163.9751122014871
 10
175.5139503771161
 20
163.9327374990642
 10
175.5139503771161
 20
163.9327374990642
 10
175.5139503771161
 20
163.9327374990642
 10
175.4929352807925
 20
163.8903627966413
 10
175.4929352807925
 20
163.8903627966413
 10
175.4929352807925
 20
163.8903627966413
 10
175.471920184469
 20
163.8691754454298
 10
175.471920184469
 20
163.8691754454298
 10
175.471920184469
 20
163.8691754454298
 10
175.4505605783696
 20
163.8269729978948
 10
175.4505605783696
 20
163.8269729978948
 10
175.3571984291289
 20
163.7715069239916
 10
175.272449024283
 20
163.8195660377152
 10
175.1966568736079
 20
163.8691754454298
 10
175.208370205985
 20
163.9930267098286
 10
175.1563492298397
 20
164.0216210212197
 10
175.2600466723544
 20
164.0596893514451
 10
175.3330827448232
 20
164.1094710140476
 10
175.4357466580104
 20
164.0753645462439
 10
175.4929352807925
 20
164.0174869039101
 72
     1
 10
175.4929352807925
 20
164.0174869039101
 11
175.4929352807925
 21
164.0174869039101
 97
        0
 75
     0
 76
     1
 98
        0
450
        0
451
        0
460
0.0
461
0.0
452
        0
462
0.0
453
        0
470

  0
HATCH
  5
3895
330
1F
100
AcDbEntity
  8
图层 1
 62
     7
100
AcDbHatch
 10
0.0
 20
0.0
 30
0.0
210
0.0
220
0.0
230
1.0
  2
SOLID
 70
     1
 71
     0
 91
        1
 92
        1
 93
        2
 72
     4
 94
        3
 73
     0
 74
     0
 95
       11
 96
        7
 40
0.0
 40
0.0
 40
0.0
 40
0.0
 40
0.3527780104152769
 40
0.3527780104152769
 40
0.3527780104152769
 40
0.7055560208305538
 40
0.7055560208305538
 40
0.7055560208305538
 40
0.7055560208305538
 10
174.9213935627468
 20
174.5369206529582
 10
174.9213935627468
 20
174.5369206529582
 10
174.9213935627468
 20
174.3043765542958
 10
174.9213935627468
 20
174.3043765542958
 10
174.9213935627468
 20
174.3043765542958
 10
174.9213935627468
 20
174.5369206529582
 10
174.9213935627468
 20
174.5369206529582
 72
     1
 10
174.9213935627468
 20
174.5369206529582
 11
174.9213935627468
 21
174.5369206529582
 97
        0
 75
     0
 76
     1
 98
        0
450
        0
451
        0
460
0.0
461
0.0
452
        0
462
0.0
453
        0
470

  0
HATCH
  5
3943
330
1F
100
AcDbEntity
  8
图层 1
 62
     7
100
AcDbHatch
 10
0.0
 20
0.0
 30
0.0
210
0.0
220
0.0
230
1.0
  2
SOLID
 70
     1
 71
     0
 91
        1
 92
        1
 93
        2
 72
     4
 94
        3
 73
     0
 74
     0
 95
      131
 96
      127
 40
0.0
 40
0.0
 40
0.0
 40
0.0
 40
0.3527780104152769
 40
0.3527780104152769
 40
0.3527780104152769
 40
0.7055560208305538
 40
0.7055560208305538
 40
0.7055560208305538
 40
1.058334031245828
 40
1.058334031245828
 40
1.058334031245828
 40
1.411112041661104
 40
1.411112041661104
 40
1.411112041661104
 40
1.763890052076384
 40
1.763890052076384
 40
1.763890052076384
 40
2.116668062491659
 40
2.116668062491659
 40
2.116668062491659
 40
2.469446072906936
 40
2.469446072906936
 40
2.469446072906936
 40
2.822224083322215
 40
2.822224083322215
 40
2.822224083322215
 40
3.175002093737492
 40
3.175002093737492
 40
3.175002093737492
 40
3.527780104152768
 40
3.527780104152768
 40
3.527780104152768
 40
3.880558114568044
 40
3.880558114568044
 40
3.880558114568044
 40
4.233336124983321
 40
4.233336124983321
 40
4.233336124983321
 40
4.586114135398599
 40
4.586114135398599
 40
4.586114135398599
 40
4.938892145813873
 40
4.938892145813873
 40
4.938892145813873
 40
5.291670156229153
 40
5.291670156229153
 40
5.291670156229153
 40
5.64444816664443
 40
5.64444816664443
 40
5.64444816664443
 40
5.997226177059705
 40
5.997226177059705
 40
5.997226177059705
 40
6.350004187474984
 40
6.350004187474984
 40
6.350004187474984
 40
6.702782197890257
 40
6.702782197890257
 40
6.702782197890257
 40
7.055560208305537
 40
7.055560208305537
 40
7.055560208305537
 40
7.408338218720808
 40
7.408338218720808
 40
7.408338218720808
 40
7.76111622913609
 40
7.76111622913609
 40
7.76111622913609
 40
8.113894239551369
 40
8.113894239551369
 40
8.113894239551369
 40
8.466672249966642
 40
8.466672249966642
 40
8.466672249966642
 40
8.819450260381922
 40
8.819450260381922
 40
8.819450260381922
 40
9.172228270797198
 40
9.172228270797198
 40
9.172228270797198
 40
9.525006281212476
 40
9.525006281212476
 40
9.525006281212476
 40
9.877784291627751
 40
9.877784291627751
 40
9.877784291627751
 40
10.23056230204303
 40
10.23056230204303
 40
10.23056230204303
 40
10.58334031245831
 40
10.58334031245831
 40
10.58334031245831
 40
10.93611832287358
 40
10.93611832287358
 40
10.93611832287358
 40
11.28889633328886
 40
11.28889633328886
 40
11.28889633328886
 40
11.64167434370414
 40
11.64167434370414
 40
11.64167434370414
 40
11.99445235411941
 40
11.99445235411941
 40
11.99445235411941
 40
12.34723036453469
 40
12.34723036453469
 40
12.34723036453469
 40
12.70000837494997
 40
12.70000837494997
 40
12.70000837494997
 40
13.05278638536524
 40
13.05278638536524
 40
13.05278638536524
 40
13.40556439578052
 40
13.40556439578052
 40
13.40556439578052
 40
13.7583424061958
 40
13.7583424061958
 40
13.7583424061958
 40
14.11112041661107
 40
14.11112041661107
 40
14.11112041661107
 40
14.46389842702635
 40
14.46389842702635
 40
14.46389842702635
 40
14.81667643744163
 40
14.81667643744163
 40
14.81667643744163
 40
14.81667643744163
 10
173.3972823146245
 20
126.8274843518258
 10
173.3972823146245
 20
126.8274843518258
 10
173.3972823146245
 20
126.7217198506564
 10
173.3972823146245
 20
126.7217198506564
 10
173.3972823146245
 20
126.7217198506564
 10
173.4186419207238
 20
126.7217198506564
 10
173.4186419207238
 20
126.7217198506564
 10
173.4186419207238
 20
126.7217198506564
 10
173.4820317194703
 20
126.7007047543328
 10
173.4820317194703
 20
126.7007047543328
 10
173.4820317194703
 20
126.7007047543328
 10
173.5244064218933
 20
126.6793451482334
 10
173.5244064218933
 20
126.6793451482334
 10
173.5244064218933
 20
126.6793451482334
 10
173.5877962206398
 20
126.6793451482334
 10
173.5877962206398
 20
126.6793451482334
 10
173.5877962206398
 20
126.6793451482334
 10
173.6301709230627
 20
126.6583300519099
 10
173.6301709230627
 20
126.6583300519099
 10
173.7955356154449
 20
126.5911506456296
 10
173.759706598762
 20
126.6380039751379
 10
173.9478089363468
 20
126.5525655507404
 10
173.9478089363468
 20
126.5525655507404
 10
173.9688240326703
 20
126.4464565397952
 10
173.9688240326703
 20
126.4464565397952
 10
173.9688240326703
 20
126.4464565397952
 10
174.0325583411926
 20
126.5101908483175
 10
174.0325583411926
 20
126.5101908483175
 10
174.0325583411926
 20
126.5101908483175
 10
174.0749330436156
 20
126.5101908483175
 10
174.0749330436156
 20
126.5101908483175
 10
174.0749330436156
 20
126.5101908483175
 10
174.1593379386856
 20
126.4678161458946
 10
174.1593379386856
 20
126.4678161458946
 10
174.1593379386856
 20
126.4678161458946
 10
174.180697544785
 20
126.4464565397952
 10
174.180697544785
 20
126.4464565397952
 10
174.2464989119621
 20
126.3982251711837
 10
174.3298702777047
 20
126.3716979184474
 10
174.3922265471239
 20
126.3196769423022
 10
174.608234176548
 20
126.2059887162895
 10
174.7749769080334
 20
126.0278771622029
 10
174.9637682651697
 20
125.8749148217494
 10
174.9637682651697
 20
125.8749148217494
 10
175.0061429675926
 20
125.9172895241723
 10
175.0061429675926
 20
125.9172895241723
 10
174.961356696739
 20
125.9631093243532
 10
174.782211613325
 20
126.1246844092016
 10
174.7308796567315
 20
126.1501781326105
 10
174.7308796567315
 20
126.1501781326105
 10
174.6885049543085
 20
126.1925528350335
 10
174.6885049543085
 20
126.1925528350335
 10
174.6885049543085
 20
126.1925528350335
 10
174.667489857985
 20
126.2349275374564
 10
174.667489857985
 20
126.2349275374564
 10
174.667489857985
 20
126.2349275374564
 10
174.625115155562
 20
126.2559426337799
 10
174.625115155562
 20
126.2559426337799
 10
174.625115155562
 20
126.2559426337799
 10
174.5827404531391
 20
126.2983173362029
 10
174.5827404531391
 20
126.2983173362029
 10
174.5827404531391
 20
126.2983173362029
 10
174.5403657507162
 20
126.3196769423022
 10
174.5403657507162
 20
126.3196769423022
 10
174.5403657507162
 20
126.3196769423022
 10
174.4979910482932
 20
126.3620516447252
 10
174.4979910482932
 20
126.3620516447252
 10
174.4735308542117
 20
126.3875453681341
 10
174.3247026310678
 20
126.4695386947736
 10
174.2864620459544
 20
126.4888312422181
 10
174.2864620459544
 20
126.4888312422181
 10
174.2654469496308
 20
126.5101908483175
 10
174.2654469496308
 20
126.5101908483175
 10
174.2654469496308
 20
126.5101908483175
 10
174.2230722472079
 20
126.5312059446411
 10
174.2230722472079
 20
126.5312059446411
 10
174.2230722472079
 20
126.5312059446411
 10
174.2017126411085
 20
126.5525655507404
 10
174.2017126411085
 20
126.5525655507404
 10
174.2017126411085
 20
126.5525655507404
 10
174.1383228423621
 20
126.573580647064
 10
174.1383228423621
 20
126.573580647064
 10
174.1383228423621
 20
126.573580647064
 10
174.1169632362627
 20
126.5945957433876
 10
174.1169632362627
 20
126.5945957433876
 10
174.1169632362627
 20
126.5945957433876
 10
174.0959481399391
 20
126.7007047543328
 10
174.0959481399391
 20
126.7007047543328
 10
174.0959481399391
 20
126.7007047543328
 10
174.0325583411926
 20
126.6369704458105
 10
174.0325583411926
 20
126.6369704458105
 10
174.0325583411926
 20
126.6369704458105
 10
173.9901836387697
 20
126.6369704458105
 10
173.9901836387697
 20
126.6369704458105
 10
173.9901836387697
 20
126.6369704458105
 10
173.9054342339239
 20
126.6793451482334
 10
173.9054342339239
 20
126.6793451482334
 10
173.9054342339239
 20
126.6793451482334
 10
173.8420444351773
 20
126.7007047543328
 10
173.8420444351773
 20
126.7007047543328
 10
173.8420444351773
 20
126.7007047543328
 10
173.7996697327544
 20
126.7217198506564
 10
173.7996697327544
 20
126.7217198506564
 10
173.7996697327544
 20
126.7217198506564
 10
173.7572950303315
 20
126.7217198506564
 10
173.7572950303315
 20
126.7217198506564
 10
173.7572950303315
 20
126.7217198506564
 10
173.6725456254856
 20
126.7640945530793
 10
173.6725456254856
 20
126.7640945530793
 10
173.6725456254856
 20
126.7640945530793
 10
173.6515305291621
 20
126.7640945530793
 10
173.6515305291621
 20
126.7640945530793
 10
173.6515305291621
 20
126.7640945530793
 10
173.5667811243162
 20
126.7851096494029
 10
173.5667811243162
 20
126.7851096494029
 10
173.5667811243162
 20
126.7851096494029
 10
173.5033913255697
 20
126.8064692555022
 10
173.5033913255697
 20
126.8064692555022
 10
173.5033913255697
 20
126.8064692555022
 10
173.4396570170474
 20
126.8064692555022
 10
173.4396570170474
 20
126.8064692555022
 10
173.4396570170474
 20
126.8064692555022
 10
173.4186419207238
 20
126.8274843518258
 10
173.4186419207238
 20
126.8274843518258
 10
173.4186419207238
 20
126.8274843518258
 10
173.3972823146245
 20
126.8274843518258
 10
173.3972823146245
 20
126.8274843518258
 72
     1
 10
173.3972823146245
 20
126.8274843518258
 11
173.3972823146245
 21
126.8274843518258
 97
        0
 75
     0
 76
     1
 98
        0
450
        0
451
        0
460
0.0
461
0.0
452
        0
462
0.0
453
        0
470

  0
HATCH
  5
4842
330
1F
100
AcDbEntity
  8
图层 1
 62
     7
100
AcDbHatch
 10
0.0
 20
0.0
 30
0.0
210
0.0
220
0.0
230
1.0
  2
SOLID
 70
     1
 71
     0
 91
        1
 92
        1
 93
        2
 72
     4
 94
        3
 73
     0
 74
     0
 95
       47
 96
       43
 40
0.0
 40
0.0
 40
0.0
 40
0.0
 40
0.3527780104152769
 40
0.3527780104152769
 40
0.3527780104152769
 40
0.7055560208305538
 40
0.7055560208305538
 40
0.7055560208305538
 40
1.058334031245828
 40
1.058334031245828
 40
1.058334031245828
 40
1.411112041661104
 40
1.411112041661104
 40
1.411112041661104
 40
1.763890052076384
 40
1.763890052076384
 40
1.763890052076384
 40
2.116668062491659
 40
2.116668062491659
 40
2.116668062491659
 40
2.469446072906936
 40
2.469446072906936
 40
2.469446072906936
 40
2.822224083322215
 40
2.822224083322215
 40
2.822224083322215
 40
3.175002093737492
 40
3.175002093737492
 40
3.175002093737492
 40
3.527780104152768
 40
3.527780104152768
 40
3.527780104152768
 40
3.880558114568044
 40
3.880558114568044
 40
3.880558114568044
 40
4.233336124983321
 40
4.233336124983321
 40
4.233336124983321
 40
4.586114135398599
 40
4.586114135398599
 40
4.586114135398599
 40
4.938892145813873
 40
4.938892145813873
 40
4.938892145813873
 40
4.938892145813873
 10
180.1920486226523
 20
255.6479577566324
 10
180.1920486226523
 20
255.6479577566324
 10
180.2130637189759
 20
255.6055830542095
 10
180.2130637189759
 20
255.6055830542095
 10
180.2130637189759
 20
255.6055830542095
 10
180.2130637189759
 20
255.5210059042515
 10
180.2130637189759
 20
255.5210059042515
 10
180.2130637189759
 20
255.5210059042515
 10
180.1920486226523
 20
255.4786312018286
 10
180.1920486226523
 20
255.4786312018286
 10
180.1920486226523
 20
255.4786312018286
 10
180.1496739202294
 20
255.4359119896299
 10
180.1496739202294
 20
255.4359119896299
 10
180.1496739202294
 20
255.4359119896299
 10
180.1283143141301
 20
255.4147246384184
 10
180.1283143141301
 20
255.4147246384184
 10
180.1283143141301
 20
255.4147246384184
 10
180.0225498129606
 20
255.4147246384184
 10
180.0225498129606
 20
255.4147246384184
 10
180.0225498129606
 20
255.4147246384184
 10
179.9591600142141
 20
255.4359119896299
 10
179.9591600142141
 20
255.4359119896299
 10
179.9591600142141
 20
255.4359119896299
 10
179.9167853117912
 20
255.4570993408414
 10
179.9167853117912
 20
255.4570993408414
 10
179.9167853117912
 20
255.4570993408414
 10
179.8957702154676
 20
255.4786312018286
 10
179.8957702154676
 20
255.4786312018286
 10
179.8957702154676
 20
255.4786312018286
 10
179.8744106093683
 20
255.4994740432643
 10
179.8744106093683
 20
255.4994740432643
 10
179.8744106093683
 20
255.4994740432643
 10
179.8744106093683
 20
255.6479577566324
 10
179.8744106093683
 20
255.6479577566324
 10
179.9608825630931
 20
255.7323626517025
 10
180.045631967939
 20
255.7085914771726
 10
180.1496739202294
 20
255.7115198102668
 10
180.1496739202294
 20
255.7115198102668
 10
180.170689016553
 20
255.6688005980681
 10
180.170689016553
 20
255.6688005980681
 10
180.170689016553
 20
255.6688005980681
 10
180.1920486226523
 20
255.6479577566324
 10
180.1920486226523
 20
255.6479577566324
 72
     1
 10
180.1920486226523
 20
255.6479577566324
 11
180.1920486226523
 21
255.6479577566324
 97
        0
 75
     0
 76
     1
 98
        0
450
        0
451
        0
460
0.0
461
0.0
452
        0
462
0.0
453
        0
470

  0
MTEXT
  5
65A0
330
1F
100
AcDbEntity
  8
图框
 62
     3
100
AcDbMText
 10
599.071704550352
 20
228.6676486843801
 30
0.0
 40
1.492756787517073
 41
16.80619599621068
 46
4.343372752842933
 71
     5
 72
     5
  1
GPIN-M3/S
  7
Romans字体
 73
     1
 44
1.0
1001
ACAD
1000
ACAD_MTEXT_DEFINED_HEIGHT_BEGIN
1070
    46
1040
4.343372752842933
1000
ACAD_MTEXT_DEFINED_HEIGHT_END
  0
MTEXT
  5
65A1
330
1F
100
AcDbEntity
  8
图框
 62
     3
100
AcDbMText
 10
599.071704550352
 20
224.277923420967
 30
0.0
 40
1.492756787517073
 41
16.80619599621068
 46
4.43607777398305
 71
     5
 72
     5
  1
1980020050017
  7
Romans字体
 73
     1
 44
1.0
1001
ACAD
1000
ACAD_MTEXT_DEFINED_HEIGHT_BEGIN
1070
    46
1040
4.43607777398305
1000
ACAD_MTEXT_DEFINED_HEIGHT_END
  0
MTEXT
  5
65A3
330
1F
100
AcDbEntity
  8
图框
 62
     3
100
AcDbMText
 10
565.0448720850595
 20
217.6241058815945
 30
0.0
 40
1.492756787517073
 41
5.414674217195233
 46
3.943047300605248
 71
     5
 72
     5
  1
2:1
  7
Romans字体
 73
     1
 44
1.0
1001
ACAD
1000
ACAD_MTEXT_DEFINED_HEIGHT_BEGIN
1070
    46
1040
3.943047300605248
1000
ACAD_MTEXT_DEFINED_HEIGHT_END
  0
MTEXT
  5
65A4
330
1F
100
AcDbEntity
  8
图框
 62
     3
100
AcDbMText
 10
570.4595463022549
 20
217.6241058815946
 30
0.0
 40
1.492756787517073
 41
5.41467421719563
 46
3.943047300605227
 71
     5
 72
     5
  1
V1.0 
  7
Romans字体
 73
     1
 44
1.0
1001
ACAD
1000
ACAD_MTEXT_DEFINED_HEIGHT_BEGIN
1070
    46
1040
3.943047300605227
1000
ACAD_MTEXT_DEFINED_HEIGHT_END
  0
MTEXT
  5
65B2
330
1F
100
AcDbEntity
  8
图框
 62
     3
100
AcDbMText
 10
575.8742205194506
 20
217.6241058815946
 30
0.0
 40
1.492756787517073
 41
16.80619599621068
 46
3.943047300605201
 71
     5
 72
     5
  1
1.7g 
  7
Romans字体
 73
     1
 44
1.0
1001
ACAD
1000
ACAD_MTEXT_DEFINED_HEIGHT_BEGIN
1070
    46
1040
3.943047300605201
1000
ACAD_MTEXT_DEFINED_HEIGHT_END
  0
INSERT
  5
11089
330
1F
100
AcDbEntity
  8
DIM
100
AcDbBlockReference
  2
A4图框-NEW
 10
44.01055124327593
 20
-30.29676506807346
 30
0.0
 41
0.5
 42
0.5
 43
0.5
  0
MTEXT
  5
1A5D3
102
{ACAD_XDICTIONARY
360
1B215
102
}
330
1F
100
AcDbEntity
  8
打标文字
 62
     3
100
AcDbMText
 10
581.7563858846961
 20
254.7081011286576
 30
0.0
 40
1.5
 41
40.58854755587267
 46
49.02347725636656
 71
     1
 72
     5
  1
\A1;技术参数:\P- 材料： 不锈钢\P- 螺纹规格: {\Fromans|c134;M3}\P{\Fromans|c134;\PTechnical specification:\P- Material: steel\P- Thread size: M3}
 73
     1
 44
1.0
1001
ACAD
1000
ACAD_MTEXT_DEFINED_HEIGHT_BEGIN
1070
    46
1040
49.02347725636656
1000
ACAD_MTEXT_DEFINED_HEIGHT_END
  0
DIMENSION
  5
1AC30
102
{ACAD_XDICTIONARY
360
1AC31
102
}
102
{ACAD_REACTORS
330
1AC32
102
}
330
1F
100
AcDbEntity
  8
DIM
100
AcDbDimension
  2
*D5
 10
509.0995891139376
 20
269.0211587177298
 30
0.0
 11
513.7045891139377
 21
270.5511587177298
 31
0.0
 70
    32
 71
     5
 42
2.0
 73
     0
 74
     0
 75
     0
  3
01
100
AcDbAlignedDimension
 13
507.0995891139378
 23
264.3890508232305
 33
0.0
 14
509.0995891139376
 24
264.3890508232304
 34
0.0
 50
180.0
100
AcDbRotatedDimension
1001
ACAD
1000
DSTYLE
1002
{
1070
    40
1040
0.6
1070
   289
1070
     2
1002
}
  0
DIMENSION
  5
1AC33
102
{ACAD_XDICTIONARY
360
1AC34
102
}
102
{ACAD_REACTORS
330
1AC35
102
}
330
1F
100
AcDbEntity
  8
DIM
100
AcDbDimension
  2
*D6
 10
509.0224775662407
 20
263.8390508232305
 30
0.0
 11
503.4919043036807
 21
258.0886940087968
 31
0.0
 70
    36
 71
     5
 42
1.999999999999428
 73
     0
 74
     0
 75
     0
  3
01
100
AcDbRadialDimension
 15
508.4515721930062
 25
261.9222652184196
 35
0.0
 40
0.0
1001
ACAD
1000
DSTYLE
1002
{
1070
    41
1040
2.0
1070
    42
1040
0.0
1070
    44
1040
0.5
1070
    73
1070
     1
1070
    74
1070
     1
1070
    77
1070
     0
1070
   140
1040
2.5
1070
   147
1040
0.3
1070
   271
1070
     2
1070
   272
1070
     2
1070
   288
1070
     1
1002
}
  0
DIMENSION
  5
1AC36
102
{ACAD_XDICTIONARY
360
1AC37
102
}
102
{ACAD_REACTORS
330
1AC38
102
}
330
1F
100
AcDbEntity
  8
DIM
100
AcDbDimension
  2
*D7
 10
549.7669162710526
 20
265.3906048374151
 30
0.0
 11
547.9986576084835
 21
258.5228852941928
 31
0.0
 70
   163
 71
     5
 42
3.999999999998748
 73
     0
 74
     0
 75
     0
  3
01$3
100
AcDbDiametricDimension
 15
547.2428876332883
 25
262.2874968090449
 35
0.0
 40
0.0
1001
ACAD
1000
DSTYLE
1002
{
1070
   288
1070
     1
1002
}
  0
CIRCLE
  5
1AC39
330
1F
100
AcDbEntity
  8
0
  6
HIDDEN
370
    13
100
AcDbCircle
 10
548.5049019521708
 20
263.8390508232305
 30
0.0
 40
1.35
  0
CIRCLE
  5
1AC3A
330
1F
100
AcDbEntity
  8
0
  6
HIDDEN
370
    13
100
AcDbCircle
 10
548.5049019521708
 20
263.8390508232305
 30
0.0
 40
1.499999999999884
  0
CIRCLE
  5
1AC3B
330
1F
100
AcDbEntity
  8
0
  6
HIDDEN
370
    13
100
AcDbCircle
 10
548.5049019521708
 20
263.8390508232305
 30
0.0
 40
1.150000000000011
  0
CIRCLE
  5
1AC3C
102
{ACAD_REACTORS
330
1AC38
102
}
330
1F
100
AcDbEntity
  8
0
 62
     0
100
AcDbCircle
 10
548.5049019521708
 20
263.8390508232305
 30
0.0
 40
1.999999999999992
  0
ARC
  5
1AC3D
102
{ACAD_REACTORS
330
1AC35
102
}
330
1F
100
AcDbEntity
  8
0
100
AcDbCircle
 10
509.0224775662407
 20
263.8390508232304
 30
0.0
 40
1.999999999999992
100
AcDbArc
 50
195.9620141628445
 51
270.0
  0
LINE
  5
1AC3E
330
1F
100
AcDbEntity
  8
0
100
AcDbLine
 10
509.0224775662407
 20
261.8390508232305
 30
0.0
 11
509.0224775662407
 21
263.2890508232305
 31
0.0
  0
LINE
  5
1AC3F
330
1F
100
AcDbEntity
  8
0
100
AcDbLine
 10
509.0224775662407
 20
264.3890508232304
 30
0.0
 11
509.0224775662407
 21
265.8390508232305
 31
0.0
  0
ARC
  5
1AC40
102
{ACAD_REACTORS
330
1AC32
102
}
330
1F
100
AcDbEntity
  8
0
100
AcDbCircle
 10
509.0224775662407
 20
263.8390508232304
 30
0.0
 40
1.999999999999992
100
AcDbArc
 50
90.0
 51
164.0379858371505
  0
LINE
  5
1AC41
330
1F
100
AcDbEntity
  8
0
100
AcDbLine
 10
522.8995891139377
 20
265.8390508232305
 30
0.0
 11
509.0224775662407
 21
265.8390508232305
 31
0.0
  0
LINE
  5
1AC42
330
1F
100
AcDbEntity
  8
0
100
AcDbLine
 10
522.8995891139377
 20
261.8390508232305
 30
0.0
 11
509.0224775662407
 21
261.8390508232305
 31
0.0
  0
LINE
  5
1AC43
330
1F
100
AcDbEntity
  8
0
100
AcDbLine
 10
522.8995891139377
 20
261.8390508232305
 30
0.0
 11
522.8995891139377
 21
265.8390508232305
 31
0.0
  0
LINE
  5
1AC44
330
1F
100
AcDbEntity
  8
0
100
AcDbLine
 10
526.8995891139377
 20
262.6890508232305
 30
0.0
 11
522.8995891139377
 21
262.6890508232305
 31
0.0
  0
LINE
  5
1AC45
330
1F
100
AcDbEntity
  8
0
100
AcDbLine
 10
526.8995891139377
 20
264.9890508232305
 30
0.0
 11
522.8995891139377
 21
264.9890508232306
 31
0.0
  0
LINE
  5
1AC46
330
1F
100
AcDbEntity
  8
0
100
AcDbLine
 10
531.8995891139377
 20
262.5890508232304
 30
0.0
 11
531.8995891139377
 21
265.089050785768
 31
0.0
  0
LINE
  5
1AC47
102
{ACAD_REACTORS
330
1ACC1
102
}
330
1F
100
AcDbEntity
  8
0
100
AcDbLine
 10
531.7745891139377
 20
262.3390508232304
 30
0.0
 11
531.7745891139377
 21
265.3390508232305
 31
0.0
  0
LINE
  5
1AC48
330
1F
100
AcDbEntity
  8
0
100
AcDbLine
 10
531.6495891139377
 20
262.5890508232304
 30
0.0
 11
531.6495891139377
 21
265.0890507857679
 31
0.0
  0
LINE
  5
1AC49
330
1F
100
AcDbEntity
  8
0
100
AcDbLine
 10
531.5245891139377
 20
262.3390508232304
 30
0.0
 11
531.5245891139377
 21
265.3390508232304
 31
0.0
  0
LINE
  5
1AC4A
330
1F
100
AcDbEntity
  8
0
100
AcDbLine
 10
531.3995891139377
 20
262.5890508232304
 30
0.0
 11
531.3995891139377
 21
265.0890507857677
 31
0.0
  0
LINE
  5
1AC4B
330
1F
100
AcDbEntity
  8
0
100
AcDbLine
 10
531.2745891139377
 20
262.3390508232304
 30
0.0
 11
531.2745891139377
 21
265.3390508232304
 31
0.0
  0
LINE
  5
1AC4C
330
1F
100
AcDbEntity
  8
0
100
AcDbLine
 10
531.1495891139377
 20
262.5890508232304
 30
0.0
 11
531.1495891139377
 21
265.0890507857677
 31
0.0
  0
LINE
  5
1AC4D
330
1F
100
AcDbEntity
  8
0
100
AcDbLine
 10
531.0245891139377
 20
262.3390508232304
 30
0.0
 11
531.0245891139377
 21
265.3390508232304
 31
0.0
  0
LINE
  5
1AC4E
330
1F
100
AcDbEntity
  8
0
100
AcDbLine
 10
530.8995891139377
 20
262.5890508232304
 30
0.0
 11
530.8995891139377
 21
265.0890507857677
 31
0.0
  0
LINE
  5
1AC4F
330
1F
100
AcDbEntity
  8
0
100
AcDbLine
 10
530.7745891139377
 20
262.3390508232304
 30
0.0
 11
530.7745891139377
 21
265.3390508232304
 31
0.0
  0
LINE
  5
1AC50
330
1F
100
AcDbEntity
  8
0
100
AcDbLine
 10
530.6495891139377
 20
262.5890508232304
 30
0.0
 11
530.6495891139377
 21
265.0890507857677
 31
0.0
  0
LINE
  5
1AC51
330
1F
100
AcDbEntity
  8
0
100
AcDbLine
 10
530.5245891139377
 20
262.3390508232304
 30
0.0
 11
530.5245891139377
 21
265.3390508232304
 31
0.0
  0
LINE
  5
1AC52
330
1F
100
AcDbEntity
  8
0
100
AcDbLine
 10
530.3995891139377
 20
262.5890508232304
 30
0.0
 11
530.3995891139377
 21
265.0890507857677
 31
0.0
  0
LINE
  5
1AC53
330
1F
100
AcDbEntity
  8
0
100
AcDbLine
 10
530.2745891139377
 20
262.3390508232304
 30
0.0
 11
530.2745891139377
 21
265.3390508232304
 31
0.0
  0
LINE
  5
1AC54
330
1F
100
AcDbEntity
  8
0
100
AcDbLine
 10
530.1495891139377
 20
262.5890508232304
 30
0.0
 11
530.1495891139377
 21
265.0890507857677
 31
0.0
  0
LINE
  5
1AC55
330
1F
100
AcDbEntity
  8
0
100
AcDbLine
 10
530.0245891139377
 20
262.3390508232304
 30
0.0
 11
530.0245891139377
 21
265.3390508232304
 31
0.0
  0
LINE
  5
1AC56
330
1F
100
AcDbEntity
  8
0
100
AcDbLine
 10
529.8995891139377
 20
262.5890508232304
 30
0.0
 11
529.8995891139377
 21
265.089050785768
 31
0.0
  0
LINE
  5
1AC57
330
1F
100
AcDbEntity
  8
0
100
AcDbLine
 10
529.7745891139377
 20
262.3390508232304
 30
0.0
 11
529.7745891139377
 21
265.3390508232304
 31
0.0
  0
LINE
  5
1AC58
330
1F
100
AcDbEntity
  8
0
100
AcDbLine
 10
529.6495891139377
 20
262.5890508232304
 30
0.0
 11
529.6495891139377
 21
265.089050785768
 31
0.0
  0
LINE
  5
1AC59
330
1F
100
AcDbEntity
  8
0
100
AcDbLine
 10
529.5245891139377
 20
262.3390508232304
 30
0.0
 11
529.5245891139377
 21
265.3390508232304
 31
0.0
  0
LINE
  5
1AC5A
330
1F
100
AcDbEntity
  8
0
100
AcDbLine
 10
529.3995891139377
 20
262.5890508232309
 30
0.0
 11
529.3995891139377
 21
265.0890507857686
 31
0.0
  0
LINE
  5
1AC5B
330
1F
100
AcDbEntity
  8
0
100
AcDbLine
 10
529.2745891139377
 20
262.3390508232304
 30
0.0
 11
529.2745891139377
 21
265.3390508232304
 31
0.0
  0
LINE
  5
1AC5C
330
1F
100
AcDbEntity
  8
0
100
AcDbLine
 10
529.1495891139377
 20
262.5890508232309
 30
0.0
 11
529.1495891139377
 21
265.0890507857679
 31
0.0
  0
LINE
  5
1AC5D
330
1F
100
AcDbEntity
  8
0
100
AcDbLine
 10
529.0245891139377
 20
262.3390508232304
 30
0.0
 11
529.0245891139377
 21
265.3390508232304
 31
0.0
  0
LINE
  5
1AC5E
330
1F
100
AcDbEntity
  8
0
100
AcDbLine
 10
528.8995891139377
 20
262.5890508232304
 30
0.0
 11
528.8995891139377
 21
265.0890507857681
 31
0.0
  0
LINE
  5
1AC5F
330
1F
100
AcDbEntity
  8
0
100
AcDbLine
 10
528.7745891139377
 20
262.3390508232304
 30
0.0
 11
528.7745891139377
 21
265.3390508232304
 31
0.0
  0
LINE
  5
1AC60
330
1F
100
AcDbEntity
  8
0
100
AcDbLine
 10
528.6495891139377
 20
262.5890508232304
 30
0.0
 11
528.6495891139377
 21
265.0890507857681
 31
0.0
  0
LINE
  5
1AC61
330
1F
100
AcDbEntity
  8
0
100
AcDbLine
 10
528.5245891139377
 20
262.3390508232304
 30
0.0
 11
528.5245891139377
 21
265.3390508232304
 31
0.0
  0
LINE
  5
1AC62
330
1F
100
AcDbEntity
  8
0
100
AcDbLine
 10
528.3995891139377
 20
262.5890508232304
 30
0.0
 11
528.3995891139377
 21
265.0890507857677
 31
0.0
  0
LINE
  5
1AC63
330
1F
100
AcDbEntity
  8
0
100
AcDbLine
 10
528.2745891139377
 20
262.3390508232304
 30
0.0
 11
528.2745891139377
 21
265.3390508232304
 31
0.0
  0
LINE
  5
1AC64
330
1F
100
AcDbEntity
  8
0
100
AcDbLine
 10
528.1495891139377
 20
262.5890508232304
 30
0.0
 11
528.1495891139377
 21
265.0890507857677
 31
0.0
  0
LINE
  5
1AC65
330
1F
100
AcDbEntity
  8
0
100
AcDbLine
 10
528.0245891139377
 20
262.3390508232304
 30
0.0
 11
528.0245891139377
 21
265.3390508232304
 31
0.0
  0
LINE
  5
1AC66
330
1F
100
AcDbEntity
  8
0
100
AcDbLine
 10
527.8995891139377
 20
262.5890508232304
 30
0.0
 11
527.8995891139377
 21
265.0890507857678
 31
0.0
  0
LINE
  5
1AC67
330
1F
100
AcDbEntity
  8
0
100
AcDbLine
 10
527.7745891139377
 20
262.3390508232304
 30
0.0
 11
527.7745891139377
 21
265.3390508232304
 31
0.0
  0
LINE
  5
1AC68
330
1F
100
AcDbEntity
  8
0
100
AcDbLine
 10
527.6495891139377
 20
262.5890508232304
 30
0.0
 11
527.6495891139377
 21
265.0890507857678
 31
0.0
  0
LINE
  5
1AC69
330
1F
100
AcDbEntity
  8
0
100
AcDbLine
 10
527.5245891139377
 20
262.3390508232304
 30
0.0
 11
527.5245891139377
 21
265.3390508232304
 31
0.0
  0
LINE
  5
1AC6A
330
1F
100
AcDbEntity
  8
0
100
AcDbLine
 10
527.3995891139377
 20
262.5890508232304
 30
0.0
 11
527.3995891139377
 21
265.0890507857677
 31
0.0
  0
LINE
  5
1AC6B
330
1F
100
AcDbEntity
  8
0
100
AcDbLine
 10
527.2745891139377
 20
262.3390508232304
 30
0.0
 11
527.2745891139377
 21
265.3390508232304
 31
0.0
  0
LINE
  5
1AC6C
330
1F
100
AcDbEntity
  8
0
100
AcDbLine
 10
527.1495891139377
 20
262.5890508232304
 30
0.0
 11
527.1495891139377
 21
265.0890507857677
 31
0.0
  0
LINE
  5
1AC6D
330
1F
100
AcDbEntity
  8
0
100
AcDbLine
 10
527.0245891139377
 20
262.3390508232304
 30
0.0
 11
527.0245891139377
 21
265.3390508232304
 31
0.0
  0
LINE
  5
1AC6E
330
1F
100
AcDbEntity
  8
0
100
AcDbLine
 10
526.8995891139377
 20
262.5890508232304
 30
0.0
 11
526.8995891139377
 21
265.0890507857678
 31
0.0
  0
LINE
  5
1AC6F
330
1F
100
AcDbEntity
  8
0
100
AcDbLine
 10
531.8995891139377
 20
262.5890508232304
 30
0.0
 11
531.7745891139377
 21
262.3390508232304
 31
0.0
  0
LINE
  5
1AC70
330
1F
100
AcDbEntity
  8
0
100
AcDbLine
 10
531.7745891139377
 20
262.3390508232304
 30
0.0
 11
531.6495891139377
 21
262.5890508232304
 31
0.0
  0
LINE
  5
1AC71
330
1F
100
AcDbEntity
  8
0
100
AcDbLine
 10
531.5245891139377
 20
262.3390508232304
 30
0.0
 11
531.3995891139377
 21
262.5890508232304
 31
0.0
  0
LINE
  5
1AC72
330
1F
100
AcDbEntity
  8
0
100
AcDbLine
 10
531.6495891139377
 20
262.5890508232304
 30
0.0
 11
531.5245891139377
 21
262.3390508232304
 31
0.0
  0
LINE
  5
1AC73
330
1F
100
AcDbEntity
  8
0
100
AcDbLine
 10
531.2745891139377
 20
262.3390508232304
 30
0.0
 11
531.1495891139377
 21
262.5890508232304
 31
0.0
  0
LINE
  5
1AC74
330
1F
100
AcDbEntity
  8
0
100
AcDbLine
 10
531.3995891139377
 20
262.5890508232304
 30
0.0
 11
531.2745891139377
 21
262.3390508232304
 31
0.0
  0
LINE
  5
1AC75
330
1F
100
AcDbEntity
  8
0
100
AcDbLine
 10
531.0245891139377
 20
262.3390508232304
 30
0.0
 11
530.8995891139377
 21
262.5890508232304
 31
0.0
  0
LINE
  5
1AC76
330
1F
100
AcDbEntity
  8
0
100
AcDbLine
 10
531.1495891139377
 20
262.5890508232304
 30
0.0
 11
531.0245891139377
 21
262.3390508232304
 31
0.0
  0
LINE
  5
1AC77
330
1F
100
AcDbEntity
  8
0
100
AcDbLine
 10
530.7745891139377
 20
262.3390508232304
 30
0.0
 11
530.6495891139377
 21
262.5890508232304
 31
0.0
  0
LINE
  5
1AC78
330
1F
100
AcDbEntity
  8
0
100
AcDbLine
 10
530.8995891139377
 20
262.5890508232304
 30
0.0
 11
530.7745891139377
 21
262.3390508232304
 31
0.0
  0
LINE
  5
1AC79
330
1F
100
AcDbEntity
  8
0
100
AcDbLine
 10
530.5245891139377
 20
262.3390508232304
 30
0.0
 11
530.3995891139377
 21
262.5890508232304
 31
0.0
  0
LINE
  5
1AC7A
330
1F
100
AcDbEntity
  8
0
100
AcDbLine
 10
530.6495891139377
 20
262.5890508232304
 30
0.0
 11
530.5245891139377
 21
262.3390508232304
 31
0.0
  0
LINE
  5
1AC7B
330
1F
100
AcDbEntity
  8
0
100
AcDbLine
 10
530.2745891139377
 20
262.3390508232304
 30
0.0
 11
530.1495891139377
 21
262.5890508232304
 31
0.0
  0
LINE
  5
1AC7C
330
1F
100
AcDbEntity
  8
0
100
AcDbLine
 10
530.3995891139377
 20
262.5890508232304
 30
0.0
 11
530.2745891139377
 21
262.3390508232304
 31
0.0
  0
LINE
  5
1AC7D
330
1F
100
AcDbEntity
  8
0
100
AcDbLine
 10
530.0245891139377
 20
262.3390508232304
 30
0.0
 11
529.8995891139377
 21
262.5890508232304
 31
0.0
  0
LINE
  5
1AC7E
330
1F
100
AcDbEntity
  8
0
100
AcDbLine
 10
530.1495891139377
 20
262.5890508232304
 30
0.0
 11
530.0245891139377
 21
262.3390508232304
 31
0.0
  0
LINE
  5
1AC7F
330
1F
100
AcDbEntity
  8
0
100
AcDbLine
 10
529.7745891139377
 20
262.3390508232304
 30
0.0
 11
529.6495891139377
 21
262.5890508232304
 31
0.0
  0
LINE
  5
1AC80
330
1F
100
AcDbEntity
  8
0
100
AcDbLine
 10
529.8995891139377
 20
262.5890508232304
 30
0.0
 11
529.7745891139377
 21
262.3390508232304
 31
0.0
  0
LINE
  5
1AC81
330
1F
100
AcDbEntity
  8
0
100
AcDbLine
 10
529.5245891139377
 20
262.3390508232304
 30
0.0
 11
529.3995891139377
 21
262.5890508232304
 31
0.0
  0
LINE
  5
1AC82
330
1F
100
AcDbEntity
  8
0
100
AcDbLine
 10
529.6495891139377
 20
262.5890508232304
 30
0.0
 11
529.5245891139377
 21
262.3390508232304
 31
0.0
  0
LINE
  5
1AC83
330
1F
100
AcDbEntity
  8
0
100
AcDbLine
 10
529.2745891139377
 20
262.3390508232304
 30
0.0
 11
529.1495891139377
 21
262.5890508232304
 31
0.0
  0
LINE
  5
1AC84
330
1F
100
AcDbEntity
  8
0
100
AcDbLine
 10
529.3995891139377
 20
262.5890508232304
 30
0.0
 11
529.2745891139377
 21
262.3390508232304
 31
0.0
  0
LINE
  5
1AC85
330
1F
100
AcDbEntity
  8
0
100
AcDbLine
 10
529.0245891139377
 20
262.3390508232304
 30
0.0
 11
528.8995891139377
 21
262.5890508232304
 31
0.0
  0
LINE
  5
1AC86
330
1F
100
AcDbEntity
  8
0
100
AcDbLine
 10
529.1495891139377
 20
262.5890508232304
 30
0.0
 11
529.0245891139377
 21
262.3390508232304
 31
0.0
  0
LINE
  5
1AC87
330
1F
100
AcDbEntity
  8
0
100
AcDbLine
 10
528.7745891139377
 20
262.3390508232304
 30
0.0
 11
528.6495891139377
 21
262.5890508232304
 31
0.0
  0
LINE
  5
1AC88
330
1F
100
AcDbEntity
  8
0
100
AcDbLine
 10
528.8995891139377
 20
262.5890508232304
 30
0.0
 11
528.7745891139377
 21
262.3390508232304
 31
0.0
  0
LINE
  5
1AC89
330
1F
100
AcDbEntity
  8
0
100
AcDbLine
 10
528.5245891139377
 20
262.3390508232304
 30
0.0
 11
528.3995891139377
 21
262.5890508232304
 31
0.0
  0
LINE
  5
1AC8A
330
1F
100
AcDbEntity
  8
0
100
AcDbLine
 10
528.6495891139377
 20
262.5890508232304
 30
0.0
 11
528.5245891139377
 21
262.3390508232304
 31
0.0
  0
LINE
  5
1AC8B
330
1F
100
AcDbEntity
  8
0
100
AcDbLine
 10
528.2745891139377
 20
262.3390508232304
 30
0.0
 11
528.1495891139377
 21
262.5890508232304
 31
0.0
  0
LINE
  5
1AC8C
330
1F
100
AcDbEntity
  8
0
100
AcDbLine
 10
528.3995891139377
 20
262.5890508232304
 30
0.0
 11
528.2745891139377
 21
262.3390508232304
 31
0.0
  0
LINE
  5
1AC8D
330
1F
100
AcDbEntity
  8
0
100
AcDbLine
 10
528.0245891139377
 20
262.3390508232304
 30
0.0
 11
527.8995891139377
 21
262.5890508232304
 31
0.0
  0
LINE
  5
1AC8E
330
1F
100
AcDbEntity
  8
0
100
AcDbLine
 10
528.1495891139377
 20
262.5890508232304
 30
0.0
 11
528.0245891139377
 21
262.3390508232304
 31
0.0
  0
LINE
  5
1AC8F
330
1F
100
AcDbEntity
  8
0
100
AcDbLine
 10
527.7745891139377
 20
262.3390508232304
 30
0.0
 11
527.6495891139377
 21
262.5890508232304
 31
0.0
  0
LINE
  5
1AC90
330
1F
100
AcDbEntity
  8
0
100
AcDbLine
 10
527.8995891139377
 20
262.5890508232304
 30
0.0
 11
527.7745891139377
 21
262.3390508232304
 31
0.0
  0
LINE
  5
1AC91
330
1F
100
AcDbEntity
  8
0
100
AcDbLine
 10
527.5245891139377
 20
262.3390508232304
 30
0.0
 11
527.3995891139377
 21
262.5890508232304
 31
0.0
  0
LINE
  5
1AC92
330
1F
100
AcDbEntity
  8
0
100
AcDbLine
 10
527.6495891139377
 20
262.5890508232304
 30
0.0
 11
527.5245891139377
 21
262.3390508232304
 31
0.0
  0
LINE
  5
1AC93
330
1F
100
AcDbEntity
  8
0
100
AcDbLine
 10
527.2745891139377
 20
262.3390508232304
 30
0.0
 11
527.1495891139377
 21
262.5890508232304
 31
0.0
  0
LINE
  5
1AC94
330
1F
100
AcDbEntity
  8
0
100
AcDbLine
 10
527.3995891139377
 20
262.5890508232304
 30
0.0
 11
527.2745891139377
 21
262.3390508232304
 31
0.0
  0
LINE
  5
1AC95
330
1F
100
AcDbEntity
  8
0
100
AcDbLine
 10
527.0245891139377
 20
262.3390508232304
 30
0.0
 11
526.8995891139377
 21
262.5890508232304
 31
0.0
  0
LINE
  5
1AC96
330
1F
100
AcDbEntity
  8
0
100
AcDbLine
 10
527.1495891139377
 20
262.5890508232304
 30
0.0
 11
527.0245891139377
 21
262.3390508232304
 31
0.0
  0
LINE
  5
1AC97
330
1F
100
AcDbEntity
  8
0
100
AcDbLine
 10
531.7745891139377
 20
265.3390507857678
 30
0.0
 11
531.6495891139377
 21
265.0890507857678
 31
0.0
  0
LINE
  5
1AC98
330
1F
100
AcDbEntity
  8
0
100
AcDbLine
 10
531.8995891139377
 20
265.0890507857678
 30
0.0
 11
531.7745891139377
 21
265.3390507857678
 31
0.0
  0
LINE
  5
1AC99
330
1F
100
AcDbEntity
  8
0
100
AcDbLine
 10
531.5245891139377
 20
265.3390507857678
 30
0.0
 11
531.3995891139377
 21
265.0890507857678
 31
0.0
  0
LINE
  5
1AC9A
330
1F
100
AcDbEntity
  8
0
100
AcDbLine
 10
531.6495891139377
 20
265.0890507857678
 30
0.0
 11
531.5245891139377
 21
265.3390507857678
 31
0.0
  0
LINE
  5
1AC9B
330
1F
100
AcDbEntity
  8
0
100
AcDbLine
 10
531.2745891139377
 20
265.3390507857678
 30
0.0
 11
531.1495891139377
 21
265.0890507857678
 31
0.0
  0
LINE
  5
1AC9C
330
1F
100
AcDbEntity
  8
0
100
AcDbLine
 10
531.3995891139377
 20
265.0890507857678
 30
0.0
 11
531.2745891139377
 21
265.3390507857678
 31
0.0
  0
LINE
  5
1AC9D
330
1F
100
AcDbEntity
  8
0
100
AcDbLine
 10
531.0245891139377
 20
265.3390507857678
 30
0.0
 11
530.8995891139377
 21
265.0890507857678
 31
0.0
  0
LINE
  5
1AC9E
330
1F
100
AcDbEntity
  8
0
100
AcDbLine
 10
531.1495891139377
 20
265.0890507857678
 30
0.0
 11
531.0245891139377
 21
265.3390507857678
 31
0.0
  0
LINE
  5
1AC9F
330
1F
100
AcDbEntity
  8
0
100
AcDbLine
 10
530.7745891139377
 20
265.3390507857678
 30
0.0
 11
530.6495891139377
 21
265.0890507857678
 31
0.0
  0
LINE
  5
1ACA0
330
1F
100
AcDbEntity
  8
0
100
AcDbLine
 10
530.8995891139377
 20
265.0890507857678
 30
0.0
 11
530.7745891139377
 21
265.3390507857678
 31
0.0
  0
LINE
  5
1ACA1
330
1F
100
AcDbEntity
  8
0
100
AcDbLine
 10
530.5245891139377
 20
265.3390507857678
 30
0.0
 11
530.3995891139377
 21
265.0890507857678
 31
0.0
  0
LINE
  5
1ACA2
330
1F
100
AcDbEntity
  8
0
100
AcDbLine
 10
530.6495891139377
 20
265.0890507857678
 30
0.0
 11
530.5245891139377
 21
265.3390507857678
 31
0.0
  0
LINE
  5
1ACA3
330
1F
100
AcDbEntity
  8
0
100
AcDbLine
 10
530.2745891139377
 20
265.3390507857678
 30
0.0
 11
530.1495891139377
 21
265.0890507857678
 31
0.0
  0
LINE
  5
1ACA4
330
1F
100
AcDbEntity
  8
0
100
AcDbLine
 10
530.3995891139377
 20
265.0890507857678
 30
0.0
 11
530.2745891139377
 21
265.3390507857678
 31
0.0
  0
LINE
  5
1ACA5
330
1F
100
AcDbEntity
  8
0
100
AcDbLine
 10
530.0245891139377
 20
265.3390507857678
 30
0.0
 11
529.8995891139377
 21
265.0890507857678
 31
0.0
  0
LINE
  5
1ACA6
330
1F
100
AcDbEntity
  8
0
100
AcDbLine
 10
530.1495891139377
 20
265.0890507857678
 30
0.0
 11
530.0245891139377
 21
265.3390507857678
 31
0.0
  0
LINE
  5
1ACA7
330
1F
100
AcDbEntity
  8
0
100
AcDbLine
 10
529.7745891139377
 20
265.3390507857678
 30
0.0
 11
529.6495891139377
 21
265.0890507857678
 31
0.0
  0
LINE
  5
1ACA8
330
1F
100
AcDbEntity
  8
0
100
AcDbLine
 10
529.8995891139377
 20
265.0890507857678
 30
0.0
 11
529.7745891139377
 21
265.3390507857678
 31
0.0
  0
LINE
  5
1ACA9
330
1F
100
AcDbEntity
  8
0
100
AcDbLine
 10
529.5245891139377
 20
265.3390507857678
 30
0.0
 11
529.3995891139377
 21
265.0890507857678
 31
0.0
  0
LINE
  5
1ACAA
330
1F
100
AcDbEntity
  8
0
100
AcDbLine
 10
529.6495891139377
 20
265.0890507857678
 30
0.0
 11
529.5245891139377
 21
265.3390507857678
 31
0.0
  0
LINE
  5
1ACAB
330
1F
100
AcDbEntity
  8
0
100
AcDbLine
 10
529.2745891139377
 20
265.3390507857678
 30
0.0
 11
529.1495891139377
 21
265.0890507857678
 31
0.0
  0
LINE
  5
1ACAC
330
1F
100
AcDbEntity
  8
0
100
AcDbLine
 10
529.3995891139377
 20
265.0890507857678
 30
0.0
 11
529.2745891139377
 21
265.3390507857678
 31
0.0
  0
LINE
  5
1ACAD
330
1F
100
AcDbEntity
  8
0
100
AcDbLine
 10
529.0245891139377
 20
265.3390507857678
 30
0.0
 11
528.8995891139377
 21
265.0890507857678
 31
0.0
  0
LINE
  5
1ACAE
330
1F
100
AcDbEntity
  8
0
100
AcDbLine
 10
529.1495891139377
 20
265.0890507857678
 30
0.0
 11
529.0245891139377
 21
265.3390507857678
 31
0.0
  0
LINE
  5
1ACAF
330
1F
100
AcDbEntity
  8
0
100
AcDbLine
 10
528.7745891139377
 20
265.3390507857678
 30
0.0
 11
528.6495891139377
 21
265.0890507857678
 31
0.0
  0
LINE
  5
1ACB0
330
1F
100
AcDbEntity
  8
0
100
AcDbLine
 10
528.8995891139377
 20
265.0890507857678
 30
0.0
 11
528.7745891139377
 21
265.3390507857678
 31
0.0
  0
LINE
  5
1ACB1
330
1F
100
AcDbEntity
  8
0
100
AcDbLine
 10
528.5245891139377
 20
265.3390507857678
 30
0.0
 11
528.3995891139377
 21
265.0890507857678
 31
0.0
  0
LINE
  5
1ACB2
330
1F
100
AcDbEntity
  8
0
100
AcDbLine
 10
528.6495891139377
 20
265.0890507857678
 30
0.0
 11
528.5245891139377
 21
265.3390507857678
 31
0.0
  0
LINE
  5
1ACB3
330
1F
100
AcDbEntity
  8
0
100
AcDbLine
 10
528.2745891139377
 20
265.3390507857678
 30
0.0
 11
528.1495891139377
 21
265.0890507857678
 31
0.0
  0
LINE
  5
1ACB4
330
1F
100
AcDbEntity
  8
0
100
AcDbLine
 10
528.3995891139377
 20
265.0890507857678
 30
0.0
 11
528.2745891139377
 21
265.3390507857678
 31
0.0
  0
LINE
  5
1ACB5
330
1F
100
AcDbEntity
  8
0
100
AcDbLine
 10
528.0245891139377
 20
265.3390507857678
 30
0.0
 11
527.8995891139377
 21
265.0890507857678
 31
0.0
  0
LINE
  5
1ACB6
330
1F
100
AcDbEntity
  8
0
100
AcDbLine
 10
528.1495891139377
 20
265.0890507857678
 30
0.0
 11
528.0245891139377
 21
265.3390507857678
 31
0.0
  0
LINE
  5
1ACB7
330
1F
100
AcDbEntity
  8
0
100
AcDbLine
 10
527.7745891139377
 20
265.3390507857678
 30
0.0
 11
527.6495891139377
 21
265.0890507857678
 31
0.0
  0
LINE
  5
1ACB8
330
1F
100
AcDbEntity
  8
0
100
AcDbLine
 10
527.8995891139377
 20
265.0890507857678
 30
0.0
 11
527.7745891139377
 21
265.3390507857678
 31
0.0
  0
LINE
  5
1ACB9
330
1F
100
AcDbEntity
  8
0
100
AcDbLine
 10
527.5245891139377
 20
265.3390507857678
 30
0.0
 11
527.3995891139377
 21
265.0890507857678
 31
0.0
  0
LINE
  5
1ACBA
330
1F
100
AcDbEntity
  8
0
100
AcDbLine
 10
527.6495891139377
 20
265.0890507857678
 30
0.0
 11
527.5245891139377
 21
265.3390507857678
 31
0.0
  0
LINE
  5
1ACBB
330
1F
100
AcDbEntity
  8
0
100
AcDbLine
 10
527.2745891139377
 20
265.3390507857678
 30
0.0
 11
527.1495891139377
 21
265.0890507857678
 31
0.0
  0
LINE
  5
1ACBC
330
1F
100
AcDbEntity
  8
0
100
AcDbLine
 10
527.3995891139377
 20
265.0890507857678
 30
0.0
 11
527.2745891139377
 21
265.3390507857678
 31
0.0
  0
LINE
  5
1ACBD
330
1F
100
AcDbEntity
  8
0
100
AcDbLine
 10
527.0245891139377
 20
265.3390507857678
 30
0.0
 11
526.8995891139377
 21
265.0890507857678
 31
0.0
  0
LINE
  5
1ACBE
330
1F
100
AcDbEntity
  8
0
100
AcDbLine
 10
527.1495891139377
 20
265.0890507857678
 30
0.0
 11
527.0245891139377
 21
265.3390507857678
 31
0.0
  0
DIMENSION
  5
1ACBF
102
{ACAD_XDICTIONARY
360
1ACC0
102
}
102
{ACAD_REACTORS
330
1ACC1
102
}
330
1F
100
AcDbEntity
  8
DIM
100
AcDbDimension
  2
*D8
 10
536.1845084122839
 20
262.3390508232304
 30
0.0
 11
536.1845084122839
 21
273.2815508232306
 31
0.0
 70
   160
  1
M3*0.5
 71
     5
 42
3.000000000000111
 73
     0
 74
     0
 75
     0
  3
01
100
AcDbAlignedDimension
 13
531.7745891139377
 23
265.3390508232305
 33
0.0
 14
531.7745891139377
 24
262.3390508232304
 34
0.0
 50
270.0
100
AcDbRotatedDimension
1001
ACAD
1000
DSTYLE
1002
{
1070
    40
1040
0.6
1070
   289
1070
     2
1002
}
  0
DIMENSION
  5
1ACC2
330
1F
100
AcDbEntity
  8
DIM
100
AcDbDimension
  2
*D2
 10
507.0995891139378
 20
272.6057316659934
 30
0.0
 11
519.4995891139376
 21
274.1357316659934
 31
0.0
 70
    32
  1
<>
 71
     5
 42
24.79999999999995
 73
     0
 74
     0
 75
     0
  3
01
100
AcDbAlignedDimension
 13
531.8995891139377
 23
265.089050785768
 33
0.0
 14
507.0995891139378
 24
267.571534505762
 34
0.0
 50
180.0
100
AcDbRotatedDimension
1001
ACAD
1000
DSTYLE
1002
{
1070
    40
1040
0.6
1070
   289
1070
     2
1002
}
  0
DIMENSION
  5
1ACC3
330
1F
100
AcDbEntity
  8
DIM
100
AcDbDimension
  2
*D3
 10
502.7544721389869
 20
264.3890508232305
 30
0.0
 11
501.2244721389868
 21
269.7815508232305
 31
0.0
 70
    32
 71
     5
 42
1.099999999999965
 73
     0
 74
     0
 75
     0
  3
01
100
AcDbAlignedDimension
 13
507.0995891139376
 23
263.2890508232305
 33
0.0
 14
507.0995891139378
 24
264.3890508232305
 34
0.0
 50
90.0
100
AcDbRotatedDimension
1001
ACAD
1000
DSTYLE
1002
{
1070
    40
1040
0.6
1070
   289
1070
     2
1002
}
  0
LINE
  5
1ACC4
330
1F
100
AcDbEntity
  8
0
100
AcDbLine
 10
507.0995891139376
 20
263.2890508232305
 30
0.0
 11
509.0995891139376
 21
263.2890508232305
 31
0.0
  0
LINE
  5
1ACC5
330
1F
100
AcDbEntity
  8
0
100
AcDbLine
 10
507.0995891139378
 20
264.3890508232305
 30
0.0
 11
509.0995891139376
 21
264.3890508232304
 31
0.0
  0
LINE
  5
1ACC6
330
1F
100
AcDbEntity
  8
0
100
AcDbLine
 10
546.582013499868
 20
263.2890508232305
 30
0.0
 11
550.4277904044738
 21
263.2890508232305
 31
0.0
  0
LINE
  5
1ACC7
330
1F
100
AcDbEntity
  8
0
100
AcDbLine
 10
546.582013499868
 20
264.3890508232305
 30
0.0
 11
550.4277904044738
 21
264.3890508232305
 31
0.0
  0
LINE
  5
1ACC8
330
1F
100
AcDbEntity
  8
0
100
AcDbLine
 10
509.0995891139376
 20
264.3890508232305
 30
0.0
 11
509.0995891139376
 21
263.2890508232305
 31
0.0
  0
DIMENSION
  5
1ACC9
330
1F
100
AcDbEntity
  8
DIM
100
AcDbDimension
  2
*D4
 10
531.8995891139377
 20
269.0211587177298
 30
0.0
 11
527.3995891139377
 21
270.5511587177298
 31
0.0
 70
    32
 71
     5
 42
9.0
 73
     0
 74
     0
 75
     0
  3
01
100
AcDbAlignedDimension
 13
522.8995891139377
 23
265.8390508232305
 33
0.0
 14
531.8995891139377
 24
265.3390508232305
 34
0.0
 50
180.0
100
AcDbRotatedDimension
1001
ACAD
1000
DSTYLE
1002
{
1070
    40
1040
0.6
1070
   289
1070
     2
1002
}
  0
LINE
  5
1ACCA
330
1F
100
AcDbEntity
  8
CEN
  6
CENTER
 62
     1
 48
2.0
100
AcDbLine
 10
505.9587858982446
 20
263.8390508232305
 30
0.0
 11
532.6664930639865
 21
263.8390508232305
 31
0.0
  0
LINE
  5
1ACCB
330
1F
100
AcDbEntity
  8
CEN
  6
CENTER
 62
     1
 48
2.0
100
AcDbLine
 10
546.0687948109323
 20
263.8390508232305
 30
0.0
 11
550.9819762108809
 21
263.8390508232305
 31
0.0
  0
LINE
  5
1ACCC
330
1F
100
AcDbEntity
  8
CEN
  6
CENTER
 62
     1
 48
2.0
100
AcDbLine
 10
548.5049019521708
 20
266.3341848443893
 30
0.0
 11
548.5049019521708
 21
261.3032343360877
 31
0.0
  0
POLYLINE
  5
1ACCD
330
1F
100
AcDbEntity
  8
3
  6
Continuous
 62
     7
100
AcDb2dPolyline
 66
     1
 10
0.0
 20
0.0
 30
0.0
 70
     2
  0
VERTEX
  5
1ACCE
330
1ACCD
100
AcDbEntity
  8
3
  6
Continuous
 62
     7
100
AcDbVertex
100
AcDb2dVertex
 10
480.1251702095653
 20
232.1298703110741
 30
0.0
  0
VERTEX
  5
1ACCF
330
1ACCD
100
AcDbEntity
  8
3
  6
Continuous
 62
     7
100
AcDbVertex
100
AcDb2dVertex
 10
480.1018702095652
 20
232.1159503110741
 30
0.0
 42
0.0066486528
 70
     1
  0
VERTEX
  5
1ACD0
330
1ACCD
100
AcDbEntity
  8
3
  6
Continuous
 62
     7
100
AcDbVertex
100
AcDb2dVertex
 10
480.0788302095652
 20
232.1013603110741
 30
0.0
 42
0.006682601
  0
VERTEX
  5
1ACD1
330
1ACCD
100
AcDbEntity
  8
3
  6
Continuous
 62
     7
100
AcDbVertex
100
AcDb2dVertex
 10
480.0560602095652
 20
232.0860503110741
 30
0.0
 42
0.0065165287
 70
     1
  0
VERTEX
  5
1ACD2
330
1ACCD
100
AcDbEntity
  8
3
  6
Continuous
 62
     7
100
AcDbVertex
100
AcDb2dVertex
 10
480.0335802095651
 20
232.0701103110741
 30
0.0
 42
0.0061871673
  0
VERTEX
  5
1ACD3
330
1ACCD
100
AcDbEntity
  8
3
  6
Continuous
 62
     7
100
AcDbVertex
100
AcDb2dVertex
 10
480.0114502095651
 20
232.0535803110741
 30
0.0
 42
0.005949026
 70
     1
  0
VERTEX
  5
1ACD4
330
1ACCD
100
AcDbEntity
  8
3
  6
Continuous
 62
     7
100
AcDbVertex
100
AcDb2dVertex
 10
479.9896702095652
 20
232.0365103110741
 30
0.0
 42
0.00573665
  0
VERTEX
  5
1ACD5
330
1ACCD
100
AcDbEntity
  8
3
  6
Continuous
 62
     7
100
AcDbVertex
100
AcDb2dVertex
 10
479.9682802095651
 20
232.0189303110741
 30
0.0
 42
0.0055500293
 70
     1
  0
VERTEX
  5
1ACD6
330
1ACCD
100
AcDbEntity
  8
3
  6
Continuous
 62
     7
100
AcDbVertex
100
AcDb2dVertex
 10
479.9472802095649
 20
232.0009103110741
 30
0.0
 42
0.0053439118
  0
VERTEX
  5
1ACD7
330
1ACCD
100
AcDbEntity
  8
3
  6
Continuous
 62
     7
100
AcDbVertex
100
AcDb2dVertex
 10
479.9267202095651
 20
231.982470311074
 30
0.0
 42
0.0051788514
 70
     1
  0
VERTEX
  5
1ACD8
330
1ACCD
100
AcDbEntity
  8
3
  6
Continuous
 62
     7
100
AcDbVertex
100
AcDb2dVertex
 10
479.9065802095652
 20
231.9636803110741
 30
0.0
 42
0.0050023254
  0
VERTEX
  5
1ACD9
330
1ACCD
100
AcDbEntity
  8
3
  6
Continuous
 62
     7
100
AcDbVertex
100
AcDb2dVertex
 10
479.8869102095651
 20
231.9445503110741
 30
0.0
 42
0.0048562516
 70
     1
  0
VERTEX
  5
1ACDA
330
1ACCD
100
AcDbEntity
  8
3
  6
Continuous
 62
     7
100
AcDbVertex
100
AcDb2dVertex
 10
479.8677002095653
 20
231.925160311074
 30
0.0
 42
0.0046905657
  0
VERTEX
  5
1ACDB
330
1ACCD
100
AcDbEntity
  8
3
  6
Continuous
 62
     7
100
AcDbVertex
100
AcDb2dVertex
 10
479.8489702095651
 20
231.9055403110741
 30
0.0
 42
0.0045753237
 70
     1
  0
VERTEX
  5
1ACDC
330
1ACCD
100
AcDbEntity
  8
3
  6
Continuous
 62
     7
100
AcDbVertex
100
AcDb2dVertex
 10
479.8307102095653
 20
231.885700311074
 30
0.0
 42
0.0044502604
  0
VERTEX
  5
1ACDD
330
1ACCD
100
AcDbEntity
  8
3
  6
Continuous
 62
     7
100
AcDbVertex
100
AcDb2dVertex
 10
479.8129402095653
 20
231.8656903110741
 30
0.0
 42
0.004314963
 70
     1
  0
VERTEX
  5
1ACDE
330
1ACCD
100
AcDbEntity
  8
3
  6
Continuous
 62
     7
100
AcDbVertex
100
AcDb2dVertex
 10
479.7956902095653
 20
231.8455903110741
 30
0.0
 42
0.004147146
  0
VERTEX
  5
1ACDF
330
1ACCD
100
AcDbEntity
  8
3
  6
Continuous
 62
     7
100
AcDbVertex
100
AcDb2dVertex
 10
479.7789802095651
 20
231.8254503110741
 30
0.0
 42
0.0041321872
 70
     1
  0
VERTEX
  5
1ACE0
330
1ACCD
100
AcDbEntity
  8
3
  6
Continuous
 62
     7
100
AcDbVertex
100
AcDb2dVertex
 10
479.7625902095652
 20
231.8050203110741
 30
0.0
 42
0.0040589
  0
VERTEX
  5
1ACE1
330
1ACCD
100
AcDbEntity
  8
3
  6
Continuous
 62
     7
100
AcDbVertex
100
AcDb2dVertex
 10
479.7463002095653
 20
231.7840303110741
 30
0.0
 42
0.0039893273
 70
     1
  0
VERTEX
  5
1ACE2
330
1ACCD
100
AcDbEntity
  8
3
  6
Continuous
 62
     7
100
AcDbVertex
100
AcDb2dVertex
 10
479.7300702095652
 20
231.7624103110741
 30
0.0
 42
0.0040624887
  0
VERTEX
  5
1ACE3
330
1ACCD
100
AcDbEntity
  8
3
  6
Continuous
 62
     7
100
AcDbVertex
100
AcDb2dVertex
 10
479.7139002095653
 20
231.7401103110741
 30
0.0
 42
0.0040797297
 70
     1
  0
VERTEX
  5
1ACE4
330
1ACCD
100
AcDbEntity
  8
3
  6
Continuous
 62
     7
100
AcDbVertex
100
AcDb2dVertex
 10
479.6978102095653
 20
231.7171403110741
 30
0.0
 42
0.0041247203
  0
VERTEX
  5
1ACE5
330
1ACCD
100
AcDbEntity
  8
3
  6
Continuous
 62
     7
100
AcDbVertex
100
AcDb2dVertex
 10
479.6818502095653
 20
231.6935103110741
 30
0.0
 42
0.0041495398
 70
     1
  0
VERTEX
  5
1ACE6
330
1ACCD
100
AcDbEntity
  8
3
  6
Continuous
 62
     7
100
AcDbVertex
100
AcDb2dVertex
 10
479.6660302095651
 20
231.669250311074
 30
0.0
 42
0.0042028101
  0
VERTEX
  5
1ACE7
330
1ACCD
100
AcDbEntity
  8
3
  6
Continuous
 62
     7
100
AcDbVertex
100
AcDb2dVertex
 10
479.6504002095653
 20
231.6443403110741
 30
0.0
 42
0.004232888
 70
     1
  0
VERTEX
  5
1ACE8
330
1ACCD
100
AcDbEntity
  8
3
  6
Continuous
 62
     7
100
AcDbVertex
100
AcDb2dVertex
 10
479.6349802095652
 20
231.6188203110741
 30
0.0
 42
0.0042939587
  0
VERTEX
  5
1ACE9
330
1ACCD
100
AcDbEntity
  8
3
  6
Continuous
 62
     7
100
AcDbVertex
100
AcDb2dVertex
 10
479.6198102095653
 20
231.5926803110741
 30
0.0
 42
0.0043333404
 70
     1
  0
VERTEX
  5
1ACEA
330
1ACCD
100
AcDbEntity
  8
3
  6
Continuous
 62
     7
100
AcDbVertex
100
AcDb2dVertex
 10
479.6049102095651
 20
231.5659703110741
 30
0.0
 42
0.0044013071
  0
VERTEX
  5
1ACEB
330
1ACCD
100
AcDbEntity
  8
3
  6
Continuous
 62
     7
100
AcDbVertex
100
AcDb2dVertex
 10
479.5903402095652
 20
231.5386803110741
 30
0.0
 42
0.0044502237
 70
     1
  0
VERTEX
  5
1ACEC
330
1ACCD
100
AcDbEntity
  8
3
  6
Continuous
 62
     7
100
AcDbVertex
100
AcDb2dVertex
 10
479.5761102095651
 20
231.510860311074
 30
0.0
 42
0.0045281774
  0
VERTEX
  5
1ACED
330
1ACCD
100
AcDbEntity
  8
3
  6
Continuous
 62
     7
100
AcDbVertex
100
AcDb2dVertex
 10
479.5622702095652
 20
231.4825303110741
 30
0.0
 42
0.0045867322
 70
     1
  0
VERTEX
  5
1ACEE
330
1ACCD
100
AcDbEntity
  8
3
  6
Continuous
 62
     7
100
AcDbVertex
100
AcDb2dVertex
 10
479.5488502095651
 20
231.4537303110741
 30
0.0
 42
0.0046711563
  0
VERTEX
  5
1ACEF
330
1ACCD
100
AcDbEntity
  8
3
  6
Continuous
 62
     7
100
AcDbVertex
100
AcDb2dVertex
 10
479.5359102095652
 20
231.4244703110741
 30
0.0
 42
0.0047466762
 70
     1
  0
VERTEX
  5
1ACF0
330
1ACCD
100
AcDbEntity
  8
3
  6
Continuous
 62
     7
100
AcDbVertex
100
AcDb2dVertex
 10
479.5234502095651
 20
231.3948203110741
 30
0.0
 42
0.0048545577
  0
VERTEX
  5
1ACF1
330
1ACCD
100
AcDbEntity
  8
3
  6
Continuous
 62
     7
100
AcDbVertex
100
AcDb2dVertex
 10
479.5115402095652
 20
231.3647903110741
 30
0.0
 42
0.0049272707
 70
     1
  0
VERTEX
  5
1ACF2
330
1ACCD
100
AcDbEntity
  8
3
  6
Continuous
 62
     7
100
AcDbVertex
100
AcDb2dVertex
 10
479.5001802095653
 20
231.334450311074
 30
0.0
 42
0.0050053987
  0
VERTEX
  5
1ACF3
330
1ACCD
100
AcDbEntity
  8
3
  6
Continuous
 62
     7
100
AcDbVertex
100
AcDb2dVertex
 10
479.4894502095653
 20
231.303840311074
 30
0.0
 42
0.0051531342
 70
     1
  0
VERTEX
  5
1ACF4
330
1ACCD
100
AcDbEntity
  8
3
  6
Continuous
 62
     7
100
AcDbVertex
100
AcDb2dVertex
 10
479.4793402095653
 20
231.2729803110741
 30
0.0
 42
0.0053923351
  0
VERTEX
  5
1ACF5
330
1ACCD
100
AcDbEntity
  8
3
  6
Continuous
 62
     7
100
AcDbVertex
100
AcDb2dVertex
 10
479.4699202095651
 20
231.241890311074
 30
0.0
 42
0.0053519803
 70
     1
  0
VERTEX
  5
1ACF6
330
1ACCD
100
AcDbEntity
  8
3
  6
Continuous
 62
     7
100
AcDbVertex
100
AcDb2dVertex
 10
479.4611902095653
 20
231.210800311074
 30
0.0
 42
0.0051124533
  0
VERTEX
  5
1ACF7
330
1ACCD
100
AcDbEntity
  8
3
  6
Continuous
 62
     7
100
AcDbVertex
100
AcDb2dVertex
 10
479.4532102095653
 20
231.1798203110741
 30
0.0
 42
0.0057991031
 70
     1
  0
VERTEX
  5
1ACF8
330
1ACCD
100
AcDbEntity
  8
3
  6
Continuous
 62
     7
100
AcDbVertex
100
AcDb2dVertex
 10
479.4459702095653
 20
231.1483503110741
 30
0.0
 42
0.0071530648
  0
VERTEX
  5
1ACF9
330
1ACCD
100
AcDbEntity
  8
3
  6
Continuous
 62
     7
100
AcDbVertex
100
AcDb2dVertex
 10
479.4395102095651
 20
231.1162403110741
 30
0.0
 42
0.0055678814
 70
     1
  0
VERTEX
  5
1ACFA
330
1ACCD
100
AcDbEntity
  8
3
  6
Continuous
 62
     7
100
AcDbVertex
100
AcDb2dVertex
 10
479.4339002095652
 20
231.0860903110741
 30
0.0
 42
0.0018967734
  0
VERTEX
  5
1ACFB
330
1ACCD
100
AcDbEntity
  8
3
  6
Continuous
 62
     7
100
AcDbVertex
100
AcDb2dVertex
 10
479.4292202095653
 20
231.0588303110741
 30
0.0
 42
0.0081817007
 70
     1
  0
VERTEX
  5
1ACFC
330
1ACCD
100
AcDbEntity
  8
3
  6
Continuous
 62
     7
100
AcDbVertex
100
AcDb2dVertex
 10
479.4251502095653
 20
231.024480311074
 30
0.0
 42
0.014967719
  0
VERTEX
  5
1ACFD
330
1ACCD
100
AcDbEntity
  8
3
  6
Continuous
 62
     7
100
AcDbVertex
100
AcDb2dVertex
 10
479.4214202095652
 20
230.972550311074
 30
0.0
 42
0.0076887693
 70
     1
  0
VERTEX
  5
1ACFE
330
1ACCD
100
AcDbEntity
  8
3
  6
Continuous
 62
     7
100
AcDbVertex
100
AcDb2dVertex
 10
479.4180602095653
 20
230.905120311074
 30
0.0
 42
0.0041384788
  0
SEQEND
  5
1ACFF
330
1ACCD
100
AcDbEntity
  8
3
  6
Continuous
 62
     7
  0
LINE
  5
1AD00
330
1F
100
AcDbEntity
  8
3
  6
Continuous
 62
     7
100
AcDbLine
 10
480.4787202095652
 20
232.3339903110741
 30
0.0
 11
480.1251702095653
 21
232.1298703110741
 31
0.0
  0
POLYLINE
  5
1AD01
330
1F
100
AcDbEntity
  8
3
  6
Continuous
 62
     7
100
AcDb2dPolyline
 66
     1
 10
0.0
 20
0.0
 30
0.0
 70
     2
  0
VERTEX
  5
1AD02
330
1AD01
100
AcDbEntity
  8
3
  6
Continuous
 62
     7
100
AcDbVertex
100
AcDb2dVertex
 10
481.2287302095652
 20
232.4082903110741
 30
0.0
  0
VERTEX
  5
1AD03
330
1AD01
100
AcDbEntity
  8
3
  6
Continuous
 62
     7
100
AcDbVertex
100
AcDb2dVertex
 10
481.1765502095652
 20
232.4344503110741
 30
0.0
 42
0.029195606
 70
     1
  0
VERTEX
  5
1AD04
330
1AD01
100
AcDbEntity
  8
3
  6
Continuous
 62
     7
100
AcDbVertex
100
AcDb2dVertex
 10
481.1212002095651
 20
232.454670311074
 30
0.0
 42
0.028671366
  0
VERTEX
  5
1AD05
330
1AD01
100
AcDbEntity
  8
3
  6
Continuous
 62
     7
100
AcDbVertex
100
AcDb2dVertex
 10
481.0624902095653
 20
232.4687503110741
 30
0.0
 42
0.027401293
 70
     1
  0
VERTEX
  5
1AD06
330
1AD01
100
AcDbEntity
  8
3
  6
Continuous
 62
     7
100
AcDbVertex
100
AcDb2dVertex
 10
481.0009602095653
 20
232.476760311074
 30
0.0
 42
0.026376056
  0
VERTEX
  5
1AD07
330
1AD01
100
AcDbEntity
  8
3
  6
Continuous
 62
     7
100
AcDbVertex
100
AcDb2dVertex
 10
480.9370102095653
 20
232.4783003110741
 30
0.0
 42
0.024892955
 70
     1
  0
VERTEX
  5
1AD08
330
1AD01
100
AcDbEntity
  8
3
  6
Continuous
 62
     7
100
AcDbVertex
100
AcDb2dVertex
 10
480.871180209565
 20
232.4736603110741
 30
0.0
 42
0.023103359
  0
VERTEX
  5
1AD09
330
1AD01
100
AcDbEntity
  8
3
  6
Continuous
 62
     7
100
AcDbVertex
100
AcDb2dVertex
 10
480.8038402095653
 20
232.462680311074
 30
0.0
 42
0.021293662
 70
     1
  0
VERTEX
  5
1AD0A
330
1AD01
100
AcDbEntity
  8
3
  6
Continuous
 62
     7
100
AcDbVertex
100
AcDb2dVertex
 10
480.735530209565
 20
232.4458203110741
 30
0.0
 42
0.019594028
  0
VERTEX
  5
1AD0B
330
1AD01
100
AcDbEntity
  8
3
  6
Continuous
 62
     7
100
AcDbVertex
100
AcDb2dVertex
 10
480.6667102095651
 20
232.4230803110741
 30
0.0
 42
0.017998483
 70
     1
  0
VERTEX
  5
1AD0C
330
1AD01
100
AcDbEntity
  8
3
  6
Continuous
 62
     7
100
AcDbVertex
100
AcDb2dVertex
 10
480.5978602095652
 20
232.3950303110741
 30
0.0
 42
0.016480712
  0
VERTEX
  5
1AD0D
330
1AD01
100
AcDbEntity
  8
3
  6
Continuous
 62
     7
100
AcDbVertex
100
AcDb2dVertex
 10
480.5294502095653
 20
232.3618303110741
 30
0.0
 42
0.015163902
 70
     1
  0
VERTEX
  5
1AD0E
330
1AD01
100
AcDbEntity
  8
3
  6
Continuous
 62
     7
100
AcDbVertex
100
AcDb2dVertex
 10
480.4618702095653
 20
232.3241103110741
 30
0.0
 42
0.013925936
  0
VERTEX
  5
1AD0F
330
1AD01
100
AcDbEntity
  8
3
  6
Continuous
 62
     7
100
AcDbVertex
100
AcDb2dVertex
 10
480.3955502095653
 20
232.2821503110741
 30
0.0
 42
0.012902044
 70
     1
  0
VERTEX
  5
1AD10
330
1AD01
100
AcDbEntity
  8
3
  6
Continuous
 62
     7
100
AcDbVertex
100
AcDb2dVertex
 10
480.3307702095652
 20
232.2366003110741
 30
0.0
 42
0.011916234
  0
VERTEX
  5
1AD11
330
1AD01
100
AcDbEntity
  8
3
  6
Continuous
 62
     7
100
AcDbVertex
100
AcDb2dVertex
 10
480.2679202095652
 20
232.1878103110741
 30
0.0
 42
0.011127316
 70
     1
  0
VERTEX
  5
1AD12
330
1AD01
100
AcDbEntity
  8
3
  6
Continuous
 62
     7
100
AcDbVertex
100
AcDb2dVertex
 10
480.2071502095651
 20
232.1363803110741
 30
0.0
 42
0.010333459
  0
VERTEX
  5
1AD13
330
1AD01
100
AcDbEntity
  8
3
  6
Continuous
 62
     7
100
AcDbVertex
100
AcDb2dVertex
 10
480.1487802095651
 20
232.082700311074
 30
0.0
 42
0.0097515968
 70
     1
  0
VERTEX
  5
1AD14
330
1AD01
100
AcDbEntity
  8
3
  6
Continuous
 62
     7
100
AcDbVertex
100
AcDb2dVertex
 10
480.0928602095653
 20
232.0273003110741
 30
0.0
 42
0.0091681742
  0
VERTEX
  5
1AD15
330
1AD01
100
AcDbEntity
  8
3
  6
Continuous
 62
     7
100
AcDbVertex
100
AcDb2dVertex
 10
480.0396202095653
 20
231.9705303110741
 30
0.0
 42
0.0086596344
 70
     1
  0
VERTEX
  5
1AD16
330
1AD01
100
AcDbEntity
  8
3
  6
Continuous
 62
     7
100
AcDbVertex
100
AcDb2dVertex
 10
479.9890302095652
 20
231.912920311074
 30
0.0
 42
0.008013734
  0
VERTEX
  5
1AD17
330
1AD01
100
AcDbEntity
  8
3
  6
Continuous
 62
     7
100
AcDbVertex
100
AcDb2dVertex
 10
479.9410402095651
 20
231.854550311074
 30
0.0
 42
0.0079900827
 70
     1
  0
VERTEX
  5
1AD18
330
1AD01
100
AcDbEntity
  8
3
  6
Continuous
 62
     7
100
AcDbVertex
100
AcDb2dVertex
 10
479.8943802095652
 20
231.7940003110741
 30
0.0
 42
0.0078921932
  0
VERTEX
  5
1AD19
330
1AD01
100
AcDbEntity
  8
3
  6
Continuous
 62
     7
100
AcDbVertex
100
AcDb2dVertex
 10
479.8479602095651
 20
231.7296403110741
 30
0.0
 42
0.0076410444
 70
     1
  0
VERTEX
  5
1AD1A
330
1AD01
100
AcDbEntity
  8
3
  6
Continuous
 62
     7
100
AcDbVertex
100
AcDb2dVertex
 10
479.8019902095652
 20
231.6616003110741
 30
0.0
 42
0.0079789353
  0
VERTEX
  5
1AD1B
330
1AD01
100
AcDbEntity
  8
3
  6
Continuous
 62
     7
100
AcDbVertex
100
AcDb2dVertex
 10
479.7569902095651
 20
231.5899903110741
 30
0.0
 42
0.0081586514
 70
     1
  0
VERTEX
  5
1AD1C
330
1AD01
100
AcDbEntity
  8
3
  6
Continuous
 62
     7
100
AcDbVertex
100
AcDb2dVertex
 10
479.7132602095651
 20
231.5151003110741
 30
0.0
 42
0.0083384856
  0
VERTEX
  5
1AD1D
330
1AD01
100
AcDbEntity
  8
3
  6
Continuous
 62
     7
100
AcDbVertex
100
AcDb2dVertex
 10
479.6711602095653
 20
231.4369303110741
 30
0.0
 42
0.0084779697
 70
     1
  0
VERTEX
  5
1AD1E
330
1AD01
100
AcDbEntity
  8
3
  6
Continuous
 62
     7
100
AcDbVertex
100
AcDb2dVertex
 10
479.6310002095649
 20
231.3559003110741
 30
0.0
 42
0.0087858441
  0
VERTEX
  5
1AD1F
330
1AD01
100
AcDbEntity
  8
3
  6
Continuous
 62
     7
100
AcDbVertex
100
AcDb2dVertex
 10
479.5932702095653
 20
231.2722103110741
 30
0.0
 42
0.0090341526
 70
     1
  0
VERTEX
  5
1AD20
330
1AD01
100
AcDbEntity
  8
3
  6
Continuous
 62
     7
100
AcDbVertex
100
AcDb2dVertex
 10
479.5582502095651
 20
231.186350311074
 30
0.0
 42
0.009397749
  0
VERTEX
  5
1AD21
330
1AD01
100
AcDbEntity
  8
3
  6
Continuous
 62
     7
100
AcDbVertex
100
AcDb2dVertex
 10
479.5264502095652
 20
231.0986803110741
 30
0.0
 42
0.0097343088
 70
     1
  0
VERTEX
  5
1AD22
330
1AD01
100
AcDbEntity
  8
3
  6
Continuous
 62
     7
100
AcDbVertex
100
AcDb2dVertex
 10
479.4980802095651
 20
231.0097603110741
 30
0.0
 42
0.010195318
  0
VERTEX
  5
1AD23
330
1AD01
100
AcDbEntity
  8
3
  6
Continuous
 62
     7
100
AcDbVertex
100
AcDb2dVertex
 10
479.4736502095652
 20
230.920090311074
 30
0.0
 42
0.01066738
 70
     1
  0
VERTEX
  5
1AD24
330
1AD01
100
AcDbEntity
  8
3
  6
Continuous
 62
     7
100
AcDbVertex
100
AcDb2dVertex
 10
479.4533002095652
 20
230.8302903110741
 30
0.0
 42
0.011265534
  0
VERTEX
  5
1AD25
330
1AD01
100
AcDbEntity
  8
3
  6
Continuous
 62
     7
100
AcDbVertex
100
AcDb2dVertex
 10
479.4374702095653
 20
230.7409603110741
 30
0.0
 42
0.011870186
 70
     1
  0
VERTEX
  5
1AD26
330
1AD01
100
AcDbEntity
  8
3
  6
Continuous
 62
     7
100
AcDbVertex
100
AcDb2dVertex
 10
479.4261702095652
 20
230.6527103110741
 30
0.0
 42
0.01254132
  0
VERTEX
  5
1AD27
330
1AD01
100
AcDbEntity
  8
3
  6
Continuous
 62
     7
100
AcDbVertex
100
AcDb2dVertex
 10
479.4197502095652
 20
230.5662403110741
 30
0.0
 42
0.013437204
 70
     1
  0
VERTEX
  5
1AD28
330
1AD01
100
AcDbEntity
  8
3
  6
Continuous
 62
     7
100
AcDbVertex
100
AcDb2dVertex
 10
479.4181402095651
 20
230.4820403110741
 30
0.0
 42
0.014568578
  0
VERTEX
  5
1AD29
330
1AD01
100
AcDbEntity
  8
3
  6
Continuous
 62
     7
100
AcDbVertex
100
AcDb2dVertex
 10
479.4216002095653
 20
230.4007803110741
 30
0.0
 42
0.015302389
 70
     1
  0
VERTEX
  5
1AD2A
330
1AD01
100
AcDbEntity
  8
3
  6
Continuous
 62
     7
100
AcDbVertex
100
AcDb2dVertex
 10
479.4296502095654
 20
230.3230503110741
 30
0.0
 42
0.015494914
  0
VERTEX
  5
1AD2B
330
1AD01
100
AcDbEntity
  8
3
  6
Continuous
 62
     7
100
AcDbVertex
100
AcDb2dVertex
 10
479.4422902095653
 20
230.2495603110741
 30
0.0
 42
0.017937339
 70
     1
  0
VERTEX
  5
1AD2C
330
1AD01
100
AcDbEntity
  8
3
  6
Continuous
 62
     7
100
AcDbVertex
100
AcDb2dVertex
 10
479.4600602095652
 20
230.1798903110741
 30
0.0
 42
0.022356419
  0
VERTEX
  5
1AD2D
330
1AD01
100
AcDbEntity
  8
3
  6
Continuous
 62
     7
100
AcDbVertex
100
AcDb2dVertex
 10
479.4832502095651
 20
230.114370311074
 30
0.0
 42
0.019339963
 70
     1
  0
VERTEX
  5
1AD2E
330
1AD01
100
AcDbEntity
  8
3
  6
Continuous
 62
     7
100
AcDbVertex
100
AcDb2dVertex
 10
479.5077802095653
 20
230.0557003110741
 30
0.0
 42
0.0091842022
  0
VERTEX
  5
1AD2F
330
1AD01
100
AcDbEntity
  8
3
  6
Continuous
 62
     7
100
AcDbVertex
100
AcDb2dVertex
 10
479.5322802095652
 20
230.0051903110741
 30
0.0
 42
0.027535377
 70
     1
  0
VERTEX
  5
1AD30
330
1AD01
100
AcDbEntity
  8
3
  6
Continuous
 62
     7
100
AcDbVertex
100
AcDb2dVertex
 10
479.5704202095651
 20
229.9524103110741
 30
0.0
 42
0.05145302
  0
VERTEX
  5
1AD31
330
1AD01
100
AcDbEntity
  8
3
  6
Continuous
 62
     7
100
AcDbVertex
100
AcDb2dVertex
 10
479.6369102095652
 20
229.8867703110741
 30
0.0
 42
0.028722995
 70
     1
  0
VERTEX
  5
1AD32
330
1AD01
100
AcDbEntity
  8
3
  6
Continuous
 62
     7
100
AcDbVertex
100
AcDb2dVertex
 10
479.7287302095652
 20
229.810210311074
 30
0.0
 42
0.016224533
  0
SEQEND
  5
1AD33
330
1AD01
100
AcDbEntity
  8
3
  6
Continuous
 62
     7
  0
LINE
  5
1AD34
330
1F
100
AcDbEntity
  8
3
  6
Continuous
 62
     7
100
AcDbLine
 10
479.4180602095653
 20
230.905120311074
 30
0.0
 11
479.4180602095653
 21
230.4968703110741
 31
0.0
  0
LINE
  5
1AD35
330
1F
100
AcDbEntity
  8
3
  6
Continuous
 62
     7
100
AcDbLine
 10
484.4107002095652
 20
230.5711703110741
 30
0.0
 11
481.2287302095652
 21
232.4082903110741
 31
0.0
  0
POLYLINE
  5
1AD36
330
1F
100
AcDbEntity
  8
3
  6
Continuous
 62
     7
100
AcDb2dPolyline
 66
     1
 10
0.0
 20
0.0
 30
0.0
 70
     2
  0
VERTEX
  5
1AD37
330
1AD36
100
AcDbEntity
  8
3
  6
Continuous
 62
     7
100
AcDbVertex
100
AcDb2dVertex
 10
484.7107002095651
 20
230.0515503110741
 30
0.0
  0
VERTEX
  5
1AD38
330
1AD36
100
AcDbEntity
  8
3
  6
Continuous
 62
     7
100
AcDbVertex
100
AcDb2dVertex
 10
484.7004202095653
 20
230.1150403110741
 30
0.0
 42
0.016559081
 70
     1
  0
VERTEX
  5
1AD39
330
1AD36
100
AcDbEntity
  8
3
  6
Continuous
 62
     7
100
AcDbVertex
100
AcDb2dVertex
 10
484.6862002095653
 20
230.1769303110741
 30
0.0
 42
0.016492318
  0
VERTEX
  5
1AD3A
330
1AD36
100
AcDbEntity
  8
3
  6
Continuous
 62
     7
100
AcDbVertex
100
AcDb2dVertex
 10
484.6679202095653
 20
230.2372403110741
 30
0.0
 42
0.017298914
 70
     1
  0
VERTEX
  5
1AD3B
330
1AD36
100
AcDbEntity
  8
3
  6
Continuous
 62
     7
100
AcDbVertex
100
AcDb2dVertex
 10
484.6455402095653
 20
230.2954803110741
 30
0.0
 42
0.019619035
  0
VERTEX
  5
1AD3C
330
1AD36
100
AcDbEntity
  8
3
  6
Continuous
 62
     7
100
AcDbVertex
100
AcDb2dVertex
 10
484.6186702095653
 20
230.350850311074
 30
0.0
 42
0.021614594
 70
     1
  0
VERTEX
  5
1AD3D
330
1AD36
100
AcDbEntity
  8
3
  6
Continuous
 62
     7
100
AcDbVertex
100
AcDb2dVertex
 10
484.5874102095653
 20
230.4029403110741
 30
0.0
 42
0.02346306
  0
VERTEX
  5
1AD3E
330
1AD36
100
AcDbEntity
  8
3
  6
Continuous
 62
     7
100
AcDbVertex
100
AcDb2dVertex
 10
484.5515502095651
 20
230.4510803110741
 30
0.0
 42
0.025200285
 70
     1
  0
VERTEX
  5
1AD3F
330
1AD36
100
AcDbEntity
  8
3
  6
Continuous
 62
     7
100
AcDbVertex
100
AcDb2dVertex
 10
484.5112802095652
 20
230.4949003110741
 30
0.0
 42
0.02704281
  0
VERTEX
  5
1AD40
330
1AD36
100
AcDbEntity
  8
3
  6
Continuous
 62
     7
100
AcDbVertex
100
AcDb2dVertex
 10
484.4664902095653
 20
230.5336703110741
 30
0.0
 42
0.028383373
 70
     1
  0
VERTEX
  5
1AD41
330
1AD36
100
AcDbEntity
  8
3
  6
Continuous
 62
     7
100
AcDbVertex
100
AcDb2dVertex
 10
484.4175302095652
 20
230.5671503110741
 30
0.0
 42
0.029376267
  0
VERTEX
  5
1AD42
330
1AD36
100
AcDbEntity
  8
3
  6
Continuous
 62
     7
100
AcDbVertex
100
AcDb2dVertex
 10
484.3644402095653
 20
230.594690311074
 30
0.0
 42
0.029649487
 70
     1
  0
VERTEX
  5
1AD43
330
1AD36
100
AcDbEntity
  8
3
  6
Continuous
 62
     7
100
AcDbVertex
100
AcDb2dVertex
 10
484.307670209565
 20
230.616180311074
 30
0.0
 42
0.029440309
  0
VERTEX
  5
1AD44
330
1AD36
100
AcDbEntity
  8
3
  6
Continuous
 62
     7
100
AcDbVertex
100
AcDb2dVertex
 10
484.2474202095653
 20
230.6311003110741
 30
0.0
 42
0.028521184
 70
     1
  0
VERTEX
  5
1AD45
330
1AD36
100
AcDbEntity
  8
3
  6
Continuous
 62
     7
100
AcDbVertex
100
AcDb2dVertex
 10
484.1842302095653
 20
230.6395503110741
 30
0.0
 42
0.027229688
  0
VERTEX
  5
1AD46
330
1AD36
100
AcDbEntity
  8
3
  6
Continuous
 62
     7
100
AcDbVertex
100
AcDb2dVertex
 10
484.1184402095652
 20
230.6411603110741
 30
0.0
 42
0.025534806
 70
     1
  0
VERTEX
  5
1AD47
330
1AD36
100
AcDbEntity
  8
3
  6
Continuous
 62
     7
100
AcDbVertex
100
AcDb2dVertex
 10
484.0506402095652
 20
230.6362403110741
 30
0.0
 42
0.023725406
  0
VERTEX
  5
1AD48
330
1AD36
100
AcDbEntity
  8
3
  6
Continuous
 62
     7
100
AcDbVertex
100
AcDb2dVertex
 10
483.9812702095652
 20
230.6246103110741
 30
0.0
 42
0.021847293
 70
     1
  0
VERTEX
  5
1AD49
330
1AD36
100
AcDbEntity
  8
3
  6
Continuous
 62
     7
100
AcDbVertex
100
AcDb2dVertex
 10
483.9109102095652
 20
230.6067703110741
 30
0.0
 42
0.020025897
  0
VERTEX
  5
1AD4A
330
1AD36
100
AcDbEntity
  8
3
  6
Continuous
 62
     7
100
AcDbVertex
100
AcDb2dVertex
 10
483.8400602095652
 20
230.5827303110741
 30
0.0
 42
0.018339366
 70
     1
  0
VERTEX
  5
1AD4B
330
1AD36
100
AcDbEntity
  8
3
  6
Continuous
 62
     7
100
AcDbVertex
100
AcDb2dVertex
 10
483.7692502095651
 20
230.5531103110741
 30
0.0
 42
0.016755355
  0
VERTEX
  5
1AD4C
330
1AD36
100
AcDbEntity
  8
3
  6
Continuous
 62
     7
100
AcDbVertex
100
AcDb2dVertex
 10
483.6989602095652
 20
230.518110311074
 30
0.0
 42
0.015390072
 70
     1
  0
VERTEX
  5
1AD4D
330
1AD36
100
AcDbEntity
  8
3
  6
Continuous
 62
     7
100
AcDbVertex
100
AcDb2dVertex
 10
483.6296302095653
 20
230.4784103110741
 30
0.0
 42
0.014105819
  0
VERTEX
  5
1AD4E
330
1AD36
100
AcDbEntity
  8
3
  6
Continuous
 62
     7
100
AcDbVertex
100
AcDb2dVertex
 10
483.5617202095654
 20
230.4343303110741
 30
0.0
 42
0.013046029
 70
     1
  0
VERTEX
  5
1AD4F
330
1AD36
100
AcDbEntity
  8
3
  6
Continuous
 62
     7
100
AcDbVertex
100
AcDb2dVertex
 10
483.4955302095653
 20
230.3865703110741
 30
0.0
 42
0.012021777
  0
VERTEX
  5
1AD50
330
1AD36
100
AcDbEntity
  8
3
  6
Continuous
 62
     7
100
AcDbVertex
100
AcDb2dVertex
 10
483.4314602095652
 20
230.3355303110741
 30
0.0
 42
0.011231281
 70
     1
  0
VERTEX
  5
1AD51
330
1AD36
100
AcDbEntity
  8
3
  6
Continuous
 62
     7
100
AcDbVertex
100
AcDb2dVertex
 10
483.3696502095651
 20
230.281820311074
 30
0.0
 42
0.010442592
  0
VERTEX
  5
1AD52
330
1AD36
100
AcDbEntity
  8
3
  6
Continuous
 62
     7
100
AcDbVertex
100
AcDb2dVertex
 10
483.3104202095652
 20
230.2258703110741
 30
0.0
 42
0.0098148678
 70
     1
  0
VERTEX
  5
1AD53
330
1AD36
100
AcDbEntity
  8
3
  6
Continuous
 62
     7
100
AcDbVertex
100
AcDb2dVertex
 10
483.2538902095651
 20
230.1683403110741
 30
0.0
 42
0.0091683274
  0
VERTEX
  5
1AD54
330
1AD36
100
AcDbEntity
  8
3
  6
Continuous
 62
     7
100
AcDbVertex
100
AcDb2dVertex
 10
483.2003402095653
 20
230.1096603110741
 30
0.0
 42
0.0087530761
 70
     1
  0
VERTEX
  5
1AD55
330
1AD36
100
AcDbEntity
  8
3
  6
Continuous
 62
     7
100
AcDbVertex
100
AcDb2dVertex
 10
483.1493602095652
 20
230.0499303110741
 30
0.0
 42
0.008153643
  0
VERTEX
  5
1AD56
330
1AD36
100
AcDbEntity
  8
3
  6
Continuous
 62
     7
100
AcDbVertex
100
AcDb2dVertex
 10
483.1005802095653
 20
229.9887903110741
 30
0.0
 42
0.0080906248
 70
     1
  0
VERTEX
  5
1AD57
330
1AD36
100
AcDbEntity
  8
3
  6
Continuous
 62
     7
100
AcDbVertex
100
AcDb2dVertex
 10
483.0528802095653
 20
229.9249003110741
 30
0.0
 42
0.0081340164
  0
VERTEX
  5
1AD58
330
1AD36
100
AcDbEntity
  8
3
  6
Continuous
 62
     7
100
AcDbVertex
100
AcDb2dVertex
 10
483.0054102095653
 20
229.8567603110741
 30
0.0
 42
0.007945127
 70
     1
  0
VERTEX
  5
1AD59
330
1AD36
100
AcDbEntity
  8
3
  6
Continuous
 62
     7
100
AcDbVertex
100
AcDb2dVertex
 10
482.9585502095651
 20
229.7846903110741
 30
0.0
 42
0.0082907477
  0
VERTEX
  5
1AD5A
330
1AD36
100
AcDbEntity
  8
3
  6
Continuous
 62
     7
100
AcDbVertex
100
AcDb2dVertex
 10
482.9129402095651
 20
229.7089503110741
 30
0.0
 42
0.008505284
 70
     1
  0
VERTEX
  5
1AD5B
330
1AD36
100
AcDbEntity
  8
3
  6
Continuous
 62
     7
100
AcDbVertex
100
AcDb2dVertex
 10
482.8689002095652
 20
229.629870311074
 30
0.0
 42
0.0087111943
  0
VERTEX
  5
1AD5C
330
1AD36
100
AcDbEntity
  8
3
  6
Continuous
 62
     7
100
AcDbVertex
100
AcDb2dVertex
 10
482.8268302095652
 20
229.547490311074
 30
0.0
 42
0.0088773728
 70
     1
  0
VERTEX
  5
1AD5D
330
1AD36
100
AcDbEntity
  8
3
  6
Continuous
 62
     7
100
AcDbVertex
100
AcDb2dVertex
 10
482.7870802095652
 20
229.4622703110741
 30
0.0
 42
0.0092305936
  0
VERTEX
  5
1AD5E
330
1AD36
100
AcDbEntity
  8
3
  6
Continuous
 62
     7
100
AcDbVertex
100
AcDb2dVertex
 10
482.7501902095653
 20
229.3745203110741
 30
0.0
 42
0.0095275412
 70
     1
  0
VERTEX
  5
1AD5F
330
1AD36
100
AcDbEntity
  8
3
  6
Continuous
 62
     7
100
AcDbVertex
100
AcDb2dVertex
 10
482.7164502095651
 20
229.284790311074
 30
0.0
 42
0.0099439839
  0
VERTEX
  5
1AD60
330
1AD36
100
AcDbEntity
  8
3
  6
Continuous
 62
     7
100
AcDbVertex
100
AcDb2dVertex
 10
482.6864002095653
 20
229.1935303110741
 30
0.0
 42
0.010346477
 70
     1
  0
VERTEX
  5
1AD61
330
1AD36
100
AcDbEntity
  8
3
  6
Continuous
 62
     7
100
AcDbVertex
100
AcDb2dVertex
 10
482.6602802095652
 20
229.101380311074
 30
0.0
 42
0.010885024
  0
VERTEX
  5
1AD62
330
1AD36
100
AcDbEntity
  8
3
  6
Continuous
 62
     7
100
AcDbVertex
100
AcDb2dVertex
 10
482.6385902095652
 20
229.0089503110741
 30
0.0
 42
0.011441881
 70
     1
  0
VERTEX
  5
1AD63
330
1AD36
100
AcDbEntity
  8
3
  6
Continuous
 62
     7
100
AcDbVertex
100
AcDb2dVertex
 10
482.6214402095652
 20
228.9168903110741
 30
0.0
 42
0.012119955
  0
VERTEX
  5
1AD64
330
1AD36
100
AcDbEntity
  8
3
  6
Continuous
 62
     7
100
AcDbVertex
100
AcDb2dVertex
 10
482.6092802095653
 20
228.8259103110741
 30
0.0
 42
0.012864172
 70
     1
  0
VERTEX
  5
1AD65
330
1AD36
100
AcDbEntity
  8
3
  6
Continuous
 62
     7
100
AcDbVertex
100
AcDb2dVertex
 10
482.6020702095653
 20
228.7366503110741
 30
0.0
 42
0.013715097
  0
VERTEX
  5
1AD66
330
1AD36
100
AcDbEntity
  8
3
  6
Continuous
 62
     7
100
AcDbVertex
100
AcDb2dVertex
 10
482.6001402095652
 20
228.6498703110741
 30
0.0
 42
0.014685313
 70
     1
  0
VERTEX
  5
1AD67
330
1AD36
100
AcDbEntity
  8
3
  6
Continuous
 62
     7
100
AcDbVertex
100
AcDb2dVertex
 10
482.6032802095651
 20
228.5660903110741
 30
0.0
 42
0.015728205
  0
VERTEX
  5
1AD68
330
1AD36
100
AcDbEntity
  8
3
  6
Continuous
 62
     7
100
AcDbVertex
100
AcDb2dVertex
 10
482.6116702095652
 20
228.4860603110741
 30
0.0
 42
0.016943987
 70
     1
  0
VERTEX
  5
1AD69
330
1AD36
100
AcDbEntity
  8
3
  6
Continuous
 62
     7
100
AcDbVertex
100
AcDb2dVertex
 10
482.6249802095651
 20
228.410140311074
 30
0.0
 42
0.018168406
  0
VERTEX
  5
1AD6A
330
1AD36
100
AcDbEntity
  8
3
  6
Continuous
 62
     7
100
AcDbVertex
100
AcDb2dVertex
 10
482.6432302095652
 20
228.3390003110741
 30
0.0
 42
0.019592543
 70
     1
  0
VERTEX
  5
1AD6B
330
1AD36
100
AcDbEntity
  8
3
  6
Continuous
 62
     7
100
AcDbVertex
100
AcDb2dVertex
 10
482.6659502095652
 20
228.2728103110741
 30
0.0
 42
0.020898047
  0
VERTEX
  5
1AD6C
330
1AD36
100
AcDbEntity
  8
3
  6
Continuous
 62
     7
100
AcDbVertex
100
AcDb2dVertex
 10
482.6930402095651
 20
228.2121003110741
 30
0.0
 42
0.022396631
 70
     1
  0
VERTEX
  5
1AD6D
330
1AD36
100
AcDbEntity
  8
3
  6
Continuous
 62
     7
100
AcDbVertex
100
AcDb2dVertex
 10
482.7239602095652
 20
228.1568403110741
 30
0.0
 42
0.023604403
  0
VERTEX
  5
1AD6E
330
1AD36
100
AcDbEntity
  8
3
  6
Continuous
 62
     7
100
AcDbVertex
100
AcDb2dVertex
 10
482.7584902095652
 20
228.1074003110741
 30
0.0
 42
0.024830139
 70
     1
  0
VERTEX
  5
1AD6F
330
1AD36
100
AcDbEntity
  8
3
  6
Continuous
 62
     7
100
AcDbVertex
100
AcDb2dVertex
 10
482.7960602095652
 20
228.0635703110741
 30
0.0
 42
0.025429483
  0
VERTEX
  5
1AD70
330
1AD36
100
AcDbEntity
  8
3
  6
Continuous
 62
     7
100
AcDbVertex
100
AcDb2dVertex
 10
482.8363602095651
 20
228.0255603110741
 30
0.0
 42
0.026226665
 70
     1
  0
VERTEX
  5
1AD71
330
1AD36
100
AcDbEntity
  8
3
  6
Continuous
 62
     7
100
AcDbVertex
100
AcDb2dVertex
 10
482.8789502095651
 20
227.993050311074
 30
0.0
 42
0.026569925
  0
VERTEX
  5
1AD72
330
1AD36
100
AcDbEntity
  8
3
  6
Continuous
 62
     7
100
AcDbVertex
100
AcDb2dVertex
 10
482.9235202095651
 20
227.9661103110741
 30
0.0
 42
0.025824285
 70
     1
  0
VERTEX
  5
1AD73
330
1AD36
100
AcDbEntity
  8
3
  6
Continuous
 62
     7
100
AcDbVertex
100
AcDb2dVertex
 10
482.9693002095653
 20
227.9441803110741
 30
0.0
 42
0.023486167
  0
VERTEX
  5
1AD74
330
1AD36
100
AcDbEntity
  8
3
  6
Continuous
 62
     7
100
AcDbVertex
100
AcDb2dVertex
 10
483.0158802095652
 20
227.9271803110741
 30
0.0
 42
0.02460897
 70
     1
  0
VERTEX
  5
1AD75
330
1AD36
100
AcDbEntity
  8
3
  6
Continuous
 62
     7
100
AcDbVertex
100
AcDb2dVertex
 10
483.0640002095653
 20
227.9150703110741
 30
0.0
 42
0.027660623
  0
VERTEX
  5
1AD76
330
1AD36
100
AcDbEntity
  8
3
  6
Continuous
 62
     7
100
AcDbVertex
100
AcDb2dVertex
 10
483.1138202095653
 20
227.9079003110741
 30
0.0
 42
0.01982012
 70
     1
  0
VERTEX
  5
1AD77
330
1AD36
100
AcDbEntity
  8
3
  6
Continuous
 62
     7
100
AcDbVertex
100
AcDb2dVertex
 10
483.1608902095651
 20
227.9033303110741
 30
0.0
 42
0.003624657
  0
VERTEX
  5
1AD78
330
1AD36
100
AcDbEntity
  8
3
  6
Continuous
 62
     7
100
AcDbVertex
100
AcDb2dVertex
 10
483.2045802095652
 20
227.9006703110741
 30
0.0
 42
0.027511807
 70
     1
  0
VERTEX
  5
1AD79
330
1AD36
100
AcDbEntity
  8
3
  6
Continuous
 62
     7
100
AcDbVertex
100
AcDb2dVertex
 10
483.2667602095653
 20
227.9075503110741
 30
0.0
 42
0.045106487
  0
VERTEX
  5
1AD7A
330
1AD36
100
AcDbEntity
  8
3
  6
Continuous
 62
     7
100
AcDbVertex
100
AcDb2dVertex
 10
483.3703502095652
 20
227.9322903110741
 30
0.0
 42
0.018329966
 70
     1
  0
VERTEX
  5
1AD7B
330
1AD36
100
AcDbEntity
  8
3
  6
Continuous
 62
     7
100
AcDbVertex
100
AcDb2dVertex
 10
483.5107002095652
 20
227.9730903110741
 30
0.0
 42
0.0085155236
  0
SEQEND
  5
1AD7C
330
1AD36
100
AcDbEntity
  8
3
  6
Continuous
 62
     7
  0
LINE
  5
1AD7D
330
1F
100
AcDbEntity
  8
3
  6
Continuous
 62
     7
100
AcDbLine
 10
479.7287302095652
 20
229.810210311074
 30
0.0
 11
482.9107002095653
 21
227.9730903110741
 31
0.0
  0
POLYLINE
  5
1AD7E
330
1F
100
AcDbEntity
  8
3
  6
Continuous
 62
     7
100
AcDb2dPolyline
 66
     1
 10
0.0
 20
0.0
 30
0.0
 70
     2
  0
VERTEX
  5
1AD7F
330
1AD7E
100
AcDbEntity
  8
3
  6
Continuous
 62
     7
100
AcDbVertex
100
AcDb2dVertex
 10
484.5847402095651
 20
230.1242803110741
 30
0.0
  0
VERTEX
  5
1AD80
330
1AD7E
100
AcDbEntity
  8
3
  6
Continuous
 62
     7
100
AcDbVertex
100
AcDb2dVertex
 10
484.5430002095652
 20
230.1452103110741
 30
0.0
 42
0.029195649
 70
     1
  0
VERTEX
  5
1AD81
330
1AD7E
100
AcDbEntity
  8
3
  6
Continuous
 62
     7
100
AcDbVertex
100
AcDb2dVertex
 10
484.4987202095651
 20
230.161390311074
 30
0.0
 42
0.028671407
  0
VERTEX
  5
1AD82
330
1AD7E
100
AcDbEntity
  8
3
  6
Continuous
 62
     7
100
AcDbVertex
100
AcDb2dVertex
 10
484.4517602095653
 20
230.1726503110741
 30
0.0
 42
0.02740133
 70
     1
  0
VERTEX
  5
1AD83
330
1AD7E
100
AcDbEntity
  8
3
  6
Continuous
 62
     7
100
AcDbVertex
100
AcDb2dVertex
 10
484.402530209565
 20
230.1790603110741
 30
0.0
 42
0.026376088
  0
VERTEX
  5
1AD84
330
1AD7E
100
AcDbEntity
  8
3
  6
Continuous
 62
     7
100
AcDbVertex
100
AcDb2dVertex
 10
484.3513702095653
 20
230.1802903110741
 30
0.0
 42
0.02489298
 70
     1
  0
VERTEX
  5
1AD85
330
1AD7E
100
AcDbEntity
  8
3
  6
Continuous
 62
     7
100
AcDbVertex
100
AcDb2dVertex
 10
484.2987102095652
 20
230.1765703110741
 30
0.0
 42
0.023103377
  0
VERTEX
  5
1AD86
330
1AD7E
100
AcDbEntity
  8
3
  6
Continuous
 62
     7
100
AcDbVertex
100
AcDb2dVertex
 10
484.2448302095653
 20
230.1677903110741
 30
0.0
 42
0.021293674
 70
     1
  0
VERTEX
  5
1AD87
330
1AD7E
100
AcDbEntity
  8
3
  6
Continuous
 62
     7
100
AcDbVertex
100
AcDb2dVertex
 10
484.1901802095653
 20
230.154310311074
 30
0.0
 42
0.019594034
  0
VERTEX
  5
1AD88
330
1AD7E
100
AcDbEntity
  8
3
  6
Continuous
 62
     7
100
AcDbVertex
100
AcDb2dVertex
 10
484.1351302095652
 20
230.1361103110741
 30
0.0
 42
0.017998485
 70
     1
  0
VERTEX
  5
1AD89
330
1AD7E
100
AcDbEntity
  8
3
  6
Continuous
 62
     7
100
AcDbVertex
100
AcDb2dVertex
 10
484.0800502095652
 20
230.1136703110741
 30
0.0
 42
0.01648071
  0
VERTEX
  5
1AD8A
330
1AD7E
100
AcDbEntity
  8
3
  6
Continuous
 62
     7
100
AcDbVertex
100
AcDb2dVertex
 10
484.0253302095653
 20
230.0871103110741
 30
0.0
 42
0.015163897
 70
     1
  0
VERTEX
  5
1AD8B
330
1AD7E
100
AcDbEntity
  8
3
  6
Continuous
 62
     7
100
AcDbVertex
100
AcDb2dVertex
 10
483.9712602095652
 20
230.0569403110741
 30
0.0
 42
0.013925929
  0
VERTEX
  5
1AD8C
330
1AD7E
100
AcDbEntity
  8
3
  6
Continuous
 62
     7
100
AcDbVertex
100
AcDb2dVertex
 10
483.9182002095652
 20
230.0233703110741
 30
0.0
 42
0.012902036
 70
     1
  0
VERTEX
  5
1AD8D
330
1AD7E
100
AcDbEntity
  8
3
  6
Continuous
 62
     7
100
AcDbVertex
100
AcDb2dVertex
 10
483.8663802095651
 20
229.9869303110741
 30
0.0
 42
0.011916225
  0
VERTEX
  5
1AD8E
330
1AD7E
100
AcDbEntity
  8
3
  6
Continuous
 62
     7
100
AcDbVertex
100
AcDb2dVertex
 10
483.8161002095652
 20
229.9478903110741
 30
0.0
 42
0.011127306
 70
     1
  0
VERTEX
  5
1AD8F
330
1AD7E
100
AcDbEntity
  8
3
  6
Continuous
 62
     7
100
AcDbVertex
100
AcDb2dVertex
 10
483.7674902095653
 20
229.9067503110741
 30
0.0
 42
0.010333449
  0
VERTEX
  5
1AD90
330
1AD7E
100
AcDbEntity
  8
3
  6
Continuous
 62
     7
100
AcDbVertex
100
AcDb2dVertex
 10
483.7207902095652
 20
229.8638103110741
 30
0.0
 42
0.0097515867
 70
     1
  0
VERTEX
  5
1AD91
330
1AD7E
100
AcDbEntity
  8
3
  6
Continuous
 62
     7
100
AcDbVertex
100
AcDb2dVertex
 10
483.6760502095653
 20
229.8194903110741
 30
0.0
 42
0.0091681642
  0
VERTEX
  5
1AD92
330
1AD7E
100
AcDbEntity
  8
3
  6
Continuous
 62
     7
100
AcDbVertex
100
AcDb2dVertex
 10
483.6334602095653
 20
229.7740803110741
 30
0.0
 42
0.0086596242
 70
     1
  0
VERTEX
  5
1AD93
330
1AD7E
100
AcDbEntity
  8
3
  6
Continuous
 62
     7
100
AcDbVertex
100
AcDb2dVertex
 10
483.5929902095653
 20
229.727990311074
 30
0.0
 42
0.0080137236
  0
VERTEX
  5
1AD94
330
1AD7E
100
AcDbEntity
  8
3
  6
Continuous
 62
     7
100
AcDbVertex
100
AcDb2dVertex
 10
483.5546002095652
 20
229.681290311074
 30
0.0
 42
0.0079900788
 70
     1
  0
VERTEX
  5
1AD95
330
1AD7E
100
AcDbEntity
  8
3
  6
Continuous
 62
     7
100
AcDbVertex
100
AcDb2dVertex
 10
483.5172702095651
 20
229.632850311074
 30
0.0
 42
0.0078922034
  0
VERTEX
  5
1AD96
330
1AD7E
100
AcDbEntity
  8
3
  6
Continuous
 62
     7
100
AcDbVertex
100
AcDb2dVertex
 10
483.4801302095653
 20
229.5813603110741
 30
0.0
 42
0.007641058
 70
     1
  0
VERTEX
  5
1AD97
330
1AD7E
100
AcDbEntity
  8
3
  6
Continuous
 62
     7
100
AcDbVertex
100
AcDb2dVertex
 10
483.4433502095651
 20
229.5269303110741
 30
0.0
 42
0.0079789456
  0
VERTEX
  5
1AD98
330
1AD7E
100
AcDbEntity
  8
3
  6
Continuous
 62
     7
100
AcDbVertex
100
AcDb2dVertex
 10
483.4073602095651
 20
229.4696403110741
 30
0.0
 42
0.0081586591
 70
     1
  0
VERTEX
  5
1AD99
330
1AD7E
100
AcDbEntity
  8
3
  6
Continuous
 62
     7
100
AcDbVertex
100
AcDb2dVertex
 10
483.3723702095651
 20
229.4097303110741
 30
0.0
 42
0.0083384918
  0
VERTEX
  5
1AD9A
330
1AD7E
100
AcDbEntity
  8
3
  6
Continuous
 62
     7
100
AcDbVertex
100
AcDb2dVertex
 10
483.3386902095652
 20
229.347200311074
 30
0.0
 42
0.0084779736
 70
     1
  0
VERTEX
  5
1AD9B
330
1AD7E
100
AcDbEntity
  8
3
  6
Continuous
 62
     7
100
AcDbVertex
100
AcDb2dVertex
 10
483.3065602095651
 20
229.2823703110741
 30
0.0
 42
0.0087858457
  0
VERTEX
  5
1AD9C
330
1AD7E
100
AcDbEntity
  8
3
  6
Continuous
 62
     7
100
AcDbVertex
100
AcDb2dVertex
 10
483.2763802095652
 20
229.2154203110741
 30
0.0
 42
0.0090341513
 70
     1
  0
VERTEX
  5
1AD9D
330
1AD7E
100
AcDbEntity
  8
3
  6
Continuous
 62
     7
100
AcDbVertex
100
AcDb2dVertex
 10
483.2483702095652
 20
229.1467303110741
 30
0.0
 42
0.0093977449
  0
VERTEX
  5
1AD9E
330
1AD7E
100
AcDbEntity
  8
3
  6
Continuous
 62
     7
100
AcDbVertex
100
AcDb2dVertex
 10
483.2229202095652
 20
229.0765903110741
 30
0.0
 42
0.0097343013
 70
     1
  0
VERTEX
  5
1AD9F
330
1AD7E
100
AcDbEntity
  8
3
  6
Continuous
 62
     7
100
AcDbVertex
100
AcDb2dVertex
 10
483.2002302095651
 20
229.0054503110741
 30
0.0
 42
0.010195307
  0
VERTEX
  5
1ADA0
330
1AD7E
100
AcDbEntity
  8
3
  6
Continuous
 62
     7
100
AcDbVertex
100
AcDb2dVertex
 10
483.1806902095652
 20
228.9337203110741
 30
0.0
 42
0.010667364
 70
     1
  0
VERTEX
  5
1ADA1
330
1AD7E
100
AcDbEntity
  8
3
  6
Continuous
 62
     7
100
AcDbVertex
100
AcDb2dVertex
 10
483.1644002095652
 20
228.8618803110741
 30
0.0
 42
0.011265514
  0
VERTEX
  5
1ADA2
330
1AD7E
100
AcDbEntity
  8
3
  6
Continuous
 62
     7
100
AcDbVertex
100
AcDb2dVertex
 10
483.1517402095652
 20
228.790410311074
 30
0.0
 42
0.011870161
 70
     1
  0
VERTEX
  5
1ADA3
330
1AD7E
100
AcDbEntity
  8
3
  6
Continuous
 62
     7
100
AcDbVertex
100
AcDb2dVertex
 10
483.1427002095653
 20
228.7198203110741
 30
0.0
 42
0.01254129
  0
VERTEX
  5
1ADA4
330
1AD7E
100
AcDbEntity
  8
3
  6
Continuous
 62
     7
100
AcDbVertex
100
AcDb2dVertex
 10
483.1375602095651
 20
228.650640311074
 30
0.0
 42
0.013437166
 70
     1
  0
VERTEX
  5
1ADA5
330
1AD7E
100
AcDbEntity
  8
3
  6
Continuous
 62
     7
100
AcDbVertex
100
AcDb2dVertex
 10
483.1362802095652
 20
228.5832803110741
 30
0.0
 42
0.014568533
  0
VERTEX
  5
1ADA6
330
1AD7E
100
AcDbEntity
  8
3
  6
Continuous
 62
     7
100
AcDbVertex
100
AcDb2dVertex
 10
483.1390502095652
 20
228.5182703110741
 30
0.0
 42
0.015302336
 70
     1
  0
VERTEX
  5
1ADA7
330
1AD7E
100
AcDbEntity
  8
3
  6
Continuous
 62
     7
100
AcDbVertex
100
AcDb2dVertex
 10
483.1454802095652
 20
228.4560903110741
 30
0.0
 42
0.015494857
  0
VERTEX
  5
1ADA8
330
1AD7E
100
AcDbEntity
  8
3
  6
Continuous
 62
     7
100
AcDbVertex
100
AcDb2dVertex
 10
483.1555902095653
 20
228.3972903110741
 30
0.0
 42
0.017937269
 70
     1
  0
VERTEX
  5
1ADA9
330
1AD7E
100
AcDbEntity
  8
3
  6
Continuous
 62
     7
100
AcDbVertex
100
AcDb2dVertex
 10
483.1698102095653
 20
228.3415603110741
 30
0.0
 42
0.022356328
  0
VERTEX
  5
1ADAA
330
1AD7E
100
AcDbEntity
  8
3
  6
Continuous
 62
     7
100
AcDbVertex
100
AcDb2dVertex
 10
483.1883602095651
 20
228.289150311074
 30
0.0
 42
0.019339882
 70
     1
  0
VERTEX
  5
1ADAB
330
1AD7E
100
AcDbEntity
  8
3
  6
Continuous
 62
     7
100
AcDbVertex
100
AcDb2dVertex
 10
483.2079902095651
 20
228.2422003110741
 30
0.0
 42
0.0091841641
  0
VERTEX
  5
1ADAC
330
1AD7E
100
AcDbEntity
  8
3
  6
Continuous
 62
     7
100
AcDbVertex
100
AcDb2dVertex
 10
483.2275902095652
 20
228.2018003110741
 30
0.0
 42
0.027535265
 70
     1
  0
VERTEX
  5
1ADAD
330
1AD7E
100
AcDbEntity
  8
3
  6
Continuous
 62
     7
100
AcDbVertex
100
AcDb2dVertex
 10
483.2581002095651
 20
228.1595703110741
 30
0.0
 42
0.051452837
  0
VERTEX
  5
1ADAE
330
1AD7E
100
AcDbEntity
  8
3
  6
Continuous
 62
     7
100
AcDbVertex
100
AcDb2dVertex
 10
483.3112902095653
 20
228.1070603110741
 30
0.0
 42
0.028722919
 70
     1
  0
VERTEX
  5
1ADAF
330
1AD7E
100
AcDbEntity
  8
3
  6
Continuous
 62
     7
100
AcDbVertex
100
AcDb2dVertex
 10
483.3847402095653
 20
228.045820311074
 30
0.0
 42
0.0162245
  0
SEQEND
  5
1ADB0
330
1AD7E
100
AcDbEntity
  8
3
  6
Continuous
 62
     7
  0
LINE
  5
1ADB1
330
1F
100
AcDbEntity
  8
3
  6
Continuous
 62
     7
100
AcDbLine
 10
486.2891302095651
 20
229.1402503110741
 30
0.0
 11
484.5847402095651
 21
230.1242803110741
 31
0.0
  0
LINE
  5
1ADB2
330
1F
100
AcDbEntity
  8
3
  6
Continuous
 62
     7
100
AcDbLine
 10
483.3847402095653
 20
228.045820311074
 30
0.0
 11
485.0891302095653
 21
227.0617903110741
 31
0.0
  0
POLYLINE
  5
1ADB3
330
1F
100
AcDbEntity
  8
3
  6
Continuous
 62
     7
100
AcDb2dPolyline
 66
     1
 10
0.0
 20
0.0
 30
0.0
 70
     2
  0
VERTEX
  5
1ADB4
330
1ADB3
100
AcDbEntity
  8
3
  6
Continuous
 62
     7
100
AcDbVertex
100
AcDb2dVertex
 10
487.4891302095652
 20
229.371190311074
 30
0.0
  0
VERTEX
  5
1ADB5
330
1ADB3
100
AcDbEntity
  8
3
  6
Continuous
 62
     7
100
AcDbVertex
100
AcDb2dVertex
 10
487.4195602095651
 20
229.4060703110741
 30
0.0
 42
0.02919561
 70
     1
  0
VERTEX
  5
1ADB6
330
1ADB3
100
AcDbEntity
  8
3
  6
Continuous
 62
     7
100
AcDbVertex
100
AcDb2dVertex
 10
487.3457702095651
 20
229.4330403110741
 30
0.0
 42
0.028671386
  0
VERTEX
  5
1ADB7
330
1ADB3
100
AcDbEntity
  8
3
  6
Continuous
 62
     7
100
AcDbVertex
100
AcDb2dVertex
 10
487.2674902095652
 20
229.4518103110741
 30
0.0
 42
0.027401327
 70
     1
  0
VERTEX
  5
1ADB8
330
1ADB3
100
AcDbEntity
  8
3
  6
Continuous
 62
     7
100
AcDbVertex
100
AcDb2dVertex
 10
487.1854502095652
 20
229.4624903110741
 30
0.0
 42
0.026376101
  0
VERTEX
  5
1ADB9
330
1ADB3
100
AcDbEntity
  8
3
  6
Continuous
 62
     7
100
AcDbVertex
100
AcDb2dVertex
 10
487.1001802095652
 20
229.4645403110741
 30
0.0
 42
0.024893007
 70
     1
  0
VERTEX
  5
1ADBA
330
1ADB3
100
AcDbEntity
  8
3
  6
Continuous
 62
     7
100
AcDbVertex
100
AcDb2dVertex
 10
487.0124102095651
 20
229.4583503110741
 30
0.0
 42
0.023103413
  0
VERTEX
  5
1ADBB
330
1ADB3
100
AcDbEntity
  8
3
  6
Continuous
 62
     7
100
AcDbVertex
100
AcDb2dVertex
 10
486.9226202095652
 20
229.4437103110741
 30
0.0
 42
0.021293716
 70
     1
  0
VERTEX
  5
1ADBC
330
1ADB3
100
AcDbEntity
  8
3
  6
Continuous
 62
     7
100
AcDbVertex
100
AcDb2dVertex
 10
486.8315402095652
 20
229.421230311074
 30
0.0
 42
0.019594079
  0
VERTEX
  5
1ADBD
330
1ADB3
100
AcDbEntity
  8
3
  6
Continuous
 62
     7
100
AcDbVertex
100
AcDb2dVertex
 10
486.7397802095651
 20
229.3909103110741
 30
0.0
 42
0.01799853
 70
     1
  0
VERTEX
  5
1ADBE
330
1ADB3
100
AcDbEntity
  8
3
  6
Continuous
 62
     7
100
AcDbVertex
100
AcDb2dVertex
 10
486.6479802095653
 20
229.3535103110741
 30
0.0
 42
0.016480754
  0
VERTEX
  5
1ADBF
330
1ADB3
100
AcDbEntity
  8
3
  6
Continuous
 62
     7
100
AcDbVertex
100
AcDb2dVertex
 10
486.5567702095653
 20
229.309240311074
 30
0.0
 42
0.015163939
 70
     1
  0
VERTEX
  5
1ADC0
330
1ADB3
100
AcDbEntity
  8
3
  6
Continuous
 62
     7
100
AcDbVertex
100
AcDb2dVertex
 10
486.4666602095652
 20
229.2589503110741
 30
0.0
 42
0.013925969
  0
VERTEX
  5
1ADC1
330
1ADB3
100
AcDbEntity
  8
3
  6
Continuous
 62
     7
100
AcDbVertex
100
AcDb2dVertex
 10
486.3782302095652
 20
229.203010311074
 30
0.0
 42
0.012902072
 70
     1
  0
VERTEX
  5
1ADC2
330
1ADB3
100
AcDbEntity
  8
3
  6
Continuous
 62
     7
100
AcDbVertex
100
AcDb2dVertex
 10
486.2918602095652
 20
229.1422703110741
 30
0.0
 42
0.011916259
  0
VERTEX
  5
1ADC3
330
1ADB3
100
AcDbEntity
  8
3
  6
Continuous
 62
     7
100
AcDbVertex
100
AcDb2dVertex
 10
486.2080602095652
 20
229.077210311074
 30
0.0
 42
0.011127337
 70
     1
  0
VERTEX
  5
1ADC4
330
1ADB3
100
AcDbEntity
  8
3
  6
Continuous
 62
     7
100
AcDbVertex
100
AcDb2dVertex
 10
486.1270402095652
 20
229.0086403110741
 30
0.0
 42
0.010333477
  0
VERTEX
  5
1ADC5
330
1ADB3
100
AcDbEntity
  8
3
  6
Continuous
 62
     7
100
AcDbVertex
100
AcDb2dVertex
 10
486.0492102095652
 20
228.937080311074
 30
0.0
 42
0.0097516126
 70
     1
  0
VERTEX
  5
1ADC6
330
1ADB3
100
AcDbEntity
  8
3
  6
Continuous
 62
     7
100
AcDbVertex
100
AcDb2dVertex
 10
485.9746502095652
 20
228.8632003110741
 30
0.0
 42
0.0091681876
  0
VERTEX
  5
1ADC7
330
1ADB3
100
AcDbEntity
  8
3
  6
Continuous
 62
     7
100
AcDbVertex
100
AcDb2dVertex
 10
485.9036602095653
 20
228.7875203110741
 30
0.0
 42
0.0086596459
 70
     1
  0
VERTEX
  5
1ADC8
330
1ADB3
100
AcDbEntity
  8
3
  6
Continuous
 62
     7
100
AcDbVertex
100
AcDb2dVertex
 10
485.8362102095652
 20
228.7107103110741
 30
0.0
 42
0.0080137438
  0
VERTEX
  5
1ADC9
330
1ADB3
100
AcDbEntity
  8
3
  6
Continuous
 62
     7
100
AcDbVertex
100
AcDb2dVertex
 10
485.7722202095652
 20
228.6328803110741
 30
0.0
 42
0.007990087
 70
     1
  0
VERTEX
  5
1ADCA
330
1ADB3
100
AcDbEntity
  8
3
  6
Continuous
 62
     7
100
AcDbVertex
100
AcDb2dVertex
 10
485.7100102095651
 20
228.552140311074
 30
0.0
 42
0.0078921876
  0
VERTEX
  5
1ADCB
330
1ADB3
100
AcDbEntity
  8
3
  6
Continuous
 62
     7
100
AcDbVertex
100
AcDb2dVertex
 10
485.6481102095653
 20
228.4663303110741
 30
0.0
 42
0.007641035
 70
     1
  0
VERTEX
  5
1ADCC
330
1ADB3
100
AcDbEntity
  8
3
  6
Continuous
 62
     7
100
AcDbVertex
100
AcDb2dVertex
 10
485.5868202095653
 20
228.3756003110741
 30
0.0
 42
0.0079789262
  0
VERTEX
  5
1ADCD
330
1ADB3
100
AcDbEntity
  8
3
  6
Continuous
 62
     7
100
AcDbVertex
100
AcDb2dVertex
 10
485.5268202095651
 20
228.2801303110741
 30
0.0
 42
0.0081586419
 70
     1
  0
VERTEX
  5
1ADCE
330
1ADB3
100
AcDbEntity
  8
3
  6
Continuous
 62
     7
100
AcDbVertex
100
AcDb2dVertex
 10
485.468510209565
 20
228.1802703110741
 30
0.0
 42
0.008338475
  0
VERTEX
  5
1ADCF
330
1ADB3
100
AcDbEntity
  8
3
  6
Continuous
 62
     7
100
AcDbVertex
100
AcDb2dVertex
 10
485.4123802095653
 20
228.076050311074
 30
0.0
 42
0.0084779583
 70
     1
  0
VERTEX
  5
1ADD0
330
1ADB3
100
AcDbEntity
  8
3
  6
Continuous
 62
     7
100
AcDbVertex
100
AcDb2dVertex
 10
485.3588302095651
 20
227.9680103110741
 30
0.0
 42
0.008785832
  0
VERTEX
  5
1ADD1
330
1ADB3
100
AcDbEntity
  8
3
  6
Continuous
 62
     7
100
AcDbVertex
100
AcDb2dVertex
 10
485.3085302095652
 20
227.856420311074
 30
0.0
 42
0.0090341397
 70
     1
  0
VERTEX
  5
1ADD2
330
1ADB3
100
AcDbEntity
  8
3
  6
Continuous
 62
     7
100
AcDbVertex
100
AcDb2dVertex
 10
485.2618402095652
 20
227.7419403110741
 30
0.0
 42
0.009397735
  0
VERTEX
  5
1ADD3
330
1ADB3
100
AcDbEntity
  8
3
  6
Continuous
 62
     7
100
AcDbVertex
100
AcDb2dVertex
 10
485.2194302095653
 20
227.625040311074
 30
0.0
 42
0.009734294
 70
     1
  0
VERTEX
  5
1ADD4
330
1ADB3
100
AcDbEntity
  8
3
  6
Continuous
 62
     7
100
AcDbVertex
100
AcDb2dVertex
 10
485.1816102095653
 20
227.506480311074
 30
0.0
 42
0.010195303
  0
VERTEX
  5
1ADD5
330
1ADB3
100
AcDbEntity
  8
3
  6
Continuous
 62
     7
100
AcDbVertex
100
AcDb2dVertex
 10
485.1490402095651
 20
227.386930311074
 30
0.0
 42
0.010667363
 70
     1
  0
VERTEX
  5
1ADD6
330
1ADB3
100
AcDbEntity
  8
3
  6
Continuous
 62
     7
100
AcDbVertex
100
AcDb2dVertex
 10
485.1219002095652
 20
227.2671903110741
 30
0.0
 42
0.011265516
  0
VERTEX
  5
1ADD7
330
1ADB3
100
AcDbEntity
  8
3
  6
Continuous
 62
     7
100
AcDbVertex
100
AcDb2dVertex
 10
485.1008002095651
 20
227.148080311074
 30
0.0
 42
0.011870167
 70
     1
  0
VERTEX
  5
1ADD8
330
1ADB3
100
AcDbEntity
  8
3
  6
Continuous
 62
     7
100
AcDbVertex
100
AcDb2dVertex
 10
485.0857302095652
 20
227.030420311074
 30
0.0
 42
0.012541301
  0
VERTEX
  5
1ADD9
330
1ADB3
100
AcDbEntity
  8
3
  6
Continuous
 62
     7
100
AcDbVertex
100
AcDb2dVertex
 10
485.0771702095652
 20
226.915130311074
 30
0.0
 42
0.013437183
 70
     1
  0
VERTEX
  5
1ADDA
330
1ADB3
100
AcDbEntity
  8
3
  6
Continuous
 62
     7
100
AcDbVertex
100
AcDb2dVertex
 10
485.0750202095651
 20
226.8028503110741
 30
0.0
 42
0.014568557
  0
VERTEX
  5
1ADDB
330
1ADB3
100
AcDbEntity
  8
3
  6
Continuous
 62
     7
100
AcDbVertex
100
AcDb2dVertex
 10
485.0796402095651
 20
226.6945103110741
 30
0.0
 42
0.015302368
 70
     1
  0
VERTEX
  5
1ADDC
330
1ADB3
100
AcDbEntity
  8
3
  6
Continuous
 62
     7
100
AcDbVertex
100
AcDb2dVertex
 10
485.0903602095653
 20
226.5908703110741
 30
0.0
 42
0.015494894
  0
VERTEX
  5
1ADDD
330
1ADB3
100
AcDbEntity
  8
3
  6
Continuous
 62
     7
100
AcDbVertex
100
AcDb2dVertex
 10
485.1072202095653
 20
226.4928803110741
 30
0.0
 42
0.017937319
 70
     1
  0
VERTEX
  5
1ADDE
330
1ADB3
100
AcDbEntity
  8
3
  6
Continuous
 62
     7
100
AcDbVertex
100
AcDb2dVertex
 10
485.1309202095651
 20
226.3999903110741
 30
0.0
 42
0.022356398
  0
VERTEX
  5
1ADDF
330
1ADB3
100
AcDbEntity
  8
3
  6
Continuous
 62
     7
100
AcDbVertex
100
AcDb2dVertex
 10
485.1618302095651
 20
226.312640311074
 30
0.0
 42
0.019339949
 70
     1
  0
VERTEX
  5
1ADE0
330
1ADB3
100
AcDbEntity
  8
3
  6
Continuous
 62
     7
100
AcDbVertex
100
AcDb2dVertex
 10
485.1945402095652
 20
226.2344003110741
 30
0.0
 42
0.0091841971
  0
VERTEX
  5
1ADE1
330
1ADB3
100
AcDbEntity
  8
3
  6
Continuous
 62
     7
100
AcDbVertex
100
AcDb2dVertex
 10
485.2272002095651
 20
226.167060311074
 30
0.0
 42
0.027535367
 70
     1
  0
VERTEX
  5
1ADE2
330
1ADB3
100
AcDbEntity
  8
3
  6
Continuous
 62
     7
100
AcDbVertex
100
AcDb2dVertex
 10
485.2780602095653
 20
226.0966803110741
 30
0.0
 42
0.051453027
  0
VERTEX
  5
1ADE3
330
1ADB3
100
AcDbEntity
  8
3
  6
Continuous
 62
     7
100
AcDbVertex
100
AcDb2dVertex
 10
485.3667202095651
 20
226.0091703110741
 30
0.0
 42
0.028723013
 70
     1
  0
VERTEX
  5
1ADE4
330
1ADB3
100
AcDbEntity
  8
3
  6
Continuous
 62
     7
100
AcDbVertex
100
AcDb2dVertex
 10
485.4891302095651
 20
225.9070903110741
 30
0.0
 42
0.016224547
  0
SEQEND
  5
1ADE5
330
1ADB3
100
AcDbEntity
  8
3
  6
Continuous
 62
     7
  0
LINE
  5
1ADE6
330
1F
100
AcDbEntity
  8
3
  6
Continuous
 62
     7
100
AcDbLine
 10
497.2472002095653
 20
223.7373603110741
 30
0.0
 11
487.4891302095652
 21
229.371190311074
 31
0.0
  0
POLYLINE
  5
1ADE7
330
1F
100
AcDbEntity
  8
3
  6
Continuous
 62
     7
100
AcDb2dPolyline
 66
     1
 10
0.0
 20
0.0
 30
0.0
 70
     2
  0
VERTEX
  5
1ADE8
330
1ADE7
100
AcDbEntity
  8
3
  6
Continuous
 62
     7
100
AcDbVertex
100
AcDb2dVertex
 10
497.2472002095653
 20
223.7373603110741
 30
0.0
  0
VERTEX
  5
1ADE9
330
1ADE7
100
AcDbEntity
  8
3
  6
Continuous
 62
     7
100
AcDbVertex
100
AcDb2dVertex
 10
497.1776402095652
 20
223.772240311074
 30
0.0
 42
0.029195678
 70
     1
  0
VERTEX
  5
1ADEA
330
1ADE7
100
AcDbEntity
  8
3
  6
Continuous
 62
     7
100
AcDbVertex
100
AcDb2dVertex
 10
497.1038402095651
 20
223.7992103110741
 30
0.0
 42
0.028671466
  0
VERTEX
  5
1ADEB
330
1ADE7
100
AcDbEntity
  8
3
  6
Continuous
 62
     7
100
AcDbVertex
100
AcDb2dVertex
 10
497.0255602095652
 20
223.8179803110741
 30
0.0
 42
0.027401413
 70
     1
  0
VERTEX
  5
1ADEC
330
1ADE7
100
AcDbEntity
  8
3
  6
Continuous
 62
     7
100
AcDbVertex
100
AcDb2dVertex
 10
496.9435202095652
 20
223.828660311074
 30
0.0
 42
0.026376188
  0
VERTEX
  5
1ADED
330
1ADE7
100
AcDbEntity
  8
3
  6
Continuous
 62
     7
100
AcDbVertex
100
AcDb2dVertex
 10
496.8582602095652
 20
223.8307103110741
 30
0.0
 42
0.024893088
 70
     1
  0
VERTEX
  5
1ADEE
330
1ADE7
100
AcDbEntity
  8
3
  6
Continuous
 62
     7
100
AcDbVertex
100
AcDb2dVertex
 10
496.7704802095652
 20
223.8245203110741
 30
0.0
 42
0.023103486
  0
VERTEX
  5
1ADEF
330
1ADE7
100
AcDbEntity
  8
3
  6
Continuous
 62
     7
100
AcDbVertex
100
AcDb2dVertex
 10
496.6806902095653
 20
223.8098803110741
 30
0.0
 42
0.021293778
 70
     1
  0
VERTEX
  5
1ADF0
330
1ADE7
100
AcDbEntity
  8
3
  6
Continuous
 62
     7
100
AcDbVertex
100
AcDb2dVertex
 10
496.5896102095651
 20
223.787410311074
 30
0.0
 42
0.019594131
  0
VERTEX
  5
1ADF1
330
1ADE7
100
AcDbEntity
  8
3
  6
Continuous
 62
     7
100
AcDbVertex
100
AcDb2dVertex
 10
496.4978502095653
 20
223.7570903110741
 30
0.0
 42
0.017998572
 70
     1
  0
VERTEX
  5
1ADF2
330
1ADE7
100
AcDbEntity
  8
3
  6
Continuous
 62
     7
100
AcDbVertex
100
AcDb2dVertex
 10
496.4060602095653
 20
223.719680311074
 30
0.0
 42
0.016480787
  0
VERTEX
  5
1ADF3
330
1ADE7
100
AcDbEntity
  8
3
  6
Continuous
 62
     7
100
AcDbVertex
100
AcDb2dVertex
 10
496.3148402095653
 20
223.6754103110741
 30
0.0
 42
0.015163964
 70
     1
  0
VERTEX
  5
1ADF4
330
1ADE7
100
AcDbEntity
  8
3
  6
Continuous
 62
     7
100
AcDbVertex
100
AcDb2dVertex
 10
496.2247302095653
 20
223.625120311074
 30
0.0
 42
0.013925987
  0
VERTEX
  5
1ADF5
330
1ADE7
100
AcDbEntity
  8
3
  6
Continuous
 62
     7
100
AcDbVertex
100
AcDb2dVertex
 10
496.1363102095653
 20
223.5691803110741
 30
0.0
 42
0.012902085
 70
     1
  0
VERTEX
  5
1ADF6
330
1ADE7
100
AcDbEntity
  8
3
  6
Continuous
 62
     7
100
AcDbVertex
100
AcDb2dVertex
 10
496.0499402095652
 20
223.5084503110741
 30
0.0
 42
0.011916267
  0
VERTEX
  5
1ADF7
330
1ADE7
100
AcDbEntity
  8
3
  6
Continuous
 62
     7
100
AcDbVertex
100
AcDb2dVertex
 10
495.9661302095653
 20
223.443390311074
 30
0.0
 42
0.011127341
 70
     1
  0
VERTEX
  5
1ADF8
330
1ADE7
100
AcDbEntity
  8
3
  6
Continuous
 62
     7
100
AcDbVertex
100
AcDb2dVertex
 10
495.8851102095652
 20
223.3748203110741
 30
0.0
 42
0.010333478
  0
VERTEX
  5
1ADF9
330
1ADE7
100
AcDbEntity
  8
3
  6
Continuous
 62
     7
100
AcDbVertex
100
AcDb2dVertex
 10
495.8072902095651
 20
223.3032503110741
 30
0.0
 42
0.0097516107
 70
     1
  0
VERTEX
  5
1ADFA
330
1ADE7
100
AcDbEntity
  8
3
  6
Continuous
 62
     7
100
AcDbVertex
100
AcDb2dVertex
 10
495.7327202095653
 20
223.2293803110741
 30
0.0
 42
0.0091681837
  0
VERTEX
  5
1ADFB
330
1ADE7
100
AcDbEntity
  8
3
  6
Continuous
 62
     7
100
AcDbVertex
100
AcDb2dVertex
 10
495.6617302095652
 20
223.1536903110741
 30
0.0
 42
0.00865964
 70
     1
  0
VERTEX
  5
1ADFC
330
1ADE7
100
AcDbEntity
  8
3
  6
Continuous
 62
     7
100
AcDbVertex
100
AcDb2dVertex
 10
495.5942802095653
 20
223.0768803110741
 30
0.0
 42
0.008013736
  0
VERTEX
  5
1ADFD
330
1ADE7
100
AcDbEntity
  8
3
  6
Continuous
 62
     7
100
AcDbVertex
100
AcDb2dVertex
 10
495.5303002095653
 20
222.999050311074
 30
0.0
 42
0.007990084
 70
     1
  0
VERTEX
  5
1ADFE
330
1ADE7
100
AcDbEntity
  8
3
  6
Continuous
 62
     7
100
AcDbVertex
100
AcDb2dVertex
 10
495.468080209565
 20
222.9183103110741
 30
0.0
 42
0.0078921982
  0
VERTEX
  5
1ADFF
330
1ADE7
100
AcDbEntity
  8
3
  6
Continuous
 62
     7
100
AcDbVertex
100
AcDb2dVertex
 10
495.4061802095652
 20
222.832500311074
 30
0.0
 42
0.007641051
 70
     1
  0
VERTEX
  5
1AE00
330
1ADE7
100
AcDbEntity
  8
3
  6
Continuous
 62
     7
100
AcDbVertex
100
AcDb2dVertex
 10
495.3448902095653
 20
222.7417803110741
 30
0.0
 42
0.0079789409
  0
VERTEX
  5
1AE01
330
1ADE7
100
AcDbEntity
  8
3
  6
Continuous
 62
     7
100
AcDbVertex
100
AcDb2dVertex
 10
495.2849002095653
 20
222.6463003110741
 30
0.0
 42
0.008158656
 70
     1
  0
VERTEX
  5
1AE02
330
1ADE7
100
AcDbEntity
  8
3
  6
Continuous
 62
     7
100
AcDbVertex
100
AcDb2dVertex
 10
495.2265802095651
 20
222.5464503110741
 30
0.0
 42
0.0083384899
  0
VERTEX
  5
1AE03
330
1ADE7
100
AcDbEntity
  8
3
  6
Continuous
 62
     7
100
AcDbVertex
100
AcDb2dVertex
 10
495.1704502095652
 20
222.4422303110741
 30
0.0
 42
0.0084779733
 70
     1
  0
VERTEX
  5
1AE04
330
1ADE7
100
AcDbEntity
  8
3
  6
Continuous
 62
     7
100
AcDbVertex
100
AcDb2dVertex
 10
495.1169102095652
 20
222.3341803110741
 30
0.0
 42
0.008785847
  0
VERTEX
  5
1AE05
330
1ADE7
100
AcDbEntity
  8
3
  6
Continuous
 62
     7
100
AcDbVertex
100
AcDb2dVertex
 10
495.0666002095651
 20
222.2225903110741
 30
0.0
 42
0.0090341547
 70
     1
  0
VERTEX
  5
1AE06
330
1ADE7
100
AcDbEntity
  8
3
  6
Continuous
 62
     7
100
AcDbVertex
100
AcDb2dVertex
 10
495.0199102095653
 20
222.1081103110741
 30
0.0
 42
0.0093977502
  0
VERTEX
  5
1AE07
330
1ADE7
100
AcDbEntity
  8
3
  6
Continuous
 62
     7
100
AcDbVertex
100
AcDb2dVertex
 10
494.9775102095651
 20
221.9912103110741
 30
0.0
 42
0.009734309
 70
     1
  0
VERTEX
  5
1AE08
330
1ADE7
100
AcDbEntity
  8
3
  6
Continuous
 62
     7
100
AcDbVertex
100
AcDb2dVertex
 10
494.9396802095653
 20
221.8726603110741
 30
0.0
 42
0.010195318
  0
VERTEX
  5
1AE09
330
1ADE7
100
AcDbEntity
  8
3
  6
Continuous
 62
     7
100
AcDbVertex
100
AcDb2dVertex
 10
494.9071102095651
 20
221.7531003110741
 30
0.0
 42
0.010667377
 70
     1
  0
VERTEX
  5
1AE0A
330
1ADE7
100
AcDbEntity
  8
3
  6
Continuous
 62
     7
100
AcDbVertex
100
AcDb2dVertex
 10
494.8799702095652
 20
221.6333603110741
 30
0.0
 42
0.01126553
  0
VERTEX
  5
1AE0B
330
1ADE7
100
AcDbEntity
  8
3
  6
Continuous
 62
     7
100
AcDbVertex
100
AcDb2dVertex
 10
494.8588702095652
 20
221.5142603110741
 30
0.0
 42
0.011870181
 70
     1
  0
VERTEX
  5
1AE0C
330
1ADE7
100
AcDbEntity
  8
3
  6
Continuous
 62
     7
100
AcDbVertex
100
AcDb2dVertex
 10
494.8438002095651
 20
221.3966003110741
 30
0.0
 42
0.012541313
  0
VERTEX
  5
1AE0D
330
1ADE7
100
AcDbEntity
  8
3
  6
Continuous
 62
     7
100
AcDbVertex
100
AcDb2dVertex
 10
494.8352402095651
 20
221.2813003110741
 30
0.0
 42
0.013437194
 70
     1
  0
VERTEX
  5
1AE0E
330
1ADE7
100
AcDbEntity
  8
3
  6
Continuous
 62
     7
100
AcDbVertex
100
AcDb2dVertex
 10
494.8331002095653
 20
221.1690303110741
 30
0.0
 42
0.014568566
  0
VERTEX
  5
1AE0F
330
1ADE7
100
AcDbEntity
  8
3
  6
Continuous
 62
     7
100
AcDbVertex
100
AcDb2dVertex
 10
494.8377102095652
 20
221.0606903110741
 30
0.0
 42
0.015302374
 70
     1
  0
VERTEX
  5
1AE10
330
1ADE7
100
AcDbEntity
  8
3
  6
Continuous
 62
     7
100
AcDbVertex
100
AcDb2dVertex
 10
494.8484402095653
 20
220.9570403110741
 30
0.0
 42
0.015494897
  0
VERTEX
  5
1AE11
330
1ADE7
100
AcDbEntity
  8
3
  6
Continuous
 62
     7
100
AcDbVertex
100
AcDb2dVertex
 10
494.8652902095652
 20
220.8590603110741
 30
0.0
 42
0.017937318
 70
     1
  0
VERTEX
  5
1AE12
330
1ADE7
100
AcDbEntity
  8
3
  6
Continuous
 62
     7
100
AcDbVertex
100
AcDb2dVertex
 10
494.888990209565
 20
220.7661703110741
 30
0.0
 42
0.022356391
  0
VERTEX
  5
1AE13
330
1ADE7
100
AcDbEntity
  8
3
  6
Continuous
 62
     7
100
AcDbVertex
100
AcDb2dVertex
 10
494.9199002095651
 20
220.6788103110741
 30
0.0
 42
0.019339937
 70
     1
  0
VERTEX
  5
1AE14
330
1ADE7
100
AcDbEntity
  8
3
  6
Continuous
 62
     7
100
AcDbVertex
100
AcDb2dVertex
 10
494.9526202095652
 20
220.6005803110741
 30
0.0
 42
0.0091841896
  0
VERTEX
  5
1AE15
330
1ADE7
100
AcDbEntity
  8
3
  6
Continuous
 62
     7
100
AcDbVertex
100
AcDb2dVertex
 10
494.9852802095652
 20
220.5332403110741
 30
0.0
 42
0.027535339
 70
     1
  0
VERTEX
  5
1AE16
330
1ADE7
100
AcDbEntity
  8
3
  6
Continuous
 62
     7
100
AcDbVertex
100
AcDb2dVertex
 10
495.0361302095652
 20
220.4628503110741
 30
0.0
 42
0.051452953
  0
VERTEX
  5
1AE17
330
1ADE7
100
AcDbEntity
  8
3
  6
Continuous
 62
     7
100
AcDbVertex
100
AcDb2dVertex
 10
495.1247902095651
 20
220.3753403110741
 30
0.0
 42
0.028722964
 70
     1
  0
VERTEX
  5
1AE18
330
1ADE7
100
AcDbEntity
  8
3
  6
Continuous
 62
     7
100
AcDbVertex
100
AcDb2dVertex
 10
495.2472102095653
 20
220.2732603110741
 30
0.0
 42
0.016224518
  0
SEQEND
  5
1AE19
330
1ADE7
100
AcDbEntity
  8
3
  6
Continuous
 62
     7
  0
LINE
  5
1AE1A
330
1F
100
AcDbEntity
  8
3
  6
Continuous
 62
     7
100
AcDbLine
 10
485.4891302095651
 20
225.9070903110741
 30
0.0
 11
495.2472102095653
 21
220.2732603110741
 31
0.0
  0
POLYLINE
  5
1AE1B
330
1F
100
AcDbEntity
  8
3
  6
Continuous
 62
     7
100
AcDb2dPolyline
 66
     1
 10
0.0
 20
0.0
 30
0.0
 70
     2
  0
VERTEX
  5
1AE1C
330
1AE1B
100
AcDbEntity
  8
3
  6
Continuous
 62
     7
100
AcDbVertex
100
AcDb2dVertex
 10
495.2878402095651
 20
221.4922503110741
 30
0.0
  0
VERTEX
  5
1AE1D
330
1AE1B
100
AcDbEntity
  8
3
  6
Continuous
 62
     7
100
AcDbVertex
100
AcDb2dVertex
 10
495.3608902095651
 20
221.469250311074
 30
0.0
 42
0.006666998
 70
     1
  0
VERTEX
  5
1AE1E
330
1AE1B
100
AcDbEntity
  8
3
  6
Continuous
 62
     7
100
AcDbVertex
100
AcDb2dVertex
 10
495.4339902095652
 20
221.4483703110741
 30
0.0
 42
0.0069723516
  0
VERTEX
  5
1AE1F
330
1AE1B
100
AcDbEntity
  8
3
  6
Continuous
 62
     7
100
AcDbVertex
100
AcDb2dVertex
 10
495.5071902095651
 20
221.4297203110741
 30
0.0
 42
0.0068737901
 70
     1
  0
VERTEX
  5
1AE20
330
1AE1B
100
AcDbEntity
  8
3
  6
Continuous
 62
     7
100
AcDbVertex
100
AcDb2dVertex
 10
495.5801602095653
 20
221.4131403110741
 30
0.0
 42
0.0064090968
  0
VERTEX
  5
1AE21
330
1AE1B
100
AcDbEntity
  8
3
  6
Continuous
 62
     7
100
AcDbVertex
100
AcDb2dVertex
 10
495.6525702095652
 20
221.3986403110741
 30
0.0
 42
0.0061686869
 70
     1
  0
VERTEX
  5
1AE22
330
1AE1B
100
AcDbEntity
  8
3
  6
Continuous
 62
     7
100
AcDbVertex
100
AcDb2dVertex
 10
495.7246302095652
 20
221.3859903110741
 30
0.0
 42
0.0059008143
  0
VERTEX
  5
1AE23
330
1AE1B
100
AcDbEntity
  8
3
  6
Continuous
 62
     7
100
AcDbVertex
100
AcDb2dVertex
 10
495.7968202095653
 20
221.3750903110741
 30
0.0
 42
0.0058764797
 70
     1
  0
VERTEX
  5
1AE24
330
1AE1B
100
AcDbEntity
  8
3
  6
Continuous
 62
     7
100
AcDbVertex
100
AcDb2dVertex
 10
495.8703302095653
 20
221.3657403110741
 30
0.0
 42
0.005897138
  0
VERTEX
  5
1AE25
330
1AE1B
100
AcDbEntity
  8
3
  6
Continuous
 62
     7
100
AcDbVertex
100
AcDb2dVertex
 10
495.9463302095652
 20
221.3579103110741
 30
0.0
 42
0.0057930877
 70
     1
  0
VERTEX
  5
1AE26
330
1AE1B
100
AcDbEntity
  8
3
  6
Continuous
 62
     7
100
AcDbVertex
100
AcDb2dVertex
 10
496.0245802095652
 20
221.3516703110741
 30
0.0
 42
0.0059682522
  0
VERTEX
  5
1AE27
330
1AE1B
100
AcDbEntity
  8
3
  6
Continuous
 62
     7
100
AcDbVertex
100
AcDb2dVertex
 10
496.1047602095653
 20
221.347280311074
 30
0.0
 42
0.0060702342
 70
     1
  0
VERTEX
  5
1AE28
330
1AE1B
100
AcDbEntity
  8
3
  6
Continuous
 62
     7
100
AcDbVertex
100
AcDb2dVertex
 10
496.1866802095652
 20
221.344760311074
 30
0.0
 42
0.0061598664
  0
VERTEX
  5
1AE29
330
1AE1B
100
AcDbEntity
  8
3
  6
Continuous
 62
     7
100
AcDbVertex
100
AcDb2dVertex
 10
496.2703002095651
 20
221.344320311074
 30
0.0
 42
0.0062207346
 70
     1
  0
VERTEX
  5
1AE2A
330
1AE1B
100
AcDbEntity
  8
3
  6
Continuous
 62
     7
100
AcDbVertex
100
AcDb2dVertex
 10
496.3553702095651
 20
221.3459703110741
 30
0.0
 42
0.0063749863
  0
VERTEX
  5
1AE2B
330
1AE1B
100
AcDbEntity
  8
3
  6
Continuous
 62
     7
100
AcDbVertex
100
AcDb2dVertex
 10
496.4417002095652
 20
221.349940311074
 30
0.0
 42
0.0064857757
 70
     1
  0
VERTEX
  5
1AE2C
330
1AE1B
100
AcDbEntity
  8
3
  6
Continuous
 62
     7
100
AcDbVertex
100
AcDb2dVertex
 10
496.5290102095653
 20
221.356210311074
 30
0.0
 42
0.0066529491
  0
VERTEX
  5
1AE2D
330
1AE1B
100
AcDbEntity
  8
3
  6
Continuous
 62
     7
100
AcDbVertex
100
AcDb2dVertex
 10
496.6170702095651
 20
221.3649803110741
 30
0.0
 42
0.0067916138
 70
     1
  0
VERTEX
  5
1AE2E
330
1AE1B
100
AcDbEntity
  8
3
  6
Continuous
 62
     7
100
AcDbVertex
100
AcDb2dVertex
 10
496.7055802095652
 20
221.376230311074
 30
0.0
 42
0.0069959833
  0
VERTEX
  5
1AE2F
330
1AE1B
100
AcDbEntity
  8
3
  6
Continuous
 62
     7
100
AcDbVertex
100
AcDb2dVertex
 10
496.7942202095652
 20
221.3901303110741
 30
0.0
 42
0.0071780479
 70
     1
  0
VERTEX
  5
1AE30
330
1AE1B
100
AcDbEntity
  8
3
  6
Continuous
 62
     7
100
AcDbVertex
100
AcDb2dVertex
 10
496.8826802095652
 20
221.406620311074
 30
0.0
 42
0.0074200171
  0
VERTEX
  5
1AE31
330
1AE1B
100
AcDbEntity
  8
3
  6
Continuous
 62
     7
100
AcDbVertex
100
AcDb2dVertex
 10
496.9706102095653
 20
221.4258403110741
 30
0.0
 42
0.0076511372
 70
     1
  0
VERTEX
  5
1AE32
330
1AE1B
100
AcDbEntity
  8
3
  6
Continuous
 62
     7
100
AcDbVertex
100
AcDb2dVertex
 10
497.0576802095652
 20
221.4476903110741
 30
0.0
 42
0.0079399217
  0
VERTEX
  5
1AE33
330
1AE1B
100
AcDbEntity
  8
3
  6
Continuous
 62
     7
100
AcDbVertex
100
AcDb2dVertex
 10
497.143490209565
 20
221.4722703110741
 30
0.0
 42
0.0082304181
 70
     1
  0
VERTEX
  5
1AE34
330
1AE1B
100
AcDbEntity
  8
3
  6
Continuous
 62
     7
100
AcDbVertex
100
AcDb2dVertex
 10
497.2277302095652
 20
221.4994503110741
 30
0.0
 42
0.0085737788
  0
VERTEX
  5
1AE35
330
1AE1B
100
AcDbEntity
  8
3
  6
Continuous
 62
     7
100
AcDbVertex
100
AcDb2dVertex
 10
497.3099802095652
 20
221.5292903110741
 30
0.0
 42
0.0089341401
 70
     1
  0
VERTEX
  5
1AE36
330
1AE1B
100
AcDbEntity
  8
3
  6
Continuous
 62
     7
100
AcDbVertex
100
AcDb2dVertex
 10
497.3899502095652
 20
221.5616103110741
 30
0.0
 42
0.0093411138
  0
VERTEX
  5
1AE37
330
1AE1B
100
AcDbEntity
  8
3
  6
Continuous
 62
     7
100
AcDbVertex
100
AcDb2dVertex
 10
497.4672202095653
 20
221.5964103110741
 30
0.0
 42
0.0097823221
 70
     1
  0
VERTEX
  5
1AE38
330
1AE1B
100
AcDbEntity
  8
3
  6
Continuous
 62
     7
100
AcDbVertex
100
AcDb2dVertex
 10
497.5415602095652
 20
221.6334903110741
 30
0.0
 42
0.010260489
  0
VERTEX
  5
1AE39
330
1AE1B
100
AcDbEntity
  8
3
  6
Continuous
 62
     7
100
AcDbVertex
100
AcDb2dVertex
 10
497.6125302095652
 20
221.6728003110741
 30
0.0
 42
0.010792725
 70
     1
  0
VERTEX
  5
1AE3A
330
1AE1B
100
AcDbEntity
  8
3
  6
Continuous
 62
     7
100
AcDbVertex
100
AcDb2dVertex
 10
497.6800002095652
 20
221.714120311074
 30
0.0
 42
0.011348659
  0
VERTEX
  5
1AE3B
330
1AE1B
100
AcDbEntity
  8
3
  6
Continuous
 62
     7
100
AcDbVertex
100
AcDb2dVertex
 10
497.7435602095652
 20
221.7573403110741
 30
0.0
 42
0.011974625
 70
     1
  0
VERTEX
  5
1AE3C
330
1AE1B
100
AcDbEntity
  8
3
  6
Continuous
 62
     7
100
AcDbVertex
100
AcDb2dVertex
 10
497.8031402095653
 20
221.802230311074
 30
0.0
 42
0.012598905
  0
VERTEX
  5
1AE3D
330
1AE1B
100
AcDbEntity
  8
3
  6
Continuous
 62
     7
100
AcDbVertex
100
AcDb2dVertex
 10
497.8583802095652
 20
221.8486503110741
 30
0.0
 42
0.013321544
 70
     1
  0
VERTEX
  5
1AE3E
330
1AE1B
100
AcDbEntity
  8
3
  6
Continuous
 62
     7
100
AcDbVertex
100
AcDb2dVertex
 10
497.9093102095652
 20
221.8963403110741
 30
0.0
 42
0.014024554
  0
VERTEX
  5
1AE3F
330
1AE1B
100
AcDbEntity
  8
3
  6
Continuous
 62
     7
100
AcDbVertex
100
AcDb2dVertex
 10
497.955620209565
 20
221.9451603110741
 30
0.0
 42
0.014783362
 70
     1
  0
VERTEX
  5
1AE40
330
1AE1B
100
AcDbEntity
  8
3
  6
Continuous
 62
     7
100
AcDbVertex
100
AcDb2dVertex
 10
497.9974302095651
 20
221.9948403110741
 30
0.0
 42
0.0154171
  0
VERTEX
  5
1AE41
330
1AE1B
100
AcDbEntity
  8
3
  6
Continuous
 62
     7
100
AcDbVertex
100
AcDb2dVertex
 10
498.0345002095653
 20
222.0452003110741
 30
0.0
 42
0.01630049
 70
     1
  0
VERTEX
  5
1AE42
330
1AE1B
100
AcDbEntity
  8
3
  6
Continuous
 62
     7
100
AcDbVertex
100
AcDb2dVertex
 10
498.0670002095652
 20
222.0960603110741
 30
0.0
 42
0.017210935
  0
VERTEX
  5
1AE43
330
1AE1B
100
AcDbEntity
  8
3
  6
Continuous
 62
     7
100
AcDbVertex
100
AcDb2dVertex
 10
498.0947602095652
 20
222.1472703110741
 30
0.0
 42
0.01757703
 70
     1
  0
VERTEX
  5
1AE44
330
1AE1B
100
AcDbEntity
  8
3
  6
Continuous
 62
     7
100
AcDbVertex
100
AcDb2dVertex
 10
498.1181102095653
 20
222.1983703110741
 30
0.0
 42
0.017135839
  0
VERTEX
  5
1AE45
330
1AE1B
100
AcDbEntity
  8
3
  6
Continuous
 62
     7
100
AcDbVertex
100
AcDb2dVertex
 10
498.1369502095652
 20
222.2490903110741
 30
0.0
 42
0.018979014
 70
     1
  0
VERTEX
  5
1AE46
330
1AE1B
100
AcDbEntity
  8
3
  6
Continuous
 62
     7
100
AcDbVertex
100
AcDb2dVertex
 10
498.1513302095653
 20
222.3002403110741
 30
0.0
 42
0.022307844
  0
VERTEX
  5
1AE47
330
1AE1B
100
AcDbEntity
  8
3
  6
Continuous
 62
     7
100
AcDbVertex
100
AcDb2dVertex
 10
498.1611102095651
 20
222.3519703110741
 30
0.0
 42
0.018102187
 70
     1
  0
VERTEX
  5
1AE48
330
1AE1B
100
AcDbEntity
  8
3
  6
Continuous
 62
     7
100
AcDbVertex
100
AcDb2dVertex
 10
498.1677002095652
 20
222.4003103110741
 30
0.0
 42
0.0081927237
  0
VERTEX
  5
1AE49
330
1AE1B
100
AcDbEntity
  8
3
  6
Continuous
 62
     7
100
AcDbVertex
100
AcDb2dVertex
 10
498.1715002095651
 20
222.4438003110741
 30
0.0
 42
0.023726614
 70
     1
  0
VERTEX
  5
1AE4A
330
1AE1B
100
AcDbEntity
  8
3
  6
Continuous
 62
     7
100
AcDbVertex
100
AcDb2dVertex
 10
498.1685702095652
 20
222.4974503110741
 30
0.0
 42
0.03948743
  0
VERTEX
  5
1AE4B
330
1AE1B
100
AcDbEntity
  8
3
  6
Continuous
 62
     7
100
AcDbVertex
100
AcDb2dVertex
 10
498.1544602095651
 20
222.5770103110741
 30
0.0
 42
0.020000418
 70
     1
  0
VERTEX
  5
1AE4C
330
1AE1B
100
AcDbEntity
  8
3
  6
Continuous
 62
     7
100
AcDbVertex
100
AcDb2dVertex
 10
498.1301902095652
 20
222.679370311074
 30
0.0
 42
0.010949924
  0
SEQEND
  5
1AE4D
330
1AE1B
100
AcDbEntity
  8
3
  6
Continuous
 62
     7
  0
POLYLINE
  5
1AE4E
330
1F
100
AcDbEntity
  8
3
  6
Continuous
 62
     7
100
AcDb2dPolyline
 66
     1
 10
0.0
 20
0.0
 30
0.0
 70
     2
  0
VERTEX
  5
1AE4F
330
1AE4E
100
AcDbEntity
  8
3
  6
Continuous
 62
     7
100
AcDbVertex
100
AcDb2dVertex
 10
495.2878402095651
 20
220.5941003110741
 30
0.0
  0
VERTEX
  5
1AE50
330
1AE4E
100
AcDbEntity
  8
3
  6
Continuous
 62
     7
100
AcDbVertex
100
AcDb2dVertex
 10
495.2807002095652
 20
220.6188103110741
 30
0.0
 42
-0.005609148
 70
     1
  0
VERTEX
  5
1AE51
330
1AE4E
100
AcDbEntity
  8
3
  6
Continuous
 62
     7
100
AcDbVertex
100
AcDb2dVertex
 10
495.2740202095652
 20
220.6439903110741
 30
0.0
 42
-0.0054518183
  0
VERTEX
  5
1AE52
330
1AE4E
100
AcDbEntity
  8
3
  6
Continuous
 62
     7
100
AcDbVertex
100
AcDb2dVertex
 10
495.2678202095651
 20
220.6696703110741
 30
0.0
 42
-0.005319284
 70
     1
  0
VERTEX
  5
1AE53
330
1AE4E
100
AcDbEntity
  8
3
  6
Continuous
 62
     7
100
AcDbVertex
100
AcDb2dVertex
 10
495.2620702095652
 20
220.6958103110741
 30
0.0
 42
-0.0052356651
  0
VERTEX
  5
1AE54
330
1AE4E
100
AcDbEntity
  8
3
  6
Continuous
 62
     7
100
AcDbVertex
100
AcDb2dVertex
 10
495.2568102095653
 20
220.7224103110741
 30
0.0
 42
-0.005133769
 70
     1
  0
VERTEX
  5
1AE55
330
1AE4E
100
AcDbEntity
  8
3
  6
Continuous
 62
     7
100
AcDbVertex
100
AcDb2dVertex
 10
495.2520202095652
 20
220.7494503110741
 30
0.0
 42
-0.005032209
  0
VERTEX
  5
1AE56
330
1AE4E
100
AcDbEntity
  8
3
  6
Continuous
 62
     7
100
AcDbVertex
100
AcDb2dVertex
 10
495.2477402095651
 20
220.7769303110741
 30
0.0
 42
-0.0049265291
 70
     1
  0
VERTEX
  5
1AE57
330
1AE4E
100
AcDbEntity
  8
3
  6
Continuous
 62
     7
100
AcDbVertex
100
AcDb2dVertex
 10
495.2439302095653
 20
220.8048303110741
 30
0.0
 42
-0.0048331924
  0
VERTEX
  5
1AE58
330
1AE4E
100
AcDbEntity
  8
3
  6
Continuous
 62
     7
100
AcDbVertex
100
AcDb2dVertex
 10
495.2406402095653
 20
220.8331303110741
 30
0.0
 42
-0.0047342439
 70
     1
  0
VERTEX
  5
1AE59
330
1AE4E
100
AcDbEntity
  8
3
  6
Continuous
 62
     7
100
AcDbVertex
100
AcDb2dVertex
 10
495.2378302095651
 20
220.8618203110741
 30
0.0
 42
-0.0046436891
  0
VERTEX
  5
1AE5A
330
1AE4E
100
AcDbEntity
  8
3
  6
Continuous
 62
     7
100
AcDbVertex
100
AcDb2dVertex
 10
495.2355402095652
 20
220.890890311074
 30
0.0
 42
-0.004547822
 70
     1
  0
VERTEX
  5
1AE5B
330
1AE4E
100
AcDbEntity
  8
3
  6
Continuous
 62
     7
100
AcDbVertex
100
AcDb2dVertex
 10
495.2337502095653
 20
220.9203203110741
 30
0.0
 42
-0.0044586767
  0
VERTEX
  5
1AE5C
330
1AE4E
100
AcDbEntity
  8
3
  6
Continuous
 62
     7
100
AcDbVertex
100
AcDb2dVertex
 10
495.2324802095652
 20
220.9501003110741
 30
0.0
 42
-0.0043719271
 70
     1
  0
VERTEX
  5
1AE5D
330
1AE4E
100
AcDbEntity
  8
3
  6
Continuous
 62
     7
100
AcDbVertex
100
AcDb2dVertex
 10
495.2317102095652
 20
220.9802003110741
 30
0.0
 42
-0.0042961537
  0
VERTEX
  5
1AE5E
330
1AE4E
100
AcDbEntity
  8
3
  6
Continuous
 62
     7
100
AcDbVertex
100
AcDb2dVertex
 10
495.2314602095652
 20
221.0106303110741
 30
0.0
 42
-0.0042010876
 70
     1
  0
VERTEX
  5
1AE5F
330
1AE4E
100
AcDbEntity
  8
3
  6
Continuous
 62
     7
100
AcDbVertex
100
AcDb2dVertex
 10
495.2317102095652
 20
221.041330311074
 30
0.0
 42
-0.004098296
  0
VERTEX
  5
1AE60
330
1AE4E
100
AcDbEntity
  8
3
  6
Continuous
 62
     7
100
AcDbVertex
100
AcDb2dVertex
 10
495.2324802095652
 20
221.0723103110741
 30
0.0
 42
-0.0040531333
 70
     1
  0
VERTEX
  5
1AE61
330
1AE4E
100
AcDbEntity
  8
3
  6
Continuous
 62
     7
100
AcDbVertex
100
AcDb2dVertex
 10
495.2337502095653
 20
221.1035703110741
 30
0.0
 42
-0.0040554716
  0
VERTEX
  5
1AE62
330
1AE4E
100
AcDbEntity
  8
3
  6
Continuous
 62
     7
100
AcDbVertex
100
AcDb2dVertex
 10
495.2355602095653
 20
221.135140311074
 30
0.0
 42
-0.0038689597
 70
     1
  0
VERTEX
  5
1AE63
330
1AE4E
100
AcDbEntity
  8
3
  6
Continuous
 62
     7
100
AcDbVertex
100
AcDb2dVertex
 10
495.2378302095651
 20
221.1667903110741
 30
0.0
 42
-0.0035569082
  0
VERTEX
  5
1AE64
330
1AE4E
100
AcDbEntity
  8
3
  6
Continuous
 62
     7
100
AcDbVertex
100
AcDb2dVertex
 10
495.2405802095652
 20
221.1984503110741
 30
0.0
 42
-0.003846005
 70
     1
  0
VERTEX
  5
1AE65
330
1AE4E
100
AcDbEntity
  8
3
  6
Continuous
 62
     7
100
AcDbVertex
100
AcDb2dVertex
 10
495.2439302095653
 20
221.2308203110741
 30
0.0
 42
-0.0044776744
  0
VERTEX
  5
1AE66
330
1AE4E
100
AcDbEntity
  8
3
  6
Continuous
 62
     7
100
AcDbVertex
100
AcDb2dVertex
 10
495.2479502095652
 20
221.2641503110741
 30
0.0
 42
-0.0033529586
 70
     1
  0
VERTEX
  5
1AE67
330
1AE4E
100
AcDbEntity
  8
3
  6
Continuous
 62
     7
100
AcDbVertex
100
AcDb2dVertex
 10
495.2520202095652
 20
221.2955403110741
 30
0.0
 42
-0.0011858666
  0
VERTEX
  5
1AE68
330
1AE4E
100
AcDbEntity
  8
3
  6
Continuous
 62
     7
100
AcDbVertex
100
AcDb2dVertex
 10
495.2559502095652
 20
221.3240103110741
 30
0.0
 42
-0.0045934551
 70
     1
  0
VERTEX
  5
1AE69
330
1AE4E
100
AcDbEntity
  8
3
  6
Continuous
 62
     7
100
AcDbVertex
100
AcDb2dVertex
 10
495.2620702095652
 20
221.3607803110741
 30
0.0
 42
-0.0076515834
  0
VERTEX
  5
1AE6A
330
1AE4E
100
AcDbEntity
  8
3
  6
Continuous
 62
     7
100
AcDbVertex
100
AcDb2dVertex
 10
495.2728702095653
 20
221.417640311074
 30
0.0
 42
-0.0036751734
 70
     1
  0
VERTEX
  5
1AE6B
330
1AE4E
100
AcDbEntity
  8
3
  6
Continuous
 62
     7
100
AcDbVertex
100
AcDb2dVertex
 10
495.2878402095651
 20
221.4922503110741
 30
0.0
 42
-0.001936036
  0
SEQEND
  5
1AE6C
330
1AE4E
100
AcDbEntity
  8
3
  6
Continuous
 62
     7
  0
ARC
  5
1AE6D
330
1F
100
AcDbEntity
  8
3
  6
Continuous
 62
     7
100
AcDbCircle
 10
496.2472002095652
 20
222.005310311074
 30
0.0
 40
1.999998299999997
100
AcDbArc
 50
19.69609399999878
 51
59.99999300000177
  0
ARC
  5
1AE6E
330
1F
100
AcDbEntity
  8
3
  6
Continuous
 62
     7
100
AcDbCircle
 10
496.2472002095652
 20
222.005310311074
 30
0.0
 40
1.9999985
100
AcDbArc
 50
240.0000399999997
 51
340.2592500000003
  0
POLYLINE
  5
1AE6F
330
1F
100
AcDbEntity
  8
3
  6
Continuous
 62
     7
100
AcDb2dPolyline
 66
     1
 10
0.0
 20
0.0
 30
0.0
 70
     2
  0
VERTEX
  5
1AE70
330
1AE6F
100
AcDbEntity
  8
3
  6
Continuous
 62
     7
100
AcDbVertex
100
AcDb2dVertex
 10
498.0057602095651
 20
222.005310311074
 30
0.0
  0
VERTEX
  5
1AE71
330
1AE6F
100
AcDbEntity
  8
3
  6
Continuous
 62
     7
100
AcDbVertex
100
AcDb2dVertex
 10
498.0301702095651
 20
221.971900311074
 30
0.0
 42
-0.0099766626
 70
     1
  0
VERTEX
  5
1AE72
330
1AE6F
100
AcDbEntity
  8
3
  6
Continuous
 62
     7
100
AcDbVertex
100
AcDb2dVertex
 10
498.0524302095652
 20
221.9386303110741
 30
0.0
 42
-0.010956302
  0
VERTEX
  5
1AE73
330
1AE6F
100
AcDbEntity
  8
3
  6
Continuous
 62
     7
100
AcDbVertex
100
AcDb2dVertex
 10
498.0724402095653
 20
221.905500311074
 30
0.0
 42
-0.011428635
 70
     1
  0
VERTEX
  5
1AE74
330
1AE6F
100
AcDbEntity
  8
3
  6
Continuous
 62
     7
100
AcDbVertex
100
AcDb2dVertex
 10
498.0903802095651
 20
221.8725803110741
 30
0.0
 42
-0.011199448
  0
VERTEX
  5
1AE75
330
1AE6F
100
AcDbEntity
  8
3
  6
Continuous
 62
     7
100
AcDbVertex
100
AcDb2dVertex
 10
498.1062702095652
 20
221.8398803110741
 30
0.0
 42
-0.011590326
 70
     1
  0
VERTEX
  5
1AE76
330
1AE6F
100
AcDbEntity
  8
3
  6
Continuous
 62
     7
100
AcDbVertex
100
AcDb2dVertex
 10
498.1204502095653
 20
221.8068803110741
 30
0.0
 42
-0.01198947
  0
VERTEX
  5
1AE77
330
1AE6F
100
AcDbEntity
  8
3
  6
Continuous
 62
     7
100
AcDbVertex
100
AcDb2dVertex
 10
498.1330502095651
 20
221.773030311074
 30
0.0
 42
-0.01217517
 70
     1
  0
VERTEX
  5
1AE78
330
1AE6F
100
AcDbEntity
  8
3
  6
Continuous
 62
     7
100
AcDbVertex
100
AcDb2dVertex
 10
498.1440402095651
 20
221.7383703110741
 30
0.0
 42
-0.012840005
  0
VERTEX
  5
1AE79
330
1AE6F
100
AcDbEntity
  8
3
  6
Continuous
 62
     7
100
AcDbVertex
100
AcDb2dVertex
 10
498.1532102095652
 20
221.7029503110741
 30
0.0
 42
-0.01334252
 70
     1
  0
VERTEX
  5
1AE7A
330
1AE6F
100
AcDbEntity
  8
3
  6
Continuous
 62
     7
100
AcDbVertex
100
AcDb2dVertex
 10
498.1605302095651
 20
221.6668203110741
 30
0.0
 42
-0.013778425
  0
VERTEX
  5
1AE7B
330
1AE6F
100
AcDbEntity
  8
3
  6
Continuous
 62
     7
100
AcDbVertex
100
AcDb2dVertex
 10
498.1658202095651
 20
221.6299803110741
 30
0.0
 42
-0.014105181
 70
     1
  0
VERTEX
  5
1AE7C
330
1AE6F
100
AcDbEntity
  8
3
  6
Continuous
 62
     7
100
AcDbVertex
100
AcDb2dVertex
 10
498.1690702095654
 20
221.5925103110741
 30
0.0
 42
-0.014512609
  0
VERTEX
  5
1AE7D
330
1AE6F
100
AcDbEntity
  8
3
  6
Continuous
 62
     7
100
AcDbVertex
100
AcDb2dVertex
 10
498.1700702095651
 20
221.5544203110741
 30
0.0
 42
-0.014752402
 70
     1
  0
VERTEX
  5
1AE7E
330
1AE6F
100
AcDbEntity
  8
3
  6
Continuous
 62
     7
100
AcDbVertex
100
AcDb2dVertex
 10
498.1688202095653
 20
221.5158003110741
 30
0.0
 42
-0.015004775
  0
VERTEX
  5
1AE7F
330
1AE6F
100
AcDbEntity
  8
3
  6
Continuous
 62
     7
100
AcDbVertex
100
AcDb2dVertex
 10
498.1651302095649
 20
221.4766903110741
 30
0.0
 42
-0.015083899
 70
     1
  0
VERTEX
  5
1AE80
330
1AE6F
100
AcDbEntity
  8
3
  6
Continuous
 62
     7
100
AcDbVertex
100
AcDb2dVertex
 10
498.1590002095652
 20
221.4371603110741
 30
0.0
 42
-0.015182786
  0
VERTEX
  5
1AE81
330
1AE6F
100
AcDbEntity
  8
3
  6
Continuous
 62
     7
100
AcDbVertex
100
AcDb2dVertex
 10
498.1502502095652
 20
221.3972803110741
 30
0.0
 42
-0.015099274
 70
     1
  0
VERTEX
  5
1AE82
330
1AE6F
100
AcDbEntity
  8
3
  6
Continuous
 62
     7
100
AcDbVertex
100
AcDb2dVertex
 10
498.1389102095651
 20
221.357130311074
 30
0.0
 42
-0.015030679
  0
VERTEX
  5
1AE83
330
1AE6F
100
AcDbEntity
  8
3
  6
Continuous
 62
     7
100
AcDbVertex
100
AcDb2dVertex
 10
498.1248002095652
 20
221.3167803110741
 30
0.0
 42
-0.014790503
 70
     1
  0
VERTEX
  5
1AE84
330
1AE6F
100
AcDbEntity
  8
3
  6
Continuous
 62
     7
100
AcDbVertex
100
AcDb2dVertex
 10
498.1079702095652
 20
221.2763303110741
 30
0.0
 42
-0.01457438
  0
VERTEX
  5
1AE85
330
1AE6F
100
AcDbEntity
  8
3
  6
Continuous
 62
     7
100
AcDbVertex
100
AcDb2dVertex
 10
498.0882502095652
 20
221.2358603110741
 30
0.0
 42
-0.014208606
 70
     1
  0
VERTEX
  5
1AE86
330
1AE6F
100
AcDbEntity
  8
3
  6
Continuous
 62
     7
100
AcDbVertex
100
AcDb2dVertex
 10
498.0657302095653
 20
221.1954703110741
 30
0.0
 42
-0.013878593
  0
VERTEX
  5
1AE87
330
1AE6F
100
AcDbEntity
  8
3
  6
Continuous
 62
     7
100
AcDbVertex
100
AcDb2dVertex
 10
498.0402502095651
 20
221.1552503110741
 30
0.0
 42
-0.013428708
 70
     1
  0
VERTEX
  5
1AE88
330
1AE6F
100
AcDbEntity
  8
3
  6
Continuous
 62
     7
100
AcDbVertex
100
AcDb2dVertex
 10
498.0119202095653
 20
221.1153103110741
 30
0.0
 42
-0.013026206
  0
VERTEX
  5
1AE89
330
1AE6F
100
AcDbEntity
  8
3
  6
Continuous
 62
     7
100
AcDbVertex
100
AcDb2dVertex
 10
497.9806302095652
 20
221.0757403110741
 30
0.0
 42
-0.012535068
 70
     1
  0
VERTEX
  5
1AE8A
330
1AE6F
100
AcDbEntity
  8
3
  6
Continuous
 62
     7
100
AcDbVertex
100
AcDb2dVertex
 10
497.9464902095651
 20
221.0366503110741
 30
0.0
 42
-0.012098841
  0
VERTEX
  5
1AE8B
330
1AE6F
100
AcDbEntity
  8
3
  6
Continuous
 62
     7
100
AcDbVertex
100
AcDb2dVertex
 10
497.9094302095652
 20
220.9981503110741
 30
0.0
 42
-0.011602551
 70
     1
  0
VERTEX
  5
1AE8C
330
1AE6F
100
AcDbEntity
  8
3
  6
Continuous
 62
     7
100
AcDbVertex
100
AcDb2dVertex
 10
497.8696002095651
 20
220.9603203110741
 30
0.0
 42
-0.011163433
  0
VERTEX
  5
1AE8D
330
1AE6F
100
AcDbEntity
  8
3
  6
Continuous
 62
     7
100
AcDbVertex
100
AcDb2dVertex
 10
497.8269302095652
 20
220.9233003110741
 30
0.0
 42
-0.01068803
 70
     1
  0
VERTEX
  5
1AE8E
330
1AE6F
100
AcDbEntity
  8
3
  6
Continuous
 62
     7
100
AcDbVertex
100
AcDb2dVertex
 10
497.7816202095652
 20
220.8871503110741
 30
0.0
 42
-0.010267198
  0
VERTEX
  5
1AE8F
330
1AE6F
100
AcDbEntity
  8
3
  6
Continuous
 62
     7
100
AcDbVertex
100
AcDb2dVertex
 10
497.7336402095652
 20
220.8520003110741
 30
0.0
 42
-0.0098287178
 70
     1
  0
VERTEX
  5
1AE90
330
1AE6F
100
AcDbEntity
  8
3
  6
Continuous
 62
     7
100
AcDbVertex
100
AcDb2dVertex
 10
497.6832002095652
 20
220.817900311074
 30
0.0
 42
-0.009438683
  0
VERTEX
  5
1AE91
330
1AE6F
100
AcDbEntity
  8
3
  6
Continuous
 62
     7
100
AcDbVertex
100
AcDb2dVertex
 10
497.6303002095654
 20
220.7850003110741
 30
0.0
 42
-0.0090450974
 70
     1
  0
VERTEX
  5
1AE92
330
1AE6F
100
AcDbEntity
  8
3
  6
Continuous
 62
     7
100
AcDbVertex
100
AcDb2dVertex
 10
497.5751602095653
 20
220.7533203110741
 30
0.0
 42
-0.0086917683
  0
VERTEX
  5
1AE93
330
1AE6F
100
AcDbEntity
  8
3
  6
Continuous
 62
     7
100
AcDbVertex
100
AcDb2dVertex
 10
497.5178402095653
 20
220.7230003110741
 30
0.0
 42
-0.0083453776
 70
     1
  0
VERTEX
  5
1AE94
330
1AE6F
100
AcDbEntity
  8
3
  6
Continuous
 62
     7
100
AcDbVertex
100
AcDb2dVertex
 10
497.4585502095652
 20
220.6940403110741
 30
0.0
 42
-0.0080302068
  0
VERTEX
  5
1AE95
330
1AE6F
100
AcDbEntity
  8
3
  6
Continuous
 62
     7
100
AcDbVertex
100
AcDb2dVertex
 10
497.3973902095653
 20
220.6665803110741
 30
0.0
 42
-0.0077297629
 70
     1
  0
VERTEX
  5
1AE96
330
1AE6F
100
AcDbEntity
  8
3
  6
Continuous
 62
     7
100
AcDbVertex
100
AcDb2dVertex
 10
497.3345702095651
 20
220.6406103110741
 30
0.0
 42
-0.0074515009
  0
VERTEX
  5
1AE97
330
1AE6F
100
AcDbEntity
  8
3
  6
Continuous
 62
     7
100
AcDbVertex
100
AcDb2dVertex
 10
497.2702102095651
 20
220.6162303110741
 30
0.0
 42
-0.007193795
 70
     1
  0
VERTEX
  5
1AE98
330
1AE6F
100
AcDbEntity
  8
3
  6
Continuous
 62
     7
100
AcDbVertex
100
AcDb2dVertex
 10
497.2045402095652
 20
220.5934303110741
 30
0.0
 42
-0.0069497409
  0
VERTEX
  5
1AE99
330
1AE6F
100
AcDbEntity
  8
3
  6
Continuous
 62
     7
100
AcDbVertex
100
AcDb2dVertex
 10
497.1376902095652
 20
220.572300311074
 30
0.0
 42
-0.0067306766
 70
     1
  0
VERTEX
  5
1AE9A
330
1AE6F
100
AcDbEntity
  8
3
  6
Continuous
 62
     7
100
AcDbVertex
100
AcDb2dVertex
 10
497.0698602095652
 20
220.5527903110741
 30
0.0
 42
-0.006517508
  0
VERTEX
  5
1AE9B
330
1AE6F
100
AcDbEntity
  8
3
  6
Continuous
 62
     7
100
AcDbVertex
100
AcDb2dVertex
 10
497.0012202095651
 20
220.5349903110741
 30
0.0
 42
-0.0063327423
 70
     1
  0
VERTEX
  5
1AE9C
330
1AE6F
100
AcDbEntity
  8
3
  6
Continuous
 62
     7
100
AcDbVertex
100
AcDb2dVertex
 10
496.9319702095653
 20
220.518840311074
 30
0.0
 42
-0.0061469646
  0
VERTEX
  5
1AE9D
330
1AE6F
100
AcDbEntity
  8
3
  6
Continuous
 62
     7
100
AcDbVertex
100
AcDb2dVertex
 10
496.8622502095652
 20
220.5044003110741
 30
0.0
 42
-0.0059923427
 70
     1
  0
VERTEX
  5
1AE9E
330
1AE6F
100
AcDbEntity
  8
3
  6
Continuous
 62
     7
100
AcDbVertex
100
AcDb2dVertex
 10
496.7922702095653
 20
220.4915903110741
 30
0.0
 42
-0.0058307216
  0
VERTEX
  5
1AE9F
330
1AE6F
100
AcDbEntity
  8
3
  6
Continuous
 62
     7
100
AcDbVertex
100
AcDb2dVertex
 10
496.7221702095653
 20
220.4804703110741
 30
0.0
 42
-0.0057022436
 70
     1
  0
VERTEX
  5
1AEA0
330
1AE6F
100
AcDbEntity
  8
3
  6
Continuous
 62
     7
100
AcDbVertex
100
AcDb2dVertex
 10
496.6521202095653
 20
220.4709503110741
 30
0.0
 42
-0.0055613661
  0
VERTEX
  5
1AEA1
330
1AE6F
100
AcDbEntity
  8
3
  6
Continuous
 62
     7
100
AcDbVertex
100
AcDb2dVertex
 10
496.5822802095653
 20
220.4630603110741
 30
0.0
 42
-0.0054560516
 70
     1
  0
VERTEX
  5
1AEA2
330
1AE6F
100
AcDbEntity
  8
3
  6
Continuous
 62
     7
100
AcDbVertex
100
AcDb2dVertex
 10
496.5127902095652
 20
220.456700311074
 30
0.0
 42
-0.005334429
  0
VERTEX
  5
1AEA3
330
1AE6F
100
AcDbEntity
  8
3
  6
Continuous
 62
     7
100
AcDbVertex
100
AcDb2dVertex
 10
496.4437902095651
 20
220.4518903110741
 30
0.0
 42
-0.0052475044
 70
     1
  0
VERTEX
  5
1AEA4
330
1AE6F
100
AcDbEntity
  8
3
  6
Continuous
 62
     7
100
AcDbVertex
100
AcDb2dVertex
 10
496.3754102095653
 20
220.448530311074
 30
0.0
 42
-0.005138265
  0
VERTEX
  5
1AEA5
330
1AE6F
100
AcDbEntity
  8
3
  6
Continuous
 62
     7
100
AcDbVertex
100
AcDb2dVertex
 10
496.3078002095651
 20
220.4466203110741
 30
0.0
 42
-0.005073222
 70
     1
  0
VERTEX
  5
1AEA6
330
1AE6F
100
AcDbEntity
  8
3
  6
Continuous
 62
     7
100
AcDbVertex
100
AcDb2dVertex
 10
496.2410102095653
 20
220.446060311074
 30
0.0
 42
-0.00498996
  0
VERTEX
  5
1AEA7
330
1AE6F
100
AcDbEntity
  8
3
  6
Continuous
 62
     7
100
AcDbVertex
100
AcDb2dVertex
 10
496.1751902095651
 20
220.446850311074
 30
0.0
 42
-0.0049227001
 70
     1
  0
VERTEX
  5
1AEA8
330
1AE6F
100
AcDbEntity
  8
3
  6
Continuous
 62
     7
100
AcDbVertex
100
AcDb2dVertex
 10
496.1104302095653
 20
220.4488703110741
 30
0.0
 42
-0.0048089038
  0
VERTEX
  5
1AEA9
330
1AE6F
100
AcDbEntity
  8
3
  6
Continuous
 62
     7
100
AcDbVertex
100
AcDb2dVertex
 10
496.0468502095651
 20
220.4521103110741
 30
0.0
 42
-0.0048138889
 70
     1
  0
VERTEX
  5
1AEAA
330
1AE6F
100
AcDbEntity
  8
3
  6
Continuous
 62
     7
100
AcDbVertex
100
AcDb2dVertex
 10
495.9843702095652
 20
220.4564803110741
 30
0.0
 42
-0.0048541639
  0
VERTEX
  5
1AEAB
330
1AE6F
100
AcDbEntity
  8
3
  6
Continuous
 62
     7
100
AcDbVertex
100
AcDb2dVertex
 10
495.9230702095651
 20
220.4619803110741
 30
0.0
 42
-0.004666153
 70
     1
  0
VERTEX
  5
1AEAC
330
1AE6F
100
AcDbEntity
  8
3
  6
Continuous
 62
     7
100
AcDbVertex
100
AcDb2dVertex
 10
495.8634002095652
 20
220.4684003110741
 30
0.0
 42
-0.004241743
  0
VERTEX
  5
1AEAD
330
1AE6F
100
AcDbEntity
  8
3
  6
Continuous
 62
     7
100
AcDbVertex
100
AcDb2dVertex
 10
495.8056102095651
 20
220.4756603110741
 30
0.0
 42
-0.004750893
 70
     1
  0
VERTEX
  5
1AEAE
330
1AE6F
100
AcDbEntity
  8
3
  6
Continuous
 62
     7
100
AcDbVertex
100
AcDb2dVertex
 10
495.7479102095653
 20
220.4841403110741
 30
0.0
 42
-0.0057619826
  0
VERTEX
  5
1AEAF
330
1AE6F
100
AcDbEntity
  8
3
  6
Continuous
 62
     7
100
AcDbVertex
100
AcDb2dVertex
 10
495.6892902095653
 20
220.4940603110741
 30
0.0
 42
-0.0042569558
 70
     1
  0
VERTEX
  5
1AEB0
330
1AE6F
100
AcDbEntity
  8
3
  6
Continuous
 62
     7
100
AcDbVertex
100
AcDb2dVertex
 10
495.6342202095653
 20
220.5039803110741
 30
0.0
 42
-0.0010494427
  0
VERTEX
  5
1AEB1
330
1AE6F
100
AcDbEntity
  8
3
  6
Continuous
 62
     7
100
AcDbVertex
100
AcDb2dVertex
 10
495.5840102095653
 20
220.5135203110741
 30
0.0
 42
-0.0065453551
 70
     1
  0
VERTEX
  5
1AEB2
330
1AE6F
100
AcDbEntity
  8
3
  6
Continuous
 62
     7
100
AcDbVertex
100
AcDb2dVertex
 10
495.5191002095651
 20
220.5287203110741
 30
0.0
 42
-0.012017414
  0
VERTEX
  5
1AEB3
330
1AE6F
100
AcDbEntity
  8
3
  6
Continuous
 62
     7
100
AcDbVertex
100
AcDb2dVertex
 10
495.4190102095652
 20
220.5560203110741
 30
0.0
 42
-0.005827761
 70
     1
  0
VERTEX
  5
1AEB4
330
1AE6F
100
AcDbEntity
  8
3
  6
Continuous
 62
     7
100
AcDbVertex
100
AcDb2dVertex
 10
495.2878402095651
 20
220.5941003110741
 30
0.0
 42
-0.0029847909
  0
SEQEND
  5
1AEB5
330
1AE6F
100
AcDbEntity
  8
3
  6
Continuous
 62
     7
  0
LINE
  5
1AEB6
330
1F
100
AcDbEntity
  8
3
  6
Continuous
 62
     7
100
AcDbLine
 10
495.2878402095651
 20
220.5941003110741
 30
0.0
 11
496.624420209565
 21
221.3657803110741
 31
0.0
  0
ENDSEC
  0
SECTION
  2
OBJECTS
  0
DICTIONARY
  5
C
330
0
100
AcDbDictionary
281
     1
  3
ACAD_COLOR
350
4FFE
  3
ACAD_GROUP
350
D
  3
ACAD_LAYOUT
350
1A
  3
ACAD_MATERIAL
350
4FE5
  3
ACAD_MLEADERSTYLE
350
5022
  3
ACAD_MLINESTYLE
350
17
  3
ACAD_PLOTSETTINGS
350
19
  3
ACAD_PLOTSTYLENAME
350
E
  3
ACAD_RENDER_PLOT_SETTINGS
350
6537
  3
ACAD_SCALELIST
350
5000
  3
ACAD_TABLESTYLE
350
4FE3
  3
ACAD_VISUALSTYLE
350
2A
  3
ACDB_RECOMPOSE_DATA
350
50EC
  3
AcDbVariableDictionary
350
5108
  3
ASE_INDEX_DICTIONARY
350
11ACE
  3
lxx_dict
350
1B158
  0
DICTIONARY
  5
50EE
330
8
100
AcDbDictionary
280
     1
281
     1
  0
DICTIONARY
  5
50B8
330
2
100
AcDbDictionary
280
     1
281
     1
  3
ACAD_LAYERFILTERS
360
1A674
  3
ACAD_LAYERSTATES
360
50B9
  3
ACLYDICTIONARY
360
1A673
  0
DICTIONARY
  5
50D0
330
10
100
AcDbDictionary
280
     1
281
     1
  3
ADSK_XREC_LAYER_RECONCILED
360
50D1
  0
DICTIONARY
  5
50D2
330
3B
100
AcDbDictionary
280
     1
281
     1
  3
ADSK_XREC_LAYER_RECONCILED
360
50D3
  0
DICTIONARY
  5
50AF
330
50AE
100
AcDbDictionary
280
     1
281
     1
  3
ADSK_XREC_LAYER_RECONCILED
360
50D4
  0
DICTIONARY
  5
67C0
330
1F
100
AcDbDictionary
280
     1
281
     1
  3
ACAD_SORTENTS
360
67C1
  0
DICTIONARY
  5
1B1F3
330
10FE8
100
AcDbDictionary
280
     1
281
     1
  0
DICTIONARY
  5
1B217
330
1B15F
100
AcDbDictionary
280
     1
281
     1
  3
ACAD_MTEXT_2008_RT
360
1B218
  0
DICTIONARY
  5
1B219
330
1B1A3
100
AcDbDictionary
280
     1
281
     1
  3
ACAD_MTEXT_2008_RT
360
1B21A
  0
DICTIONARY
  5
1B21B
330
1B1A4
100
AcDbDictionary
280
     1
281
     1
  3
ACAD_MTEXT_2008_RT
360
1B21C
  0
DICTIONARY
  5
1B21D
330
1B1C9
100
AcDbDictionary
280
     1
281
     1
  3
ACAD_MTEXT_2008_RT
360
1B21E
  0
DICTIONARY
  5
1B21F
330
1B1CC
100
AcDbDictionary
280
     1
281
     1
  3
ACAD_MTEXT_2008_RT
360
1B220
  0
DICTIONARY
  5
1B221
330
1B1CD
100
AcDbDictionary
280
     1
281
     1
  3
ACAD_MTEXT_2008_RT
360
1B222
  0
DICTIONARY
  5
1B223
330
1B1D7
100
AcDbDictionary
280
     1
281
     1
  3
ACAD_MTEXT_2008_RT
360
1B224
  0
DICTIONARY
  5
1B225
330
1B1D8
100
AcDbDictionary
280
     1
281
     1
  3
ACAD_MTEXT_2008_RT
360
1B226
  0
DICTIONARY
  5
1B227
330
1B1D9
100
AcDbDictionary
280
     1
281
     1
  3
ACAD_MTEXT_2008_RT
360
1B228
  0
DICTIONARY
  5
1B229
330
1B1E7
100
AcDbDictionary
280
     1
281
     1
  3
ACAD_MTEXT_2008_RT
360
1B22A
  0
DICTIONARY
  5
1B22B
330
1B1E8
100
AcDbDictionary
280
     1
281
     1
  3
ACAD_MTEXT_2008_RT
360
1B22C
  0
DICTIONARY
  5
1B22D
330
1B1E9
100
AcDbDictionary
280
     1
281
     1
  3
ACAD_MTEXT_2008_RT
360
1B22E
  0
DICTIONARY
  5
1B215
330
1A5D3
100
AcDbDictionary
280
     1
281
     1
  3
ACAD_MTEXT_2008_RT
360
1B216
  0
DICTIONARY
  5
1AC31
330
1AC30
100
AcDbDictionary
280
     1
281
     1
  3
ACAD_DIMASSOC
360
1AC32
  0
DICTIONARY
  5
1AC34
330
1AC33
100
AcDbDictionary
280
     1
281
     1
  3
ACAD_DIMASSOC
360
1AC35
  0
DICTIONARY
  5
1AC37
330
1AC36
100
AcDbDictionary
280
     1
281
     1
  3
ACAD_DIMASSOC
360
1AC38
  0
DICTIONARY
  5
1ACC0
330
1ACBF
100
AcDbDictionary
280
     1
281
     1
  3
ACAD_DIMASSOC
360
1ACC1
  0
DICTIONARY
  5
4FFE
102
{ACAD_REACTORS
330
C
102
}
330
C
100
AcDbDictionary
281
     1
  0
DICTIONARY
  5
D
102
{ACAD_REACTORS
330
C
102
}
330
C
100
AcDbDictionary
281
     1
  0
DICTIONARY
  5
1A
102
{ACAD_REACTORS
330
C
102
}
330
C
100
AcDbDictionary
281
     1
  3
Layout1
350
1E
  3
Layout2
350
26
  3
Model
350
22
  0
DICTIONARY
  5
4FE5
102
{ACAD_REACTORS
330
C
102
}
330
C
100
AcDbDictionary
281
     1
  3
ByBlock
350
4FEE
  3
ByLayer
350
4FE6
  3
Global
350
4FF6
  0
DICTIONARY
  5
5022
102
{ACAD_REACTORS
330
C
102
}
330
C
100
AcDbDictionary
281
     1
  3
Standard
350
5023
  0
DICTIONARY
  5
17
102
{ACAD_REACTORS
330
C
102
}
330
C
100
AcDbDictionary
281
     1
  3
Standard
350
18
  0
DICTIONARY
  5
19
102
{ACAD_REACTORS
330
C
102
}
330
C
100
AcDbDictionary
281
     1
  0
ACDBDICTIONARYWDFLT
  5
E
102
{ACAD_REACTORS
330
C
102
}
330
C
100
AcDbDictionary
281
     1
  3
Normal
350
F
100
AcDbDictionaryWithDefault
340
F
  0
DICTIONARY
  5
6537
102
{ACAD_REACTORS
330
C
102
}
330
C
100
AcDbDictionary
281
     1
  3
{1DC63513-1B1A-422F-9880-65CFD2B8D533}
350
6538
  0
DICTIONARY
  5
5000
102
{ACAD_REACTORS
330
C
102
}
330
C
100
AcDbDictionary
281
     1
  3
A0
350
5001
  3
A1
350
5002
  3
A2
350
5003
  3
A3
350
5004
  3
A4
350
5005
  3
A5
350
5006
  3
A6
350
5007
  3
A7
350
5008
  3
A8
350
5009
  3
A9
350
500A
  3
B0
350
500B
  3
B1
350
500C
  3
B2
350
500D
  3
B3
350
500E
  3
B4
350
500F
  3
B5
350
5010
  3
B6
350
5011
  3
B7
350
5012
  3
B8
350
5013
  3
B9
350
5014
  3
C0
350
5015
  3
C1
350
5016
  3
C2
350
5017
  3
C3
350
5018
  3
C4
350
5019
  3
C5
350
501A
  3
C6
350
501B
  3
C7
350
501C
  3
C8
350
501D
  3
C9
350
501E
  3
D0
350
501F
  3
D1
350
5020
  3
D2
350
5021
  0
DICTIONARY
  5
4FE3
102
{ACAD_REACTORS
330
C
102
}
330
C
100
AcDbDictionary
281
     1
  3
Standard
350
4FFF
  0
DICTIONARY
  5
2A
102
{ACAD_REACTORS
330
C
102
}
330
C
100
AcDbDictionary
281
     1
  3
2dWireframe
350
2F
  3
3D Hidden
350
31
  3
3dWireframe
350
30
  3
Basic
350
32
  3
Brighten
350
36
  3
ColorChange
350
3A
  3
Conceptual
350
34
  3
Dim
350
35
  3
Facepattern
350
39
  3
Flat
350
2B
  3
FlatWithEdges
350
2C
  3
Gouraud
350
2D
  3
GouraudWithEdges
350
2E
  3
Linepattern
350
38
  3
Realistic
350
33
  3
Thicken
350
37
  0
XRECORD
  5
50EC
102
{ACAD_REACTORS
330
C
102
}
330
C
100
AcDbXrecord
280
     1
 90
        1
330
4FFF
330
1A5D3
330
1B15F
330
1B1A3
330
1B1A4
330
1B1C9
330
1B1CC
330
1B1CD
330
1B1D7
330
1B1D8
330
1B1D9
330
1B1E7
330
1B1E8
330
1B1E9
  0
DICTIONARY
  5
5108
102
{ACAD_REACTORS
330
C
102
}
330
C
100
AcDbDictionary
281
     1
  3
CANNOSCALE
350
510B
  3
CMLEADERSTYLE
350
510A
  3
CTABLESTYLE
350
5109
  3
DIMASSOC
350
510E
  3
INDEXCTL
350
510D
  3
LIGHTINGUNITS
350
1B1F8
  3
MSLTSCALE
350
1B1F7
  3
SORTENTS
350
510C
  0
DICTIONARY
  5
11ACE
102
{ACAD_REACTORS
330
C
102
}
330
C
100
AcDbDictionary
281
     1
  3
ASEBlockHierarchyIndexRecord
350
11ACF
1001
DCO15
1040
1901610418.781
  0
DICTIONARY
  5
1B158
102
{ACAD_REACTORS
330
C
102
}
330
C
100
AcDbDictionary
281
     1
  3
lxx_dimth
350
1B159
  0
DICTIONARY
  5
1A674
102
{ACAD_REACTORS
330
50B8
102
}
330
50B8
100
AcDbDictionary
281
     1
  0
DICTIONARY
  5
50B9
102
{ACAD_REACTORS
330
50B8
102
}
330
50B8
100
AcDbDictionary
281
     1
  0
DICTIONARY
  5
1A673
102
{ACAD_REACTORS
330
50B8
102
}
330
50B8
100
AcDbDictionary
281
     1
1001
ACAD
1000
<All
  0
XRECORD
  5
50D1
102
{ACAD_REACTORS
330
50D0
102
}
330
50D0
100
AcDbXrecord
280
     1
290
     1
  0
XRECORD
  5
50D3
102
{ACAD_REACTORS
330
50D2
102
}
330
50D2
100
AcDbXrecord
280
     1
290
     1
  0
XRECORD
  5
50D4
102
{ACAD_REACTORS
330
50AF
102
}
330
50AF
100
AcDbXrecord
280
     1
290
     1
  0
SORTENTSTABLE
  5
67C1
102
{ACAD_REACTORS
330
67C0
102
}
330
67C0
100
AcDbSortentsTable
330
1F
331
65A4
  5
65A5
331
3943
  5
4842
331
2C65
  5
2EE7
331
65A0
  5
65A1
331
3895
  5
3943
331
4842
  5
4E94
331
35D8
  5
3807
331
3807
  5
3895
331
65A3
  5
65A4
331
35C8
  5
35D8
331
65A1
  5
65A2
331
2FDE
  5
35C8
331
2F93
  5
2FDE
331
2EE7
  5
2F93
331
28AE
  5
2A38
331
11089
  5
11089
331
65B2
  5
65B3
  0
XRECORD
  5
1B218
102
{ACAD_REACTORS
330
1B217
102
}
330
1B217
100
AcDbXrecord
280
     1
 40
1527.0
  1
\pxqc;BQ LUO
  0
XRECORD
  5
1B21A
102
{ACAD_REACTORS
330
1B219
102
}
330
1B219
100
AcDbXrecord
280
     1
 40
1262561.0
  1
\pxqc;档案员{\H0.7x;\P\Fromans|c134;Filing Clerk\fFangSong_GB2312|b0|i0|c134|p49; }
  0
XRECORD
  5
1B21C
102
{ACAD_REACTORS
330
1B21B
102
}
330
1B21B
100
AcDbXrecord
280
     1
 40
650528.0
  1
\pxqc;日期{\Fromans|c134;/Date}
  0
XRECORD
  5
1B21E
102
{ACAD_REACTORS
330
1B21D
102
}
330
1B21D
100
AcDbXrecord
280
     1
 40
2318748.0
  1
\pxsm0.7;{\f仿宋_GB2312|b0|i0|c134|p49;标准化}\PStand.
  0
XRECORD
  5
1B220
102
{ACAD_REACTORS
330
1B21F
102
}
330
1B21F
100
AcDbXrecord
280
     1
 40
118135.0
  1
\pxsm0.7;签名\P{\Fromans|c134;Signature} 
  0
XRECORD
  5
1B222
102
{ACAD_REACTORS
330
1B221
102
}
330
1B221
100
AcDbXrecord
280
     1
 40
108939.0
  1
\pxsm0.7,qc;处数\P{\Fromans|c134;Number }
  0
XRECORD
  5
1B224
102
{ACAD_REACTORS
330
1B223
102
}
330
1B223
100
AcDbXrecord
280
     1
 40
125762.0
  1
\pxsm0.7;标记\P{\Fromans|c134;Mark}
  0
XRECORD
  5
1B226
102
{ACAD_REACTORS
330
1B225
102
}
330
1B225
100
AcDbXrecord
280
     1
 40
111973.0
  1
\pxsm0.7;审核\P{\Fromans|c134;Checked}
  0
XRECORD
  5
1B228
102
{ACAD_REACTORS
330
1B227
102
}
330
1B227
100
AcDbXrecord
280
     1
 40
137968.0
  1
\pxsm0.7;绘图\P{\Fromans|c134;Drawn\Ftxt|c134; }
  0
XRECORD
  5
1B22A
102
{ACAD_REACTORS
330
1B229
102
}
330
1B229
100
AcDbXrecord
280
     1
 40
106320.0
  1
\pxsm0.7;批准\P{\Fromans|c134;Approved}
  0
XRECORD
  5
1B22C
102
{ACAD_REACTORS
330
1B22B
102
}
330
1B22B
100
AcDbXrecord
280
     1
 40
127283.0
  1
\pxsm0.7;工艺\P{\Fromans|c134;Process}
  0
XRECORD
  5
1B22E
102
{ACAD_REACTORS
330
1B22D
102
}
330
1B22D
100
AcDbXrecord
280
     1
 40
106220.0
  1
\pxsm0.7;日期\P{\Fromans|c134;Date}
  0
XRECORD
  5
1B216
102
{ACAD_REACTORS
330
1B215
102
}
330
1B215
100
AcDbXrecord
280
     1
 40
8441165.0
  1
\A1;\pxql;技术参数:\P- 材料： 不锈钢\P- 螺纹规格: {\Fromans|c134;M3}\P{\Fromans|c134;\PTechnical specification:\P- Material: steel\P- Thread size: M3}
  0
DIMASSOC
  5
1AC32
102
{ACAD_REACTORS
330
1AC31
102
}
330
1AC31
100
AcDbDimAssoc
330
1AC30
 90
        1
 70
     0
 71
     0
  1
AcDbOsnapPointRef
 72
     1
331
1AC40
 73
     2
 91
        0
 40
6.056242271001081
 10
0.0
 20
0.0
 30
2.000000000000000E+50
 75
     0
  0
DIMASSOC
  5
1AC35
102
{ACAD_REACTORS
330
1AC34
102
}
330
1AC34
100
AcDbDimAssoc
330
1AC33
 90
        2
 70
     0
 71
     0
  1
AcDbOsnapPointRef
 72
     3
331
1AC3D
 73
     2
 91
        0
 40
0.0
 10
0.0
 20
0.0
 30
0.0
 75
     0
  0
DIMASSOC
  5
1AC38
102
{ACAD_REACTORS
330
1AC37
102
}
330
1AC37
100
AcDbDimAssoc
330
1AC36
 90
        2
 70
     0
 71
     0
  1
AcDbOsnapPointRef
 72
     3
331
1AC3C
 73
     2
 91
        0
 40
0.0
 10
0.0
 20
0.0
 30
0.0
 75
     0
  0
DIMASSOC
  5
1ACC1
102
{ACAD_REACTORS
330
1ACC0
102
}
330
1ACC0
100
AcDbDimAssoc
330
1ACBF
 90
        3
 70
     0
 71
     0
  1
AcDbOsnapPointRef
 72
     1
331
1AC47
 73
     2
 91
        0
 40
1.0
 10
0.0
 20
0.0
 30
2.000000000000000E+50
 75
     0
  1
AcDbOsnapPointRef
 72
    13
331
1AC47
 73
     2
 91
        0
 40
0.0
 10
0.0
 20
0.0
 30
2.000000000000000E+50
 75
     0
  0
LAYOUT
  5
1E
102
{ACAD_REACTORS
330
1A
102
}
330
1A
100
AcDbPlotSettings
  1

  2
none_device
  4

  6

 40
0.0
 41
0.0
 42
0.0
 43
0.0
 44
0.0
 45
0.0
 46
0.0
 47
0.0
 48
0.0
 49
0.0
140
0.0
141
0.0
142
1.0
143
1.0
 70
   688
 72
     0
 73
     0
 74
     5
  7

 75
    16
147
1.0
 76
     0
 77
     2
 78
   300
148
0.0
149
0.0
100
AcDbLayout
  1
Layout1
 70
     1
 71
     1
 10
0.0
 20
0.0
 11
12.0
 21
9.0
 12
0.0
 22
0.0
 32
0.0
 14
1.000000000000000E+20
 24
1.000000000000000E+20
 34
1.000000000000000E+20
 15
-1.000000000000000E+20
 25
-1.000000000000000E+20
 35
-1.000000000000000E+20
146
0.0
 13
0.0
 23
0.0
 33
0.0
 16
1.0
 26
0.0
 36
0.0
 17
0.0
 27
1.0
 37
0.0
 76
     0
330
1B
  0
LAYOUT
  5
26
102
{ACAD_REACTORS
330
1A
102
}
330
1A
100
AcDbPlotSettings
  1

  2
none_device
  4

  6

 40
0.0
 41
0.0
 42
0.0
 43
0.0
 44
0.0
 45
0.0
 46
0.0
 47
0.0
 48
0.0
 49
0.0
140
0.0
141
0.0
142
1.0
143
1.0
 70
   688
 72
     0
 73
     0
 74
     5
  7

 75
    16
147
1.0
 76
     0
 77
     2
 78
   300
148
0.0
149
0.0
100
AcDbLayout
  1
Layout2
 70
     1
 71
     2
 10
0.0
 20
0.0
 11
0.0
 21
0.0
 12
0.0
 22
0.0
 32
0.0
 14
0.0
 24
0.0
 34
0.0
 15
0.0
 25
0.0
 35
0.0
146
0.0
 13
0.0
 23
0.0
 33
0.0
 16
1.0
 26
0.0
 36
0.0
 17
0.0
 27
1.0
 37
0.0
 76
     0
330
23
  0
LAYOUT
  5
22
102
{ACAD_REACTORS
330
1A
102
}
330
1A
100
AcDbPlotSettings
  1

  2
Adobe PDF Converter.pc3
  4
A4
  6

 40
3.174999952316281
 41
3.174999952316281
 42
3.17498779296875
 43
3.175003051757812
 44
297.0318298339844
 45
209.9733276367186
 46
0.0000000000000076
 47
1.630241740247063
 48
246.9897427644609
 49
39.36804549891383
140
544.952097801264
141
244.7492402188181
142
1.0
143
1.025046328645055
 70
  3764
 72
     1
 73
     0
 74
     4
  7
monochrome.ctb
 75
     0
147
0.9755656618192436
 76
     1
 77
     2
 78
   300
148
-246.9897427644609
149
-39.36804549891383
100
AcDbLayout
  1
Model
 70
     1
 71
     0
 10
0.0
 20
0.0
 11
12.0
 21
9.0
 12
0.0
 22
0.0
 32
0.0
 14
1.000000000000000E+20
 24
1.000000000000000E+20
 34
1.000000000000000E+20
 15
-1.000000000000000E+20
 25
-1.000000000000000E+20
 35
-1.000000000000000E+20
146
0.0
 13
0.0
 23
0.0
 33
0.0
 16
1.0
 26
0.0
 36
0.0
 17
0.0
 27
1.0
 37
0.0
 76
     0
330
1F
331
29
1001
ACAD_PSEXT
1000
Adobe PDF Converter.pc3
1000
Adobe PDF Converter
1000
桌面\*.pdf
1000

1070
     0
  0
MATERIAL
  5
4FEE
102
{ACAD_XDICTIONARY
360
4FEF
102
}
102
{ACAD_REACTORS
330
4FE5
102
}
330
4FE5
100
AcDbMaterial
  1
ByBlock
 72
     0
 43
0.0208333333333333
 43
0.0
 43
0.0
 43
0.0
 43
0.0
 43
0.0208333333333333
 43
0.0
 43
0.0
 43
0.0
 43
0.0
 43
1.0
 43
0.0
 43
0.0
 43
0.0
 43
0.0
 43
1.0
 77
     0
 47
0.0208333333333333
 47
0.0
 47
0.0
 47
0.0
 47
0.0
 47
0.0208333333333333
 47
0.0
 47
0.0
 47
0.0
 47
0.0
 47
1.0
 47
0.0
 47
0.0
 47
0.0
 47
0.0
 47
1.0
171
     0
 49
0.0208333333333333
 49
0.0
 49
0.0
 49
0.0
 49
0.0
 49
0.0208333333333333
 49
0.0
 49
0.0
 49
0.0
 49
0.0
 49
1.0
 49
0.0
 49
0.0
 49
0.0
 49
0.0
 49
1.0
175
     0
142
0.0208333333333333
142
0.0
142
0.0
142
0.0
142
0.0
142
0.0208333333333333
142
0.0
142
0.0
142
0.0
142
0.0
142
1.0
142
0.0
142
0.0
142
0.0
142
0.0
142
1.0
179
     0
144
0.0208333333333333
144
0.0
144
0.0
144
0.0
144
0.0
144
0.0208333333333333
144
0.0
144
0.0
144
0.0
144
0.0
144
1.0
144
0.0
144
0.0
144
0.0
144
0.0
144
1.0
147
0.0208333333333333
147
0.0
147
0.0
147
0.0
147
0.0
147
0.0208333333333333
147
0.0
147
0.0
147
0.0
147
0.0
147
1.0
147
0.0
147
0.0
147
0.0
147
0.0
147
1.0
  0
MATERIAL
  5
4FE6
102
{ACAD_XDICTIONARY
360
4FE7
102
}
102
{ACAD_REACTORS
330
4FE5
102
}
330
4FE5
100
AcDbMaterial
  1
ByLayer
 72
     0
 43
0.0208333333333333
 43
0.0
 43
0.0
 43
0.0
 43
0.0
 43
0.0208333333333333
 43
0.0
 43
0.0
 43
0.0
 43
0.0
 43
1.0
 43
0.0
 43
0.0
 43
0.0
 43
0.0
 43
1.0
 77
     0
 47
0.0208333333333333
 47
0.0
 47
0.0
 47
0.0
 47
0.0
 47
0.0208333333333333
 47
0.0
 47
0.0
 47
0.0
 47
0.0
 47
1.0
 47
0.0
 47
0.0
 47
0.0
 47
0.0
 47
1.0
171
     0
 49
0.0208333333333333
 49
0.0
 49
0.0
 49
0.0
 49
0.0
 49
0.0208333333333333
 49
0.0
 49
0.0
 49
0.0
 49
0.0
 49
1.0
 49
0.0
 49
0.0
 49
0.0
 49
0.0
 49
1.0
175
     0
142
0.0208333333333333
142
0.0
142
0.0
142
0.0
142
0.0
142
0.0208333333333333
142
0.0
142
0.0
142
0.0
142
0.0
142
1.0
142
0.0
142
0.0
142
0.0
142
0.0
142
1.0
179
     0
144
0.0208333333333333
144
0.0
144
0.0
144
0.0
144
0.0
144
0.0208333333333333
144
0.0
144
0.0
144
0.0
144
0.0
144
1.0
144
0.0
144
0.0
144
0.0
144
0.0
144
1.0
147
0.0208333333333333
147
0.0
147
0.0
147
0.0
147
0.0
147
0.0208333333333333
147
0.0
147
0.0
147
0.0
147
0.0
147
1.0
147
0.0
147
0.0
147
0.0
147
0.0
147
1.0
  0
MATERIAL
  5
4FF6
102
{ACAD_XDICTIONARY
360
4FF7
102
}
102
{ACAD_REACTORS
330
4FE5
102
}
330
4FE5
100
AcDbMaterial
  1
Global
 72
     0
 43
0.0208333333333333
 43
0.0
 43
0.0
 43
0.0
 43
0.0
 43
0.0208333333333333
 43
0.0
 43
0.0
 43
0.0
 43
0.0
 43
1.0
 43
0.0
 43
0.0
 43
0.0
 43
0.0
 43
1.0
 77
     0
 47
0.0208333333333333
 47
0.0
 47
0.0
 47
0.0
 47
0.0
 47
0.0208333333333333
 47
0.0
 47
0.0
 47
0.0
 47
0.0
 47
1.0
 47
0.0
 47
0.0
 47
0.0
 47
0.0
 47
1.0
171
     0
 49
0.0208333333333333
 49
0.0
 49
0.0
 49
0.0
 49
0.0
 49
0.0208333333333333
 49
0.0
 49
0.0
 49
0.0
 49
0.0
 49
1.0
 49
0.0
 49
0.0
 49
0.0
 49
0.0
 49
1.0
175
     0
142
0.0208333333333333
142
0.0
142
0.0
142
0.0
142
0.0
142
0.0208333333333333
142
0.0
142
0.0
142
0.0
142
0.0
142
1.0
142
0.0
142
0.0
142
0.0
142
0.0
142
1.0
179
     0
144
0.0208333333333333
144
0.0
144
0.0
144
0.0
144
0.0
144
0.0208333333333333
144
0.0
144
0.0
144
0.0
144
0.0
144
1.0
144
0.0
144
0.0
144
0.0
144
0.0
144
1.0
147
0.0208333333333333
147
0.0
147
0.0
147
0.0
147
0.0
147
0.0208333333333333
147
0.0
147
0.0
147
0.0
147
0.0
147
1.0
147
0.0
147
0.0
147
0.0
147
0.0
147
1.0
  0
MLEADERSTYLE
  5
5023
102
{ACAD_REACTORS
330
5022
102
}
330
5022
100
AcDbMLeaderStyle
170
     2
171
     1
172
     0
 90
        2
 40
0.0
 41
0.0
173
     1
 91
-1056964608
340
14
 92
       -2
290
     1
 42
0.09
291
     1
 43
0.36
  3
Standard
 44
0.18
300

342
11
174
     1
178
     6
175
     1
176
     0
 93
-1056964608
 45
0.18
292
     0
297
     0
 46
0.18
 94
-1056964608
 47
1.0
 49
1.0
140
1.0
293
     1
141
0.0
294
     1
177
     0
142
1.0
295
     0
296
     0
143
0.125
1001
ACAD_MLEADERVER
1070
     2
  0
MLINESTYLE
  5
18
102
{ACAD_REACTORS
330
17
102
}
330
17
100
AcDbMlineStyle
  2
STANDARD
 70
     0
  3

 62
   256
 51
90.0
 52
90.0
 71
     2
 49
0.5
 62
   256
  6
BYLAYER
 49
-0.5
 62
   256
  6
BYLAYER
  0
ACDBPLACEHOLDER
  5
F
102
{ACAD_REACTORS
330
E
102
}
330
E
  0
MENTALRAYRENDERSETTINGS
  5
6538
102
{ACAD_REACTORS
330
6537
102
}
330
6537
100
AcDbRenderSettings
 90
        2
  1
中
290
     1
290
     1
290
     1
290
     1
  1

  1
渲染质量好于“低级”。包括纹理过滤并且强制双面处于激活状态。处理中等级反锯齿和 5 反射/折射的光线跟踪深度。
 90
        0
100
AcDbMentalRayRenderSettings
 90
        2
 90
        0
 90
        1
 70
     2
 40
3.0
 40
3.0
 40
0.0500000007450581
 40
0.0500000007450581
 40
0.0500000007450581
 40
0.0500000007450581
 70
     0
290
     0
290
     1
 90
        5
 90
        5
 90
        5
290
     0
 90
      500
290
     0
 40
1.0
 90
    10000
 90
        5
 90
        5
 90
        5
290
     0
 90
      200
290
     0
290
     0
290
     0
 40
0.1
 40
1.0
 40
1500.0
 70
     0
 70
     0
 40
10.0
 70
     0
 70
     0
290
     0
  1

 90
       32
 70
     0
 90
     1048
290
     0
 40
1.0
  0
SCALE
  5
5001
102
{ACAD_REACTORS
330
5000
102
}
330
5000
100
AcDbScale
 70
     0
300
1:1
140
1.0
141
1.0
290
     1
  0
SCALE
  5
5002
102
{ACAD_REACTORS
330
5000
102
}
330
5000
100
AcDbScale
 70
     0
300
1:2
140
1.0
141
2.0
290
     0
  0
SCALE
  5
5003
102
{ACAD_REACTORS
330
5000
102
}
330
5000
100
AcDbScale
 70
     0
300
1:4
140
1.0
141
4.0
290
     0
  0
SCALE
  5
5004
102
{ACAD_REACTORS
330
5000
102
}
330
5000
100
AcDbScale
 70
     0
300
1:5
140
1.0
141
5.0
290
     0
  0
SCALE
  5
5005
102
{ACAD_REACTORS
330
5000
102
}
330
5000
100
AcDbScale
 70
     0
300
1:8
140
1.0
141
8.0
290
     0
  0
SCALE
  5
5006
102
{ACAD_REACTORS
330
5000
102
}
330
5000
100
AcDbScale
 70
     0
300
1:10
140
1.0
141
10.0
290
     0
  0
SCALE
  5
5007
102
{ACAD_REACTORS
330
5000
102
}
330
5000
100
AcDbScale
 70
     0
300
1:16
140
1.0
141
16.0
290
     0
  0
SCALE
  5
5008
102
{ACAD_REACTORS
330
5000
102
}
330
5000
100
AcDbScale
 70
     0
300
1:20
140
1.0
141
20.0
290
     0
  0
SCALE
  5
5009
102
{ACAD_REACTORS
330
5000
102
}
330
5000
100
AcDbScale
 70
     0
300
1:30
140
1.0
141
30.0
290
     0
  0
SCALE
  5
500A
102
{ACAD_REACTORS
330
5000
102
}
330
5000
100
AcDbScale
 70
     0
300
1:40
140
1.0
141
40.0
290
     0
  0
SCALE
  5
500B
102
{ACAD_REACTORS
330
5000
102
}
330
5000
100
AcDbScale
 70
     0
300
1:50
140
1.0
141
50.0
290
     0
  0
SCALE
  5
500C
102
{ACAD_REACTORS
330
5000
102
}
330
5000
100
AcDbScale
 70
     0
300
1:100
140
1.0
141
100.0
290
     0
  0
SCALE
  5
500D
102
{ACAD_REACTORS
330
5000
102
}
330
5000
100
AcDbScale
 70
     0
300
2:1
140
2.0
141
1.0
290
     0
  0
SCALE
  5
500E
102
{ACAD_REACTORS
330
5000
102
}
330
5000
100
AcDbScale
 70
     0
300
4:1
140
4.0
141
1.0
290
     0
  0
SCALE
  5
500F
102
{ACAD_REACTORS
330
5000
102
}
330
5000
100
AcDbScale
 70
     0
300
8:1
140
8.0
141
1.0
290
     0
  0
SCALE
  5
5010
102
{ACAD_REACTORS
330
5000
102
}
330
5000
100
AcDbScale
 70
     0
300
10:1
140
10.0
141
1.0
290
     0
  0
SCALE
  5
5011
102
{ACAD_REACTORS
330
5000
102
}
330
5000
100
AcDbScale
 70
     0
300
100:1
140
100.0
141
1.0
290
     0
  0
SCALE
  5
5012
102
{ACAD_REACTORS
330
5000
102
}
330
5000
100
AcDbScale
 70
     0
300
1/128" = 1'-0"
140
0.0078125
141
12.0
290
     0
  0
SCALE
  5
5013
102
{ACAD_REACTORS
330
5000
102
}
330
5000
100
AcDbScale
 70
     0
300
1/64" = 1'-0"
140
0.015625
141
12.0
290
     0
  0
SCALE
  5
5014
102
{ACAD_REACTORS
330
5000
102
}
330
5000
100
AcDbScale
 70
     0
300
1/32" = 1'-0"
140
0.03125
141
12.0
290
     0
  0
SCALE
  5
5015
102
{ACAD_REACTORS
330
5000
102
}
330
5000
100
AcDbScale
 70
     0
300
1/16" = 1'-0"
140
0.0625
141
12.0
290
     0
  0
SCALE
  5
5016
102
{ACAD_REACTORS
330
5000
102
}
330
5000
100
AcDbScale
 70
     0
300
3/32" = 1'-0"
140
0.09375
141
12.0
290
     0
  0
SCALE
  5
5017
102
{ACAD_REACTORS
330
5000
102
}
330
5000
100
AcDbScale
 70
     0
300
1/8" = 1'-0"
140
0.125
141
12.0
290
     0
  0
SCALE
  5
5018
102
{ACAD_REACTORS
330
5000
102
}
330
5000
100
AcDbScale
 70
     0
300
3/16" = 1'-0"
140
0.1875
141
12.0
290
     0
  0
SCALE
  5
5019
102
{ACAD_REACTORS
330
5000
102
}
330
5000
100
AcDbScale
 70
     0
300
1/4" = 1'-0"
140
0.25
141
12.0
290
     0
  0
SCALE
  5
501A
102
{ACAD_REACTORS
330
5000
102
}
330
5000
100
AcDbScale
 70
     0
300
3/8" = 1'-0"
140
0.375
141
12.0
290
     0
  0
SCALE
  5
501B
102
{ACAD_REACTORS
330
5000
102
}
330
5000
100
AcDbScale
 70
     0
300
1/2" = 1'-0"
140
0.5
141
12.0
290
     0
  0
SCALE
  5
501C
102
{ACAD_REACTORS
330
5000
102
}
330
5000
100
AcDbScale
 70
     0
300
3/4" = 1'-0"
140
0.75
141
12.0
290
     0
  0
SCALE
  5
501D
102
{ACAD_REACTORS
330
5000
102
}
330
5000
100
AcDbScale
 70
     0
300
1" = 1'-0"
140
1.0
141
12.0
290
     0
  0
SCALE
  5
501E
102
{ACAD_REACTORS
330
5000
102
}
330
5000
100
AcDbScale
 70
     0
300
1-1/2" = 1'-0"
140
1.5
141
12.0
290
     0
  0
SCALE
  5
501F
102
{ACAD_REACTORS
330
5000
102
}
330
5000
100
AcDbScale
 70
     0
300
3" = 1'-0"
140
3.0
141
12.0
290
     0
  0
SCALE
  5
5020
102
{ACAD_REACTORS
330
5000
102
}
330
5000
100
AcDbScale
 70
     0
300
6" = 1'-0"
140
6.0
141
12.0
290
     0
  0
SCALE
  5
5021
102
{ACAD_REACTORS
330
5000
102
}
330
5000
100
AcDbScale
 70
     0
300
1'-0" = 1'-0"
140
12.0
141
12.0
290
     0
  0
TABLESTYLE
  5
4FFF
102
{ACAD_XDICTIONARY
360
50D6
102
}
102
{ACAD_REACTORS
330
4FE3
102
}
330
4FE3
100
AcDbTableStyle
  3
Standard
 70
     0
 71
     0
 40
0.06
 41
0.06
280
     0
281
     0
  7
Standard
140
0.18
170
     2
 62
     0
 63
     7
283
     0
 90
      512
 91
        0
  1

274
    -2
284
     1
 64
     0
275
    -2
285
     1
 65
     0
276
    -2
286
     1
 66
     0
277
    -2
287
     1
 67
     0
278
    -2
288
     1
 68
     0
279
    -2
289
     1
 69
     0
  7
Standard
140
0.25
170
     5
 62
     0
 63
     7
283
     0
 90
      512
 91
        0
  1

274
    -2
284
     1
 64
     0
275
    -2
285
     1
 65
     0
276
    -2
286
     1
 66
     0
277
    -2
287
     1
 67
     0
278
    -2
288
     1
 68
     0
279
    -2
289
     1
 69
     0
  7
Standard
140
0.18
170
     5
 62
     0
 63
     7
283
     0
 90
      512
 91
        0
  1

274
    -2
284
     1
 64
     0
275
    -2
285
     1
 65
     0
276
    -2
286
     1
 66
     0
277
    -2
287
     1
 67
     0
278
    -2
288
     1
 68
     0
279
    -2
289
     1
 69
     0
  0
VISUALSTYLE
  5
2F
102
{ACAD_REACTORS
330
2A
102
}
330
2A
100
AcDbVisualStyle
  2
2dWireframe
 70
     4
 71
     0
 72
     2
 73
     0
 90
        0
 40
-0.6
 41
-30.0
 62
     5
 63
     7
 74
     1
 91
        4
 64
     7
 65
   257
 75
     1
175
     1
 42
1.0
 92
        0
 66
   257
 43
1.0
 76
     1
 77
     6
 78
     2
 67
     7
 79
     5
170
     0
171
     0
290
     0
174
     0
 93
        1
 44
0.0
173
     0
291
     0
 45
0.0
1001
ACAD
1000
AcDbSavedByObjectVersion
1070
     0
1000
AcDbSavedByObjectVersion
1070
     0
1000
AcDbSavedByObjectVersion
1070
     0
1000
AcDbSavedByObjectVersion
1070
     0
1000
AcDbSavedByObjectVersion
1070
     0
1000
AcDbSavedByObjectVersion
1070
     0
1000
AcDbSavedByObjectVersion
1070
     0
1000
AcDbSavedByObjectVersion
1070
     0
1000
AcDbSavedByObjectVersion
1070
     0
1000
AcDbSavedByObjectVersion
1070
     0
1000
AcDbSavedByObjectVersion
1070
     0
1000
AcDbSavedByObjectVersion
1070
     0
1000
AcDbSavedByObjectVersion
1070
     0
1000
AcDbSavedByObjectVersion
1070
     0
1000
AcDbSavedByObjectVersion
1070
     0
1000
AcDbSavedByObjectVersion
1070
     0
1000
AcDbSavedByObjectVersion
1070
     0
1000
AcDbSavedByObjectVersion
1070
     0
1000
AcDbSavedByObjectVersion
1070
     0
1000
AcDbSavedByObjectVersion
1070
     0
1000
AcDbSavedByObjectVersion
1070
     0
1000
AcDbSavedByObjectVersion
1070
     0
1000
AcDbSavedByObjectVersion
1070
     0
1000
AcDbSavedByObjectVersion
1070
     0
1000
AcDbSavedByObjectVersion
1070
     0
1000
AcDbSavedByObjectVersion
1070
     0
1000
AcDbSavedByObjectVersion
1070
     0
1000
AcDbSavedByObjectVersion
1070
     0
1000
AcDbSavedByObjectVersion
1070
     0
1000
AcDbSavedByObjectVersion
1070
     0
1000
AcDbSavedByObjectVersion
1070
     0
1000
AcDbSavedByObjectVersion
1070
     0
1000
AcDbSavedByObjectVersion
1070
     0
1000
AcDbSavedByObjectVersion
1070
     0
1000
AcDbSavedByObjectVersion
1070
     0
1000
AcDbSavedByObjectVersion
1070
     0
1000
AcDbSavedByObjectVersion
1070
     0
1000
AcDbSavedByObjectVersion
1070
     0
1000
AcDbSavedByObjectVersion
1070
     0
1000
AcDbSavedByObjectVersion
1070
     0
  0
VISUALSTYLE
  5
31
102
{ACAD_REACTORS
330
2A
102
}
330
2A
100
AcDbVisualStyle
  2
3D Hidden
 70
     6
 71
     1
 72
     2
 73
     2
 90
        0
 40
-0.6
 41
-30.0
 62
     5
 63
     7
 74
     2
 91
        2
 64
     7
 65
   257
 75
     2
175
     1
 42
40.0
 92
        0
 66
   257
 43
1.0
 76
     1
 77
     6
 78
     2
 67
     7
 79
     3
170
     0
171
     0
290
     0
174
     0
 93
        1
 44
0.0
173
     0
291
     0
 45
0.0
1001
ACAD
1000
AcDbSavedByObjectVersion
1070
     0
1000
AcDbSavedByObjectVersion
1070
     0
1000
AcDbSavedByObjectVersion
1070
     0
1000
AcDbSavedByObjectVersion
1070
     0
1000
AcDbSavedByObjectVersion
1070
     0
1000
AcDbSavedByObjectVersion
1070
     0
1000
AcDbSavedByObjectVersion
1070
     0
1000
AcDbSavedByObjectVersion
1070
     0
1000
AcDbSavedByObjectVersion
1070
     0
1000
AcDbSavedByObjectVersion
1070
     0
1000
AcDbSavedByObjectVersion
1070
     0
1000
AcDbSavedByObjectVersion
1070
     0
1000
AcDbSavedByObjectVersion
1070
     0
1000
AcDbSavedByObjectVersion
1070
     0
1000
AcDbSavedByObjectVersion
1070
     0
1000
AcDbSavedByObjectVersion
1070
     0
1000
AcDbSavedByObjectVersion
1070
     0
1000
AcDbSavedByObjectVersion
1070
     0
1000
AcDbSavedByObjectVersion
1070
     0
1000
AcDbSavedByObjectVersion
1070
     0
1000
AcDbSavedByObjectVersion
1070
     0
1000
AcDbSavedByObjectVersion
1070
     0
1000
AcDbSavedByObjectVersion
1070
     0
1000
AcDbSavedByObjectVersion
1070
     0
1000
AcDbSavedByObjectVersion
1070
     0
1000
AcDbSavedByObjectVersion
1070
     0
1000
AcDbSavedByObjectVersion
1070
     0
1000
AcDbSavedByObjectVersion
1070
     0
1000
AcDbSavedByObjectVersion
1070
     0
1000
AcDbSavedByObjectVersion
1070
     0
1000
AcDbSavedByObjectVersion
1070
     0
1000
AcDbSavedByObjectVersion
1070
     0
1000
AcDbSavedByObjectVersion
1070
     0
1000
AcDbSavedByObjectVersion
1070
     0
1000
AcDbSavedByObjectVersion
1070
     0
1000
AcDbSavedByObjectVersion
1070
     0
1000
AcDbSavedByObjectVersion
1070
     0
1000
AcDbSavedByObjectVersion
1070
     0
1000
AcDbSavedByObjectVersion
1070
     0
1000
AcDbSavedByObjectVersion
1070
     0
  0
VISUALSTYLE
  5
30
102
{ACAD_REACTORS
330
2A
102
}
330
2A
100
AcDbVisualStyle
  2
3dWireframe
 70
     5
 71
     0
 72
     2
 73
     0
 90
        0
 40
-0.6
 41
-30.0
 62
     5
 63
     7
 74
     1
 91
        4
 64
     7
 65
   257
 75
     1
175
     1
 42
1.0
 92
        0
 66
   257
 43
1.0
 76
     1
 77
     6
 78
     2
 67
     7
 79
     5
170
     0
171
     0
290
     0
174
     0
 93
        1
 44
0.0
173
     0
291
     0
 45
0.0
1001
ACAD
1000
AcDbSavedByObjectVersion
1070
     0
1000
AcDbSavedByObjectVersion
1070
     0
1000
AcDbSavedByObjectVersion
1070
     0
1000
AcDbSavedByObjectVersion
1070
     0
1000
AcDbSavedByObjectVersion
1070
     0
1000
AcDbSavedByObjectVersion
1070
     0
1000
AcDbSavedByObjectVersion
1070
     0
1000
AcDbSavedByObjectVersion
1070
     0
1000
AcDbSavedByObjectVersion
1070
     0
1000
AcDbSavedByObjectVersion
1070
     0
1000
AcDbSavedByObjectVersion
1070
     0
1000
AcDbSavedByObjectVersion
1070
     0
1000
AcDbSavedByObjectVersion
1070
     0
1000
AcDbSavedByObjectVersion
1070
     0
1000
AcDbSavedByObjectVersion
1070
     0
1000
AcDbSavedByObjectVersion
1070
     0
1000
AcDbSavedByObjectVersion
1070
     0
1000
AcDbSavedByObjectVersion
1070
     0
1000
AcDbSavedByObjectVersion
1070
     0
1000
AcDbSavedByObjectVersion
1070
     0
1000
AcDbSavedByObjectVersion
1070
     0
1000
AcDbSavedByObjectVersion
1070
     0
1000
AcDbSavedByObjectVersion
1070
     0
1000
AcDbSavedByObjectVersion
1070
     0
1000
AcDbSavedByObjectVersion
1070
     0
1000
AcDbSavedByObjectVersion
1070
     0
1000
AcDbSavedByObjectVersion
1070
     0
1000
AcDbSavedByObjectVersion
1070
     0
1000
AcDbSavedByObjectVersion
1070
     0
1000
AcDbSavedByObjectVersion
1070
     0
1000
AcDbSavedByObjectVersion
1070
     0
1000
AcDbSavedByObjectVersion
1070
     0
1000
AcDbSavedByObjectVersion
1070
     0
1000
AcDbSavedByObjectVersion
1070
     0
1000
AcDbSavedByObjectVersion
1070
     0
1000
AcDbSavedByObjectVersion
1070
     0
1000
AcDbSavedByObjectVersion
1070
     0
1000
AcDbSavedByObjectVersion
1070
     0
1000
AcDbSavedByObjectVersion
1070
     0
1000
AcDbSavedByObjectVersion
1070
     0
  0
VISUALSTYLE
  5
32
102
{ACAD_REACTORS
330
2A
102
}
330
2A
100
AcDbVisualStyle
  2
Basic
 70
     7
 71
     1
 72
     0
 73
     1
 90
        0
 40
-0.6
 41
-30.0
 62
     5
 63
     7
 74
     0
 91
        4
 64
     7
 65
   257
 75
     1
175
     1
 42
1.0
 92
        8
 66
     7
 43
1.0
 76
     1
 77
     6
 78
     2
 67
     7
 79
     5
170
     0
171
     0
290
     0
174
     0
 93
        1
 44
0.0
173
     0
291
     1
 45
0.0
1001
ACAD
1000
AcDbSavedByObjectVersion
1070
     0
1000
AcDbSavedByObjectVersion
1070
     0
1000
AcDbSavedByObjectVersion
1070
     0
1000
AcDbSavedByObjectVersion
1070
     0
1000
AcDbSavedByObjectVersion
1070
     0
1000
AcDbSavedByObjectVersion
1070
     0
1000
AcDbSavedByObjectVersion
1070
     0
1000
AcDbSavedByObjectVersion
1070
     0
1000
AcDbSavedByObjectVersion
1070
     0
1000
AcDbSavedByObjectVersion
1070
     0
1000
AcDbSavedByObjectVersion
1070
     0
1000
AcDbSavedByObjectVersion
1070
     0
1000
AcDbSavedByObjectVersion
1070
     0
1000
AcDbSavedByObjectVersion
1070
     0
1000
AcDbSavedByObjectVersion
1070
     0
1000
AcDbSavedByObjectVersion
1070
     0
1000
AcDbSavedByObjectVersion
1070
     0
1000
AcDbSavedByObjectVersion
1070
     0
1000
AcDbSavedByObjectVersion
1070
     0
1000
AcDbSavedByObjectVersion
1070
     0
1000
AcDbSavedByObjectVersion
1070
     0
1000
AcDbSavedByObjectVersion
1070
     0
1000
AcDbSavedByObjectVersion
1070
     0
1000
AcDbSavedByObjectVersion
1070
     0
1000
AcDbSavedByObjectVersion
1070
     0
1000
AcDbSavedByObjectVersion
1070
     0
1000
AcDbSavedByObjectVersion
1070
     0
1000
AcDbSavedByObjectVersion
1070
     0
1000
AcDbSavedByObjectVersion
1070
     0
1000
AcDbSavedByObjectVersion
1070
     0
1000
AcDbSavedByObjectVersion
1070
     0
1000
AcDbSavedByObjectVersion
1070
     0
1000
AcDbSavedByObjectVersion
1070
     0
1000
AcDbSavedByObjectVersion
1070
     0
1000
AcDbSavedByObjectVersion
1070
     0
1000
AcDbSavedByObjectVersion
1070
     0
1000
AcDbSavedByObjectVersion
1070
     0
1000
AcDbSavedByObjectVersion
1070
     0
1000
AcDbSavedByObjectVersion
1070
     0
1000
AcDbSavedByObjectVersion
1070
     0
  0
VISUALSTYLE
  5
36
102
{ACAD_REACTORS
330
2A
102
}
330
2A
100
AcDbVisualStyle
  2
Brighten
 70
    12
 71
     2
 72
     2
 73
     0
 90
        0
 40
-0.6
 41
-30.0
 62
     5
 63
     7
 74
     1
 91
        4
 64
     7
 65
   257
 75
     1
175
     1
 42
1.0
 92
        8
 66
     7
 43
1.0
 76
     1
 77
     6
 78
     2
 67
     7
 79
     5
170
     0
171
     0
290
     0
174
     0
 93
        1
 44
50.0
173
     0
291
     1
 45
0.0
1001
ACAD
1000
AcDbSavedByObjectVersion
1070
     0
1000
AcDbSavedByObjectVersion
1070
     0
1000
AcDbSavedByObjectVersion
1070
     0
1000
AcDbSavedByObjectVersion
1070
     0
1000
AcDbSavedByObjectVersion
1070
     0
1000
AcDbSavedByObjectVersion
1070
     0
1000
AcDbSavedByObjectVersion
1070
     0
1000
AcDbSavedByObjectVersion
1070
     0
1000
AcDbSavedByObjectVersion
1070
     0
1000
AcDbSavedByObjectVersion
1070
     0
1000
AcDbSavedByObjectVersion
1070
     0
1000
AcDbSavedByObjectVersion
1070
     0
1000
AcDbSavedByObjectVersion
1070
     0
1000
AcDbSavedByObjectVersion
1070
     0
1000
AcDbSavedByObjectVersion
1070
     0
1000
AcDbSavedByObjectVersion
1070
     0
1000
AcDbSavedByObjectVersion
1070
     0
1000
AcDbSavedByObjectVersion
1070
     0
1000
AcDbSavedByObjectVersion
1070
     0
1000
AcDbSavedByObjectVersion
1070
     0
1000
AcDbSavedByObjectVersion
1070
     0
1000
AcDbSavedByObjectVersion
1070
     0
1000
AcDbSavedByObjectVersion
1070
     0
1000
AcDbSavedByObjectVersion
1070
     0
1000
AcDbSavedByObjectVersion
1070
     0
1000
AcDbSavedByObjectVersion
1070
     0
1000
AcDbSavedByObjectVersion
1070
     0
1000
AcDbSavedByObjectVersion
1070
     0
1000
AcDbSavedByObjectVersion
1070
     0
1000
AcDbSavedByObjectVersion
1070
     0
1000
AcDbSavedByObjectVersion
1070
     0
1000
AcDbSavedByObjectVersion
1070
     0
1000
AcDbSavedByObjectVersion
1070
     0
1000
AcDbSavedByObjectVersion
1070
     0
1000
AcDbSavedByObjectVersion
1070
     0
1000
AcDbSavedByObjectVersion
1070
     0
1000
AcDbSavedByObjectVersion
1070
     0
1000
AcDbSavedByObjectVersion
1070
     0
1000
AcDbSavedByObjectVersion
1070
     0
1000
AcDbSavedByObjectVersion
1070
     0
  0
VISUALSTYLE
  5
3A
102
{ACAD_REACTORS
330
2A
102
}
330
2A
100
AcDbVisualStyle
  2
ColorChange
 70
    16
 71
     2
 72
     2
 73
     3
 90
        0
 40
-0.6
 41
-30.0
 62
     5
 63
     8
 74
     1
 91
        4
 64
     7
 65
   257
 75
     1
175
     1
 42
1.0
 92
        8
 66
     8
 43
1.0
 76
     1
 77
     6
 78
     2
 67
     7
 79
     5
170
     0
171
     0
290
     0
174
     0
 93
        1
 44
0.0
173
     0
291
     1
 45
0.0
1001
ACAD
1000
AcDbSavedByObjectVersion
1070
     0
1000
AcDbSavedByObjectVersion
1070
     0
1000
AcDbSavedByObjectVersion
1070
     0
1000
AcDbSavedByObjectVersion
1070
     0
1000
AcDbSavedByObjectVersion
1070
     0
1000
AcDbSavedByObjectVersion
1070
     0
1000
AcDbSavedByObjectVersion
1070
     0
1000
AcDbSavedByObjectVersion
1070
     0
1000
AcDbSavedByObjectVersion
1070
     0
1000
AcDbSavedByObjectVersion
1070
     0
1000
AcDbSavedByObjectVersion
1070
     0
1000
AcDbSavedByObjectVersion
1070
     0
1000
AcDbSavedByObjectVersion
1070
     0
1000
AcDbSavedByObjectVersion
1070
     0
1000
AcDbSavedByObjectVersion
1070
     0
1000
AcDbSavedByObjectVersion
1070
     0
1000
AcDbSavedByObjectVersion
1070
     0
1000
AcDbSavedByObjectVersion
1070
     0
1000
AcDbSavedByObjectVersion
1070
     0
1000
AcDbSavedByObjectVersion
1070
     0
1000
AcDbSavedByObjectVersion
1070
     0
1000
AcDbSavedByObjectVersion
1070
     0
1000
AcDbSavedByObjectVersion
1070
     0
1000
AcDbSavedByObjectVersion
1070
     0
1000
AcDbSavedByObjectVersion
1070
     0
1000
AcDbSavedByObjectVersion
1070
     0
1000
AcDbSavedByObjectVersion
1070
     0
1000
AcDbSavedByObjectVersion
1070
     0
1000
AcDbSavedByObjectVersion
1070
     0
1000
AcDbSavedByObjectVersion
1070
     0
1000
AcDbSavedByObjectVersion
1070
     0
1000
AcDbSavedByObjectVersion
1070
     0
1000
AcDbSavedByObjectVersion
1070
     0
1000
AcDbSavedByObjectVersion
1070
     0
1000
AcDbSavedByObjectVersion
1070
     0
1000
AcDbSavedByObjectVersion
1070
     0
1000
AcDbSavedByObjectVersion
1070
     0
1000
AcDbSavedByObjectVersion
1070
     0
1000
AcDbSavedByObjectVersion
1070
     0
1000
AcDbSavedByObjectVersion
1070
     0
  0
VISUALSTYLE
  5
34
102
{ACAD_REACTORS
330
2A
102
}
330
2A
100
AcDbVisualStyle
  2
Conceptual
 70
     9
 71
     3
 72
     2
 73
     0
 90
        0
 40
-0.6
 41
-30.0
 62
     5
 63
     7
 74
     2
 91
        2
 64
     7
 65
   257
 75
     1
175
     1
 42
40.0
 92
        8
 66
     7
 43
1.0
 76
     1
 77
     6
 78
     2
 67
     7
 79
     3
170
     0
171
     0
290
     0
174
     0
 93
        1
 44
0.0
173
     0
291
     0
 45
0.0
1001
ACAD
1000
AcDbSavedByObjectVersion
1070
     0
1000
AcDbSavedByObjectVersion
1070
     0
1000
AcDbSavedByObjectVersion
1070
     0
1000
AcDbSavedByObjectVersion
1070
     0
1000
AcDbSavedByObjectVersion
1070
     0
1000
AcDbSavedByObjectVersion
1070
     0
1000
AcDbSavedByObjectVersion
1070
     0
1000
AcDbSavedByObjectVersion
1070
     0
1000
AcDbSavedByObjectVersion
1070
     0
1000
AcDbSavedByObjectVersion
1070
     0
1000
AcDbSavedByObjectVersion
1070
     0
1000
AcDbSavedByObjectVersion
1070
     0
1000
AcDbSavedByObjectVersion
1070
     0
1000
AcDbSavedByObjectVersion
1070
     0
1000
AcDbSavedByObjectVersion
1070
     0
1000
AcDbSavedByObjectVersion
1070
     0
1000
AcDbSavedByObjectVersion
1070
     0
1000
AcDbSavedByObjectVersion
1070
     0
1000
AcDbSavedByObjectVersion
1070
     0
1000
AcDbSavedByObjectVersion
1070
     0
1000
AcDbSavedByObjectVersion
1070
     0
1000
AcDbSavedByObjectVersion
1070
     0
1000
AcDbSavedByObjectVersion
1070
     0
1000
AcDbSavedByObjectVersion
1070
     0
1000
AcDbSavedByObjectVersion
1070
     0
1000
AcDbSavedByObjectVersion
1070
     0
1000
AcDbSavedByObjectVersion
1070
     0
1000
AcDbSavedByObjectVersion
1070
     0
1000
AcDbSavedByObjectVersion
1070
     0
1000
AcDbSavedByObjectVersion
1070
     0
1000
AcDbSavedByObjectVersion
1070
     0
1000
AcDbSavedByObjectVersion
1070
     0
1000
AcDbSavedByObjectVersion
1070
     0
1000
AcDbSavedByObjectVersion
1070
     0
1000
AcDbSavedByObjectVersion
1070
     0
1000
AcDbSavedByObjectVersion
1070
     0
1000
AcDbSavedByObjectVersion
1070
     0
1000
AcDbSavedByObjectVersion
1070
     0
1000
AcDbSavedByObjectVersion
1070
     0
1000
AcDbSavedByObjectVersion
1070
     0
  0
VISUALSTYLE
  5
35
102
{ACAD_REACTORS
330
2A
102
}
330
2A
100
AcDbVisualStyle
  2
Dim
 70
    11
 71
     2
 72
     2
 73
     0
 90
        0
 40
-0.6
 41
-30.0
 62
     5
 63
     7
 74
     1
 91
        4
 64
     7
 65
   257
 75
     1
175
     1
 42
1.0
 92
        8
 66
     7
 43
1.0
 76
     1
 77
     6
 78
     2
 67
     7
 79
     5
170
     0
171
     0
290
     0
174
     0
 93
        1
 44
-50.0
173
     0
291
     1
 45
0.0
1001
ACAD
1000
AcDbSavedByObjectVersion
1070
     0
1000
AcDbSavedByObjectVersion
1070
     0
1000
AcDbSavedByObjectVersion
1070
     0
1000
AcDbSavedByObjectVersion
1070
     0
1000
AcDbSavedByObjectVersion
1070
     0
1000
AcDbSavedByObjectVersion
1070
     0
1000
AcDbSavedByObjectVersion
1070
     0
1000
AcDbSavedByObjectVersion
1070
     0
1000
AcDbSavedByObjectVersion
1070
     0
1000
AcDbSavedByObjectVersion
1070
     0
1000
AcDbSavedByObjectVersion
1070
     0
1000
AcDbSavedByObjectVersion
1070
     0
1000
AcDbSavedByObjectVersion
1070
     0
1000
AcDbSavedByObjectVersion
1070
     0
1000
AcDbSavedByObjectVersion
1070
     0
1000
AcDbSavedByObjectVersion
1070
     0
1000
AcDbSavedByObjectVersion
1070
     0
1000
AcDbSavedByObjectVersion
1070
     0
1000
AcDbSavedByObjectVersion
1070
     0
1000
AcDbSavedByObjectVersion
1070
     0
1000
AcDbSavedByObjectVersion
1070
     0
1000
AcDbSavedByObjectVersion
1070
     0
1000
AcDbSavedByObjectVersion
1070
     0
1000
AcDbSavedByObjectVersion
1070
     0
1000
AcDbSavedByObjectVersion
1070
     0
1000
AcDbSavedByObjectVersion
1070
     0
1000
AcDbSavedByObjectVersion
1070
     0
1000
AcDbSavedByObjectVersion
1070
     0
1000
AcDbSavedByObjectVersion
1070
     0
1000
AcDbSavedByObjectVersion
1070
     0
1000
AcDbSavedByObjectVersion
1070
     0
1000
AcDbSavedByObjectVersion
1070
     0
1000
AcDbSavedByObjectVersion
1070
     0
1000
AcDbSavedByObjectVersion
1070
     0
1000
AcDbSavedByObjectVersion
1070
     0
1000
AcDbSavedByObjectVersion
1070
     0
1000
AcDbSavedByObjectVersion
1070
     0
1000
AcDbSavedByObjectVersion
1070
     0
1000
AcDbSavedByObjectVersion
1070
     0
1000
AcDbSavedByObjectVersion
1070
     0
  0
VISUALSTYLE
  5
39
102
{ACAD_REACTORS
330
2A
102
}
330
2A
100
AcDbVisualStyle
  2
Facepattern
 70
    15
 71
     2
 72
     2
 73
     0
 90
        0
 40
-0.6
 41
-30.0
 62
     5
 63
     7
 74
     1
 91
        4
 64
     7
 65
   257
 75
     1
175
     1
 42
1.0
 92
        8
 66
     7
 43
1.0
 76
     1
 77
     6
 78
     2
 67
     7
 79
     5
170
     0
171
     0
290
     0
174
     0
 93
        1
 44
0.0
173
     0
291
     1
 45
0.0
1001
ACAD
1000
AcDbSavedByObjectVersion
1070
     0
1000
AcDbSavedByObjectVersion
1070
     0
1000
AcDbSavedByObjectVersion
1070
     0
1000
AcDbSavedByObjectVersion
1070
     0
1000
AcDbSavedByObjectVersion
1070
     0
1000
AcDbSavedByObjectVersion
1070
     0
1000
AcDbSavedByObjectVersion
1070
     0
1000
AcDbSavedByObjectVersion
1070
     0
1000
AcDbSavedByObjectVersion
1070
     0
1000
AcDbSavedByObjectVersion
1070
     0
1000
AcDbSavedByObjectVersion
1070
     0
1000
AcDbSavedByObjectVersion
1070
     0
1000
AcDbSavedByObjectVersion
1070
     0
1000
AcDbSavedByObjectVersion
1070
     0
1000
AcDbSavedByObjectVersion
1070
     0
1000
AcDbSavedByObjectVersion
1070
     0
1000
AcDbSavedByObjectVersion
1070
     0
1000
AcDbSavedByObjectVersion
1070
     0
1000
AcDbSavedByObjectVersion
1070
     0
1000
AcDbSavedByObjectVersion
1070
     0
1000
AcDbSavedByObjectVersion
1070
     0
1000
AcDbSavedByObjectVersion
1070
     0
1000
AcDbSavedByObjectVersion
1070
     0
1000
AcDbSavedByObjectVersion
1070
     0
1000
AcDbSavedByObjectVersion
1070
     0
1000
AcDbSavedByObjectVersion
1070
     0
1000
AcDbSavedByObjectVersion
1070
     0
1000
AcDbSavedByObjectVersion
1070
     0
1000
AcDbSavedByObjectVersion
1070
     0
1000
AcDbSavedByObjectVersion
1070
     0
1000
AcDbSavedByObjectVersion
1070
     0
1000
AcDbSavedByObjectVersion
1070
     0
1000
AcDbSavedByObjectVersion
1070
     0
1000
AcDbSavedByObjectVersion
1070
     0
1000
AcDbSavedByObjectVersion
1070
     0
1000
AcDbSavedByObjectVersion
1070
     0
1000
AcDbSavedByObjectVersion
1070
     0
1000
AcDbSavedByObjectVersion
1070
     0
1000
AcDbSavedByObjectVersion
1070
     0
1000
AcDbSavedByObjectVersion
1070
     0
  0
VISUALSTYLE
  5
2B
102
{ACAD_REACTORS
330
2A
102
}
330
2A
100
AcDbVisualStyle
  2
Flat
 70
     0
 71
     2
 72
     1
 73
     1
 90
        2
 40
-0.6
 41
30.0
 62
     5
 63
     7
 74
     0
 91
        4
 64
     7
 65
   257
 75
     1
175
     1
 42
1.0
 92
        8
 66
     7
 43
1.0
 76
     1
 77
     6
 78
     2
 67
     7
 79
     5
170
     0
171
     0
290
     0
174
     0
 93
       13
 44
0.0
173
     0
291
     1
 45
0.0
1001
ACAD
1000
AcDbSavedByObjectVersion
1070
     0
1000
AcDbSavedByObjectVersion
1070
     0
1000
AcDbSavedByObjectVersion
1070
     0
1000
AcDbSavedByObjectVersion
1070
     0
1000
AcDbSavedByObjectVersion
1070
     0
1000
AcDbSavedByObjectVersion
1070
     0
1000
AcDbSavedByObjectVersion
1070
     0
1000
AcDbSavedByObjectVersion
1070
     0
1000
AcDbSavedByObjectVersion
1070
     0
1000
AcDbSavedByObjectVersion
1070
     0
1000
AcDbSavedByObjectVersion
1070
     0
1000
AcDbSavedByObjectVersion
1070
     0
1000
AcDbSavedByObjectVersion
1070
     0
1000
AcDbSavedByObjectVersion
1070
     0
1000
AcDbSavedByObjectVersion
1070
     0
1000
AcDbSavedByObjectVersion
1070
     0
1000
AcDbSavedByObjectVersion
1070
     0
1000
AcDbSavedByObjectVersion
1070
     0
1000
AcDbSavedByObjectVersion
1070
     0
1000
AcDbSavedByObjectVersion
1070
     0
1000
AcDbSavedByObjectVersion
1070
     0
1000
AcDbSavedByObjectVersion
1070
     0
1000
AcDbSavedByObjectVersion
1070
     0
1000
AcDbSavedByObjectVersion
1070
     0
1000
AcDbSavedByObjectVersion
1070
     0
1000
AcDbSavedByObjectVersion
1070
     0
1000
AcDbSavedByObjectVersion
1070
     0
1000
AcDbSavedByObjectVersion
1070
     0
1000
AcDbSavedByObjectVersion
1070
     0
1000
AcDbSavedByObjectVersion
1070
     0
1000
AcDbSavedByObjectVersion
1070
     0
1000
AcDbSavedByObjectVersion
1070
     0
1000
AcDbSavedByObjectVersion
1070
     0
1000
AcDbSavedByObjectVersion
1070
     0
1000
AcDbSavedByObjectVersion
1070
     0
1000
AcDbSavedByObjectVersion
1070
     0
1000
AcDbSavedByObjectVersion
1070
     0
1000
AcDbSavedByObjectVersion
1070
     0
1000
AcDbSavedByObjectVersion
1070
     0
1000
AcDbSavedByObjectVersion
1070
     0
  0
VISUALSTYLE
  5
2C
102
{ACAD_REACTORS
330
2A
102
}
330
2A
100
AcDbVisualStyle
  2
FlatWithEdges
 70
     1
 71
     2
 72
     1
 73
     1
 90
        2
 40
-0.6
 41
30.0
 62
     5
 63
     7
 74
     1
 91
        4
 64
     7
 65
   257
 75
     1
175
     1
 42
1.0
 92
        0
 66
   257
 43
1.0
 76
     1
 77
     6
 78
     2
 67
     7
 79
     5
170
     0
171
     0
290
     0
174
     0
 93
       13
 44
0.0
173
     0
291
     1
 45
0.0
1001
ACAD
1000
AcDbSavedByObjectVersion
1070
     0
1000
AcDbSavedByObjectVersion
1070
     0
1000
AcDbSavedByObjectVersion
1070
     0
1000
AcDbSavedByObjectVersion
1070
     0
1000
AcDbSavedByObjectVersion
1070
     0
1000
AcDbSavedByObjectVersion
1070
     0
1000
AcDbSavedByObjectVersion
1070
     0
1000
AcDbSavedByObjectVersion
1070
     0
1000
AcDbSavedByObjectVersion
1070
     0
1000
AcDbSavedByObjectVersion
1070
     0
1000
AcDbSavedByObjectVersion
1070
     0
1000
AcDbSavedByObjectVersion
1070
     0
1000
AcDbSavedByObjectVersion
1070
     0
1000
AcDbSavedByObjectVersion
1070
     0
1000
AcDbSavedByObjectVersion
1070
     0
1000
AcDbSavedByObjectVersion
1070
     0
1000
AcDbSavedByObjectVersion
1070
     0
1000
AcDbSavedByObjectVersion
1070
     0
1000
AcDbSavedByObjectVersion
1070
     0
1000
AcDbSavedByObjectVersion
1070
     0
1000
AcDbSavedByObjectVersion
1070
     0
1000
AcDbSavedByObjectVersion
1070
     0
1000
AcDbSavedByObjectVersion
1070
     0
1000
AcDbSavedByObjectVersion
1070
     0
1000
AcDbSavedByObjectVersion
1070
     0
1000
AcDbSavedByObjectVersion
1070
     0
1000
AcDbSavedByObjectVersion
1070
     0
1000
AcDbSavedByObjectVersion
1070
     0
1000
AcDbSavedByObjectVersion
1070
     0
1000
AcDbSavedByObjectVersion
1070
     0
1000
AcDbSavedByObjectVersion
1070
     0
1000
AcDbSavedByObjectVersion
1070
     0
1000
AcDbSavedByObjectVersion
1070
     0
1000
AcDbSavedByObjectVersion
1070
     0
1000
AcDbSavedByObjectVersion
1070
     0
1000
AcDbSavedByObjectVersion
1070
     0
1000
AcDbSavedByObjectVersion
1070
     0
1000
AcDbSavedByObjectVersion
1070
     0
1000
AcDbSavedByObjectVersion
1070
     0
1000
AcDbSavedByObjectVersion
1070
     0
  0
VISUALSTYLE
  5
2D
102
{ACAD_REACTORS
330
2A
102
}
330
2A
100
AcDbVisualStyle
  2
Gouraud
 70
     2
 71
     2
 72
     2
 73
     1
 90
        2
 40
-0.6
 41
30.0
 62
     5
 63
     7
 74
     0
 91
        4
 64
     7
 65
   257
 75
     1
175
     1
 42
1.0
 92
        0
 66
     7
 43
1.0
 76
     1
 77
     6
 78
     2
 67
     7
 79
     5
170
     0
171
     0
290
     0
174
     0
 93
       13
 44
0.0
173
     0
291
     1
 45
0.0
1001
ACAD
1000
AcDbSavedByObjectVersion
1070
     0
1000
AcDbSavedByObjectVersion
1070
     0
1000
AcDbSavedByObjectVersion
1070
     0
1000
AcDbSavedByObjectVersion
1070
     0
1000
AcDbSavedByObjectVersion
1070
     0
1000
AcDbSavedByObjectVersion
1070
     0
1000
AcDbSavedByObjectVersion
1070
     0
1000
AcDbSavedByObjectVersion
1070
     0
1000
AcDbSavedByObjectVersion
1070
     0
1000
AcDbSavedByObjectVersion
1070
     0
1000
AcDbSavedByObjectVersion
1070
     0
1000
AcDbSavedByObjectVersion
1070
     0
1000
AcDbSavedByObjectVersion
1070
     0
1000
AcDbSavedByObjectVersion
1070
     0
1000
AcDbSavedByObjectVersion
1070
     0
1000
AcDbSavedByObjectVersion
1070
     0
1000
AcDbSavedByObjectVersion
1070
     0
1000
AcDbSavedByObjectVersion
1070
     0
1000
AcDbSavedByObjectVersion
1070
     0
1000
AcDbSavedByObjectVersion
1070
     0
1000
AcDbSavedByObjectVersion
1070
     0
1000
AcDbSavedByObjectVersion
1070
     0
1000
AcDbSavedByObjectVersion
1070
     0
1000
AcDbSavedByObjectVersion
1070
     0
1000
AcDbSavedByObjectVersion
1070
     0
1000
AcDbSavedByObjectVersion
1070
     0
1000
AcDbSavedByObjectVersion
1070
     0
1000
AcDbSavedByObjectVersion
1070
     0
1000
AcDbSavedByObjectVersion
1070
     0
1000
AcDbSavedByObjectVersion
1070
     0
1000
AcDbSavedByObjectVersion
1070
     0
1000
AcDbSavedByObjectVersion
1070
     0
1000
AcDbSavedByObjectVersion
1070
     0
1000
AcDbSavedByObjectVersion
1070
     0
1000
AcDbSavedByObjectVersion
1070
     0
1000
AcDbSavedByObjectVersion
1070
     0
1000
AcDbSavedByObjectVersion
1070
     0
1000
AcDbSavedByObjectVersion
1070
     0
1000
AcDbSavedByObjectVersion
1070
     0
1000
AcDbSavedByObjectVersion
1070
     0
  0
VISUALSTYLE
  5
2E
102
{ACAD_REACTORS
330
2A
102
}
330
2A
100
AcDbVisualStyle
  2
GouraudWithEdges
 70
     3
 71
     2
 72
     2
 73
     1
 90
        2
 40
-0.6
 41
30.0
 62
     5
 63
     7
 74
     1
 91
        4
 64
     7
 65
   257
 75
     1
175
     1
 42
1.0
 92
        0
 66
   257
 43
1.0
 76
     1
 77
     6
 78
     2
 67
     7
 79
     5
170
     0
171
     0
290
     0
174
     0
 93
       13
 44
0.0
173
     0
291
     1
 45
0.0
1001
ACAD
1000
AcDbSavedByObjectVersion
1070
     0
1000
AcDbSavedByObjectVersion
1070
     0
1000
AcDbSavedByObjectVersion
1070
     0
1000
AcDbSavedByObjectVersion
1070
     0
1000
AcDbSavedByObjectVersion
1070
     0
1000
AcDbSavedByObjectVersion
1070
     0
1000
AcDbSavedByObjectVersion
1070
     0
1000
AcDbSavedByObjectVersion
1070
     0
1000
AcDbSavedByObjectVersion
1070
     0
1000
AcDbSavedByObjectVersion
1070
     0
1000
AcDbSavedByObjectVersion
1070
     0
1000
AcDbSavedByObjectVersion
1070
     0
1000
AcDbSavedByObjectVersion
1070
     0
1000
AcDbSavedByObjectVersion
1070
     0
1000
AcDbSavedByObjectVersion
1070
     0
1000
AcDbSavedByObjectVersion
1070
     0
1000
AcDbSavedByObjectVersion
1070
     0
1000
AcDbSavedByObjectVersion
1070
     0
1000
AcDbSavedByObjectVersion
1070
     0
1000
AcDbSavedByObjectVersion
1070
     0
1000
AcDbSavedByObjectVersion
1070
     0
1000
AcDbSavedByObjectVersion
1070
     0
1000
AcDbSavedByObjectVersion
1070
     0
1000
AcDbSavedByObjectVersion
1070
     0
1000
AcDbSavedByObjectVersion
1070
     0
1000
AcDbSavedByObjectVersion
1070
     0
1000
AcDbSavedByObjectVersion
1070
     0
1000
AcDbSavedByObjectVersion
1070
     0
1000
AcDbSavedByObjectVersion
1070
     0
1000
AcDbSavedByObjectVersion
1070
     0
1000
AcDbSavedByObjectVersion
1070
     0
1000
AcDbSavedByObjectVersion
1070
     0
1000
AcDbSavedByObjectVersion
1070
     0
1000
AcDbSavedByObjectVersion
1070
     0
1000
AcDbSavedByObjectVersion
1070
     0
1000
AcDbSavedByObjectVersion
1070
     0
1000
AcDbSavedByObjectVersion
1070
     0
1000
AcDbSavedByObjectVersion
1070
     0
1000
AcDbSavedByObjectVersion
1070
     0
1000
AcDbSavedByObjectVersion
1070
     0
  0
VISUALSTYLE
  5
38
102
{ACAD_REACTORS
330
2A
102
}
330
2A
100
AcDbVisualStyle
  2
Linepattern
 70
    14
 71
     2
 72
     2
 73
     0
 90
        0
 40
-0.6
 41
-30.0
 62
     5
 63
     7
 74
     1
 91
        4
 64
     7
 65
   257
 75
     7
175
     7
 42
1.0
 92
        8
 66
     7
 43
1.0
 76
     1
 77
     6
 78
     2
 67
     7
 79
     5
170
     0
171
     0
290
     0
174
     0
 93
        1
 44
0.0
173
     0
291
     1
 45
0.0
1001
ACAD
1000
AcDbSavedByObjectVersion
1070
     0
1000
AcDbSavedByObjectVersion
1070
     0
1000
AcDbSavedByObjectVersion
1070
     0
1000
AcDbSavedByObjectVersion
1070
     0
1000
AcDbSavedByObjectVersion
1070
     0
1000
AcDbSavedByObjectVersion
1070
     0
1000
AcDbSavedByObjectVersion
1070
     0
1000
AcDbSavedByObjectVersion
1070
     0
1000
AcDbSavedByObjectVersion
1070
     0
1000
AcDbSavedByObjectVersion
1070
     0
1000
AcDbSavedByObjectVersion
1070
     0
1000
AcDbSavedByObjectVersion
1070
     0
1000
AcDbSavedByObjectVersion
1070
     0
1000
AcDbSavedByObjectVersion
1070
     0
1000
AcDbSavedByObjectVersion
1070
     0
1000
AcDbSavedByObjectVersion
1070
     0
1000
AcDbSavedByObjectVersion
1070
     0
1000
AcDbSavedByObjectVersion
1070
     0
1000
AcDbSavedByObjectVersion
1070
     0
1000
AcDbSavedByObjectVersion
1070
     0
1000
AcDbSavedByObjectVersion
1070
     0
1000
AcDbSavedByObjectVersion
1070
     0
1000
AcDbSavedByObjectVersion
1070
     0
1000
AcDbSavedByObjectVersion
1070
     0
1000
AcDbSavedByObjectVersion
1070
     0
1000
AcDbSavedByObjectVersion
1070
     0
1000
AcDbSavedByObjectVersion
1070
     0
1000
AcDbSavedByObjectVersion
1070
     0
1000
AcDbSavedByObjectVersion
1070
     0
1000
AcDbSavedByObjectVersion
1070
     0
1000
AcDbSavedByObjectVersion
1070
     0
1000
AcDbSavedByObjectVersion
1070
     0
1000
AcDbSavedByObjectVersion
1070
     0
1000
AcDbSavedByObjectVersion
1070
     0
1000
AcDbSavedByObjectVersion
1070
     0
1000
AcDbSavedByObjectVersion
1070
     0
1000
AcDbSavedByObjectVersion
1070
     0
1000
AcDbSavedByObjectVersion
1070
     0
1000
AcDbSavedByObjectVersion
1070
     0
1000
AcDbSavedByObjectVersion
1070
     0
  0
VISUALSTYLE
  5
33
102
{ACAD_REACTORS
330
2A
102
}
330
2A
100
AcDbVisualStyle
  2
Realistic
 70
     8
 71
     2
 72
     2
 73
     0
 90
        0
 40
-0.6
 41
-30.0
 62
     5
 63
     7
 74
     1
 91
        0
 64
     7
 65
   257
 75
     1
175
     1
 42
1.0
 92
        8
 66
     8
 43
1.0
 76
     1
 77
     6
 78
     2
 67
     7
 79
     5
170
     0
171
     0
290
     0
174
     0
 93
       13
 44
0.0
173
     0
291
     0
 45
0.0
1001
ACAD
1000
AcDbSavedByObjectVersion
1070
     0
1000
AcDbSavedByObjectVersion
1070
     0
1000
AcDbSavedByObjectVersion
1070
     0
1000
AcDbSavedByObjectVersion
1070
     0
1000
AcDbSavedByObjectVersion
1070
     0
1000
AcDbSavedByObjectVersion
1070
     0
1000
AcDbSavedByObjectVersion
1070
     0
1000
AcDbSavedByObjectVersion
1070
     0
1000
AcDbSavedByObjectVersion
1070
     0
1000
AcDbSavedByObjectVersion
1070
     0
1000
AcDbSavedByObjectVersion
1070
     0
1000
AcDbSavedByObjectVersion
1070
     0
1000
AcDbSavedByObjectVersion
1070
     0
1000
AcDbSavedByObjectVersion
1070
     0
1000
AcDbSavedByObjectVersion
1070
     0
1000
AcDbSavedByObjectVersion
1070
     0
1000
AcDbSavedByObjectVersion
1070
     0
1000
AcDbSavedByObjectVersion
1070
     0
1000
AcDbSavedByObjectVersion
1070
     0
1000
AcDbSavedByObjectVersion
1070
     0
1000
AcDbSavedByObjectVersion
1070
     0
1000
AcDbSavedByObjectVersion
1070
     0
1000
AcDbSavedByObjectVersion
1070
     0
1000
AcDbSavedByObjectVersion
1070
     0
1000
AcDbSavedByObjectVersion
1070
     0
1000
AcDbSavedByObjectVersion
1070
     0
1000
AcDbSavedByObjectVersion
1070
     0
1000
AcDbSavedByObjectVersion
1070
     0
1000
AcDbSavedByObjectVersion
1070
     0
1000
AcDbSavedByObjectVersion
1070
     0
1000
AcDbSavedByObjectVersion
1070
     0
1000
AcDbSavedByObjectVersion
1070
     0
1000
AcDbSavedByObjectVersion
1070
     0
1000
AcDbSavedByObjectVersion
1070
     0
1000
AcDbSavedByObjectVersion
1070
     0
1000
AcDbSavedByObjectVersion
1070
     0
1000
AcDbSavedByObjectVersion
1070
     0
1000
AcDbSavedByObjectVersion
1070
     0
1000
AcDbSavedByObjectVersion
1070
     0
1000
AcDbSavedByObjectVersion
1070
     0
  0
VISUALSTYLE
  5
37
102
{ACAD_REACTORS
330
2A
102
}
330
2A
100
AcDbVisualStyle
  2
Thicken
 70
    13
 71
     2
 72
     2
 73
     0
 90
        0
 40
-0.6
 41
-30.0
 62
     5
 63
     7
 74
     1
 91
        4
 64
     7
 65
   257
 75
     1
175
     1
 42
1.0
 92
       12
 66
     7
 43
1.0
 76
     1
 77
     6
 78
     2
 67
     7
 79
     5
170
     0
171
     0
290
     0
174
     0
 93
        1
 44
0.0
173
     0
291
     1
 45
0.0
1001
ACAD
1000
AcDbSavedByObjectVersion
1070
     0
1000
AcDbSavedByObjectVersion
1070
     0
1000
AcDbSavedByObjectVersion
1070
     0
1000
AcDbSavedByObjectVersion
1070
     0
1000
AcDbSavedByObjectVersion
1070
     0
1000
AcDbSavedByObjectVersion
1070
     0
1000
AcDbSavedByObjectVersion
1070
     0
1000
AcDbSavedByObjectVersion
1070
     0
1000
AcDbSavedByObjectVersion
1070
     0
1000
AcDbSavedByObjectVersion
1070
     0
1000
AcDbSavedByObjectVersion
1070
     0
1000
AcDbSavedByObjectVersion
1070
     0
1000
AcDbSavedByObjectVersion
1070
     0
1000
AcDbSavedByObjectVersion
1070
     0
1000
AcDbSavedByObjectVersion
1070
     0
1000
AcDbSavedByObjectVersion
1070
     0
1000
AcDbSavedByObjectVersion
1070
     0
1000
AcDbSavedByObjectVersion
1070
     0
1000
AcDbSavedByObjectVersion
1070
     0
1000
AcDbSavedByObjectVersion
1070
     0
1000
AcDbSavedByObjectVersion
1070
     0
1000
AcDbSavedByObjectVersion
1070
     0
1000
AcDbSavedByObjectVersion
1070
     0
1000
AcDbSavedByObjectVersion
1070
     0
1000
AcDbSavedByObjectVersion
1070
     0
1000
AcDbSavedByObjectVersion
1070
     0
1000
AcDbSavedByObjectVersion
1070
     0
1000
AcDbSavedByObjectVersion
1070
     0
1000
AcDbSavedByObjectVersion
1070
     0
1000
AcDbSavedByObjectVersion
1070
     0
1000
AcDbSavedByObjectVersion
1070
     0
1000
AcDbSavedByObjectVersion
1070
     0
1000
AcDbSavedByObjectVersion
1070
     0
1000
AcDbSavedByObjectVersion
1070
     0
1000
AcDbSavedByObjectVersion
1070
     0
1000
AcDbSavedByObjectVersion
1070
     0
1000
AcDbSavedByObjectVersion
1070
     0
1000
AcDbSavedByObjectVersion
1070
     0
1000
AcDbSavedByObjectVersion
1070
     0
1000
AcDbSavedByObjectVersion
1070
     0
  0
DICTIONARYVAR
  5
510B
102
{ACAD_REACTORS
330
5108
102
}
330
5108
100
DictionaryVariables
280
     0
  1
1:1
  0
DICTIONARYVAR
  5
510A
102
{ACAD_REACTORS
330
5108
102
}
330
5108
100
DictionaryVariables
280
     0
  1
STANDARD
  0
DICTIONARYVAR
  5
5109
102
{ACAD_REACTORS
330
5108
102
}
330
5108
100
DictionaryVariables
280
     0
  1
STANDARD
  0
DICTIONARYVAR
  5
510E
102
{ACAD_REACTORS
330
5108
102
}
330
5108
100
DictionaryVariables
280
     0
  1
1
  0
DICTIONARYVAR
  5
510D
102
{ACAD_REACTORS
330
5108
102
}
330
5108
100
DictionaryVariables
280
     0
  1
0
  0
DICTIONARYVAR
  5
1B1F8
102
{ACAD_REACTORS
330
5108
102
}
330
5108
100
DictionaryVariables
280
     0
  1
0
  0
DICTIONARYVAR
  5
1B1F7
102
{ACAD_REACTORS
330
5108
102
}
330
5108
100
DictionaryVariables
280
     0
  1
0
  0
DICTIONARYVAR
  5
510C
102
{ACAD_REACTORS
330
5108
102
}
330
5108
100
DictionaryVariables
280
     0
  1
127
  0
XRECORD
  5
11ACF
102
{ACAD_REACTORS
330
11ACE
102
}
330
11ACE
100
AcDbXrecord
280
     1
330
11089
  0
VLO-VL
  5
1B159
102
{ACAD_REACTORS
330
1B158
102
}
330
1B158
100
vlo_VL
 90
   -64512
 91
       12
 92
        1
 40
2.5
300
(&VLO-R . 0)
  0
DICTIONARY
  5
4FEF
330
4FEE
100
AcDbDictionary
280
     1
281
     1
  3
ACAD_XREC_ROUNDTRIP
360
7C2C
  3
BUMPTILE
360
4FF1
  3
DIFFUSETILE
360
4FF0
  3
OPACITYTILE
360
4FF4
  3
REFLECTIONTILE
360
4FF3
  3
REFRACTIONTILE
360
4FF5
  3
SPECULARTILE
360
4FF2
  0
DICTIONARY
  5
4FE7
330
4FE6
100
AcDbDictionary
280
     1
281
     1
  3
ACAD_XREC_ROUNDTRIP
360
7C2B
  3
BUMPTILE
360
4FE9
  3
DIFFUSETILE
360
4FE8
  3
OPACITYTILE
360
4FEC
  3
REFLECTIONTILE
360
4FEB
  3
REFRACTIONTILE
360
4FED
  3
SPECULARTILE
360
4FEA
  0
DICTIONARY
  5
4FF7
330
4FF6
100
AcDbDictionary
280
     1
281
     1
  3
ACAD_XREC_ROUNDTRIP
360
7C2D
  3
BUMPTILE
360
4FF9
  3
DIFFUSETILE
360
4FF8
  3
OPACITYTILE
360
4FFC
  3
REFLECTIONTILE
360
4FFB
  3
REFRACTIONTILE
360
4FFD
  3
SPECULARTILE
360
4FFA
  0
DICTIONARY
  5
50D6
330
4FFF
100
AcDbDictionary
280
     1
281
     1
  3
ACAD_ROUNDTRIP_2008_TABLESTYLE_CELLSTYLEMAP
360
1B214
  0
XRECORD
  5
7C2C
102
{ACAD_REACTORS
330
4FEF
102
}
330
4FEF
100
AcDbXrecord
280
     1
102
MATERIAL
148
0.0
149
0.0
149
0.0
 93
        0
 94
      127
282
     0
 72
     0
 77
     0
171
     0
175
     0
179
     0
273
     0
  0
XRECORD
  5
4FF1
102
{ACAD_REACTORS
330
4FEF
102
}
330
4FEF
100
AcDbXrecord
280
     1
270
     1
271
     1
  0
XRECORD
  5
4FF0
102
{ACAD_REACTORS
330
4FEF
102
}
330
4FEF
100
AcDbXrecord
280
     1
270
     1
271
     1
  0
XRECORD
  5
4FF4
102
{ACAD_REACTORS
330
4FEF
102
}
330
4FEF
100
AcDbXrecord
280
     1
270
     1
271
     1
  0
XRECORD
  5
4FF3
102
{ACAD_REACTORS
330
4FEF
102
}
330
4FEF
100
AcDbXrecord
280
     1
270
     1
271
     1
  0
XRECORD
  5
4FF5
102
{ACAD_REACTORS
330
4FEF
102
}
330
4FEF
100
AcDbXrecord
280
     1
270
     1
271
     1
  0
XRECORD
  5
4FF2
102
{ACAD_REACTORS
330
4FEF
102
}
330
4FEF
100
AcDbXrecord
280
     1
270
     1
271
     1
  0
XRECORD
  5
7C2B
102
{ACAD_REACTORS
330
4FE7
102
}
330
4FE7
100
AcDbXrecord
280
     1
102
MATERIAL
148
0.0
149
0.0
149
0.0
 93
        0
 94
      127
282
     0
 72
     0
 77
     0
171
     0
175
     0
179
     0
273
     0
  0
XRECORD
  5
4FE9
102
{ACAD_REACTORS
330
4FE7
102
}
330
4FE7
100
AcDbXrecord
280
     1
270
     1
271
     1
  0
XRECORD
  5
4FE8
102
{ACAD_REACTORS
330
4FE7
102
}
330
4FE7
100
AcDbXrecord
280
     1
270
     1
271
     1
  0
XRECORD
  5
4FEC
102
{ACAD_REACTORS
330
4FE7
102
}
330
4FE7
100
AcDbXrecord
280
     1
270
     1
271
     1
  0
XRECORD
  5
4FEB
102
{ACAD_REACTORS
330
4FE7
102
}
330
4FE7
100
AcDbXrecord
280
     1
270
     1
271
     1
  0
XRECORD
  5
4FED
102
{ACAD_REACTORS
330
4FE7
102
}
330
4FE7
100
AcDbXrecord
280
     1
270
     1
271
     1
  0
XRECORD
  5
4FEA
102
{ACAD_REACTORS
330
4FE7
102
}
330
4FE7
100
AcDbXrecord
280
     1
270
     1
271
     1
  0
XRECORD
  5
7C2D
102
{ACAD_REACTORS
330
4FF7
102
}
330
4FF7
100
AcDbXrecord
280
     1
102
MATERIAL
148
0.0
149
0.0
149
0.0
 93
        0
 94
      127
282
     0
 72
     0
 77
     0
171
     0
175
     0
179
     0
273
     0
  0
XRECORD
  5
4FF9
102
{ACAD_REACTORS
330
4FF7
102
}
330
4FF7
100
AcDbXrecord
280
     1
270
     1
271
     1
  0
XRECORD
  5
4FF8
102
{ACAD_REACTORS
330
4FF7
102
}
330
4FF7
100
AcDbXrecord
280
     1
270
     1
271
     1
  0
XRECORD
  5
4FFC
102
{ACAD_REACTORS
330
4FF7
102
}
330
4FF7
100
AcDbXrecord
280
     1
270
     1
271
     1
  0
XRECORD
  5
4FFB
102
{ACAD_REACTORS
330
4FF7
102
}
330
4FF7
100
AcDbXrecord
280
     1
270
     1
271
     1
  0
XRECORD
  5
4FFD
102
{ACAD_REACTORS
330
4FF7
102
}
330
4FF7
100
AcDbXrecord
280
     1
270
     1
271
     1
  0
XRECORD
  5
4FFA
102
{ACAD_REACTORS
330
4FF7
102
}
330
4FF7
100
AcDbXrecord
280
     1
270
     1
271
     1
  0
CELLSTYLEMAP
  5
1B214
102
{ACAD_REACTORS
330
50D6
102
}
330
50D6
100
AcDbCellStyleMap
 90
        3
300
CELLSTYLE
  1
TABLEFORMAT_BEGIN
 90
        5
170
     1
 91
        0
 92
    32768
 62
   257
 93
        1
300
CONTENTFORMAT
  1
CONTENTFORMAT_BEGIN
 90
        0
 91
        0
 92
      512
 93
        0
300

 40
0.0
140
1.0
 94
        5
 62
     0
340
11
144
0.25
309
CONTENTFORMAT_END
171
     1
301
MARGIN
  1
CELLMARGIN_BEGIN
 40
0.06
 40
0.06
 40
0.06
 40
0.06
 40
0.18
 40
0.18
309
CELLMARGIN_END
 94
        6
 95
        1
302
GRIDFORMAT
  1
GRIDFORMAT_BEGIN
 90
        0
 91
        1
 62
     0
 92
       -2
340
0
 93
        0
 40
0.045
309
GRIDFORMAT_END
 95
        2
302
GRIDFORMAT
  1
GRIDFORMAT_BEGIN
 90
        0
 91
        1
 62
     0
 92
       -2
340
0
 93
        0
 40
0.045
309
GRIDFORMAT_END
 95
        4
302
GRIDFORMAT
  1
GRIDFORMAT_BEGIN
 90
        0
 91
        1
 62
     0
 92
       -2
340
0
 93
        0
 40
0.045
309
GRIDFORMAT_END
 95
        8
302
GRIDFORMAT
  1
GRIDFORMAT_BEGIN
 90
        0
 91
        1
 62
     0
 92
       -2
340
0
 93
        0
 40
0.045
309
GRIDFORMAT_END
 95
       16
302
GRIDFORMAT
  1
GRIDFORMAT_BEGIN
 90
        0
 91
        1
 62
     0
 92
       -2
340
0
 93
        0
 40
0.045
309
GRIDFORMAT_END
 95
       32
302
GRIDFORMAT
  1
GRIDFORMAT_BEGIN
 90
        0
 91
        1
 62
     0
 92
       -2
340
0
 93
        0
 40
0.045
309
GRIDFORMAT_END
309
TABLEFORMAT_END
  1
CELLSTYLE_BEGIN
 90
        1
 91
        1
300
_TITLE
309
CELLSTYLE_END
300
CELLSTYLE
  1
TABLEFORMAT_BEGIN
 90
        5
170
     1
 91
        0
 92
        0
 62
   257
 93
        1
300
CONTENTFORMAT
  1
CONTENTFORMAT_BEGIN
 90
        0
 91
        0
 92
      512
 93
        0
300

 40
0.0
140
1.0
 94
        5
 62
     0
340
11
144
0.18
309
CONTENTFORMAT_END
171
     1
301
MARGIN
  1
CELLMARGIN_BEGIN
 40
0.06
 40
0.06
 40
0.06
 40
0.06
 40
0.18
 40
0.18
309
CELLMARGIN_END
 94
        6
 95
        1
302
GRIDFORMAT
  1
GRIDFORMAT_BEGIN
 90
        0
 91
        1
 62
     0
 92
       -2
340
0
 93
        0
 40
0.045
309
GRIDFORMAT_END
 95
        2
302
GRIDFORMAT
  1
GRIDFORMAT_BEGIN
 90
        0
 91
        1
 62
     0
 92
       -2
340
0
 93
        0
 40
0.045
309
GRIDFORMAT_END
 95
        4
302
GRIDFORMAT
  1
GRIDFORMAT_BEGIN
 90
        0
 91
        1
 62
     0
 92
       -2
340
0
 93
        0
 40
0.045
309
GRIDFORMAT_END
 95
        8
302
GRIDFORMAT
  1
GRIDFORMAT_BEGIN
 90
        0
 91
        1
 62
     0
 92
       -2
340
0
 93
        0
 40
0.045
309
GRIDFORMAT_END
 95
       16
302
GRIDFORMAT
  1
GRIDFORMAT_BEGIN
 90
        0
 91
        1
 62
     0
 92
       -2
340
0
 93
        0
 40
0.045
309
GRIDFORMAT_END
 95
       32
302
GRIDFORMAT
  1
GRIDFORMAT_BEGIN
 90
        0
 91
        1
 62
     0
 92
       -2
340
0
 93
        0
 40
0.045
309
GRIDFORMAT_END
309
TABLEFORMAT_END
  1
CELLSTYLE_BEGIN
 90
        2
 91
        1
300
_HEADER
309
CELLSTYLE_END
300
CELLSTYLE
  1
TABLEFORMAT_BEGIN
 90
        5
170
     1
 91
        0
 92
        0
 62
   257
 93
        1
300
CONTENTFORMAT
  1
CONTENTFORMAT_BEGIN
 90
        0
 91
        0
 92
      512
 93
        0
300

 40
0.0
140
1.0
 94
        2
 62
     0
340
11
144
0.18
309
CONTENTFORMAT_END
171
     1
301
MARGIN
  1
CELLMARGIN_BEGIN
 40
0.06
 40
0.06
 40
0.06
 40
0.06
 40
0.18
 40
0.18
309
CELLMARGIN_END
 94
        6
 95
        1
302
GRIDFORMAT
  1
GRIDFORMAT_BEGIN
 90
        0
 91
        1
 62
     0
 92
       -2
340
0
 93
        0
 40
0.045
309
GRIDFORMAT_END
 95
        2
302
GRIDFORMAT
  1
GRIDFORMAT_BEGIN
 90
        0
 91
        1
 62
     0
 92
       -2
340
0
 93
        0
 40
0.045
309
GRIDFORMAT_END
 95
        4
302
GRIDFORMAT
  1
GRIDFORMAT_BEGIN
 90
        0
 91
        1
 62
     0
 92
       -2
340
0
 93
        0
 40
0.045
309
GRIDFORMAT_END
 95
        8
302
GRIDFORMAT
  1
GRIDFORMAT_BEGIN
 90
        0
 91
        1
 62
     0
 92
       -2
340
0
 93
        0
 40
0.045
309
GRIDFORMAT_END
 95
       16
302
GRIDFORMAT
  1
GRIDFORMAT_BEGIN
 90
        0
 91
        1
 62
     0
 92
       -2
340
0
 93
        0
 40
0.045
309
GRIDFORMAT_END
 95
       32
302
GRIDFORMAT
  1
GRIDFORMAT_BEGIN
 90
        0
 91
        1
 62
     0
 92
       -2
340
0
 93
        0
 40
0.045
309
GRIDFORMAT_END
309
TABLEFORMAT_END
  1
CELLSTYLE_BEGIN
 90
        3
 91
        2
300
_DATA
309
CELLSTYLE_END
  0
ENDSEC
  0
EOF
