  0
SECTION
  2
HEADER
  9
$ACADVER
  1
AC1015
  9
$ACADMAINTVER
 70
    20
  9
$DWGCODEPAGE
  3
ANSI_936
  9
$INSBASE
 10
0.0
 20
0.0
 30
0.0
  9
$EXTMIN
 10
375.5562134814872
 20
184.529655967694
 30
-0.0015258207003583
  9
$EXTMAX
 10
672.6652799046124
 20
394.5792560126008
 30
0.0000000349246037
  9
$LIMMIN
 10
0.0
 20
0.0
  9
$LIMMAX
 10
12.0
 20
9.0
  9
$ORTHOMODE
 70
     0
  9
$REGENMODE
 70
     1
  9
$FILLMODE
 70
     1
  9
$QTEXTMODE
 70
     0
  9
$MIRRTEXT
 70
     1
  9
$LTSCALE
 40
1.0
  9
$ATTMODE
 70
     1
  9
$TEXTSIZE
 40
0.2
  9
$TRACEWID
 40
0.05
  9
$TEXTSTYLE
  7
Standard
  9
$CLAYER
  8
DIM
  9
$CELTYPE
  6
ByLayer
  9
$CECOLOR
 62
   256
  9
$CELTSCALE
 40
1.0
  9
$DISPSILH
 70
     0
  9
$DIMSCALE
 40
1.0
  9
$DIMASZ
 40
3.0
  9
$DIMEXO
 40
0.2
  9
$DIMDLI
 40
0.2
  9
$DIMRND
 40
0.0
  9
$DIMDLE
 40
0.0
  9
$DIMEXE
 40
1.199999999999999
  9
$DIMTP
 40
0.0
  9
$DIMTM
 40
0.0
  9
$DIMTXT
 40
3.5
  9
$DIMCEN
 40
0.0
  9
$DIMTSZ
 40
0.0
  9
$DIMTOL
 70
     0
  9
$DIMLIM
 70
     0
  9
$DIMTIH
 70
     0
  9
$DIMTOH
 70
     0
  9
$DIMSE1
 70
     0
  9
$DIMSE2
 70
     0
  9
$DIMTAD
 70
     1
  9
$DIMZIN
 70
     8
  9
$DIMBLK
  1

  9
$DIMASO
 70
     1
  9
$DIMSHO
 70
     1
  9
$DIMPOST
  1

  9
$DIMAPOST
  1

  9
$DIMALT
 70
     0
  9
$DIMALTD
 70
     2
  9
$DIMALTF
 40
25.4
  9
$DIMLFAC
 40
1.0
  9
$DIMTOFL
 70
     0
  9
$DIMTVP
 40
0.0
  9
$DIMTIX
 70
     0
  9
$DIMSOXD
 70
     0
  9
$DIMSAH
 70
     0
  9
$DIMBLK1
  1

  9
$DIMBLK2
  1

  9
$DIMSTYLE
  2
01
  9
$DIMCLRD
 70
     1
  9
$DIMCLRE
 70
     6
  9
$DIMCLRT
 70
     4
  9
$DIMTFAC
 40
1.0
  9
$DIMGAP
 40
0.8
  9
$DIMJUST
 70
     0
  9
$DIMSD1
 70
     0
  9
$DIMSD2
 70
     0
  9
$DIMTOLJ
 70
     1
  9
$DIMTZIN
 70
     0
  9
$DIMALTZ
 70
     0
  9
$DIMALTTZ
 70
     0
  9
$DIMUPT
 70
     0
  9
$DIMDEC
 70
     1
  9
$DIMTDEC
 70
     1
  9
$DIMALTU
 70
     2
  9
$DIMALTTD
 70
     2
  9
$DIMTXSTY
  7
Romans字体
  9
$DIMAUNIT
 70
     0
  9
$DIMADEC
 70
     2
  9
$DIMALTRND
 40
0.0
  9
$DIMAZIN
 70
     2
  9
$DIMDSEP
 70
    46
  9
$DIMATFIT
 70
     3
  9
$DIMFRAC
 70
     0
  9
$DIMLDRBLK
  1

  9
$DIMLUNIT
 70
     2
  9
$DIMLWD
 70
    -2
  9
$DIMLWE
 70
    -2
  9
$DIMTMOVE
 70
     0
  9
$LUNITS
 70
     2
  9
$LUPREC
 70
     4
  9
$SKETCHINC
 40
0.1
  9
$FILLETRAD
 40
0.5
  9
$AUNITS
 70
     0
  9
$AUPREC
 70
     0
  9
$MENU
  1
.
  9
$ELEVATION
 40
0.0
  9
$PELEVATION
 40
0.0
  9
$THICKNESS
 40
0.0
  9
$LIMCHECK
 70
     0
  9
$CHAMFERA
 40
0.5
  9
$CHAMFERB
 40
0.5
  9
$CHAMFERC
 40
1.0
  9
$CHAMFERD
 40
0.0
  9
$SKPOLY
 70
     0
  9
$TDCREATE
 40
2456524.383632987
  9
$TDUCREATE
 40
2456524.050299653
  9
$TDUPDATE
 40
2460323.718979896
  9
$TDUUPDATE
 40
2460323.385646563
  9
$TDINDWG
 40
0.8900139352
  9
$TDUSRTIMER
 40
0.8899951157
  9
$USRTIMER
 70
     1
  9
$ANGBASE
 50
0.0
  9
$ANGDIR
 70
     0
  9
$PDMODE
 70
     0
  9
$PDSIZE
 40
0.0
  9
$PLINEWID
 40
0.0
  9
$SPLFRAME
 70
     0
  9
$SPLINETYPE
 70
     6
  9
$SPLINESEGS
 70
     8
  9
$HANDSEED
  5
149DB
  9
$SURFTAB1
 70
     6
  9
$SURFTAB2
 70
     6
  9
$SURFTYPE
 70
     6
  9
$SURFU
 70
     6
  9
$SURFV
 70
     6
  9
$UCSBASE
  2

  9
$UCSNAME
  2

  9
$UCSORG
 10
0.0
 20
0.0
 30
0.0
  9
$UCSXDIR
 10
1.0
 20
0.0
 30
0.0
  9
$UCSYDIR
 10
0.0
 20
1.0
 30
0.0
  9
$UCSORTHOREF
  2

  9
$UCSORTHOVIEW
 70
     0
  9
$UCSORGTOP
 10
0.0
 20
0.0
 30
0.0
  9
$UCSORGBOTTOM
 10
0.0
 20
0.0
 30
0.0
  9
$UCSORGLEFT
 10
0.0
 20
0.0
 30
0.0
  9
$UCSORGRIGHT
 10
0.0
 20
0.0
 30
0.0
  9
$UCSORGFRONT
 10
0.0
 20
0.0
 30
0.0
  9
$UCSORGBACK
 10
0.0
 20
0.0
 30
0.0
  9
$PUCSBASE
  2

  9
$PUCSNAME
  2

  9
$PUCSORG
 10
0.0
 20
0.0
 30
0.0
  9
$PUCSXDIR
 10
1.0
 20
0.0
 30
0.0
  9
$PUCSYDIR
 10
0.0
 20
1.0
 30
0.0
  9
$PUCSORTHOREF
  2

  9
$PUCSORTHOVIEW
 70
     0
  9
$PUCSORGTOP
 10
0.0
 20
0.0
 30
0.0
  9
$PUCSORGBOTTOM
 10
0.0
 20
0.0
 30
0.0
  9
$PUCSORGLEFT
 10
0.0
 20
0.0
 30
0.0
  9
$PUCSORGRIGHT
 10
0.0
 20
0.0
 30
0.0
  9
$PUCSORGFRONT
 10
0.0
 20
0.0
 30
0.0
  9
$PUCSORGBACK
 10
0.0
 20
0.0
 30
0.0
  9
$USERI1
 70
     0
  9
$USERI2
 70
     0
  9
$USERI3
 70
     0
  9
$USERI4
 70
     0
  9
$USERI5
 70
     0
  9
$USERR1
 40
0.0
  9
$USERR2
 40
0.0
  9
$USERR3
 40
0.0
  9
$USERR4
 40
0.0
  9
$USERR5
 40
0.0
  9
$WORLDVIEW
 70
     1
  9
$SHADEDGE
 70
     3
  9
$SHADEDIF
 70
    70
  9
$TILEMODE
 70
     1
  9
$MAXACTVP
 70
    64
  9
$PINSBASE
 10
0.0
 20
0.0
 30
0.0
  9
$PLIMCHECK
 70
     0
  9
$PEXTMIN
 10
1.000000000000000E+20
 20
1.000000000000000E+20
 30
1.000000000000000E+20
  9
$PEXTMAX
 10
-1.000000000000000E+20
 20
-1.000000000000000E+20
 30
-1.000000000000000E+20
  9
$PLIMMIN
 10
0.0
 20
0.0
  9
$PLIMMAX
 10
12.0
 20
9.0
  9
$UNITMODE
 70
     0
  9
$VISRETAIN
 70
     1
  9
$PLINEGEN
 70
     0
  9
$PSLTSCALE
 70
     1
  9
$TREEDEPTH
 70
  3020
  9
$CMLSTYLE
  2
Standard
  9
$CMLJUST
 70
     0
  9
$CMLSCALE
 40
1.0
  9
$PROXYGRAPHICS
 70
     1
  9
$MEASUREMENT
 70
     0
  9
$CELWEIGHT
370
    -1
  9
$ENDCAPS
280
     0
  9
$JOINSTYLE
280
     0
  9
$LWDISPLAY
290
     0
  9
$INSUNITS
 70
     4
  9
$HYPERLINKBASE
  1

  9
$STYLESHEET
  1
monochrome.ctb
  9
$XEDIT
290
     1
  9
$CEPSNTYPE
380
     0
  9
$PSTYLEMODE
290
     1
  9
$FINGERPRINTGUID
  2
{4A02065B-8BB3-4A96-9036-502DC906C165}
  9
$VERSIONGUID
  2
{0967FA34-2D5F-4B9D-B069-861DA2C06332}
  9
$EXTNAMES
290
     1
  9
$PSVPSCALE
 40
0.0
  9
$OLESTARTUP
290
     0
  0
ENDSEC
  0
SECTION
  2
CLASSES
  0
CLASS
  1
ACDBDICTIONARYWDFLT
  2
AcDbDictionaryWithDefault
  3
ObjectDBX Classes
 90
        0
280
     0
281
     0
  0
CLASS
  1
VISUALSTYLE
  2
AcDbVisualStyle
  3
ObjectDBX Classes
 90
     4095
280
     0
281
     0
  0
CLASS
  1
MATERIAL
  2
AcDbMaterial
  3
ObjectDBX Classes
 90
     1153
280
     0
281
     0
  0
CLASS
  1
TABLESTYLE
  2
AcDbTableStyle
  3
ObjectDBX Classes
 90
     4095
280
     0
281
     0
  0
CLASS
  1
SCALE
  2
AcDbScale
  3
ObjectDBX Classes
 90
     1153
280
     0
281
     0
  0
CLASS
  1
MLEADERSTYLE
  2
AcDbMLeaderStyle
  3
ACDB_MLEADERSTYLE_CLASS
 90
     4095
280
     0
281
     0
  0
CLASS
  1
CELLSTYLEMAP
  2
AcDbCellStyleMap
  3
ObjectDBX Classes
 90
     1152
280
     0
281
     0
  0
CLASS
  1
DICTIONARYVAR
  2
AcDbDictionaryVar
  3
ObjectDBX Classes
 90
        0
280
     0
281
     0
  0
CLASS
  1
SORTENTSTABLE
  2
AcDbSortentsTable
  3
ObjectDBX Classes
 90
        0
280
     0
281
     0
  0
CLASS
  1
ACAD_EVALUATION_GRAPH
  2
AcDbEvalGraph
  3
ObjectDBX Classes
 90
     1153
280
     0
281
     0
  0
CLASS
  1
ACAECUSTOBJ
  2
AcAeEditorObj
  3
AcAeEditorObj
 90
     1024
280
     0
281
     0
  0
CLASS
  1
ACDB_DYNAMICBLOCKPURGEPREVENTER_VERSION
  2
AcDbDynamicBlockPurgePreventer
  3
ObjectDBX Classes
 90
     1153
280
     0
281
     0
  0
CLASS
  1
MENTALRAYRENDERSETTINGS
  2
AcDbMentalRayRenderSettings
  3
SCENEOE
 90
     1024
280
     0
281
     0
  0
CLASS
  1
ACDB_BLOCKREPRESENTATION_DATA
  2
AcDbBlockRepresentationData
  3
ObjectDBX Classes
 90
    33921
280
     0
281
     0
  0
CLASS
  1
DIMASSOC
  2
AcDbDimAssoc
  3
"AcDbDimAssoc|Product Desc:     AcDim ARX App For Dimension|Company:          Autodesk, Inc.|WEB Address:      www.autodesk.com"
 90
    32768
280
     0
281
     0
  0
CLASS
  1
ACDBPLACEHOLDER
  2
AcDbPlaceHolder
  3
ObjectDBX Classes
 90
        0
280
     0
281
     0
  0
CLASS
  1
LAYOUT
  2
AcDbLayout
  3
ObjectDBX Classes
 90
        0
280
     0
281
     0
  0
ENDSEC
  0
SECTION
  2
TABLES
  0
TABLE
  2
VPORT
  5
8
102
{ACAD_XDICTIONARY
360
50EE
102
}
330
0
100
AcDbSymbolTable
 70
     1
  0
VPORT
  5
29
330
8
100
AcDbSymbolTableRecord
100
AcDbViewportTableRecord
  2
*Active
 70
     0
 10
0.0
 20
0.0
 11
1.0
 21
1.0
 12
261.9276256004059
 22
121.4000701353628
 13
0.0
 23
0.0
 14
0.5
 24
0.5
 15
0.5
 25
0.5
 16
0.0
 26
0.0
 36
1.0
 17
104.9654968719086
 27
148.5022307685978
 37
0.0
 40
370.8730039030871
 41
2.087847730600292
 42
50.0
 43
0.0
 44
0.0
 50
0.0
 51
0.0
 71
     0
 72
   100
 73
     1
 74
     3
 75
     0
 76
     0
 77
     0
 78
     0
281
     0
 65
     1
110
0.0
120
0.0
130
0.0
111
1.0
121
0.0
131
0.0
112
0.0
122
1.0
132
0.0
 79
     0
146
0.0
  0
ENDTAB
  0
TABLE
  2
LTYPE
  5
5
330
0
100
AcDbSymbolTable
 70
     1
  0
LTYPE
  5
14
330
5
100
AcDbSymbolTableRecord
100
AcDbLinetypeTableRecord
  2
ByBlock
 70
     0
  3

 72
    65
 73
     0
 40
0.0
  0
LTYPE
  5
15
330
5
100
AcDbSymbolTableRecord
100
AcDbLinetypeTableRecord
  2
ByLayer
 70
     0
  3

 72
    65
 73
     0
 40
0.0
  0
LTYPE
  5
16
330
5
100
AcDbSymbolTableRecord
100
AcDbLinetypeTableRecord
  2
Continuous
 70
     0
  3
Solid line
 72
    65
 73
     0
 40
0.0
  0
ENDTAB
  0
TABLE
  2
LAYER
  5
2
102
{ACAD_XDICTIONARY
360
50B8
102
}
330
0
100
AcDbSymbolTable
 70
     7
  0
LAYER
  5
10
102
{ACAD_XDICTIONARY
360
50D0
102
}
330
2
100
AcDbSymbolTableRecord
100
AcDbLayerTableRecord
  2
0
 70
     0
 62
     7
  6
Continuous
370
    30
390
F
  0
LAYER
  5
3B
102
{ACAD_XDICTIONARY
360
50D2
102
}
330
2
100
AcDbSymbolTableRecord
100
AcDbLayerTableRecord
  2
图层 1
 70
     0
 62
     7
  6
Continuous
370
    -3
390
F
  0
LAYER
  5
50AE
102
{ACAD_XDICTIONARY
360
50AF
102
}
330
2
100
AcDbSymbolTableRecord
100
AcDbLayerTableRecord
  2
图框
 70
     0
 62
     7
  6
Continuous
370
    20
390
F
  0
LAYER
  5
5141
330
2
100
AcDbSymbolTableRecord
100
AcDbLayerTableRecord
  2
Defpoints
 70
     0
 62
     7
  6
Continuous
290
     0
370
    -3
390
F
  0
LAYER
  5
5144
330
2
100
AcDbSymbolTableRecord
100
AcDbLayerTableRecord
  2
DIM
 70
     0
 62
     3
  6
Continuous
370
    15
390
F
1001
AcAecLayerStandard
1000

1000

  0
LAYER
  5
52F3
330
2
100
AcDbSymbolTableRecord
100
AcDbLayerTableRecord
  2
打标文字
 70
     0
 62
     3
  6
Continuous
370
    20
390
F
  0
LAYER
  5
1339C
102
{ACAD_XDICTIONARY
360
1339D
102
}
330
2
100
AcDbSymbolTableRecord
100
AcDbLayerTableRecord
  2
Hat
 70
     0
 62
     6
  6
Continuous
370
    13
390
F
  0
ENDTAB
  0
TABLE
  2
STYLE
  5
3
330
0
100
AcDbSymbolTable
 70
     6
  0
STYLE
  5
11
330
3
100
AcDbSymbolTableRecord
100
AcDbTextStyleTableRecord
  2
Standard
 70
     0
 40
0.0
 41
0.75
 50
0.0
 71
     0
 42
0.2
  3

  4

1001
ACAD
1000
仿宋_GB2312
1071
    34353
  0
STYLE
  5
FD48
330
3
100
AcDbSymbolTableRecord
100
AcDbTextStyleTableRecord
  2
Romans字体
 70
     0
 40
0.0
 41
0.75
 50
0.0
 71
     0
 42
0.2
  3
romans.shx
  4

  0
STYLE
  5
11080
330
3
100
AcDbSymbolTableRecord
100
AcDbTextStyleTableRecord
  2
工程字
 70
     0
 40
0.0
 41
1.0
 50
0.0
 71
     0
 42
3.5
  3
gbenor.shx
  4
gbcbig.shx
  0
STYLE
  5
11081
330
3
100
AcDbSymbolTableRecord
100
AcDbTextStyleTableRecord
  2
Chinese
 70
     0
 40
0.0
 41
1.0
 50
0.0
 71
     0
 42
2.5
  3
PMingLiU.ttf
  4

1001
ACAD
1000
PMingLiU
1071
    34834
  0
STYLE
  5
133A1
330
3
100
AcDbSymbolTableRecord
100
AcDbTextStyleTableRecord
  2
数字标
 70
     0
 40
2.6
 41
0.75
 50
0.0
 71
     0
 42
3.0
  3
romand.shx
  4
spec_sl.shx
  0
ENDTAB
  0
TABLE
  2
VIEW
  5
6
330
0
100
AcDbSymbolTable
 70
     0
  0
ENDTAB
  0
TABLE
  2
UCS
  5
7
330
0
100
AcDbSymbolTable
 70
     0
  0
ENDTAB
  0
TABLE
  2
APPID
  5
9
330
0
100
AcDbSymbolTable
 70
    17
  0
APPID
  5
12
330
9
100
AcDbSymbolTableRecord
100
AcDbRegAppTableRecord
  2
ACAD
 70
     0
  0
APPID
  5
5024
330
9
100
AcDbSymbolTableRecord
100
AcDbRegAppTableRecord
  2
ACAD_MLEADERVER
 70
     0
  0
APPID
  5
50B5
330
9
100
AcDbSymbolTableRecord
100
AcDbRegAppTableRecord
  2
AcDbDynamicBlockGUID
 70
     0
  0
APPID
  5
50B6
330
9
100
AcDbSymbolTableRecord
100
AcDbRegAppTableRecord
  2
AcDbBlockRepETag
 70
     0
  0
APPID
  5
50B7
330
9
100
AcDbSymbolTableRecord
100
AcDbRegAppTableRecord
  2
ACAD_PSEXT
 70
     0
  0
APPID
  5
50CF
330
9
100
AcDbSymbolTableRecord
100
AcDbRegAppTableRecord
  2
AcadAnnoPO
 70
     0
  0
APPID
  5
5146
330
9
100
AcDbSymbolTableRecord
100
AcDbRegAppTableRecord
  2
AcAecLayerStandard
 70
     0
  0
APPID
  5
5147
330
9
100
AcDbSymbolTableRecord
100
AcDbRegAppTableRecord
  2
ACAD_DSTYLE_DIMJAG
 70
     0
  0
APPID
  5
5148
330
9
100
AcDbSymbolTableRecord
100
AcDbRegAppTableRecord
  2
ACAD_DSTYLE_DIMTALN
 70
     0
  0
APPID
  5
52AD
330
9
100
AcDbSymbolTableRecord
100
AcDbRegAppTableRecord
  2
ACAUTHENVIRON
 70
     0
  0
APPID
  5
52B0
330
9
100
AcDbSymbolTableRecord
100
AcDbRegAppTableRecord
  2
AcDbDynamicBlockTrueName
 70
     0
  0
APPID
  5
67C6
330
9
100
AcDbSymbolTableRecord
100
AcDbRegAppTableRecord
  2
ACAD_EXEMPT_FROM_CAD_STANDARDS
 70
     0
  0
APPID
  5
6838
330
9
100
AcDbSymbolTableRecord
100
AcDbRegAppTableRecord
  2
ACAD_NAV_VCDISPLAY
 70
     0
  0
APPID
  5
70A9
330
9
100
AcDbSymbolTableRecord
100
AcDbRegAppTableRecord
  2
DCO15
 70
     0
  0
APPID
  5
8725
330
9
100
AcDbSymbolTableRecord
100
AcDbRegAppTableRecord
  2
AcDbBlockRepBTag
 70
     0
  0
APPID
  5
FE64
330
9
100
AcDbSymbolTableRecord
100
AcDbRegAppTableRecord
  2
ACAD_DSTYLE_DIMRADIAL_EXTENSION
 70
     0
  0
APPID
  5
FF93
330
9
100
AcDbSymbolTableRecord
100
AcDbRegAppTableRecord
  2
ACAD_DSTYLE_DIMBREAK
 70
     0
  0
ENDTAB
  0
TABLE
  2
DIMSTYLE
  5
A
330
0
100
AcDbSymbolTable
 70
     3
100
AcDbDimStyleTable
 71
     2
340
5145
340
27
  0
DIMSTYLE
105
27
330
A
100
AcDbSymbolTableRecord
100
AcDbDimStyleTableRecord
  2
Standard
 70
     0
340
11
  0
DIMSTYLE
105
5145
102
{ACAD_REACTORS
330
14797
330
147A4
330
147B1
102
}
330
A
100
AcDbSymbolTableRecord
100
AcDbDimStyleTableRecord
  2
01
 70
     0
 41
3.0
 42
0.2
 43
0.2
 44
1.199999999999999
 73
     0
 74
     0
 77
     1
 78
     8
 79
     2
140
3.5
141
0.0
147
0.8
176
     1
177
     6
178
     4
179
     2
271
     1
272
     1
340
FD48
1001
ACAD_DSTYLE_DIMJAG
1070
   388
1040
1.5
1001
ACAD_DSTYLE_DIMTALN
1070
   392
1070
     0
  0
ENDTAB
  0
TABLE
  2
BLOCK_RECORD
  5
1
330
0
100
AcDbSymbolTable
 70
     7
  0
BLOCK_RECORD
  5
1F
102
{ACAD_XDICTIONARY
360
67C0
102
}
330
1
100
AcDbSymbolTableRecord
100
AcDbBlockTableRecord
  2
*Model_Space
340
22
  0
BLOCK_RECORD
  5
1B
330
1
100
AcDbSymbolTableRecord
100
AcDbBlockTableRecord
  2
*Paper_Space
340
1E
  0
BLOCK_RECORD
  5
23
330
1
100
AcDbSymbolTableRecord
100
AcDbBlockTableRecord
  2
*Paper_Space0
340
26
  0
BLOCK_RECORD
  5
10FE8
102
{ACAD_XDICTIONARY
360
14984
102
}
330
1
100
AcDbSymbolTableRecord
100
AcDbBlockTableRecord
  2
A4图框-NEW
340
0
310
2800000020000000200000000100080000000000000400000000000000000000000000000000000000000000000080000080000000808000800000008000800080800000C0C0C000C0DCC000F0CAA6000020400000206000002080000020A0000020C0000020E00000400000004020000040400000406000004080000040A0
310
000040C0000040E00000600000006020000060400000606000006080000060A0000060C0000060E00000800000008020000080400000806000008080000080A0000080C0000080E00000A0000000A0200000A0400000A0600000A0800000A0A00000A0C00000A0E00000C0000000C0200000C0400000C0600000C0800000C0
310
A00000C0C00000C0E00000E0000000E0200000E0400000E0600000E0800000E0A00000E0C00000E0E00040000000400020004000400040006000400080004000A0004000C0004000E00040200000402020004020400040206000402080004020A0004020C0004020E000404000004040200040404000404060004040800040
310
40A0004040C0004040E00040600000406020004060400040606000406080004060A0004060C0004060E00040800000408020004080400040806000408080004080A0004080C0004080E00040A0000040A0200040A0400040A0600040A0800040A0A00040A0C00040A0E00040C0000040C0200040C0400040C0600040C08000
310
40C0A00040C0C00040C0E00040E0000040E0200040E0400040E0600040E0800040E0A00040E0C00040E0E00080000000800020008000400080006000800080008000A0008000C0008000E00080200000802020008020400080206000802080008020A0008020C0008020E00080400000804020008040400080406000804080
310
008040A0008040C0008040E00080600000806020008060400080606000806080008060A0008060C0008060E00080800000808020008080400080806000808080008080A0008080C0008080E00080A0000080A0200080A0400080A0600080A0800080A0A00080A0C00080A0E00080C0000080C0200080C0400080C0600080C0
310
800080C0A00080C0C00080C0E00080E0000080E0200080E0400080E0600080E0800080E0A00080E0C00080E0E000C0000000C0002000C0004000C0006000C0008000C000A000C000C000C000E000C0200000C0202000C0204000C0206000C0208000C020A000C020C000C020E000C0400000C0402000C0404000C0406000C0
310
408000C040A000C040C000C040E000C0600000C0602000C0604000C0606000C0608000C060A000C060C000C060E000C0800000C0802000C0804000C0806000C0808000C080A000C080C000C080E000C0A00000C0A02000C0A04000C0A06000C0A08000C0A0A000C0A0C000C0A0E000C0C00000C0C02000C0C04000C0C06000
310
C0C08000C0C0A000F0FBFF00A4A0A000808080000000FF0000FF000000FFFF00FF000000FF00FF00FFFF0000FFFFFF0000000000000000000000000000000000000000000000000000000000000000000000000000000000000000000000000000000000000000000000000000000000000000000000000000000000000000
310
000000000000000000000000000000000000000000000000000000000000000000000000000000000000000000000000000000000000000000000000000000000000000000000000000000000000000000000000000000000000000000000000000000000000000000000000000000000000F9F9F9F9F9F9F9F9F9F9F9F9F9
310
F9F9F9F9F9F9F9F9F9F9F9F9F9F9FF00000000F9FF000000000000000000FFFFFFFFFFFFFFFFFFFFFFFFF9FAFAFAFF00000000F9FF000000000000000000FFFFFFFFFFFFFFFFFFFFFFFFFFFFFFFFFF00000000F9FD000000000000000000FFFFFFFFFFFFFFFFFFFFFFFFFFFFFFFFFF00000000F9FF000000000000000000FF
310
FFFFFFFFFFFFFFFFFFFFFFFFFFFFFFFF00000000F9FD000000000000000000FFFFFFFFFFFFFFFFFFFFFFFFFFFFFFFFFF00000000F9FF00000000000000000000000000000000000000000000000000FF00000000F9FD00000000000000000000000000000000000000000000000000FF00000000F9FF000000000000000000
310
00000000000000000000000000000000FF00000000F9FD00000000000000000000000000000000000000000000000000FF00000000F9FF00000000000000000000000000000000000000000000000000FF00000000F9FD00000000000000000000000000000000000000000000000000FF00000000F9FD0000000000000000
310
0000000000000000000000000000000000FF00000000F9FF00000000000000000000000000000000000000000000000000FF00000000F9FD00000000000000000000000000000000000000000000000000FF00000000F9FF00000000000000000000000000000000000000000000000000FF00000000F9FD00000000000000
310
000000000000000000000000000000000000FF00000000F9FF00000000000000000000000000000000000000000000000000FF00000000F9FFFFFFFFFFFFFFFFFFFFFFFFFFFFFFFFFFFFFFFFFFFFFFFFFFFFFF00000000F9FFFFFFF9F9F9F9F9F9F9F9F9F9F9F9F9F9F9F9F9F9F9F9F9F9F9F9000000000000000000000000
310
00000000000000000000000000000000000000000000000000000000000000000000000000000000000000000000000000000000000000000000000000000000000000000000000000000000000000000000000000000000000000000000000000000000000000000000000000000000000000000000000000000000000000
310
0000000000000000000000000000000000000000000000000000000000000000000000000000000000000000000000000000000000000000
102
{BLKREFS
331
11089
102
}
1001
AcDbDynamicBlockGUID
1000
{7BA07EF6-16A1-468B-BB77-504E5EBBBE24}
1001
AcDbBlockRepETag
1070
     1
1071
      149
1001
ACAD
1000
DesignCenter Data
1002
{
1070
     1
1070
     4
1002
}
  0
BLOCK_RECORD
  5
14798
330
1
100
AcDbSymbolTableRecord
100
AcDbBlockTableRecord
  2
*D2
340
0
  0
BLOCK_RECORD
  5
147A5
330
1
100
AcDbSymbolTableRecord
100
AcDbBlockTableRecord
  2
*D3
340
0
  0
BLOCK_RECORD
  5
147B2
330
1
100
AcDbSymbolTableRecord
100
AcDbBlockTableRecord
  2
*D4
340
0
  0
ENDTAB
  0
ENDSEC
  0
SECTION
  2
BLOCKS
  0
BLOCK
  5
20
330
1F
100
AcDbEntity
  8
0
100
AcDbBlockBegin
  2
*Model_Space
 70
     0
 10
0.0
 20
0.0
 30
0.0
  3
*Model_Space
  1

  0
ENDBLK
  5
21
330
1F
100
AcDbEntity
  8
0
100
AcDbBlockEnd
  0
BLOCK
  5
1C
330
1B
100
AcDbEntity
 67
     1
  8
0
100
AcDbBlockBegin
  2
*Paper_Space
 70
     0
 10
0.0
 20
0.0
 30
0.0
  3
*Paper_Space
  1

  0
ENDBLK
  5
1D
330
1B
100
AcDbEntity
 67
     1
  8
0
100
AcDbBlockEnd
  0
BLOCK
  5
24
330
23
100
AcDbEntity
 67
     1
  8
0
100
AcDbBlockBegin
  2
*Paper_Space0
 70
     0
 10
0.0
 20
0.0
 30
0.0
  3
*Paper_Space0
  1

  0
ENDBLK
  5
25
330
23
100
AcDbEntity
 67
     1
  8
0
100
AcDbBlockEnd
  0
BLOCK
  5
10FEA
330
10FE8
100
AcDbEntity
  8
0
100
AcDbBlockBegin
  2
A4图框-NEW
 70
     0
 10
0.0
 20
0.0
 30
0.0
  3
A4图框-NEW
  1

  0
MTEXT
  5
148EF
102
{ACAD_XDICTIONARY
360
14995
102
}
330
10FE8
100
AcDbEntity
  8
图框
 62
     3
100
AcDbMText
 10
967.6594956750133
 20
499.7664151964293
 30
0.0
 40
2.985513575034151
 41
15.50176341157864
 71
     5
 72
     5
  1
BQ LUO
  7
Romans字体
 73
     1
 44
1.0
1001
AcDbBlockRepETag
1070
     1
1071
        0
1005
148EF
1001
ACAD
1000
MTEXTBEGIN
1070
    73
1070
     1
1070
    44
1040
1.0
1070
    74
1070
     0
1000
MTEXTEND
1000
ACAD_MTEXT_DEFINED_HEIGHT_BEGIN
1070
    46
1040
6.292658374511018
1000
ACAD_MTEXT_DEFINED_HEIGHT_END
  0
MTEXT
  5
148F0
330
10FE8
100
AcDbEntity
  8
图框
 62
     3
100
AcDbMText
 10
983.041569333247
 20
499.7664151964293
 30
0.0
 40
2.487927979195124
 41
15.26238390489051
 71
     5
 72
     5
  1
{\W0.7;18.10.2010}
  7
Romans字体
 73
     1
 44
1.0
1001
AcDbBlockRepETag
1070
     1
1071
        1
1005
148F0
1001
ACAD
1000
MTEXTBEGIN
1070
    73
1070
     1
1070
    44
1040
1.0
1070
    74
1070
     0
1000
MTEXTEND
1000
ACAD_MTEXT_DEFINED_HEIGHT_BEGIN
1070
    46
1040
6.292658374511042
1000
ACAD_MTEXT_DEFINED_HEIGHT_END
  0
MTEXT
  5
148F1
330
10FE8
100
AcDbEntity
  8
图框
 62
     3
100
AcDbMText
 10
1012.477254728976
 20
487.1810984474071
 30
0.0
 40
2.985513575034151
 41
17.64876416884615
 71
     5
 72
     5
  1
YY LIN
  7
Romans字体
 73
     1
 44
1.0
1001
AcDbBlockRepETag
1070
     1
1071
        2
1005
148F1
1001
ACAD
1000
MTEXTBEGIN
1070
    73
1070
     1
1070
    44
1040
1.0
1070
    74
1070
     0
1000
MTEXTEND
1000
ACAD_MTEXT_DEFINED_HEIGHT_BEGIN
1070
    46
1040
6.292658374511455
1000
ACAD_MTEXT_DEFINED_HEIGHT_END
  0
MTEXT
  5
148F2
330
10FE8
100
AcDbEntity
  8
图框
 62
     3
100
AcDbMText
 10
1028.977802139886
 20
487.1810984474071
 30
0.0
 40
2.487927979195124
 41
15.35233065297276
 71
     5
 72
     5
  1
{\W0.7;18.10.2010}
  7
Romans字体
 73
     1
 44
1.0
1001
AcDbBlockRepETag
1070
     1
1071
        3
1005
148F2
1001
ACAD
1000
MTEXTBEGIN
1070
    73
1070
     1
1070
    44
1040
1.0
1070
    74
1070
     0
1000
MTEXTEND
1000
ACAD_MTEXT_DEFINED_HEIGHT_BEGIN
1070
    46
1040
6.292658374511495
1000
ACAD_MTEXT_DEFINED_HEIGHT_END
  0
MTEXT
  5
148F3
330
10FE8
100
AcDbEntity
  8
图框
 62
     3
100
AcDbMText
 10
1063.722665487208
 20
525.4145966538831
 30
0.0
 40
2.985513575034151
 41
32.4973914334545
 71
     5
 72
     5
  1
-
  7
Romans字体
 73
     1
 44
1.0
1001
AcDbBlockRepETag
1070
     1
1071
        4
1005
148F3
1001
ACAD
1000
MTEXTBEGIN
1070
    73
1070
     1
1070
    44
1040
1.0
1070
    74
1070
     0
1000
MTEXTEND
1000
ACAD_MTEXT_DEFINED_HEIGHT_BEGIN
1070
    46
1040
11.82914190181707
1000
ACAD_MTEXT_DEFINED_HEIGHT_END
  0
MTEXT
  5
148F4
330
10FE8
100
AcDbEntity
  8
图框
 62
     3
100
AcDbMText
 10
1063.727338552349
 20
513.5854547520641
 30
0.0
 40
2.985513575034151
 41
32.48804530317308
 71
     5
 72
     5
  1
-
  7
Romans字体
 73
     1
 44
1.0
1001
AcDbBlockRepETag
1070
     1
1071
        5
1005
148F4
1001
ACAD
1000
MTEXTBEGIN
1070
    73
1070
     1
1070
    44
1040
1.0
1070
    74
1070
     0
1000
MTEXTEND
1000
ACAD_MTEXT_DEFINED_HEIGHT_BEGIN
1070
    46
1040
11.82914190182139
1000
ACAD_MTEXT_DEFINED_HEIGHT_END
  0
MTEXT
  5
148F5
330
10FE8
100
AcDbEntity
  8
图框
 62
     3
100
AcDbMText
 10
1110.122306614152
 20
526.8006839312707
 30
0.0
 40
2.985513575034151
 41
33.61239199242139
 71
     5
 72
     5
  1
-
  7
Romans字体
 73
     1
 44
1.0
1001
AcDbBlockRepETag
1070
     1
1071
        6
1005
148F5
1001
ACAD
1000
MTEXTBEGIN
1070
    73
1070
     1
1070
    44
1040
1.0
1070
    74
1070
     0
1000
MTEXTEND
1000
ACAD_MTEXT_DEFINED_HEIGHT_BEGIN
1070
    46
1040
9.05696734704178
1000
ACAD_MTEXT_DEFINED_HEIGHT_END
  0
MTEXT
  5
148F6
330
10FE8
100
AcDbEntity
  8
图框
 62
     3
100
AcDbMText
 10
1110.122306614152
 20
500.2775205517162
 30
0.0
 40
2.985513575034151
 41
33.61239199242139
 71
     5
 72
     5
  1
-
  7
Romans字体
 73
     1
 44
1.0
1001
AcDbBlockRepETag
1070
     1
1071
        7
1005
148F6
1001
ACAD
1000
MTEXTBEGIN
1070
    73
1070
     1
1070
    44
1040
1.0
1070
    74
1070
     0
1000
MTEXTEND
1000
ACAD_MTEXT_DEFINED_HEIGHT_BEGIN
1070
    46
1040
8.871557304763419
1000
ACAD_MTEXT_DEFINED_HEIGHT_END
  0
MTEXT
  5
148F7
330
10FE8
100
AcDbEntity
  8
图框
 62
     3
100
AcDbMText
 10
967.6594956750133
 20
493.4737568219182
 30
0.0
 40
2.985513575034151
 41
15.50176341157864
 71
     5
 72
     5
  1
P RAO
  7
Romans字体
 73
     1
 44
1.0
1001
AcDbBlockRepETag
1070
     1
1071
        8
1005
148F7
1001
ACAD
1000
MTEXTBEGIN
1070
    73
1070
     1
1070
    44
1040
1.0
1070
    74
1070
     0
1000
MTEXTEND
1000
ACAD_MTEXT_DEFINED_HEIGHT_BEGIN
1070
    46
1040
6.292658374510335
1000
ACAD_MTEXT_DEFINED_HEIGHT_END
  0
MTEXT
  5
148F8
330
10FE8
100
AcDbEntity
  8
图框
 62
     3
100
AcDbMText
 10
983.041569333247
 20
493.2441970450405
 30
0.0
 40
2.487927979195124
 41
15.26238390489051
 71
     5
 72
     5
  1
{\W0.7;18.10.2010}
  7
Romans字体
 73
     1
 44
1.0
1001
AcDbBlockRepETag
1070
     1
1071
        9
1005
148F8
1001
ACAD
1000
MTEXTBEGIN
1070
    73
1070
     1
1070
    44
1040
1.0
1070
    74
1070
     0
1000
MTEXTEND
1000
ACAD_MTEXT_DEFINED_HEIGHT_BEGIN
1070
    46
1040
6.751777928266487
1000
ACAD_MTEXT_DEFINED_HEIGHT_END
  0
MTEXT
  5
148F9
330
10FE8
100
AcDbEntity
  8
图框
 62
     3
100
AcDbMText
 10
1012.477254728976
 20
499.7664151964291
 30
0.0
 40
2.985513575034151
 41
17.64876416884615
 71
     5
 72
     5
  1
-
  7
Romans字体
 73
     1
 44
1.0
1001
AcDbBlockRepETag
1070
     1
1071
       10
1005
148F9
1001
ACAD
1000
MTEXTBEGIN
1070
    73
1070
     1
1070
    44
1040
1.0
1070
    74
1070
     0
1000
MTEXTEND
1000
ACAD_MTEXT_DEFINED_HEIGHT_BEGIN
1070
    46
1040
6.292658374511397
1000
ACAD_MTEXT_DEFINED_HEIGHT_END
  0
MTEXT
  5
148FA
330
10FE8
100
AcDbEntity
  8
图框
 62
     3
100
AcDbMText
 10
1028.977802139886
 20
499.7664151964289
 30
0.0
 40
2.487927979195124
 41
15.35233065297265
 71
     5
 72
     5
  1
-
  7
Romans字体
 73
     1
 44
1.0
1001
AcDbBlockRepETag
1070
     1
1071
       11
1005
148FA
1001
ACAD
1000
MTEXTBEGIN
1070
    73
1070
     1
1070
    44
1040
1.0
1070
    74
1070
     0
1000
MTEXTEND
1000
ACAD_MTEXT_DEFINED_HEIGHT_BEGIN
1070
    46
1040
6.292658374511382
1000
ACAD_MTEXT_DEFINED_HEIGHT_END
  0
MTEXT
  5
148FB
330
10FE8
100
AcDbEntity
  8
图框
 62
     3
100
AcDbMText
 10
967.6594956750133
 20
487.1810984474071
 30
0.0
 40
2.985513575034151
 41
15.50176341157863
 71
     5
 72
     5
  1
-
  7
Romans字体
 73
     1
 44
1.0
1001
AcDbBlockRepETag
1070
     1
1071
       12
1005
148FB
1001
ACAD
1000
MTEXTBEGIN
1070
    73
1070
     1
1070
    44
1040
1.0
1070
    74
1070
     0
1000
MTEXTEND
1000
ACAD_MTEXT_DEFINED_HEIGHT_BEGIN
1070
    46
1040
6.292658374511478
1000
ACAD_MTEXT_DEFINED_HEIGHT_END
  0
MTEXT
  5
148FC
330
10FE8
100
AcDbEntity
  8
图框
 62
     3
100
AcDbMText
 10
983.041569333247
 20
487.1810984474071
 30
0.0
 40
2.487927979195124
 41
15.26238390489062
 71
     5
 72
     5
  1
-
  7
Romans字体
 73
     1
 44
1.0
1001
AcDbBlockRepETag
1070
     1
1071
       13
1005
148FC
1001
ACAD
1000
MTEXTBEGIN
1070
    73
1070
     1
1070
    44
1040
1.0
1070
    74
1070
     0
1000
MTEXTEND
1000
ACAD_MTEXT_DEFINED_HEIGHT_BEGIN
1070
    46
1040
6.292658374511495
1000
ACAD_MTEXT_DEFINED_HEIGHT_END
  0
MTEXT
  5
148FD
330
10FE8
100
AcDbEntity
  8
图框
 62
     3
100
AcDbMText
 10
1074.556686986741
 20
495.8417418993361
 30
0.0
 40
2.985513575034151
 41
10.82934843438978
 71
     5
 72
     5
  1
-
  7
Romans字体
 73
     1
 44
1.0
1001
AcDbBlockRepETag
1070
     1
1071
       14
1005
148FD
1001
ACAD
1000
MTEXTBEGIN
1070
    73
1070
     1
1070
    44
1040
1.0
1070
    74
1070
     0
1000
MTEXTEND
1000
ACAD_MTEXT_DEFINED_HEIGHT_BEGIN
1070
    46
1040
7.886094601210427
1000
ACAD_MTEXT_DEFINED_HEIGHT_END
  0
LINE
  5
148FE
330
10FE8
100
AcDbEntity
  8
图框
370
    -3
100
AcDbLine
 10
1036.653967466372
 20
499.7847891999413
 30
0.0
 11
1079.971361203936
 21
499.7847891999413
 31
0.0
1001
AcDbBlockRepETag
1070
     1
1071
       15
1005
148FE
  0
MTEXT
  5
148FF
330
10FE8
100
AcDbEntity
  8
图框
 62
     1
370
    20
100
AcDbMText
 10
1108.26336443907
 20
491.5162596080882
 30
0.0
 40
2.699054613030988
 41
82.30831305643079
 71
     5
 72
     5
  1
{\fSimHei|b0|i0|c134|p2;厦门唯恩电气有限公司}
 73
     1
 44
1.0
1001
AcDbBlockRepETag
1070
     1
1071
       16
1005
148FF
1001
ACAD
1000
MTEXTBEGIN
1070
    73
1070
     1
1070
    44
1040
1.0
1070
    74
1070
     0
1000
MTEXTEND
  0
MTEXT
  5
14900
330
10FE8
100
AcDbEntity
  8
图框
 62
     3
370
    20
100
AcDbMText
 10
1108.435451459908
 20
487.298967726064
 30
0.0
 40
1.652482416141417
 41
68.08558693693567
 71
     5
 72
     5
  1
{\fArial Narrow|b0|i0|c0|p34;XIAMEN WAIN ELECTRICAL CO.LTD}
  7
工程字
 73
     1
 44
1.0
1001
AcDbBlockRepETag
1070
     1
1071
       17
1005
14900
1001
ACAD
1000
MTEXTBEGIN
1070
    73
1070
     1
1070
    44
1040
1.0
1070
    74
1070
     0
1000
MTEXTEND
  0
MTEXT
  5
14901
330
10FE8
100
AcDbEntity
  8
图框
 62
     1
370
    20
100
AcDbMText
 10
1085.711816899387
 20
491.0944802995856
 30
0.0
 40
2.005930044038334
 41
5.047240019334847
 71
     1
 72
     5
  1
{\fArial|b0|i0|c0|p34;A}
  7
Chinese
 73
     1
 44
1.0
1001
AcDbBlockRepETag
1070
     1
1071
       18
1005
14901
1001
ACAD
1000
MTEXTBEGIN
1070
    73
1070
     1
1070
    44
1040
1.0
1070
    74
1070
     0
1000
MTEXTEND
  0
MTEXT
  5
14902
330
10FE8
100
AcDbEntity
  8
图框
 62
     1
370
    20
100
AcDbMText
 10
1088.213485935716
 20
491.0944802995856
 30
0.0
 40
2.005930044038334
 41
5.047240019334847
 71
     1
 72
     5
  1
{\fArial|b0|i0|c0|p34;I}
  7
Chinese
 73
     1
 44
1.0
1001
AcDbBlockRepETag
1070
     1
1071
       19
1005
14902
1001
ACAD
1000
MTEXTBEGIN
1070
    73
1070
     1
1070
    44
1040
1.0
1070
    74
1070
     0
1000
MTEXTEND
  0
MTEXT
  5
14903
330
10FE8
100
AcDbEntity
  8
图框
 62
     1
370
    20
100
AcDbMText
 10
1089.142375222864
 20
491.0822866326808
 30
0.0
 40
2.005930044038334
 41
5.047240019334847
 71
     1
 72
     5
  1
{\fArial|b0|i0|c0|p34;N}
  7
Chinese
 73
     1
 44
1.0
1001
AcDbBlockRepETag
1070
     1
1071
       20
1005
14903
1001
ACAD
1000
MTEXTBEGIN
1070
    73
1070
     1
1070
    44
1040
1.0
1070
    74
1070
     0
1000
MTEXTEND
  0
MTEXT
  5
14904
330
10FE8
100
AcDbEntity
  8
图框
100
AcDbMText
 10
1069.142012769545
 20
487.9667319294409
 30
0.0
 40
2.252848170144607
 41
21.65869686878327
 71
     5
 72
     5
  1
{\W0.5;\C1;All Dimensions in mm\POriginal Size DIN A 4}
  7
Romans字体
 73
     1
 44
1.0
1001
AcDbBlockRepETag
1070
     1
1071
       21
1005
14904
1001
ACAD
1000
MTEXTBEGIN
1070
    73
1070
     1
1070
    44
1040
1.0
1070
    74
1070
     0
1000
MTEXTEND
1000
ACAD_MTEXT_DEFINED_HEIGHT_BEGIN
1070
    46
1040
7.863925338579296
1000
ACAD_MTEXT_DEFINED_HEIGHT_END
  0
MTEXT
  5
14905
330
10FE8
100
AcDbEntity
  8
图框
  6
ByBlock
 62
     6
370
    18
100
AcDbMText
 10
1127.40434942308
 20
508.7896535755975
 30
0.0
 40
2.651776162684904
 41
2.557913877927211
 71
     1
 72
     5
  1
A
  7
Romans字体
 11
0.0000000000000001
 21
1.0
 31
0.0
 73
     1
 44
1.0
1001
AcDbBlockRepETag
1070
     1
1071
       22
1005
14905
1001
ACAD
1000
MTEXTBEGIN
1070
    73
1070
     1
1070
    44
1040
1.0
1070
    74
1070
     0
1000
MTEXTEND
  0
MTEXT
  5
14906
330
10FE8
100
AcDbEntity
  8
图框
 62
     6
100
AcDbMText
 10
1127.40434942308
 20
556.3746573232886
 30
0.0
 40
2.651776162684904
 41
2.557913877927211
 71
     1
 72
     5
  1
B
  7
Romans字体
 11
0.0000000000000001
 21
1.0
 31
0.0
 73
     1
 44
1.0
1001
AcDbBlockRepETag
1070
     1
1071
       23
1005
14906
1001
ACAD
1000
MTEXTBEGIN
1070
    73
1070
     1
1070
    44
1040
1.0
1070
    74
1070
     0
1000
MTEXTEND
  0
MTEXT
  5
14907
330
10FE8
100
AcDbEntity
  8
图框
 62
     6
100
AcDbMText
 10
1127.40434942308
 20
607.5539372630998
 30
0.0
 40
2.651776162684904
 41
2.557913877927211
 71
     1
 72
     5
  1
C
  7
Romans字体
 11
0.0000000000000001
 21
1.0
 31
0.0
 73
     1
 44
1.0
1001
AcDbBlockRepETag
1070
     1
1071
       24
1005
14907
1001
ACAD
1000
MTEXTBEGIN
1070
    73
1070
     1
1070
    44
1040
1.0
1070
    74
1070
     0
1000
MTEXTEND
  0
MTEXT
  5
14908
330
10FE8
100
AcDbEntity
  8
图框
 62
     6
100
AcDbMText
 10
1127.40434942308
 20
658.7332172029115
 30
0.0
 40
2.651776162684904
 41
2.557913877927211
 71
     1
 72
     5
  1
D
  7
Romans字体
 11
0.0000000000000001
 21
1.0
 31
0.0
 73
     1
 44
1.0
1001
AcDbBlockRepETag
1070
     1
1071
       25
1005
14908
1001
ACAD
1000
MTEXTBEGIN
1070
    73
1070
     1
1070
    44
1040
1.0
1070
    74
1070
     0
1000
MTEXTEND
  0
LINE
  5
14909
330
10FE8
100
AcDbEntity
  8
图框
 62
     6
100
AcDbLine
 10
1130.411601781241
 20
634.0726090796082
 30
0.0
 11
1126.928502610363
 21
634.0726090796082
 31
0.0
1001
AcDbBlockRepETag
1070
     1
1071
       26
1005
14909
  0
LINE
  5
1490A
330
10FE8
100
AcDbEntity
  8
图框
 62
     6
100
AcDbLine
 10
1130.411601781241
 20
582.89332913979
 30
0.0
 11
1126.928502610363
 21
582.89332913979
 31
0.0
1001
AcDbBlockRepETag
1070
     1
1071
       27
1005
1490A
  0
MTEXT
  5
1490B
330
10FE8
100
AcDbEntity
  8
图框
 62
     6
100
AcDbMText
 10
1105.329704038389
 20
483.6164543011163
 30
0.0
 40
2.651776162684904
 41
2.557913877927211
 71
     1
 72
     5
  1
6
  7
Romans字体
 73
     1
 44
1.0
1001
AcDbBlockRepETag
1070
     1
1071
       28
1005
1490B
1001
ACAD
1000
MTEXTBEGIN
1070
    73
1070
     1
1070
    44
1040
1.0
1070
    74
1070
     0
1000
MTEXTEND
  0
LINE
  5
1490C
330
10FE8
100
AcDbEntity
  8
图框
 62
     6
100
AcDbLine
 10
1081.088565155284
 20
484.0347692601515
 30
0.0
 11
1081.088565155284
 21
480.5347692601475
 31
0.0
1001
AcDbBlockRepETag
1070
     1
1071
       29
1005
1490C
  0
MTEXT
  5
1490D
330
10FE8
100
AcDbEntity
  8
图框
 62
     6
100
AcDbMText
 10
1055.900596365941
 20
483.520053108993
 30
0.0
 40
2.651776162684904
 41
2.557913877927211
 71
     1
 72
     5
  1
5
  7
Romans字体
 73
     1
 44
1.0
1001
AcDbBlockRepETag
1070
     1
1071
       30
1005
1490D
1001
ACAD
1000
MTEXTBEGIN
1070
    73
1070
     1
1070
    44
1040
1.0
1070
    74
1070
     0
1000
MTEXTEND
  0
LINE
  5
1490E
330
10FE8
100
AcDbEntity
  8
图框
 62
     6
100
AcDbLine
 10
1031.553386436349
 20
484.0347692601515
 30
0.0
 11
1031.553386436349
 21
480.5347692601475
 31
0.0
1001
AcDbBlockRepETag
1070
     1
1071
       31
1005
1490E
  0
MTEXT
  5
1490F
330
10FE8
100
AcDbEntity
  8
图框
 62
     6
100
AcDbMText
 10
1006.383180575197
 20
483.5687958215896
 30
0.0
 40
2.651776162684904
 41
2.557913877927211
 71
     1
 72
     5
  1
4
  7
Romans字体
 73
     1
 44
1.0
1001
AcDbBlockRepETag
1070
     1
1071
       32
1005
1490F
1001
ACAD
1000
MTEXTBEGIN
1070
    73
1070
     1
1070
    44
1040
1.0
1070
    74
1070
     0
1000
MTEXTEND
  0
LINE
  5
14910
330
10FE8
100
AcDbEntity
  8
图框
 62
     6
100
AcDbLine
 10
982.0182077173887
 20
484.0347692601515
 30
0.0
 11
982.0182077173887
 21
480.5347692601475
 31
0.0
1001
AcDbBlockRepETag
1070
     1
1071
       33
1005
14910
  0
MTEXT
  5
14911
330
10FE8
100
AcDbEntity
  8
图框
 62
     6
100
AcDbMText
 10
956.8302389280352
 20
483.5989680297948
 30
0.0
 40
2.651776162684904
 41
2.557913877927211
 71
     1
 72
     5
  1
3
  7
Romans字体
 73
     1
 44
1.0
1001
AcDbBlockRepETag
1070
     1
1071
       34
1005
14911
1001
ACAD
1000
MTEXTBEGIN
1070
    73
1070
     1
1070
    44
1040
1.0
1070
    74
1070
     0
1000
MTEXTEND
  0
LINE
  5
14912
330
10FE8
100
AcDbEntity
  8
图框
 62
     6
100
AcDbLine
 10
932.4830289984245
 20
484.0347692601515
 30
0.0
 11
932.4830289984245
 21
480.5347692601475
 31
0.0
1001
AcDbBlockRepETag
1070
     1
1071
       35
1005
14912
  0
MTEXT
  5
14913
330
10FE8
100
AcDbEntity
  8
图框
 62
     6
100
AcDbMText
 10
906.0252349826365
 20
483.6475250013156
 30
0.0
 40
2.651776162684904
 41
2.557913877927211
 71
     1
 72
     5
  1
2
  7
Romans字体
 73
     1
 44
1.0
1001
AcDbBlockRepETag
1070
     1
1071
       36
1005
14913
1001
ACAD
1000
MTEXTBEGIN
1070
    73
1070
     1
1070
    44
1040
1.0
1070
    74
1070
     0
1000
MTEXTEND
  0
LINE
  5
14914
330
10FE8
100
AcDbEntity
  8
图框
 62
     6
100
AcDbLine
 10
882.9478502794648
 20
484.0347692601515
 30
0.0
 11
882.9478502794648
 21
480.5347692601475
 31
0.0
1001
AcDbBlockRepETag
1070
     1
1071
       37
1005
14914
  0
MTEXT
  5
14915
330
10FE8
100
AcDbEntity
  8
图框
 62
     6
100
AcDbMText
 10
857.7598814901191
 20
483.651829494754
 30
0.0
 40
2.651776162684904
 41
2.557913877927211
 71
     1
 72
     5
  1
1
  7
Romans字体
 73
     1
 44
1.0
1001
AcDbBlockRepETag
1070
     1
1071
       38
1005
14915
1001
ACAD
1000
MTEXTBEGIN
1070
    73
1070
     1
1070
    44
1040
1.0
1070
    74
1070
     0
1000
MTEXTEND
  0
LINE
  5
14916
330
10FE8
100
AcDbEntity
  8
图框
370
    50
100
AcDbLine
 10
836.8548209370597
 20
484.0347692601515
 30
0.0
 11
1126.928502610363
 21
484.0347692601515
 31
0.0
1001
AcDbBlockRepETag
1070
     1
1071
       39
1005
14916
  0
LINE
  5
14917
330
10FE8
100
AcDbEntity
  8
图框
370
    50
100
AcDbLine
 10
836.9128518455362
 20
484.0178684310246
 30
0.0
 11
836.9128518455394
 21
675.0207195125422
 31
0.0
1001
AcDbBlockRepETag
1070
     1
1071
       40
1005
14917
  0
MTEXT
  5
14918
330
10FE8
100
AcDbEntity
  8
图框
 62
     6
100
AcDbMText
 10
833.8475685789031
 20
658.7332172029115
 30
0.0
 40
2.651776162684904
 41
2.557913877927211
 71
     1
 72
     5
  1
D
  7
Romans字体
 11
0.0000000000000001
 21
1.0
 31
0.0
 73
     1
 44
1.0
1001
AcDbBlockRepETag
1070
     1
1071
       41
1005
14918
1001
ACAD
1000
MTEXTBEGIN
1070
    73
1070
     1
1070
    44
1040
1.0
1070
    74
1070
     0
1000
MTEXTEND
  0
LINE
  5
14919
330
10FE8
100
AcDbEntity
  8
图框
 62
     6
100
AcDbLine
 10
836.9128518455386
 20
634.0726090796082
 30
0.0
 11
833.4128518455365
 21
634.0726090796082
 31
0.0
1001
AcDbBlockRepETag
1070
     1
1071
       42
1005
14919
  0
MTEXT
  5
1491A
330
10FE8
100
AcDbEntity
  8
图框
 62
     6
100
AcDbMText
 10
833.9039177480142
 20
607.5539372630998
 30
0.0
 40
2.651776162684904
 41
2.557913877927211
 71
     1
 72
     5
  1
C
  7
Romans字体
 11
0.0000000000000001
 21
1.0
 31
0.0
 73
     1
 44
1.0
1001
AcDbBlockRepETag
1070
     1
1071
       43
1005
1491A
1001
ACAD
1000
MTEXTBEGIN
1070
    73
1070
     1
1070
    44
1040
1.0
1070
    74
1070
     0
1000
MTEXTEND
  0
LINE
  5
1491B
330
10FE8
100
AcDbEntity
  8
图框
 62
     6
100
AcDbLine
 10
836.9128518455378
 20
582.89332913979
 30
0.0
 11
833.4128518455365
 21
582.89332913979
 31
0.0
1001
AcDbBlockRepETag
1070
     1
1071
       44
1005
1491B
  0
MTEXT
  5
1491C
330
10FE8
100
AcDbEntity
  8
图框
 62
     6
100
AcDbMText
 10
833.9039177480142
 20
556.3746573232886
 30
0.0
 40
2.651776162684904
 41
2.557913877927211
 71
     1
 72
     5
  1
B
  7
Romans字体
 11
0.0000000000000001
 21
1.0
 31
0.0
 73
     1
 44
1.0
1001
AcDbBlockRepETag
1070
     1
1071
       45
1005
1491C
1001
ACAD
1000
MTEXTBEGIN
1070
    73
1070
     1
1070
    44
1040
1.0
1070
    74
1070
     0
1000
MTEXTEND
  0
LINE
  5
1491D
330
10FE8
100
AcDbEntity
  8
图框
 62
     6
100
AcDbLine
 10
836.9128518455367
 20
531.714049199969
 30
0.0
 11
833.4128518455365
 21
531.714049199969
 31
0.0
1001
AcDbBlockRepETag
1070
     1
1071
       46
1005
1491D
  0
MTEXT
  5
1491E
330
10FE8
100
AcDbEntity
  8
图框
 62
     6
100
AcDbMText
 10
833.9039177480142
 20
508.7896535755975
 30
0.0
 40
2.651776162684904
 41
2.557913877927211
 71
     1
 72
     5
  1
A
  7
Romans字体
 11
0.0000000000000001
 21
1.0
 31
0.0
 73
     1
 44
1.0
1001
AcDbBlockRepETag
1070
     1
1071
       47
1005
1491E
1001
ACAD
1000
MTEXTBEGIN
1070
    73
1070
     1
1070
    44
1040
1.0
1070
    74
1070
     0
1000
MTEXTEND
  0
LINE
  5
1491F
330
10FE8
100
AcDbEntity
  8
图框
370
    -3
100
AcDbLine
 10
836.9128518455394
 20
675.0207195125422
 30
0.0
 11
836.9128518455394
 21
684.5021384922564
 31
0.0
1001
AcDbBlockRepETag
1070
     1
1071
       48
1005
1491F
  0
LINE
  5
14920
330
10FE8
100
AcDbEntity
  8
图框
370
    -3
100
AcDbLine
 10
842.6237321475781
 20
675.5347692601515
 30
0.0
 11
842.6237321475781
 21
685.0161882398658
 31
0.0
1001
AcDbBlockRepETag
1070
     1
1071
       49
1005
14920
  0
LINE
  5
14921
330
10FE8
100
AcDbEntity
  8
图框
370
    -3
100
AcDbLine
 10
848.3346124496179
 20
675.5347692601515
 30
0.0
 11
848.3346124496179
 21
685.0161882398658
 31
0.0
1001
AcDbBlockRepETag
1070
     1
1071
       50
1005
14921
  0
LINE
  5
14922
330
10FE8
100
AcDbEntity
  8
图框
370
    -3
100
AcDbLine
 10
854.0454927516588
 20
675.5347692601515
 30
0.0
 11
854.0454927516588
 21
685.0161882398658
 31
0.0
1001
AcDbBlockRepETag
1070
     1
1071
       51
1005
14922
  0
LINE
  5
14923
330
10FE8
100
AcDbEntity
  8
图框
370
    -3
100
AcDbLine
 10
861.5351874539182
 20
675.5347692601515
 30
0.0
 11
861.5351874539182
 21
686.7901958362482
 31
0.0
1001
AcDbBlockRepETag
1070
     1
1071
       52
1005
14923
  0
MTEXT
  5
14924
330
10FE8
100
AcDbEntity
  8
图框
 62
     6
100
AcDbMText
 10
1105.329704038389
 20
678.859919059449
 30
0.0
 40
2.651776162684904
 41
2.557913877927211
 71
     1
 72
     5
  1
6
  7
Romans字体
 73
     1
 44
1.0
1001
AcDbBlockRepETag
1070
     1
1071
       53
1005
14924
1001
ACAD
1000
MTEXTBEGIN
1070
    73
1070
     1
1070
    44
1040
1.0
1070
    74
1070
     0
1000
MTEXTEND
  0
LINE
  5
14925
330
10FE8
100
AcDbEntity
  8
图框
 62
     6
100
AcDbLine
 10
1081.088565155284
 20
679.0347692601516
 30
0.0
 11
1081.088565155284
 21
675.5347692601515
 31
0.0
1001
AcDbBlockRepETag
1070
     1
1071
       54
1005
14925
  0
MTEXT
  5
14926
330
10FE8
100
AcDbEntity
  8
图框
 62
     6
100
AcDbMText
 10
1055.900596365941
 20
678.859919059449
 30
0.0
 40
2.651776162684904
 41
2.557913877927211
 71
     1
 72
     5
  1
5
  7
Romans字体
 73
     1
 44
1.0
1001
AcDbBlockRepETag
1070
     1
1071
       55
1005
14926
1001
ACAD
1000
MTEXTBEGIN
1070
    73
1070
     1
1070
    44
1040
1.0
1070
    74
1070
     0
1000
MTEXTEND
  0
LINE
  5
14927
330
10FE8
100
AcDbEntity
  8
图框
 62
     6
100
AcDbLine
 10
1031.553386436349
 20
679.0347692601516
 30
0.0
 11
1031.553386436349
 21
675.5347692601515
 31
0.0
1001
AcDbBlockRepETag
1070
     1
1071
       56
1005
14927
  0
MTEXT
  5
14928
330
10FE8
100
AcDbEntity
  8
图框
 62
     6
100
AcDbMText
 10
1006.36541764698
 20
678.7312083656147
 30
0.0
 40
2.651776162684904
 41
2.557913877927211
 71
     1
 72
     5
  1
4
  7
Romans字体
 73
     1
 44
1.0
1001
AcDbBlockRepETag
1070
     1
1071
       57
1005
14928
1001
ACAD
1000
MTEXTBEGIN
1070
    73
1070
     1
1070
    44
1040
1.0
1070
    74
1070
     0
1000
MTEXTEND
  0
LINE
  5
14929
330
10FE8
100
AcDbEntity
  8
图框
 62
     6
100
AcDbLine
 10
982.0182077173887
 20
679.0347692601516
 30
0.0
 11
982.0182077173887
 21
675.5347692601515
 31
0.0
1001
AcDbBlockRepETag
1070
     1
1071
       58
1005
14929
  0
MTEXT
  5
1492A
330
10FE8
100
AcDbEntity
  8
图框
 62
     6
100
AcDbMText
 10
956.8302389280352
 20
678.859919059449
 30
0.0
 40
2.651776162684904
 41
2.557913877927211
 71
     1
 72
     5
  1
3
  7
Romans字体
 73
     1
 44
1.0
1001
AcDbBlockRepETag
1070
     1
1071
       59
1005
1492A
1001
ACAD
1000
MTEXTBEGIN
1070
    73
1070
     1
1070
    44
1040
1.0
1070
    74
1070
     0
1000
MTEXTEND
  0
LINE
  5
1492B
330
10FE8
100
AcDbEntity
  8
图框
 62
     6
100
AcDbLine
 10
932.4830289984245
 20
679.0347692601516
 30
0.0
 11
932.4830289984245
 21
675.5347692601515
 31
0.0
1001
AcDbBlockRepETag
1070
     1
1071
       60
1005
1492B
  0
MTEXT
  5
1492C
330
10FE8
100
AcDbEntity
  8
图框
 62
     6
100
AcDbMText
 10
907.295060209082
 20
678.859919059449
 30
0.0
 40
2.651776162684904
 41
2.557913877927211
 71
     1
 72
     5
  1
2
  7
Romans字体
 73
     1
 44
1.0
1001
AcDbBlockRepETag
1070
     1
1071
       61
1005
1492C
1001
ACAD
1000
MTEXTBEGIN
1070
    73
1070
     1
1070
    44
1040
1.0
1070
    74
1070
     0
1000
MTEXTEND
  0
LINE
  5
1492D
330
10FE8
100
AcDbEntity
  8
图框
 62
     6
100
AcDbLine
 10
882.9478502794648
 20
678.7962435131815
 30
0.0
 11
882.9478502794648
 21
675.5347692601515
 31
0.0
1001
AcDbBlockRepETag
1070
     1
1071
       62
1005
1492D
  0
MTEXT
  5
1492E
330
10FE8
100
AcDbEntity
  8
图框
 62
     6
100
AcDbMText
 10
862.6286629643733
 20
678.859919059449
 30
0.0
 40
2.651776162684904
 41
2.557913877927211
 71
     1
 72
     5
  1
1
  7
Romans字体
 73
     1
 44
1.0
1001
AcDbBlockRepETag
1070
     1
1071
       63
1005
1492E
1001
ACAD
1000
MTEXTBEGIN
1070
    73
1070
     1
1070
    44
1040
1.0
1070
    74
1070
     0
1000
MTEXTEND
  0
LINE
  5
1492F
330
10FE8
100
AcDbEntity
  8
图框
370
    -3
100
AcDbLine
 10
836.9128518455394
 20
675.0207195125422
 30
0.0
 11
836.9128518455394
 21
686.7901958362482
 31
0.0
1001
AcDbBlockRepETag
1070
     1
1071
       64
1005
1492F
  0
LINE
  5
14930
330
10FE8
100
AcDbEntity
  8
图框
370
    50
100
AcDbLine
 10
836.9128518455394
 20
675.5347692601515
 30
0.0
 11
1126.928502610363
 21
675.5347692601515
 31
0.0
1001
AcDbBlockRepETag
1070
     1
1071
       65
1005
14930
  0
LINE
  5
14931
330
10FE8
100
AcDbEntity
  8
图框
370
    -3
100
AcDbLine
 10
842.6237321475781
 20
675.5347692601515
 30
0.0
 11
842.6237321475781
 21
686.7901958362482
 31
0.0
1001
AcDbBlockRepETag
1070
     1
1071
       66
1005
14931
  0
LINE
  5
14932
330
10FE8
100
AcDbEntity
  8
图框
370
    -3
100
AcDbLine
 10
848.3346124496179
 20
675.5347692601515
 30
0.0
 11
848.3346124496179
 21
686.7901958362482
 31
0.0
1001
AcDbBlockRepETag
1070
     1
1071
       67
1005
14932
  0
MTEXT
  5
14933
102
{ACAD_XDICTIONARY
360
14997
102
}
330
10FE8
100
AcDbEntity
  8
图框
100
AcDbMText
 10
857.7903401027889
 20
686.7901958362482
 30
0.0
 40
1.958998408821398
 41
11.25542657609672
 71
     4
 72
     5
  1
{\W2.08073; }档案员{\H0.7x;\P\Fromans|c134;\W1.0325; \W0.75;Filing Clerk\fFangSong_GB2312|b0|i0|c134|p49; }
 11
-0.0000000000000002
 21
-1.0
 31
0.0
 73
     1
 44
1.0
1001
AcDbBlockRepETag
1070
     1
1071
       68
1005
14933
1001
ACAD
1000
MTEXTBEGIN
1070
    73
1070
     1
1070
    44
1040
1.0
1070
    74
1070
     0
1000
MTEXTEND
1000
ACAD_MTEXT_DEFINED_HEIGHT_BEGIN
1070
    46
1040
7.489694702258906
1000
ACAD_MTEXT_DEFINED_HEIGHT_END
  0
MTEXT
  5
14934
102
{ACAD_XDICTIONARY
360
14999
102
}
330
10FE8
100
AcDbEntity
  8
图框
100
AcDbMText
 10
845.479172298598
 20
686.7901958362482
 30
0.0
 40
1.958998408821398
 41
11.25542657609672
 71
     4
 72
     5
  1
{\W0.524929; }日期{\Fromans|c134;/Date}
 11
-0.0000000000000002
 21
-1.0
 31
0.0
 73
     1
 44
1.0
1001
AcDbBlockRepETag
1070
     1
1071
       69
1005
14934
1001
ACAD
1000
MTEXTBEGIN
1070
    73
1070
     1
1070
    44
1040
1.0
1070
    74
1070
     0
1000
MTEXTEND
1000
ACAD_MTEXT_DEFINED_HEIGHT_BEGIN
1070
    46
1040
5.710880302039671
1000
ACAD_MTEXT_DEFINED_HEIGHT_END
  0
LINE
  5
14935
330
10FE8
100
AcDbEntity
  8
图框
370
    -3
100
AcDbLine
 10
854.0454927516588
 20
675.5347692601515
 30
0.0
 11
854.0454927516588
 21
686.7901958362482
 31
0.0
1001
AcDbBlockRepETag
1070
     1
1071
       70
1005
14935
  0
LINE
  5
14936
330
10FE8
100
AcDbEntity
  8
图框
370
    -3
100
AcDbLine
 10
1036.653967466372
 20
531.3291676047914
 30
0.0
 11
1036.653967466372
 21
484.0126019753161
 31
0.0
1001
AcDbBlockRepETag
1070
     1
1071
       71
1005
14936
  0
LINE
  5
14937
330
10FE8
100
AcDbEntity
  8
图框
370
    -3
100
AcDbLine
 10
1047.483315900763
 20
507.6708838011533
 30
0.0
 11
1047.483315900763
 21
491.8986945987308
 31
0.0
1001
AcDbBlockRepETag
1070
     1
1071
       72
1005
14937
  0
LINE
  5
14938
330
10FE8
100
AcDbEntity
  8
图框
370
    -3
100
AcDbLine
 10
1058.312664335153
 20
507.6708838011533
 30
0.0
 11
1058.312664335153
 21
484.0347692601515
 31
0.0
1001
AcDbBlockRepETag
1070
     1
1071
       73
1005
14938
  0
LINE
  5
14939
330
10FE8
100
AcDbEntity
  8
图框
370
    25
100
AcDbLine
 10
1048.474135214456
 20
488.1095628329926
 30
0.0
 11
1054.946420288459
 21
488.1095628329926
 31
0.0
1001
AcDbBlockRepETag
1070
     1
1071
       74
1005
14939
  0
LINE
  5
1493A
330
10FE8
100
AcDbEntity
  8
图框
370
    25
100
AcDbLine
 10
1054.232527365989
 20
487.0761716842634
 30
0.0
 11
1049.156490914508
 21
486.4576273751
 31
0.0
1001
AcDbBlockRepETag
1070
     1
1071
       75
1005
1493A
  0
LINE
  5
1493B
330
10FE8
100
AcDbEntity
  8
图框
370
    25
100
AcDbLine
 10
1054.232527365989
 20
489.1429539817209
 30
0.0
 11
1049.156490914508
 21
489.7614982908846
 31
0.0
1001
AcDbBlockRepETag
1070
     1
1071
       76
1005
1493B
  0
LINE
  5
1493C
330
10FE8
100
AcDbEntity
  8
图框
370
    25
100
AcDbLine
 10
1049.156490914508
 20
489.7614982908846
 30
0.0
 11
1049.156490914508
 21
486.4576273751
 31
0.0
1001
AcDbBlockRepETag
1070
     1
1071
       77
1005
1493C
  0
LINE
  5
1493D
330
10FE8
100
AcDbEntity
  8
图框
370
    25
100
AcDbLine
 10
1054.232527365989
 20
489.1429539817209
 30
0.0
 11
1054.232527365989
 21
487.0761716842634
 31
0.0
1001
AcDbBlockRepETag
1070
     1
1071
       78
1005
1493D
  0
CIRCLE
  5
1493E
330
10FE8
100
AcDbEntity
  8
图框
370
    25
100
AcDbCircle
 10
1042.502700458579
 20
488.1095628329926
 30
0.0
 40
1.651935457891863
1001
AcDbBlockRepETag
1070
     1
1071
       79
1005
1493E
  0
CIRCLE
  5
1493F
330
10FE8
100
AcDbEntity
  8
图框
370
    25
100
AcDbCircle
 10
1042.502700458579
 20
488.1095628329926
 30
0.0
 40
1.033391148728775
1001
AcDbBlockRepETag
1070
     1
1071
       80
1005
1493F
  0
LINE
  5
14940
330
10FE8
100
AcDbEntity
  8
图框
370
    25
100
AcDbLine
 10
1040.136872078216
 20
488.1095628329926
 30
0.0
 11
1044.868528838943
 21
488.1095628329926
 31
0.0
1001
AcDbBlockRepETag
1070
     1
1071
       81
1005
14940
  0
LINE
  5
14941
330
10FE8
100
AcDbEntity
  8
图框
370
    25
100
AcDbLine
 10
1042.502700458579
 20
490.475391213355
 30
0.0
 11
1042.502700458579
 21
485.743734452629
 31
0.0
1001
AcDbBlockRepETag
1070
     1
1071
       82
1005
14941
  0
LINE
  5
14942
330
10FE8
100
AcDbEntity
  8
图框
370
    -3
100
AcDbLine
 10
1069.142012769546
 20
507.6708838011533
 30
0.0
 11
1069.142012769546
 21
491.8986945987308
 31
0.0
1001
AcDbBlockRepETag
1070
     1
1071
       83
1005
14942
  0
MTEXT
  5
14943
330
10FE8
100
AcDbEntity
  8
图框
100
AcDbMText
 10
1086.643735910939
 20
526.8006839312707
 30
0.0
 40
2.154898249703542
 41
13.34474941400573
 71
     5
 72
     5
  1
图号{\Ftxt|c134;\P\Fromans|c134;\W0.65;Drawing No.}
 73
     1
 44
1.0
1001
AcDbBlockRepETag
1070
     1
1071
       84
1005
14943
1001
ACAD
1000
MTEXTBEGIN
1070
    73
1070
     1
1070
    44
1040
1.0
1070
    74
1070
     0
1000
MTEXTEND
1000
ACAD_MTEXT_DEFINED_HEIGHT_BEGIN
1070
    46
1040
9.056967347041775
1000
ACAD_MTEXT_DEFINED_HEIGHT_END
  0
LINE
  5
14944
330
10FE8
100
AcDbEntity
  8
图框
370
    -3
100
AcDbLine
 10
1093.316110617942
 20
531.3291676047914
 30
0.0
 11
1093.316110617942
 21
495.8417418993347
 31
0.0
1001
AcDbBlockRepETag
1070
     1
1071
       85
1005
14944
  0
LINE
  5
14945
330
10FE8
100
AcDbEntity
  8
图框
370
    -3
100
AcDbLine
 10
1047.473969770481
 20
531.3291676047914
 30
0.0
 11
1047.473969770481
 21
507.6708838011533
 31
0.0
1001
AcDbBlockRepETag
1070
     1
1071
       86
1005
14945
  0
MTEXT
  5
14946
330
10FE8
100
AcDbEntity
  8
图框
100
AcDbMText
 10
1063.72733855235
 20
503.7278365005473
 30
0.0
 40
2.252848170144607
 41
10.82934843439208
 71
     5
 72
     5
  1
重量\P{\Fromans|c134;Weight}
 73
     1
 44
1.0
1001
AcDbBlockRepETag
1070
     1
1071
       87
1005
14946
1001
ACAD
1000
MTEXTBEGIN
1070
    73
1070
     1
1070
    44
1040
1.0
1070
    74
1070
     0
1000
MTEXTEND
1000
ACAD_MTEXT_DEFINED_HEIGHT_BEGIN
1070
    46
1040
7.886094601212128
1000
ACAD_MTEXT_DEFINED_HEIGHT_END
  0
LINE
  5
14947
330
10FE8
100
AcDbEntity
  8
图框
370
    -3
100
AcDbLine
 10
1036.653967466372
 20
519.5000257029746
 30
0.0
 11
1079.971361203936
 21
519.5000257029746
 31
0.0
1001
AcDbBlockRepETag
1070
     1
1071
       88
1005
14947
  0
MTEXT
  5
14948
330
10FE8
100
AcDbEntity
  8
图框
100
AcDbMText
 10
1074.556686986741
 20
503.7278365005473
 30
0.0
 40
2.252848170144607
 41
10.82934843438984
 71
     5
 72
     5
  1
数量\P{\Fromans|c134;Qty.}
 73
     1
 44
1.0
1001
AcDbBlockRepETag
1070
     1
1071
       89
1005
14948
1001
ACAD
1000
MTEXTBEGIN
1070
    73
1070
     1
1070
    44
1040
1.0
1070
    74
1070
     0
1000
MTEXTEND
1000
ACAD_MTEXT_DEFINED_HEIGHT_BEGIN
1070
    46
1040
7.886094601212141
1000
ACAD_MTEXT_DEFINED_HEIGHT_END
  0
LINE
  5
14949
330
10FE8
100
AcDbEntity
  8
图框
370
    -3
100
AcDbLine
 10
1079.971361203936
 20
495.8417418993347
 30
0.0
 11
1126.928502610363
 21
495.8417418993342
 31
0.0
1001
AcDbBlockRepETag
1070
     1
1071
       90
1005
14949
  0
LINE
  5
1494A
330
10FE8
100
AcDbEntity
  8
图框
370
    -3
100
AcDbLine
 10
1079.971361203936
 20
504.7132992040975
 30
0.0
 11
1126.928502610363
 21
504.7132992040975
 31
0.0
1001
AcDbBlockRepETag
1070
     1
1071
       91
1005
1494A
  0
MTEXT
  5
1494B
330
10FE8
100
AcDbEntity
  8
图框
100
AcDbMText
 10
1052.893317052817
 20
503.7278365005473
 30
0.0
 40
2.252848170144607
 41
10.83869456467139
 71
     5
 72
     5
  1
版本\P{\Fromans|c134;REV.}
 73
     1
 44
1.0
1001
AcDbBlockRepETag
1070
     1
1071
       92
1005
1494B
1001
ACAD
1000
MTEXTBEGIN
1070
    73
1070
     1
1070
    44
1040
1.0
1070
    74
1070
     0
1000
MTEXTEND
1000
ACAD_MTEXT_DEFINED_HEIGHT_BEGIN
1070
    46
1040
7.886094601212101
1000
ACAD_MTEXT_DEFINED_HEIGHT_END
  0
MTEXT
  5
1494C
330
10FE8
100
AcDbEntity
  8
图框
100
AcDbMText
 10
1042.068641683568
 20
503.7278365005473
 30
0.0
 40
2.252848170144607
 41
10.8293484343908
 71
     5
 72
     5
  1
比例\P{\Fromans|c134;Scale}
 73
     1
 44
1.0
1001
AcDbBlockRepETag
1070
     1
1071
       93
1005
1494C
1001
ACAD
1000
MTEXTBEGIN
1070
    73
1070
     1
1070
    44
1040
1.0
1070
    74
1070
     0
1000
MTEXTEND
1000
ACAD_MTEXT_DEFINED_HEIGHT_BEGIN
1070
    46
1040
7.886094601212136
1000
ACAD_MTEXT_DEFINED_HEIGHT_END
  0
LINE
  5
1494D
330
10FE8
100
AcDbEntity
  8
图框
370
    -3
100
AcDbLine
 10
1036.653967466372
 20
507.6708838011533
 30
0.0
 11
1079.971361203936
 21
507.6708838011533
 31
0.0
1001
AcDbBlockRepETag
1070
     1
1071
       94
1005
1494D
  0
LINE
  5
1494E
330
10FE8
100
AcDbEntity
  8
图框
370
    -3
100
AcDbLine
 10
1036.653967466372
 20
491.8986945987308
 30
0.0
 11
1079.971361203936
 21
491.8986945987308
 31
0.0
1001
AcDbBlockRepETag
1070
     1
1071
       95
1005
1494E
  0
LINE
  5
1494F
330
10FE8
100
AcDbEntity
  8
图框
370
    -3
100
AcDbLine
 10
1079.971361203936
 20
531.3291676047914
 30
0.0
 11
1079.971361203936
 21
484.0125999975168
 31
0.0
1001
AcDbBlockRepETag
1070
     1
1071
       96
1005
1494F
  0
MTEXT
  5
14950
330
10FE8
100
AcDbEntity
  8
图框
100
AcDbMText
 10
1042.063968618426
 20
525.4145966538832
 30
0.0
 40
2.252848170144607
 41
10.82000230410933
 71
     5
 72
     5
  1
表面处理\P{\Fromans|c134;Finish}
 73
     1
 44
1.0
1001
AcDbBlockRepETag
1070
     1
1071
       97
1005
14950
1001
ACAD
1000
MTEXTBEGIN
1070
    73
1070
     1
1070
    44
1040
1.0
1070
    74
1070
     0
1000
MTEXTEND
1000
ACAD_MTEXT_DEFINED_HEIGHT_BEGIN
1070
    46
1040
11.82914190181708
1000
ACAD_MTEXT_DEFINED_HEIGHT_END
  0
MTEXT
  5
14951
330
10FE8
100
AcDbEntity
  8
图框
100
AcDbMText
 10
1042.063968618426
 20
513.5854547520639
 30
0.0
 40
2.252848170144607
 41
10.82000230410933
 71
     5
 72
     5
  1
材料\P{\Fromans|c134;Material}
 73
     1
 44
1.0
1001
AcDbBlockRepETag
1070
     1
1071
       98
1005
14951
1001
ACAD
1000
MTEXTBEGIN
1070
    73
1070
     1
1070
    44
1040
1.0
1070
    74
1070
     0
1000
MTEXTEND
1000
ACAD_MTEXT_DEFINED_HEIGHT_BEGIN
1070
    46
1040
11.8291419018212
1000
ACAD_MTEXT_DEFINED_HEIGHT_END
  0
LINE
  5
14952
330
10FE8
100
AcDbEntity
  8
图框
370
    -3
100
AcDbLine
 10
1079.971361203936
 20
522.27220025775
 30
0.0
 11
1126.928502610363
 21
522.27220025775
 31
0.0
1001
AcDbBlockRepETag
1070
     1
1071
       99
1005
14952
  0
LINE
  5
14953
330
10FE8
100
AcDbEntity
  8
图框
370
    -3
100
AcDbLine
 10
1079.971361203936
 20
513.5854547520641
 30
0.0
 11
1126.928502610363
 21
513.5854547520639
 31
0.0
1001
AcDbBlockRepETag
1070
     1
1071
      100
1005
14953
  0
MTEXT
  5
14954
330
10FE8
100
AcDbEntity
  8
图框
100
AcDbMText
 10
1086.643735910939
 20
517.9288275049072
 30
0.0
 40
1.958998408821398
 41
13.34474941400573
 71
     5
 72
     5
  1
产品代号\P{\Fromans|c134;Part Code}
 73
     1
 44
1.0
1001
AcDbBlockRepETag
1070
     1
1071
      101
1005
14954
1001
ACAD
1000
MTEXTBEGIN
1070
    73
1070
     1
1070
    44
1040
1.0
1070
    74
1070
     0
1000
MTEXTEND
1000
ACAD_MTEXT_DEFINED_HEIGHT_BEGIN
1070
    46
1040
8.686745505685811
1000
ACAD_MTEXT_DEFINED_HEIGHT_END
  0
LINE
  5
14955
330
10FE8
100
AcDbEntity
  8
图框
370
    -3
100
AcDbLine
 10
946.9285026103634
 20
525.7982263931411
 30
0.0
 11
1036.653967466372
 21
525.7982263931411
 31
0.0
1001
AcDbBlockRepETag
1070
     1
1071
      102
1005
14955
  0
LINE
  5
14956
330
10FE8
100
AcDbEntity
  8
图框
370
    -3
100
AcDbLine
 10
946.9285026103634
 20
520.2672851814959
 30
0.0
 11
1036.653967466372
 21
520.2672851814959
 31
0.0
1001
AcDbBlockRepETag
1070
     1
1071
      103
1005
14956
  0
LINE
  5
14957
330
10FE8
100
AcDbEntity
  8
图框
370
    35
100
AcDbLine
 10
946.9285026103634
 20
531.3291676047914
 30
0.0
 11
1126.928502610363
 21
531.3291676047914
 31
0.0
1001
AcDbBlockRepETag
1070
     1
1071
      104
1005
14957
  0
LINE
  5
14958
330
10FE8
100
AcDbEntity
  8
图框
370
    -3
100
AcDbLine
 10
990.6727612856927
 20
509.2054027581959
 30
0.0
 11
990.6727612856927
 21
484.0347692601515
 31
0.0
1001
AcDbBlockRepETag
1070
     1
1071
      105
1005
14958
  0
MTEXT
  5
14959
102
{ACAD_XDICTIONARY
360
1499B
102
}
330
10FE8
100
AcDbEntity
  8
图框
100
AcDbMText
 10
997.1628169651232
 20
499.816589978722
 30
0.0
 40
2.252848170144607
 41
12.98011135886052
 71
     5
 72
     5
  1
{\f仿宋_GB2312|b0|i0|c134|p49;标准化}\PStand.
  7
Romans字体
 73
     1
 44
1.0
1001
AcDbBlockRepETag
1070
     1
1071
      106
1005
14959
1001
ACAD
1000
MTEXTBEGIN
1070
    73
1070
     1
1070
    44
1040
1.0
1070
    74
1070
     0
1000
MTEXTEND
1000
ACAD_MTEXT_DEFINED_HEIGHT_BEGIN
1070
    46
1040
6.19230880992475
1000
ACAD_MTEXT_DEFINED_HEIGHT_END
  0
LINE
  5
1495A
330
10FE8
100
AcDbEntity
  8
图框
370
    -3
100
AcDbLine
 10
975.4103773808022
 20
509.2054027581959
 30
0.0
 11
975.4103773808022
 21
484.0347692601515
 31
0.0
1001
AcDbBlockRepETag
1070
     1
1071
      107
1005
1495A
  0
MTEXT
  5
1495B
330
10FE8
100
AcDbEntity
  8
图框
100
AcDbMText
 10
984.5089229802068
 20
511.9708733640202
 30
0.0
 40
2.448748011026752
 41
38.287899328693
 71
     5
 72
     5
  1
  变更描述{\Fromans|c134;/Description}
 73
     1
 44
1.0
1001
AcDbBlockRepETag
1070
     1
1071
      108
1005
1495B
1001
ACAD
1000
MTEXTBEGIN
1070
    73
1070
     1
1070
    44
1040
1.0
1070
    74
1070
     0
1000
MTEXTEND
1000
ACAD_MTEXT_DEFINED_HEIGHT_BEGIN
1070
    46
1040
5.530941211648832
1000
ACAD_MTEXT_DEFINED_HEIGHT_END
  0
MTEXT
  5
1495C
102
{ACAD_XDICTIONARY
360
1499D
102
}
330
10FE8
100
AcDbEntity
  8
图框
100
AcDbMText
 10
1012.466086049227
 20
511.9708733640202
 30
0.0
 40
1.958998408821398
 41
17.6264268093469
 71
     5
 72
     5
  1
签名\P{\Fromans|c134;Signature} 
 73
     1
 44
1.0
1001
AcDbBlockRepETag
1070
     1
1071
      109
1005
1495C
1001
ACAD
1000
MTEXTBEGIN
1070
    73
1070
     1
1070
    44
1040
1.0
1070
    74
1070
     0
1000
MTEXTEND
1000
ACAD_MTEXT_DEFINED_HEIGHT_BEGIN
1070
    46
1040
5.530941211648825
1000
ACAD_MTEXT_DEFINED_HEIGHT_END
  0
MTEXT
  5
1495D
102
{ACAD_XDICTIONARY
360
1499F
102
}
330
10FE8
100
AcDbEntity
  8
图框
100
AcDbMText
 10
960.7558556394856
 20
511.9708733640202
 30
0.0
 40
1.958998408821398
 41
9.218235352749283
 71
     5
 72
     5
  1
处数\P{\Fromans|c134;Number }
 73
     1
 44
1.0
1001
AcDbBlockRepETag
1070
     1
1071
      110
1005
1495D
1001
ACAD
1000
MTEXTBEGIN
1070
    73
1070
     1
1070
    44
1040
1.0
1070
    74
1070
     0
1000
MTEXTEND
1000
ACAD_MTEXT_DEFINED_HEIGHT_BEGIN
1070
    46
1040
5.530941211648841
1000
ACAD_MTEXT_DEFINED_HEIGHT_END
  0
LINE
  5
1495E
330
10FE8
100
AcDbEntity
  8
图框
370
    -3
100
AcDbLine
 10
946.9285026103634
 20
514.7363439698449
 30
0.0
 11
1036.653967466372
 21
514.7363439698449
 31
0.0
1001
AcDbBlockRepETag
1070
     1
1071
      111
1005
1495E
  0
LINE
  5
1495F
330
10FE8
100
AcDbEntity
  8
图框
370
    -3
100
AcDbLine
 10
946.9285026103634
 20
509.2054027581959
 30
0.0
 11
1036.653967466372
 21
509.2054027581959
 31
0.0
1001
AcDbBlockRepETag
1070
     1
1071
      112
1005
1495F
  0
LINE
  5
14960
330
10FE8
100
AcDbEntity
  8
图框
370
    -3
100
AcDbLine
 10
946.9285026103634
 20
502.9127443836848
 30
0.0
 11
1036.653967466372
 21
502.9127443836848
 31
0.0
1001
AcDbBlockRepETag
1070
     1
1071
      113
1005
14960
  0
LINE
  5
14961
330
10FE8
100
AcDbEntity
  8
图框
370
    -3
100
AcDbLine
 10
946.9285026103634
 20
496.620086009173
 30
0.0
 11
1036.653967466372
 21
496.620086009173
 31
0.0
1001
AcDbBlockRepETag
1070
     1
1071
      114
1005
14961
  0
LINE
  5
14962
330
10FE8
100
AcDbEntity
  8
图框
370
    35
380
     1
100
AcDbLine
 10
946.9285026103634
 20
531.3291676047914
 30
0.0
 11
946.9285026103634
 21
484.0347692601515
 31
0.0
1001
AcDbBlockRepETag
1070
     1
1071
      115
1005
14962
  0
LINE
  5
14963
330
10FE8
100
AcDbEntity
  8
图框
370
    -3
100
AcDbLine
 10
1021.301636813399
 20
531.3291676047914
 30
0.0
 11
1021.301636813399
 21
484.0347692601515
 31
0.0
1001
AcDbBlockRepETag
1070
     1
1071
      116
1005
14963
  0
LINE
  5
14964
330
10FE8
100
AcDbEntity
  8
图框
370
    -3
100
AcDbLine
 10
1003.652872644553
 20
531.3291676047914
 30
0.0
 11
1003.652872644553
 21
484.0347692601515
 31
0.0
1001
AcDbBlockRepETag
1070
     1
1071
      117
1005
14964
  0
LINE
  5
14965
330
10FE8
100
AcDbEntity
  8
图框
370
    -3
100
AcDbLine
 10
965.3649733158603
 20
531.3291676047914
 30
0.0
 11
965.3649733158603
 21
509.2054027581959
 31
0.0
1001
AcDbBlockRepETag
1070
     1
1071
      118
1005
14965
  0
LINE
  5
14966
330
10FE8
100
AcDbEntity
  8
图框
370
    -3
100
AcDbLine
 10
956.1467379631109
 20
531.3291676047914
 30
0.0
 11
956.1467379631109
 21
509.2054027581959
 31
0.0
1001
AcDbBlockRepETag
1070
     1
1071
      119
1005
14966
  0
MTEXT
  5
14967
102
{ACAD_XDICTIONARY
360
149A1
102
}
330
10FE8
100
AcDbEntity
  8
图框
100
AcDbMText
 10
951.537620286737
 20
511.9708733640202
 30
0.0
 40
1.958998408821398
 41
9.218235352747692
 71
     5
 72
     5
  1
标记\P{\Fromans|c134;Mark}
 73
     1
 44
1.0
1001
AcDbBlockRepETag
1070
     1
1071
      120
1005
14967
1001
ACAD
1000
MTEXTBEGIN
1070
    73
1070
     1
1070
    44
1040
1.0
1070
    74
1070
     0
1000
MTEXTEND
1000
ACAD_MTEXT_DEFINED_HEIGHT_BEGIN
1070
    46
1040
5.530941211648832
1000
ACAD_MTEXT_DEFINED_HEIGHT_END
  0
MTEXT
  5
14968
102
{ACAD_XDICTIONARY
360
149A3
102
}
330
10FE8
100
AcDbEntity
  8
图框
100
AcDbMText
 10
953.4185582897936
 20
493.4737568219182
 30
0.0
 40
2.252848170144607
 41
12.98011135886041
 71
     5
 72
     5
  1
审核\P{\Fromans|c134;Checked}
 73
     1
 44
1.0
1001
AcDbBlockRepETag
1070
     1
1071
      121
1005
14968
1001
ACAD
1000
MTEXTBEGIN
1070
    73
1070
     1
1070
    44
1040
1.0
1070
    74
1070
     0
1000
MTEXTEND
1000
ACAD_MTEXT_DEFINED_HEIGHT_BEGIN
1070
    46
1040
6.292658374510382
1000
ACAD_MTEXT_DEFINED_HEIGHT_END
  0
MTEXT
  5
14969
102
{ACAD_XDICTIONARY
360
149A5
102
}
330
10FE8
100
AcDbEntity
  8
图框
100
AcDbMText
 10
953.4185582897936
 20
499.8775635376777
 30
0.0
 40
2.252848170144607
 41
12.98011135886041
 71
     5
 72
     5
  1
绘图\P{\Fromans|c134;Drawn\Ftxt|c134; }
 73
     1
 44
1.0
1001
AcDbBlockRepETag
1070
     1
1071
      122
1005
14969
1001
ACAD
1000
MTEXTBEGIN
1070
    73
1070
     1
1070
    44
1040
1.0
1070
    74
1070
     0
1000
MTEXTEND
1000
ACAD_MTEXT_DEFINED_HEIGHT_BEGIN
1070
    46
1040
6.070361692014189
1000
ACAD_MTEXT_DEFINED_HEIGHT_END
  0
ARC
  5
1496A
330
10FE8
100
AcDbEntity
  8
图框
 62
     4
370
    35
100
AcDbCircle
 10
1086.900627017421
 20
490.0179944151195
 30
0.0
 40
4.063310408393665
100
AcDbArc
 50
18.95237904564806
 51
161.0476209543519
1001
AcDbBlockRepETag
1070
     1
1071
      123
1005
1496A
  0
ARC
  5
1496B
330
10FE8
100
AcDbEntity
  8
图框
 62
     4
370
    35
100
AcDbCircle
 10
1086.900627017421
 20
490.0179944151195
 30
0.0
 40
4.063310408393665
100
AcDbArc
 50
198.952379045648
 51
341.0476209543519
1001
AcDbBlockRepETag
1070
     1
1071
      124
1005
1496B
  0
LINE
  5
1496C
330
10FE8
100
AcDbEntity
  8
图框
 62
     4
370
    35
100
AcDbLine
 10
1083.057593369548
 20
488.6983035966752
 30
0.0
 11
1090.74366066529
 21
488.6983035966752
 31
0.0
1001
AcDbBlockRepETag
1070
     1
1071
      125
1005
1496C
  0
LINE
  5
1496D
330
10FE8
100
AcDbEntity
  8
图框
 62
     4
370
    35
100
AcDbLine
 10
1083.057593369548
 20
491.3376852335652
 30
0.0
 11
1090.74366066529
 21
491.3376852335652
 31
0.0
1001
AcDbBlockRepETag
1070
     1
1071
      126
1005
1496D
  0
MTEXT
  5
1496E
330
10FE8
100
AcDbEntity
  8
图框
 62
     1
370
    20
100
AcDbMText
 10
1083.034582879669
 20
491.0506288081688
 30
0.0
 40
2.005930044038334
 41
5.047240019334847
 71
     1
 72
     5
  1
{\fArial|b0|i0|c0|p34;W}
  7
Chinese
 73
     1
 44
1.0
1001
AcDbBlockRepETag
1070
     1
1071
      127
1005
1496E
1001
ACAD
1000
MTEXTBEGIN
1070
    73
1070
     1
1070
    44
1040
1.0
1070
    74
1070
     0
1000
MTEXTEND
  0
LINE
  5
1496F
330
10FE8
100
AcDbEntity
  8
图框
370
    -3
100
AcDbLine
 10
946.9285026103634
 20
490.327427634663
 30
0.0
 11
1036.653967466372
 21
490.327427634663
 31
0.0
1001
AcDbBlockRepETag
1070
     1
1071
      128
1005
1496F
  0
LINE
  5
14970
330
10FE8
100
AcDbEntity
  8
图框
370
    -3
100
AcDbLine
 10
959.9086139692238
 20
509.2054027581959
 30
0.0
 11
959.9086139692238
 21
484.0347692601515
 31
0.0
1001
AcDbBlockRepETag
1070
     1
1071
      129
1005
14970
  0
MTEXT
  5
14971
330
10FE8
100
AcDbEntity
  8
图框
100
AcDbMText
 10
967.6594956750129
 20
506.0590735709403
 30
0.0
 40
2.252848170144607
 41
15.50176341157869
 71
     5
 72
     5
  1
姓名{\Fromans|c134;/Name\Ftxt|c134; }
 73
     1
 44
1.0
1001
AcDbBlockRepETag
1070
     1
1071
      130
1005
14971
1001
ACAD
1000
MTEXTBEGIN
1070
    73
1070
     1
1070
    44
1040
1.0
1070
    74
1070
     0
1000
MTEXTEND
1000
ACAD_MTEXT_DEFINED_HEIGHT_BEGIN
1070
    46
1040
6.292658374511246
1000
ACAD_MTEXT_DEFINED_HEIGHT_END
  0
MTEXT
  5
14972
330
10FE8
100
AcDbEntity
  8
图框
100
AcDbMText
 10
983.0415693332477
 20
506.0590735709403
 30
0.0
 40
2.252848170144607
 41
15.26238390489042
 71
     5
 72
     5
  1
日期{\Fromans|c134;/Date}
 73
     1
 44
1.0
1001
AcDbBlockRepETag
1070
     1
1071
      131
1005
14972
1001
ACAD
1000
MTEXTBEGIN
1070
    73
1070
     1
1070
    44
1040
1.0
1070
    74
1070
     0
1000
MTEXTEND
1000
ACAD_MTEXT_DEFINED_HEIGHT_BEGIN
1070
    46
1040
6.2926583745112
1000
ACAD_MTEXT_DEFINED_HEIGHT_END
  0
LINE
  5
14973
330
10FE8
100
AcDbEntity
  8
图框
370
    -3
100
AcDbLine
 10
946.9285026103634
 20
509.2054027581959
 30
0.0
 11
959.9086139692238
 21
502.9127443836848
 31
0.0
1001
AcDbBlockRepETag
1070
     1
1071
      132
1005
14973
  0
MTEXT
  5
14974
330
10FE8
100
AcDbEntity
  8
图框
100
AcDbMText
 10
1012.931405110086
 20
506.0185715840725
 30
0.0
 40
2.252848170144607
 41
16.93492221063566
 71
     5
 72
     5
  1
姓名{\Fromans|c134;/Name}
 73
     1
 44
1.0
1001
AcDbBlockRepETag
1070
     1
1071
      133
1005
14974
1001
ACAD
1000
MTEXTBEGIN
1070
    73
1070
     1
1070
    44
1040
1.0
1070
    74
1070
     0
1000
MTEXTEND
  0
MTEXT
  5
14975
330
10FE8
100
AcDbEntity
  8
图框
100
AcDbMText
 10
1028.977802139886
 20
506.0590735709403
 30
0.0
 40
2.252848170144607
 41
15.35233065297283
 71
     5
 72
     5
  1
日期{\Fromans|c134;/Date}
 73
     1
 44
1.0
1001
AcDbBlockRepETag
1070
     1
1071
      134
1005
14975
1001
ACAD
1000
MTEXTBEGIN
1070
    73
1070
     1
1070
    44
1040
1.0
1070
    74
1070
     0
1000
MTEXTEND
1000
ACAD_MTEXT_DEFINED_HEIGHT_BEGIN
1070
    46
1040
6.292658374511256
1000
ACAD_MTEXT_DEFINED_HEIGHT_END
  0
LINE
  5
14976
330
10FE8
100
AcDbEntity
  8
图框
370
    -3
100
AcDbLine
 10
1003.652872644553
 20
502.9127443836848
 30
0.0
 11
990.6727612856927
 21
509.2054027581959
 31
0.0
1001
AcDbBlockRepETag
1070
     1
1071
      135
1005
14976
  0
MTEXT
  5
14977
102
{ACAD_XDICTIONARY
360
149A7
102
}
330
10FE8
100
AcDbEntity
  8
图框
100
AcDbMText
 10
997.1628169651232
 20
487.1810984474071
 30
0.0
 40
2.252848170144607
 41
12.98011135886052
 71
     5
 72
     5
  1
批准\P{\Fromans|c134;Approved}
 73
     1
 44
1.0
1001
AcDbBlockRepETag
1070
     1
1071
      136
1005
14977
1001
ACAD
1000
MTEXTBEGIN
1070
    73
1070
     1
1070
    44
1040
1.0
1070
    74
1070
     0
1000
MTEXTEND
1000
ACAD_MTEXT_DEFINED_HEIGHT_BEGIN
1070
    46
1040
6.292658374511517
1000
ACAD_MTEXT_DEFINED_HEIGHT_END
  0
MTEXT
  5
14978
102
{ACAD_XDICTIONARY
360
149A9
102
}
330
10FE8
100
AcDbEntity
  8
图框
100
AcDbMText
 10
953.4185582897936
 20
487.1810984474071
 30
0.0
 40
2.252848170144607
 41
12.98011135886041
 71
     5
 72
     5
  1
工艺\P{\Fromans|c134;Process}
 73
     1
 44
1.0
1001
AcDbBlockRepETag
1070
     1
1071
      137
1005
14978
1001
ACAD
1000
MTEXTBEGIN
1070
    73
1070
     1
1070
    44
1040
1.0
1070
    74
1070
     0
1000
MTEXTEND
1000
ACAD_MTEXT_DEFINED_HEIGHT_BEGIN
1070
    46
1040
6.292658374511495
1000
ACAD_MTEXT_DEFINED_HEIGHT_END
  0
MTEXT
  5
14979
102
{ACAD_XDICTIONARY
360
149AB
102
}
330
10FE8
100
AcDbEntity
  8
图框
100
AcDbMText
 10
1028.977802139886
 20
511.8287965307664
 30
0.0
 40
1.958998408821398
 41
15.3523306529728
 71
     5
 72
     5
  1
日期\P{\Fromans|c134;Date}
 73
     1
 44
1.0
1001
AcDbBlockRepETag
1070
     1
1071
      138
1005
14979
1001
ACAD
1000
MTEXTBEGIN
1070
    73
1070
     1
1070
    44
1040
1.0
1070
    74
1070
     0
1000
MTEXTEND
1000
ACAD_MTEXT_DEFINED_HEIGHT_BEGIN
1070
    46
1040
5.246787545140668
1000
ACAD_MTEXT_DEFINED_HEIGHT_END
  0
MTEXT
  5
1497A
330
10FE8
100
AcDbEntity
  8
图框
100
AcDbMText
 10
1086.643735910939
 20
509.1493769780809
 30
0.0
 40
2.154898249703542
 41
13.34474941400573
 71
     5
 72
     5
  1
产品料号\P{\Fromans|c134;Part No.}
 73
     1
 44
1.0
1001
AcDbBlockRepETag
1070
     1
1071
      139
1005
1497A
1001
ACAD
1000
MTEXTBEGIN
1070
    73
1070
     1
1070
    44
1040
1.0
1070
    74
1070
     0
1000
MTEXTEND
1000
ACAD_MTEXT_DEFINED_HEIGHT_BEGIN
1070
    46
1040
8.87215554796615
1000
ACAD_MTEXT_DEFINED_HEIGHT_END
  0
MTEXT
  5
1497B
330
10FE8
100
AcDbEntity
  8
图框
100
AcDbMText
 10
1086.643735910939
 20
500.2775205517163
 30
0.0
 40
1.958998408821398
 41
13.34474941400573
 71
     5
 72
     5
  1
产品名称\P{\Fromans|c134;Part Name}
 73
     1
 44
1.0
1001
AcDbBlockRepETag
1070
     1
1071
      140
1005
1497B
1001
ACAD
1000
MTEXTBEGIN
1070
    73
1070
     1
1070
    44
1040
1.0
1070
    74
1070
     0
1000
MTEXTEND
1000
ACAD_MTEXT_DEFINED_HEIGHT_BEGIN
1070
    46
1040
8.871557304763321
1000
ACAD_MTEXT_DEFINED_HEIGHT_END
  0
LINE
  5
1497C
330
10FE8
100
AcDbEntity
  8
图框
 62
     1
370
    18
100
AcDbLine
 10
833.4128518455365
 20
690.5347692601515
 30
0.0
 11
833.4128518455365
 21
480.5347692601515
 31
0.0
1001
AcDbBlockRepETag
1070
     1
1071
      141
1005
1497C
  0
LINE
  5
1497D
330
10FE8
100
AcDbEntity
  8
图框
 62
     1
370
    18
100
AcDbLine
 10
833.4128518455365
 20
480.5347692601515
 30
0.0
 11
1130.411601781236
 21
480.5347692601515
 31
0.0
1001
AcDbBlockRepETag
1070
     1
1071
      142
1005
1497D
  0
LINE
  5
1497E
330
10FE8
100
AcDbEntity
  8
图框
 62
     1
370
    18
100
AcDbLine
 10
833.4128518455365
 20
690.5347692601515
 30
0.0
 11
1130.411601781236
 21
690.5347692601515
 31
0.0
1001
AcDbBlockRepETag
1070
     1
1071
      143
1005
1497E
  0
LINE
  5
1497F
330
10FE8
100
AcDbEntity
  8
图框
 62
     1
370
    18
100
AcDbLine
 10
1130.411601781236
 20
480.5347692601515
 30
0.0
 11
1130.411601781236
 21
690.5347692601515
 31
0.0
1001
AcDbBlockRepETag
1070
     1
1071
      144
1005
1497F
  0
LINE
  5
14980
330
10FE8
100
AcDbEntity
  8
图框
370
    18
100
AcDbLine
 10
836.9128518455394
 20
686.7901958362482
 30
0.0
 11
861.5351874539182
 21
686.7901958362482
 31
0.0
1001
AcDbBlockRepETag
1070
     1
1071
      145
1005
14980
  0
LINE
  5
14981
330
10FE8
100
AcDbEntity
  8
图框
370
    50
100
AcDbLine
 10
1126.928502610363
 20
484.3410054693078
 30
0.0
 11
1126.928502610363
 21
675.5347692601515
 31
0.0
1001
AcDbBlockRepETag
1070
     1
1071
      146
1005
14981
  0
MTEXT
  5
14982
330
10FE8
100
AcDbEntity
  8
图框
 62
     3
100
AcDbMText
 10
1052.897990117958
 20
495.8417418993364
 30
0.0
 40
2.985513575034151
 41
10.82934843439114
 71
     5
 72
     5
  1
V1.0
  7
Romans字体
 73
     1
 44
1.0
1001
AcDbBlockRepETag
1070
     1
1071
      147
1005
14982
1001
ACAD
1000
MTEXTBEGIN
1070
    73
1070
     1
1070
    44
1040
1.0
1070
    74
1070
     0
1000
MTEXTEND
1000
ACAD_MTEXT_DEFINED_HEIGHT_BEGIN
1070
    46
1040
7.886094601211307
1000
ACAD_MTEXT_DEFINED_HEIGHT_END
  0
LINE
  5
14983
330
10FE8
100
AcDbEntity
  8
图框
 62
     6
100
AcDbLine
 10
1126.911601781236
 20
531.714049199969
 30
0.0
 11
1130.411601781236
 21
531.714049199969
 31
0.0
1001
AcDbBlockRepETag
1070
     1
1071
      148
1005
14983
  0
ENDBLK
  5
1107F
330
10FE8
100
AcDbEntity
  8
0
100
AcDbBlockEnd
  0
BLOCK
  5
14799
330
14798
100
AcDbEntity
  8
0
100
AcDbBlockBegin
  2
*D2
 70
     1
 10
0.0
 20
0.0
 30
0.0
  3
*D2
  1

  0
LINE
  5
147D6
330
14798
100
AcDbEntity
  8
DIM
 62
     6
370
    -2
100
AcDbLine
 10
445.2263767967856
 20
308.2608133454587
 30
0.0
 11
428.6053294510513
 21
308.2608133454587
 31
0.0
  0
LINE
  5
147D7
330
14798
100
AcDbEntity
  8
DIM
 62
     6
370
    -2
100
AcDbLine
 10
445.2263767967856
 20
274.0608133464569
 30
0.0
 11
428.6053294510513
 21
274.0608133464569
 31
0.0
  0
LINE
  5
147D8
330
14798
100
AcDbEntity
  8
DIM
 62
     1
370
    -2
100
AcDbLine
 10
429.8053294510513
 20
305.2608133454587
 30
0.0
 11
429.8053294510513
 21
277.0608133464569
 31
0.0
  0
SOLID
  5
147D9
330
14798
100
AcDbEntity
  8
DIM
 62
     1
100
AcDbTrace
 10
429.3053294510513
 20
305.2608133454587
 30
0.0
 11
430.3053294510513
 21
305.2608133454587
 31
0.0
 12
429.8053294510513
 22
308.2608133454587
 32
0.0
 13
429.8053294510513
 23
308.2608133454587
 33
0.0
  0
SOLID
  5
147DA
330
14798
100
AcDbEntity
  8
DIM
 62
     1
100
AcDbTrace
 10
429.3053294510513
 20
277.0608133464569
 30
0.0
 11
430.3053294510513
 21
277.0608133464569
 31
0.0
 12
429.8053294510513
 22
274.0608133464569
 32
0.0
 13
429.8053294510513
 23
274.0608133464569
 33
0.0
  0
MTEXT
  5
147DB
330
14798
100
AcDbEntity
  8
DIM
 62
     4
100
AcDbMText
 10
427.2553294510512
 20
291.160813345958
 30
0.0
 40
3.5
 41
0.0
 71
     5
 72
     1
  1
\A1;34.2
  7
Romans字体
 11
0.0000000000000001
 21
1.0
 31
0.0
 73
     1
 44
1.0
1001
ACAD
1000
MTEXTBEGIN
1070
    73
1070
     1
1070
    44
1040
1.0
1070
    74
1070
     0
1000
MTEXTEND
  0
POINT
  5
147DC
330
14798
100
AcDbEntity
  8
Defpoints
 62
     0
100
AcDbPoint
 10
445.4263767967856
 20
308.2608133454587
 30
0.0
  0
POINT
  5
147DD
330
14798
100
AcDbEntity
  8
Defpoints
 62
     0
100
AcDbPoint
 10
445.4263767967856
 20
274.0608133464569
 30
0.0
  0
POINT
  5
147DE
330
14798
100
AcDbEntity
  8
Defpoints
 62
     0
100
AcDbPoint
 10
429.8053294510513
 20
274.0608133464569
 30
0.0
  0
ENDBLK
  5
1479A
330
14798
100
AcDbEntity
  8
0
100
AcDbBlockEnd
  0
BLOCK
  5
147A6
330
147A5
100
AcDbEntity
  8
0
100
AcDbBlockBegin
  2
*D3
 70
     1
 10
0.0
 20
0.0
 30
0.0
  3
*D3
  1

  0
LINE
  5
147F1
330
147A5
100
AcDbEntity
  8
DIM
 62
     6
370
    -2
100
AcDbLine
 10
505.4382003832598
 20
306.5108133456174
 30
0.0
 11
505.4382003832598
 21
318.6927337008919
 31
0.0
  0
LINE
  5
147F2
330
147A5
100
AcDbEntity
  8
DIM
 62
     6
370
    -2
100
AcDbLine
 10
520.0382003830983
 20
306.5108133456174
 30
0.0
 11
520.0382003830983
 21
318.6927337008919
 31
0.0
  0
LINE
  5
147F3
330
147A5
100
AcDbEntity
  8
DIM
 62
     1
370
    -2
100
AcDbLine
 10
508.4382003832596
 20
317.4927337008919
 30
0.0
 11
517.0382003830983
 21
317.4927337008919
 31
0.0
  0
SOLID
  5
147F4
330
147A5
100
AcDbEntity
  8
DIM
 62
     1
100
AcDbTrace
 10
508.4382003832596
 20
317.9927337008919
 30
0.0
 11
508.4382003832596
 21
316.9927337008919
 31
0.0
 12
505.4382003832598
 22
317.4927337008919
 32
0.0
 13
505.4382003832598
 23
317.4927337008919
 33
0.0
  0
SOLID
  5
147F5
330
147A5
100
AcDbEntity
  8
DIM
 62
     1
100
AcDbTrace
 10
517.0382003830983
 20
317.9927337008919
 30
0.0
 11
517.0382003830983
 21
316.9927337008919
 31
0.0
 12
520.0382003830983
 22
317.4927337008919
 32
0.0
 13
520.0382003830983
 23
317.4927337008919
 33
0.0
  0
MTEXT
  5
147F6
330
147A5
100
AcDbEntity
  8
DIM
 62
     4
100
AcDbMText
 10
512.7382003831792
 20
320.0427337008918
 30
0.0
 40
3.5
 41
0.0
 71
     5
 72
     1
  1
\A1;14.6
  7
Romans字体
 73
     1
 44
1.0
1001
ACAD
1000
MTEXTBEGIN
1070
    73
1070
     1
1070
    44
1040
1.0
1070
    74
1070
     0
1000
MTEXTEND
  0
POINT
  5
147F7
330
147A5
100
AcDbEntity
  8
Defpoints
 62
     0
100
AcDbPoint
 10
505.4382003832598
 20
306.3108133456174
 30
0.0
  0
POINT
  5
147F8
330
147A5
100
AcDbEntity
  8
Defpoints
 62
     0
100
AcDbPoint
 10
520.0382003830983
 20
306.3108133456174
 30
0.0
  0
POINT
  5
147F9
330
147A5
100
AcDbEntity
  8
Defpoints
 62
     0
100
AcDbPoint
 10
520.0382003830983
 20
317.4927337008919
 30
0.0
  0
ENDBLK
  5
147A7
330
147A5
100
AcDbEntity
  8
0
100
AcDbBlockEnd
  0
BLOCK
  5
147B3
330
147B2
100
AcDbEntity
  8
0
100
AcDbBlockBegin
  2
*D4
 70
     1
 10
0.0
 20
0.0
 30
0.0
  3
*D4
  1

  0
LINE
  5
147E8
330
147B2
100
AcDbEntity
  8
DIM
 62
     6
370
    -2
100
AcDbLine
 10
482.4263767971496
 20
306.5108133456174
 30
0.0
 11
482.4263767971496
 21
318.6927337008919
 31
0.0
  0
LINE
  5
147E9
330
147B2
100
AcDbEntity
  8
DIM
 62
     6
370
    -2
100
AcDbLine
 10
437.8263767974273
 20
306.0108133473963
 30
0.0
 11
437.8263767974273
 21
318.6927337008919
 31
0.0
  0
LINE
  5
147EA
330
147B2
100
AcDbEntity
  8
DIM
 62
     1
370
    -2
100
AcDbLine
 10
479.4263767971497
 20
317.4927337008919
 30
0.0
 11
440.8263767974274
 21
317.4927337008919
 31
0.0
  0
SOLID
  5
147EB
330
147B2
100
AcDbEntity
  8
DIM
 62
     1
100
AcDbTrace
 10
479.4263767971497
 20
317.9927337008919
 30
0.0
 11
479.4263767971497
 21
316.9927337008919
 31
0.0
 12
482.4263767971496
 22
317.4927337008919
 32
0.0
 13
482.4263767971496
 23
317.4927337008919
 33
0.0
  0
SOLID
  5
147EC
330
147B2
100
AcDbEntity
  8
DIM
 62
     1
100
AcDbTrace
 10
440.8263767974274
 20
317.9927337008919
 30
0.0
 11
440.8263767974274
 21
316.9927337008919
 31
0.0
 12
437.8263767974273
 22
317.4927337008919
 32
0.0
 13
437.8263767974273
 23
317.4927337008919
 33
0.0
  0
MTEXT
  5
147ED
330
147B2
100
AcDbEntity
  8
DIM
 62
     4
100
AcDbMText
 10
460.1263767972885
 20
320.0427337008918
 30
0.0
 40
3.5
 41
0.0
 71
     5
 72
     1
  1
\A1;44.6
  7
Romans字体
 73
     1
 44
1.0
1001
ACAD
1000
MTEXTBEGIN
1070
    73
1070
     1
1070
    44
1040
1.0
1070
    74
1070
     0
1000
MTEXTEND
  0
POINT
  5
147EE
330
147B2
100
AcDbEntity
  8
Defpoints
 62
     0
100
AcDbPoint
 10
482.4263767971496
 20
306.3108133456174
 30
0.0
  0
POINT
  5
147EF
330
147B2
100
AcDbEntity
  8
Defpoints
 62
     0
100
AcDbPoint
 10
437.8263767974273
 20
305.8108133473963
 30
0.0
  0
POINT
  5
147F0
330
147B2
100
AcDbEntity
  8
Defpoints
 62
     0
100
AcDbPoint
 10
437.8263767974273
 20
317.4927337008919
 30
0.0
  0
ENDBLK
  5
147B4
330
147B2
100
AcDbEntity
  8
0
100
AcDbBlockEnd
  0
ENDSEC
  0
SECTION
  2
ENTITIES
  0
HATCH
  5
28AE
330
1F
100
AcDbEntity
  8
图层 1
 62
     7
100
AcDbHatch
 10
0.0
 20
0.0
 30
0.0
210
0.0
220
0.0
230
1.0
  2
SOLID
 70
     1
 71
     0
 91
        1
 92
        1
 93
        2
 72
     4
 94
        3
 73
     0
 74
     0
 95
       17
 96
       13
 40
0.0
 40
0.0
 40
0.0
 40
0.0
 40
0.3527780104152769
 40
0.3527780104152769
 40
0.3527780104152769
 40
0.7055560208305538
 40
0.7055560208305538
 40
0.7055560208305538
 40
1.058334031245828
 40
1.058334031245828
 40
1.058334031245828
 40
1.411112041661104
 40
1.411112041661104
 40
1.411112041661104
 40
1.411112041661104
 10
11.07013262565829
 20
29.50312817963231
 10
11.07013262565829
 20
29.50312817963231
 10
10.9431807732774
 20
29.50312817963231
 10
10.9431807732774
 20
29.50312817963231
 10
10.9431807732774
 20
29.50312817963231
 10
10.85843136843155
 20
29.22786486877117
 10
10.85843136843155
 20
29.22786486877117
 10
10.85843136843155
 20
29.22786486877117
 10
10.90080607085448
 20
29.2068497724476
 10
10.90080607085448
 20
29.2068497724476
 10
10.94455881238059
 20
29.31571486159919
 10
11.00346998404173
 20
29.40907701083995
 10
11.07013262565829
 20
29.50312817963231
 72
     1
 10
11.07013262565829
 20
29.50312817963231
 11
11.07013262565829
 21
29.50312817963231
 97
        0
 75
     0
 76
     1
 98
        0
  0
HATCH
  5
2C65
330
1F
100
AcDbEntity
  8
图层 1
 62
     7
100
AcDbHatch
 10
0.0
 20
0.0
 30
0.0
210
0.0
220
0.0
230
1.0
  2
SOLID
 70
     1
 71
     0
 91
        1
 92
        1
 93
        2
 72
     4
 94
        3
 73
     0
 74
     0
 95
       47
 96
       43
 40
0.0
 40
0.0
 40
0.0
 40
0.0
 40
0.3527780104152769
 40
0.3527780104152769
 40
0.3527780104152769
 40
0.7055560208305538
 40
0.7055560208305538
 40
0.7055560208305538
 40
1.058334031245828
 40
1.058334031245828
 40
1.058334031245828
 40
1.411112041661104
 40
1.411112041661104
 40
1.411112041661104
 40
1.763890052076384
 40
1.763890052076384
 40
1.763890052076384
 40
2.116668062491659
 40
2.116668062491659
 40
2.116668062491659
 40
2.469446072906936
 40
2.469446072906936
 40
2.469446072906936
 40
2.822224083322215
 40
2.822224083322215
 40
2.822224083322215
 40
3.175002093737492
 40
3.175002093737492
 40
3.175002093737492
 40
3.527780104152768
 40
3.527780104152768
 40
3.527780104152768
 40
3.880558114568044
 40
3.880558114568044
 40
3.880558114568044
 40
4.233336124983321
 40
4.233336124983321
 40
4.233336124983321
 40
4.586114135398599
 40
4.586114135398599
 40
4.586114135398599
 40
4.938892145813873
 40
4.938892145813873
 40
4.938892145813873
 40
4.938892145813873
 10
162.8986914070121
 20
257.4895347631509
 10
162.8986914070121
 20
257.4895347631509
 10
162.9200510131114
 20
257.4471600607279
 10
162.9200510131114
 20
257.4471600607279
 10
162.9200510131114
 20
257.4471600607279
 10
162.9200510131114
 20
257.404785358305
 10
162.9200510131114
 20
257.404785358305
 10
162.9200510131114
 20
257.404785358305
 10
162.8986914070121
 20
257.36258291077
 10
162.8986914070121
 20
257.36258291077
 10
162.8986914070121
 20
257.36258291077
 10
162.8986914070121
 20
257.320208208347
 10
162.8986914070121
 20
257.320208208347
 10
162.8986914070121
 20
257.320208208347
 10
162.8563167045891
 20
257.2990208571356
 10
162.8563167045891
 20
257.2990208571356
 10
162.8563167045891
 20
257.2990208571356
 10
162.8139420021662
 20
257.2563016449369
 10
162.8139420021662
 20
257.2563016449369
 10
162.8139420021662
 20
257.2563016449369
 10
162.7295371070961
 20
257.2563016449369
 10
162.7295371070961
 20
257.2563016449369
 10
162.7295371070961
 20
257.2563016449369
 10
162.6658027985738
 20
257.2778335059241
 10
162.6658027985738
 20
257.2778335059241
 10
162.6658027985738
 20
257.2778335059241
 10
162.6237726059267
 20
257.2990208571356
 10
162.6237726059267
 20
257.2990208571356
 10
162.6237726059267
 20
257.2990208571356
 10
162.5813979035038
 20
257.3413955595585
 10
162.5813979035038
 20
257.3413955595585
 10
162.5813979035038
 20
257.3413955595585
 10
162.5813979035038
 20
257.4895347631509
 10
162.5813979035038
 20
257.4895347631509
 10
162.5813979035038
 20
257.4895347631509
 10
162.6447877022503
 20
257.5525800521216
 10
162.6447877022503
 20
257.5525800521216
 10
162.6447877022503
 20
257.5525800521216
 10
162.7081775009967
 20
257.5525800521216
 10
162.7081775009967
 20
257.5525800521216
 10
162.8749202324821
 20
257.5424170137356
 10
162.7918933765152
 20
257.5939212252171
 10
162.8986914070121
 20
257.4895347631509
 72
     1
 10
162.8986914070121
 20
257.4895347631509
 11
162.8986914070121
 21
257.4895347631509
 97
        0
 75
     0
 76
     1
 98
        0
  0
HATCH
  5
2EE7
330
1F
100
AcDbEntity
  8
图层 1
 62
     7
100
AcDbHatch
 10
0.0
 20
0.0
 30
0.0
210
0.0
220
0.0
230
1.0
  2
SOLID
 70
     1
 71
     0
 91
        1
 92
        1
 93
        2
 72
     4
 94
        3
 73
     0
 74
     0
 95
       56
 96
       52
 40
0.0
 40
0.0
 40
0.0
 40
0.0
 40
0.3527780104152769
 40
0.3527780104152769
 40
0.3527780104152769
 40
0.7055560208305538
 40
0.7055560208305538
 40
0.7055560208305538
 40
1.058334031245828
 40
1.058334031245828
 40
1.058334031245828
 40
1.411112041661104
 40
1.411112041661104
 40
1.411112041661104
 40
1.763890052076384
 40
1.763890052076384
 40
1.763890052076384
 40
2.116668062491659
 40
2.116668062491659
 40
2.116668062491659
 40
2.469446072906936
 40
2.469446072906936
 40
2.469446072906936
 40
2.822224083322215
 40
2.822224083322215
 40
2.822224083322215
 40
3.175002093737492
 40
3.175002093737492
 40
3.175002093737492
 40
3.527780104152768
 40
3.527780104152768
 40
3.527780104152768
 40
3.880558114568044
 40
3.880558114568044
 40
3.880558114568044
 40
4.233336124983321
 40
4.233336124983321
 40
4.233336124983321
 40
4.586114135398599
 40
4.586114135398599
 40
4.586114135398599
 40
4.938892145813873
 40
4.938892145813873
 40
4.938892145813873
 40
5.291670156229153
 40
5.291670156229153
 40
5.291670156229153
 40
5.64444816664443
 40
5.64444816664443
 40
5.64444816664443
 40
5.997226177059705
 40
5.997226177059705
 40
5.997226177059705
 40
5.997226177059705
 10
185.4837187788815
 20
241.4451977396596
 10
185.4837187788815
 20
241.4451977396596
 10
185.4837187788815
 20
241.4028230372367
 10
185.4837187788815
 20
241.4028230372367
 10
185.4837187788815
 20
241.4028230372367
 10
185.5047338752051
 20
241.3604483348137
 10
185.5047338752051
 20
241.3604483348137
 10
185.4520238795082
 20
241.2782827532863
 10
185.4671823096433
 20
241.1897437409066
 10
185.335579575289
 20
241.2119646214456
 10
185.335579575289
 20
241.2119646214456
 10
185.2932048728662
 20
241.2119646214456
 10
185.2932048728662
 20
241.2119646214456
 10
185.2932048728662
 20
241.2119646214456
 10
185.2294705643439
 20
241.2334964824328
 10
185.2294705643439
 20
241.2334964824328
 10
185.2294705643439
 20
241.2334964824328
 10
185.1660807655974
 20
241.2543393238685
 10
185.1660807655974
 20
241.2543393238685
 10
185.1660807655974
 20
241.2543393238685
 10
185.1450656692739
 20
241.2758711848558
 10
185.1450656692739
 20
241.2758711848558
 10
185.1450656692739
 20
241.2758711848558
 10
185.1450656692739
 20
241.2967140262914
 10
185.1450656692739
 20
241.2967140262914
 10
185.1450656692739
 20
241.2967140262914
 10
185.1237060631745
 20
241.3604483348137
 10
185.1237060631745
 20
241.3604483348137
 10
185.1237060631745
 20
241.3604483348137
 10
185.1237060631745
 20
241.4028230372367
 10
185.1237060631745
 20
241.4028230372367
 10
185.1237060631745
 20
241.4028230372367
 10
185.1660807655974
 20
241.4875724420825
 10
185.1660807655974
 20
241.4875724420825
 10
185.1660807655974
 20
241.4875724420825
 10
185.2084554680203
 20
241.5085875384061
 10
185.2084554680203
 20
241.5085875384061
 10
185.2084554680203
 20
241.5085875384061
 10
185.2718452667668
 20
241.5297748896175
 10
185.2718452667668
 20
241.5297748896175
 10
185.2718452667668
 20
241.5297748896175
 10
185.3565946716127
 20
241.5297748896175
 10
185.3565946716127
 20
241.5297748896175
 10
185.3565946716127
 20
241.5297748896175
 10
185.4199844703592
 20
241.5085875384061
 10
185.4199844703592
 20
241.5085875384061
 10
185.4199844703592
 20
241.5085875384061
 10
185.4623591727821
 20
241.4875724420825
 10
185.4623591727821
 20
241.4875724420825
 10
185.4623591727821
 20
241.4875724420825
 10
185.4837187788815
 20
241.4451977396596
 10
185.4837187788815
 20
241.4451977396596
 72
     1
 10
185.4837187788815
 20
241.4451977396596
 11
185.4837187788815
 21
241.4451977396596
 97
        0
 75
     0
 76
     1
 98
        0
  0
HATCH
  5
2F93
330
1F
100
AcDbEntity
  8
图层 1
 62
     7
100
AcDbHatch
 10
0.0
 20
0.0
 30
0.0
210
0.0
220
0.0
230
1.0
  2
SOLID
 70
     1
 71
     0
 91
        1
 92
        1
 93
        2
 72
     4
 94
        3
 73
     0
 74
     0
 95
       38
 96
       34
 40
0.0
 40
0.0
 40
0.0
 40
0.0
 40
0.3527780104152769
 40
0.3527780104152769
 40
0.3527780104152769
 40
0.7055560208305538
 40
0.7055560208305538
 40
0.7055560208305538
 40
1.058334031245828
 40
1.058334031245828
 40
1.058334031245828
 40
1.411112041661104
 40
1.411112041661104
 40
1.411112041661104
 40
1.763890052076384
 40
1.763890052076384
 40
1.763890052076384
 40
2.116668062491659
 40
2.116668062491659
 40
2.116668062491659
 40
2.469446072906936
 40
2.469446072906936
 40
2.469446072906936
 40
2.822224083322215
 40
2.822224083322215
 40
2.822224083322215
 40
3.175002093737492
 40
3.175002093737492
 40
3.175002093737492
 40
3.527780104152768
 40
3.527780104152768
 40
3.527780104152768
 40
3.880558114568044
 40
3.880558114568044
 40
3.880558114568044
 40
3.880558114568044
 10
185.907121293335
 20
220.1937677098971
 10
185.9005756075949
 20
220.0449394867532
 10
185.9329595265197
 20
220.1136691870245
 10
185.864746590912
 20
219.9817219428946
 10
185.864746590912
 20
219.9817219428946
 10
185.822371888489
 20
219.9605345916831
 10
185.822371888489
 20
219.9605345916831
 10
185.822371888489
 20
219.9605345916831
 10
185.6528730787974
 20
219.9605345916831
 10
185.6528730787974
 20
219.9605345916831
 10
185.6528730787974
 20
219.9605345916831
 10
185.5894832800509
 20
220.002909294106
 10
185.5894832800509
 20
220.002909294106
 10
185.5894832800509
 20
220.002909294106
 10
185.5681236739515
 20
220.0240966453175
 10
185.5681236739515
 20
220.0240966453175
 10
185.5681236739515
 20
220.0240966453175
 10
185.5681236739515
 20
220.045283996529
 10
185.5681236739515
 20
220.045283996529
 10
185.5681236739515
 20
220.045283996529
 10
185.547108577628
 20
220.0876586989519
 10
185.547108577628
 20
220.0876586989519
 10
185.547108577628
 20
220.0876586989519
 10
185.547108577628
 20
220.1513930074742
 10
185.547108577628
 20
220.1513930074742
 10
185.547108577628
 20
220.1513930074742
 10
185.5894832800509
 20
220.23614241232
 10
185.5894832800509
 20
220.23614241232
 10
185.5894832800509
 20
220.23614241232
 10
185.6318579824738
 20
220.2573297635315
 10
185.6318579824738
 20
220.2573297635315
 10
185.7055830744942
 20
220.2566407439799
 10
185.8416644359337
 20
220.3310548555519
 10
185.907121293335
 20
220.1937677098971
 72
     1
 10
185.907121293335
 20
220.1937677098971
 11
185.907121293335
 21
220.1937677098971
 97
        0
 75
     0
 76
     1
 98
        0
  0
HATCH
  5
2FDE
330
1F
100
AcDbEntity
  8
图层 1
 62
     7
100
AcDbHatch
 10
0.0
 20
0.0
 30
0.0
210
0.0
220
0.0
230
1.0
  2
SOLID
 70
     1
 71
     0
 91
        1
 92
        1
 93
        2
 72
     4
 94
        3
 73
     0
 74
     0
 95
       50
 96
       46
 40
0.0
 40
0.0
 40
0.0
 40
0.0
 40
0.3527780104152769
 40
0.3527780104152769
 40
0.3527780104152769
 40
0.7055560208305538
 40
0.7055560208305538
 40
0.7055560208305538
 40
1.058334031245828
 40
1.058334031245828
 40
1.058334031245828
 40
1.411112041661104
 40
1.411112041661104
 40
1.411112041661104
 40
1.763890052076384
 40
1.763890052076384
 40
1.763890052076384
 40
2.116668062491659
 40
2.116668062491659
 40
2.116668062491659
 40
2.469446072906936
 40
2.469446072906936
 40
2.469446072906936
 40
2.822224083322215
 40
2.822224083322215
 40
2.822224083322215
 40
3.175002093737492
 40
3.175002093737492
 40
3.175002093737492
 40
3.527780104152768
 40
3.527780104152768
 40
3.527780104152768
 40
3.880558114568044
 40
3.880558114568044
 40
3.880558114568044
 40
4.233336124983321
 40
4.233336124983321
 40
4.233336124983321
 40
4.586114135398599
 40
4.586114135398599
 40
4.586114135398599
 40
4.938892145813873
 40
4.938892145813873
 40
4.938892145813873
 40
5.291670156229153
 40
5.291670156229153
 40
5.291670156229153
 40
5.291670156229153
 10
180.9117295442905
 20
208.9327766684477
 10
180.9117295442905
 20
208.9327766684477
 10
180.9117295442905
 20
208.7637946234197
 10
180.9117295442905
 20
208.7637946234197
 10
181.2273004989198
 20
208.6749111012643
 10
181.3833634273555
 20
208.6776671794706
 10
181.6948002646751
 20
208.5097186637701
 10
181.9542161258496
 20
208.4294478860095
 10
182.1388733656765
 20
208.2134402565853
 10
182.3297317814676
 20
208.02292635057
 10
182.3297317814676
 20
208.02292635057
 10
182.435496282637
 20
208.065301052993
 10
182.435496282637
 20
208.065301052993
 10
182.288390608372
 20
208.2733849575739
 10
182.3752070718726
 20
208.2134402565853
 10
182.1605774815516
 20
208.3824223016133
 10
182.1605774815516
 20
208.3824223016133
 10
182.1182027791287
 20
208.4247970040363
 10
182.1182027791287
 20
208.4247970040363
 10
182.1182027791287
 20
208.4247970040363
 10
182.0968431730294
 20
208.467516216235
 10
182.0968431730294
 20
208.467516216235
 10
182.0968431730294
 20
208.467516216235
 10
182.0544684706064
 20
208.4883590576707
 10
182.0544684706064
 20
208.4883590576707
 10
182.0544684706064
 20
208.4883590576707
 10
181.9910786718599
 20
208.5305615052057
 10
181.9910786718599
 20
208.5305615052057
 10
181.9910786718599
 20
208.5305615052057
 10
181.948703969437
 20
208.552093366193
 10
181.948703969437
 20
208.552093366193
 10
181.948703969437
 20
208.552093366193
 10
181.9063292670141
 20
208.5729362076286
 10
181.9063292670141
 20
208.5729362076286
 10
181.9063292670141
 20
208.5729362076286
 10
181.8639545645911
 20
208.6156554198274
 10
181.8639545645911
 20
208.6156554198274
 10
181.8639545645911
 20
208.6156554198274
 10
181.821924371944
 20
208.6368427710388
 10
181.821924371944
 20
208.6368427710388
 10
181.6637943848536
 20
208.6742220817127
 10
181.5452830219797
 20
208.8092699138248
 10
181.3771622513911
 20
208.8061693258427
 10
181.2803550043924
 20
208.8573290275484
 10
181.0126709085988
 20
208.8971199066528
 10
180.9117295442905
 20
208.9327766684477
 72
     1
 10
180.9117295442905
 20
208.9327766684477
 11
180.9117295442905
 21
208.9327766684477
 97
        0
 75
     0
 76
     1
 98
        0
  0
HATCH
  5
35C8
330
1F
100
AcDbEntity
  8
图层 1
 62
     7
100
AcDbHatch
 10
0.0
 20
0.0
 30
0.0
210
0.0
220
0.0
230
1.0
  2
SOLID
 70
     1
 71
     0
 91
        1
 92
        1
 93
        2
 72
     4
 94
        3
 73
     0
 74
     0
 95
       38
 96
       34
 40
0.0
 40
0.0
 40
0.0
 40
0.0
 40
0.3527780104152769
 40
0.3527780104152769
 40
0.3527780104152769
 40
0.7055560208305538
 40
0.7055560208305538
 40
0.7055560208305538
 40
1.058334031245828
 40
1.058334031245828
 40
1.058334031245828
 40
1.411112041661104
 40
1.411112041661104
 40
1.411112041661104
 40
1.763890052076384
 40
1.763890052076384
 40
1.763890052076384
 40
2.116668062491659
 40
2.116668062491659
 40
2.116668062491659
 40
2.469446072906936
 40
2.469446072906936
 40
2.469446072906936
 40
2.822224083322215
 40
2.822224083322215
 40
2.822224083322215
 40
3.175002093737492
 40
3.175002093737492
 40
3.175002093737492
 40
3.527780104152768
 40
3.527780104152768
 40
3.527780104152768
 40
3.880558114568044
 40
3.880558114568044
 40
3.880558114568044
 40
3.880558114568044
 10
189.145513185819
 20
166.8326485368285
 10
189.207869455238
 20
166.740492171803
 10
189.1317327947871
 20
166.6833035490209
 10
189.103138483396
 20
166.6209472796017
 10
189.103138483396
 20
166.6209472796017
 10
189.0607637809731
 20
166.5997599283903
 10
189.0607637809731
 20
166.5997599283903
 10
189.0607637809731
 20
166.5997599283903
 10
188.9973739822266
 20
166.5785725771788
 10
188.9973739822266
 20
166.5785725771788
 10
188.9973739822266
 20
166.5785725771788
 10
188.9549992798037
 20
166.5997599283903
 10
188.9549992798037
 20
166.5997599283903
 10
188.9549992798037
 20
166.5997599283903
 10
188.8916094810572
 20
166.5997599283903
 10
188.8916094810572
 20
166.5997599283903
 10
188.8916094810572
 20
166.5997599283903
 10
188.8492347786343
 20
166.6209472796017
 10
188.8492347786343
 20
166.6209472796017
 10
188.8492347786343
 20
166.6209472796017
 10
188.8278751725349
 20
166.6633219820247
 10
188.8278751725349
 20
166.6633219820247
 10
188.8278751725349
 20
166.6633219820247
 10
188.8068600762114
 20
166.6845093332361
 10
188.8068600762114
 20
166.6845093332361
 10
188.8068600762114
 20
166.6845093332361
 10
188.8068600762114
 20
166.8326485368285
 10
188.8068600762114
 20
166.8326485368285
 10
188.8068600762114
 20
166.8326485368285
 10
188.8702498749578
 20
166.896038335575
 10
188.8702498749578
 20
166.896038335575
 10
189.0228677056355
 20
166.8819134347673
 10
189.0686875058164
 20
166.9411691162043
 10
189.145513185819
 20
166.8326485368285
 72
     1
 10
189.145513185819
 20
166.8326485368285
 11
189.145513185819
 21
166.8326485368285
 97
        0
 75
     0
 76
     1
 98
        0
  0
HATCH
  5
35D8
330
1F
100
AcDbEntity
  8
图层 1
 62
     7
100
AcDbHatch
 10
0.0
 20
0.0
 30
0.0
210
0.0
220
0.0
230
1.0
  2
SOLID
 70
     1
 71
     0
 91
        1
 92
        1
 93
        2
 72
     4
 94
        3
 73
     0
 74
     0
 95
       68
 96
       64
 40
0.0
 40
0.0
 40
0.0
 40
0.0
 40
0.3527780104152769
 40
0.3527780104152769
 40
0.3527780104152769
 40
0.7055560208305538
 40
0.7055560208305538
 40
0.7055560208305538
 40
1.058334031245828
 40
1.058334031245828
 40
1.058334031245828
 40
1.411112041661104
 40
1.411112041661104
 40
1.411112041661104
 40
1.763890052076384
 40
1.763890052076384
 40
1.763890052076384
 40
2.116668062491659
 40
2.116668062491659
 40
2.116668062491659
 40
2.469446072906936
 40
2.469446072906936
 40
2.469446072906936
 40
2.822224083322215
 40
2.822224083322215
 40
2.822224083322215
 40
3.175002093737492
 40
3.175002093737492
 40
3.175002093737492
 40
3.527780104152768
 40
3.527780104152768
 40
3.527780104152768
 40
3.880558114568044
 40
3.880558114568044
 40
3.880558114568044
 40
4.233336124983321
 40
4.233336124983321
 40
4.233336124983321
 40
4.586114135398599
 40
4.586114135398599
 40
4.586114135398599
 40
4.938892145813873
 40
4.938892145813873
 40
4.938892145813873
 40
5.291670156229153
 40
5.291670156229153
 40
5.291670156229153
 40
5.64444816664443
 40
5.64444816664443
 40
5.64444816664443
 40
5.997226177059705
 40
5.997226177059705
 40
5.997226177059705
 40
6.350004187474984
 40
6.350004187474984
 40
6.350004187474984
 40
6.702782197890257
 40
6.702782197890257
 40
6.702782197890257
 40
7.055560208305537
 40
7.055560208305537
 40
7.055560208305537
 40
7.408338218720808
 40
7.408338218720808
 40
7.408338218720808
 40
7.408338218720808
 10
174.7732543591544
 20
135.4846705078077
 10
174.7732543591544
 20
135.4846705078077
 10
174.7732543591544
 20
135.3789060066383
 10
174.7732543591544
 20
135.3789060066383
 10
174.7732543591544
 20
135.3789060066383
 10
174.8156290615773
 20
135.3789060066383
 10
174.8156290615773
 20
135.3789060066383
 10
174.8156290615773
 20
135.3789060066383
 10
174.8580037640002
 20
135.3578909103147
 10
174.8580037640002
 20
135.3578909103147
 10
174.8580037640002
 20
135.3578909103147
 10
174.9213935627468
 20
135.3578909103147
 10
174.9213935627468
 20
135.3578909103147
 10
174.9213935627468
 20
135.3578909103147
 10
174.9637682651697
 20
135.3365313042154
 10
174.9637682651697
 20
135.3365313042154
 10
174.9637682651697
 20
135.3365313042154
 10
174.9847833614933
 20
135.3365313042154
 10
174.9847833614933
 20
135.3365313042154
 10
174.9847833614933
 20
135.3365313042154
 10
175.0271580639162
 20
135.3155162078918
 10
175.0271580639162
 20
135.3155162078918
 10
175.0271580639162
 20
135.3155162078918
 10
175.0485176700155
 20
135.2941566017924
 10
175.0485176700155
 20
135.2941566017924
 10
175.0485176700155
 20
135.2941566017924
 10
175.0695327663391
 20
135.2941566017924
 10
175.0695327663391
 20
135.2941566017924
 10
175.0695327663391
 20
135.2941566017924
 10
175.0908923724385
 20
135.2731415054689
 10
175.0908923724385
 20
135.2731415054689
 10
175.0908923724385
 20
135.2731415054689
 10
175.1332670748614
 20
135.2731415054689
 10
175.1332670748614
 20
135.2731415054689
 10
175.1332670748614
 20
135.2731415054689
 10
175.154282171185
 20
135.2517818993695
 10
175.154282171185
 20
135.2517818993695
 10
175.154282171185
 20
135.2517818993695
 10
175.154282171185
 20
135.3578909103147
 10
175.154282171185
 20
135.3578909103147
 10
175.154282171185
 20
135.3578909103147
 10
175.1332670748614
 20
135.3789060066383
 10
175.1332670748614
 20
135.3789060066383
 10
175.1332670748614
 20
135.3789060066383
 10
175.0908923724385
 20
135.3789060066383
 10
175.0908923724385
 20
135.3789060066383
 10
175.0908923724385
 20
135.3789060066383
 10
175.0908923724385
 20
135.3999211029619
 10
175.0908923724385
 20
135.3999211029619
 10
175.0908923724385
 20
135.3999211029619
 10
175.0695327663391
 20
135.3999211029619
 10
175.0695327663391
 20
135.3999211029619
 10
175.0695327663391
 20
135.3999211029619
 10
175.0271580639162
 20
135.4212807090612
 10
175.0271580639162
 20
135.4212807090612
 10
175.0271580639162
 20
135.4212807090612
 10
175.0061429675926
 20
135.4212807090612
 10
175.0061429675926
 20
135.4212807090612
 10
175.0061429675926
 20
135.4212807090612
 10
174.9637682651697
 20
135.4422958053848
 10
174.9637682651697
 20
135.4422958053848
 10
174.8996894468716
 20
135.4498750204523
 10
174.8394002361073
 20
135.4860485469109
 10
174.7732543591544
 20
135.4846705078077
 72
     1
 10
174.7732543591544
 20
135.4846705078077
 11
174.7732543591544
 21
135.4846705078077
 97
        0
 75
     0
 76
     1
 98
        0
  0
HATCH
  5
3807
330
1F
100
AcDbEntity
  8
图层 1
 62
     7
100
AcDbHatch
 10
0.0
 20
0.0
 30
0.0
210
0.0
220
0.0
230
1.0
  2
SOLID
 70
     1
 71
     0
 91
        1
 92
        1
 93
        2
 72
     4
 94
        3
 73
     0
 74
     0
 95
       29
 96
       25
 40
0.0
 40
0.0
 40
0.0
 40
0.0
 40
0.3527780104152769
 40
0.3527780104152769
 40
0.3527780104152769
 40
0.7055560208305538
 40
0.7055560208305538
 40
0.7055560208305538
 40
1.058334031245828
 40
1.058334031245828
 40
1.058334031245828
 40
1.411112041661104
 40
1.411112041661104
 40
1.411112041661104
 40
1.763890052076384
 40
1.763890052076384
 40
1.763890052076384
 40
2.116668062491659
 40
2.116668062491659
 40
2.116668062491659
 40
2.469446072906936
 40
2.469446072906936
 40
2.469446072906936
 40
2.822224083322215
 40
2.822224083322215
 40
2.822224083322215
 40
2.822224083322215
 10
175.4929352807925
 20
164.0174869039101
 10
175.4929352807925
 20
164.0174869039101
 10
175.5139503771161
 20
163.9751122014871
 10
175.5139503771161
 20
163.9751122014871
 10
175.5139503771161
 20
163.9751122014871
 10
175.5139503771161
 20
163.9327374990642
 10
175.5139503771161
 20
163.9327374990642
 10
175.5139503771161
 20
163.9327374990642
 10
175.4929352807925
 20
163.8903627966413
 10
175.4929352807925
 20
163.8903627966413
 10
175.4929352807925
 20
163.8903627966413
 10
175.471920184469
 20
163.8691754454298
 10
175.471920184469
 20
163.8691754454298
 10
175.471920184469
 20
163.8691754454298
 10
175.4505605783696
 20
163.8269729978948
 10
175.4505605783696
 20
163.8269729978948
 10
175.3571984291289
 20
163.7715069239916
 10
175.272449024283
 20
163.8195660377152
 10
175.1966568736079
 20
163.8691754454298
 10
175.208370205985
 20
163.9930267098286
 10
175.1563492298397
 20
164.0216210212197
 10
175.2600466723544
 20
164.0596893514451
 10
175.3330827448232
 20
164.1094710140476
 10
175.4357466580104
 20
164.0753645462439
 10
175.4929352807925
 20
164.0174869039101
 72
     1
 10
175.4929352807925
 20
164.0174869039101
 11
175.4929352807925
 21
164.0174869039101
 97
        0
 75
     0
 76
     1
 98
        0
  0
HATCH
  5
3895
330
1F
100
AcDbEntity
  8
图层 1
 62
     7
100
AcDbHatch
 10
0.0
 20
0.0
 30
0.0
210
0.0
220
0.0
230
1.0
  2
SOLID
 70
     1
 71
     0
 91
        1
 92
        1
 93
        2
 72
     4
 94
        3
 73
     0
 74
     0
 95
       11
 96
        7
 40
0.0
 40
0.0
 40
0.0
 40
0.0
 40
0.3527780104152769
 40
0.3527780104152769
 40
0.3527780104152769
 40
0.7055560208305538
 40
0.7055560208305538
 40
0.7055560208305538
 40
0.7055560208305538
 10
174.9213935627468
 20
174.5369206529582
 10
174.9213935627468
 20
174.5369206529582
 10
174.9213935627468
 20
174.3043765542958
 10
174.9213935627468
 20
174.3043765542958
 10
174.9213935627468
 20
174.3043765542958
 10
174.9213935627468
 20
174.5369206529582
 10
174.9213935627468
 20
174.5369206529582
 72
     1
 10
174.9213935627468
 20
174.5369206529582
 11
174.9213935627468
 21
174.5369206529582
 97
        0
 75
     0
 76
     1
 98
        0
  0
HATCH
  5
3943
330
1F
100
AcDbEntity
  8
图层 1
 62
     7
100
AcDbHatch
 10
0.0
 20
0.0
 30
0.0
210
0.0
220
0.0
230
1.0
  2
SOLID
 70
     1
 71
     0
 91
        1
 92
        1
 93
        2
 72
     4
 94
        3
 73
     0
 74
     0
 95
      131
 96
      127
 40
0.0
 40
0.0
 40
0.0
 40
0.0
 40
0.3527780104152769
 40
0.3527780104152769
 40
0.3527780104152769
 40
0.7055560208305538
 40
0.7055560208305538
 40
0.7055560208305538
 40
1.058334031245828
 40
1.058334031245828
 40
1.058334031245828
 40
1.411112041661104
 40
1.411112041661104
 40
1.411112041661104
 40
1.763890052076384
 40
1.763890052076384
 40
1.763890052076384
 40
2.116668062491659
 40
2.116668062491659
 40
2.116668062491659
 40
2.469446072906936
 40
2.469446072906936
 40
2.469446072906936
 40
2.822224083322215
 40
2.822224083322215
 40
2.822224083322215
 40
3.175002093737492
 40
3.175002093737492
 40
3.175002093737492
 40
3.527780104152768
 40
3.527780104152768
 40
3.527780104152768
 40
3.880558114568044
 40
3.880558114568044
 40
3.880558114568044
 40
4.233336124983321
 40
4.233336124983321
 40
4.233336124983321
 40
4.586114135398599
 40
4.586114135398599
 40
4.586114135398599
 40
4.938892145813873
 40
4.938892145813873
 40
4.938892145813873
 40
5.291670156229153
 40
5.291670156229153
 40
5.291670156229153
 40
5.64444816664443
 40
5.64444816664443
 40
5.64444816664443
 40
5.997226177059705
 40
5.997226177059705
 40
5.997226177059705
 40
6.350004187474984
 40
6.350004187474984
 40
6.350004187474984
 40
6.702782197890257
 40
6.702782197890257
 40
6.702782197890257
 40
7.055560208305537
 40
7.055560208305537
 40
7.055560208305537
 40
7.408338218720808
 40
7.408338218720808
 40
7.408338218720808
 40
7.76111622913609
 40
7.76111622913609
 40
7.76111622913609
 40
8.113894239551369
 40
8.113894239551369
 40
8.113894239551369
 40
8.466672249966642
 40
8.466672249966642
 40
8.466672249966642
 40
8.819450260381922
 40
8.819450260381922
 40
8.819450260381922
 40
9.172228270797198
 40
9.172228270797198
 40
9.172228270797198
 40
9.525006281212476
 40
9.525006281212476
 40
9.525006281212476
 40
9.877784291627751
 40
9.877784291627751
 40
9.877784291627751
 40
10.23056230204303
 40
10.23056230204303
 40
10.23056230204303
 40
10.58334031245831
 40
10.58334031245831
 40
10.58334031245831
 40
10.93611832287358
 40
10.93611832287358
 40
10.93611832287358
 40
11.28889633328886
 40
11.28889633328886
 40
11.28889633328886
 40
11.64167434370414
 40
11.64167434370414
 40
11.64167434370414
 40
11.99445235411941
 40
11.99445235411941
 40
11.99445235411941
 40
12.34723036453469
 40
12.34723036453469
 40
12.34723036453469
 40
12.70000837494997
 40
12.70000837494997
 40
12.70000837494997
 40
13.05278638536524
 40
13.05278638536524
 40
13.05278638536524
 40
13.40556439578052
 40
13.40556439578052
 40
13.40556439578052
 40
13.7583424061958
 40
13.7583424061958
 40
13.7583424061958
 40
14.11112041661107
 40
14.11112041661107
 40
14.11112041661107
 40
14.46389842702635
 40
14.46389842702635
 40
14.46389842702635
 40
14.81667643744163
 40
14.81667643744163
 40
14.81667643744163
 40
14.81667643744163
 10
173.3972823146245
 20
126.8274843518258
 10
173.3972823146245
 20
126.8274843518258
 10
173.3972823146245
 20
126.7217198506564
 10
173.3972823146245
 20
126.7217198506564
 10
173.3972823146245
 20
126.7217198506564
 10
173.4186419207238
 20
126.7217198506564
 10
173.4186419207238
 20
126.7217198506564
 10
173.4186419207238
 20
126.7217198506564
 10
173.4820317194703
 20
126.7007047543328
 10
173.4820317194703
 20
126.7007047543328
 10
173.4820317194703
 20
126.7007047543328
 10
173.5244064218933
 20
126.6793451482334
 10
173.5244064218933
 20
126.6793451482334
 10
173.5244064218933
 20
126.6793451482334
 10
173.5877962206398
 20
126.6793451482334
 10
173.5877962206398
 20
126.6793451482334
 10
173.5877962206398
 20
126.6793451482334
 10
173.6301709230627
 20
126.6583300519099
 10
173.6301709230627
 20
126.6583300519099
 10
173.7955356154449
 20
126.5911506456296
 10
173.759706598762
 20
126.6380039751379
 10
173.9478089363468
 20
126.5525655507404
 10
173.9478089363468
 20
126.5525655507404
 10
173.9688240326703
 20
126.4464565397952
 10
173.9688240326703
 20
126.4464565397952
 10
173.9688240326703
 20
126.4464565397952
 10
174.0325583411926
 20
126.5101908483175
 10
174.0325583411926
 20
126.5101908483175
 10
174.0325583411926
 20
126.5101908483175
 10
174.0749330436156
 20
126.5101908483175
 10
174.0749330436156
 20
126.5101908483175
 10
174.0749330436156
 20
126.5101908483175
 10
174.1593379386856
 20
126.4678161458946
 10
174.1593379386856
 20
126.4678161458946
 10
174.1593379386856
 20
126.4678161458946
 10
174.180697544785
 20
126.4464565397952
 10
174.180697544785
 20
126.4464565397952
 10
174.2464989119621
 20
126.3982251711837
 10
174.3298702777047
 20
126.3716979184474
 10
174.3922265471239
 20
126.3196769423022
 10
174.608234176548
 20
126.2059887162895
 10
174.7749769080334
 20
126.0278771622029
 10
174.9637682651697
 20
125.8749148217494
 10
174.9637682651697
 20
125.8749148217494
 10
175.0061429675926
 20
125.9172895241723
 10
175.0061429675926
 20
125.9172895241723
 10
174.961356696739
 20
125.9631093243532
 10
174.782211613325
 20
126.1246844092016
 10
174.7308796567315
 20
126.1501781326105
 10
174.7308796567315
 20
126.1501781326105
 10
174.6885049543085
 20
126.1925528350335
 10
174.6885049543085
 20
126.1925528350335
 10
174.6885049543085
 20
126.1925528350335
 10
174.667489857985
 20
126.2349275374564
 10
174.667489857985
 20
126.2349275374564
 10
174.667489857985
 20
126.2349275374564
 10
174.625115155562
 20
126.2559426337799
 10
174.625115155562
 20
126.2559426337799
 10
174.625115155562
 20
126.2559426337799
 10
174.5827404531391
 20
126.2983173362029
 10
174.5827404531391
 20
126.2983173362029
 10
174.5827404531391
 20
126.2983173362029
 10
174.5403657507162
 20
126.3196769423022
 10
174.5403657507162
 20
126.3196769423022
 10
174.5403657507162
 20
126.3196769423022
 10
174.4979910482932
 20
126.3620516447252
 10
174.4979910482932
 20
126.3620516447252
 10
174.4735308542117
 20
126.3875453681341
 10
174.3247026310678
 20
126.4695386947736
 10
174.2864620459544
 20
126.4888312422181
 10
174.2864620459544
 20
126.4888312422181
 10
174.2654469496308
 20
126.5101908483175
 10
174.2654469496308
 20
126.5101908483175
 10
174.2654469496308
 20
126.5101908483175
 10
174.2230722472079
 20
126.5312059446411
 10
174.2230722472079
 20
126.5312059446411
 10
174.2230722472079
 20
126.5312059446411
 10
174.2017126411085
 20
126.5525655507404
 10
174.2017126411085
 20
126.5525655507404
 10
174.2017126411085
 20
126.5525655507404
 10
174.1383228423621
 20
126.573580647064
 10
174.1383228423621
 20
126.573580647064
 10
174.1383228423621
 20
126.573580647064
 10
174.1169632362627
 20
126.5945957433876
 10
174.1169632362627
 20
126.5945957433876
 10
174.1169632362627
 20
126.5945957433876
 10
174.0959481399391
 20
126.7007047543328
 10
174.0959481399391
 20
126.7007047543328
 10
174.0959481399391
 20
126.7007047543328
 10
174.0325583411926
 20
126.6369704458105
 10
174.0325583411926
 20
126.6369704458105
 10
174.0325583411926
 20
126.6369704458105
 10
173.9901836387697
 20
126.6369704458105
 10
173.9901836387697
 20
126.6369704458105
 10
173.9901836387697
 20
126.6369704458105
 10
173.9054342339239
 20
126.6793451482334
 10
173.9054342339239
 20
126.6793451482334
 10
173.9054342339239
 20
126.6793451482334
 10
173.8420444351773
 20
126.7007047543328
 10
173.8420444351773
 20
126.7007047543328
 10
173.8420444351773
 20
126.7007047543328
 10
173.7996697327544
 20
126.7217198506564
 10
173.7996697327544
 20
126.7217198506564
 10
173.7996697327544
 20
126.7217198506564
 10
173.7572950303315
 20
126.7217198506564
 10
173.7572950303315
 20
126.7217198506564
 10
173.7572950303315
 20
126.7217198506564
 10
173.6725456254856
 20
126.7640945530793
 10
173.6725456254856
 20
126.7640945530793
 10
173.6725456254856
 20
126.7640945530793
 10
173.6515305291621
 20
126.7640945530793
 10
173.6515305291621
 20
126.7640945530793
 10
173.6515305291621
 20
126.7640945530793
 10
173.5667811243162
 20
126.7851096494029
 10
173.5667811243162
 20
126.7851096494029
 10
173.5667811243162
 20
126.7851096494029
 10
173.5033913255697
 20
126.8064692555022
 10
173.5033913255697
 20
126.8064692555022
 10
173.5033913255697
 20
126.8064692555022
 10
173.4396570170474
 20
126.8064692555022
 10
173.4396570170474
 20
126.8064692555022
 10
173.4396570170474
 20
126.8064692555022
 10
173.4186419207238
 20
126.8274843518258
 10
173.4186419207238
 20
126.8274843518258
 10
173.4186419207238
 20
126.8274843518258
 10
173.3972823146245
 20
126.8274843518258
 10
173.3972823146245
 20
126.8274843518258
 72
     1
 10
173.3972823146245
 20
126.8274843518258
 11
173.3972823146245
 21
126.8274843518258
 97
        0
 75
     0
 76
     1
 98
        0
  0
HATCH
  5
4842
330
1F
100
AcDbEntity
  8
图层 1
 62
     7
100
AcDbHatch
 10
0.0
 20
0.0
 30
0.0
210
0.0
220
0.0
230
1.0
  2
SOLID
 70
     1
 71
     0
 91
        1
 92
        1
 93
        2
 72
     4
 94
        3
 73
     0
 74
     0
 95
       47
 96
       43
 40
0.0
 40
0.0
 40
0.0
 40
0.0
 40
0.3527780104152769
 40
0.3527780104152769
 40
0.3527780104152769
 40
0.7055560208305538
 40
0.7055560208305538
 40
0.7055560208305538
 40
1.058334031245828
 40
1.058334031245828
 40
1.058334031245828
 40
1.411112041661104
 40
1.411112041661104
 40
1.411112041661104
 40
1.763890052076384
 40
1.763890052076384
 40
1.763890052076384
 40
2.116668062491659
 40
2.116668062491659
 40
2.116668062491659
 40
2.469446072906936
 40
2.469446072906936
 40
2.469446072906936
 40
2.822224083322215
 40
2.822224083322215
 40
2.822224083322215
 40
3.175002093737492
 40
3.175002093737492
 40
3.175002093737492
 40
3.527780104152768
 40
3.527780104152768
 40
3.527780104152768
 40
3.880558114568044
 40
3.880558114568044
 40
3.880558114568044
 40
4.233336124983321
 40
4.233336124983321
 40
4.233336124983321
 40
4.586114135398599
 40
4.586114135398599
 40
4.586114135398599
 40
4.938892145813873
 40
4.938892145813873
 40
4.938892145813873
 40
4.938892145813873
 10
180.1920486226523
 20
255.6479577566324
 10
180.1920486226523
 20
255.6479577566324
 10
180.2130637189759
 20
255.6055830542095
 10
180.2130637189759
 20
255.6055830542095
 10
180.2130637189759
 20
255.6055830542095
 10
180.2130637189759
 20
255.5210059042515
 10
180.2130637189759
 20
255.5210059042515
 10
180.2130637189759
 20
255.5210059042515
 10
180.1920486226523
 20
255.4786312018286
 10
180.1920486226523
 20
255.4786312018286
 10
180.1920486226523
 20
255.4786312018286
 10
180.1496739202294
 20
255.4359119896299
 10
180.1496739202294
 20
255.4359119896299
 10
180.1496739202294
 20
255.4359119896299
 10
180.1283143141301
 20
255.4147246384184
 10
180.1283143141301
 20
255.4147246384184
 10
180.1283143141301
 20
255.4147246384184
 10
180.0225498129606
 20
255.4147246384184
 10
180.0225498129606
 20
255.4147246384184
 10
180.0225498129606
 20
255.4147246384184
 10
179.9591600142141
 20
255.4359119896299
 10
179.9591600142141
 20
255.4359119896299
 10
179.9591600142141
 20
255.4359119896299
 10
179.9167853117912
 20
255.4570993408414
 10
179.9167853117912
 20
255.4570993408414
 10
179.9167853117912
 20
255.4570993408414
 10
179.8957702154676
 20
255.4786312018286
 10
179.8957702154676
 20
255.4786312018286
 10
179.8957702154676
 20
255.4786312018286
 10
179.8744106093683
 20
255.4994740432643
 10
179.8744106093683
 20
255.4994740432643
 10
179.8744106093683
 20
255.4994740432643
 10
179.8744106093683
 20
255.6479577566324
 10
179.8744106093683
 20
255.6479577566324
 10
179.9608825630931
 20
255.7323626517025
 10
180.045631967939
 20
255.7085914771726
 10
180.1496739202294
 20
255.7115198102668
 10
180.1496739202294
 20
255.7115198102668
 10
180.170689016553
 20
255.6688005980681
 10
180.170689016553
 20
255.6688005980681
 10
180.170689016553
 20
255.6688005980681
 10
180.1920486226523
 20
255.6479577566324
 10
180.1920486226523
 20
255.6479577566324
 72
     1
 10
180.1920486226523
 20
255.6479577566324
 11
180.1920486226523
 21
255.6479577566324
 97
        0
 75
     0
 76
     1
 98
        0
  0
MTEXT
  5
65A0
330
1F
100
AcDbEntity
  8
图框
 62
     3
100
AcDbMText
 10
652.3064215351515
 20
221.9674786344378
 30
0.0
 40
2.985513575034151
 41
33.61239199242137
 71
     5
 72
     5
  1
HMK-004-MC
  7
Romans字体
 73
     1
 44
1.0
1001
ACAD
1000
MTEXTBEGIN
1070
    73
1070
     1
1070
    44
1040
1.0
1070
    74
1070
     0
1000
MTEXTEND
1000
ACAD_MTEXT_DEFINED_HEIGHT_BEGIN
1070
    46
1040
8.686745505685866
1000
ACAD_MTEXT_DEFINED_HEIGHT_END
  0
MTEXT
  5
65A1
330
1F
100
AcDbEntity
  8
图框
 62
     3
100
AcDbMText
 10
652.3064215351515
 20
213.1880281076118
 30
0.0
 40
2.985513575034151
 41
33.61239199242137
 71
     5
 72
     5
  1
1290040100001
  7
Romans字体
 73
     1
 44
1.0
1001
ACAD
1000
MTEXTBEGIN
1070
    73
1070
     1
1070
    44
1040
1.0
1070
    74
1070
     0
1000
MTEXTEND
1000
ACAD_MTEXT_DEFINED_HEIGHT_BEGIN
1070
    46
1040
8.872155547966105
1000
ACAD_MTEXT_DEFINED_HEIGHT_END
  0
MTEXT
  5
65A3
330
1F
100
AcDbEntity
  8
图框
 62
     3
100
AcDbMText
 10
584.2527566045665
 20
199.8803930288668
 30
0.0
 40
2.985513575034151
 41
10.82934843439047
 71
     5
 72
     5
  1
1:1 
  7
Romans字体
 73
     1
 44
1.0
1001
ACAD
1000
MTEXTBEGIN
1070
    73
1070
     1
1070
    44
1040
1.0
1070
    74
1070
     0
1000
MTEXTEND
1000
ACAD_MTEXT_DEFINED_HEIGHT_BEGIN
1070
    46
1040
7.886094601210496
1000
ACAD_MTEXT_DEFINED_HEIGHT_END
  0
MTEXT
  5
65A4
330
1F
100
AcDbEntity
  8
图框
 62
     3
100
AcDbMText
 10
595.0821050389572
 20
199.8803930288669
 30
0.0
 40
2.985513575034151
 41
10.82934843439126
 71
     5
 72
     5
  1
V1.0 
  7
Romans字体
 73
     1
 44
1.0
1001
ACAD
1000
MTEXTBEGIN
1070
    73
1070
     1
1070
    44
1040
1.0
1070
    74
1070
     0
1000
MTEXTEND
1000
ACAD_MTEXT_DEFINED_HEIGHT_BEGIN
1070
    46
1040
7.886094601210459
1000
ACAD_MTEXT_DEFINED_HEIGHT_END
  0
MTEXT
  5
65B2
330
1F
100
AcDbEntity
  8
图框
 62
     3
100
AcDbMText
 10
605.9114534733492
 20
199.8803930288669
 30
0.0
 40
2.985513575034151
 41
10.82934843439217
 71
     5
 72
     5
  1
11.6g
  7
Romans字体
 73
     1
 44
1.0
1001
ACAD
1000
MTEXTBEGIN
1070
    73
1070
     1
1070
    44
1040
1.0
1070
    74
1070
     0
1000
MTEXTEND
1000
ACAD_MTEXT_DEFINED_HEIGHT_BEGIN
1070
    46
1040
7.886094601210402
1000
ACAD_MTEXT_DEFINED_HEIGHT_END
  0
MTEXT
  5
6E00
102
{ACAD_XDICTIONARY
360
14991
102
}
330
1F
100
AcDbEntity
  8
打标文字
 62
     3
100
AcDbMText
 10
569.7875236196565
 20
324.2279756403526
 30
0.0
 40
1.912985285738284
 41
55.18345123699972
 71
     1
 72
     5
  3
\A1;{\f仿宋_GB2312|b0|i0|c134|p49;技术参数}:\P{\f仿宋_GB2312|b0|i0|c134|p49;插芯：}\P- {\f仿宋_GB2312|b0|i0|c134|p49;插针数}: 4\P- {\f仿宋_GB2312|b0|i0|c134|p49;额定电流}: 40A\P- {\f仿宋_GB2312|b0|i0|c134|p49;额定电压}: 830V\P- {\f仿宋_GB2312|b0|i0|c134|p49;额定脉冲电压}: 8kV\P- {\f仿宋_
  3
GB2312|b0|i0|c134|p49;污染等级}: 3\P- {\f仿宋_GB2312|b0|i0|c134|p49;依据}UL{\f仿宋_GB2312|b0|i0|c134|p49;的额定电压}: 600V\P- {\f仿宋_GB2312|b0|i0|c134|p49;绝缘阻抗}: {\f仿宋_GB2312|b0|i0|c134|p49;≥}10{\H0.7x;\S10^ ;}\U+03A9\P- {\f仿宋_GB2312|b0|i0|c134|p49;材料}: {\f仿宋_GB2312|
  3
b0|i0|c134|p49;聚碳酸酯}\P- {\f仿宋_GB2312|b0|i0|c134|p49;颜色}: RAL 7032{\f仿宋_GB2312|b0|i0|c134|p49;（浅灰色）}\P- {\f仿宋_GB2312|b0|i0|c134|p49;温度范围}: -40{\f仿宋_GB2312|b0|i0|c134|p49;℃} - +125{\f仿宋_GB2312|b0|i0|c134|p49;℃}\P- {\f仿宋_GB2312|b0|i0|c134|p49;依据}UL 94{\
  3
f仿宋_GB2312|b0|i0|c134|p49;的阻燃等级}: V0\P- {\f仿宋_GB2312|b0|i0|c134|p49;可插拔次数}: {\f仿宋_GB2312|b0|i0|c134|p49;≥}500\P{\f仿宋_GB2312|b0|i0|c134|p49;插针：}\P- {\f仿宋_GB2312|b0|i0|c134|p49;接线方式}: {\f仿宋_GB2312|b0|i0|c134|p49;冷压连接}\P- {\f仿宋_GB2312|b0|i0|c134|p49;材料}
  3
: {\f仿宋_GB2312|b0|i0|c134|p49;铜合金}\P- {\f仿宋_GB2312|b0|i0|c134|p49;表面处理}: {\f仿宋_GB2312|b0|i0|c134|p49;镀银}\P- {\f仿宋_GB2312|b0|i0|c134|p49;接触电阻}: \U+22641m\U+03A9\P- {\f仿宋_GB2312|b0|i0|c134|p49;线径范围}: 1.5-6mm{\H0.7x;\S2^ ;}(16-10 AWG)\P- {\f仿宋_GB2312|b0|
  1
i0|c134|p49;工具：}\P   {\f仿宋_GB2312|b0|i0|c134|p49;·} {\f仿宋_GB2312|b0|i0|c134|p49;冷压钳}: \P    TL02-0G(1.5-6mm{\H0.7x;\S2^ ;})\P    TL02-3G(4/6/10mm{\H0.7x;\S2^ ;})\P   {\f仿宋_GB2312|b0|i0|c134|p49;·} {\f仿宋_GB2312|b0|i0|c134|p49;退针器}: TL06G
  7
Romans字体
 73
     1
 44
1.0
1001
ACAD
1000
MTEXTBEGIN
1070
    73
1070
     1
1070
    44
1040
1.0
1070
    74
1070
     0
1000
MTEXTEND
1000
ACAD_MTEXT_DEFINED_HEIGHT_BEGIN
1070
    46
1040
8.294818561909686
1000
ACAD_MTEXT_DEFINED_HEIGHT_END
  0
MTEXT
  5
7228
102
{ACAD_XDICTIONARY
360
14993
102
}
330
1F
100
AcDbEntity
  8
打标文字
 62
     3
100
AcDbMText
 10
615.4785658800781
 20
324.4029607961731
 30
0.0
 40
1.912985285738284
 41
67.09538717665188
 71
     1
 72
     5
  3
\A1;Technical specification:\PInserts:\P- No. of contact: 4\P- Rated current: 40A\P- Rated voltage: 830V\P- Rated impulse voltage: 8kV\P- Pollution degree: 3\P- Rated voltage acc.to UL: 600V\P- Insulation resistance: {\fSimSun|b0|i0|c134|p2;≥}10{\H0.
  3
7x;\S10^ ;}\U+03A9\P- Material: polycarbonate\P- Colour: RAL 7032(light grey) \P- Temperature range: -40{\fSimSun|b0|i0|c0|p2;\U+2103} - +125{\fSimSun|b0|i0|c0|p2;\U+2103}\P- Flammability acc.to UL 94: V0\P- Mating cycles: {\fSimSun|b0|i0|c134|p2;≥}50
  3
0\PContacts:\P- Terminal: crimp terminal\P- Material: copper alloy\P- Surface: hard-silver plated\P- Contact resistance: {\fFangSong_GB2312|b0|i0|c134|p49;≤}1m\U+03A9\P- Wire gauge: 1.5-6mm{\H0.7x;\S2^ ;\H1.4286x;(16-10 AWG)}\P- Tools:\P   {\fISOCPEUR
  1
|b0|i0|c0|p34;\U+00B7} Crimp contact tool: \P    TL02-0G(1.5-6mm{\H0.7x;\S2^ ;\H1.4286x;)\P    TL02-3G(4/6/10mm\H0.7x;\S2^ ;\H1.4286x;)\P}   {\fISOCPEUR|b0|i0|c0|p34;\U+00B7} Contact removal tool: TL06G
  7
Romans字体
 73
     1
 44
1.0
1001
ACAD
1000
MTEXTBEGIN
1070
    73
1070
     1
1070
    44
1040
1.0
1070
    74
1070
     0
1000
MTEXTEND
1000
ACAD_MTEXT_DEFINED_HEIGHT_BEGIN
1070
    46
1040
8.294818561909686
1000
ACAD_MTEXT_DEFINED_HEIGHT_END
  0
INSERT
  5
11089
330
1F
100
AcDbEntity
  8
DIM
100
AcDbBlockReference
  2
A4图框-NEW
 10
-457.8158850790006
 20
-295.9613488704692
 30
0.0
  0
LINE
  5
1456E
330
1F
100
AcDbEntity
  8
0
100
AcDbLine
 10
397.2292088390656
 20
233.3659735100282
 30
0.0
 11
397.0717696294343
 21
233.3012867346524
 31
0.0
  0
LINE
  5
1456F
330
1F
100
AcDbEntity
  8
0
100
AcDbLine
 10
394.4380880306659
 20
224.7786899581897
 30
0.0
 11
397.0717696294343
 21
233.3012867346524
 31
0.0
  0
LINE
  5
14570
330
1F
100
AcDbEntity
  8
0
100
AcDbLine
 10
396.6566476047163
 20
226.5333422355179
 30
0.0
 11
396.3080720986655
 21
225.4053514856614
 31
0.0
  0
LINE
  5
14571
330
1F
100
AcDbEntity
  8
0
100
AcDbLine
 10
394.4380880306659
 20
224.7786899581897
 30
0.0
 11
394.4018741818328
 21
224.2167152060951
 31
0.0
  0
LINE
  5
14572
330
1F
100
AcDbEntity
  8
0
100
AcDbLine
 10
397.6866535772084
 20
228.628388776432
 30
0.0
 11
397.9241367293703
 21
229.3968845317895
 31
0.0
  0
LINE
  5
14573
330
1F
100
AcDbEntity
  8
0
100
AcDbLine
 10
399.4028370384107
 20
225.4053514856614
 30
0.0
 11
399.7514125444585
 21
226.5333422355179
 31
0.0
  0
LINE
  5
14574
330
1F
100
AcDbEntity
  8
0
100
AcDbLine
 10
400.3100971654677
 20
223.4210544474072
 30
0.0
 11
400.3254645271614
 21
223.4707832440617
 31
0.0
  0
LINE
  5
14575
330
1F
100
AcDbEntity
  8
0
100
AcDbLine
 10
403.6018618270356
 20
232.674625207187
 30
0.0
 11
403.2532863209876
 21
231.5466344573301
 31
0.0
  0
LINE
  5
14576
330
1F
100
AcDbEntity
  8
0
100
AcDbLine
 10
401.8045331443288
 20
225.6204134441559
 30
0.0
 11
402.0420162944565
 21
226.3889091995197
 31
0.0
  0
LINE
  5
14577
330
1F
100
AcDbEntity
  8
0
100
AcDbLine
 10
401.1144580296918
 20
221.4816313453134
 30
0.0
 11
401.1714015500425
 21
221.6659006460568
 31
0.0
  0
LINE
  5
14578
330
1F
100
AcDbEntity
  8
0
100
AcDbLine
 10
406.3480512607299
 20
231.5466344573301
 30
0.0
 11
406.6966267667777
 21
232.674625207187
 31
0.0
  0
LINE
  5
14579
330
1F
100
AcDbEntity
  8
0
100
AcDbLine
 10
401.1113186303301
 20
214.1605137020756
 30
0.0
 11
401.0686109910814
 21
214.0223117270215
 31
0.0
  0
LINE
  5
1457A
330
1F
100
AcDbEntity
  8
0
100
AcDbLine
 10
406.7514760977712
 20
226.5333422355179
 30
0.0
 11
406.4029005917205
 21
225.4053514856614
 31
0.0
  0
LINE
  5
1457B
330
1F
100
AcDbEntity
  8
0
100
AcDbLine
 10
394.7049375838347
 20
222.9734952693743
 30
0.0
 11
394.4018741818328
 21
224.2167152060951
 31
0.0
  0
LINE
  5
1457C
330
1F
100
AcDbEntity
  8
0
100
AcDbLine
 10
405.9549893209223
 20
223.4707832440617
 30
0.0
 11
405.9396219612573
 21
223.4210544474072
 31
0.0
  0
LINE
  5
1457D
330
1F
100
AcDbEntity
  8
0
100
AcDbLine
 10
407.7814820722975
 20
228.628388776432
 30
0.0
 11
408.0189652224282
 21
229.3968845317895
 31
0.0
  0
LINE
  5
1457E
330
1F
100
AcDbEntity
  8
0
100
AcDbLine
 10
404.2002183707293
 20
214.0223117270215
 30
0.0
 11
404.2429260099781
 21
214.1605137020756
 31
0.0
  0
LINE
  5
1457F
330
1F
100
AcDbEntity
  8
0
100
AcDbLine
 10
406.8913525850986
 20
221.4816313453134
 30
0.0
 11
406.9482961054522
 21
221.6659006460568
 31
0.0
  0
LINE
  5
14580
330
1F
100
AcDbEntity
  8
0
100
AcDbLine
 10
409.4976655314654
 20
225.4053514856614
 30
0.0
 11
409.8462410375135
 21
226.5333422355179
 31
0.0
  0
LINE
  5
14581
330
1F
100
AcDbEntity
  8
0
100
AcDbLine
 10
410.4049256605541
 20
223.4210544474072
 30
0.0
 11
410.4202930202192
 21
223.4707832440617
 31
0.0
  0
LINE
  5
14582
330
1F
100
AcDbEntity
  8
0
100
AcDbLine
 10
399.0975404623147
 20
214.0223117270215
 30
0.0
 11
394.7049375838347
 21
222.9734952693743
 31
0.0
  0
LINE
  5
14583
330
1F
100
AcDbEntity
  8
0
100
AcDbLine
 10
401.0686109910814
 20
214.0223117270215
 30
0.0
 11
397.4081085899794
 21
221.4816313453134
 31
0.0
  0
LINE
  5
14584
330
1F
100
AcDbEntity
  8
0
100
AcDbLine
 10
397.5186359096909
 20
221.4816313453134
 30
0.0
 11
401.1791383087611
 21
214.0223117270215
 31
0.0
  0
LINE
  5
14585
330
1F
100
AcDbEntity
  8
0
100
AcDbLine
 10
413.6966903200906
 20
232.674625207187
 30
0.0
 11
413.3481148160741
 21
231.5466344573301
 31
0.0
  0
LINE
  5
14586
330
1F
100
AcDbEntity
  8
0
100
AcDbLine
 10
411.8993616373868
 20
225.6204134441559
 30
0.0
 11
412.1368447875146
 21
226.3889091995197
 31
0.0
  0
LINE
  5
14587
330
1F
100
AcDbEntity
  8
0
100
AcDbLine
 10
411.2092865247783
 20
221.4816313453134
 30
0.0
 11
411.2662300451288
 21
221.6659006460568
 31
0.0
  0
LINE
  5
14588
330
1F
100
AcDbEntity
  8
0
100
AcDbLine
 10
396.6566476047163
 20
226.5333422355179
 30
0.0
 11
397.2101850660905
 21
225.4053514856614
 31
0.0
  0
LINE
  5
14589
330
1F
100
AcDbEntity
  8
0
100
AcDbLine
 10
406.6645583056414
 20
206.5675180920634
 30
0.0
 11
403.0062769354008
 21
214.0223117270215
 31
0.0
  0
LINE
  5
1458A
330
1F
100
AcDbEntity
  8
0
100
AcDbLine
 10
407.5270385537538
 20
205.0334939759632
 30
0.0
 11
403.1159674876726
 21
214.0223117270215
 31
0.0
  0
LINE
  5
1458B
330
1F
100
AcDbEntity
  8
0
100
AcDbLine
 10
416.442879755819
 20
231.5466344573301
 30
0.0
 11
416.7914552598325
 21
232.674625207187
 31
0.0
  0
LINE
  5
1458C
330
1F
100
AcDbEntity
  8
0
100
AcDbLine
 10
411.2061471254166
 20
214.1605137020756
 30
0.0
 11
411.163439484136
 21
214.0223117270215
 31
0.0
  0
LINE
  5
1458D
330
1F
100
AcDbEntity
  8
0
100
AcDbLine
 10
418.6614393278354
 20
233.3012867346524
 30
0.0
 11
416.0277577290668
 21
224.7786899581897
 31
0.0
  0
LINE
  5
1458E
330
1F
100
AcDbEntity
  8
0
100
AcDbLine
 10
400.5397159696244
 20
221.4816313453134
 30
0.0
 11
404.2002183707293
 21
214.0223117270215
 31
0.0
  0
LINE
  5
1458F
330
1F
100
AcDbEntity
  8
0
100
AcDbLine
 10
404.3107456884093
 20
214.0223117270215
 30
0.0
 11
400.6502432893388
 21
221.4816313453134
 31
0.0
  0
LINE
  5
14590
330
1F
100
AcDbEntity
  8
0
100
AcDbLine
 10
400.1383240571485
 20
223.4707832440617
 30
0.0
 11
401.1144580296918
 21
221.4816313453134
 31
0.0
  0
LINE
  5
14591
330
1F
100
AcDbEntity
  8
0
100
AcDbLine
 10
401.261827789306
 20
221.4816313453134
 30
0.0
 11
400.3100971654677
 21
223.4210544474072
 31
0.0
  0
LINE
  5
14592
330
1F
100
AcDbEntity
  8
0
100
AcDbLine
 10
405.5544477374503
 20
214.0223117270215
 30
0.0
 11
409.8831583180093
 21
205.2013270017396
 31
0.0
  0
LINE
  5
14593
330
1F
100
AcDbEntity
  8
0
100
AcDbLine
 10
410.7824378707308
 20
203.5595427597927
 30
0.0
 11
405.648056604842
 21
214.0223117270215
 31
0.0
  0
LINE
  5
14594
330
1F
100
AcDbEntity
  8
0
100
AcDbLine
 10
416.0903444994977
 20
223.4707832440617
 30
0.0
 11
416.0749771398325
 21
223.4210544474072
 31
0.0
  0
LINE
  5
14595
330
1F
100
AcDbEntity
  8
0
100
AcDbLine
 10
419.8587907355141
 20
232.1227535733078
 30
0.0
 11
417.0314560782814
 21
222.9734952693743
 31
0.0
  0
LINE
  5
14596
330
1F
100
AcDbEntity
  8
0
100
AcDbLine
 10
414.2950468637842
 20
214.0223117270215
 30
0.0
 11
414.3377545050674
 21
214.1605137020756
 31
0.0
  0
LINE
  5
14597
330
1F
100
AcDbEntity
  8
0
100
AcDbLine
 10
417.0267077636736
 20
221.4816313453134
 30
0.0
 11
417.0836512840272
 21
221.6659006460568
 31
0.0
  0
LINE
  5
14598
330
1F
100
AcDbEntity
  8
0
100
AcDbLine
 10
412.4542214694994
 20
202.2863155252007
 30
0.0
 11
414.5383445880121
 21
202.2863155252007
 31
0.0
  0
LINE
  5
14599
330
1F
100
AcDbEntity
  8
0
100
AcDbLine
 10
422.5490499625545
 20
202.2863155252007
 30
0.0
 11
424.6331730830985
 21
202.2863155252007
 31
0.0
  0
LINE
  5
1459A
330
1F
100
AcDbEntity
  8
0
100
AcDbLine
 10
399.8612001795942
 20
228.4099595663483
 30
0.0
 11
398.8178369709211
 21
230.4089729988481
 31
0.0
  0
LINE
  5
1459B
330
1F
100
AcDbEntity
  8
0
100
AcDbLine
 10
398.9271936168262
 20
230.4922410893541
 30
0.0
 11
399.9933288663139
 21
228.4495979650992
 31
0.0
  0
LINE
  5
1459C
330
1F
100
AcDbEntity
  8
0
100
AcDbLine
 10
398.6800075488435
 20
230.3040247098834
 30
0.0
 11
399.6417819930831
 21
228.3441344544117
 31
0.0
  0
LINE
  5
1459D
330
1F
100
AcDbEntity
  8
0
100
AcDbLine
 10
412.4542214694994
 20
202.2863155252007
 30
0.0
 11
406.6950310270193
 21
214.0223117270215
 31
0.0
  0
LINE
  5
1459E
330
1F
100
AcDbEntity
  8
0
100
AcDbLine
 10
414.5383445880121
 20
202.2863155252007
 30
0.0
 11
408.7791541455321
 21
214.0223117270215
 31
0.0
  0
LINE
  5
1459F
330
1F
100
AcDbEntity
  8
0
100
AcDbLine
 10
417.7635565576906
 20
221.4816313453134
 30
0.0
 11
420.5908912149237
 21
230.6308896512782
 31
0.0
  0
LINE
  5
145A0
330
1F
100
AcDbEntity
  8
0
100
AcDbLine
 10
418.6962387116285
 20
222.4406228639473
 30
0.0
 11
420.4391162398338
 21
228.0805766132307
 31
0.0
  0
LINE
  5
145A1
330
1F
100
AcDbEntity
  8
0
100
AcDbLine
 10
420.096251421882
 20
222.4406228639473
 30
0.0
 11
421.8391289521219
 21
228.0805766132307
 31
0.0
  0
LINE
  5
145A2
330
1F
100
AcDbEntity
  8
0
100
AcDbLine
 10
403.9790797446833
 20
225.4019842320412
 30
0.0
 11
402.9357165360101
 21
227.400997666572
 31
0.0
  0
LINE
  5
145A3
330
1F
100
AcDbEntity
  8
0
100
AcDbLine
 10
403.0450731819152
 20
227.4842657570843
 30
0.0
 11
404.1112084314033
 21
225.4416226307976
 31
0.0
  0
LINE
  5
145A4
330
1F
100
AcDbEntity
  8
0
100
AcDbLine
 10
402.7978871139299
 20
227.2960493776131
 30
0.0
 11
403.7596615581693
 21
225.3361591201101
 31
0.0
  0
LINE
  5
145A5
330
1F
100
AcDbEntity
  8
0
100
AcDbLine
 10
405.9396219612573
 20
223.4210544474072
 30
0.0
 11
406.8913525850986
 21
221.4816313453134
 31
0.0
  0
LINE
  5
145A6
330
1F
100
AcDbEntity
  8
0
100
AcDbLine
 10
407.0387223447156
 20
221.4816313453134
 30
0.0
 11
406.0625883701383
 21
223.4707832440617
 31
0.0
  0
LINE
  5
145A7
330
1F
100
AcDbEntity
  8
0
100
AcDbLine
 10
411.163439484136
 20
214.0223117270215
 30
0.0
 11
407.5029370850658
 21
221.4816313453134
 31
0.0
  0
LINE
  5
145A8
330
1F
100
AcDbEntity
  8
0
100
AcDbLine
 10
407.6134644047773
 20
221.4816313453134
 30
0.0
 11
411.2739668038507
 21
214.0223117270215
 31
0.0
  0
LINE
  5
145A9
330
1F
100
AcDbEntity
  8
0
100
AcDbLine
 10
422.4995931186198
 20
225.7134071743521
 30
0.0
 11
421.1440217073373
 21
221.3267764800111
 31
0.0
  0
LINE
  5
145AA
330
1F
100
AcDbEntity
  8
0
100
AcDbLine
 10
403.6018618270356
 20
232.674625207187
 30
0.0
 11
404.1553992884096
 21
231.5466344573301
 31
0.0
  0
LINE
  5
145AB
330
1F
100
AcDbEntity
  8
0
100
AcDbLine
 10
406.7514760977712
 20
226.5333422355179
 30
0.0
 11
407.3050135591483
 21
225.4053514856614
 31
0.0
  0
LINE
  5
145AC
330
1F
100
AcDbEntity
  8
0
100
AcDbLine
 10
413.9556022310172
 20
214.0223117270215
 30
0.0
 11
418.2049735971327
 21
205.3630033174531
 31
0.0
  0
LINE
  5
145AD
330
1F
100
AcDbEntity
  8
0
100
AcDbLine
 10
410.6345444647166
 20
221.4816313453134
 30
0.0
 11
414.2950468637842
 21
214.0223117270215
 31
0.0
  0
LINE
  5
145AE
330
1F
100
AcDbEntity
  8
0
100
AcDbLine
 10
414.4055741834987
 20
214.0223117270215
 30
0.0
 11
410.7450717844251
 21
221.4816313453134
 31
0.0
  0
LINE
  5
145AF
330
1F
100
AcDbEntity
  8
0
100
AcDbLine
 10
421.4240589567613
 20
214.0223117270215
 30
0.0
 11
422.0828426836446
 21
216.1541366470101
 31
0.0
  0
LINE
  5
145B0
330
1F
100
AcDbEntity
  8
0
100
AcDbLine
 10
422.6630752077071
 20
218.0317697787013
 30
0.0
 11
424.2513936139943
 21
223.1715700309551
 31
0.0
  0
LINE
  5
145B1
330
1F
100
AcDbEntity
  8
0
100
AcDbLine
 10
410.233152552235
 20
223.4707832440617
 30
0.0
 11
411.2092865247783
 21
221.4816313453134
 31
0.0
  0
LINE
  5
145B2
330
1F
100
AcDbEntity
  8
0
100
AcDbLine
 10
410.4049256605541
 20
223.4210544474072
 30
0.0
 11
411.3566562843954
 21
221.4816313453134
 31
0.0
  0
LINE
  5
145B3
330
1F
100
AcDbEntity
  8
0
100
AcDbLine
 10
420.8772663637858
 20
203.5595427597927
 30
0.0
 11
415.7428850978971
 21
214.0223117270215
 31
0.0
  0
LINE
  5
145B4
330
1F
100
AcDbEntity
  8
0
100
AcDbLine
 10
408.7748360418983
 20
230.3040247098834
 30
0.0
 11
409.7366104881695
 21
228.3441344544117
 31
0.0
  0
LINE
  5
145B5
330
1F
100
AcDbEntity
  8
0
100
AcDbLine
 10
416.7898595221057
 20
214.0223117270215
 30
0.0
 11
422.5490499625545
 21
202.2863155252007
 31
0.0
  0
LINE
  5
145B6
330
1F
100
AcDbEntity
  8
0
100
AcDbLine
 10
416.114352012569
 20
224.2167152060951
 30
0.0
 11
416.0277577290668
 21
224.7786899581897
 31
0.0
  0
LINE
  5
145B7
330
1F
100
AcDbEntity
  8
0
100
AcDbLine
 10
409.9560286746806
 20
228.4099595663483
 30
0.0
 11
408.9126654639791
 21
230.4089729988481
 31
0.0
  0
LINE
  5
145B8
330
1F
100
AcDbEntity
  8
0
100
AcDbLine
 10
409.0220221098812
 20
230.4922410893541
 30
0.0
 11
410.0881573593689
 21
228.4495979650992
 31
0.0
  0
LINE
  5
145B9
330
1F
100
AcDbEntity
  8
0
100
AcDbLine
 10
424.6331730830985
 20
202.2863155252007
 30
0.0
 11
418.8739826406187
 21
214.0223117270215
 31
0.0
  0
LINE
  5
145BA
330
1F
100
AcDbEntity
  8
0
100
AcDbLine
 10
412.8927156069877
 20
227.2960493776131
 30
0.0
 11
413.8544900532584
 21
225.3361591201101
 31
0.0
  0
LINE
  5
145BB
330
1F
100
AcDbEntity
  8
0
100
AcDbLine
 10
422.4248093352428
 20
226.8870854751963
 30
0.0
 11
422.4995931186198
 21
225.7134071743521
 31
0.0
  0
LINE
  5
145BC
330
1F
100
AcDbEntity
  8
0
100
AcDbLine
 10
414.2950468637842
 20
214.0223117270215
 30
0.0
 11
411.2739668038507
 21
214.0223117270215
 31
0.0
  0
LINE
  5
145BD
330
1F
100
AcDbEntity
  8
0
100
AcDbLine
 10
404.2002183707293
 20
214.0223117270215
 30
0.0
 11
401.1791383087611
 21
214.0223117270215
 31
0.0
  0
LINE
  5
145BE
330
1F
100
AcDbEntity
  8
0
100
AcDbLine
 10
399.0975404623147
 20
214.0223117270215
 30
0.0
 11
401.0686109910814
 21
214.0223117270215
 31
0.0
  0
LINE
  5
145BF
330
1F
100
AcDbEntity
  8
0
100
AcDbLine
 10
404.3107456884093
 20
214.0223117270215
 30
0.0
 11
406.6950310270193
 21
214.0223117270215
 31
0.0
  0
LINE
  5
145C0
330
1F
100
AcDbEntity
  8
0
100
AcDbLine
 10
408.7791541455321
 20
214.0223117270215
 30
0.0
 11
411.163439484136
 21
214.0223117270215
 31
0.0
  0
LINE
  5
145C1
330
1F
100
AcDbEntity
  8
0
100
AcDbLine
 10
414.4055741834987
 20
214.0223117270215
 30
0.0
 11
416.7898595221057
 21
214.0223117270215
 31
0.0
  0
LINE
  5
145C2
330
1F
100
AcDbEntity
  8
0
100
AcDbLine
 10
418.8739826406187
 20
214.0223117270215
 30
0.0
 11
421.4240589567613
 21
214.0223117270215
 31
0.0
  0
LINE
  5
145C3
330
1F
100
AcDbEntity
  8
0
100
AcDbLine
 10
414.0739082397698
 20
225.4019842320412
 30
0.0
 11
413.0305450310997
 21
227.400997666572
 31
0.0
  0
LINE
  5
145C4
330
1F
100
AcDbEntity
  8
0
100
AcDbLine
 10
413.1399016749703
 20
227.4842657570843
 30
0.0
 11
414.2060369264894
 21
225.4416226307976
 31
0.0
  0
LINE
  5
145C5
330
1F
100
AcDbEntity
  8
0
100
AcDbLine
 10
417.0267077636736
 20
221.4816313453134
 30
0.0
 11
416.0749771398325
 21
223.4210544474072
 31
0.0
  0
LINE
  5
145C6
330
1F
100
AcDbEntity
  8
0
100
AcDbLine
 10
417.1740775212566
 20
221.4816313453134
 30
0.0
 11
416.1979435487134
 21
223.4707832440617
 31
0.0
  0
LINE
  5
145C7
330
1F
100
AcDbEntity
  8
0
100
AcDbLine
 10
421.4240589567613
 20
214.0223117270215
 30
0.0
 11
417.0314560782814
 21
222.9734952693743
 31
0.0
  0
LINE
  5
145C8
330
1F
100
AcDbEntity
  8
0
100
AcDbLine
 10
416.114352012569
 20
224.2167152060951
 30
0.0
 11
417.0314560782814
 21
222.9734952693743
 31
0.0
  0
LINE
  5
145C9
330
1F
100
AcDbEntity
  8
0
100
AcDbLine
 10
419.2819190947463
 20
221.2471317259187
 30
0.0
 11
418.6962387116285
 21
222.4406228639473
 31
0.0
  0
LINE
  5
145CA
330
1F
100
AcDbEntity
  8
0
100
AcDbLine
 10
413.6966903200906
 20
232.674625207187
 30
0.0
 11
414.2502277814675
 21
231.5466344573301
 31
0.0
  0
LINE
  5
145CB
330
1F
100
AcDbEntity
  8
0
100
AcDbLine
 10
427.8420331261246
 20
204.4181404451783
 30
0.0
 11
422.0828426836446
 21
216.1541366470101
 31
0.0
  0
LINE
  5
145CC
330
1F
100
AcDbEntity
  8
0
100
AcDbLine
 10
420.6819318070346
 20
221.2471317259187
 30
0.0
 11
420.096251421882
 21
222.4406228639473
 31
0.0
  0
LINE
  5
145CD
330
1F
100
AcDbEntity
  8
0
100
AcDbLine
 10
428.422265648153
 20
206.2957735768809
 30
0.0
 11
422.6630752077071
 21
218.0317697787013
 31
0.0
  0
LINE
  5
145CE
330
1F
100
AcDbEntity
  8
0
100
AcDbLine
 10
428.2027566576588
 20
207.1543712642974
 30
0.0
 11
422.7410619351466
 21
218.2841349249765
 31
0.0
  0
LINE
  5
145CF
330
1F
100
AcDbEntity
  8
0
100
AcDbLine
 10
427.8420331261246
 20
204.4181404451783
 30
0.0
 11
428.422265648153
 21
206.2957735768809
 31
0.0
  0
LINE
  5
145D0
330
1F
100
AcDbEntity
  8
0
100
AcDbLine
 10
421.1440217073373
 20
221.3267764800111
 30
0.0
 11
420.6819318070346
 21
221.2471317259187
 31
0.0
  0
LINE
  5
145D1
330
1F
100
AcDbEntity
  8
0
100
AcDbLine
 10
421.8391289521219
 20
228.0805766132307
 30
0.0
 11
422.4248093352428
 21
226.8870854751963
 31
0.0
  0
LINE
  5
145D2
330
1F
100
AcDbEntity
  8
0
100
AcDbLine
 10
419.8587907355141
 20
232.1227535733078
 30
0.0
 11
421.8417676422985
 21
228.0818714950701
 31
0.0
  0
LINE
  5
145D3
330
1F
100
AcDbEntity
  8
0
100
AcDbLine
 10
422.4274480274507
 20
226.8883803570352
 30
0.0
 11
424.2513936139943
 21
223.1715700309551
 31
0.0
  0
LINE
  5
145D4
330
1F
100
AcDbEntity
  8
0
100
AcDbLine
 10
419.2819190947463
 20
221.2471317259187
 30
0.0
 11
420.6819318070346
 21
221.2471317259187
 31
0.0
  0
LINE
  5
145D5
330
1F
100
AcDbEntity
  8
0
100
AcDbLine
 10
395.4370380632441
 20
221.4816313453134
 30
0.0
 11
397.5186359096909
 21
221.4816313453134
 31
0.0
  0
LINE
  5
145D6
330
1F
100
AcDbEntity
  8
0
100
AcDbLine
 10
400.5397159696244
 20
221.4816313453134
 30
0.0
 11
401.261827789306
 21
221.4816313453134
 31
0.0
  0
LINE
  5
145D7
330
1F
100
AcDbEntity
  8
0
100
AcDbLine
 10
406.8913525850986
 20
221.4816313453134
 30
0.0
 11
407.6134644047773
 21
221.4816313453134
 31
0.0
  0
LINE
  5
145D8
330
1F
100
AcDbEntity
  8
0
100
AcDbLine
 10
410.6345444647166
 20
221.4816313453134
 30
0.0
 11
411.3566562843954
 21
221.4816313453134
 31
0.0
  0
LINE
  5
145D9
330
1F
100
AcDbEntity
  8
0
100
AcDbLine
 10
417.0267077636736
 20
221.4816313453134
 30
0.0
 11
417.7635565576906
 21
221.4816313453134
 31
0.0
  0
LINE
  5
145DA
330
1F
100
AcDbEntity
  8
0
100
AcDbLine
 10
418.6962387116285
 20
222.4406228639473
 30
0.0
 11
420.096251421882
 21
222.4406228639473
 31
0.0
  0
LINE
  5
145DB
330
1F
100
AcDbEntity
  8
0
100
AcDbLine
 10
416.0749771398325
 20
223.4210544474072
 30
0.0
 11
410.4049256605541
 21
223.4210544474072
 31
0.0
  0
LINE
  5
145DC
330
1F
100
AcDbEntity
  8
0
100
AcDbLine
 10
405.9396219612573
 20
223.4210544474072
 30
0.0
 11
400.3100971654677
 21
223.4210544474072
 31
0.0
  0
LINE
  5
145DD
330
1F
100
AcDbEntity
  8
0
100
AcDbLine
 10
400.1383240571485
 20
223.4707832440617
 30
0.0
 11
406.0625883701383
 21
223.4707832440617
 31
0.0
  0
LINE
  5
145DE
330
1F
100
AcDbEntity
  8
0
100
AcDbLine
 10
410.233152552235
 20
223.4707832440617
 30
0.0
 11
416.1979435487134
 21
223.4707832440617
 31
0.0
  0
LINE
  5
145DF
330
1F
100
AcDbEntity
  8
0
100
AcDbLine
 10
416.114352012569
 20
224.2167152060951
 30
0.0
 11
394.4018741818328
 21
224.2167152060951
 31
0.0
  0
LINE
  5
145E0
330
1F
100
AcDbEntity
  8
0
100
AcDbLine
 10
416.0277577290668
 20
224.7786899581897
 30
0.0
 11
394.4380880306659
 21
224.7786899581897
 31
0.0
  0
LINE
  5
145E1
330
1F
100
AcDbEntity
  8
0
100
AcDbLine
 10
396.3080720986655
 20
225.4053514856614
 30
0.0
 11
399.4028370384107
 21
225.4053514856614
 31
0.0
  0
LINE
  5
145E2
330
1F
100
AcDbEntity
  8
0
100
AcDbLine
 10
406.4029005917205
 20
225.4053514856614
 30
0.0
 11
409.4976655314654
 21
225.4053514856614
 31
0.0
  0
LINE
  5
145E3
330
1F
100
AcDbEntity
  8
0
100
AcDbLine
 10
419.8587907355141
 20
232.1227535733078
 30
0.0
 11
418.9416866718333
 21
233.3659735100282
 31
0.0
  0
LINE
  5
145E4
330
1F
100
AcDbEntity
  8
0
100
AcDbLine
 10
409.8462410375135
 20
226.5333422355179
 30
0.0
 11
406.7514760977712
 21
226.5333422355179
 31
0.0
  0
LINE
  5
145E5
330
1F
100
AcDbEntity
  8
0
100
AcDbLine
 10
399.7514125444585
 20
226.5333422355179
 30
0.0
 11
396.6566476047163
 21
226.5333422355179
 31
0.0
  0
LINE
  5
145E6
330
1F
100
AcDbEntity
  8
0
100
AcDbLine
 10
420.4391162398338
 20
228.0805766132307
 30
0.0
 11
421.8391289521219
 21
228.0805766132307
 31
0.0
  0
LINE
  5
145E7
330
1F
100
AcDbEntity
  8
0
100
AcDbLine
 10
418.6614393278354
 20
233.3012867346524
 30
0.0
 11
418.9416866718333
 21
233.3659735100282
 31
0.0
  0
LINE
  5
145E8
330
1F
100
AcDbEntity
  8
0
100
AcDbLine
 10
403.2532863209876
 20
231.5466344573301
 30
0.0
 11
406.3480512607299
 21
231.5466344573301
 31
0.0
  0
LINE
  5
145E9
330
1F
100
AcDbEntity
  8
0
100
AcDbLine
 10
413.3481148160741
 20
231.5466344573301
 30
0.0
 11
416.442879755819
 21
231.5466344573301
 31
0.0
  0
LINE
  5
145EA
330
1F
100
AcDbEntity
  8
0
100
AcDbLine
 10
416.7914552598325
 20
232.674625207187
 30
0.0
 11
413.6966903200906
 21
232.674625207187
 31
0.0
  0
LINE
  5
145EB
330
1F
100
AcDbEntity
  8
0
100
AcDbLine
 10
406.6966267667777
 20
232.674625207187
 30
0.0
 11
403.6018618270356
 21
232.674625207187
 31
0.0
  0
LINE
  5
145EC
330
1F
100
AcDbEntity
  8
0
100
AcDbLine
 10
397.0717696294343
 20
233.3012867346524
 30
0.0
 11
418.6614393278354
 21
233.3012867346524
 31
0.0
  0
LINE
  5
145ED
330
1F
100
AcDbEntity
  8
0
100
AcDbLine
 10
397.2292088390656
 20
233.3659735100282
 30
0.0
 11
418.9416866718333
 21
233.3659735100282
 31
0.0
  0
SPLINE
  5
145EE
330
1F
100
AcDbEntity
  8
0
100
AcDbSpline
210
0.0
220
0.0
230
1.0
 70
     8
 71
     3
 72
    21
 73
    17
 74
    15
 42
0.0000000001
 43
0.0000000001
 44
0.0000000001
 12
0.4408780123949898
 22
-0.8975670326981955
 32
0.0
 13
0.295247354626454
 23
0.9554208494616814
 33
0.0
 40
0.0
 40
0.0
 40
0.0
 40
0.0
 40
0.2616504402927242
 40
0.6179846603006589
 40
0.9894130745930389
 40
1.383925464287732
 40
1.804351796265799
 40
2.248529899228147
 40
2.711527406021195
 40
3.186112216892741
 40
3.665652604986907
 40
4.145415104460292
 40
4.618622924784038
 40
5.073859515586351
 40
5.501097408064191
 40
5.894447870933589
 40
5.894447870933589
 40
5.894447870933589
 40
5.894447870933589
 10
411.4440507004101
 20
226.1419674470207
 30
0.0
 10
411.482502675763
 20
226.0636845105881
 30
0.0
 10
411.5913904258638
 20
225.8871378553363
 30
0.0
 10
411.8251754765138
 20
225.6496385878522
 30
0.0
 10
412.1453015890802
 20
225.450204208627
 30
0.0
 10
412.5195925162389
 20
225.3148059755662
 30
0.0
 10
412.9359462177454
 20
225.2469768625589
 30
0.0
 10
413.3802939959219
 20
225.2486177217543
 30
0.0
 10
413.8370421148346
 20
225.3192790325661
 30
0.0
 10
414.2907047644468
 20
225.4560486394626
 30
0.0
 10
414.7271369528873
 20
225.6543314739419
 30
0.0
 10
415.1330980551729
 20
225.9084691776025
 30
0.0
 10
415.4943656958995
 20
226.2105991773711
 30
0.0
 10
415.7964767938172
 20
226.5490338649784
 30
0.0
 10
416.0273317022554
 20
226.9083456282103
 30
0.0
 10
416.1341811459887
 20
227.1620849484854
 30
0.0
 10
416.1728930405232
 20
227.2873566929424
 30
0.0
 11
411.4440507004101
 21
226.1419674470207
 31
0.0
 11
411.5813639782349
 21
225.9192433651651
 31
0.0
 11
411.8301512134499
 21
225.6641375284175
 31
0.0
 11
412.1441647423963
 21
225.4657576640602
 31
0.0
 11
412.5143155692736
 21
225.3292718003795
 31
0.0
 11
412.928915735754
 21
225.259522229951
 31
0.0
 11
413.3730938324099
 21
225.2594473812323
 31
0.0
 11
413.8308281366487
 21
225.3290605841439
 31
0.0
 11
414.2853981393717
 21
225.4654308717231
 31
0.0
 11
414.7220404868108
 21
225.6636793124139
 31
0.0
 11
415.128471233001
 21
225.9186030352257
 31
0.0
 11
415.4908490868582
 21
226.2229185495352
 31
0.0
 11
415.7928758843778
 21
226.5635358820145
 31
0.0
 11
416.0221779952445
 21
226.9240254917413
 31
0.0
 11
416.1728930405232
 21
227.2873566929424
 31
0.0
  0
SPLINE
  5
145EF
330
1F
100
AcDbEntity
  8
0
100
AcDbSpline
210
0.0
220
0.0
230
1.0
 70
     8
 71
     3
 72
    21
 73
    17
 74
    15
 42
0.0000000001
 43
0.0000000001
 44
0.0000000001
 12
0.4408780123949898
 22
-0.8975670326981955
 32
0.0
 13
0.295247354626454
 23
0.9554208494616814
 33
0.0
 40
0.0
 40
0.0
 40
0.0
 40
0.0
 40
0.2616504420264934
 40
0.6179846605803036
 40
0.9894130748701872
 40
1.383925465268088
 40
1.804351797244557
 40
2.248529900206448
 40
2.711527406696869
 40
3.1861122175675
 40
3.665652605661667
 40
4.145415105137137
 40
4.618622925455227
 40
5.073859516430171
 40
5.501097410003098
 40
5.894447870990672
 40
5.894447870990672
 40
5.894447870990672
 40
5.894447870990672
 10
407.3261711353239
 20
229.1499427813278
 30
0.0
 10
407.3646231109314
 20
229.0716598443765
 30
0.0
 10
407.4735108592589
 20
228.8951131878298
 30
0.0
 10
407.7072959123453
 20
228.6576139222324
 30
0.0
 10
408.0274220242598
 20
228.4581795432317
 30
0.0
 10
408.4017129507065
 20
228.3227813074472
 30
0.0
 10
408.8180666527429
 20
228.2549521941458
 30
0.0
 10
409.2624144306078
 20
228.2565930574765
 30
0.0
 10
409.7191625499704
 20
228.3272543638988
 30
0.0
 10
410.1728251993053
 20
228.4640239720198
 30
0.0
 10
410.6092573878798
 20
228.6623068060848
 30
0.0
 10
411.0152184898137
 20
228.9164445101254
 30
0.0
 10
411.3764861318248
 20
229.2185745088446
 30
0.0
 10
411.6785972256755
 20
229.5570092005003
 30
0.0
 10
411.909452137028
 20
229.9163209613033
 30
0.0
 10
412.0163015810845
 20
230.170060281355
 30
0.0
 10
412.0550134754338
 20
230.2953320252127
 30
0.0
 11
407.3261711353239
 21
229.1499427813278
 31
0.0
 11
407.4634844131483
 21
228.9272186974353
 31
0.0
 11
407.7122716483636
 21
228.6721128627191
 31
0.0
 11
408.0262851773071
 21
228.4737329983618
 31
0.0
 11
408.396436004187
 21
228.3372471326556
 31
0.0
 11
408.8110361706648
 21
228.2674975622212
 31
0.0
 11
409.2552142673206
 21
228.2674227155339
 31
0.0
 11
409.7129485715623
 21
228.3370359164137
 31
0.0
 11
410.1675185742825
 21
228.4734062039988
 31
0.0
 11
410.6041609217217
 21
228.6716546446896
 31
0.0
 11
411.0105916679144
 21
228.9265783675014
 31
0.0
 11
411.372969521769
 21
229.230893881805
 31
0.0
 11
411.6749963172575
 21
229.5715112163161
 31
0.0
 11
411.9042984301553
 21
229.9320008260488
 31
0.0
 11
412.0550134754338
 21
230.2953320252127
 31
0.0
  0
SPLINE
  5
145F0
330
1F
100
AcDbEntity
  8
0
100
AcDbSpline
210
0.0
220
0.0
230
1.0
 70
     8
 71
     3
 72
    21
 73
    17
 74
    15
 42
0.0000000001
 43
0.0000000001
 44
0.0000000001
 12
0.4408780123949898
 22
-0.8975670326981955
 32
0.0
 13
0.295247354626454
 23
0.9554208494616814
 33
0.0
 40
0.0
 40
0.0
 40
0.0
 40
0.0
 40
0.2616504392250045
 40
0.6179846606535038
 40
0.9894130749432889
 40
1.383925462734517
 40
1.804351796716127
 40
2.248529897644105
 40
2.711527404439907
 40
3.186112217257413
 40
3.665652603499198
 40
4.145415102974894
 40
4.618622924854449
 40
5.073859514307022
 40
5.501097406783184
 40
5.894447869654849
 40
5.894447869654849
 40
5.894447869654849
 40
5.894447869654849
 10
401.3492222073553
 20
226.1419674470207
 30
0.0
 10
401.3876741825512
 20
226.0636845109075
 30
0.0
 10
401.4965619300486
 20
225.8871378538218
 30
0.0
 10
401.7303469837831
 20
225.6496385886786
 30
0.0
 10
402.0504730953318
 20
225.4502042089883
 30
0.0
 10
402.4247640223613
 20
225.3148059749174
 30
0.0
 10
402.8411177233786
 20
225.2469768628894
 30
0.0
 10
403.2854655015204
 20
225.2486177216815
 30
0.0
 10
403.7422136202993
 20
225.3192790329892
 30
0.0
 10
404.195876270363
 20
225.4560486385599
 30
0.0
 10
404.6323084583157
 20
225.6543314744443
 30
0.0
 10
405.0382695601077
 20
225.9084691782998
 30
0.0
 10
405.3995372028768
 20
226.2105991759755
 30
0.0
 10
405.7016482985327
 20
226.5490338657676
 30
0.0
 10
405.9325032072726
 20
226.9083456281086
 30
0.0
 10
406.0393526509021
 20
227.1620849484847
 30
0.0
 10
406.0780645454368
 20
227.2873566929424
 30
0.0
 11
401.3492222073553
 21
226.1419674470207
 31
0.0
 11
401.4865354831455
 21
225.9192433651651
 31
0.0
 11
401.7353227203953
 21
225.6641375284175
 31
0.0
 11
402.0493362493385
 21
225.4657576640602
 31
0.0
 11
402.4194870741871
 21
225.3292718003795
 31
0.0
 11
402.8340872426992
 21
225.259522229951
 31
0.0
 11
403.2782653373208
 21
225.2594473812323
 31
0.0
 11
403.7359996415623
 21
225.3290605841439
 31
0.0
 11
404.1905696463169
 21
225.4654308717231
 31
0.0
 11
404.6272119917217
 21
225.6636793124139
 31
0.0
 11
405.0336427379146
 21
225.9186030352257
 31
0.0
 11
405.3960205938034
 21
226.2229185495352
 31
0.0
 11
405.6980473892886
 21
226.5635358820145
 31
0.0
 11
405.9273495001522
 21
226.9240254917413
 31
0.0
 11
406.0780645454368
 21
227.2873566929424
 31
0.0
  0
SPLINE
  5
145F1
330
1F
100
AcDbEntity
  8
0
100
AcDbSpline
210
0.0
220
0.0
230
1.0
 70
     8
 71
     3
 72
    21
 73
    17
 74
    15
 42
0.0000000001
 43
0.0000000001
 44
0.0000000001
 12
0.4408780123949898
 22
-0.8975670326981955
 32
0.0
 13
0.295247354626454
 23
0.9554208494616814
 33
0.0
 40
0.0
 40
0.0
 40
0.0
 40
0.0
 40
0.2616504409604444
 40
0.617984660932557
 40
0.9894130735048483
 40
1.383925463902856
 40
1.804351797885614
 40
2.248529898816093
 40
2.711527405306513
 40
3.18611221812
 40
3.665652604366858
 40
4.145415103842665
 40
4.618622925716304
 40
5.073859516691022
 40
5.501097409172118
 40
5.894447870159801
 40
5.894447870159801
 40
5.894447870159801
 40
5.894447870159801
 10
397.2313426422662
 20
229.1499427813278
 30
0.0
 10
397.2697946177171
 20
229.0716598446955
 30
0.0
 10
397.3786823634056
 20
228.8951131862499
 30
0.0
 10
397.6124674194027
 20
228.657613923806
 30
0.0
 10
397.9325935292505
 20
228.4581795424755
 30
0.0
 10
398.3068844563776
 20
228.322781307315
 30
0.0
 10
398.7232381583236
 20
228.2549521943556
 30
0.0
 10
399.1675859362234
 20
228.2565930574375
 30
0.0
 10
399.624334055428
 20
228.3272543643145
 30
0.0
 10
400.077996705234
 20
228.4640239711119
 30
0.0
 10
400.5144288932623
 20
228.6623068066224
 30
0.0
 10
400.9203899949223
 20
228.9164445106818
 30
0.0
 10
401.2816576385223
 20
229.2185745082523
 30
0.0
 10
401.5837687329092
 20
229.557009199923
 30
0.0
 10
401.8146236415981
 20
229.9163209619399
 30
0.0
 10
401.9214730859953
 20
230.170060281355
 30
0.0
 10
401.9601849803446
 20
230.2953320252127
 30
0.0
 11
397.2313426422662
 21
229.1499427813278
 31
0.0
 11
397.3686559180593
 21
228.9272186974353
 31
0.0
 11
397.617443155306
 21
228.6721128627191
 31
0.0
 11
397.9314566822178
 21
228.4737329983618
 31
0.0
 11
398.3016075090978
 21
228.3372471326556
 31
0.0
 11
398.7162076776101
 21
228.2674975622212
 31
0.0
 11
399.1603857722345
 21
228.2674227155339
 31
0.0
 11
399.6181200764762
 21
228.3370359164137
 31
0.0
 11
400.0726900812248
 21
228.4734062039988
 31
0.0
 11
400.5093324266352
 21
228.6716546446896
 31
0.0
 11
400.9157631728282
 21
228.9265783675014
 31
0.0
 11
401.2781410287142
 21
229.230893881805
 31
0.0
 11
401.5801678242024
 21
229.5715112163161
 31
0.0
 11
401.8094699350658
 21
229.9320008260488
 31
0.0
 11
401.9601849803446
 21
230.2953320252127
 31
0.0
  0
SPLINE
  5
145F2
330
1F
100
AcDbEntity
  8
0
100
AcDbSpline
210
0.0
220
0.0
230
1.0
 70
     8
 71
     3
 72
     9
 73
     5
 74
     3
 42
0.0000000001
 43
0.0000000001
 44
0.0000000001
 12
-0.2952473727648026
 22
-0.955420843856508
 32
0.0
 13
-0.0505100694207156
 23
-0.9987235517835326
 33
0.0
 40
0.0
 40
0.0
 40
0.0
 40
0.0
 40
0.3263327360471295
 40
0.4450462705609132
 40
0.4450462705609132
 40
0.4450462705609132
 40
0.4450462705609132
 10
407.8755800400577
 20
229.0521120884923
 30
0.0
 10
407.843463745736
 20
228.9481837224749
 30
0.0
 10
407.8112081423614
 20
228.8022865687691
 30
0.0
 10
407.7983039971899
 20
228.6544120100228
 30
0.0
 10
407.7963052542334
 20
228.6148913424113
 30
0.0
 11
407.8755800400577
 21
229.0521120884923
 31
0.0
 11
407.8065651148421
 21
228.7331606898224
 31
0.0
 11
407.7963052542334
 21
228.6148913424113
 31
0.0
  0
SPLINE
  5
145F3
330
1F
100
AcDbEntity
  8
0
100
AcDbSpline
210
0.0
220
0.0
230
1.0
 70
     8
 71
     3
 72
    12
 73
     8
 74
     6
 42
0.0000000001
 43
0.0000000001
 44
0.0000000001
 12
-0.8294381603292325
 22
-0.5585985483239805
 32
0.0
 13
-0.2952473713308097
 23
-0.9554208442996454
 33
0.0
 40
0.0
 40
0.0
 40
0.0
 40
0.0
 40
0.4010667819008395
 40
0.7920328838190775
 40
1.169334766231438
 40
1.530268159385764
 40
1.873987036080305
 40
1.873987036080305
 40
1.873987036080305
 40
1.873987036080305
 10
409.0220221098812
 20
230.4922410893541
 30
0.0
 10
408.9111354119649
 20
230.4175626486371
 30
0.0
 10
408.7003315758959
 20
230.2574411743408
 30
0.0
 10
408.41953942944
 20
229.9857636301635
 30
0.0
 10
408.1836007207849
 20
229.6910490980703
 30
0.0
 10
407.9982996355875
 20
229.3802903250723
 30
0.0
 10
407.9094074049979
 20
229.1615774816167
 30
0.0
 10
407.8755800400577
 20
229.0521120884923
 30
0.0
 11
409.0220221098812
 21
230.4922410893541
 31
0.0
 11
408.7029287821066
 21
230.2492719314059
 31
0.0
 11
408.4224631708267
 21
229.9768870314233
 31
0.0
 11
408.1874461920416
 21
229.681719739613
 31
0.0
 11
408.0036919890678
 21
229.3710634871677
 31
0.0
 11
407.8755800400577
 21
229.0521120884923
 31
0.0
  0
SPLINE
  5
145F4
330
1F
100
AcDbEntity
  8
0
100
AcDbSpline
210
0.0
220
0.0
230
1.0
 70
     8
 71
     3
 72
     9
 73
     5
 74
     3
 42
0.0000000001
 43
0.0000000001
 44
0.0000000001
 12
-0.2952473727648026
 22
-0.955420843856508
 32
0.0
 13
-0.0505100694207156
 23
-0.9987235517835326
 33
0.0
 40
0.0
 40
0.0
 40
0.0
 40
0.0
 40
0.3263327360477787
 40
0.4450462703857216
 40
0.4450462703857216
 40
0.4450462703857216
 40
0.4450462703857216
 10
397.7807515449714
 20
229.0521120884923
 30
0.0
 10
397.7486352506497
 20
228.9481837224748
 30
0.0
 10
397.716379644506
 20
228.8022865690682
 30
0.0
 10
397.7034755041322
 20
228.6544120099642
 30
0.0
 10
397.7014767611787
 20
228.6148913424113
 30
0.0
 11
397.7807515449714
 21
229.0521120884923
 31
0.0
 11
397.7117366197528
 21
228.7331606898224
 31
0.0
 11
397.7014767611787
 21
228.6148913424113
 31
0.0
  0
SPLINE
  5
145F5
330
1F
100
AcDbEntity
  8
0
100
AcDbSpline
210
0.0
220
0.0
230
1.0
 70
     8
 71
     3
 72
    12
 73
     8
 74
     6
 42
0.0000000001
 43
0.0000000001
 44
0.0000000001
 12
-0.8294381603292325
 22
-0.5585985483239805
 32
0.0
 13
-0.2952473713308097
 23
-0.9554208442996454
 33
0.0
 40
0.0
 40
0.0
 40
0.0
 40
0.0
 40
0.4010667835191807
 40
0.7920328854374188
 40
1.169334766582771
 40
1.530268160772696
 40
1.873987037466156
 40
1.873987037466156
 40
1.873987037466156
 40
1.873987037466156
 10
398.9271936168262
 20
230.4922410893541
 30
0.0
 10
398.8163069184624
 20
230.4175626483358
 30
0.0
 10
398.6055030810654
 20
230.2574411750017
 30
0.0
 10
398.3247109340738
 20
229.9857636308429
 30
0.0
 10
398.0887722283031
 20
229.6910490967683
 30
0.0
 10
397.903471139978
 20
229.3802903257987
 30
0.0
 10
397.8145789099116
 20
229.1615774816164
 30
0.0
 10
397.7807515449714
 20
229.0521120884923
 30
0.0
 11
398.9271936168262
 21
230.4922410893541
 31
0.0
 11
398.6081002870175
 21
230.2492719314059
 31
0.0
 11
398.3276346757376
 21
229.9768870314233
 31
0.0
 11
398.0926176989866
 21
229.681719739613
 31
0.0
 11
397.9088634939786
 21
229.3710634871677
 31
0.0
 11
397.7807515449714
 21
229.0521120884923
 31
0.0
  0
SPLINE
  5
145F6
330
1F
100
AcDbEntity
  8
0
100
AcDbSpline
210
0.0
220
0.0
230
1.0
 70
     8
 71
     3
 72
     9
 73
     5
 74
     3
 42
0.0000000001
 43
0.0000000001
 44
0.0000000001
 12
-0.2952473727648026
 22
-0.955420843856508
 32
0.0
 13
-0.0505100694207156
 23
-0.9987235517835326
 33
0.0
 40
0.0
 40
0.0
 40
0.0
 40
0.0
 40
0.3263327356228709
 40
0.4450462701305182
 40
0.4450462701305182
 40
0.4450462701305182
 40
0.4450462701305182
 10
401.8986311100575
 20
226.0441367562216
 30
0.0
 10
401.8665148157776
 20
225.9402083903393
 30
0.0
 10
401.8342592147276
 20
225.7943112362781
 30
0.0
 10
401.8213550692241
 20
225.6464366777504
 30
0.0
 10
401.8193563262677
 20
225.606916010141
 30
0.0
 11
401.8986311100575
 21
226.0441367562216
 31
0.0
 11
401.8296161868732
 21
225.7251853575462
 31
0.0
 11
401.8193563262677
 21
225.606916010141
 31
0.0
  0
SPLINE
  5
145F7
330
1F
100
AcDbEntity
  8
0
100
AcDbSpline
210
0.0
220
0.0
230
1.0
 70
     8
 71
     3
 72
    12
 73
     8
 74
     6
 42
0.0000000001
 43
0.0000000001
 44
0.0000000001
 12
-0.8294381603292325
 22
-0.5585985483239805
 32
0.0
 13
-0.2952473713308097
 23
-0.9554208442996454
 33
0.0
 40
0.0
 40
0.0
 40
0.0
 40
0.0
 40
0.4010667847532929
 40
0.7920328852525883
 40
1.16933476798853
 40
1.530268162177217
 40
1.873987036987287
 40
1.873987036987287
 40
1.873987036987287
 40
1.873987036987287
 10
403.0450731819152
 20
227.4842657570843
 30
0.0
 10
402.9341864832102
 20
227.4095873158362
 30
0.0
 10
402.7233826477797
 20
227.2494658401834
 30
0.0
 10
402.4425904976542
 20
226.9777882986499
 30
0.0
 10
402.2066517940572
 20
226.683073762536
 30
0.0
 10
402.021350705584
 20
226.3723149920226
 30
0.0
 10
401.9324584748123
 20
226.1536021487458
 30
0.0
 10
401.8986311100575
 20
226.0441367562216
 30
0.0
 11
403.0450731819152
 21
227.4842657570843
 31
0.0
 11
402.7259798521066
 21
227.2412965970989
 31
0.0
 11
402.4455142408267
 21
226.968911699153
 31
0.0
 11
402.2104972640731
 21
226.6737444053115
 31
0.0
 11
402.0267430590678
 21
226.3630881528661
 31
0.0
 11
401.8986311100575
 21
226.0441367562216
 31
0.0
  0
SPLINE
  5
145F8
330
1F
100
AcDbEntity
  8
0
100
AcDbSpline
210
0.0
220
0.0
230
1.0
 70
     8
 71
     3
 72
     9
 73
     5
 74
     3
 42
0.0000000001
 43
0.0000000001
 44
0.0000000001
 12
-0.2952473727648026
 22
-0.955420843856508
 32
0.0
 13
-0.0505100694207156
 23
-0.9987235517835326
 33
0.0
 40
0.0
 40
0.0
 40
0.0
 40
0.0
 40
0.3263327360524871
 40
0.4450462705604047
 40
0.4450462705604047
 40
0.4450462705604047
 40
0.4450462705604047
 10
411.993459605147
 20
226.0441367562216
 30
0.0
 10
411.9613433108247
 20
225.9402083902025
 30
0.0
 10
411.929087707452
 20
225.7943112364966
 30
0.0
 10
411.916183562279
 20
225.6464366777505
 30
0.0
 10
411.9141848193226
 20
225.606916010141
 30
0.0
 11
411.993459605147
 21
226.0441367562216
 31
0.0
 11
411.9244446799313
 21
225.7251853575462
 31
0.0
 11
411.9141848193226
 21
225.606916010141
 31
0.0
  0
SPLINE
  5
145F9
330
1F
100
AcDbEntity
  8
0
100
AcDbSpline
210
0.0
220
0.0
230
1.0
 70
     8
 71
     3
 72
    12
 73
     8
 74
     6
 42
0.0000000001
 43
0.0000000001
 44
0.0000000001
 12
-0.8294381603292325
 22
-0.5585985483239805
 32
0.0
 13
-0.2952473713308097
 23
-0.9554208442996454
 33
0.0
 40
0.0
 40
0.0
 40
0.0
 40
0.0
 40
0.4010667831369415
 40
0.7920328836344427
 40
1.16933476763587
 40
1.53026816079165
 40
1.873987035600576
 40
1.873987035600576
 40
1.873987035600576
 40
1.873987035600576
 10
413.1399016749703
 20
227.4842657570843
 30
0.0
 10
413.0290149767122
 20
227.4095873161372
 30
0.0
 10
412.8182111426081
 20
227.2494658395241
 30
0.0
 10
412.5374189930199
 20
226.9777882979707
 30
0.0
 10
412.3014802865435
 20
226.6830737638355
 30
0.0
 10
412.1161792011873
 20
226.3723149912995
 30
0.0
 10
412.0272869699016
 20
226.1536021487455
 30
0.0
 10
411.993459605147
 20
226.0441367562216
 30
0.0
 11
413.1399016749703
 21
227.4842657570843
 31
0.0
 11
412.8208083471933
 21
227.2412965970989
 31
0.0
 11
412.5403427359159
 21
226.968911699153
 31
0.0
 11
412.3053257571307
 21
226.6737444053115
 31
0.0
 11
412.1215715541542
 21
226.3630881528661
 31
0.0
 11
411.993459605147
 21
226.0441367562216
 31
0.0
  0
SPLINE
  5
145FA
330
1F
100
AcDbEntity
  8
0
100
AcDbSpline
210
0.0
220
0.0
230
1.0
 70
     8
 71
     3
 72
    11
 73
     7
 74
     5
 42
0.0000000001
 43
0.0000000001
 44
0.0000000001
 12
0.2952473886120334
 22
0.9554208389593432
 32
0.0
 13
-0.4408843335055308
 23
0.8975639277897613
 33
0.0
 40
0.0
 40
0.0
 40
0.0
 40
0.0
 40
0.3703573669053263
 40
0.7305756328855513
 40
1.083169435240911
 40
1.172815391384314
 40
1.172815391384314
 40
1.172815391384314
 40
1.172815391384314
 10
401.9601849803446
 20
230.2953320252127
 30
0.0
 10
401.9966339954885
 20
230.4132810739472
 30
0.0
 10
402.0469953415223
 20
230.653565256087
 30
0.0
 10
402.0426557078685
 20
231.0176567073596
 30
0.0
 10
401.9733054259719
 20
231.2794615572029
 30
0.0
 10
401.9126822323554
 20
231.4139026868827
 30
0.0
 10
401.8995077331468
 20
231.4407236790516
 30
0.0
 11
401.9601849803446
 21
230.2953320252127
 31
0.0
 11
402.0339998431308
 21
230.6582589396912
 31
0.0
 11
402.0276225310174
 21
231.0184207492102
 31
0.0
 11
401.9363393668761
 21
231.3589934630376
 31
0.0
 11
401.8995077331468
 21
231.4407236790516
 31
0.0
  0
SPLINE
  5
145FB
330
1F
100
AcDbEntity
  8
0
100
AcDbSpline
210
0.0
220
0.0
230
1.0
 70
     8
 71
     3
 72
    11
 73
     7
 74
     5
 42
0.0000000001
 43
0.0000000001
 44
0.0000000001
 12
0.2952473886120334
 22
0.9554208389593432
 32
0.0
 13
-0.4408843335055308
 23
0.8975639277897613
 33
0.0
 40
0.0
 40
0.0
 40
0.0
 40
0.0
 40
0.3703573669046607
 40
0.730575632883925
 40
1.083169435235241
 40
1.172815391383522
 40
1.172815391383522
 40
1.172815391383522
 40
1.172815391383522
 10
406.0780645454368
 20
227.2873566929424
 30
0.0
 10
406.1145135605807
 20
227.4053057416767
 30
0.0
 10
406.1648749066038
 20
227.6455899238173
 30
0.0
 10
406.1605352729631
 20
228.0096813750891
 30
0.0
 10
406.0911849910527
 20
228.2714862249281
 30
0.0
 10
406.0305617974427
 20
228.4059273546111
 30
0.0
 10
406.0173872982335
 20
228.4327483467814
 30
0.0
 11
406.0780645454368
 21
227.2873566929424
 31
0.0
 11
406.1518794082171
 21
227.6502836074214
 31
0.0
 11
406.1455020961068
 21
228.0104454169395
 31
0.0
 11
406.0542189319626
 21
228.351018130762
 31
0.0
 11
406.0173872982335
 21
228.4327483467814
 31
0.0
  0
SPLINE
  5
145FC
330
1F
100
AcDbEntity
  8
0
100
AcDbSpline
210
0.0
220
0.0
230
1.0
 70
     8
 71
     3
 72
    11
 73
     7
 74
     5
 42
0.0000000001
 43
0.0000000001
 44
0.0000000001
 12
0.2952473886120334
 22
0.9554208389593432
 32
0.0
 13
-0.4408843335055308
 23
0.8975639277897613
 33
0.0
 40
0.0
 40
0.0
 40
0.0
 40
0.0
 40
0.3703573664999074
 40
0.730575632444121
 40
1.083169435326115
 40
1.172815390634829
 40
1.172815390634829
 40
1.172815390634829
 40
1.172815390634829
 10
412.0550134754338
 20
230.2953320252127
 30
0.0
 10
412.0914624905378
 20
230.4132810738181
 30
0.0
 10
412.1418238322344
 20
230.653565256137
 30
0.0
 10
412.1374842060784
 20
231.0176567083179
 30
0.0
 10
412.0681339157082
 20
231.2794615552755
 30
0.0
 10
412.0075107273192
 20
231.4139026871325
 30
0.0
 10
411.9943362282333
 20
231.4407236790516
 30
0.0
 11
412.0550134754338
 21
230.2953320252127
 31
0.0
 11
412.1288283361858
 21
230.6582589396912
 31
0.0
 11
412.1224510261066
 21
231.0184207492102
 31
0.0
 11
412.0311678599311
 21
231.3589934630376
 31
0.0
 11
411.9943362282333
 21
231.4407236790516
 31
0.0
  0
SPLINE
  5
145FD
330
1F
100
AcDbEntity
  8
0
100
AcDbSpline
210
0.0
220
0.0
230
1.0
 70
     8
 71
     3
 72
    11
 73
     7
 74
     5
 42
0.0000000001
 43
0.0000000001
 44
0.0000000001
 12
0.2952473886120334
 22
0.9554208389593432
 32
0.0
 13
-0.4408843335055308
 23
0.8975639277897613
 33
0.0
 40
0.0
 40
0.0
 40
0.0
 40
0.0
 40
0.3703573665003634
 40
0.730575632443713
 40
1.083169435321061
 40
1.172815390633367
 40
1.172815390633367
 40
1.172815390633367
 40
1.172815390633367
 10
416.1728930405232
 20
227.2873566929424
 30
0.0
 10
416.2093420556273
 20
227.4053057415479
 30
0.0
 10
416.2597033973232
 20
227.6455899238664
 30
0.0
 10
416.2553637711686
 20
228.0096813760477
 30
0.0
 10
416.1860134807843
 20
228.2714862229985
 30
0.0
 10
416.1253902924093
 20
228.4059273548612
 30
0.0
 10
416.1122157933228
 20
228.4327483467814
 30
0.0
 11
416.1728930405232
 21
227.2873566929424
 31
0.0
 11
416.246707901275
 21
227.6502836074214
 31
0.0
 11
416.2403305911933
 21
228.0104454169395
 31
0.0
 11
416.1490474250173
 21
228.351018130762
 31
0.0
 11
416.1122157933228
 21
228.4327483467814
 31
0.0
  0
SPLINE
  5
145FE
330
1F
100
AcDbEntity
  8
0
100
AcDbSpline
210
0.0
220
0.0
230
1.0
 70
     8
 71
     3
 72
    15
 73
    11
 74
     9
 42
0.0000000001
 43
0.0000000001
 44
0.0000000001
 12
0.8294381605797108
 22
0.5585985479520566
 32
0.0
 13
0.8210087270863532
 23
-0.5709156417966199
 33
0.0
 40
0.0
 40
0.0
 40
0.0
 40
0.0
 40
0.4521073292276214
 40
0.9047279672097033
 40
1.351332090438417
 40
1.785869760761098
 40
2.203303687384387
 40
2.600162750059527
 40
2.975105231117717
 40
3.292683857542785
 40
3.292683857542785
 40
3.292683857542785
 40
3.292683857542785
 10
409.0220221098812
 20
230.4922410893541
 30
0.0
 10
409.1470204670609
 20
230.5764232552291
 30
0.0
 10
409.4082592686383
 20
230.7289902744632
 30
0.0
 10
409.8235890188003
 20
230.9062337837022
 30
0.0
 10
410.2524685212989
 20
231.0280206026521
 30
0.0
 10
410.6821267840865
 20
231.0906178847582
 30
0.0
 10
411.0999085164212
 20
231.0920447734424
 30
0.0
 10
411.4935379551046
 20
231.0319591120777
 30
0.0
 10
411.8396095343907
 20
230.9155967604123
 30
0.0
 10
412.0424816283088
 20
230.8023061199596
 30
0.0
 10
412.1293932362526
 20
230.7418692515175
 30
0.0
 11
409.0220221098812
 21
230.4922410893541
 31
0.0
 11
409.4123132510673
 21
230.7204380706071
 31
0.0
 11
409.8286750579141
 21
230.8979438105889
 31
0.0
 11
410.258456589003
 21
231.0193648895656
 31
0.0
 11
410.6885991495953
 21
231.0810119859816
 31
0.0
 11
411.1060330762186
 21
231.0810119859816
 31
0.0
 11
411.4980748483946
 21
231.0193648895656
 31
0.0
 11
411.8528124777521
 21
230.8979438105889
 31
0.0
 11
412.1293932362526
 21
230.7418692515175
 31
0.0
  0
SPLINE
  5
145FF
330
1F
100
AcDbEntity
  8
0
100
AcDbSpline
210
0.0
220
0.0
230
1.0
 70
     8
 71
     3
 72
    11
 73
     7
 74
     5
 42
0.0000000001
 43
0.0000000001
 44
0.0000000001
 12
-0.2952473543138072
 22
-0.9554208495582965
 32
0.0
 13
0.4408780123252269
 23
-0.8975670327324623
 33
0.0
 40
0.0
 40
0.0
 40
0.0
 40
0.0
 40
0.3703300158794838
 40
0.7305826557180688
 40
1.083168640775707
 40
1.172815944055772
 40
1.172815944055772
 40
1.172815944055772
 40
1.172815944055772
 10
407.2654963062038
 20
230.2953320252127
 30
0.0
 10
407.2290499870666
 20
230.1773916857498
 30
0.0
 10
407.1786529595874
 20
229.9371111269016
 30
0.0
 10
407.1830336208251
 20
229.5730176429584
 30
0.0
 10
407.2523757376231
 20
229.3112043904008
 30
0.0
 10
407.3129966270303
 20
229.176764269327
 30
0.0
 10
407.3261711353239
 20
229.1499427813278
 30
0.0
 11
407.2654963062038
 21
230.2953320252127
 31
0.0
 11
407.1916662278041
 21
229.9324361170175
 31
0.0
 11
407.1980602653065
 21
229.5722402247657
 31
0.0
 11
407.2893399201864
 21
229.2316746635824
 31
0.0
 11
407.3261711353239
 21
229.1499427813278
 31
0.0
  0
SPLINE
  5
14600
330
1F
100
AcDbEntity
  8
0
100
AcDbSpline
210
0.0
220
0.0
230
1.0
 70
     8
 71
     3
 72
    24
 73
    20
 74
    18
 42
0.0000000001
 43
0.0000000001
 44
0.0000000001
 12
-0.2952474026103665
 22
-0.9554208346335306
 32
0.0
 13
0.2952473402564579
 23
0.9554208539023457
 33
0.0
 40
0.0
 40
0.0
 40
0.0
 40
0.0
 40
0.4267692022835657
 40
0.8425138332585358
 40
1.249431148178063
 40
1.654210166977385
 40
2.065449363854729
 40
2.494107495073999
 40
2.949412859691068
 40
3.434633425034553
 40
3.947267057429654
 40
4.481618451490184
 40
5.029335668130419
 40
5.582766004688956
 40
6.136446173248559
 40
6.682534337964129
 40
7.207857462178908
 40
7.700804221126694
 40
8.153884156278927
 40
8.153884156278927
 40
8.153884156278927
 40
8.153884156278927
 10
400.7981062336426
 20
227.5360006802889
 30
0.0
 10
400.7561054008132
 20
227.4000859511417
 30
0.0
 10
400.6980104734481
 20
227.1230304207497
 30
0.0
 10
400.7029172370899
 20
226.7028995941918
 30
0.0
 10
400.8086736502571
 20
226.3029524057035
 30
0.0
 10
401.0136891674987
 20
225.9452078370131
 30
0.0
 10
401.3076925908332
 20
225.6464690947195
 30
0.0
 10
401.6771437485788
 20
225.4162503114658
 30
0.0
 10
402.1091042570152
 20
225.2599802180131
 30
0.0
 10
402.5896258468341
 20
225.1817027321622
 30
0.0
 10
403.1024546841813
 20
225.1836209190273
 30
0.0
 10
403.629586488685
 20
225.2652111125909
 30
0.0
 10
404.1531429093963
 20
225.4231081260847
 30
0.0
 10
404.6567948834072
 20
225.6520054281095
 30
0.0
 10
405.125254557876
 20
225.945364793658
 30
0.0
 10
405.5420958034168
 20
226.2941075360235
 30
0.0
 10
405.890631403224
 20
226.6847095367763
 30
0.0
 10
406.1567332181427
 20
227.0991737575051
 30
0.0
 10
406.2798819816307
 20
227.3917066741125
 30
0.0
 10
406.3244721968898
 20
227.5360006802889
 30
0.0
 11
400.7981062336426
 21
227.5360006802889
 31
0.0
 11
400.7130055656431
 21
227.1178023680927
 31
0.0
 11
400.7202292646842
 21
226.7021204989227
 31
0.0
 11
400.825479787225
 21
226.3090504941065
 31
0.0
 11
401.026373469257
 21
225.9576422093723
 31
0.0
 11
401.3134519583466
 21
225.6631874282084
 31
0.0
 11
401.6758290237873
 21
225.4342100146868
 31
0.0
 11
402.1030135836896
 21
225.276678027998
 31
0.0
 11
402.5815110061703
 21
225.1961844648294
 31
0.0
 11
403.0941446346965
 21
225.1961214829875
 31
0.0
 11
403.6224157569702
 21
225.2765020385095
 31
0.0
 11
404.1470184466517
 21
225.4339382712614
 31
0.0
 11
404.6509125996447
 21
225.6627959126081
 31
0.0
 11
405.1199179527152
 21
225.9570673992448
 31
0.0
 11
405.5380406765391
 21
226.308330365503
 31
0.0
 11
405.8864778866999
 21
226.7014663412292
 31
0.0
 11
406.1509254675304
 21
227.1174759374526
 31
0.0
 11
406.3244721968898
 21
227.5360006802889
 31
0.0
  0
SPLINE
  5
14601
330
1F
100
AcDbEntity
  8
0
100
AcDbSpline
210
0.0
220
0.0
230
1.0
 70
     8
 71
     3
 72
    24
 73
    20
 74
    18
 42
0.0000000001
 43
0.0000000001
 44
0.0000000001
 12
0.2952474026103665
 22
0.9554208346335306
 32
0.0
 13
-0.2952473402564579
 23
-0.9554208539023457
 33
0.0
 40
0.0
 40
0.0
 40
0.0
 40
0.0
 40
0.4267691998820452
 40
0.8425138328468264
 40
1.249431146336031
 40
1.654210164126839
 40
2.065449363881017
 40
2.494107493381051
 40
2.949412859201571
 40
3.434633424882316
 40
3.947267055245776
 40
4.481618449303437
 40
5.029335665943743
 40
5.582766005191817
 40
6.136446172033307
 40
6.682534335439675
 40
7.207857459654379
 40
7.700804220316372
 40
8.153884153588114
 40
8.153884153588114
 40
8.153884153588114
 40
8.153884153588114
 10
402.2065926318036
 20
230.5439760125591
 30
0.0
 10
402.2485934643966
 20
230.6798907409415
 30
0.0
 10
402.306688388222
 20
230.9569462715483
 30
0.0
 10
402.3017816304984
 20
231.3770770978297
 30
0.0
 10
402.1960252113944
 20
231.7770242846485
 30
0.0
 10
401.9910096981223
 20
232.1347688553754
 30
0.0
 10
401.697006273239
 20
232.4335075964965
 30
0.0
 10
401.327555116644
 20
232.66372638322
 30
0.0
 10
400.8955946061097
 20
232.8199964709614
 30
0.0
 10
400.4150730176291
 20
232.8982739616966
 30
0.0
 10
399.9022441805101
 20
232.8963557734422
 30
0.0
 10
399.375112376796
 20
232.8147655802839
 30
0.0
 10
398.8515559551278
 20
232.6568685666508
 30
0.0
 10
398.3479039811545
 20
232.4279712635164
 30
0.0
 10
397.879444307971
 20
232.1346118963943
 30
0.0
 10
397.4626030614643
 20
231.7858691569043
 30
0.0
 10
397.1140674614918
 20
231.3952671557769
 30
0.0
 10
396.8479656485374
 20
230.9808029340337
 30
0.0
 10
396.7248168836274
 20
230.6882700181366
 30
0.0
 10
396.6802266685533
 20
230.5439760125591
 30
0.0
 11
402.2065926318036
 21
230.5439760125591
 31
0.0
 11
402.2916932977715
 21
230.962174322718
 31
0.0
 11
402.284469600762
 21
231.3778561939134
 31
0.0
 11
402.1792190761868
 21
231.7709261967042
 31
0.0
 11
401.9783253961862
 21
232.1223344814379
 31
0.0
 11
401.6912469050651
 21
232.4167892646392
 31
0.0
 11
401.3288698416586
 21
232.6457666781616
 31
0.0
 11
400.9016852797221
 21
232.8032986628123
 31
0.0
 11
400.4231878572412
 21
232.8837922280126
 31
0.0
 11
399.9105542307467
 21
232.8838552098545
 31
0.0
 11
399.3822831084758
 21
232.8034746543326
 31
0.0
 11
398.8576804187943
 21
232.6460384215806
 31
0.0
 11
398.3537862637701
 21
232.4171807782022
 31
0.0
 11
397.8847809127279
 21
232.1229092915655
 31
0.0
 11
397.466658188907
 21
231.7716463273391
 31
0.0
 11
397.1182209787464
 21
231.3785103516129
 31
0.0
 11
396.8537733979152
 21
230.9625007533586
 31
0.0
 11
396.6802266685533
 21
230.5439760125591
 31
0.0
  0
SPLINE
  5
14602
330
1F
100
AcDbEntity
  8
0
100
AcDbSpline
210
0.0
220
0.0
230
1.0
 70
     8
 71
     3
 72
    15
 73
    11
 74
     9
 42
0.0000000001
 43
0.0000000001
 44
0.0000000001
 12
0.8294381605797108
 22
0.5585985479520566
 32
0.0
 13
0.8210087270863532
 23
-0.5709156417966199
 33
0.0
 40
0.0
 40
0.0
 40
0.0
 40
0.0
 40
0.4521073292218766
 40
0.9047279672092798
 40
1.351332089882598
 40
1.785869760204605
 40
2.20330368682761
 40
2.600162749502445
 40
2.975105229907858
 40
3.292683857326239
 40
3.292683857326239
 40
3.292683857326239
 40
3.292683857326239
 10
413.1399016749703
 20
227.4842657570843
 30
0.0
 10
413.2649000321483
 20
227.5684479229583
 30
0.0
 10
413.5261388337879
 20
227.7210149419831
 30
0.0
 10
413.9414685835126
 20
227.8982584520655
 30
0.0
 10
414.3703480867648
 20
228.0200452677398
 30
0.0
 10
414.8000063490933
 20
228.0826425505361
 30
0.0
 10
415.2177880816326
 20
228.0840694393747
 30
0.0
 10
415.6114175195801
 20
228.023983776843
 30
0.0
 10
415.9574891006717
 20
227.9076214293688
 30
0.0
 10
416.1603611931234
 20
227.7943307858471
 30
0.0
 10
416.2472728013389
 20
227.7338939172159
 30
0.0
 11
413.1399016749703
 21
227.4842657570843
 31
0.0
 11
413.5301928161535
 21
227.7124627383309
 31
0.0
 11
413.9465546230036
 21
227.8899684783187
 31
0.0
 11
414.3763361540892
 21
228.011389555264
 31
0.0
 11
414.8064787146816
 21
228.0730366516741
 31
0.0
 11
415.2239126413046
 21
228.0730366516741
 31
0.0
 11
415.6159544134813
 21
228.011389555264
 31
0.0
 11
415.9706920428441
 21
227.8899684783187
 31
0.0
 11
416.2472728013389
 21
227.7338939172159
 31
0.0
  0
SPLINE
  5
14603
330
1F
100
AcDbEntity
  8
0
100
AcDbSpline
210
0.0
220
0.0
230
1.0
 70
     8
 71
     3
 72
    11
 73
     7
 74
     5
 42
0.0000000001
 43
0.0000000001
 44
0.0000000001
 12
-0.2952473543138072
 22
-0.9554208495582965
 32
0.0
 13
0.4408780123252269
 23
-0.8975670327324623
 33
0.0
 40
0.0
 40
0.0
 40
0.0
 40
0.0
 40
0.3703300158736733
 40
0.7305826557240241
 40
1.0831686427433
 40
1.172815946023399
 40
1.172815946023399
 40
1.172815946023399
 40
1.172815946023399
 10
411.3833758712899
 20
227.2873566929424
 30
0.0
 10
411.3469295521532
 20
227.1694163534814
 30
0.0
 10
411.2965325245936
 20
226.9291357946118
 30
0.0
 10
411.3009131861852
 20
226.5650423100929
 30
0.0
 10
411.3702553024058
 20
226.3032290566821
 30
0.0
 10
411.4308761921166
 20
226.1687889350199
 30
0.0
 10
411.4440507004101
 20
226.1419674470207
 30
0.0
 11
411.3833758712899
 21
227.2873566929424
 31
0.0
 11
411.3095457928904
 21
226.9244607847531
 31
0.0
 11
411.3159398303928
 21
226.5642648924895
 31
0.0
 11
411.4072194852728
 21
226.2236993292754
 31
0.0
 11
411.4440507004101
 21
226.1419674470207
 31
0.0
  0
SPLINE
  5
14604
330
1F
100
AcDbEntity
  8
0
100
AcDbSpline
210
0.0
220
0.0
230
1.0
 70
     8
 71
     3
 72
    24
 73
    20
 74
    18
 42
0.0000000001
 43
0.0000000001
 44
0.0000000001
 12
-0.2952474026103665
 22
-0.9554208346335306
 32
0.0
 13
0.2952473402564579
 23
0.9554208539023457
 33
0.0
 40
0.0
 40
0.0
 40
0.0
 40
0.0
 40
0.4267692002871341
 40
0.8425138332934391
 40
1.249431146251696
 40
1.654210165050179
 40
2.065449363390744
 40
2.494107494604474
 40
2.949412858521496
 40
3.434633424199288
 40
3.94726705659723
 40
4.481618450654244
 40
5.029335667294246
 40
5.582766004690147
 40
6.136446172175858
 40
6.682534335332086
 40
7.207857460894421
 40
7.700804219846916
 40
8.153884154995084
 40
8.153884154995084
 40
8.153884154995084
 40
8.153884154995084
 10
396.6802266685533
 20
230.5439760125591
 30
0.0
 10
396.6382258359204
 20
230.4080612840477
 30
0.0
 10
396.5801309081442
 20
230.1310057537664
 30
0.0
 10
396.5850376716945
 20
229.7108749277461
 30
0.0
 10
396.6907940855086
 20
229.3109277393821
 30
0.0
 10
396.8958096030066
 20
228.9531831712144
 30
0.0
 10
397.1898130250349
 20
228.6544444270906
 30
0.0
 10
397.5592641831372
 20
228.4242256431746
 30
0.0
 10
397.9912246926073
 20
228.2679555535758
 30
0.0
 10
398.4717462814326
 20
228.1896780634812
 30
0.0
 10
398.9845751191746
 20
228.1915962515315
 30
0.0
 10
399.5117069234799
 20
228.2731864449822
 30
0.0
 10
400.0352633449717
 20
228.4310834576836
 30
0.0
 10
400.5389153170141
 20
228.6599807633929
 30
0.0
 10
401.0073749934877
 20
228.9533401246822
 30
0.0
 10
401.4242162361498
 20
229.3020828698892
 30
0.0
 10
401.7727518383622
 20
229.6926848682081
 30
0.0
 10
402.0388536529307
 20
230.1071490898962
 30
0.0
 10
402.1620024165448
 20
230.399682006384
 30
0.0
 10
402.2065926318036
 20
230.5439760125591
 30
0.0
 11
396.6802266685533
 21
230.5439760125591
 31
0.0
 11
396.5951260005539
 21
230.1257777024002
 31
0.0
 11
396.602349699595
 21
229.7100958311985
 31
0.0
 11
396.7076002221389
 21
229.3170258284135
 31
0.0
 11
396.9084939041708
 21
228.9656175436803
 31
0.0
 11
397.1955723932603
 21
228.6711627604727
 31
0.0
 11
397.5579494586979
 21
228.4421853469566
 31
0.0
 11
397.9851340186034
 21
228.2846533622996
 31
0.0
 11
398.4636314410813
 21
228.2041597970992
 31
0.0
 11
398.9762650696103
 21
228.2040968152632
 31
0.0
 11
399.5045361918814
 21
228.2844773707793
 31
0.0
 11
400.0291388815626
 21
228.4419136035312
 31
0.0
 11
400.5330330345525
 21
228.6707712469096
 31
0.0
 11
401.0020383876261
 21
228.9650427315209
 31
0.0
 11
401.4201611094184
 21
229.3163056977732
 31
0.0
 11
401.7685983216107
 21
229.7094416734994
 31
0.0
 11
402.0330459024416
 21
230.1254512697282
 31
0.0
 11
402.2065926318036
 21
230.5439760125591
 31
0.0
  0
SPLINE
  5
14605
330
1F
100
AcDbEntity
  8
0
100
AcDbSpline
210
0.0
220
0.0
230
1.0
 70
     8
 71
     3
 72
    24
 73
    20
 74
    18
 42
0.0000000001
 43
0.0000000001
 44
0.0000000001
 12
0.2952474026103665
 22
0.9554208346335306
 32
0.0
 13
-0.2952473402564579
 23
-0.9554208539023457
 33
0.0
 40
0.0
 40
0.0
 40
0.0
 40
0.0
 40
0.4267691998820513
 40
0.842513830850997
 40
1.24943114577185
 40
1.654210164570277
 40
2.065449361450097
 40
2.494107490952111
 40
2.949412857477998
 40
3.434633423155529
 40
3.947267055553562
 40
4.481618449304692
 40
5.029335665944834
 40
5.582766003341354
 40
6.136446171903999
 40
6.682534333757253
 40
7.207857459319502
 40
7.700804219986363
 40
8.15388415325259
 40
8.15388415325259
 40
8.15388415325259
 40
8.15388415325259
 10
416.419300691979
 20
227.5360006802889
 30
0.0
 10
416.4613015245721
 20
227.6719154086713
 30
0.0
 10
416.5193964494696
 20
227.9489709387329
 30
0.0
 10
416.5144896866756
 20
228.3691017643166
 30
0.0
 10
416.4087332732711
 20
228.769048952814
 30
0.0
 10
416.2037177561506
 20
229.1267935216175
 30
0.0
 10
415.9097143329612
 20
229.4255322630246
 30
0.0
 10
415.5402631762975
 20
229.6557510484094
 30
0.0
 10
415.1083026668082
 20
229.8120211391591
 30
0.0
 10
414.6277810770277
 20
229.8902986301615
 30
0.0
 10
414.1149522395449
 20
229.8883804378158
 30
0.0
 10
413.5878204347781
 20
229.8067902488433
 30
0.0
 10
413.0642640136723
 20
229.6488932347234
 30
0.0
 10
412.5606120407306
 20
229.4199959300111
 30
0.0
 10
412.0921523663257
 20
229.1266365656297
 30
0.0
 10
411.6753111217386
 20
228.7778938231275
 30
0.0
 10
411.3267755194202
 20
228.3872918243234
 30
0.0
 10
411.0606737068013
 20
227.9728276016485
 30
0.0
 10
410.9375249417709
 20
227.6802946858647
 30
0.0
 10
410.8929347266975
 20
227.5360006802889
 30
0.0
 11
416.419300691979
 21
227.5360006802889
 31
0.0
 11
416.5044013579471
 21
227.9541989904478
 31
0.0
 11
416.497177658906
 21
228.3698808596118
 31
0.0
 11
416.3919271363623
 21
228.7629508644286
 31
0.0
 11
416.1910334543305
 21
229.1143591491618
 31
0.0
 11
415.9039549652438
 21
229.4088139303321
 31
0.0
 11
415.5415779018345
 21
229.6377913438536
 31
0.0
 11
415.1143933398977
 21
229.7953233305424
 31
0.0
 11
414.63589591742
 21
229.8758168957429
 31
0.0
 11
414.1232622888907
 21
229.875879875547
 31
0.0
 11
413.5949911666198
 21
229.7954993220628
 31
0.0
 11
413.0703884769385
 21
229.6380630893108
 31
0.0
 11
412.5664943239454
 21
229.4092054459379
 31
0.0
 11
412.0974889708747
 21
229.1149339592957
 31
0.0
 11
411.6793662490826
 21
228.7636709950688
 31
0.0
 11
411.3309290368903
 21
228.3705350193427
 31
0.0
 11
411.0664814560593
 21
227.9545254210825
 31
0.0
 11
410.8929347266975
 21
227.5360006802889
 31
0.0
  0
SPLINE
  5
14606
330
1F
100
AcDbEntity
  8
0
100
AcDbSpline
210
0.0
220
0.0
230
1.0
 70
     8
 71
     3
 72
    24
 73
    20
 74
    18
 42
0.0000000001
 43
0.0000000001
 44
0.0000000001
 12
-0.2952474026103665
 22
-0.9554208346335306
 32
0.0
 13
0.2952473402564579
 23
0.9554208539023457
 33
0.0
 40
0.0
 40
0.0
 40
0.0
 40
0.0
 40
0.4267692018778647
 40
0.8425138328527834
 40
1.249431147773105
 40
1.654210166572286
 40
2.065449363447764
 40
2.494107492949487
 40
2.949412859472665
 40
3.434633424819233
 40
3.947267057214163
 40
4.481618451274862
 40
5.029335667912267
 40
5.5827660044707
 40
6.1364461730304
 40
6.682534336190188
 40
7.207857461752629
 40
7.700804220702123
 40
8.153884155854182
 40
8.153884155854182
 40
8.153884155854182
 40
8.153884155854182
 10
410.8929347266975
 20
227.5360006802889
 30
0.0
 10
410.8509338939079
 20
227.4000859512709
 30
0.0
 10
410.7928389694179
 20
227.1230304204362
 30
0.0
 10
410.7977457319438
 20
226.7028995942313
 30
0.0
 10
410.9035021454209
 20
226.3029524057148
 30
0.0
 10
411.1085176625212
 20
225.9452078369312
 30
0.0
 10
411.4025210857128
 20
225.6464690954622
 30
0.0
 10
411.7719722424043
 20
225.4162503103482
 30
0.0
 10
412.2039327516529
 20
225.2599802185299
 30
0.0
 10
412.6844543418693
 20
225.1817027320418
 30
0.0
 10
413.197283179288
 20
225.1836209190597
 30
0.0
 10
413.7244149837609
 20
225.26521111259
 30
0.0
 10
414.2479714045173
 20
225.423108126052
 30
0.0
 10
414.751623378371
 20
225.6520054282444
 30
0.0
 10
415.2200830529758
 20
225.9453647928782
 30
0.0
 10
415.6369242964299
 20
226.2941075374392
 30
0.0
 10
415.9854598985088
 20
226.6847095359827
 30
0.0
 10
416.2515617131208
 20
227.0991737576093
 30
0.0
 10
416.3747104767199
 20
227.3917066741126
 30
0.0
 10
416.419300691979
 20
227.5360006802889
 30
0.0
 11
410.8929347266975
 21
227.5360006802889
 31
0.0
 11
410.8078340607325
 21
227.1178023680927
 31
0.0
 11
410.8150577597706
 21
226.7021204989227
 31
0.0
 11
410.9203082823145
 21
226.3090504941065
 31
0.0
 11
411.1212019643461
 21
225.9576422093723
 31
0.0
 11
411.4082804534332
 21
225.6631874282084
 31
0.0
 11
411.7706575168421
 21
225.4342100146868
 31
0.0
 11
412.197842078776
 21
225.276678027998
 31
0.0
 11
412.6763395012599
 21
225.1961844648294
 31
0.0
 11
413.1889731297858
 21
225.1961214829875
 31
0.0
 11
413.7172442520598
 21
225.2765020385095
 31
0.0
 11
414.2418469417383
 21
225.4339382712614
 31
0.0
 11
414.7457410947311
 21
225.6627959126081
 31
0.0
 11
415.2147464478018
 21
225.9570673992448
 31
0.0
 11
415.6328691695938
 21
226.308330365503
 31
0.0
 11
415.9813063817863
 21
226.7014663412292
 31
0.0
 11
416.2457539626201
 21
227.1174759374526
 31
0.0
 11
416.419300691979
 21
227.5360006802889
 31
0.0
  0
SPLINE
  5
14607
330
1F
100
AcDbEntity
  8
0
100
AcDbSpline
210
0.0
220
0.0
230
1.0
 70
     8
 71
     3
 72
    21
 73
    17
 74
    15
 42
0.0000000001
 43
0.0000000001
 44
0.0000000001
 12
-0.4408843342447783
 22
0.8975639274266422
 32
0.0
 13
-0.295247388247101
 23
-0.9554208390721157
 33
0.0
 40
0.0
 40
0.0
 40
0.0
 40
0.0
 40
0.2616431253698508
 40
0.6179807621133006
 40
0.9894100232771707
 40
1.383922002724964
 40
1.804348559995099
 40
2.248526266582691
 40
2.711524370057336
 40
3.186109322230384
 40
3.665649607817121
 40
4.145412703402677
 40
4.618616643314319
 40
5.073858020401472
 40
5.501068867981336
 40
5.894451481695979
 40
5.894451481695979
 40
5.894451481695979
 40
5.894451481695979
 10
416.1122157933228
 20
228.4327483467814
 30
0.0
 10
416.07376434161
 20
228.5110288238451
 30
0.0
 10
415.9648783599037
 20
228.6875748349241
 30
0.0
 10
415.7310943194315
 20
228.9250739234414
 30
0.0
 10
415.4109675911045
 20
229.1245098279048
 30
0.0
 10
415.0366760960285
 20
229.2599070823317
 30
0.0
 10
414.620322744653
 20
229.3277374469361
 30
0.0
 10
414.1759748882747
 20
229.3260942574651
 30
0.0
 10
413.719226211524
 20
229.2554361937887
 30
0.0
 10
413.2655633588359
 20
229.1186671700692
 30
0.0
 10
412.8291299586374
 20
228.9203831428076
 30
0.0
 10
412.4231822773779
 20
228.6662313150637
 30
0.0
 10
412.0618842051683
 20
228.3641314694182
 30
0.0
 10
411.7598240729003
 20
228.0256695147598
 30
0.0
 10
411.5288749921794
 20
227.6664106103925
 30
0.0
 10
411.4220909343835
 20
227.4126386752329
 30
0.0
 10
411.3833758712899
 20
227.2873566929424
 30
0.0
 11
416.1122157933228
 21
228.4327483467814
 31
0.0
 11
415.9749067014177
 21
228.6554664159484
 31
0.0
 11
415.7261178812428
 21
228.9105754795191
 31
0.0
 11
415.4121039154191
 21
229.108956237952
 31
0.0
 11
415.0419533384739
 21
229.2454415936313
 31
0.0
 11
414.6273530013083
 21
229.3151915074677
 31
0.0
 11
414.1831753008919
 21
229.3152655494864
 31
0.0
 11
413.725440120858
 21
229.2456541367692
 31
0.0
 11
413.2708697401868
 21
229.1092846172805
 31
0.0
 11
412.8342288882973
 21
228.9110331306233
 31
0.0
 11
412.4278006719463
 21
228.6561042526209
 31
0.0
 11
412.0654156898332
 21
228.3518032610241
 31
0.0
 11
411.7633944518638
 21
228.0111746021775
 31
0.0
 11
411.5340694688091
 21
227.6507315963681
 31
0.0
 11
411.3833758712899
 21
227.2873566929424
 31
0.0
  0
SPLINE
  5
14608
330
1F
100
AcDbEntity
  8
0
100
AcDbSpline
210
0.0
220
0.0
230
1.0
 70
     8
 71
     3
 72
    21
 73
    17
 74
    15
 42
0.0000000001
 43
0.0000000001
 44
0.0000000001
 12
-0.4408843342447783
 22
0.8975639274266422
 32
0.0
 13
-0.295247388247101
 23
-0.9554208390721157
 33
0.0
 40
0.0
 40
0.0
 40
0.0
 40
0.0
 40
0.2616431271034783
 40
0.6179807638432583
 40
0.9894100239220524
 40
1.383922003366912
 40
1.804348560980846
 40
2.248526267565538
 40
2.711524373354167
 40
3.186109323581231
 40
3.665649609165071
 40
4.145412705391438
 40
4.618616645055624
 40
5.073858022146813
 40
5.501068869722091
 40
5.894451483436309
 40
5.894451483436309
 40
5.894451483436309
 40
5.894451483436309
 10
411.9943362282333
 20
231.4407236790516
 30
0.0
 10
411.9558847762657
 20
231.519004156634
 30
0.0
 10
411.8469987957126
 20
231.6955501690527
 30
0.0
 10
411.6132147547532
 20
231.933049257869
 30
0.0
 10
411.2930880254051
 20
232.1324851599391
 30
0.0
 10
410.9187965308012
 20
232.2678824141457
 30
0.0
 10
410.5024431798011
 20
232.3357127818411
 30
0.0
 10
410.0580953222986
 20
232.3340695920696
 30
0.0
 10
409.601346645883
 20
232.2634115259192
 30
0.0
 10
409.1476837929823
 20
232.1266425023492
 30
0.0
 10
408.711250394087
 20
231.9283584738896
 30
0.0
 10
408.3053027092684
 20
231.6742066512275
 30
0.0
 10
407.9440046408064
 20
231.3721068006397
 30
0.0
 10
407.6419445076246
 20
231.0336448472693
 30
0.0
 10
407.410995427141
 20
230.6743859425996
 30
0.0
 10
407.3042113692975
 20
230.4206140075031
 30
0.0
 10
407.2654963062038
 20
230.2953320252127
 30
0.0
 11
411.9943362282333
 21
231.4407236790516
 31
0.0
 11
411.8570271363286
 21
231.6634417502555
 31
0.0
 11
411.6082383161534
 21
231.9185508138207
 31
0.0
 11
411.2942243503298
 21
232.1169315702222
 31
0.0
 11
410.9240737733877
 21
232.2534169259015
 31
0.0
 11
410.5094734362161
 21
232.3231668417747
 31
0.0
 11
410.0652957358026
 21
232.323240883788
 31
0.0
 11
409.6075605537372
 21
232.2536294690389
 31
0.0
 11
409.1529901750976
 21
232.1172599495503
 31
0.0
 11
408.7163493232111
 21
231.9190084628935
 31
0.0
 11
408.3099211048255
 21
231.6640795869289
 31
0.0
 11
407.9475361247467
 21
231.3597785932943
 31
0.0
 11
407.6455148867777
 21
231.0191499344419
 31
0.0
 11
407.4161899037232
 21
230.6587069286379
 31
0.0
 11
407.2654963062038
 21
230.2953320252127
 31
0.0
  0
SPLINE
  5
14609
330
1F
100
AcDbEntity
  8
0
100
AcDbSpline
210
0.0
220
0.0
230
1.0
 70
     8
 71
     3
 72
    21
 73
    17
 74
    15
 42
0.0000000001
 43
0.0000000001
 44
0.0000000001
 12
-0.4408843342447783
 22
0.8975639274266422
 32
0.0
 13
-0.295247388247101
 23
-0.9554208390721157
 33
0.0
 40
0.0
 40
0.0
 40
0.0
 40
0.0
 40
0.2616431243022532
 40
0.6179807610457427
 40
0.9894100239294143
 40
1.383922001468622
 40
1.804348558741729
 40
2.248526265328922
 40
2.711524370812058
 40
3.186109322985324
 40
3.665649608569162
 40
4.145412704157319
 40
4.618616642511018
 40
5.073858020945722
 40
5.501068867435103
 40
5.894451481149768
 40
5.894451481149768
 40
5.894451481149768
 40
5.894451481149768
 10
406.0173872982335
 20
228.4327483467814
 30
0.0
 10
405.9789358466775
 20
228.5110288235257
 30
0.0
 10
405.870049867516
 20
228.6875748357063
 30
0.0
 10
405.6362658258651
 20
228.9250739240043
 30
0.0
 10
405.316139096875
 20
229.1245098268404
 30
0.0
 10
404.9418476024972
 20
229.2599070828266
 30
0.0
 10
404.5254942515464
 20
229.3277374468522
 30
0.0
 10
404.0811463945745
 20
229.3260942573627
 30
0.0
 10
403.6243977170718
 20
229.2554361940472
 30
0.0
 10
403.1707348637152
 20
229.1186671700878
 30
0.0
 10
402.7343014636837
 20
228.9203831426671
 30
0.0
 10
402.3283537822292
 20
228.6662313158744
 30
0.0
 10
401.967055712326
 20
228.364131467892
 30
0.0
 10
401.6649955772602
 20
228.0256695162086
 30
0.0
 10
401.4340464995941
 20
227.6664106096313
 30
0.0
 10
401.3272624413287
 20
227.4126386752329
 30
0.0
 10
401.288547378235
 20
227.2873566929424
 30
0.0
 11
406.0173872982335
 21
228.4327483467814
 31
0.0
 11
405.8800782083626
 21
228.6554664159484
 31
0.0
 11
405.6312893881877
 21
228.9105754795191
 31
0.0
 11
405.3172754203298
 21
229.108956237952
 31
0.0
 11
404.9471248454187
 21
229.2454415936313
 31
0.0
 11
404.5325245082501
 21
229.3151915074677
 31
0.0
 11
404.0883468078341
 21
229.3152655494864
 31
0.0
 11
403.6306116257686
 21
229.2456541367692
 31
0.0
 11
403.1760412450973
 21
229.1092846172805
 31
0.0
 11
402.7394003932109
 21
228.9110331306233
 31
0.0
 11
402.3329721768568
 21
228.6561042526209
 31
0.0
 11
401.9705871967781
 21
228.3518032610241
 31
0.0
 11
401.6685659567775
 21
228.0111746021775
 31
0.0
 11
401.4392409757544
 21
227.6507315963681
 31
0.0
 11
401.288547378235
 21
227.2873566929424
 31
0.0
  0
SPLINE
  5
1460A
330
1F
100
AcDbEntity
  8
0
100
AcDbSpline
210
0.0
220
0.0
230
1.0
 70
     8
 71
     3
 72
    24
 73
    20
 74
    18
 42
0.0000000001
 43
0.0000000001
 44
0.0000000001
 12
0.2952474026103665
 22
0.9554208346335306
 32
0.0
 13
-0.2952473402564579
 23
-0.9554208539023457
 33
0.0
 40
0.0
 40
0.0
 40
0.0
 40
0.0
 40
0.4267691998820678
 40
0.8425138328820951
 40
1.249431145845927
 40
1.654210164646289
 40
2.065449362980193
 40
2.494107492480179
 40
2.949412858300859
 40
3.434633423981659
 40
3.947267056376532
 40
4.481618450437228
 40
5.029335667077262
 40
5.582766004473421
 40
6.136446173035562
 40
6.682534334888671
 40
7.207857460450849
 40
7.700804221112721
 40
8.153884154383353
 40
8.153884154383353
 40
8.153884154383353
 40
8.153884154383353
 10
412.3014211268897
 20
230.5439760125591
 30
0.0
 10
412.3434219594828
 20
230.6798907409415
 30
0.0
 10
412.4015168843888
 20
230.9569462716628
 30
0.0
 10
412.3966101219503
 20
231.3770770973297
 30
0.0
 10
412.2908537078342
 20
231.777024285724
 30
0.0
 10
412.0858381904734
 20
232.1347688539847
 30
0.0
 10
411.7918347685827
 20
232.4335075972775
 30
0.0
 10
411.4223836115416
 20
232.663726383064
 30
0.0
 10
410.9904231012549
 20
232.8199964710166
 30
0.0
 10
410.5099015120323
 20
232.8982739617522
 30
0.0
 10
409.9970726742297
 20
232.8963557735444
 30
0.0
 10
409.469940869909
 20
232.8147655801804
 30
0.0
 10
408.9463844485487
 20
232.6568685672592
 30
0.0
 10
408.4427324756557
 20
232.4279712622005
 30
0.0
 10
407.9742728012327
 20
232.1346118979205
 30
0.0
 10
407.5574315566496
 20
231.7858691553927
 30
0.0
 10
407.2088959543338
 20
231.3952671565953
 30
0.0
 10
406.9427941417074
 20
230.9808029339231
 30
0.0
 10
406.8196453766851
 20
230.6882700181362
 30
0.0
 10
406.7750551616112
 20
230.5439760125591
 30
0.0
 11
412.3014211268897
 21
230.5439760125591
 31
0.0
 11
412.3865217928578
 21
230.962174322718
 31
0.0
 11
412.3792980938198
 21
231.3778561939134
 31
0.0
 11
412.2740475712758
 21
231.7709261967042
 31
0.0
 11
412.073153889241
 21
232.1223344814379
 31
0.0
 11
411.7860754001545
 21
232.4167892646392
 31
0.0
 11
411.4236983367481
 21
232.6457666781616
 31
0.0
 11
410.9965137748114
 21
232.8032986628123
 31
0.0
 11
410.5180163523304
 21
232.8837922280126
 31
0.0
 11
410.0053827238045
 21
232.8838552098545
 31
0.0
 11
409.4771116015305
 21
232.8034746543326
 31
0.0
 11
408.9525089118493
 21
232.6460384215806
 31
0.0
 11
408.4486147588591
 21
232.4171807782022
 31
0.0
 11
407.9796094057855
 21
232.1229092915655
 31
0.0
 11
407.5614866839933
 21
231.7716463273391
 31
0.0
 11
407.2130494718011
 21
231.3785103516129
 31
0.0
 11
406.9486018909701
 21
230.9625007533586
 31
0.0
 11
406.7750551616112
 21
230.5439760125591
 31
0.0
  0
SPLINE
  5
1460B
330
1F
100
AcDbEntity
  8
0
100
AcDbSpline
210
0.0
220
0.0
230
1.0
 70
     8
 71
     3
 72
    24
 73
    20
 74
    18
 42
0.0000000001
 43
0.0000000001
 44
0.0000000001
 12
-0.2952474026103665
 22
-0.9554208346335306
 32
0.0
 13
0.2952473402564579
 23
0.9554208539023457
 33
0.0
 40
0.0
 40
0.0
 40
0.0
 40
0.0
 40
0.4267691998820339
 40
0.8425138328529891
 40
1.249431146336692
 40
1.654210165136557
 40
2.065449363475099
 40
2.494107492971522
 40
2.949412858794492
 40
3.434633424475144
 40
3.947267056870243
 40
4.481618450930067
 40
5.029335667570069
 40
5.582766004966228
 40
6.136446172451892
 40
6.68253433560812
 40
7.207857461170227
 40
7.700804220121168
 40
8.153884155269336
 40
8.153884155269336
 40
8.153884155269336
 40
8.153884155269336
 10
406.7750551616112
 20
230.5439760125591
 30
0.0
 10
406.733054329018
 20
230.4080612841767
 30
0.0
 10
406.6749594051424
 20
230.1310057535352
 30
0.0
 10
406.6798661630851
 20
229.7108749273966
 30
0.0
 10
406.7856225814763
 20
229.310927739738
 30
0.0
 10
406.9906380977862
 20
228.9531831710814
 30
0.0
 10
407.2846415199825
 20
228.6544444278477
 30
0.0
 10
407.6540926769429
 20
228.4242256420529
 30
0.0
 10
408.0860531872505
 20
228.2679555540939
 30
0.0
 10
408.5665747764656
 20
228.1896780633601
 30
0.0
 10
409.0794036142783
 20
228.1915962515665
 30
0.0
 10
409.6065354185638
 20
228.2731864449721
 30
0.0
 10
410.1300918400622
 20
228.4310834576864
 30
0.0
 10
410.6337438121033
 20
228.6599807633921
 30
0.0
 10
411.1022034885773
 20
228.9533401246826
 30
0.0
 10
411.5190447312389
 20
229.3020828698891
 30
0.0
 10
411.8675803334517
 20
229.6926848682074
 30
0.0
 10
412.1336821480163
 20
230.107149089897
 30
0.0
 10
412.256830911631
 20
230.399682006384
 30
0.0
 10
412.3014211268897
 20
230.5439760125591
 30
0.0
 11
406.7750551616112
 21
230.5439760125591
 31
0.0
 11
406.6899544956433
 21
230.1257777024002
 31
0.0
 11
406.69717819265
 21
229.7100958311985
 31
0.0
 11
406.8024287172253
 21
229.3170258284135
 31
0.0
 11
407.00332239926
 21
228.9656175436803
 31
0.0
 11
407.2904008883466
 21
228.6711627604727
 31
0.0
 11
407.6527779517528
 21
228.4421853469566
 31
0.0
 11
408.0799625136896
 21
228.2846533622996
 31
0.0
 11
408.5584599361705
 21
228.2041597970992
 31
0.0
 11
409.0710935646966
 21
228.2040968152632
 31
0.0
 11
409.5993646869706
 21
228.2844773707793
 31
0.0
 11
410.1239673766518
 21
228.4419136035312
 31
0.0
 11
410.627861529642
 21
228.6707712469096
 31
0.0
 11
411.0968668827155
 21
228.9650427315209
 31
0.0
 11
411.5149896045078
 21
229.3163056977732
 31
0.0
 11
411.8634268166998
 21
229.7094416734994
 31
0.0
 11
412.1278743975278
 21
230.1254512697282
 31
0.0
 11
412.3014211268897
 21
230.5439760125591
 31
0.0
  0
SPLINE
  5
1460C
330
1F
100
AcDbEntity
  8
0
100
AcDbSpline
210
0.0
220
0.0
230
1.0
 70
     8
 71
     3
 72
    17
 73
    13
 74
    11
 42
0.0000000001
 43
0.0000000001
 44
0.0000000001
 12
-0.4408843342102533
 22
0.8975639274436009
 32
0.0
 13
-0.8141903742212857
 23
-0.5805979973487704
 33
0.0
 40
0.0
 40
0.0
 40
0.0
 40
0.0
 40
0.2616431260372529
 40
0.6179807627770727
 40
0.9894100245759085
 40
1.383922002112023
 40
1.804348559726013
 40
2.248526268344903
 40
2.711524372122345
 40
3.186109324295151
 40
3.665649609881683
 40
4.114500745870335
 40
4.114500745870335
 40
4.114500745870335
 40
4.114500745870335
 10
401.8995077331468
 20
231.4407236790516
 30
0.0
 10
401.8610562813389
 20
231.5190041563165
 30
0.0
 10
401.7521703037324
 20
231.6955501701401
 30
0.0
 10
401.5183862591526
 20
231.9330492569078
 30
0.0
 10
401.1982595392177
 20
232.1324851648991
 30
0.0
 10
400.8239680043602
 20
232.2678823899852
 30
0.0
 10
400.4076148207244
 20
232.3357128827788
 30
0.0
 10
399.9632662858106
 20
232.3340691852863
 30
0.0
 10
399.5065202910039
 20
232.2634131300183
 30
0.0
 10
399.0528470678189
 20
232.126636329239
 30
0.0
 10
398.62586079417
 20
231.9326557635704
 30
0.0
 10
398.362051996778
 20
231.7690454130753
 30
0.0
 10
398.2402352386513
 20
231.6821780561877
 30
0.0
 11
401.8995077331468
 21
231.4407236790516
 31
0.0
 11
401.7621986432738
 21
231.6634417502555
 31
0.0
 11
401.5134098230985
 21
231.9185508138207
 31
0.0
 11
401.1993958552404
 21
232.1169315702222
 31
0.0
 11
400.8292452803326
 21
232.2534169259015
 31
0.0
 11
400.414644943161
 21
232.3231668417747
 31
0.0
 11
399.9704672407133
 21
232.323240883788
 31
0.0
 11
399.5127320606822
 21
232.2536294690389
 31
0.0
 11
399.0581616800113
 21
232.1172599495503
 31
0.0
 11
398.6215208281218
 21
231.9190084628935
 31
0.0
 11
398.2402352386513
 21
231.6821780561877
 31
0.0
  0
SPLINE
  5
1460D
330
1F
100
AcDbEntity
  8
0
100
AcDbSpline
210
0.0
220
0.0
230
1.0
 70
     8
 71
     3
 72
    12
 73
     8
 74
     6
 42
0.0000000001
 43
0.0000000001
 44
0.0000000001
 12
-0.8141903738473555
 22
-0.5805979978731442
 32
0.0
 13
-0.2952473881142957
 23
-0.9554208391131558
 33
0.0
 40
0.0
 40
0.0
 40
0.0
 40
0.0
 40
0.0309791264558326
 40
0.504183066122282
 40
0.9594244445594014
 40
1.386635291045812
 40
1.780017905538228
 40
1.780017905538228
 40
1.780017905538228
 40
1.780017905538228
 10
398.2402352386513
 20
231.6821780561877
 30
0.0
 10
398.2318276031344
 20
231.6761825832557
 30
0.0
 10
398.0954333250674
 20
231.5780032361766
 30
0.0
 10
397.8491327612426
 20
231.3720755655447
 30
0.0
 10
397.5471267476714
 20
231.0336525775201
 30
0.0
 10
397.3161642046991
 20
230.6743839755176
 30
0.0
 10
397.2093828742672
 20
230.4206140077563
 30
0.0
 10
397.1706678111144
 20
230.2953320252127
 30
0.0
 11
398.2402352386513
 21
231.6821780561877
 31
0.0
 11
398.2150926117707
 21
231.6640795869289
 31
0.0
 11
397.852707631689
 21
231.3597785932943
 31
0.0
 11
397.5506863916913
 21
231.0191499344419
 31
0.0
 11
397.3213614106652
 21
230.6587069286379
 31
0.0
 11
397.1706678111144
 21
230.2953320252127
 31
0.0
  0
SPLINE
  5
1460E
330
1F
100
AcDbEntity
  8
0
100
AcDbSpline
210
0.0
220
0.0
230
1.0
 70
     8
 71
     3
 72
    24
 73
    20
 74
    18
 42
0.0000000001
 43
0.0000000001
 44
0.0000000001
 12
0.2952474026103665
 22
0.9554208346335306
 32
0.0
 13
-0.2952473402564579
 23
-0.9554208539023457
 33
0.0
 40
0.0
 40
0.0
 40
0.0
 40
0.0
 40
0.4267692002877296
 40
0.8425138312567296
 40
1.249431146702309
 40
1.654210164492621
 40
2.065449362792437
 40
2.494107492294211
 40
2.94941285691159
 40
3.434633424595302
 40
3.947267054958909
 40
4.481618448712961
 40
5.029335665353158
 40
5.58276600459621
 40
6.136446171438157
 40
6.682534334849325
 40
7.207857459062139
 40
7.700804219730463
 40
8.153884152995603
 40
8.153884152995603
 40
8.153884152995603
 40
8.153884152995603
 10
406.3244721968898
 20
227.5360006802889
 30
0.0
 10
406.3664730295228
 20
227.6719154088005
 30
0.0
 10
406.4245679570354
 20
227.9489709383293
 30
0.0
 10
406.4196611942596
 20
228.3691017648369
 30
0.0
 10
406.3139047770913
 20
228.7690489517346
 30
0.0
 10
406.1088892637243
 20
229.1267935229963
 30
0.0
 10
405.8148858376547
 20
229.4255322622947
 30
0.0
 10
405.4454346818688
 20
229.6557510480196
 30
0.0
 10
405.0134741725537
 20
229.8120211398114
 30
0.0
 10
404.5329525832385
 20
229.8902986298538
 30
0.0
 10
404.0201237458419
 20
229.8883804377861
 30
0.0
 10
403.4929919416592
 20
229.806790248927
 30
0.0
 10
402.9694355202509
 20
229.6488932341217
 30
0.0
 10
402.4657835462306
 20
229.4199959313244
 30
0.0
 10
401.9973238730667
 20
229.1266365641018
 30
0.0
 10
401.5804826265497
 20
228.7778938246423
 30
0.0
 10
401.2319470265796
 20
228.3872918235028
 30
0.0
 10
400.965845213626
 20
227.9728276017618
 30
0.0
 10
400.842696448716
 20
227.6802946858643
 30
0.0
 10
400.7981062336426
 20
227.5360006802889
 30
0.0
 11
406.3244721968898
 21
227.5360006802889
 31
0.0
 11
406.4095728648923
 21
227.9541989904478
 31
0.0
 11
406.4023491658481
 21
228.3698808596118
 31
0.0
 11
406.2970986412757
 21
228.7629508644286
 31
0.0
 11
406.0962049612752
 21
229.1143591491618
 31
0.0
 11
405.8091264701543
 21
229.4088139303321
 31
0.0
 11
405.4467494067453
 21
229.6377913438536
 31
0.0
 11
405.0195648468426
 21
229.7953233305424
 31
0.0
 11
404.5410674223306
 21
229.8758168957429
 31
0.0
 11
404.0284337958357
 21
229.875879875547
 31
0.0
 11
403.5001626735619
 21
229.7954993220628
 31
0.0
 11
402.9755599838805
 21
229.6380630893108
 31
0.0
 11
402.4716658288593
 21
229.4092054459379
 31
0.0
 11
402.00266047782
 21
229.1149339592957
 31
0.0
 11
401.5845377539932
 21
228.7636709950688
 31
0.0
 11
401.2361005438354
 21
228.3705350193427
 31
0.0
 11
400.9716529630017
 21
227.9545254210825
 31
0.0
 11
400.7981062336426
 21
227.5360006802889
 31
0.0
  0
SPLINE
  5
1460F
330
1F
100
AcDbEntity
  8
0
100
AcDbSpline
210
0.0
220
0.0
230
1.0
 70
     8
 71
     3
 72
    15
 73
    11
 74
     9
 42
0.0000000001
 43
0.0000000001
 44
0.0000000001
 12
0.8294381605797108
 22
0.5585985479520566
 32
0.0
 13
0.8210087270863532
 23
-0.5709156417966199
 33
0.0
 40
0.0
 40
0.0
 40
0.0
 40
0.0
 40
0.4521073274714095
 40
0.9047279654537529
 40
1.351332088682247
 40
1.785869759004929
 40
2.20330368563123
 40
2.600162750310486
 40
2.975105231371097
 40
3.292683856021898
 40
3.292683856021898
 40
3.292683856021898
 40
3.292683856021898
 10
398.9271936168262
 20
230.4922410893541
 30
0.0
 10
399.0521919735203
 20
230.5764232549021
 30
0.0
 10
399.3134307738401
 20
230.7289902751203
 30
0.0
 10
399.7287605237769
 20
230.9062337835916
 30
0.0
 10
400.1576400261925
 20
231.0280206026724
 30
0.0
 10
400.5872982890021
 20
231.0906178847826
 30
0.0
 10
401.0050800220053
 20
231.0920447733356
 30
0.0
 10
401.3987094613354
 20
231.0319591122102
 30
0.0
 10
401.7447810410509
 20
230.9155967610908
 30
0.0
 10
401.9476531337021
 20
230.802306119622
 30
0.0
 10
402.0345647411603
 20
230.7418692515175
 30
0.0
 11
398.9271936168262
 21
230.4922410893541
 31
0.0
 11
399.3174847559779
 21
230.7204380706071
 31
0.0
 11
399.7338465628251
 21
230.8979438105889
 31
0.0
 11
400.1636280939136
 21
231.0193648895656
 31
0.0
 11
400.593770654506
 21
231.0810119859816
 31
0.0
 11
401.0112045811323
 21
231.0810119859816
 31
0.0
 11
401.403246355337
 21
231.0193648895656
 31
0.0
 11
401.7579839846971
 21
230.8979438105889
 31
0.0
 11
402.0345647411603
 21
230.7418692515175
 31
0.0
  0
SPLINE
  5
14610
330
1F
100
AcDbEntity
  8
0
100
AcDbSpline
210
0.0
220
0.0
230
1.0
 70
     8
 71
     3
 72
    11
 73
     7
 74
     5
 42
0.0000000001
 43
0.0000000001
 44
0.0000000001
 12
-0.2952473543138072
 22
-0.9554208495582965
 32
0.0
 13
0.4408780123252269
 23
-0.8975670327324623
 33
0.0
 40
0.0
 40
0.0
 40
0.0
 40
0.0
 40
0.370330015474484
 40
0.7305826553130732
 40
1.08316864037077
 40
1.172815943650765
 40
1.172815943650765
 40
1.172815943650765
 40
1.172815943650765
 10
397.1706678111144
 20
230.2953320252127
 30
0.0
 10
397.1342214920171
 20
230.1773916858788
 30
0.0
 10
397.0838244674079
 20
229.9371111265864
 30
0.0
 10
397.0882051275308
 20
229.5730176430066
 30
0.0
 10
397.1575472445816
 20
229.3112043903978
 30
0.0
 10
397.2181681339727
 20
229.176764269327
 30
0.0
 10
397.2313426422662
 20
229.1499427813278
 30
0.0
 11
397.1706678111144
 21
230.2953320252127
 31
0.0
 11
397.0968377347461
 21
229.9324361170175
 31
0.0
 11
397.1032317722487
 21
229.5722402247657
 31
0.0
 11
397.1945114271288
 21
229.2316746635824
 31
0.0
 11
397.2313426422662
 21
229.1499427813278
 31
0.0
  0
SPLINE
  5
14611
330
1F
100
AcDbEntity
  8
0
100
AcDbSpline
210
0.0
220
0.0
230
1.0
 70
     8
 71
     3
 72
    15
 73
    11
 74
     9
 42
0.0000000001
 43
0.0000000001
 44
0.0000000001
 12
0.8294381605797108
 22
0.5585985479520566
 32
0.0
 13
0.8210087270863532
 23
-0.5709156417966199
 33
0.0
 40
0.0
 40
0.0
 40
0.0
 40
0.0
 40
0.4521073274657629
 40
0.9047279654531138
 40
1.351332088129385
 40
1.785869758451393
 40
2.203303685074511
 40
2.600162749755764
 40
2.97510523015881
 40
3.292683855807578
 40
3.292683855807578
 40
3.292683855807578
 40
3.292683855807578
 10
403.0450731819152
 20
227.4842657570843
 30
0.0
 10
403.1700715386078
 20
227.5684479226313
 30
0.0
 10
403.4313103389896
 20
227.7210149426399
 30
0.0
 10
403.8466400884898
 20
227.8982584519557
 30
0.0
 10
404.2755195916607
 20
228.0200452677596
 30
0.0
 10
404.7051778540109
 20
228.0826425505608
 30
0.0
 10
405.1229595872183
 20
228.0840694392672
 30
0.0
 10
405.5165890258114
 20
228.0239837769773
 30
0.0
 10
405.8626606073314
 20
227.9076214300444
 30
0.0
 10
406.065532698518
 20
227.7943307855103
 30
0.0
 10
406.1524443062493
 20
227.7338939172159
 30
0.0
 11
403.0450731819152
 21
227.4842657570843
 31
0.0
 11
403.4353643210641
 21
227.7124627383309
 31
0.0
 11
403.8517261279142
 21
227.8899684783187
 31
0.0
 11
404.2815076590028
 21
228.011389555264
 31
0.0
 11
404.7116502195953
 21
228.0730366516741
 31
0.0
 11
405.1290841462185
 21
228.0730366516741
 31
0.0
 11
405.5211259204261
 21
228.011389555264
 31
0.0
 11
405.8758635497865
 21
227.8899684783187
 31
0.0
 11
406.1524443062493
 21
227.7338939172159
 31
0.0
  0
SPLINE
  5
14612
330
1F
100
AcDbEntity
  8
0
100
AcDbSpline
210
0.0
220
0.0
230
1.0
 70
     8
 71
     3
 72
    11
 73
     7
 74
     5
 42
0.0000000001
 43
0.0000000001
 44
0.0000000001
 12
-0.2952473543138072
 22
-0.9554208495582965
 32
0.0
 13
0.4408780123252269
 23
-0.8975670327324623
 33
0.0
 40
0.0
 40
0.0
 40
0.0
 40
0.0
 40
0.3703300158742512
 40
0.7305826557246494
 40
1.083168642743926
 40
1.172815946024141
 40
1.172815946024141
 40
1.172815946024141
 40
1.172815946024141
 10
401.288547378235
 20
227.2873566929424
 30
0.0
 10
401.2521010590983
 20
227.1694163534812
 30
0.0
 10
401.2017040315333
 20
226.9291357946122
 30
0.0
 10
401.2060846931318
 20
226.5650423100931
 30
0.0
 10
401.2754268093501
 20
226.3032290566819
 30
0.0
 10
401.3360476990618
 20
226.1687889350199
 30
0.0
 10
401.3492222073553
 20
226.1419674470207
 30
0.0
 11
401.288547378235
 21
227.2873566929424
 31
0.0
 11
401.2147172998326
 21
226.9244607847531
 31
0.0
 11
401.2211113373377
 21
226.5642648924895
 31
0.0
 11
401.3123909922176
 21
226.2236993292754
 31
0.0
 11
401.3492222073553
 21
226.1419674470207
 31
0.0
  0
LINE
  5
14613
330
1F
100
AcDbEntity
  8
0
100
AcDbLine
 10
409.8831583180093
 20
205.2013270017396
 30
0.0
 11
409.9703672164912
 21
205.2123691701617
 31
0.0
  0
SPLINE
  5
14614
330
1F
100
AcDbEntity
  8
0
100
AcDbSpline
210
0.0
220
0.0
230
1.0
 70
     8
 71
     3
 72
    13
 73
     9
 74
     7
 42
0.0000000001
 43
0.0000000001
 44
0.0000000001
 12
0.9749475989935888
 22
0.2224346628037913
 32
0.0
 13
0.2933054786339037
 23
0.9560187739805828
 33
0.0
 40
0.0
 40
0.0
 40
0.0
 40
0.0
 40
0.8676014937495583
 40
1.74425898361954
 40
2.610685904509239
 40
3.44883229847659
 40
4.244262624023655
 40
4.988637245930286
 40
4.988637245930286
 40
4.988637245930286
 40
4.988637245930286
 10
414.5383445880121
 20
202.2863155252007
 30
0.0
 10
414.8202999190836
 20
202.3506437404374
 30
0.0
 10
415.3774206160532
 20
202.5267870997579
 30
0.0
 10
416.1597314147298
 20
202.9153441862018
 30
0.0
 10
416.8650646720202
 20
203.4143541813845
 30
0.0
 10
417.4616335190616
 20
204.0019511052963
 30
0.0
 10
417.9224995839316
 20
204.6521024506059
 30
0.0
 10
418.1321972122122
 20
205.1257912796473
 30
0.0
 10
418.2049735971327
 20
205.3630033174531
 30
0.0
 11
414.5383445880121
 21
202.2863155252007
 31
0.0
 11
415.3660070444435
 21
202.546521616925
 31
0.0
 11
416.1511561513071
 21
202.9364821720282
 31
0.0
 11
416.8575425038356
 21
203.438193174702
 31
0.0
 11
417.4525530852092
 21
204.0284912229572
 31
0.0
 11
417.9087169643469
 21
204.6801229580423
 31
0.0
 11
418.2049735971327
 21
205.3630033174531
 31
0.0
  0
SPLINE
  5
14615
330
1F
100
AcDbEntity
  8
0
100
AcDbSpline
210
0.0
220
0.0
230
1.0
 70
     8
 71
     3
 72
    10
 73
     6
 74
     4
 42
0.0000000001
 43
0.0000000001
 44
0.0000000001
 12
0.945704658466372
 22
-0.3250272280209806
 32
0.0
 13
0.9909148961850519
 23
0.1344904030723673
 33
0.0
 40
0.0
 40
0.0
 40
0.0
 40
0.0
 40
0.607471592827581
 40
1.248991419001904
 40
1.881237587767389
 40
1.881237587767389
 40
1.881237587767389
 40
1.881237587767389
 10
418.2049735971327
 20
205.3630033174531
 30
0.0
 10
418.3964698355404
 20
205.2971883814803
 30
0.0
 10
418.8036940173359
 20
205.1990981427385
 30
0.0
 10
419.4314087190424
 20
205.153685015341
 30
0.0
 10
419.8564208812591
 20
205.1840330139619
 30
0.0
 10
420.0652549301543
 20
205.2123766946547
 30
0.0
 11
418.2049735971327
 21
205.3630033174531
 31
0.0
 11
418.7948468009222
 21
205.2178436138724
 31
0.0
 11
419.434501346859
 21
205.1689585523795
 31
0.0
 11
420.0652549301543
 21
205.2123766946547
 31
0.0
  0
SPLINE
  5
14616
330
1F
100
AcDbEntity
  8
0
100
AcDbSpline
210
0.0
220
0.0
230
1.0
 70
     8
 71
     3
 72
    12
 73
     8
 74
     6
 42
0.0000000001
 43
0.0000000001
 44
0.0000000001
 12
0.97494759889627
 22
0.2224346632303467
 32
0.0
 13
0.5568253254388777
 23
0.8306296147801907
 33
0.0
 40
0.0
 40
0.0
 40
0.0
 40
0.0
 40
0.7988375079272198
 40
1.606645780211219
 40
2.408323455721448
 40
3.189394722613327
 40
3.9375756767377
 40
3.9375756767377
 40
3.9375756767377
 40
3.9375756767377
 10
424.6331730830985
 20
202.2863155252007
 30
0.0
 10
424.8927813198525
 20
202.3455452425512
 30
0.0
 10
425.4066075382879
 20
202.5043777168849
 30
0.0
 10
426.1342594261866
 20
202.8494278514722
 30
0.0
 10
426.8009084598342
 20
203.2911505487656
 30
0.0
 10
427.3807156784039
 20
203.8125393945958
 30
0.0
 10
427.7031644250355
 20
204.2109866926082
 30
0.0
 10
427.8420331261246
 20
204.4181404451783
 30
0.0
 11
424.6331730830985
 21
202.2863155252007
 31
0.0
 11
425.3967192258023
 21
202.5211317342527
 31
0.0
 11
426.1266759431784
 21
202.8671337509058
 31
0.0
 11
426.7944234093048
 21
203.3107556810369
 31
0.0
 11
427.3737808688261
 21
203.8346041878221
 31
0.0
 11
427.8420331261246
 21
204.4181404451783
 31
0.0
  0
SPLINE
  5
14617
330
1F
100
AcDbEntity
  8
0
100
AcDbSpline
210
0.0
220
0.0
230
1.0
 70
     8
 71
     3
 72
     9
 73
     5
 74
     3
 42
0.0000000001
 43
0.0000000001
 44
0.0000000001
 12
-0.052247162206583
 22
0.9986341842944085
 32
0.0
 13
-0.4404687670417568
 23
0.8977679350816194
 33
0.0
 40
0.0
 40
0.0
 40
0.0
 40
0.0
 40
0.5641386283751926
 40
0.8906391745435582
 40
0.8906391745435582
 40
0.8906391745435582
 40
0.8906391745435582
 10
428.422265648153
 20
206.2957735768809
 30
0.0
 10
428.412440767345
 20
206.483562949873
 30
0.0
 10
428.3611113371484
 20
206.780057211528
 30
0.0
 10
428.2505806564112
 20
207.0567645408655
 30
0.0
 10
428.2026428920748
 20
207.1544717812444
 30
0.0
 11
428.422265648153
 21
206.2957735768809
 31
0.0
 11
428.3236638153881
 21
206.8512284090684
 31
0.0
 11
428.2026428920748
 21
207.1544717812444
 31
0.0
  0
SPLINE
  5
14618
330
1F
100
AcDbEntity
  8
0
100
AcDbSpline
210
0.0
220
0.0
230
1.0
 70
     8
 71
     3
 72
    15
 73
    11
 74
     9
 42
0.0000000001
 43
0.0000000001
 44
0.0000000001
 12
0.4414564980614438
 22
-0.8972826535263717
 32
0.0
 13
0.644621805538653
 23
0.7645016205503341
 33
0.0
 40
0.0
 40
0.0
 40
0.0
 40
0.0
 40
0.2323540374055544
 40
0.5282324069984315
 40
0.8502678860320692
 40
1.201074553423539
 40
1.575347010758706
 40
1.962492590450734
 40
2.349359423558329
 40
2.722848857954347
 40
2.722848857954347
 40
2.722848857954347
 40
2.722848857954347
 10
407.5269435414994
 20
205.0338091513604
 30
0.0
 10
407.5611349413872
 20
204.9643134022801
 30
0.0
 10
407.6639995714351
 20
204.8174818632042
 30
0.0
 10
407.8987001573945
 20
204.6488690530144
 30
0.0
 10
408.2100643538825
 20
204.5484119783108
 30
0.0
 10
408.5618299105788
 20
204.5290828081377
 30
0.0
 10
408.9301632733151
 20
204.5903932294433
 30
0.0
 10
409.2901433714278
 20
204.7275333193503
 30
0.0
 10
409.6168871049361
 20
204.9307039135194
 30
0.0
 10
409.8029051734926
 20
205.1061492424548
 30
0.0
 10
409.8831583180093
 20
205.2013270017396
 30
0.0
 11
407.5269435414994
 21
205.0338091513604
 31
0.0
 11
407.6599383377391
 21
204.8432815080332
 31
0.0
 11
407.8979102062186
 21
204.6674594405749
 31
0.0
 11
408.2030547785551
 21
204.5645340320016
 31
0.0
 11
408.5531372889533
 21
204.5420050773073
 31
0.0
 11
408.9226485052271
 21
204.6015141805401
 31
0.0
 11
409.2846634987457
 21
204.7387251288746
 31
0.0
 11
409.6128035567156
 21
204.9436398645921
 31
0.0
 11
409.8831583180093
 21
205.2013270017396
 31
0.0
  0
SPLINE
  5
14619
330
1F
100
AcDbEntity
  8
0
100
AcDbSpline
210
0.0
220
0.0
230
1.0
 70
     8
 71
     3
 72
    11
 73
     7
 74
     5
 42
0.0000000001
 43
0.0000000001
 44
0.0000000001
 12
0.4401482856741833
 22
-0.8979251007840675
 32
0.0
 13
0.9664905645122029
 23
-0.2567021400551291
 33
0.0
 40
0.0
 40
0.0
 40
0.0
 40
0.0
 40
0.1369524114861302
 40
0.7763051929209374
 40
1.445747057772314
 40
2.16155897442956
 40
2.16155897442956
 40
2.16155897442956
 40
2.16155897442956
 10
420.8775336368104
 20
203.5591482510553
 30
0.0
 10
420.8976267598552
 20
203.5181572484265
 30
0.0
 10
421.0189684795521
 20
203.2895011635306
 30
0.0
 10
421.3243164666172
 20
202.9063282009898
 30
0.0
 10
421.8822833581253
 20
202.5135111129759
 30
0.0
 10
422.3184414747495
 20
202.3475656754949
 30
0.0
 10
422.5490499625545
 20
202.2863155252007
 30
0.0
 11
420.8775336368104
 21
203.5591482510553
 31
0.0
 11
420.9417662805068
 21
203.438193174702
 31
0.0
 11
421.3380717799949
 21
202.9364821720282
 31
0.0
 11
421.8822070351285
 21
202.546521616925
 31
0.0
 11
422.5490499625545
 21
202.2863155252007
 31
0.0
  0
SPLINE
  5
1461A
330
1F
100
AcDbEntity
  8
0
100
AcDbSpline
210
0.0
220
0.0
230
1.0
 70
     8
 71
     3
 72
    11
 73
     7
 74
     5
 42
0.0000000001
 43
0.0000000001
 44
0.0000000001
 12
0.4401482856741833
 22
-0.8979251007840675
 32
0.0
 13
0.9664905645122029
 23
-0.2567021400551291
 33
0.0
 40
0.0
 40
0.0
 40
0.0
 40
0.0
 40
0.1369524105334749
 40
0.7763051932253832
 40
1.445747056428222
 40
2.161558974977753
 40
2.161558974977753
 40
2.161558974977753
 40
2.161558974977753
 10
410.7827051437553
 20
203.5591482510553
 30
0.0
 10
410.8027982666603
 20
203.5181572487117
 30
0.0
 10
410.9241399811294
 20
203.2895011608858
 30
0.0
 10
411.2294879752388
 20
202.9063282033448
 30
0.0
 10
411.7874548629935
 20
202.5135111112865
 30
0.0
 10
412.2236129810849
 20
202.3475656756569
 30
0.0
 10
412.4542214694994
 20
202.2863155252007
 30
0.0
 11
410.7827051437553
 21
203.5591482510553
 31
0.0
 11
410.8469377854206
 21
203.438193174702
 31
0.0
 11
411.2432432869367
 21
202.9364821720282
 31
0.0
 11
411.7873785400421
 21
202.546521616925
 31
0.0
 11
412.4542214694994
 21
202.2863155252007
 31
0.0
  0
SPLINE
  5
1461B
330
1F
100
AcDbEntity
  8
0
100
AcDbSpline
210
0.0
220
0.0
230
1.0
 70
     8
 71
     3
 72
     9
 73
     5
 74
     3
 42
0.0000000001
 43
0.0000000001
 44
0.0000000001
 12
0.4404283052834383
 22
-0.8977877855624672
 32
0.0
 13
0.679201878573016
 23
-0.7339515025823479
 33
0.0
 40
0.0
 40
0.0
 40
0.0
 40
0.0
 40
0.1665724137643294
 40
0.6289543405041474
 40
0.6289543405041474
 40
0.6289543405041474
 40
0.6289543405041474
 10
406.664699675947
 20
206.5673204475488
 30
0.0
 10
406.6891540779141
 20
206.5174715547191
 30
0.0
 10
406.7888022175739
 20
206.3328774282385
 30
0.0
 10
406.9159828820001
 20
206.1635086197843
 30
0.0
 10
407.0206664397534
 20
206.0503866498184
 30
0.0
 11
406.664699675947
 21
206.5673204475488
 31
0.0
 11
406.7438668917524
 21
206.4207635610887
 31
0.0
 11
407.0206664397534
 21
206.0503866498184
 31
0.0
  0
LINE
  5
1461C
330
1F
100
AcDbEntity
  8
0
100
AcDbLine
 10
437.8263767974273
 20
305.8108133473963
 30
0.0
 11
437.8263767974273
 21
276.5108133470587
 31
0.0
  0
LINE
  5
1461D
330
1F
100
AcDbEntity
  8
0
100
AcDbLine
 10
438.3263767981841
 20
305.8941466808594
 30
0.0
 11
438.3263767981841
 21
276.4274800135993
 31
0.0
  0
LINE
  5
1461E
330
1F
100
AcDbEntity
  8
0
100
AcDbLine
 10
439.8263767979293
 20
305.510813345418
 30
0.0
 11
439.8263767979293
 21
297.4158133454569
 31
0.0
  0
LINE
  5
1461F
330
1F
100
AcDbEntity
  8
0
100
AcDbLine
 10
439.8263767979293
 20
291.7558133472178
 30
0.0
 11
439.8263767979293
 21
283.7158133464748
 31
0.0
  0
LINE
  5
14620
330
1F
100
AcDbEntity
  8
0
100
AcDbLine
 10
439.9263767960435
 20
305.310813346636
 30
0.0
 11
439.9263767960435
 21
297.6158133467782
 31
0.0
  0
LINE
  5
14621
330
1F
100
AcDbEntity
  8
0
100
AcDbLine
 10
439.9263767960435
 20
291.5558133459001
 30
0.0
 11
439.9263767960435
 21
283.9158133452567
 31
0.0
  0
LINE
  5
14622
330
1F
100
AcDbEntity
  8
0
100
AcDbLine
 10
440.8263767969035
 20
305.510813345418
 30
0.0
 11
440.8263767969035
 21
305.310813346636
 31
0.0
  0
LINE
  5
14623
330
1F
100
AcDbEntity
  8
0
100
AcDbLine
 10
440.8263767969035
 20
297.6158133467782
 30
0.0
 11
440.8263767969035
 21
297.4158133454569
 31
0.0
  0
LINE
  5
14624
330
1F
100
AcDbEntity
  8
0
100
AcDbLine
 10
440.8263767969035
 20
291.7558133472178
 30
0.0
 11
440.8263767969035
 21
291.5558133459001
 31
0.0
  0
LINE
  5
14625
330
1F
100
AcDbEntity
  8
0
100
AcDbLine
 10
440.8263767969035
 20
283.9158133452567
 30
0.0
 11
440.8263767969035
 21
283.7158133464748
 31
0.0
  0
LINE
  5
14626
330
1F
100
AcDbEntity
  8
0
100
AcDbLine
 10
443.8263767963796
 20
276.0108133462984
 30
0.0
 11
443.8263767963796
 21
278.835813345255
 31
0.0
  0
LINE
  5
14627
330
1F
100
AcDbEntity
  8
0
100
AcDbLine
 10
443.8263767963796
 20
282.9358133469197
 30
0.0
 11
443.8263767963796
 21
283.9158133452567
 31
0.0
  0
LINE
  5
14628
330
1F
100
AcDbEntity
  8
0
100
AcDbLine
 10
443.8263767963796
 20
291.5558133459001
 30
0.0
 11
443.8263767963796
 21
292.53581334678
 31
0.0
  0
LINE
  5
14629
330
1F
100
AcDbEntity
  8
0
100
AcDbLine
 10
443.8263767963796
 20
296.6358133458982
 30
0.0
 11
443.8263767963796
 21
297.6158133467782
 31
0.0
  0
LINE
  5
1462A
330
1F
100
AcDbEntity
  8
0
100
AcDbLine
 10
443.8263767963796
 20
305.310813346636
 30
0.0
 11
443.8263767963796
 21
306.3108133456174
 31
0.0
  0
LINE
  5
1462B
330
1F
100
AcDbEntity
  8
0
100
AcDbLine
 10
445.4263767967856
 20
306.3108133456174
 30
0.0
 11
445.4263767967856
 21
308.2608133454588
 31
0.0
  0
LINE
  5
1462D
330
1F
100
AcDbEntity
  8
0
100
AcDbLine
 10
446.6263767970881
 20
278.6858133455373
 30
0.0
 11
446.6263767970881
 21
278.835813345255
 31
0.0
  0
LINE
  5
1462E
330
1F
100
AcDbEntity
  8
0
100
AcDbLine
 10
446.6263767970881
 20
282.9358133469197
 30
0.0
 11
446.6263767970881
 21
283.0858133466374
 31
0.0
  0
LINE
  5
1462F
330
1F
100
AcDbEntity
  8
0
100
AcDbLine
 10
446.6263767970881
 20
292.3858133470587
 30
0.0
 11
446.6263767970881
 21
292.53581334678
 31
0.0
  0
LINE
  5
14630
330
1F
100
AcDbEntity
  8
0
100
AcDbLine
 10
446.6263767970881
 20
296.6358133458982
 30
0.0
 11
446.6263767970881
 21
296.7858133456195
 31
0.0
  0
LINE
  5
14631
330
1F
100
AcDbEntity
  8
0
100
AcDbLine
 10
447.8263767973836
 20
306.3108133456174
 30
0.0
 11
447.8263767973836
 21
308.2608133454588
 31
0.0
  0
LINE
  5
14633
330
1F
100
AcDbEntity
  8
0
100
AcDbLine
 10
448.9263767970258
 20
306.3108133456174
 30
0.0
 11
448.9263767970258
 21
308.2608133454588
 31
0.0
  0
LINE
  5
14635
330
1F
100
AcDbEntity
  8
0
100
AcDbLine
 10
452.7263767967085
 20
278.6858133455373
 30
0.0
 11
452.7263767967085
 21
278.835813345255
 31
0.0
  0
LINE
  5
14636
330
1F
100
AcDbEntity
  8
0
100
AcDbLine
 10
452.7263767967085
 20
282.9358133469197
 30
0.0
 11
452.7263767967085
 21
283.0858133466374
 31
0.0
  0
LINE
  5
14637
330
1F
100
AcDbEntity
  8
0
100
AcDbLine
 10
452.7263767967085
 20
292.3858133470587
 30
0.0
 11
452.7263767967085
 21
292.53581334678
 31
0.0
  0
LINE
  5
14638
330
1F
100
AcDbEntity
  8
0
100
AcDbLine
 10
452.7263767967085
 20
296.6358133458982
 30
0.0
 11
452.7263767967085
 21
296.7858133456195
 31
0.0
  0
LINE
  5
14639
330
1F
100
AcDbEntity
  8
0
100
AcDbLine
 10
458.8263767963288
 20
276.0108133462984
 30
0.0
 11
458.8263767963288
 21
278.6858133455373
 31
0.0
  0
LINE
  5
1463A
330
1F
100
AcDbEntity
  8
0
100
AcDbLine
 10
458.8263767963288
 20
283.0858133466374
 30
0.0
 11
458.8263767963288
 21
286.3215997833597
 31
0.0
  0
LINE
  5
1463B
330
1F
100
AcDbEntity
  8
0
100
AcDbLine
 10
458.8263767963288
 20
289.1500269077972
 30
0.0
 11
458.8263767963288
 21
292.3858133470587
 31
0.0
  0
LINE
  5
1463C
330
1F
100
AcDbEntity
  8
0
100
AcDbLine
 10
458.8263767963288
 20
296.7858133456195
 30
0.0
 11
458.8263767963288
 21
300.0215997848775
 31
0.0
  0
LINE
  5
1463D
330
1F
100
AcDbEntity
  8
0
100
AcDbLine
 10
458.8263767963288
 20
302.8500269093186
 30
0.0
 11
458.8263767963288
 21
306.3108133456174
 31
0.0
  0
LINE
  5
1463E
330
1F
100
AcDbEntity
  8
0
100
AcDbLine
 10
458.8263767963288
 20
296.6358133458982
 30
0.0
 11
458.8263767963288
 21
292.53581334678
 31
0.0
  0
LINE
  5
1463F
330
1F
100
AcDbEntity
  8
0
100
AcDbLine
 10
458.8263767963288
 20
282.9358133469197
 30
0.0
 11
458.8263767963288
 21
278.835813345255
 31
0.0
  0
LINE
  5
14640
330
1F
100
AcDbEntity
  8
0
100
AcDbLine
 10
459.0263767976428
 20
278.1035470043555
 30
0.0
 11
459.0263767976428
 21
276.6493718431176
 31
0.0
  0
LINE
  5
14641
330
1F
100
AcDbEntity
  8
0
100
AcDbLine
 10
440.8263767969035
 20
306.3108133456174
 30
0.0
 11
437.8263767974273
 21
305.8108133473963
 31
0.0
  0
LINE
  5
14642
330
1F
100
AcDbEntity
  8
0
100
AcDbLine
 10
448.9263767970258
 20
308.2608133454588
 30
0.0
 11
445.4263767967856
 21
308.2608133454588
 31
0.0
  0
LINE
  5
14643
330
1F
100
AcDbEntity
  8
0
100
AcDbLine
 10
440.8263767969035
 20
306.3108133456174
 30
0.0
 11
482.4263767971496
 21
306.3108133456174
 31
0.0
  0
LINE
  5
14644
330
1F
100
AcDbEntity
  8
0
100
AcDbLine
 10
443.8263767963796
 20
305.510813345418
 30
0.0
 11
439.8263767979293
 21
305.510813345418
 31
0.0
  0
LINE
  5
14645
330
1F
100
AcDbEntity
  8
0
100
AcDbLine
 10
443.8263767963796
 20
305.310813346636
 30
0.0
 11
439.9263767960435
 21
305.310813346636
 31
0.0
  0
LINE
  5
14646
330
1F
100
AcDbEntity
  8
0
100
AcDbLine
 10
482.4263767971496
 20
302.8500269093186
 30
0.0
 11
458.8263767963288
 21
302.8500269093186
 31
0.0
  0
LINE
  5
14647
330
1F
100
AcDbEntity
  8
0
100
AcDbLine
 10
458.8263767963288
 20
300.0215997848775
 30
0.0
 11
482.4263767971496
 21
300.0215997848775
 31
0.0
  0
LINE
  5
14648
330
1F
100
AcDbEntity
  8
0
100
AcDbLine
 10
439.9263767960435
 20
297.6158133467782
 30
0.0
 11
443.8263767963796
 21
297.6158133467782
 31
0.0
  0
LINE
  5
14649
330
1F
100
AcDbEntity
  8
0
100
AcDbLine
 10
439.8263767979293
 20
297.4158133454569
 30
0.0
 11
443.8263767963796
 21
297.4158133454569
 31
0.0
  0
LINE
  5
1464A
330
1F
100
AcDbEntity
  8
0
100
AcDbLine
 10
458.8263767963288
 20
296.7858133456195
 30
0.0
 11
443.8263767963796
 21
296.7858133456195
 31
0.0
  0
LINE
  5
1464B
330
1F
100
AcDbEntity
  8
0
100
AcDbLine
 10
443.8263767963796
 20
296.6358133458982
 30
0.0
 11
458.8263767963288
 21
296.6358133458982
 31
0.0
  0
LINE
  5
1464C
330
1F
100
AcDbEntity
  8
0
100
AcDbLine
 10
482.4263767971496
 20
296.3358133464556
 30
0.0
 11
458.8263767963288
 21
296.3358133464556
 31
0.0
  0
LINE
  5
1464D
330
1F
100
AcDbEntity
  8
0
100
AcDbLine
 10
482.4263767971496
 20
292.8358133462191
 30
0.0
 11
458.8263767963288
 21
292.8358133462191
 31
0.0
  0
LINE
  5
1464E
330
1F
100
AcDbEntity
  8
0
100
AcDbLine
 10
443.8263767963796
 20
292.53581334678
 30
0.0
 11
458.8263767963288
 21
292.53581334678
 31
0.0
  0
LINE
  5
1464F
330
1F
100
AcDbEntity
  8
0
100
AcDbLine
 10
458.8263767963288
 20
292.3858133470587
 30
0.0
 11
443.8263767963796
 21
292.3858133470587
 31
0.0
  0
LINE
  5
14650
330
1F
100
AcDbEntity
  8
0
100
AcDbLine
 10
443.8263767963796
 20
291.7558133472178
 30
0.0
 11
439.8263767979293
 21
291.7558133472178
 31
0.0
  0
LINE
  5
14651
330
1F
100
AcDbEntity
  8
0
100
AcDbLine
 10
439.9263767960435
 20
291.5558133459001
 30
0.0
 11
443.8263767963796
 21
291.5558133459001
 31
0.0
  0
LINE
  5
14652
330
1F
100
AcDbEntity
  8
0
100
AcDbLine
 10
482.4263767971491
 20
276.0108133462984
 30
0.0
 11
482.4263767971496
 21
306.3108133456174
 31
0.0
  0
LINE
  5
14653
330
1F
100
AcDbEntity
  8
0
100
AcDbLine
 10
482.4263767971496
 20
289.1500269077972
 30
0.0
 11
458.8263767963288
 21
289.1500269077972
 31
0.0
  0
LINE
  5
14654
330
1F
100
AcDbEntity
  8
0
100
AcDbLine
 10
482.4263767971496
 20
286.3215997833597
 30
0.0
 11
458.8263767963288
 21
286.3215997833597
 31
0.0
  0
LINE
  5
14655
330
1F
100
AcDbEntity
  8
0
100
AcDbLine
 10
443.8263767963796
 20
283.9158133452567
 30
0.0
 11
439.9263767960435
 21
283.9158133452567
 31
0.0
  0
LINE
  5
14656
330
1F
100
AcDbEntity
  8
0
100
AcDbLine
 10
439.8263767979293
 20
283.7158133464748
 30
0.0
 11
443.8263767963796
 21
283.7158133464748
 31
0.0
  0
LINE
  5
14657
330
1F
100
AcDbEntity
  8
0
100
AcDbLine
 10
458.8263767963288
 20
283.0858133466374
 30
0.0
 11
443.8263767963796
 21
283.0858133466374
 31
0.0
  0
LINE
  5
14658
330
1F
100
AcDbEntity
  8
0
100
AcDbLine
 10
443.8263767963796
 20
282.9358133469197
 30
0.0
 11
458.8263767963288
 21
282.9358133469197
 31
0.0
  0
LINE
  5
14659
330
1F
100
AcDbEntity
  8
0
100
AcDbLine
 10
458.8263767963288
 20
282.7425103781773
 30
0.0
 11
482.4263767971496
 21
282.7425103781773
 31
0.0
  0
LINE
  5
1465A
330
1F
100
AcDbEntity
  8
0
100
AcDbLine
 10
482.4263767971491
 20
280.1618074674573
 30
0.0
 11
458.8263767963288
 21
280.1618074674573
 31
0.0
  0
LINE
  5
1465B
330
1F
100
AcDbEntity
  8
0
100
AcDbLine
 10
443.8263767963796
 20
278.835813345255
 30
0.0
 11
458.8263767963288
 21
278.835813345255
 31
0.0
  0
LINE
  5
1465C
330
1F
100
AcDbEntity
  8
0
100
AcDbLine
 10
458.8263767963288
 20
278.6858133455373
 30
0.0
 11
443.8263767963796
 21
278.6858133455373
 31
0.0
  0
LINE
  5
1465D
330
1F
100
AcDbEntity
  8
0
100
AcDbLine
 10
458.8263767963288
 20
278.1035470043555
 30
0.0
 11
459.0263767976428
 21
278.1035470043555
 31
0.0
  0
LINE
  5
1465E
330
1F
100
AcDbEntity
  8
0
100
AcDbLine
 10
458.8263767963288
 20
277.7998810508564
 30
0.0
 11
459.0263767976428
 21
277.7998810508564
 31
0.0
  0
LINE
  5
1465F
330
1F
100
AcDbEntity
  8
0
100
AcDbLine
 10
458.8263767963288
 20
277.5503901934774
 30
0.0
 11
459.0263767976428
 21
277.5503901934774
 31
0.0
  0
LINE
  5
14660
330
1F
100
AcDbEntity
  8
0
100
AcDbLine
 10
458.8263767963288
 20
276.6493718431176
 30
0.0
 11
459.0263767976428
 21
276.6493718431176
 31
0.0
  0
LINE
  5
14661
330
1F
100
AcDbEntity
  8
0
100
AcDbLine
 10
440.8263767969035
 20
276.0108133462984
 30
0.0
 11
482.4263767971491
 21
276.0108133462984
 31
0.0
  0
LINE
  5
14663
330
1F
100
AcDbEntity
  8
0
100
AcDbLine
 10
437.8263767974273
 20
276.5108133470587
 30
0.0
 11
440.8263767969035
 21
276.0108133462984
 31
0.0
  0
LINE
  5
14664
330
1F
100
AcDbEntity
  8
0
100
AcDbLine
 10
516.2382003834157
 20
308.2608133454588
 30
0.0
 11
509.2382003829426
 21
308.2608133454588
 31
0.0
  0
LINE
  5
14665
330
1F
100
AcDbEntity
  8
0
100
AcDbLine
 10
505.4382003832598
 20
306.3108133456174
 30
0.0
 11
520.0382003830983
 21
306.3108133456174
 31
0.0
  0
LINE
  5
14666
330
1F
100
AcDbEntity
  8
0
100
AcDbLine
 10
505.9382003840166
 20
305.8108133473963
 30
0.0
 11
519.5382003823416
 21
305.8108133473963
 31
0.0
  0
LINE
  5
14667
330
1F
100
AcDbEntity
  8
0
100
AcDbLine
 10
514.5814935241162
 20
304.6358133453562
 30
0.0
 11
515.6942195765388
 21
304.6358133453562
 31
0.0
  0
LINE
  5
14668
330
1F
100
AcDbEntity
  8
0
100
AcDbLine
 10
508.7382003821788
 20
303.5358133457178
 30
0.0
 11
506.9382003829979
 21
303.5358133457178
 31
0.0
  0
LINE
  5
14669
330
1F
100
AcDbEntity
  8
0
100
AcDbLine
 10
507.0382003836585
 20
303.4858133466571
 30
0.0
 11
506.9382003829979
 21
303.4858133466571
 31
0.0
  0
LINE
  5
1466A
330
1F
100
AcDbEntity
  8
0
100
AcDbLine
 10
505.9382003840166
 20
305.8108133473963
 30
0.0
 11
505.4382003832598
 21
305.8941466808594
 31
0.0
  0
LINE
  5
1466B
330
1F
100
AcDbEntity
  8
0
100
AcDbLine
 10
520.0382003830983
 20
305.8941466808594
 30
0.0
 11
519.5382003823416
 21
305.8108133473963
 31
0.0
  0
LINE
  5
1466C
330
1F
100
AcDbEntity
  8
0
100
AcDbLine
 10
517.4286136058383
 20
299.145400125037
 30
0.0
 11
516.9766780149241
 21
299.5973357159548
 31
0.0
  0
LINE
  5
1466D
330
1F
100
AcDbEntity
  8
0
100
AcDbLine
 10
512.8477871617161
 20
303.7262265691591
 30
0.0
 11
513.2997227526377
 21
303.2742909782375
 31
0.0
  0
LINE
  5
1466E
330
1F
100
AcDbEntity
  8
0
100
AcDbLine
 10
507.0382003836585
 20
299.3858133475389
 30
0.0
 11
506.9382003829979
 21
299.3858133475389
 31
0.0
  0
LINE
  5
1466F
330
1F
100
AcDbEntity
  8
0
100
AcDbLine
 10
506.9382003829979
 20
299.3358133459353
 30
0.0
 11
508.7382003821788
 21
299.3358133459353
 31
0.0
  0
LINE
  5
14670
330
1F
100
AcDbEntity
  8
0
100
AcDbLine
 10
505.4382003832598
 20
306.3108133456174
 30
0.0
 11
505.4382003832596
 21
276.0108133462984
 31
0.0
  0
LINE
  5
14671
330
1F
100
AcDbEntity
  8
0
100
AcDbLine
 10
515.6949072434383
 20
298.235813346297
 30
0.0
 11
514.5821811884764
 21
298.235813346297
 31
0.0
  0
LINE
  5
14672
330
1F
100
AcDbEntity
  8
0
100
AcDbLine
 10
509.7814935229128
 20
297.7858133471366
 30
0.0
 11
510.8942195778745
 21
297.7858133471366
 31
0.0
  0
LINE
  5
14673
330
1F
100
AcDbEntity
  8
0
100
AcDbLine
 10
505.9382003840163
 20
276.5108133470587
 30
0.0
 11
505.9382003840166
 21
305.8108133473963
 31
0.0
  0
LINE
  5
14674
330
1F
100
AcDbEntity
  8
0
100
AcDbLine
 10
518.5382003833604
 20
296.6858133474982
 30
0.0
 11
516.7382003841797
 21
296.6858133474982
 31
0.0
  0
LINE
  5
14675
330
1F
100
AcDbEntity
  8
0
100
AcDbLine
 10
518.4382003826994
 20
296.6358133458982
 30
0.0
 11
518.5382003833604
 21
296.6358133458982
 31
0.0
  0
LINE
  5
14676
330
1F
100
AcDbEntity
  8
0
100
AcDbLine
 10
506.9382003829979
 20
303.5358133457178
 30
0.0
 11
506.9382003829979
 21
299.3358133459353
 31
0.0
  0
LINE
  5
14677
330
1F
100
AcDbEntity
  8
0
100
AcDbLine
 10
506.9382003829979
 20
289.8358133467393
 30
0.0
 11
506.9382003829979
 21
285.6358133469605
 31
0.0
  0
LINE
  5
14678
330
1F
100
AcDbEntity
  8
0
100
AcDbLine
 10
507.0382003836585
 20
303.5358133457178
 30
0.0
 11
507.0382003836585
 21
299.3358133459353
 31
0.0
  0
LINE
  5
14679
330
1F
100
AcDbEntity
  8
0
100
AcDbLine
 10
507.0382003836585
 20
289.8358133467393
 30
0.0
 11
507.0382003836585
 21
285.6358133469605
 31
0.0
  0
LINE
  5
1467A
330
1F
100
AcDbEntity
  8
0
100
AcDbLine
 10
512.8477413299572
 20
299.1453542932779
 30
0.0
 11
513.2997227526377
 21
299.5973357159548
 31
0.0
  0
LINE
  5
1467B
330
1F
100
AcDbEntity
  8
0
100
AcDbLine
 10
517.4286594375971
 20
303.7262723983789
 30
0.0
 11
516.9766780149241
 21
303.2742909782375
 31
0.0
  0
LINE
  5
1467C
330
1F
100
AcDbEntity
  8
0
100
AcDbLine
 10
508.03820038264
 20
303.5358133457178
 30
0.0
 11
508.03820038264
 21
299.3358133459353
 31
0.0
  0
LINE
  5
1467D
330
1F
100
AcDbEntity
  8
0
100
AcDbLine
 10
508.03820038264
 20
289.8358133467393
 30
0.0
 11
508.03820038264
 21
285.6358133469605
 31
0.0
  0
LINE
  5
1467E
330
1F
100
AcDbEntity
  8
0
100
AcDbLine
 10
508.2382003839611
 20
276.0108133462984
 30
0.0
 11
508.2382003839611
 21
274.060813346457
 31
0.0
  0
LINE
  5
1467F
330
1F
100
AcDbEntity
  8
0
100
AcDbLine
 10
508.5482003837189
 20
285.6358133469605
 30
0.0
 11
508.5482003837189
 21
289.8358133467393
 31
0.0
  0
LINE
  5
14680
330
1F
100
AcDbEntity
  8
0
100
AcDbLine
 10
508.5482003837189
 20
299.3358133459353
 30
0.0
 11
508.5482003837189
 21
303.5358133457178
 31
0.0
  0
LINE
  5
14681
330
1F
100
AcDbEntity
  8
0
100
AcDbLine
 10
508.7382003821788
 20
285.6358133469605
 30
0.0
 11
508.7382003821788
 21
289.8358133467393
 31
0.0
  0
LINE
  5
14682
330
1F
100
AcDbEntity
  8
0
100
AcDbLine
 10
508.7382003821788
 20
299.3358133459353
 30
0.0
 11
508.7382003821788
 21
303.5358133457178
 31
0.0
  0
LINE
  5
14683
330
1F
100
AcDbEntity
  8
0
100
AcDbLine
 10
508.0477413287609
 20
292.2953542925153
 30
0.0
 11
508.4997227514413
 21
292.7473357151959
 31
0.0
  0
LINE
  5
14684
330
1F
100
AcDbEntity
  8
0
100
AcDbLine
 10
512.6286594364012
 20
296.8762724001592
 30
0.0
 11
512.1766780137206
 21
296.4242909774787
 31
0.0
  0
LINE
  5
14685
330
1F
100
AcDbEntity
  8
0
100
AcDbLine
 10
509.2382003829426
 20
306.3108133456174
 30
0.0
 11
509.2382003829426
 21
308.2608133454588
 31
0.0
  0
LINE
  5
14686
330
1F
100
AcDbEntity
  8
0
100
AcDbLine
 10
518.4382003826994
 20
292.53581334678
 30
0.0
 11
518.5382003833604
 21
292.53581334678
 31
0.0
  0
LINE
  5
14687
330
1F
100
AcDbEntity
  8
0
100
AcDbLine
 10
516.7382003841797
 20
292.4858133451764
 30
0.0
 11
518.5382003833604
 21
292.4858133451764
 31
0.0
  0
LINE
  5
14688
330
1F
100
AcDbEntity
  8
0
100
AcDbLine
 10
510.8949072422421
 20
291.3858133455382
 30
0.0
 11
509.7821811898194
 21
291.3858133455382
 31
0.0
  0
LINE
  5
14689
330
1F
100
AcDbEntity
  8
0
100
AcDbLine
 10
512.628613604642
 20
292.2954001242781
 30
0.0
 11
512.1766780137206
 21
292.7473357151959
 31
0.0
  0
LINE
  5
1468A
330
1F
100
AcDbEntity
  8
0
100
AcDbLine
 10
508.0477871605201
 20
296.8762265684002
 30
0.0
 11
508.4997227514413
 21
296.4242909774787
 31
0.0
  0
LINE
  5
1468B
330
1F
100
AcDbEntity
  8
0
100
AcDbLine
 10
514.5814935241162
 20
290.9358133463777
 30
0.0
 11
515.6942195765388
 21
290.9358133463777
 31
0.0
  0
LINE
  5
1468C
330
1F
100
AcDbEntity
  8
0
100
AcDbLine
 10
508.7382003821788
 20
289.8358133467393
 30
0.0
 11
506.9382003829979
 21
289.8358133467393
 31
0.0
  0
LINE
  5
1468D
330
1F
100
AcDbEntity
  8
0
100
AcDbLine
 10
507.0382003836585
 20
289.7858133451357
 30
0.0
 11
506.9382003829979
 21
289.7858133451357
 31
0.0
  0
LINE
  5
1468E
330
1F
100
AcDbEntity
  8
0
100
AcDbLine
 10
517.4286136058383
 20
285.4454001235156
 30
0.0
 11
516.9766780149241
 21
285.8973357144371
 31
0.0
  0
LINE
  5
1468F
330
1F
100
AcDbEntity
  8
0
100
AcDbLine
 10
512.8477871617161
 20
290.0262265676376
 30
0.0
 11
513.2997227526377
 21
289.5742909767198
 31
0.0
  0
LINE
  5
14690
330
1F
100
AcDbEntity
  8
0
100
AcDbLine
 10
516.2382003834157
 20
306.3108133456174
 30
0.0
 11
516.2382003834157
 21
308.2608133454588
 31
0.0
  0
LINE
  5
14691
330
1F
100
AcDbEntity
  8
0
100
AcDbLine
 10
516.7382003841797
 20
296.6858133474982
 30
0.0
 11
516.7382003841797
 21
292.4858133451764
 31
0.0
  0
LINE
  5
14692
330
1F
100
AcDbEntity
  8
0
100
AcDbLine
 10
516.7382003841797
 20
282.9858133459804
 30
0.0
 11
516.7382003841794
 21
278.785813346198
 31
0.0
  0
LINE
  5
14693
330
1F
100
AcDbEntity
  8
0
100
AcDbLine
 10
516.9282003826395
 20
296.6858133474982
 30
0.0
 11
516.9282003826395
 21
292.4858133451764
 31
0.0
  0
LINE
  5
14694
330
1F
100
AcDbEntity
  8
0
100
AcDbLine
 10
516.9282003826395
 20
282.9858133459804
 30
0.0
 11
516.9282003826391
 21
278.785813346198
 31
0.0
  0
LINE
  5
14695
330
1F
100
AcDbEntity
  8
0
100
AcDbLine
 10
517.2382003823968
 20
276.0108133462984
 30
0.0
 11
517.2382003823968
 21
274.060813346457
 31
0.0
  0
LINE
  5
14696
330
1F
100
AcDbEntity
  8
0
100
AcDbLine
 10
517.4382003837181
 20
278.785813346198
 30
0.0
 11
517.4382003837183
 21
282.9858133459804
 31
0.0
  0
LINE
  5
14697
330
1F
100
AcDbEntity
  8
0
100
AcDbLine
 10
517.4382003837183
 20
292.4858133451764
 30
0.0
 11
517.4382003837183
 21
296.6858133474982
 31
0.0
  0
LINE
  5
14698
330
1F
100
AcDbEntity
  8
0
100
AcDbLine
 10
512.8477413299572
 20
285.4453542942995
 30
0.0
 11
513.2997227526377
 21
285.8973357144371
 31
0.0
  0
LINE
  5
14699
330
1F
100
AcDbEntity
  8
0
100
AcDbLine
 10
517.4286594375971
 20
290.0262723993967
 30
0.0
 11
516.9766780149241
 21
289.5742909767198
 31
0.0
  0
LINE
  5
1469A
330
1F
100
AcDbEntity
  8
0
100
AcDbLine
 10
507.0382003836585
 20
285.6858133460175
 30
0.0
 11
506.9382003829979
 21
285.6858133460175
 31
0.0
  0
LINE
  5
1469B
330
1F
100
AcDbEntity
  8
0
100
AcDbLine
 10
506.9382003829979
 20
285.6358133469605
 30
0.0
 11
508.7382003821788
 21
285.6358133469605
 31
0.0
  0
LINE
  5
1469C
330
1F
100
AcDbEntity
  8
0
100
AcDbLine
 10
518.4382003826994
 20
278.785813346198
 30
0.0
 11
518.4382003826994
 21
282.9858133459804
 31
0.0
  0
LINE
  5
1469D
330
1F
100
AcDbEntity
  8
0
100
AcDbLine
 10
518.4382003826994
 20
292.4858133451764
 30
0.0
 11
518.4382003826994
 21
296.6858133474982
 31
0.0
  0
LINE
  5
1469E
330
1F
100
AcDbEntity
  8
0
100
AcDbLine
 10
518.5382003833601
 20
278.785813346198
 30
0.0
 11
518.5382003833604
 21
282.9858133459804
 31
0.0
  0
LINE
  5
1469F
330
1F
100
AcDbEntity
  8
0
100
AcDbLine
 10
518.5382003833604
 20
292.4858133451764
 30
0.0
 11
518.5382003833604
 21
296.6858133474982
 31
0.0
  0
LINE
  5
146A0
330
1F
100
AcDbEntity
  8
0
100
AcDbLine
 10
508.0477413287608
 20
278.595354293537
 30
0.0
 11
508.4997227514413
 21
279.0473357162175
 31
0.0
  0
LINE
  5
146A1
330
1F
100
AcDbEntity
  8
0
100
AcDbLine
 10
512.6286594364012
 20
283.1762723986378
 30
0.0
 11
512.1766780137206
 21
282.7242909784967
 31
0.0
  0
LINE
  5
146A2
330
1F
100
AcDbEntity
  8
0
100
AcDbLine
 10
515.6949072434383
 20
284.5358133473185
 30
0.0
 11
514.5821811884764
 21
284.5358133473185
 31
0.0
  0
LINE
  5
146A3
330
1F
100
AcDbEntity
  8
0
100
AcDbLine
 10
509.7814935229128
 20
284.0858133456188
 30
0.0
 11
510.8942195778745
 21
284.0858133456188
 31
0.0
  0
LINE
  5
146A4
330
1F
100
AcDbEntity
  8
0
100
AcDbLine
 10
519.5382003823416
 20
305.8108133473963
 30
0.0
 11
519.5382003823415
 21
276.5108133470587
 31
0.0
  0
LINE
  5
146A5
330
1F
100
AcDbEntity
  8
0
100
AcDbLine
 10
520.0382003830983
 20
306.3108133456174
 30
0.0
 11
520.0382003830982
 21
276.0108133462984
 31
0.0
  0
LINE
  5
146A6
330
1F
100
AcDbEntity
  8
0
100
AcDbLine
 10
518.5382003833604
 20
282.9858133459804
 30
0.0
 11
516.7382003841797
 21
282.9858133459804
 31
0.0
  0
LINE
  5
146A7
330
1F
100
AcDbEntity
  8
0
100
AcDbLine
 10
518.4382003826994
 20
282.9358133469197
 30
0.0
 11
518.5382003833604
 21
282.9358133469197
 31
0.0
  0
LINE
  5
146A8
330
1F
100
AcDbEntity
  8
0
100
AcDbLine
 10
512.6286136046418
 20
278.5954001252997
 30
0.0
 11
512.1766780137204
 21
279.0473357162175
 31
0.0
  0
LINE
  5
146A9
330
1F
100
AcDbEntity
  8
0
100
AcDbLine
 10
508.0477871605201
 20
283.1762265668788
 30
0.0
 11
508.4997227514413
 21
282.7242909784967
 31
0.0
  0
LINE
  5
146AA
330
1F
100
AcDbEntity
  8
0
100
AcDbLine
 10
518.4382003826994
 20
278.835813345255
 30
0.0
 11
518.5382003833601
 21
278.835813345255
 31
0.0
  0
LINE
  5
146AB
330
1F
100
AcDbEntity
  8
0
100
AcDbLine
 10
516.7382003841794
 20
278.785813346198
 30
0.0
 11
518.5382003833601
 21
278.785813346198
 31
0.0
  0
LINE
  5
146AC
330
1F
100
AcDbEntity
  8
0
100
AcDbLine
 10
510.894907242242
 20
277.6858133465596
 30
0.0
 11
509.7821811898191
 21
277.6858133465596
 31
0.0
  0
LINE
  5
146AD
330
1F
100
AcDbEntity
  8
0
100
AcDbLine
 10
519.5382003823415
 20
276.5108133470587
 30
0.0
 11
520.0382003830982
 21
276.4274800135993
 31
0.0
  0
LINE
  5
146AE
330
1F
100
AcDbEntity
  8
0
100
AcDbLine
 10
505.4382003832596
 20
276.4274800135993
 30
0.0
 11
505.9382003840163
 21
276.5108133470587
 31
0.0
  0
LINE
  5
146AF
330
1F
100
AcDbEntity
  8
0
100
AcDbLine
 10
519.5382003823415
 20
276.5108133470587
 30
0.0
 11
505.9382003840163
 21
276.5108133470587
 31
0.0
  0
LINE
  5
146B0
330
1F
100
AcDbEntity
  8
0
100
AcDbLine
 10
520.0382003830982
 20
276.0108133462984
 30
0.0
 11
505.4382003832596
 21
276.0108133462984
 31
0.0
  0
LINE
  5
146B1
330
1F
100
AcDbEntity
  8
0
100
AcDbLine
 10
508.2382003839611
 20
274.060813346457
 30
0.0
 11
517.2382003823968
 21
274.060813346457
 31
0.0
  0
CIRCLE
  5
146B2
330
1F
100
AcDbEntity
  8
0
100
AcDbCircle
 10
510.3382003825775
 20
294.5858133463391
 30
0.0
 40
3.749980130199998
  0
CIRCLE
  5
146B3
330
1F
100
AcDbEntity
  8
0
100
AcDbCircle
 10
510.3382003825775
 20
294.5858133463391
 30
0.0
 40
3.249999999859998
  0
ARC
  5
146B4
330
1F
100
AcDbEntity
  8
0
100
AcDbCircle
 10
510.3382003825775
 20
294.5858133463391
 30
0.0
 40
2.59999999938
100
AcDbArc
 50
315.0000000000094
 51
44.99999999999057
  0
ARC
  5
146B5
330
1F
100
AcDbEntity
  8
0
100
AcDbCircle
 10
510.3382003825775
 20
294.5858133463391
 30
0.0
 40
2.59999999938
100
AcDbArc
 50
135.0000000000094
 51
224.9999999999906
  0
CIRCLE
  5
146B6
330
1F
100
AcDbEntity
  8
0
100
AcDbCircle
 10
510.3382003825775
 20
294.5858133463391
 30
0.0
 40
2.049999999559998
  0
CIRCLE
  5
146B7
330
1F
100
AcDbEntity
  8
0
100
AcDbCircle
 10
515.1382003837809
 20
301.435813347098
 30
0.0
 40
3.749980130199998
  0
CIRCLE
  5
146B8
330
1F
100
AcDbEntity
  8
0
100
AcDbCircle
 10
515.1382003837809
 20
301.435813347098
 30
0.0
 40
3.249999999859998
  0
ARC
  5
146B9
330
1F
100
AcDbEntity
  8
0
100
AcDbCircle
 10
515.1382003837809
 20
301.435813347098
 30
0.0
 40
2.59999999938
100
AcDbArc
 50
315.0000000000094
 51
44.99999999999057
  0
ARC
  5
146BA
330
1F
100
AcDbEntity
  8
0
100
AcDbCircle
 10
515.1382003837809
 20
301.435813347098
 30
0.0
 40
2.59999999938
100
AcDbArc
 50
135.0000000000094
 51
224.9999999999906
  0
CIRCLE
  5
146BB
330
1F
100
AcDbEntity
  8
0
100
AcDbCircle
 10
515.1382003837809
 20
301.435813347098
 30
0.0
 40
2.049999999559998
  0
CIRCLE
  5
146BC
330
1F
100
AcDbEntity
  8
0
100
AcDbCircle
 10
510.3382003825772
 20
280.885813347357
 30
0.0
 40
3.749980130199998
  0
CIRCLE
  5
146BD
330
1F
100
AcDbEntity
  8
0
100
AcDbCircle
 10
510.3382003825772
 20
280.885813347357
 30
0.0
 40
3.249999999859998
  0
ARC
  5
146BE
330
1F
100
AcDbEntity
  8
0
100
AcDbCircle
 10
510.3382003825772
 20
280.885813347357
 30
0.0
 40
2.59999999938
100
AcDbArc
 50
315.0000000000094
 51
44.99999999999057
  0
ARC
  5
146BF
330
1F
100
AcDbEntity
  8
0
100
AcDbCircle
 10
510.3382003825772
 20
280.885813347357
 30
0.0
 40
2.59999999938
100
AcDbArc
 50
135.0000000000094
 51
224.9999999999906
  0
CIRCLE
  5
146C0
330
1F
100
AcDbEntity
  8
0
100
AcDbCircle
 10
510.3382003825772
 20
280.885813347357
 30
0.0
 40
2.049999999559998
  0
CIRCLE
  5
146C1
330
1F
100
AcDbEntity
  8
0
100
AcDbCircle
 10
515.1382003837809
 20
287.7358133455766
 30
0.0
 40
3.749980130199998
  0
CIRCLE
  5
146C2
330
1F
100
AcDbEntity
  8
0
100
AcDbCircle
 10
515.1382003837809
 20
287.7358133455766
 30
0.0
 40
3.249999999859998
  0
ARC
  5
146C3
330
1F
100
AcDbEntity
  8
0
100
AcDbCircle
 10
515.1382003837809
 20
287.7358133455766
 30
0.0
 40
2.59999999938
100
AcDbArc
 50
315.0000000000094
 51
44.99999999999057
  0
ARC
  5
146C4
330
1F
100
AcDbEntity
  8
0
100
AcDbCircle
 10
515.1382003837809
 20
287.7358133455766
 30
0.0
 40
2.59999999938
100
AcDbArc
 50
135.0000000000094
 51
224.9999999999906
  0
CIRCLE
  5
146C5
330
1F
100
AcDbEntity
  8
0
100
AcDbCircle
 10
515.1382003837809
 20
287.7358133455766
 30
0.0
 40
2.049999999559998
  0
HATCH
  5
146CA
330
1F
100
AcDbEntity
  8
Hat
100
AcDbHatch
 10
0.0
 20
0.0
 30
0.0
210
0.0
220
0.0
230
1.0
  2
SOLID
 70
     1
 71
     0
 91
        2
 92
        7
 72
     1
 73
     1
 93
        6
 10
505.9382003840163
 20
279.7272283492321
 42
0.0764155092017595
 10
506.4893567767776
 20
278.4591444199364
 42
0.0
 10
507.1660794868838
 20
278.8858133473568
 42
-0.2889296172533301
 10
507.1660794868841
 20
282.8858133473573
 42
0.0
 10
506.4893567767779
 20
283.3124822747777
 42
0.0764155092017595
 10
505.9382003840166
 20
282.044398345482
 42
0.0
 97
        0
 92
        7
 72
     1
 73
     1
 93
        2
 10
505.9382003840166
 20
282.044398345482
 42
0.1294511251931587
 10
505.9382003840163
 20
279.727228349233
 42
0.0
 97
        0
 75
     0
 76
     1
 47
0.0084318553601757
 98
        2
 10
506.1445801603468
 20
281.3101397069477
 10
505.8719065162541
 20
281.0596549720001
1001
ACAD
1010
0.0
1020
0.0
1030
0.0
  0
ARC
  5
146CB
330
1F
100
AcDbEntity
  8
Hat
100
AcDbCircle
 10
510.3382003825772
 20
280.885813347357
 30
0.0
 40
4.549980130199998
100
AcDbArc
 50
147.7688559544858
 51
212.2311440455141
  0
LINE
  5
146CC
330
1F
100
AcDbEntity
  8
Hat
100
AcDbLine
 10
507.1660794868838
 20
278.8858133473568
 30
0.0
 11
506.4893567767776
 21
278.4591444199364
 31
0.0
  0
LINE
  5
146CD
330
1F
100
AcDbEntity
  8
Hat
100
AcDbLine
 10
507.1660794868841
 20
282.8858133473573
 30
0.0
 11
506.4893567767779
 21
283.3124822747777
 31
0.0
  0
HATCH
  5
146CE
330
1F
100
AcDbEntity
  8
Hat
100
AcDbHatch
 10
0.0
 20
0.0
 30
0.0
210
0.0
220
0.0
230
1.0
  2
SOLID
 70
     1
 71
     0
 91
        2
 92
        7
 72
     1
 73
     1
 93
        6
 10
514.738200381138
 20
279.7272283492321
 42
-0.0764155092017595
 10
514.1870439883769
 20
278.4591444199364
 42
0.0
 10
513.5103212782706
 20
278.8858133473568
 42
0.2889296172533301
 10
513.5103212782706
 20
282.8858133473573
 42
0.0
 10
514.1870439883771
 20
283.3124822747777
 42
-0.0764155092017595
 10
514.7382003811383
 20
282.044398345482
 42
0.0
 97
        0
 92
        7
 72
     1
 73
     1
 93
        2
 10
514.7382003811383
 20
282.044398345482
 42
-0.1294511251931587
 10
514.738200381138
 20
279.727228349233
 42
0.0
 97
        0
 75
     0
 76
     1
 47
0.0084318553601757
 98
        2
 10
514.531820604808
 20
281.3101397069477
 10
514.8044942489007
 20
281.0596549720001
1001
ACAD
1010
0.0
1020
0.0
1030
0.0
  0
ARC
  5
146CF
330
1F
100
AcDbEntity
  8
Hat
100
AcDbCircle
 10
510.3382003825772
 20
280.885813347357
 30
0.0
 40
4.549980130199998
100
AcDbArc
 50
327.7688559544859
 51
32.23114404551413
  0
LINE
  5
146D0
330
1F
100
AcDbEntity
  8
Hat
100
AcDbLine
 10
513.5103212782706
 20
278.8858133473568
 30
0.0
 11
514.1870439883769
 21
278.4591444199364
 31
0.0
  0
LINE
  5
146D1
330
1F
100
AcDbEntity
  8
Hat
100
AcDbLine
 10
513.5103212782706
 20
282.8858133473573
 30
0.0
 11
514.1870439883771
 21
283.3124822747777
 31
0.0
  0
HATCH
  5
146D2
330
1F
100
AcDbEntity
  8
Hat
100
AcDbHatch
 10
0.0
 20
0.0
 30
0.0
210
0.0
220
0.0
230
1.0
  2
SOLID
 70
     1
 71
     0
 91
        2
 92
        7
 72
     1
 73
     1
 93
        6
 10
510.7382003852201
 20
286.5772283474516
 42
0.0764155092017595
 10
511.2893567779813
 20
285.309144418156
 42
0.0
 10
511.9660794880876
 20
285.7358133455764
 42
-0.2889296172533301
 10
511.9660794880876
 20
289.7358133455768
 42
0.0
 10
511.2893567779813
 20
290.1624822729973
 42
0.0764155092017595
 10
510.7382003852201
 20
288.8943983437016
 42
0.0
 97
        0
 92
        7
 72
     1
 73
     1
 93
        2
 10
510.7382003852201
 20
288.8943983437016
 42
0.1294511251931587
 10
510.7382003852201
 20
286.5772283474525
 42
0.0
 97
        0
 75
     0
 76
     1
 47
0.0084318553601757
 98
        2
 10
510.9445801615501
 20
288.1601397051672
 10
510.6719065174576
 20
287.9096549702197
1001
ACAD
1010
0.0
1020
0.0
1030
0.0
  0
ARC
  5
146D3
330
1F
100
AcDbEntity
  8
Hat
100
AcDbCircle
 10
515.1382003837809
 20
287.7358133455766
 30
0.0
 40
4.549980130199998
100
AcDbArc
 50
147.7688559544858
 51
212.2311440455141
  0
LINE
  5
146D4
330
1F
100
AcDbEntity
  8
Hat
100
AcDbLine
 10
511.9660794880876
 20
285.7358133455764
 30
0.0
 11
511.2893567779813
 21
285.309144418156
 31
0.0
  0
LINE
  5
146D5
330
1F
100
AcDbEntity
  8
Hat
100
AcDbLine
 10
511.9660794880876
 20
289.7358133455768
 30
0.0
 11
511.2893567779813
 21
290.1624822729973
 31
0.0
  0
HATCH
  5
146D6
330
1F
100
AcDbEntity
  8
Hat
100
AcDbHatch
 10
0.0
 20
0.0
 30
0.0
210
0.0
220
0.0
230
1.0
  2
SOLID
 70
     1
 71
     0
 91
        2
 92
        7
 72
     1
 73
     1
 93
        6
 10
519.5382003823416
 20
286.5772283474516
 42
-0.0764155092017595
 10
518.9870439895805
 20
285.309144418156
 42
0.0
 10
518.3103212794742
 20
285.7358133455764
 42
0.2889296172533301
 10
518.3103212794742
 20
289.7358133455768
 42
0.0
 10
518.9870439895805
 20
290.1624822729973
 42
-0.0764155092017595
 10
519.5382003823416
 20
288.8943983437016
 42
0.0
 97
        0
 92
        7
 72
     1
 73
     1
 93
        2
 10
519.5382003823416
 20
288.8943983437016
 42
-0.1294511251931587
 10
519.5382003823416
 20
286.5772283474525
 42
0.0
 97
        0
 75
     0
 76
     1
 47
0.0084318553601757
 98
        2
 10
519.3318206060113
 20
288.1601397051672
 10
519.6044942501041
 20
287.9096549702197
1001
ACAD
1010
0.0
1020
0.0
1030
0.0
  0
ARC
  5
146D7
330
1F
100
AcDbEntity
  8
Hat
100
AcDbCircle
 10
515.1382003837809
 20
287.7358133455766
 30
0.0
 40
4.549980130199998
100
AcDbArc
 50
327.7688559544859
 51
32.23114404551413
  0
LINE
  5
146D8
330
1F
100
AcDbEntity
  8
Hat
100
AcDbLine
 10
518.3103212794742
 20
285.7358133455764
 30
0.0
 11
518.9870439895805
 21
285.309144418156
 31
0.0
  0
LINE
  5
146D9
330
1F
100
AcDbEntity
  8
Hat
100
AcDbLine
 10
518.3103212794742
 20
289.7358133455768
 30
0.0
 11
518.9870439895805
 21
290.1624822729973
 31
0.0
  0
HATCH
  5
146DA
330
1F
100
AcDbEntity
  8
Hat
100
AcDbHatch
 10
0.0
 20
0.0
 30
0.0
210
0.0
220
0.0
230
1.0
  2
SOLID
 70
     1
 71
     0
 91
        2
 92
        7
 72
     1
 73
     1
 93
        6
 10
505.9382003840166
 20
293.4272283482142
 42
0.0764155092017595
 10
506.4893567767779
 20
292.1591444189185
 42
0.0
 10
507.1660794868841
 20
292.5858133463389
 42
-0.2889296172533301
 10
507.1660794868841
 20
296.5858133463393
 42
0.0
 10
506.4893567767779
 20
297.0124822737598
 42
0.0764155092017595
 10
505.9382003840166
 20
295.7443983444641
 42
0.0
 97
        0
 92
        7
 72
     1
 73
     1
 93
        2
 10
505.9382003840166
 20
295.7443983444641
 42
0.1294511251931587
 10
505.9382003840166
 20
293.4272283482151
 42
0.0
 97
        0
 75
     0
 76
     1
 47
0.0084318553601757
 98
        2
 10
506.1445801603468
 20
295.0101397059297
 10
505.8719065162541
 20
294.7596549709822
1001
ACAD
1010
0.0
1020
0.0
1030
0.0
  0
ARC
  5
146DB
330
1F
100
AcDbEntity
  8
Hat
100
AcDbCircle
 10
510.3382003825775
 20
294.5858133463391
 30
0.0
 40
4.549980130199998
100
AcDbArc
 50
147.7688559544858
 51
212.2311440455141
  0
LINE
  5
146DC
330
1F
100
AcDbEntity
  8
Hat
100
AcDbLine
 10
507.1660794868841
 20
292.5858133463389
 30
0.0
 11
506.4893567767779
 21
292.1591444189185
 31
0.0
  0
LINE
  5
146DD
330
1F
100
AcDbEntity
  8
Hat
100
AcDbLine
 10
507.1660794868841
 20
296.5858133463393
 30
0.0
 11
506.4893567767779
 21
297.0124822737598
 31
0.0
  0
HATCH
  5
146DE
330
1F
100
AcDbEntity
  8
Hat
100
AcDbHatch
 10
0.0
 20
0.0
 30
0.0
210
0.0
220
0.0
230
1.0
  2
SOLID
 70
     1
 71
     0
 91
        2
 92
        7
 72
     1
 73
     1
 93
        6
 10
514.7382003811383
 20
293.4272283482142
 42
-0.0764155092017595
 10
514.1870439883771
 20
292.1591444189185
 42
0.0
 10
513.5103212782706
 20
292.5858133463389
 42
0.2889296172533301
 10
513.5103212782706
 20
296.5858133463393
 42
0.0
 10
514.1870439883771
 20
297.0124822737598
 42
-0.0764155092017595
 10
514.7382003811383
 20
295.7443983444641
 42
0.0
 97
        0
 92
        7
 72
     1
 73
     1
 93
        2
 10
514.7382003811383
 20
295.7443983444641
 42
-0.1294511251931587
 10
514.7382003811383
 20
293.4272283482151
 42
0.0
 97
        0
 75
     0
 76
     1
 47
0.0084318553601757
 98
        2
 10
514.531820604808
 20
295.0101397059297
 10
514.8044942489007
 20
294.7596549709822
1001
ACAD
1010
0.0
1020
0.0
1030
0.0
  0
ARC
  5
146DF
330
1F
100
AcDbEntity
  8
Hat
100
AcDbCircle
 10
510.3382003825775
 20
294.5858133463391
 30
0.0
 40
4.549980130199998
100
AcDbArc
 50
327.7688559544859
 51
32.23114404551413
  0
LINE
  5
146E0
330
1F
100
AcDbEntity
  8
Hat
100
AcDbLine
 10
513.5103212782706
 20
292.5858133463389
 30
0.0
 11
514.1870439883771
 21
292.1591444189185
 31
0.0
  0
LINE
  5
146E1
330
1F
100
AcDbEntity
  8
Hat
100
AcDbLine
 10
513.5103212782706
 20
296.5858133463393
 30
0.0
 11
514.1870439883771
 21
297.0124822737598
 31
0.0
  0
HATCH
  5
146E2
330
1F
100
AcDbEntity
  8
Hat
100
AcDbHatch
 10
0.0
 20
0.0
 30
0.0
210
0.0
220
0.0
230
1.0
  2
SOLID
 70
     1
 71
     0
 91
        2
 92
        7
 72
     1
 73
     1
 93
        6
 10
510.7382003852201
 20
300.2772283489731
 42
0.0764155092017595
 10
511.2893567779813
 20
299.0091444196774
 42
0.0
 10
511.9660794880876
 20
299.4358133470978
 42
-0.2889296172533301
 10
511.9660794880876
 20
303.4358133470982
 42
0.0
 10
511.2893567779813
 20
303.8624822745187
 42
0.0764155092017595
 10
510.7382003852201
 20
302.594398345223
 42
0.0
 97
        0
 92
        7
 72
     1
 73
     1
 93
        2
 10
510.7382003852201
 20
302.594398345223
 42
0.1294511251931587
 10
510.7382003852201
 20
300.2772283489739
 42
0.0
 97
        0
 75
     0
 76
     1
 47
0.0084318553601757
 98
        2
 10
510.9445801615501
 20
301.8601397066886
 10
510.6719065174576
 20
301.6096549717411
1001
ACAD
1010
0.0
1020
0.0
1030
0.0
  0
ARC
  5
146E3
330
1F
100
AcDbEntity
  8
Hat
100
AcDbCircle
 10
515.1382003837809
 20
301.435813347098
 30
0.0
 40
4.549980130199998
100
AcDbArc
 50
147.7688559544858
 51
212.2311440455141
  0
LINE
  5
146E4
330
1F
100
AcDbEntity
  8
Hat
100
AcDbLine
 10
511.9660794880876
 20
299.4358133470978
 30
0.0
 11
511.2893567779813
 21
299.0091444196774
 31
0.0
  0
LINE
  5
146E5
330
1F
100
AcDbEntity
  8
Hat
100
AcDbLine
 10
511.9660794880876
 20
303.4358133470982
 30
0.0
 11
511.2893567779813
 21
303.8624822745187
 31
0.0
  0
HATCH
  5
146E6
330
1F
100
AcDbEntity
  8
Hat
100
AcDbHatch
 10
0.0
 20
0.0
 30
0.0
210
0.0
220
0.0
230
1.0
  2
SOLID
 70
     1
 71
     0
 91
        2
 92
        7
 72
     1
 73
     1
 93
        6
 10
519.5382003823416
 20
300.2772283489731
 42
-0.0764155092017595
 10
518.9870439895805
 20
299.0091444196774
 42
0.0
 10
518.3103212794742
 20
299.4358133470978
 42
0.2889296172533301
 10
518.3103212794742
 20
303.4358133470982
 42
0.0
 10
518.9870439895805
 20
303.8624822745187
 42
-0.0764155092017595
 10
519.5382003823416
 20
302.594398345223
 42
0.0
 97
        0
 92
        7
 72
     1
 73
     1
 93
        2
 10
519.5382003823416
 20
302.594398345223
 42
-0.1294511251931587
 10
519.5382003823416
 20
300.2772283489739
 42
0.0
 97
        0
 75
     0
 76
     1
 47
0.0084318553601757
 98
        2
 10
519.3318206060113
 20
301.8601397066886
 10
519.6044942501041
 20
301.6096549717411
1001
ACAD
1010
0.0
1020
0.0
1030
0.0
  0
ARC
  5
146E7
330
1F
100
AcDbEntity
  8
Hat
100
AcDbCircle
 10
515.1382003837809
 20
301.435813347098
 30
0.0
 40
4.549980130199998
100
AcDbArc
 50
327.7688559544859
 51
32.23114404551413
  0
LINE
  5
146E8
330
1F
100
AcDbEntity
  8
Hat
100
AcDbLine
 10
518.3103212794742
 20
299.4358133470978
 30
0.0
 11
518.9870439895805
 21
299.0091444196774
 31
0.0
  0
LINE
  5
146E9
330
1F
100
AcDbEntity
  8
Hat
100
AcDbLine
 10
518.3103212794742
 20
303.4358133470982
 30
0.0
 11
518.9870439895805
 21
303.8624822745187
 31
0.0
  0
MTEXT
  5
146EA
330
1F
100
AcDbEntity
  8
打标文字
100
AcDbMText
 10
509.3420353558697
 20
302.7621624096712
 30
0.0
 40
2.6
 41
3.104402030482333
 71
     1
 72
     5
  1
1
  7
数字标
 73
     1
 44
1.0
1001
ACAD
1000
MTEXTBEGIN
1070
    73
1070
     1
1070
    44
1040
1.0
1070
    74
1070
     0
1000
MTEXTEND
  0
MTEXT
  5
146EB
330
1F
100
AcDbEntity
  8
打标文字
100
AcDbMText
 10
515.1390570640216
 20
296.2291132276909
 30
0.0
 40
2.6
 41
3.104402030482333
 71
     1
 72
     5
  1
2
  7
数字标
 73
     1
 44
1.0
1001
ACAD
1000
MTEXTBEGIN
1070
    73
1070
     1
1070
    44
1040
1.0
1070
    74
1070
     0
1000
MTEXTEND
  0
MTEXT
  5
146EC
330
1F
100
AcDbEntity
  8
打标文字
100
AcDbMText
 10
509.0234150615353
 20
289.0862879060501
 30
0.0
 40
2.6
 41
3.104402030482333
 71
     1
 72
     5
  1
3
  7
数字标
 73
     1
 44
1.0
1001
ACAD
1000
MTEXTBEGIN
1070
    73
1070
     1
1070
    44
1040
1.0
1070
    74
1070
     0
1000
MTEXTEND
  0
MTEXT
  5
146ED
330
1F
100
AcDbEntity
  8
打标文字
100
AcDbMText
 10
515.1109212409902
 20
282.3222792080926
 30
0.0
 40
2.6
 41
3.104402030482333
 71
     1
 72
     5
  1
4
  7
数字标
 73
     1
 44
1.0
1001
ACAD
1000
MTEXTBEGIN
1070
    73
1070
     1
1070
    44
1040
1.0
1070
    74
1070
     0
1000
MTEXTEND
  0
LINE
  5
14792
330
1F
100
AcDbEntity
  8
0
100
AcDbLine
 10
443.8263767963796
 20
277.0108133452798
 30
0.0
 11
443.8263767963796
 21
276.0108133462984
 31
0.0
  0
LINE
  5
14793
330
1F
100
AcDbEntity
  8
0
100
AcDbLine
 10
445.4263767967856
 20
276.0108133462984
 30
0.0
 11
445.4263767967856
 21
274.060813346457
 31
0.0
  0
LINE
  5
14794
330
1F
100
AcDbEntity
  8
0
100
AcDbLine
 10
447.8263767973836
 20
276.0108133462984
 30
0.0
 11
447.8263767973836
 21
274.060813346457
 31
0.0
  0
LINE
  5
14795
330
1F
100
AcDbEntity
  8
0
100
AcDbLine
 10
448.9263767970258
 20
276.0108133462984
 30
0.0
 11
448.9263767970258
 21
274.060813346457
 31
0.0
  0
LINE
  5
14796
330
1F
100
AcDbEntity
  8
0
100
AcDbLine
 10
448.9263767970258
 20
274.060813346457
 30
0.0
 11
445.4263767967856
 21
274.060813346457
 31
0.0
  0
DIMENSION
  5
14797
330
1F
100
AcDbEntity
  8
DIM
100
AcDbDimension
  2
*D2
 10
429.8053294510513
 20
274.0608133464569
 30
0.0
 11
427.2553294510512
 21
291.160813345958
 31
0.0
 70
    32
 71
     5
 42
34.19999999900176
  3
01
100
AcDbAlignedDimension
 13
445.4263767967856
 23
308.2608133454588
 33
0.0
 14
445.4263767967856
 24
274.060813346457
 34
0.0
 50
90.0
100
AcDbRotatedDimension
  0
DIMENSION
  5
147A4
330
1F
100
AcDbEntity
  8
DIM
100
AcDbDimension
  2
*D3
 10
520.0382003830983
 20
317.4927337008919
 30
0.0
 11
512.7382003831792
 21
320.0427337008918
 31
0.0
 70
    32
 71
     5
 42
14.59999999983847
  3
01
100
AcDbAlignedDimension
 13
505.4382003832598
 23
306.3108133456174
 33
0.0
 14
520.0382003830983
 24
306.3108133456174
 34
0.0
100
AcDbRotatedDimension
  0
DIMENSION
  5
147B1
330
1F
100
AcDbEntity
  8
DIM
100
AcDbDimension
  2
*D4
 10
437.8263767974273
 20
317.4927337008919
 30
0.0
 11
460.1263767972885
 21
320.0427337008918
 31
0.0
 70
    32
 71
     5
 42
44.59999999972217
  3
01
100
AcDbAlignedDimension
 13
482.4263767971496
 23
306.3108133456174
 33
0.0
 14
437.8263767974273
 24
305.8108133473963
 34
0.0
100
AcDbRotatedDimension
  0
ENDSEC
  0
SECTION
  2
OBJECTS
  0
DICTIONARY
  5
C
330
0
100
AcDbDictionary
281
     1
  3
ACAD_COLOR
350
4FFE
  3
ACAD_GROUP
350
D
  3
ACAD_LAYOUT
350
1A
  3
ACAD_MATERIAL
350
4FE5
  3
ACAD_MLEADERSTYLE
350
5022
  3
ACAD_MLINESTYLE
350
17
  3
ACAD_PLOTSETTINGS
350
19
  3
ACAD_PLOTSTYLENAME
350
E
  3
ACAD_RENDER_PLOT_SETTINGS
350
6537
  3
ACAD_SCALELIST
350
5000
  3
ACAD_TABLESTYLE
350
4FE3
  3
ACAD_VISUALSTYLE
350
2A
  3
ACDB_RECOMPOSE_DATA
350
50EC
  3
AcDbVariableDictionary
350
5108
  3
ASE_INDEX_DICTIONARY
350
11ACE
  3
DWGPROPS
350
149AD
  0
DICTIONARY
  5
50EE
330
8
100
AcDbDictionary
280
     1
281
     1
  0
DICTIONARY
  5
50B8
330
2
100
AcDbDictionary
280
     1
281
     1
  3
ACAD_LAYERFILTERS
360
12A38
  3
ACAD_LAYERSTATES
360
50B9
  3
ACLYDICTIONARY
360
12A37
  0
DICTIONARY
  5
50D0
330
10
100
AcDbDictionary
280
     1
281
     1
  3
ADSK_XREC_LAYER_RECONCILED
360
50D1
  0
DICTIONARY
  5
50D2
330
3B
100
AcDbDictionary
280
     1
281
     1
  3
ADSK_XREC_LAYER_RECONCILED
360
50D3
  0
DICTIONARY
  5
50AF
330
50AE
100
AcDbDictionary
280
     1
281
     1
  3
ADSK_XREC_LAYER_RECONCILED
360
50D4
  0
DICTIONARY
  5
1339D
330
1339C
100
AcDbDictionary
280
     1
281
     1
  0
DICTIONARY
  5
67C0
330
1F
100
AcDbDictionary
280
     1
281
     1
  3
ACAD_SORTENTS
360
67C1
  0
DICTIONARY
  5
14984
330
10FE8
100
AcDbDictionary
280
     1
281
     1
  0
DICTIONARY
  5
14995
330
148EF
100
AcDbDictionary
280
     1
281
     1
  3
ACAD_MTEXT_2008_RT
360
14996
  3
ACAD_MTEXT_RT
360
149CF
  0
DICTIONARY
  5
14997
330
14933
100
AcDbDictionary
280
     1
281
     1
  3
ACAD_MTEXT_2008_RT
360
14998
  3
ACAD_MTEXT_RT
360
149D0
  0
DICTIONARY
  5
14999
330
14934
100
AcDbDictionary
280
     1
281
     1
  3
ACAD_MTEXT_2008_RT
360
1499A
  3
ACAD_MTEXT_RT
360
149D1
  0
DICTIONARY
  5
1499B
330
14959
100
AcDbDictionary
280
     1
281
     1
  3
ACAD_MTEXT_2008_RT
360
1499C
  3
ACAD_MTEXT_RT
360
149D2
  0
DICTIONARY
  5
1499D
330
1495C
100
AcDbDictionary
280
     1
281
     1
  3
ACAD_MTEXT_2008_RT
360
1499E
  3
ACAD_MTEXT_RT
360
149D3
  0
DICTIONARY
  5
1499F
330
1495D
100
AcDbDictionary
280
     1
281
     1
  3
ACAD_MTEXT_2008_RT
360
149A0
  3
ACAD_MTEXT_RT
360
149D4
  0
DICTIONARY
  5
149A1
330
14967
100
AcDbDictionary
280
     1
281
     1
  3
ACAD_MTEXT_2008_RT
360
149A2
  3
ACAD_MTEXT_RT
360
149D5
  0
DICTIONARY
  5
149A3
330
14968
100
AcDbDictionary
280
     1
281
     1
  3
ACAD_MTEXT_2008_RT
360
149A4
  3
ACAD_MTEXT_RT
360
149D6
  0
DICTIONARY
  5
149A5
330
14969
100
AcDbDictionary
280
     1
281
     1
  3
ACAD_MTEXT_2008_RT
360
149A6
  3
ACAD_MTEXT_RT
360
149D7
  0
DICTIONARY
  5
149A7
330
14977
100
AcDbDictionary
280
     1
281
     1
  3
ACAD_MTEXT_2008_RT
360
149A8
  3
ACAD_MTEXT_RT
360
149D8
  0
DICTIONARY
  5
149A9
330
14978
100
AcDbDictionary
280
     1
281
     1
  3
ACAD_MTEXT_2008_RT
360
149AA
  3
ACAD_MTEXT_RT
360
149D9
  0
DICTIONARY
  5
149AB
330
14979
100
AcDbDictionary
280
     1
281
     1
  3
ACAD_MTEXT_2008_RT
360
149AC
  3
ACAD_MTEXT_RT
360
149DA
  0
DICTIONARY
  5
14991
330
6E00
100
AcDbDictionary
280
     1
281
     1
  3
ACAD_MTEXT_2008_RT
360
14992
  3
ACAD_MTEXT_RT
360
149B5
  0
DICTIONARY
  5
14993
330
7228
100
AcDbDictionary
280
     1
281
     1
  3
ACAD_MTEXT_2008_RT
360
14994
  3
ACAD_MTEXT_RT
360
149B6
  0
DICTIONARY
  5
4FFE
102
{ACAD_REACTORS
330
C
102
}
330
C
100
AcDbDictionary
281
     1
  0
DICTIONARY
  5
D
102
{ACAD_REACTORS
330
C
102
}
330
C
100
AcDbDictionary
281
     1
  0
DICTIONARY
  5
1A
102
{ACAD_REACTORS
330
C
102
}
330
C
100
AcDbDictionary
281
     1
  3
Layout1
350
1E
  3
Layout2
350
26
  3
Model
350
22
  0
DICTIONARY
  5
4FE5
102
{ACAD_REACTORS
330
C
102
}
330
C
100
AcDbDictionary
281
     1
  3
ByBlock
350
4FEE
  3
ByLayer
350
4FE6
  3
Global
350
4FF6
  0
DICTIONARY
  5
5022
102
{ACAD_REACTORS
330
C
102
}
330
C
100
AcDbDictionary
281
     1
  3
Standard
350
5023
  0
DICTIONARY
  5
17
102
{ACAD_REACTORS
330
C
102
}
330
C
100
AcDbDictionary
281
     1
  3
Standard
350
18
  0
DICTIONARY
  5
19
102
{ACAD_REACTORS
330
C
102
}
330
C
100
AcDbDictionary
281
     1
  0
ACDBDICTIONARYWDFLT
  5
E
102
{ACAD_REACTORS
330
C
102
}
330
C
100
AcDbDictionary
281
     1
  3
Normal
350
F
100
AcDbDictionaryWithDefault
340
F
  0
DICTIONARY
  5
6537
102
{ACAD_REACTORS
330
C
102
}
330
C
100
AcDbDictionary
281
     1
  3
{1DC63513-1B1A-422F-9880-65CFD2B8D533}
350
6538
  0
DICTIONARY
  5
5000
102
{ACAD_REACTORS
330
C
102
}
330
C
100
AcDbDictionary
281
     1
  3
A0
350
5001
  3
A1
350
5002
  3
A2
350
5003
  3
A3
350
5004
  3
A4
350
5005
  3
A5
350
5006
  3
A6
350
5007
  3
A7
350
5008
  3
A8
350
5009
  3
A9
350
500A
  3
B0
350
500B
  3
B1
350
500C
  3
B2
350
500D
  3
B3
350
500E
  3
B4
350
500F
  3
B5
350
5010
  3
B6
350
5011
  3
B7
350
5012
  3
B8
350
5013
  3
B9
350
5014
  3
C0
350
5015
  3
C1
350
5016
  3
C2
350
5017
  3
C3
350
5018
  3
C4
350
5019
  3
C5
350
501A
  3
C6
350
501B
  3
C7
350
501C
  3
C8
350
501D
  3
C9
350
501E
  3
D0
350
501F
  3
D1
350
5020
  3
D2
350
5021
  0
DICTIONARY
  5
4FE3
102
{ACAD_REACTORS
330
C
102
}
330
C
100
AcDbDictionary
281
     1
  3
Standard
350
4FFF
  0
DICTIONARY
  5
2A
102
{ACAD_REACTORS
330
C
102
}
330
C
100
AcDbDictionary
281
     1
  3
2dWireframe
350
2F
  3
3D Hidden
350
31
  3
3dWireframe
350
30
  3
Basic
350
32
  3
Brighten
350
36
  3
ColorChange
350
3A
  3
Conceptual
350
34
  3
Dim
350
35
  3
Facepattern
350
39
  3
Flat
350
2B
  3
FlatWithEdges
350
2C
  3
Gouraud
350
2D
  3
GouraudWithEdges
350
2E
  3
Linepattern
350
38
  3
Realistic
350
33
  3
Thicken
350
37
  0
XRECORD
  5
50EC
102
{ACAD_REACTORS
330
C
102
}
330
C
100
AcDbXrecord
280
     1
 90
        1
330
4FFF
330
6E00
330
7228
330
148EF
330
14933
330
14934
330
14959
330
1495C
330
1495D
330
14967
330
14968
330
14969
330
14977
330
14978
330
14979
  0
DICTIONARY
  5
5108
102
{ACAD_REACTORS
330
C
102
}
330
C
100
AcDbDictionary
281
     1
  3
CANNOSCALE
350
510B
  3
CMLEADERSTYLE
350
510A
  3
CTABLESTYLE
350
5109
  3
DIMASSOC
350
510E
  3
INDEXCTL
350
510D
  3
SORTENTS
350
510C
  0
DICTIONARY
  5
11ACE
102
{ACAD_REACTORS
330
C
102
}
330
C
100
AcDbDictionary
281
     1
  3
ASEBlockHierarchyIndexRecord
350
11ACF
1001
DCO15
1040
1901610418.781
  0
XRECORD
  5
149AD
102
{ACAD_REACTORS
330
C
102
}
330
C
100
AcDbXrecord
280
     1
  1
DWGPROPS COOKIE
  2

  3

  4

  6

  7

  8
yl.gao
  9

300
=
301
=
302
=
303
=
304
=
305
=
306
=
307
=
308
=
309
=
 40
0.8900134259259258
 41
2456524.383632987
 42
2460323.718979896
  1

 90
        0
  0
DICTIONARY
  5
12A38
102
{ACAD_REACTORS
330
50B8
102
}
330
50B8
100
AcDbDictionary
281
     1
  0
DICTIONARY
  5
50B9
102
{ACAD_REACTORS
330
50B8
102
}
330
50B8
100
AcDbDictionary
281
     1
  0
DICTIONARY
  5
12A37
102
{ACAD_REACTORS
330
50B8
102
}
330
50B8
100
AcDbDictionary
281
     1
1001
ACAD
1000
<All
  0
XRECORD
  5
50D1
102
{ACAD_REACTORS
330
50D0
102
}
330
50D0
100
AcDbXrecord
280
     1
290
     1
  0
XRECORD
  5
50D3
102
{ACAD_REACTORS
330
50D2
102
}
330
50D2
100
AcDbXrecord
280
     1
290
     1
  0
XRECORD
  5
50D4
102
{ACAD_REACTORS
330
50AF
102
}
330
50AF
100
AcDbXrecord
280
     1
290
     1
  0
SORTENTSTABLE
  5
67C1
102
{ACAD_REACTORS
330
67C0
102
}
330
67C0
100
AcDbSortentsTable
330
1F
331
3807
  5
3895
331
3943
  5
4842
331
7228
  5
99F4
331
65A3
  5
65A4
331
4842
  5
4E94
331
2FDE
  5
35C8
331
65A1
  5
65A2
331
28AE
  5
2A38
331
2F93
  5
2FDE
331
65B2
  5
65B3
331
2C65
  5
2EE7
331
35D8
  5
3807
331
2EE7
  5
2F93
331
6E00
  5
99F3
331
65A4
  5
65A5
331
3895
  5
3943
331
35C8
  5
35D8
331
65A0
  5
65A1
  0
XRECORD
  5
14996
102
{ACAD_REACTORS
330
14995
102
}
330
14995
100
AcDbXrecord
280
     1
 40
1527.0
  1
\pxqc;BQ LUO
  0
XRECORD
  5
149CF
102
{ACAD_REACTORS
330
14995
102
}
330
14995
100
AcDbXrecord
280
     1
 40
1527.0
  1
\pxqc;BQ LUO
  0
XRECORD
  5
14998
102
{ACAD_REACTORS
330
14997
102
}
330
14997
100
AcDbXrecord
280
     1
 40
1262561.0
  1
\pxqc;档案员{\H0.7x;\P\Fromans|c134;Filing Clerk\fFangSong_GB2312|b0|i0|c134|p49; }
  0
XRECORD
  5
149D0
102
{ACAD_REACTORS
330
14997
102
}
330
14997
100
AcDbXrecord
280
     1
 40
448513.0
  1
\pxqc;档案员{\H0.7x;\P\Fromans|c134;Filing Clerk\fFangSong_GB2312|b0|i0|c134|p49; }
  0
XRECORD
  5
1499A
102
{ACAD_REACTORS
330
14999
102
}
330
14999
100
AcDbXrecord
280
     1
 40
650528.0
  1
\pxqc;日期{\Fromans|c134;/Date}
  0
XRECORD
  5
149D1
102
{ACAD_REACTORS
330
14999
102
}
330
14999
100
AcDbXrecord
280
     1
 40
58584.0
  1
\pxqc;日期{\Fromans|c134;/Date}
  0
XRECORD
  5
1499C
102
{ACAD_REACTORS
330
1499B
102
}
330
1499B
100
AcDbXrecord
280
     1
 40
2318748.0
  1
\pxsm0.7;{\f仿宋_GB2312|b0|i0|c134|p49;标准化}\PStand.
  0
XRECORD
  5
149D2
102
{ACAD_REACTORS
330
1499B
102
}
330
1499B
100
AcDbXrecord
280
     1
 40
55334.0
  1
\pxsm0.7;{\f仿宋_GB2312|b0|i0|c134|p49;标准化}\PStand.
  0
XRECORD
  5
1499E
102
{ACAD_REACTORS
330
1499D
102
}
330
1499D
100
AcDbXrecord
280
     1
 40
118135.0
  1
\pxsm0.7;签名\P{\Fromans|c134;Signature} 
  0
XRECORD
  5
149D3
102
{ACAD_REACTORS
330
1499D
102
}
330
1499D
100
AcDbXrecord
280
     1
 40
48353.0
  1
\pxsm0.7;签名\P{\Fromans|c134;Signature} 
  0
XRECORD
  5
149A0
102
{ACAD_REACTORS
330
1499F
102
}
330
1499F
100
AcDbXrecord
280
     1
 40
108939.0
  1
\pxsm0.7,qc;处数\P{\Fromans|c134;Number }
  0
XRECORD
  5
149D4
102
{ACAD_REACTORS
330
1499F
102
}
330
1499F
100
AcDbXrecord
280
     1
 40
38427.0
  1
\pxsm0.7,qc;处数\P{\Fromans|c134;Number }
  0
XRECORD
  5
149A2
102
{ACAD_REACTORS
330
149A1
102
}
330
149A1
100
AcDbXrecord
280
     1
 40
125762.0
  1
\pxsm0.7;标记\P{\Fromans|c134;Mark}
  0
XRECORD
  5
149D5
102
{ACAD_REACTORS
330
149A1
102
}
330
149A1
100
AcDbXrecord
280
     1
 40
31190.0
  1
\pxsm0.7;标记\P{\Fromans|c134;Mark}
  0
XRECORD
  5
149A4
102
{ACAD_REACTORS
330
149A3
102
}
330
149A3
100
AcDbXrecord
280
     1
 40
111973.0
  1
\pxsm0.7;审核\P{\Fromans|c134;Checked}
  0
XRECORD
  5
149D6
102
{ACAD_REACTORS
330
149A3
102
}
330
149A3
100
AcDbXrecord
280
     1
 40
39355.0
  1
\pxsm0.7;审核\P{\Fromans|c134;Checked}
  0
XRECORD
  5
149A6
102
{ACAD_REACTORS
330
149A5
102
}
330
149A5
100
AcDbXrecord
280
     1
 40
137968.0
  1
\pxsm0.7;绘图\P{\Fromans|c134;Drawn\Ftxt|c134; }
  0
XRECORD
  5
149D7
102
{ACAD_REACTORS
330
149A5
102
}
330
149A5
100
AcDbXrecord
280
     1
 40
66730.0
  1
\pxsm0.7;绘图\P{\Fromans|c134;Drawn\Ftxt|c134; }
  0
XRECORD
  5
149A8
102
{ACAD_REACTORS
330
149A7
102
}
330
149A7
100
AcDbXrecord
280
     1
 40
106320.0
  1
\pxsm0.7;批准\P{\Fromans|c134;Approved}
  0
XRECORD
  5
149D8
102
{ACAD_REACTORS
330
149A7
102
}
330
149A7
100
AcDbXrecord
280
     1
 40
43787.0
  1
\pxsm0.7;批准\P{\Fromans|c134;Approved}
  0
XRECORD
  5
149AA
102
{ACAD_REACTORS
330
149A9
102
}
330
149A9
100
AcDbXrecord
280
     1
 40
127283.0
  1
\pxsm0.7;工艺\P{\Fromans|c134;Process}
  0
XRECORD
  5
149D9
102
{ACAD_REACTORS
330
149A9
102
}
330
149A9
100
AcDbXrecord
280
     1
 40
40691.0
  1
\pxsm0.7;工艺\P{\Fromans|c134;Process}
  0
XRECORD
  5
149AC
102
{ACAD_REACTORS
330
149AB
102
}
330
149AB
100
AcDbXrecord
280
     1
 40
106220.0
  1
\pxsm0.7;日期\P{\Fromans|c134;Date}
  0
XRECORD
  5
149DA
102
{ACAD_REACTORS
330
149AB
102
}
330
149AB
100
AcDbXrecord
280
     1
 40
30977.0
  1
\pxsm0.7;日期\P{\Fromans|c134;Date}
  0
XRECORD
  5
14992
102
{ACAD_REACTORS
330
14991
102
}
330
14991
100
AcDbXrecord
280
     1
 40
3380847640.000001
  1
\A1;\pxql;{\f仿宋_GB2312|b0|i0|c134|p49;技术参数}:\P{\f仿宋_GB2312|b0|i0|c134|p49;插芯：}\P- {\f仿宋_GB2312|b0|i0|c134|p49;插针数}: 4\P- {\f仿宋_GB2312|b0|i0|c134|p49;额定电流}: 40A\P- {\f仿宋_GB2312|b0|i0|c134|p49;额定电压}: 830V\P- {\f仿宋_GB2312|b0|i0|c134|p49;额定脉冲电压}: 8kV\P- 
  1
{\f仿宋_GB2312|b0|i0|c134|p49;污染等级}: 3\P- {\f仿宋_GB2312|b0|i0|c134|p49;依据}UL{\f仿宋_GB2312|b0|i0|c134|p49;的额定电压}: 600V\P- {\f仿宋_GB2312|b0|i0|c134|p49;绝缘阻抗}: {\f仿宋_GB2312|b0|i0|c134|p49;≥}10{\H0.7x;\S10^ ;}Ω\P- {\f仿宋_GB2312|b0|i0|c134|p49;材料}: {\f仿宋_GB2312|
  1
b0|i0|c134|p49;聚碳酸酯}\P- {\f仿宋_GB2312|b0|i0|c134|p49;颜色}: RAL 7032{\f仿宋_GB2312|b0|i0|c134|p49;（浅灰色）}\P- {\f仿宋_GB2312|b0|i0|c134|p49;温度范围}: -40{\f仿宋_GB2312|b0|i0|c134|p49;℃} - +125{\f仿宋_GB2312|b0|i0|c134|p49;℃}\P- {\f仿宋_GB2312|b0|i0|c134|p49;依据}UL 94{\
  1
f仿宋_GB2312|b0|i0|c134|p49;的阻燃等级}: V0\P\pq*;- {\f仿宋_GB2312|b0|i0|c134|p49;可插拔次数}: {\f仿宋_GB2312|b0|i0|c134|p49;≥}500\P\pql;{\f仿宋_GB2312|b0|i0|c134|p49;插针：}\P- {\f仿宋_GB2312|b0|i0|c134|p49;接线方式}: {\f仿宋_GB2312|b0|i0|c134|p49;冷压连接}\P- {\f仿宋_GB2312|b0|i0|c1
  1
34|p49;材料}: {\f仿宋_GB2312|b0|i0|c134|p49;铜合金}\P- {\f仿宋_GB2312|b0|i0|c134|p49;表面处理}: {\f仿宋_GB2312|b0|i0|c134|p49;镀银}\P- {\f仿宋_GB2312|b0|i0|c134|p49;接触电阻}: ≤1mΩ\P- {\f仿宋_GB2312|b0|i0|c134|p49;线径范围}: 1.5-6mm{\H0.7x;\S2^ ;}(16-10 AWG)\P- {\f仿宋_GB2312|b0|i0
  1
|c134|p49;工具：}\P   {\f仿宋_GB2312|b0|i0|c134|p49;·} {\f仿宋_GB2312|b0|i0|c134|p49;冷压钳}: \P    TL02-0G(1.5-6mm{\H0.7x;\S2^ ;})\P    TL02-3G(4/6/10mm{\H0.7x;\S2^ ;})\P   {\f仿宋_GB2312|b0|i0|c134|p49;·} {\f仿宋_GB2312|b0|i0|c134|p49;退针器}: TL06G
  0
XRECORD
  5
149B5
102
{ACAD_REACTORS
330
14991
102
}
330
14991
100
AcDbXrecord
280
     1
 40
66907990.0
  1
\A1;\pxql;{\f仿宋_GB2312|b0|i0|c134|p49;技术参数}:\P{\f仿宋_GB2312|b0|i0|c134|p49;插芯：}\P- {\f仿宋_GB2312|b0|i0|c134|p49;插针数}: 4\P- {\f仿宋_GB2312|b0|i0|c134|p49;额定电流}: 40A\P- {\f仿宋_GB2312|b0|i0|c134|p49;额定电压}: 830V\P- {\f仿宋_GB2312|b0|i0|c134|p49;额定脉冲电压}: 8kV\P- 
  1
{\f仿宋_GB2312|b0|i0|c134|p49;污染等级}: 3\P- {\f仿宋_GB2312|b0|i0|c134|p49;依据}UL{\f仿宋_GB2312|b0|i0|c134|p49;的额定电压}: 600V\P- {\f仿宋_GB2312|b0|i0|c134|p49;绝缘阻抗}: {\f仿宋_GB2312|b0|i0|c134|p49;≥}10{\H0.7x;\S10^ ;}Ω\P- {\f仿宋_GB2312|b0|i0|c134|p49;材料}: {\f仿宋_GB2312|
  1
b0|i0|c134|p49;聚碳酸酯}\P- {\f仿宋_GB2312|b0|i0|c134|p49;颜色}: RAL 7032{\f仿宋_GB2312|b0|i0|c134|p49;（浅灰色）}\P- {\f仿宋_GB2312|b0|i0|c134|p49;温度范围}: -40{\f仿宋_GB2312|b0|i0|c134|p49;℃} - +125{\f仿宋_GB2312|b0|i0|c134|p49;℃}\P- {\f仿宋_GB2312|b0|i0|c134|p49;依据}UL 94{\
  1
f仿宋_GB2312|b0|i0|c134|p49;的阻燃等级}: V0\P\pq*;- {\f仿宋_GB2312|b0|i0|c134|p49;可插拔次数}: {\f仿宋_GB2312|b0|i0|c134|p49;≥}500\P\pql;{\f仿宋_GB2312|b0|i0|c134|p49;插针：}\P- {\f仿宋_GB2312|b0|i0|c134|p49;接线方式}: {\f仿宋_GB2312|b0|i0|c134|p49;冷压连接}\P- {\f仿宋_GB2312|b0|i0|c1
  1
34|p49;材料}: {\f仿宋_GB2312|b0|i0|c134|p49;铜合金}\P- {\f仿宋_GB2312|b0|i0|c134|p49;表面处理}: {\f仿宋_GB2312|b0|i0|c134|p49;镀银}\P- {\f仿宋_GB2312|b0|i0|c134|p49;接触电阻}: ≤1mΩ\P- {\f仿宋_GB2312|b0|i0|c134|p49;线径范围}: 1.5-6mm{\H0.7x;\S2^ ;}(16-10 AWG)\P- {\f仿宋_GB2312|b0|i0
  1
|c134|p49;工具：}\P   {\f仿宋_GB2312|b0|i0|c134|p49;·} {\f仿宋_GB2312|b0|i0|c134|p49;冷压钳}: \P    TL02-0G(1.5-6mm{\H0.7x;\S2^ ;})\P    TL02-3G(4/6/10mm{\H0.7x;\S2^ ;})\P   {\f仿宋_GB2312|b0|i0|c134|p49;·} {\f仿宋_GB2312|b0|i0|c134|p49;退针器}: TL06G
  0
XRECORD
  5
14994
102
{ACAD_REACTORS
330
14993
102
}
330
14993
100
AcDbXrecord
280
     1
 40
53217508.0
  1
\A1;\pxql;Technical specification:\PInserts:\P- No. of contact: 4\P- Rated current: 40A\P- Rated voltage: 830V\P- Rated impulse voltage: 8kV\P- Pollution degree: 3\P- Rated voltage acc.to UL: 600V\P- Insulation resistance: {\fFangSong_GB2312|b0|i0|c1
  1
34|p49;≥}10{\H0.7x;\S10^ ;}Ω\P- Material: polycarbonate\P- Colour: RAL 7032(light grey) \P- Temperature range: -40{\fArial|b0|i0|c0|p34;℃} - +125{\fArial|b0|i0|c0|p34;℃}\P- Flammability acc.to UL 94: V0\P- Mating cycles: {\fFangSong_GB2312|b0|i0|c134|
  1
p49;≥}500\PContacts:\P- Terminal: crimp terminal\P- Material: copper alloy\P- Surface: hard-silver plated\P- Contact resistance: {\fFangSong_GB2312|b0|i0|c134|p49;≤}1mΩ\P- Wire gauge: 1.5-6mm{\H0.7x;\S2^ ;\H1.4286x;(16-10 AWG)}\P- Tools:\P   {\fISOCPE
  1
UR|b0|i0|c0|p34;·} Crimp contact tool: \P    TL02-0G(1.5-6mm{\H0.7x;\S2^ ;\H1.4286x;)\P    TL02-3G(4/6/10mm\H0.7x;\S2^ ;\H1.4286x;)\P}   {\fISOCPEUR|b0|i0|c0|p34;·} Contact removal tool: TL06G
  0
XRECORD
  5
149B6
102
{ACAD_REACTORS
330
14993
102
}
330
14993
100
AcDbXrecord
280
     1
 40
36045943.0
  1
\A1;\pxql;Technical specification:\PInserts:\P- No. of contact: 4\P- Rated current: 40A\P- Rated voltage: 830V\P- Rated impulse voltage: 8kV\P- Pollution degree: 3\P- Rated voltage acc.to UL: 600V\P- Insulation resistance: {\fFangSong_GB2312|b0|i0|c1
  1
34|p49;≥}10{\H0.7x;\S10^ ;}Ω\P- Material: polycarbonate\P- Colour: RAL 7032(light grey) \P- Temperature range: -40{\fArial|b0|i0|c0|p34;℃} - +125{\fArial|b0|i0|c0|p34;℃}\P- Flammability acc.to UL 94: V0\P- Mating cycles: {\fFangSong_GB2312|b0|i0|c134|
  1
p49;≥}500\PContacts:\P- Terminal: crimp terminal\P- Material: copper alloy\P- Surface: hard-silver plated\P- Contact resistance: {\fFangSong_GB2312|b0|i0|c134|p49;≤}1mΩ\P- Wire gauge: 1.5-6mm{\H0.7x;\S2^ ;\H1.4286x;(16-10 AWG)}\P- Tools:\P   {\fISOCPE
  1
UR|b0|i0|c0|p34;·} Crimp contact tool: \P    TL02-0G(1.5-6mm{\H0.7x;\S2^ ;\H1.4286x;)\P    TL02-3G(4/6/10mm\H0.7x;\S2^ ;\H1.4286x;)\P}   {\fISOCPEUR|b0|i0|c0|p34;·} Contact removal tool: TL06G
  0
LAYOUT
  5
1E
102
{ACAD_XDICTIONARY
360
149AE
102
}
102
{ACAD_REACTORS
330
1A
102
}
330
1A
100
AcDbPlotSettings
  1

  2
none_device
  4

  6

 40
0.0
 41
0.0
 42
0.0
 43
0.0
 44
0.0
 45
0.0
 46
0.0
 47
0.0
 48
0.0
 49
0.0
140
0.0
141
0.0
142
1.0
143
1.0
 70
   688
 72
     0
 73
     0
 74
     5
  7

 75
    16
147
1.0
148
0.0
149
0.0
100
AcDbLayout
  1
Layout1
 70
     1
 71
     1
 10
0.0
 20
0.0
 11
12.0
 21
9.0
 12
0.0
 22
0.0
 32
0.0
 14
1.000000000000000E+20
 24
1.000000000000000E+20
 34
1.000000000000000E+20
 15
-1.000000000000000E+20
 25
-1.000000000000000E+20
 35
-1.000000000000000E+20
146
0.0
 13
0.0
 23
0.0
 33
0.0
 16
1.0
 26
0.0
 36
0.0
 17
0.0
 27
1.0
 37
0.0
 76
     0
330
1B
  0
LAYOUT
  5
26
102
{ACAD_XDICTIONARY
360
149B2
102
}
102
{ACAD_REACTORS
330
1A
102
}
330
1A
100
AcDbPlotSettings
  1

  2
none_device
  4

  6

 40
0.0
 41
0.0
 42
0.0
 43
0.0
 44
0.0
 45
0.0
 46
0.0
 47
0.0
 48
0.0
 49
0.0
140
0.0
141
0.0
142
1.0
143
1.0
 70
   688
 72
     0
 73
     0
 74
     5
  7

 75
    16
147
1.0
148
0.0
149
0.0
100
AcDbLayout
  1
Layout2
 70
     1
 71
     2
 10
0.0
 20
0.0
 11
0.0
 21
0.0
 12
0.0
 22
0.0
 32
0.0
 14
0.0
 24
0.0
 34
0.0
 15
0.0
 25
0.0
 35
0.0
146
0.0
 13
0.0
 23
0.0
 33
0.0
 16
1.0
 26
0.0
 36
0.0
 17
0.0
 27
1.0
 37
0.0
 76
     0
330
23
  0
LAYOUT
  5
22
102
{ACAD_XDICTIONARY
360
149B0
102
}
102
{ACAD_REACTORS
330
1A
102
}
330
1A
100
AcDbPlotSettings
  1

  2
Adobe PDF Converter.pc3
  4
A4
  6

 40
3.174999952316281
 41
3.174999952316281
 42
3.17498779296875
 43
3.175003051757812
 44
297.0318298339844
 45
209.9733276367186
 46
0.0000000000000076
 47
1.630241740247063
 48
246.9897427644609
 49
39.36804549891383
140
544.952097801264
141
244.7492402188181
142
1.0
143
1.025046328645055
 70
  3764
 72
     1
 73
     0
 74
     4
  7
monochrome.ctb
 75
     0
147
0.9755656618192436
148
-246.9897427644609
149
-39.36804549891383
100
AcDbLayout
  1
Model
 70
     1
 71
     0
 10
0.0
 20
0.0
 11
12.0
 21
9.0
 12
0.0
 22
0.0
 32
0.0
 14
1.000000000000000E+20
 24
1.000000000000000E+20
 34
1.000000000000000E+20
 15
-1.000000000000000E+20
 25
-1.000000000000000E+20
 35
-1.000000000000000E+20
146
0.0
 13
0.0
 23
0.0
 33
0.0
 16
1.0
 26
0.0
 36
0.0
 17
0.0
 27
1.0
 37
0.0
 76
     0
330
1F
331
29
1001
ACAD_PSEXT
1000
Adobe PDF Converter.pc3
1000
Adobe PDF Converter
1000
桌面\*.pdf
1000

1070
     0
  0
MATERIAL
  5
4FEE
102
{ACAD_XDICTIONARY
360
4FEF
102
}
102
{ACAD_REACTORS
330
4FE5
102
}
330
4FE5
100
AcDbMaterial
  1
ByBlock
 72
     0
 43
0.0208333333333333
 43
0.0
 43
0.0
 43
0.0
 43
0.0
 43
0.0208333333333333
 43
0.0
 43
0.0
 43
0.0
 43
0.0
 43
1.0
 43
0.0
 43
0.0
 43
0.0
 43
0.0
 43
1.0
 77
     0
 47
0.0208333333333333
 47
0.0
 47
0.0
 47
0.0
 47
0.0
 47
0.0208333333333333
 47
0.0
 47
0.0
 47
0.0
 47
0.0
 47
1.0
 47
0.0
 47
0.0
 47
0.0
 47
0.0
 47
1.0
171
     0
 49
0.0208333333333333
 49
0.0
 49
0.0
 49
0.0
 49
0.0
 49
0.0208333333333333
 49
0.0
 49
0.0
 49
0.0
 49
0.0
 49
1.0
 49
0.0
 49
0.0
 49
0.0
 49
0.0
 49
1.0
175
     0
142
0.0208333333333333
142
0.0
142
0.0
142
0.0
142
0.0
142
0.0208333333333333
142
0.0
142
0.0
142
0.0
142
0.0
142
1.0
142
0.0
142
0.0
142
0.0
142
0.0
142
1.0
179
     0
144
0.0208333333333333
144
0.0
144
0.0
144
0.0
144
0.0
144
0.0208333333333333
144
0.0
144
0.0
144
0.0
144
0.0
144
1.0
144
0.0
144
0.0
144
0.0
144
0.0
144
1.0
147
0.0208333333333333
147
0.0
147
0.0
147
0.0
147
0.0
147
0.0208333333333333
147
0.0
147
0.0
147
0.0
147
0.0
147
1.0
147
0.0
147
0.0
147
0.0
147
0.0
147
1.0
  0
MATERIAL
  5
4FE6
102
{ACAD_XDICTIONARY
360
4FE7
102
}
102
{ACAD_REACTORS
330
4FE5
102
}
330
4FE5
100
AcDbMaterial
  1
ByLayer
 72
     0
 43
0.0208333333333333
 43
0.0
 43
0.0
 43
0.0
 43
0.0
 43
0.0208333333333333
 43
0.0
 43
0.0
 43
0.0
 43
0.0
 43
1.0
 43
0.0
 43
0.0
 43
0.0
 43
0.0
 43
1.0
 77
     0
 47
0.0208333333333333
 47
0.0
 47
0.0
 47
0.0
 47
0.0
 47
0.0208333333333333
 47
0.0
 47
0.0
 47
0.0
 47
0.0
 47
1.0
 47
0.0
 47
0.0
 47
0.0
 47
0.0
 47
1.0
171
     0
 49
0.0208333333333333
 49
0.0
 49
0.0
 49
0.0
 49
0.0
 49
0.0208333333333333
 49
0.0
 49
0.0
 49
0.0
 49
0.0
 49
1.0
 49
0.0
 49
0.0
 49
0.0
 49
0.0
 49
1.0
175
     0
142
0.0208333333333333
142
0.0
142
0.0
142
0.0
142
0.0
142
0.0208333333333333
142
0.0
142
0.0
142
0.0
142
0.0
142
1.0
142
0.0
142
0.0
142
0.0
142
0.0
142
1.0
179
     0
144
0.0208333333333333
144
0.0
144
0.0
144
0.0
144
0.0
144
0.0208333333333333
144
0.0
144
0.0
144
0.0
144
0.0
144
1.0
144
0.0
144
0.0
144
0.0
144
0.0
144
1.0
147
0.0208333333333333
147
0.0
147
0.0
147
0.0
147
0.0
147
0.0208333333333333
147
0.0
147
0.0
147
0.0
147
0.0
147
1.0
147
0.0
147
0.0
147
0.0
147
0.0
147
1.0
  0
MATERIAL
  5
4FF6
102
{ACAD_XDICTIONARY
360
4FF7
102
}
102
{ACAD_REACTORS
330
4FE5
102
}
330
4FE5
100
AcDbMaterial
  1
Global
 72
     0
 43
0.0208333333333333
 43
0.0
 43
0.0
 43
0.0
 43
0.0
 43
0.0208333333333333
 43
0.0
 43
0.0
 43
0.0
 43
0.0
 43
1.0
 43
0.0
 43
0.0
 43
0.0
 43
0.0
 43
1.0
 77
     0
 47
0.0208333333333333
 47
0.0
 47
0.0
 47
0.0
 47
0.0
 47
0.0208333333333333
 47
0.0
 47
0.0
 47
0.0
 47
0.0
 47
1.0
 47
0.0
 47
0.0
 47
0.0
 47
0.0
 47
1.0
171
     0
 49
0.0208333333333333
 49
0.0
 49
0.0
 49
0.0
 49
0.0
 49
0.0208333333333333
 49
0.0
 49
0.0
 49
0.0
 49
0.0
 49
1.0
 49
0.0
 49
0.0
 49
0.0
 49
0.0
 49
1.0
175
     0
142
0.0208333333333333
142
0.0
142
0.0
142
0.0
142
0.0
142
0.0208333333333333
142
0.0
142
0.0
142
0.0
142
0.0
142
1.0
142
0.0
142
0.0
142
0.0
142
0.0
142
1.0
179
     0
144
0.0208333333333333
144
0.0
144
0.0
144
0.0
144
0.0
144
0.0208333333333333
144
0.0
144
0.0
144
0.0
144
0.0
144
1.0
144
0.0
144
0.0
144
0.0
144
0.0
144
1.0
147
0.0208333333333333
147
0.0
147
0.0
147
0.0
147
0.0
147
0.0208333333333333
147
0.0
147
0.0
147
0.0
147
0.0
147
1.0
147
0.0
147
0.0
147
0.0
147
0.0
147
1.0
  0
MLEADERSTYLE
  5
5023
102
{ACAD_REACTORS
330
5022
102
}
330
5022
100
AcDbMLeaderStyle
170
     2
171
     1
172
     0
 90
        2
 40
0.0
 41
0.0
173
     1
 91
-1056964608
340
14
 92
       -2
290
     1
 42
0.09
291
     1
 43
0.36
  3
Standard
 44
0.18
300

342
11
174
     1
178
     6
175
     1
176
     0
 93
-1056964608
 45
0.18
292
     0
297
     0
 46
0.18
 94
-1056964608
 47
1.0
 49
1.0
140
1.0
293
     1
141
0.0
294
     1
177
     0
142
1.0
295
     0
296
     0
143
0.125
1001
ACAD_MLEADERVER
1070
     2
  0
MLINESTYLE
  5
18
102
{ACAD_REACTORS
330
17
102
}
330
17
100
AcDbMlineStyle
  2
STANDARD
 70
     0
  3

 62
   256
 51
90.0
 52
90.0
 71
     2
 49
0.5
 62
   256
  6
BYLAYER
 49
-0.5
 62
   256
  6
BYLAYER
  0
ACDBPLACEHOLDER
  5
F
102
{ACAD_REACTORS
330
E
102
}
330
E
  0
MENTALRAYRENDERSETTINGS
  5
6538
102
{ACAD_REACTORS
330
6537
102
}
330
6537
100
AcDbRenderSettings
 90
        2
  1
中
290
     1
290
     1
290
     1
290
     1
  1

  1
渲染质量好于“低级”。包括纹理过滤并且强制双面处于激活状态。处理中等级反锯齿和 5 反射/折射的光线跟踪深度。
 90
        0
100
AcDbMentalRayRenderSettings
 90
        2
 90
        0
 90
        1
 70
     2
 40
3.0
 40
3.0
 40
0.0500000007450581
 40
0.0500000007450581
 40
0.0500000007450581
 40
0.0500000007450581
 70
     0
290
     0
290
     1
 90
        5
 90
        5
 90
        5
290
     0
 90
      500
290
     0
 40
1.0
 90
    10000
 90
        5
 90
        5
 90
        5
290
     0
 90
      200
290
     0
290
     0
290
     0
 40
0.1
 40
1.0
 40
1500.0
 70
     0
 70
     0
 40
10.0
 70
     0
 70
     0
290
     0
  1

 90
       32
 70
     0
 90
     1048
290
     0
 40
1.0
  0
SCALE
  5
5001
102
{ACAD_REACTORS
330
5000
102
}
330
5000
100
AcDbScale
 70
     0
300
1:1
140
1.0
141
1.0
290
     1
  0
SCALE
  5
5002
102
{ACAD_REACTORS
330
5000
102
}
330
5000
100
AcDbScale
 70
     0
300
1:2
140
1.0
141
2.0
290
     0
  0
SCALE
  5
5003
102
{ACAD_REACTORS
330
5000
102
}
330
5000
100
AcDbScale
 70
     0
300
1:4
140
1.0
141
4.0
290
     0
  0
SCALE
  5
5004
102
{ACAD_REACTORS
330
5000
102
}
330
5000
100
AcDbScale
 70
     0
300
1:5
140
1.0
141
5.0
290
     0
  0
SCALE
  5
5005
102
{ACAD_REACTORS
330
5000
102
}
330
5000
100
AcDbScale
 70
     0
300
1:8
140
1.0
141
8.0
290
     0
  0
SCALE
  5
5006
102
{ACAD_REACTORS
330
5000
102
}
330
5000
100
AcDbScale
 70
     0
300
1:10
140
1.0
141
10.0
290
     0
  0
SCALE
  5
5007
102
{ACAD_REACTORS
330
5000
102
}
330
5000
100
AcDbScale
 70
     0
300
1:16
140
1.0
141
16.0
290
     0
  0
SCALE
  5
5008
102
{ACAD_REACTORS
330
5000
102
}
330
5000
100
AcDbScale
 70
     0
300
1:20
140
1.0
141
20.0
290
     0
  0
SCALE
  5
5009
102
{ACAD_REACTORS
330
5000
102
}
330
5000
100
AcDbScale
 70
     0
300
1:30
140
1.0
141
30.0
290
     0
  0
SCALE
  5
500A
102
{ACAD_REACTORS
330
5000
102
}
330
5000
100
AcDbScale
 70
     0
300
1:40
140
1.0
141
40.0
290
     0
  0
SCALE
  5
500B
102
{ACAD_REACTORS
330
5000
102
}
330
5000
100
AcDbScale
 70
     0
300
1:50
140
1.0
141
50.0
290
     0
  0
SCALE
  5
500C
102
{ACAD_REACTORS
330
5000
102
}
330
5000
100
AcDbScale
 70
     0
300
1:100
140
1.0
141
100.0
290
     0
  0
SCALE
  5
500D
102
{ACAD_REACTORS
330
5000
102
}
330
5000
100
AcDbScale
 70
     0
300
2:1
140
2.0
141
1.0
290
     0
  0
SCALE
  5
500E
102
{ACAD_REACTORS
330
5000
102
}
330
5000
100
AcDbScale
 70
     0
300
4:1
140
4.0
141
1.0
290
     0
  0
SCALE
  5
500F
102
{ACAD_REACTORS
330
5000
102
}
330
5000
100
AcDbScale
 70
     0
300
8:1
140
8.0
141
1.0
290
     0
  0
SCALE
  5
5010
102
{ACAD_REACTORS
330
5000
102
}
330
5000
100
AcDbScale
 70
     0
300
10:1
140
10.0
141
1.0
290
     0
  0
SCALE
  5
5011
102
{ACAD_REACTORS
330
5000
102
}
330
5000
100
AcDbScale
 70
     0
300
100:1
140
100.0
141
1.0
290
     0
  0
SCALE
  5
5012
102
{ACAD_REACTORS
330
5000
102
}
330
5000
100
AcDbScale
 70
     0
300
1/128" = 1'-0"
140
0.0078125
141
12.0
290
     0
  0
SCALE
  5
5013
102
{ACAD_REACTORS
330
5000
102
}
330
5000
100
AcDbScale
 70
     0
300
1/64" = 1'-0"
140
0.015625
141
12.0
290
     0
  0
SCALE
  5
5014
102
{ACAD_REACTORS
330
5000
102
}
330
5000
100
AcDbScale
 70
     0
300
1/32" = 1'-0"
140
0.03125
141
12.0
290
     0
  0
SCALE
  5
5015
102
{ACAD_REACTORS
330
5000
102
}
330
5000
100
AcDbScale
 70
     0
300
1/16" = 1'-0"
140
0.0625
141
12.0
290
     0
  0
SCALE
  5
5016
102
{ACAD_REACTORS
330
5000
102
}
330
5000
100
AcDbScale
 70
     0
300
3/32" = 1'-0"
140
0.09375
141
12.0
290
     0
  0
SCALE
  5
5017
102
{ACAD_REACTORS
330
5000
102
}
330
5000
100
AcDbScale
 70
     0
300
1/8" = 1'-0"
140
0.125
141
12.0
290
     0
  0
SCALE
  5
5018
102
{ACAD_REACTORS
330
5000
102
}
330
5000
100
AcDbScale
 70
     0
300
3/16" = 1'-0"
140
0.1875
141
12.0
290
     0
  0
SCALE
  5
5019
102
{ACAD_REACTORS
330
5000
102
}
330
5000
100
AcDbScale
 70
     0
300
1/4" = 1'-0"
140
0.25
141
12.0
290
     0
  0
SCALE
  5
501A
102
{ACAD_REACTORS
330
5000
102
}
330
5000
100
AcDbScale
 70
     0
300
3/8" = 1'-0"
140
0.375
141
12.0
290
     0
  0
SCALE
  5
501B
102
{ACAD_REACTORS
330
5000
102
}
330
5000
100
AcDbScale
 70
     0
300
1/2" = 1'-0"
140
0.5
141
12.0
290
     0
  0
SCALE
  5
501C
102
{ACAD_REACTORS
330
5000
102
}
330
5000
100
AcDbScale
 70
     0
300
3/4" = 1'-0"
140
0.75
141
12.0
290
     0
  0
SCALE
  5
501D
102
{ACAD_REACTORS
330
5000
102
}
330
5000
100
AcDbScale
 70
     0
300
1" = 1'-0"
140
1.0
141
12.0
290
     0
  0
SCALE
  5
501E
102
{ACAD_REACTORS
330
5000
102
}
330
5000
100
AcDbScale
 70
     0
300
1-1/2" = 1'-0"
140
1.5
141
12.0
290
     0
  0
SCALE
  5
501F
102
{ACAD_REACTORS
330
5000
102
}
330
5000
100
AcDbScale
 70
     0
300
3" = 1'-0"
140
3.0
141
12.0
290
     0
  0
SCALE
  5
5020
102
{ACAD_REACTORS
330
5000
102
}
330
5000
100
AcDbScale
 70
     0
300
6" = 1'-0"
140
6.0
141
12.0
290
     0
  0
SCALE
  5
5021
102
{ACAD_REACTORS
330
5000
102
}
330
5000
100
AcDbScale
 70
     0
300
1'-0" = 1'-0"
140
12.0
141
12.0
290
     0
  0
TABLESTYLE
  5
4FFF
102
{ACAD_XDICTIONARY
360
50D6
102
}
102
{ACAD_REACTORS
330
4FE3
102
}
330
4FE3
100
AcDbTableStyle
  3
Standard
 70
     0
 71
     0
 40
0.06
 41
0.06
280
     0
281
     0
  7
Standard
140
0.18
170
     2
 62
     0
 63
     7
283
     0
274
    -2
284
     1
 64
     0
275
    -2
285
     1
 65
     0
276
    -2
286
     1
 66
     0
277
    -2
287
     1
 67
     0
278
    -2
288
     1
 68
     0
279
    -2
289
     1
 69
     0
  7
Standard
140
0.25
170
     5
 62
     0
 63
     7
283
     0
274
    -2
284
     1
 64
     0
275
    -2
285
     1
 65
     0
276
    -2
286
     1
 66
     0
277
    -2
287
     1
 67
     0
278
    -2
288
     1
 68
     0
279
    -2
289
     1
 69
     0
  7
Standard
140
0.18
170
     5
 62
     0
 63
     7
283
     0
274
    -2
284
     1
 64
     0
275
    -2
285
     1
 65
     0
276
    -2
286
     1
 66
     0
277
    -2
287
     1
 67
     0
278
    -2
288
     1
 68
     0
279
    -2
289
     1
 69
     0
  0
VISUALSTYLE
  5
2F
102
{ACAD_REACTORS
330
2A
102
}
330
2A
100
AcDbVisualStyle
  2
2dWireframe
 70
     4
 71
     0
 72
     2
 73
     0
 90
        0
 40
-0.6
 41
-30.0
 62
     5
 63
     7
 74
     1
 91
        4
 64
     7
 65
   257
 75
     1
175
     1
 42
1.0
 92
        0
 66
   257
 43
1.0
 76
     1
 77
     6
 78
     2
 67
     7
 79
     5
170
     0
171
     0
290
     0
174
     0
 93
        1
 44
0.0
173
     0
291
     0
 45
0.0
1001
ACAD
1000
AcDbSavedByObjectVersion
1070
     0
1000
AcDbSavedByObjectVersion
1070
     0
1000
AcDbSavedByObjectVersion
1070
     0
1000
AcDbSavedByObjectVersion
1070
     0
1000
AcDbSavedByObjectVersion
1070
     0
1000
AcDbSavedByObjectVersion
1070
     0
1000
AcDbSavedByObjectVersion
1070
     0
1000
AcDbSavedByObjectVersion
1070
     0
1000
AcDbSavedByObjectVersion
1070
     0
1000
AcDbSavedByObjectVersion
1070
     0
1000
AcDbSavedByObjectVersion
1070
     0
1000
AcDbSavedByObjectVersion
1070
     0
1000
AcDbSavedByObjectVersion
1070
     0
1000
AcDbSavedByObjectVersion
1070
     0
1000
AcDbSavedByObjectVersion
1070
     0
1000
AcDbSavedByObjectVersion
1070
     0
1000
AcDbSavedByObjectVersion
1070
     0
1000
AcDbSavedByObjectVersion
1070
     0
1000
AcDbSavedByObjectVersion
1070
     0
1000
AcDbSavedByObjectVersion
1070
     0
1000
AcDbSavedByObjectVersion
1070
     0
1000
AcDbSavedByObjectVersion
1070
     0
1000
AcDbSavedByObjectVersion
1070
     0
1000
AcDbSavedByObjectVersion
1070
     0
1000
AcDbSavedByObjectVersion
1070
     0
1000
AcDbSavedByObjectVersion
1070
     0
1000
AcDbSavedByObjectVersion
1070
     0
1000
AcDbSavedByObjectVersion
1070
     0
1000
AcDbSavedByObjectVersion
1070
     0
1000
AcDbSavedByObjectVersion
1070
     0
1000
AcDbSavedByObjectVersion
1070
     0
1000
AcDbSavedByObjectVersion
1070
     0
1000
AcDbSavedByObjectVersion
1070
     0
1000
AcDbSavedByObjectVersion
1070
     0
1000
AcDbSavedByObjectVersion
1070
     0
1000
AcDbSavedByObjectVersion
1070
     0
1000
AcDbSavedByObjectVersion
1070
     0
1000
AcDbSavedByObjectVersion
1070
     0
1000
AcDbSavedByObjectVersion
1070
     0
1000
AcDbSavedByObjectVersion
1070
     0
1000
AcDbSavedByObjectVersion
1070
     0
1000
AcDbSavedByObjectVersion
1070
     0
1000
AcDbSavedByObjectVersion
1070
     0
1000
AcDbSavedByObjectVersion
1070
     0
1000
AcDbSavedByObjectVersion
1070
     0
  0
VISUALSTYLE
  5
31
102
{ACAD_REACTORS
330
2A
102
}
330
2A
100
AcDbVisualStyle
  2
3D Hidden
 70
     6
 71
     1
 72
     2
 73
     2
 90
        0
 40
-0.6
 41
-30.0
 62
     5
 63
     7
 74
     2
 91
        2
 64
     7
 65
   257
 75
     2
175
     1
 42
40.0
 92
        0
 66
   257
 43
1.0
 76
     1
 77
     6
 78
     2
 67
     7
 79
     3
170
     0
171
     0
290
     0
174
     0
 93
        1
 44
0.0
173
     0
291
     0
 45
0.0
1001
ACAD
1000
AcDbSavedByObjectVersion
1070
     0
1000
AcDbSavedByObjectVersion
1070
     0
1000
AcDbSavedByObjectVersion
1070
     0
1000
AcDbSavedByObjectVersion
1070
     0
1000
AcDbSavedByObjectVersion
1070
     0
1000
AcDbSavedByObjectVersion
1070
     0
1000
AcDbSavedByObjectVersion
1070
     0
1000
AcDbSavedByObjectVersion
1070
     0
1000
AcDbSavedByObjectVersion
1070
     0
1000
AcDbSavedByObjectVersion
1070
     0
1000
AcDbSavedByObjectVersion
1070
     0
1000
AcDbSavedByObjectVersion
1070
     0
1000
AcDbSavedByObjectVersion
1070
     0
1000
AcDbSavedByObjectVersion
1070
     0
1000
AcDbSavedByObjectVersion
1070
     0
1000
AcDbSavedByObjectVersion
1070
     0
1000
AcDbSavedByObjectVersion
1070
     0
1000
AcDbSavedByObjectVersion
1070
     0
1000
AcDbSavedByObjectVersion
1070
     0
1000
AcDbSavedByObjectVersion
1070
     0
1000
AcDbSavedByObjectVersion
1070
     0
1000
AcDbSavedByObjectVersion
1070
     0
1000
AcDbSavedByObjectVersion
1070
     0
1000
AcDbSavedByObjectVersion
1070
     0
1000
AcDbSavedByObjectVersion
1070
     0
1000
AcDbSavedByObjectVersion
1070
     0
1000
AcDbSavedByObjectVersion
1070
     0
1000
AcDbSavedByObjectVersion
1070
     0
1000
AcDbSavedByObjectVersion
1070
     0
1000
AcDbSavedByObjectVersion
1070
     0
1000
AcDbSavedByObjectVersion
1070
     0
1000
AcDbSavedByObjectVersion
1070
     0
1000
AcDbSavedByObjectVersion
1070
     0
1000
AcDbSavedByObjectVersion
1070
     0
1000
AcDbSavedByObjectVersion
1070
     0
1000
AcDbSavedByObjectVersion
1070
     0
1000
AcDbSavedByObjectVersion
1070
     0
1000
AcDbSavedByObjectVersion
1070
     0
1000
AcDbSavedByObjectVersion
1070
     0
1000
AcDbSavedByObjectVersion
1070
     0
1000
AcDbSavedByObjectVersion
1070
     0
1000
AcDbSavedByObjectVersion
1070
     0
1000
AcDbSavedByObjectVersion
1070
     0
1000
AcDbSavedByObjectVersion
1070
     0
1000
AcDbSavedByObjectVersion
1070
     0
  0
VISUALSTYLE
  5
30
102
{ACAD_REACTORS
330
2A
102
}
330
2A
100
AcDbVisualStyle
  2
3dWireframe
 70
     5
 71
     0
 72
     2
 73
     0
 90
        0
 40
-0.6
 41
-30.0
 62
     5
 63
     7
 74
     1
 91
        4
 64
     7
 65
   257
 75
     1
175
     1
 42
1.0
 92
        0
 66
   257
 43
1.0
 76
     1
 77
     6
 78
     2
 67
     7
 79
     5
170
     0
171
     0
290
     0
174
     0
 93
        1
 44
0.0
173
     0
291
     0
 45
0.0
1001
ACAD
1000
AcDbSavedByObjectVersion
1070
     0
1000
AcDbSavedByObjectVersion
1070
     0
1000
AcDbSavedByObjectVersion
1070
     0
1000
AcDbSavedByObjectVersion
1070
     0
1000
AcDbSavedByObjectVersion
1070
     0
1000
AcDbSavedByObjectVersion
1070
     0
1000
AcDbSavedByObjectVersion
1070
     0
1000
AcDbSavedByObjectVersion
1070
     0
1000
AcDbSavedByObjectVersion
1070
     0
1000
AcDbSavedByObjectVersion
1070
     0
1000
AcDbSavedByObjectVersion
1070
     0
1000
AcDbSavedByObjectVersion
1070
     0
1000
AcDbSavedByObjectVersion
1070
     0
1000
AcDbSavedByObjectVersion
1070
     0
1000
AcDbSavedByObjectVersion
1070
     0
1000
AcDbSavedByObjectVersion
1070
     0
1000
AcDbSavedByObjectVersion
1070
     0
1000
AcDbSavedByObjectVersion
1070
     0
1000
AcDbSavedByObjectVersion
1070
     0
1000
AcDbSavedByObjectVersion
1070
     0
1000
AcDbSavedByObjectVersion
1070
     0
1000
AcDbSavedByObjectVersion
1070
     0
1000
AcDbSavedByObjectVersion
1070
     0
1000
AcDbSavedByObjectVersion
1070
     0
1000
AcDbSavedByObjectVersion
1070
     0
1000
AcDbSavedByObjectVersion
1070
     0
1000
AcDbSavedByObjectVersion
1070
     0
1000
AcDbSavedByObjectVersion
1070
     0
1000
AcDbSavedByObjectVersion
1070
     0
1000
AcDbSavedByObjectVersion
1070
     0
1000
AcDbSavedByObjectVersion
1070
     0
1000
AcDbSavedByObjectVersion
1070
     0
1000
AcDbSavedByObjectVersion
1070
     0
1000
AcDbSavedByObjectVersion
1070
     0
1000
AcDbSavedByObjectVersion
1070
     0
1000
AcDbSavedByObjectVersion
1070
     0
1000
AcDbSavedByObjectVersion
1070
     0
1000
AcDbSavedByObjectVersion
1070
     0
1000
AcDbSavedByObjectVersion
1070
     0
1000
AcDbSavedByObjectVersion
1070
     0
1000
AcDbSavedByObjectVersion
1070
     0
1000
AcDbSavedByObjectVersion
1070
     0
1000
AcDbSavedByObjectVersion
1070
     0
1000
AcDbSavedByObjectVersion
1070
     0
1000
AcDbSavedByObjectVersion
1070
     0
  0
VISUALSTYLE
  5
32
102
{ACAD_REACTORS
330
2A
102
}
330
2A
100
AcDbVisualStyle
  2
Basic
 70
     7
 71
     1
 72
     0
 73
     1
 90
        0
 40
-0.6
 41
-30.0
 62
     5
 63
     7
 74
     0
 91
        4
 64
     7
 65
   257
 75
     1
175
     1
 42
1.0
 92
        8
 66
     7
 43
1.0
 76
     1
 77
     6
 78
     2
 67
     7
 79
     5
170
     0
171
     0
290
     0
174
     0
 93
        1
 44
0.0
173
     0
291
     1
 45
0.0
1001
ACAD
1000
AcDbSavedByObjectVersion
1070
     0
1000
AcDbSavedByObjectVersion
1070
     0
1000
AcDbSavedByObjectVersion
1070
     0
1000
AcDbSavedByObjectVersion
1070
     0
1000
AcDbSavedByObjectVersion
1070
     0
1000
AcDbSavedByObjectVersion
1070
     0
1000
AcDbSavedByObjectVersion
1070
     0
1000
AcDbSavedByObjectVersion
1070
     0
1000
AcDbSavedByObjectVersion
1070
     0
1000
AcDbSavedByObjectVersion
1070
     0
1000
AcDbSavedByObjectVersion
1070
     0
1000
AcDbSavedByObjectVersion
1070
     0
1000
AcDbSavedByObjectVersion
1070
     0
1000
AcDbSavedByObjectVersion
1070
     0
1000
AcDbSavedByObjectVersion
1070
     0
1000
AcDbSavedByObjectVersion
1070
     0
1000
AcDbSavedByObjectVersion
1070
     0
1000
AcDbSavedByObjectVersion
1070
     0
1000
AcDbSavedByObjectVersion
1070
     0
1000
AcDbSavedByObjectVersion
1070
     0
1000
AcDbSavedByObjectVersion
1070
     0
1000
AcDbSavedByObjectVersion
1070
     0
1000
AcDbSavedByObjectVersion
1070
     0
1000
AcDbSavedByObjectVersion
1070
     0
1000
AcDbSavedByObjectVersion
1070
     0
1000
AcDbSavedByObjectVersion
1070
     0
1000
AcDbSavedByObjectVersion
1070
     0
1000
AcDbSavedByObjectVersion
1070
     0
1000
AcDbSavedByObjectVersion
1070
     0
1000
AcDbSavedByObjectVersion
1070
     0
1000
AcDbSavedByObjectVersion
1070
     0
1000
AcDbSavedByObjectVersion
1070
     0
1000
AcDbSavedByObjectVersion
1070
     0
1000
AcDbSavedByObjectVersion
1070
     0
1000
AcDbSavedByObjectVersion
1070
     0
1000
AcDbSavedByObjectVersion
1070
     0
1000
AcDbSavedByObjectVersion
1070
     0
1000
AcDbSavedByObjectVersion
1070
     0
1000
AcDbSavedByObjectVersion
1070
     0
1000
AcDbSavedByObjectVersion
1070
     0
1000
AcDbSavedByObjectVersion
1070
     0
1000
AcDbSavedByObjectVersion
1070
     0
1000
AcDbSavedByObjectVersion
1070
     0
1000
AcDbSavedByObjectVersion
1070
     0
1000
AcDbSavedByObjectVersion
1070
     0
  0
VISUALSTYLE
  5
36
102
{ACAD_REACTORS
330
2A
102
}
330
2A
100
AcDbVisualStyle
  2
Brighten
 70
    12
 71
     2
 72
     2
 73
     0
 90
        0
 40
-0.6
 41
-30.0
 62
     5
 63
     7
 74
     1
 91
        4
 64
     7
 65
   257
 75
     1
175
     1
 42
1.0
 92
        8
 66
     7
 43
1.0
 76
     1
 77
     6
 78
     2
 67
     7
 79
     5
170
     0
171
     0
290
     0
174
     0
 93
        1
 44
50.0
173
     0
291
     1
 45
0.0
1001
ACAD
1000
AcDbSavedByObjectVersion
1070
     0
1000
AcDbSavedByObjectVersion
1070
     0
1000
AcDbSavedByObjectVersion
1070
     0
1000
AcDbSavedByObjectVersion
1070
     0
1000
AcDbSavedByObjectVersion
1070
     0
1000
AcDbSavedByObjectVersion
1070
     0
1000
AcDbSavedByObjectVersion
1070
     0
1000
AcDbSavedByObjectVersion
1070
     0
1000
AcDbSavedByObjectVersion
1070
     0
1000
AcDbSavedByObjectVersion
1070
     0
1000
AcDbSavedByObjectVersion
1070
     0
1000
AcDbSavedByObjectVersion
1070
     0
1000
AcDbSavedByObjectVersion
1070
     0
1000
AcDbSavedByObjectVersion
1070
     0
1000
AcDbSavedByObjectVersion
1070
     0
1000
AcDbSavedByObjectVersion
1070
     0
1000
AcDbSavedByObjectVersion
1070
     0
1000
AcDbSavedByObjectVersion
1070
     0
1000
AcDbSavedByObjectVersion
1070
     0
1000
AcDbSavedByObjectVersion
1070
     0
1000
AcDbSavedByObjectVersion
1070
     0
1000
AcDbSavedByObjectVersion
1070
     0
1000
AcDbSavedByObjectVersion
1070
     0
1000
AcDbSavedByObjectVersion
1070
     0
1000
AcDbSavedByObjectVersion
1070
     0
1000
AcDbSavedByObjectVersion
1070
     0
1000
AcDbSavedByObjectVersion
1070
     0
1000
AcDbSavedByObjectVersion
1070
     0
1000
AcDbSavedByObjectVersion
1070
     0
1000
AcDbSavedByObjectVersion
1070
     0
1000
AcDbSavedByObjectVersion
1070
     0
1000
AcDbSavedByObjectVersion
1070
     0
1000
AcDbSavedByObjectVersion
1070
     0
1000
AcDbSavedByObjectVersion
1070
     0
1000
AcDbSavedByObjectVersion
1070
     0
1000
AcDbSavedByObjectVersion
1070
     0
1000
AcDbSavedByObjectVersion
1070
     0
1000
AcDbSavedByObjectVersion
1070
     0
1000
AcDbSavedByObjectVersion
1070
     0
1000
AcDbSavedByObjectVersion
1070
     0
1000
AcDbSavedByObjectVersion
1070
     0
1000
AcDbSavedByObjectVersion
1070
     0
1000
AcDbSavedByObjectVersion
1070
     0
1000
AcDbSavedByObjectVersion
1070
     0
1000
AcDbSavedByObjectVersion
1070
     0
  0
VISUALSTYLE
  5
3A
102
{ACAD_REACTORS
330
2A
102
}
330
2A
100
AcDbVisualStyle
  2
ColorChange
 70
    16
 71
     2
 72
     2
 73
     3
 90
        0
 40
-0.6
 41
-30.0
 62
     5
 63
     8
 74
     1
 91
        4
 64
     7
 65
   257
 75
     1
175
     1
 42
1.0
 92
        8
 66
     8
 43
1.0
 76
     1
 77
     6
 78
     2
 67
     7
 79
     5
170
     0
171
     0
290
     0
174
     0
 93
        1
 44
0.0
173
     0
291
     1
 45
0.0
1001
ACAD
1000
AcDbSavedByObjectVersion
1070
     0
1000
AcDbSavedByObjectVersion
1070
     0
1000
AcDbSavedByObjectVersion
1070
     0
1000
AcDbSavedByObjectVersion
1070
     0
1000
AcDbSavedByObjectVersion
1070
     0
1000
AcDbSavedByObjectVersion
1070
     0
1000
AcDbSavedByObjectVersion
1070
     0
1000
AcDbSavedByObjectVersion
1070
     0
1000
AcDbSavedByObjectVersion
1070
     0
1000
AcDbSavedByObjectVersion
1070
     0
1000
AcDbSavedByObjectVersion
1070
     0
1000
AcDbSavedByObjectVersion
1070
     0
1000
AcDbSavedByObjectVersion
1070
     0
1000
AcDbSavedByObjectVersion
1070
     0
1000
AcDbSavedByObjectVersion
1070
     0
1000
AcDbSavedByObjectVersion
1070
     0
1000
AcDbSavedByObjectVersion
1070
     0
1000
AcDbSavedByObjectVersion
1070
     0
1000
AcDbSavedByObjectVersion
1070
     0
1000
AcDbSavedByObjectVersion
1070
     0
1000
AcDbSavedByObjectVersion
1070
     0
1000
AcDbSavedByObjectVersion
1070
     0
1000
AcDbSavedByObjectVersion
1070
     0
1000
AcDbSavedByObjectVersion
1070
     0
1000
AcDbSavedByObjectVersion
1070
     0
1000
AcDbSavedByObjectVersion
1070
     0
1000
AcDbSavedByObjectVersion
1070
     0
1000
AcDbSavedByObjectVersion
1070
     0
1000
AcDbSavedByObjectVersion
1070
     0
1000
AcDbSavedByObjectVersion
1070
     0
1000
AcDbSavedByObjectVersion
1070
     0
1000
AcDbSavedByObjectVersion
1070
     0
1000
AcDbSavedByObjectVersion
1070
     0
1000
AcDbSavedByObjectVersion
1070
     0
1000
AcDbSavedByObjectVersion
1070
     0
1000
AcDbSavedByObjectVersion
1070
     0
1000
AcDbSavedByObjectVersion
1070
     0
1000
AcDbSavedByObjectVersion
1070
     0
1000
AcDbSavedByObjectVersion
1070
     0
1000
AcDbSavedByObjectVersion
1070
     0
1000
AcDbSavedByObjectVersion
1070
     0
1000
AcDbSavedByObjectVersion
1070
     0
1000
AcDbSavedByObjectVersion
1070
     0
1000
AcDbSavedByObjectVersion
1070
     0
1000
AcDbSavedByObjectVersion
1070
     0
  0
VISUALSTYLE
  5
34
102
{ACAD_REACTORS
330
2A
102
}
330
2A
100
AcDbVisualStyle
  2
Conceptual
 70
     9
 71
     3
 72
     2
 73
     0
 90
        0
 40
-0.6
 41
-30.0
 62
     5
 63
     7
 74
     2
 91
        2
 64
     7
 65
   257
 75
     1
175
     1
 42
40.0
 92
        8
 66
     7
 43
1.0
 76
     1
 77
     6
 78
     2
 67
     7
 79
     3
170
     0
171
     0
290
     0
174
     0
 93
        1
 44
0.0
173
     0
291
     0
 45
0.0
1001
ACAD
1000
AcDbSavedByObjectVersion
1070
     0
1000
AcDbSavedByObjectVersion
1070
     0
1000
AcDbSavedByObjectVersion
1070
     0
1000
AcDbSavedByObjectVersion
1070
     0
1000
AcDbSavedByObjectVersion
1070
     0
1000
AcDbSavedByObjectVersion
1070
     0
1000
AcDbSavedByObjectVersion
1070
     0
1000
AcDbSavedByObjectVersion
1070
     0
1000
AcDbSavedByObjectVersion
1070
     0
1000
AcDbSavedByObjectVersion
1070
     0
1000
AcDbSavedByObjectVersion
1070
     0
1000
AcDbSavedByObjectVersion
1070
     0
1000
AcDbSavedByObjectVersion
1070
     0
1000
AcDbSavedByObjectVersion
1070
     0
1000
AcDbSavedByObjectVersion
1070
     0
1000
AcDbSavedByObjectVersion
1070
     0
1000
AcDbSavedByObjectVersion
1070
     0
1000
AcDbSavedByObjectVersion
1070
     0
1000
AcDbSavedByObjectVersion
1070
     0
1000
AcDbSavedByObjectVersion
1070
     0
1000
AcDbSavedByObjectVersion
1070
     0
1000
AcDbSavedByObjectVersion
1070
     0
1000
AcDbSavedByObjectVersion
1070
     0
1000
AcDbSavedByObjectVersion
1070
     0
1000
AcDbSavedByObjectVersion
1070
     0
1000
AcDbSavedByObjectVersion
1070
     0
1000
AcDbSavedByObjectVersion
1070
     0
1000
AcDbSavedByObjectVersion
1070
     0
1000
AcDbSavedByObjectVersion
1070
     0
1000
AcDbSavedByObjectVersion
1070
     0
1000
AcDbSavedByObjectVersion
1070
     0
1000
AcDbSavedByObjectVersion
1070
     0
1000
AcDbSavedByObjectVersion
1070
     0
1000
AcDbSavedByObjectVersion
1070
     0
1000
AcDbSavedByObjectVersion
1070
     0
1000
AcDbSavedByObjectVersion
1070
     0
1000
AcDbSavedByObjectVersion
1070
     0
1000
AcDbSavedByObjectVersion
1070
     0
1000
AcDbSavedByObjectVersion
1070
     0
1000
AcDbSavedByObjectVersion
1070
     0
1000
AcDbSavedByObjectVersion
1070
     0
1000
AcDbSavedByObjectVersion
1070
     0
1000
AcDbSavedByObjectVersion
1070
     0
1000
AcDbSavedByObjectVersion
1070
     0
1000
AcDbSavedByObjectVersion
1070
     0
  0
VISUALSTYLE
  5
35
102
{ACAD_REACTORS
330
2A
102
}
330
2A
100
AcDbVisualStyle
  2
Dim
 70
    11
 71
     2
 72
     2
 73
     0
 90
        0
 40
-0.6
 41
-30.0
 62
     5
 63
     7
 74
     1
 91
        4
 64
     7
 65
   257
 75
     1
175
     1
 42
1.0
 92
        8
 66
     7
 43
1.0
 76
     1
 77
     6
 78
     2
 67
     7
 79
     5
170
     0
171
     0
290
     0
174
     0
 93
        1
 44
-50.0
173
     0
291
     1
 45
0.0
1001
ACAD
1000
AcDbSavedByObjectVersion
1070
     0
1000
AcDbSavedByObjectVersion
1070
     0
1000
AcDbSavedByObjectVersion
1070
     0
1000
AcDbSavedByObjectVersion
1070
     0
1000
AcDbSavedByObjectVersion
1070
     0
1000
AcDbSavedByObjectVersion
1070
     0
1000
AcDbSavedByObjectVersion
1070
     0
1000
AcDbSavedByObjectVersion
1070
     0
1000
AcDbSavedByObjectVersion
1070
     0
1000
AcDbSavedByObjectVersion
1070
     0
1000
AcDbSavedByObjectVersion
1070
     0
1000
AcDbSavedByObjectVersion
1070
     0
1000
AcDbSavedByObjectVersion
1070
     0
1000
AcDbSavedByObjectVersion
1070
     0
1000
AcDbSavedByObjectVersion
1070
     0
1000
AcDbSavedByObjectVersion
1070
     0
1000
AcDbSavedByObjectVersion
1070
     0
1000
AcDbSavedByObjectVersion
1070
     0
1000
AcDbSavedByObjectVersion
1070
     0
1000
AcDbSavedByObjectVersion
1070
     0
1000
AcDbSavedByObjectVersion
1070
     0
1000
AcDbSavedByObjectVersion
1070
     0
1000
AcDbSavedByObjectVersion
1070
     0
1000
AcDbSavedByObjectVersion
1070
     0
1000
AcDbSavedByObjectVersion
1070
     0
1000
AcDbSavedByObjectVersion
1070
     0
1000
AcDbSavedByObjectVersion
1070
     0
1000
AcDbSavedByObjectVersion
1070
     0
1000
AcDbSavedByObjectVersion
1070
     0
1000
AcDbSavedByObjectVersion
1070
     0
1000
AcDbSavedByObjectVersion
1070
     0
1000
AcDbSavedByObjectVersion
1070
     0
1000
AcDbSavedByObjectVersion
1070
     0
1000
AcDbSavedByObjectVersion
1070
     0
1000
AcDbSavedByObjectVersion
1070
     0
1000
AcDbSavedByObjectVersion
1070
     0
1000
AcDbSavedByObjectVersion
1070
     0
1000
AcDbSavedByObjectVersion
1070
     0
1000
AcDbSavedByObjectVersion
1070
     0
1000
AcDbSavedByObjectVersion
1070
     0
1000
AcDbSavedByObjectVersion
1070
     0
1000
AcDbSavedByObjectVersion
1070
     0
1000
AcDbSavedByObjectVersion
1070
     0
1000
AcDbSavedByObjectVersion
1070
     0
1000
AcDbSavedByObjectVersion
1070
     0
  0
VISUALSTYLE
  5
39
102
{ACAD_REACTORS
330
2A
102
}
330
2A
100
AcDbVisualStyle
  2
Facepattern
 70
    15
 71
     2
 72
     2
 73
     0
 90
        0
 40
-0.6
 41
-30.0
 62
     5
 63
     7
 74
     1
 91
        4
 64
     7
 65
   257
 75
     1
175
     1
 42
1.0
 92
        8
 66
     7
 43
1.0
 76
     1
 77
     6
 78
     2
 67
     7
 79
     5
170
     0
171
     0
290
     0
174
     0
 93
        1
 44
0.0
173
     0
291
     1
 45
0.0
1001
ACAD
1000
AcDbSavedByObjectVersion
1070
     0
1000
AcDbSavedByObjectVersion
1070
     0
1000
AcDbSavedByObjectVersion
1070
     0
1000
AcDbSavedByObjectVersion
1070
     0
1000
AcDbSavedByObjectVersion
1070
     0
1000
AcDbSavedByObjectVersion
1070
     0
1000
AcDbSavedByObjectVersion
1070
     0
1000
AcDbSavedByObjectVersion
1070
     0
1000
AcDbSavedByObjectVersion
1070
     0
1000
AcDbSavedByObjectVersion
1070
     0
1000
AcDbSavedByObjectVersion
1070
     0
1000
AcDbSavedByObjectVersion
1070
     0
1000
AcDbSavedByObjectVersion
1070
     0
1000
AcDbSavedByObjectVersion
1070
     0
1000
AcDbSavedByObjectVersion
1070
     0
1000
AcDbSavedByObjectVersion
1070
     0
1000
AcDbSavedByObjectVersion
1070
     0
1000
AcDbSavedByObjectVersion
1070
     0
1000
AcDbSavedByObjectVersion
1070
     0
1000
AcDbSavedByObjectVersion
1070
     0
1000
AcDbSavedByObjectVersion
1070
     0
1000
AcDbSavedByObjectVersion
1070
     0
1000
AcDbSavedByObjectVersion
1070
     0
1000
AcDbSavedByObjectVersion
1070
     0
1000
AcDbSavedByObjectVersion
1070
     0
1000
AcDbSavedByObjectVersion
1070
     0
1000
AcDbSavedByObjectVersion
1070
     0
1000
AcDbSavedByObjectVersion
1070
     0
1000
AcDbSavedByObjectVersion
1070
     0
1000
AcDbSavedByObjectVersion
1070
     0
1000
AcDbSavedByObjectVersion
1070
     0
1000
AcDbSavedByObjectVersion
1070
     0
1000
AcDbSavedByObjectVersion
1070
     0
1000
AcDbSavedByObjectVersion
1070
     0
1000
AcDbSavedByObjectVersion
1070
     0
1000
AcDbSavedByObjectVersion
1070
     0
1000
AcDbSavedByObjectVersion
1070
     0
1000
AcDbSavedByObjectVersion
1070
     0
1000
AcDbSavedByObjectVersion
1070
     0
1000
AcDbSavedByObjectVersion
1070
     0
1000
AcDbSavedByObjectVersion
1070
     0
1000
AcDbSavedByObjectVersion
1070
     0
1000
AcDbSavedByObjectVersion
1070
     0
1000
AcDbSavedByObjectVersion
1070
     0
1000
AcDbSavedByObjectVersion
1070
     0
  0
VISUALSTYLE
  5
2B
102
{ACAD_REACTORS
330
2A
102
}
330
2A
100
AcDbVisualStyle
  2
Flat
 70
     0
 71
     2
 72
     1
 73
     1
 90
        2
 40
-0.6
 41
30.0
 62
     5
 63
     7
 74
     0
 91
        4
 64
     7
 65
   257
 75
     1
175
     1
 42
1.0
 92
        8
 66
     7
 43
1.0
 76
     1
 77
     6
 78
     2
 67
     7
 79
     5
170
     0
171
     0
290
     0
174
     0
 93
       13
 44
0.0
173
     0
291
     1
 45
0.0
1001
ACAD
1000
AcDbSavedByObjectVersion
1070
     0
1000
AcDbSavedByObjectVersion
1070
     0
1000
AcDbSavedByObjectVersion
1070
     0
1000
AcDbSavedByObjectVersion
1070
     0
1000
AcDbSavedByObjectVersion
1070
     0
1000
AcDbSavedByObjectVersion
1070
     0
1000
AcDbSavedByObjectVersion
1070
     0
1000
AcDbSavedByObjectVersion
1070
     0
1000
AcDbSavedByObjectVersion
1070
     0
1000
AcDbSavedByObjectVersion
1070
     0
1000
AcDbSavedByObjectVersion
1070
     0
1000
AcDbSavedByObjectVersion
1070
     0
1000
AcDbSavedByObjectVersion
1070
     0
1000
AcDbSavedByObjectVersion
1070
     0
1000
AcDbSavedByObjectVersion
1070
     0
1000
AcDbSavedByObjectVersion
1070
     0
1000
AcDbSavedByObjectVersion
1070
     0
1000
AcDbSavedByObjectVersion
1070
     0
1000
AcDbSavedByObjectVersion
1070
     0
1000
AcDbSavedByObjectVersion
1070
     0
1000
AcDbSavedByObjectVersion
1070
     0
1000
AcDbSavedByObjectVersion
1070
     0
1000
AcDbSavedByObjectVersion
1070
     0
1000
AcDbSavedByObjectVersion
1070
     0
1000
AcDbSavedByObjectVersion
1070
     0
1000
AcDbSavedByObjectVersion
1070
     0
1000
AcDbSavedByObjectVersion
1070
     0
1000
AcDbSavedByObjectVersion
1070
     0
1000
AcDbSavedByObjectVersion
1070
     0
1000
AcDbSavedByObjectVersion
1070
     0
1000
AcDbSavedByObjectVersion
1070
     0
1000
AcDbSavedByObjectVersion
1070
     0
1000
AcDbSavedByObjectVersion
1070
     0
1000
AcDbSavedByObjectVersion
1070
     0
1000
AcDbSavedByObjectVersion
1070
     0
1000
AcDbSavedByObjectVersion
1070
     0
1000
AcDbSavedByObjectVersion
1070
     0
1000
AcDbSavedByObjectVersion
1070
     0
1000
AcDbSavedByObjectVersion
1070
     0
1000
AcDbSavedByObjectVersion
1070
     0
1000
AcDbSavedByObjectVersion
1070
     0
1000
AcDbSavedByObjectVersion
1070
     0
1000
AcDbSavedByObjectVersion
1070
     0
1000
AcDbSavedByObjectVersion
1070
     0
1000
AcDbSavedByObjectVersion
1070
     0
  0
VISUALSTYLE
  5
2C
102
{ACAD_REACTORS
330
2A
102
}
330
2A
100
AcDbVisualStyle
  2
FlatWithEdges
 70
     1
 71
     2
 72
     1
 73
     1
 90
        2
 40
-0.6
 41
30.0
 62
     5
 63
     7
 74
     1
 91
        4
 64
     7
 65
   257
 75
     1
175
     1
 42
1.0
 92
        0
 66
   257
 43
1.0
 76
     1
 77
     6
 78
     2
 67
     7
 79
     5
170
     0
171
     0
290
     0
174
     0
 93
       13
 44
0.0
173
     0
291
     1
 45
0.0
1001
ACAD
1000
AcDbSavedByObjectVersion
1070
     0
1000
AcDbSavedByObjectVersion
1070
     0
1000
AcDbSavedByObjectVersion
1070
     0
1000
AcDbSavedByObjectVersion
1070
     0
1000
AcDbSavedByObjectVersion
1070
     0
1000
AcDbSavedByObjectVersion
1070
     0
1000
AcDbSavedByObjectVersion
1070
     0
1000
AcDbSavedByObjectVersion
1070
     0
1000
AcDbSavedByObjectVersion
1070
     0
1000
AcDbSavedByObjectVersion
1070
     0
1000
AcDbSavedByObjectVersion
1070
     0
1000
AcDbSavedByObjectVersion
1070
     0
1000
AcDbSavedByObjectVersion
1070
     0
1000
AcDbSavedByObjectVersion
1070
     0
1000
AcDbSavedByObjectVersion
1070
     0
1000
AcDbSavedByObjectVersion
1070
     0
1000
AcDbSavedByObjectVersion
1070
     0
1000
AcDbSavedByObjectVersion
1070
     0
1000
AcDbSavedByObjectVersion
1070
     0
1000
AcDbSavedByObjectVersion
1070
     0
1000
AcDbSavedByObjectVersion
1070
     0
1000
AcDbSavedByObjectVersion
1070
     0
1000
AcDbSavedByObjectVersion
1070
     0
1000
AcDbSavedByObjectVersion
1070
     0
1000
AcDbSavedByObjectVersion
1070
     0
1000
AcDbSavedByObjectVersion
1070
     0
1000
AcDbSavedByObjectVersion
1070
     0
1000
AcDbSavedByObjectVersion
1070
     0
1000
AcDbSavedByObjectVersion
1070
     0
1000
AcDbSavedByObjectVersion
1070
     0
1000
AcDbSavedByObjectVersion
1070
     0
1000
AcDbSavedByObjectVersion
1070
     0
1000
AcDbSavedByObjectVersion
1070
     0
1000
AcDbSavedByObjectVersion
1070
     0
1000
AcDbSavedByObjectVersion
1070
     0
1000
AcDbSavedByObjectVersion
1070
     0
1000
AcDbSavedByObjectVersion
1070
     0
1000
AcDbSavedByObjectVersion
1070
     0
1000
AcDbSavedByObjectVersion
1070
     0
1000
AcDbSavedByObjectVersion
1070
     0
1000
AcDbSavedByObjectVersion
1070
     0
1000
AcDbSavedByObjectVersion
1070
     0
1000
AcDbSavedByObjectVersion
1070
     0
1000
AcDbSavedByObjectVersion
1070
     0
1000
AcDbSavedByObjectVersion
1070
     0
  0
VISUALSTYLE
  5
2D
102
{ACAD_REACTORS
330
2A
102
}
330
2A
100
AcDbVisualStyle
  2
Gouraud
 70
     2
 71
     2
 72
     2
 73
     1
 90
        2
 40
-0.6
 41
30.0
 62
     5
 63
     7
 74
     0
 91
        4
 64
     7
 65
   257
 75
     1
175
     1
 42
1.0
 92
        0
 66
     7
 43
1.0
 76
     1
 77
     6
 78
     2
 67
     7
 79
     5
170
     0
171
     0
290
     0
174
     0
 93
       13
 44
0.0
173
     0
291
     1
 45
0.0
1001
ACAD
1000
AcDbSavedByObjectVersion
1070
     0
1000
AcDbSavedByObjectVersion
1070
     0
1000
AcDbSavedByObjectVersion
1070
     0
1000
AcDbSavedByObjectVersion
1070
     0
1000
AcDbSavedByObjectVersion
1070
     0
1000
AcDbSavedByObjectVersion
1070
     0
1000
AcDbSavedByObjectVersion
1070
     0
1000
AcDbSavedByObjectVersion
1070
     0
1000
AcDbSavedByObjectVersion
1070
     0
1000
AcDbSavedByObjectVersion
1070
     0
1000
AcDbSavedByObjectVersion
1070
     0
1000
AcDbSavedByObjectVersion
1070
     0
1000
AcDbSavedByObjectVersion
1070
     0
1000
AcDbSavedByObjectVersion
1070
     0
1000
AcDbSavedByObjectVersion
1070
     0
1000
AcDbSavedByObjectVersion
1070
     0
1000
AcDbSavedByObjectVersion
1070
     0
1000
AcDbSavedByObjectVersion
1070
     0
1000
AcDbSavedByObjectVersion
1070
     0
1000
AcDbSavedByObjectVersion
1070
     0
1000
AcDbSavedByObjectVersion
1070
     0
1000
AcDbSavedByObjectVersion
1070
     0
1000
AcDbSavedByObjectVersion
1070
     0
1000
AcDbSavedByObjectVersion
1070
     0
1000
AcDbSavedByObjectVersion
1070
     0
1000
AcDbSavedByObjectVersion
1070
     0
1000
AcDbSavedByObjectVersion
1070
     0
1000
AcDbSavedByObjectVersion
1070
     0
1000
AcDbSavedByObjectVersion
1070
     0
1000
AcDbSavedByObjectVersion
1070
     0
1000
AcDbSavedByObjectVersion
1070
     0
1000
AcDbSavedByObjectVersion
1070
     0
1000
AcDbSavedByObjectVersion
1070
     0
1000
AcDbSavedByObjectVersion
1070
     0
1000
AcDbSavedByObjectVersion
1070
     0
1000
AcDbSavedByObjectVersion
1070
     0
1000
AcDbSavedByObjectVersion
1070
     0
1000
AcDbSavedByObjectVersion
1070
     0
1000
AcDbSavedByObjectVersion
1070
     0
1000
AcDbSavedByObjectVersion
1070
     0
1000
AcDbSavedByObjectVersion
1070
     0
1000
AcDbSavedByObjectVersion
1070
     0
1000
AcDbSavedByObjectVersion
1070
     0
1000
AcDbSavedByObjectVersion
1070
     0
1000
AcDbSavedByObjectVersion
1070
     0
  0
VISUALSTYLE
  5
2E
102
{ACAD_REACTORS
330
2A
102
}
330
2A
100
AcDbVisualStyle
  2
GouraudWithEdges
 70
     3
 71
     2
 72
     2
 73
     1
 90
        2
 40
-0.6
 41
30.0
 62
     5
 63
     7
 74
     1
 91
        4
 64
     7
 65
   257
 75
     1
175
     1
 42
1.0
 92
        0
 66
   257
 43
1.0
 76
     1
 77
     6
 78
     2
 67
     7
 79
     5
170
     0
171
     0
290
     0
174
     0
 93
       13
 44
0.0
173
     0
291
     1
 45
0.0
1001
ACAD
1000
AcDbSavedByObjectVersion
1070
     0
1000
AcDbSavedByObjectVersion
1070
     0
1000
AcDbSavedByObjectVersion
1070
     0
1000
AcDbSavedByObjectVersion
1070
     0
1000
AcDbSavedByObjectVersion
1070
     0
1000
AcDbSavedByObjectVersion
1070
     0
1000
AcDbSavedByObjectVersion
1070
     0
1000
AcDbSavedByObjectVersion
1070
     0
1000
AcDbSavedByObjectVersion
1070
     0
1000
AcDbSavedByObjectVersion
1070
     0
1000
AcDbSavedByObjectVersion
1070
     0
1000
AcDbSavedByObjectVersion
1070
     0
1000
AcDbSavedByObjectVersion
1070
     0
1000
AcDbSavedByObjectVersion
1070
     0
1000
AcDbSavedByObjectVersion
1070
     0
1000
AcDbSavedByObjectVersion
1070
     0
1000
AcDbSavedByObjectVersion
1070
     0
1000
AcDbSavedByObjectVersion
1070
     0
1000
AcDbSavedByObjectVersion
1070
     0
1000
AcDbSavedByObjectVersion
1070
     0
1000
AcDbSavedByObjectVersion
1070
     0
1000
AcDbSavedByObjectVersion
1070
     0
1000
AcDbSavedByObjectVersion
1070
     0
1000
AcDbSavedByObjectVersion
1070
     0
1000
AcDbSavedByObjectVersion
1070
     0
1000
AcDbSavedByObjectVersion
1070
     0
1000
AcDbSavedByObjectVersion
1070
     0
1000
AcDbSavedByObjectVersion
1070
     0
1000
AcDbSavedByObjectVersion
1070
     0
1000
AcDbSavedByObjectVersion
1070
     0
1000
AcDbSavedByObjectVersion
1070
     0
1000
AcDbSavedByObjectVersion
1070
     0
1000
AcDbSavedByObjectVersion
1070
     0
1000
AcDbSavedByObjectVersion
1070
     0
1000
AcDbSavedByObjectVersion
1070
     0
1000
AcDbSavedByObjectVersion
1070
     0
1000
AcDbSavedByObjectVersion
1070
     0
1000
AcDbSavedByObjectVersion
1070
     0
1000
AcDbSavedByObjectVersion
1070
     0
1000
AcDbSavedByObjectVersion
1070
     0
1000
AcDbSavedByObjectVersion
1070
     0
1000
AcDbSavedByObjectVersion
1070
     0
1000
AcDbSavedByObjectVersion
1070
     0
1000
AcDbSavedByObjectVersion
1070
     0
1000
AcDbSavedByObjectVersion
1070
     0
  0
VISUALSTYLE
  5
38
102
{ACAD_REACTORS
330
2A
102
}
330
2A
100
AcDbVisualStyle
  2
Linepattern
 70
    14
 71
     2
 72
     2
 73
     0
 90
        0
 40
-0.6
 41
-30.0
 62
     5
 63
     7
 74
     1
 91
        4
 64
     7
 65
   257
 75
     7
175
     7
 42
1.0
 92
        8
 66
     7
 43
1.0
 76
     1
 77
     6
 78
     2
 67
     7
 79
     5
170
     0
171
     0
290
     0
174
     0
 93
        1
 44
0.0
173
     0
291
     1
 45
0.0
1001
ACAD
1000
AcDbSavedByObjectVersion
1070
     0
1000
AcDbSavedByObjectVersion
1070
     0
1000
AcDbSavedByObjectVersion
1070
     0
1000
AcDbSavedByObjectVersion
1070
     0
1000
AcDbSavedByObjectVersion
1070
     0
1000
AcDbSavedByObjectVersion
1070
     0
1000
AcDbSavedByObjectVersion
1070
     0
1000
AcDbSavedByObjectVersion
1070
     0
1000
AcDbSavedByObjectVersion
1070
     0
1000
AcDbSavedByObjectVersion
1070
     0
1000
AcDbSavedByObjectVersion
1070
     0
1000
AcDbSavedByObjectVersion
1070
     0
1000
AcDbSavedByObjectVersion
1070
     0
1000
AcDbSavedByObjectVersion
1070
     0
1000
AcDbSavedByObjectVersion
1070
     0
1000
AcDbSavedByObjectVersion
1070
     0
1000
AcDbSavedByObjectVersion
1070
     0
1000
AcDbSavedByObjectVersion
1070
     0
1000
AcDbSavedByObjectVersion
1070
     0
1000
AcDbSavedByObjectVersion
1070
     0
1000
AcDbSavedByObjectVersion
1070
     0
1000
AcDbSavedByObjectVersion
1070
     0
1000
AcDbSavedByObjectVersion
1070
     0
1000
AcDbSavedByObjectVersion
1070
     0
1000
AcDbSavedByObjectVersion
1070
     0
1000
AcDbSavedByObjectVersion
1070
     0
1000
AcDbSavedByObjectVersion
1070
     0
1000
AcDbSavedByObjectVersion
1070
     0
1000
AcDbSavedByObjectVersion
1070
     0
1000
AcDbSavedByObjectVersion
1070
     0
1000
AcDbSavedByObjectVersion
1070
     0
1000
AcDbSavedByObjectVersion
1070
     0
1000
AcDbSavedByObjectVersion
1070
     0
1000
AcDbSavedByObjectVersion
1070
     0
1000
AcDbSavedByObjectVersion
1070
     0
1000
AcDbSavedByObjectVersion
1070
     0
1000
AcDbSavedByObjectVersion
1070
     0
1000
AcDbSavedByObjectVersion
1070
     0
1000
AcDbSavedByObjectVersion
1070
     0
1000
AcDbSavedByObjectVersion
1070
     0
1000
AcDbSavedByObjectVersion
1070
     0
1000
AcDbSavedByObjectVersion
1070
     0
1000
AcDbSavedByObjectVersion
1070
     0
1000
AcDbSavedByObjectVersion
1070
     0
1000
AcDbSavedByObjectVersion
1070
     0
  0
VISUALSTYLE
  5
33
102
{ACAD_REACTORS
330
2A
102
}
330
2A
100
AcDbVisualStyle
  2
Realistic
 70
     8
 71
     2
 72
     2
 73
     0
 90
        0
 40
-0.6
 41
-30.0
 62
     5
 63
     7
 74
     1
 91
        0
 64
     7
 65
   257
 75
     1
175
     1
 42
1.0
 92
        8
 66
     8
 43
1.0
 76
     1
 77
     6
 78
     2
 67
     7
 79
     5
170
     0
171
     0
290
     0
174
     0
 93
       13
 44
0.0
173
     0
291
     0
 45
0.0
1001
ACAD
1000
AcDbSavedByObjectVersion
1070
     0
1000
AcDbSavedByObjectVersion
1070
     0
1000
AcDbSavedByObjectVersion
1070
     0
1000
AcDbSavedByObjectVersion
1070
     0
1000
AcDbSavedByObjectVersion
1070
     0
1000
AcDbSavedByObjectVersion
1070
     0
1000
AcDbSavedByObjectVersion
1070
     0
1000
AcDbSavedByObjectVersion
1070
     0
1000
AcDbSavedByObjectVersion
1070
     0
1000
AcDbSavedByObjectVersion
1070
     0
1000
AcDbSavedByObjectVersion
1070
     0
1000
AcDbSavedByObjectVersion
1070
     0
1000
AcDbSavedByObjectVersion
1070
     0
1000
AcDbSavedByObjectVersion
1070
     0
1000
AcDbSavedByObjectVersion
1070
     0
1000
AcDbSavedByObjectVersion
1070
     0
1000
AcDbSavedByObjectVersion
1070
     0
1000
AcDbSavedByObjectVersion
1070
     0
1000
AcDbSavedByObjectVersion
1070
     0
1000
AcDbSavedByObjectVersion
1070
     0
1000
AcDbSavedByObjectVersion
1070
     0
1000
AcDbSavedByObjectVersion
1070
     0
1000
AcDbSavedByObjectVersion
1070
     0
1000
AcDbSavedByObjectVersion
1070
     0
1000
AcDbSavedByObjectVersion
1070
     0
1000
AcDbSavedByObjectVersion
1070
     0
1000
AcDbSavedByObjectVersion
1070
     0
1000
AcDbSavedByObjectVersion
1070
     0
1000
AcDbSavedByObjectVersion
1070
     0
1000
AcDbSavedByObjectVersion
1070
     0
1000
AcDbSavedByObjectVersion
1070
     0
1000
AcDbSavedByObjectVersion
1070
     0
1000
AcDbSavedByObjectVersion
1070
     0
1000
AcDbSavedByObjectVersion
1070
     0
1000
AcDbSavedByObjectVersion
1070
     0
1000
AcDbSavedByObjectVersion
1070
     0
1000
AcDbSavedByObjectVersion
1070
     0
1000
AcDbSavedByObjectVersion
1070
     0
1000
AcDbSavedByObjectVersion
1070
     0
1000
AcDbSavedByObjectVersion
1070
     0
1000
AcDbSavedByObjectVersion
1070
     0
1000
AcDbSavedByObjectVersion
1070
     0
1000
AcDbSavedByObjectVersion
1070
     0
1000
AcDbSavedByObjectVersion
1070
     0
1000
AcDbSavedByObjectVersion
1070
     0
  0
VISUALSTYLE
  5
37
102
{ACAD_REACTORS
330
2A
102
}
330
2A
100
AcDbVisualStyle
  2
Thicken
 70
    13
 71
     2
 72
     2
 73
     0
 90
        0
 40
-0.6
 41
-30.0
 62
     5
 63
     7
 74
     1
 91
        4
 64
     7
 65
   257
 75
     1
175
     1
 42
1.0
 92
       12
 66
     7
 43
1.0
 76
     1
 77
     6
 78
     2
 67
     7
 79
     5
170
     0
171
     0
290
     0
174
     0
 93
        1
 44
0.0
173
     0
291
     1
 45
0.0
1001
ACAD
1000
AcDbSavedByObjectVersion
1070
     0
1000
AcDbSavedByObjectVersion
1070
     0
1000
AcDbSavedByObjectVersion
1070
     0
1000
AcDbSavedByObjectVersion
1070
     0
1000
AcDbSavedByObjectVersion
1070
     0
1000
AcDbSavedByObjectVersion
1070
     0
1000
AcDbSavedByObjectVersion
1070
     0
1000
AcDbSavedByObjectVersion
1070
     0
1000
AcDbSavedByObjectVersion
1070
     0
1000
AcDbSavedByObjectVersion
1070
     0
1000
AcDbSavedByObjectVersion
1070
     0
1000
AcDbSavedByObjectVersion
1070
     0
1000
AcDbSavedByObjectVersion
1070
     0
1000
AcDbSavedByObjectVersion
1070
     0
1000
AcDbSavedByObjectVersion
1070
     0
1000
AcDbSavedByObjectVersion
1070
     0
1000
AcDbSavedByObjectVersion
1070
     0
1000
AcDbSavedByObjectVersion
1070
     0
1000
AcDbSavedByObjectVersion
1070
     0
1000
AcDbSavedByObjectVersion
1070
     0
1000
AcDbSavedByObjectVersion
1070
     0
1000
AcDbSavedByObjectVersion
1070
     0
1000
AcDbSavedByObjectVersion
1070
     0
1000
AcDbSavedByObjectVersion
1070
     0
1000
AcDbSavedByObjectVersion
1070
     0
1000
AcDbSavedByObjectVersion
1070
     0
1000
AcDbSavedByObjectVersion
1070
     0
1000
AcDbSavedByObjectVersion
1070
     0
1000
AcDbSavedByObjectVersion
1070
     0
1000
AcDbSavedByObjectVersion
1070
     0
1000
AcDbSavedByObjectVersion
1070
     0
1000
AcDbSavedByObjectVersion
1070
     0
1000
AcDbSavedByObjectVersion
1070
     0
1000
AcDbSavedByObjectVersion
1070
     0
1000
AcDbSavedByObjectVersion
1070
     0
1000
AcDbSavedByObjectVersion
1070
     0
1000
AcDbSavedByObjectVersion
1070
     0
1000
AcDbSavedByObjectVersion
1070
     0
1000
AcDbSavedByObjectVersion
1070
     0
1000
AcDbSavedByObjectVersion
1070
     0
1000
AcDbSavedByObjectVersion
1070
     0
1000
AcDbSavedByObjectVersion
1070
     0
1000
AcDbSavedByObjectVersion
1070
     0
1000
AcDbSavedByObjectVersion
1070
     0
1000
AcDbSavedByObjectVersion
1070
     0
  0
DICTIONARYVAR
  5
510B
102
{ACAD_REACTORS
330
5108
102
}
330
5108
100
DictionaryVariables
280
     0
  1
1:1
  0
DICTIONARYVAR
  5
510A
102
{ACAD_REACTORS
330
5108
102
}
330
5108
100
DictionaryVariables
280
     0
  1
STANDARD
  0
DICTIONARYVAR
  5
5109
102
{ACAD_REACTORS
330
5108
102
}
330
5108
100
DictionaryVariables
280
     0
  1
STANDARD
  0
DICTIONARYVAR
  5
510E
102
{ACAD_REACTORS
330
5108
102
}
330
5108
100
DictionaryVariables
280
     0
  1
1
  0
DICTIONARYVAR
  5
510D
102
{ACAD_REACTORS
330
5108
102
}
330
5108
100
DictionaryVariables
280
     0
  1
0
  0
DICTIONARYVAR
  5
510C
102
{ACAD_REACTORS
330
5108
102
}
330
5108
100
DictionaryVariables
280
     0
  1
127
  0
XRECORD
  5
11ACF
102
{ACAD_REACTORS
330
11ACE
102
}
330
11ACE
100
AcDbXrecord
280
     1
330
11089
  0
DICTIONARY
  5
149AE
330
1E
100
AcDbDictionary
280
     1
281
     1
  3
ACAD_XREC_ROUNDTRIP
360
149AF
  0
DICTIONARY
  5
149B2
330
26
100
AcDbDictionary
280
     1
281
     1
  3
ACAD_XREC_ROUNDTRIP
360
149B3
  0
DICTIONARY
  5
149B0
330
22
100
AcDbDictionary
280
     1
281
     1
  3
ACAD_XREC_ROUNDTRIP
360
149B1
  0
DICTIONARY
  5
4FEF
330
4FEE
100
AcDbDictionary
280
     1
281
     1
  3
ACAD_XREC_ROUNDTRIP
360
7C2C
  3
BUMPTILE
360
4FF1
  3
DIFFUSETILE
360
4FF0
  3
OPACITYTILE
360
4FF4
  3
REFLECTIONTILE
360
4FF3
  3
REFRACTIONTILE
360
4FF5
  3
SPECULARTILE
360
4FF2
  0
DICTIONARY
  5
4FE7
330
4FE6
100
AcDbDictionary
280
     1
281
     1
  3
ACAD_XREC_ROUNDTRIP
360
7C2B
  3
BUMPTILE
360
4FE9
  3
DIFFUSETILE
360
4FE8
  3
OPACITYTILE
360
4FEC
  3
REFLECTIONTILE
360
4FEB
  3
REFRACTIONTILE
360
4FED
  3
SPECULARTILE
360
4FEA
  0
DICTIONARY
  5
4FF7
330
4FF6
100
AcDbDictionary
280
     1
281
     1
  3
ACAD_XREC_ROUNDTRIP
360
7C2D
  3
BUMPTILE
360
4FF9
  3
DIFFUSETILE
360
4FF8
  3
OPACITYTILE
360
4FFC
  3
REFLECTIONTILE
360
4FFB
  3
REFRACTIONTILE
360
4FFD
  3
SPECULARTILE
360
4FFA
  0
DICTIONARY
  5
50D6
330
4FFF
100
AcDbDictionary
280
     1
281
     1
  3
ACAD_ROUNDTRIP_2008_TABLESTYLE_CELLSTYLEMAP
360
14990
  3
ACAD_XREC_ROUNDTRIP
360
149B4
  0
XRECORD
  5
149AF
102
{ACAD_REACTORS
330
149AE
102
}
330
149AE
100
AcDbXrecord
280
     1
102
SHADEPLOT
 70
     0
102
SHADEPLOTRESLEVEL
 70
     2
102
SHADEPLOTCUSTOMDPI
 70
   300
  0
XRECORD
  5
149B3
102
{ACAD_REACTORS
330
149B2
102
}
330
149B2
100
AcDbXrecord
280
     1
102
SHADEPLOT
 70
     0
102
SHADEPLOTRESLEVEL
 70
     2
102
SHADEPLOTCUSTOMDPI
 70
   300
  0
XRECORD
  5
149B1
102
{ACAD_REACTORS
330
149B0
102
}
330
149B0
100
AcDbXrecord
280
     1
102
SHADEPLOT
 70
     1
102
SHADEPLOTRESLEVEL
 70
     2
102
SHADEPLOTCUSTOMDPI
 70
   300
  0
XRECORD
  5
7C2C
102
{ACAD_REACTORS
330
4FEF
102
}
330
4FEF
100
AcDbXrecord
280
     1
102
MATERIAL
148
0.0
149
0.0
149
0.0
 93
        0
 94
      127
282
     0
 72
     0
 77
     0
171
     0
175
     0
179
     0
273
     0
  0
XRECORD
  5
4FF1
102
{ACAD_REACTORS
330
4FEF
102
}
330
4FEF
100
AcDbXrecord
280
     1
270
     1
271
     1
  0
XRECORD
  5
4FF0
102
{ACAD_REACTORS
330
4FEF
102
}
330
4FEF
100
AcDbXrecord
280
     1
270
     1
271
     1
  0
XRECORD
  5
4FF4
102
{ACAD_REACTORS
330
4FEF
102
}
330
4FEF
100
AcDbXrecord
280
     1
270
     1
271
     1
  0
XRECORD
  5
4FF3
102
{ACAD_REACTORS
330
4FEF
102
}
330
4FEF
100
AcDbXrecord
280
     1
270
     1
271
     1
  0
XRECORD
  5
4FF5
102
{ACAD_REACTORS
330
4FEF
102
}
330
4FEF
100
AcDbXrecord
280
     1
270
     1
271
     1
  0
XRECORD
  5
4FF2
102
{ACAD_REACTORS
330
4FEF
102
}
330
4FEF
100
AcDbXrecord
280
     1
270
     1
271
     1
  0
XRECORD
  5
7C2B
102
{ACAD_REACTORS
330
4FE7
102
}
330
4FE7
100
AcDbXrecord
280
     1
102
MATERIAL
148
0.0
149
0.0
149
0.0
 93
        0
 94
      127
282
     0
 72
     0
 77
     0
171
     0
175
     0
179
     0
273
     0
  0
XRECORD
  5
4FE9
102
{ACAD_REACTORS
330
4FE7
102
}
330
4FE7
100
AcDbXrecord
280
     1
270
     1
271
     1
  0
XRECORD
  5
4FE8
102
{ACAD_REACTORS
330
4FE7
102
}
330
4FE7
100
AcDbXrecord
280
     1
270
     1
271
     1
  0
XRECORD
  5
4FEC
102
{ACAD_REACTORS
330
4FE7
102
}
330
4FE7
100
AcDbXrecord
280
     1
270
     1
271
     1
  0
XRECORD
  5
4FEB
102
{ACAD_REACTORS
330
4FE7
102
}
330
4FE7
100
AcDbXrecord
280
     1
270
     1
271
     1
  0
XRECORD
  5
4FED
102
{ACAD_REACTORS
330
4FE7
102
}
330
4FE7
100
AcDbXrecord
280
     1
270
     1
271
     1
  0
XRECORD
  5
4FEA
102
{ACAD_REACTORS
330
4FE7
102
}
330
4FE7
100
AcDbXrecord
280
     1
270
     1
271
     1
  0
XRECORD
  5
7C2D
102
{ACAD_REACTORS
330
4FF7
102
}
330
4FF7
100
AcDbXrecord
280
     1
102
MATERIAL
148
0.0
149
0.0
149
0.0
 93
        0
 94
      127
282
     0
 72
     0
 77
     0
171
     0
175
     0
179
     0
273
     0
  0
XRECORD
  5
4FF9
102
{ACAD_REACTORS
330
4FF7
102
}
330
4FF7
100
AcDbXrecord
280
     1
270
     1
271
     1
  0
XRECORD
  5
4FF8
102
{ACAD_REACTORS
330
4FF7
102
}
330
4FF7
100
AcDbXrecord
280
     1
270
     1
271
     1
  0
XRECORD
  5
4FFC
102
{ACAD_REACTORS
330
4FF7
102
}
330
4FF7
100
AcDbXrecord
280
     1
270
     1
271
     1
  0
XRECORD
  5
4FFB
102
{ACAD_REACTORS
330
4FF7
102
}
330
4FF7
100
AcDbXrecord
280
     1
270
     1
271
     1
  0
XRECORD
  5
4FFD
102
{ACAD_REACTORS
330
4FF7
102
}
330
4FF7
100
AcDbXrecord
280
     1
270
     1
271
     1
  0
XRECORD
  5
4FFA
102
{ACAD_REACTORS
330
4FF7
102
}
330
4FF7
100
AcDbXrecord
280
     1
270
     1
271
     1
  0
CELLSTYLEMAP
  5
14990
102
{ACAD_REACTORS
330
50D6
102
}
330
50D6
100
AcDbCellStyleMap
 90
        3
300
CELLSTYLE
  1
TABLEFORMAT_BEGIN
 90
        5
170
     1
 91
        0
 92
    32768
 62
   257
 93
        1
300
CONTENTFORMAT
  1
CONTENTFORMAT_BEGIN
 90
        0
 91
        0
 92
      512
 93
        0
300

 40
0.0
140
1.0
 94
        5
 62
     0
340
11
144
0.25
309
CONTENTFORMAT_END
171
     1
301
MARGIN
  1
CELLMARGIN_BEGIN
 40
0.06
 40
0.06
 40
0.06
 40
0.06
 40
0.18
 40
0.18
309
CELLMARGIN_END
 94
        6
 95
        1
302
GRIDFORMAT
  1
GRIDFORMAT_BEGIN
 90
        0
 91
        1
 62
     0
 92
       -2
340
0
 93
        0
 40
0.045
309
GRIDFORMAT_END
 95
        2
302
GRIDFORMAT
  1
GRIDFORMAT_BEGIN
 90
        0
 91
        1
 62
     0
 92
       -2
340
0
 93
        0
 40
0.045
309
GRIDFORMAT_END
 95
        4
302
GRIDFORMAT
  1
GRIDFORMAT_BEGIN
 90
        0
 91
        1
 62
     0
 92
       -2
340
0
 93
        0
 40
0.045
309
GRIDFORMAT_END
 95
        8
302
GRIDFORMAT
  1
GRIDFORMAT_BEGIN
 90
        0
 91
        1
 62
     0
 92
       -2
340
0
 93
        0
 40
0.045
309
GRIDFORMAT_END
 95
       16
302
GRIDFORMAT
  1
GRIDFORMAT_BEGIN
 90
        0
 91
        1
 62
     0
 92
       -2
340
0
 93
        0
 40
0.045
309
GRIDFORMAT_END
 95
       32
302
GRIDFORMAT
  1
GRIDFORMAT_BEGIN
 90
        0
 91
        1
 62
     0
 92
       -2
340
0
 93
        0
 40
0.045
309
GRIDFORMAT_END
309
TABLEFORMAT_END
  1
CELLSTYLE_BEGIN
 90
        1
 91
        1
300
_TITLE
309
CELLSTYLE_END
300
CELLSTYLE
  1
TABLEFORMAT_BEGIN
 90
        5
170
     1
 91
        0
 92
        0
 62
   257
 93
        1
300
CONTENTFORMAT
  1
CONTENTFORMAT_BEGIN
 90
        0
 91
        0
 92
      512
 93
        0
300

 40
0.0
140
1.0
 94
        5
 62
     0
340
11
144
0.18
309
CONTENTFORMAT_END
171
     1
301
MARGIN
  1
CELLMARGIN_BEGIN
 40
0.06
 40
0.06
 40
0.06
 40
0.06
 40
0.18
 40
0.18
309
CELLMARGIN_END
 94
        6
 95
        1
302
GRIDFORMAT
  1
GRIDFORMAT_BEGIN
 90
        0
 91
        1
 62
     0
 92
       -2
340
0
 93
        0
 40
0.045
309
GRIDFORMAT_END
 95
        2
302
GRIDFORMAT
  1
GRIDFORMAT_BEGIN
 90
        0
 91
        1
 62
     0
 92
       -2
340
0
 93
        0
 40
0.045
309
GRIDFORMAT_END
 95
        4
302
GRIDFORMAT
  1
GRIDFORMAT_BEGIN
 90
        0
 91
        1
 62
     0
 92
       -2
340
0
 93
        0
 40
0.045
309
GRIDFORMAT_END
 95
        8
302
GRIDFORMAT
  1
GRIDFORMAT_BEGIN
 90
        0
 91
        1
 62
     0
 92
       -2
340
0
 93
        0
 40
0.045
309
GRIDFORMAT_END
 95
       16
302
GRIDFORMAT
  1
GRIDFORMAT_BEGIN
 90
        0
 91
        1
 62
     0
 92
       -2
340
0
 93
        0
 40
0.045
309
GRIDFORMAT_END
 95
       32
302
GRIDFORMAT
  1
GRIDFORMAT_BEGIN
 90
        0
 91
        1
 62
     0
 92
       -2
340
0
 93
        0
 40
0.045
309
GRIDFORMAT_END
309
TABLEFORMAT_END
  1
CELLSTYLE_BEGIN
 90
        2
 91
        1
300
_HEADER
309
CELLSTYLE_END
300
CELLSTYLE
  1
TABLEFORMAT_BEGIN
 90
        5
170
     1
 91
        0
 92
        0
 62
   257
 93
        1
300
CONTENTFORMAT
  1
CONTENTFORMAT_BEGIN
 90
        0
 91
        0
 92
      512
 93
        0
300

 40
0.0
140
1.0
 94
        2
 62
     0
340
11
144
0.18
309
CONTENTFORMAT_END
171
     1
301
MARGIN
  1
CELLMARGIN_BEGIN
 40
0.06
 40
0.06
 40
0.06
 40
0.06
 40
0.18
 40
0.18
309
CELLMARGIN_END
 94
        6
 95
        1
302
GRIDFORMAT
  1
GRIDFORMAT_BEGIN
 90
        0
 91
        1
 62
     0
 92
       -2
340
0
 93
        0
 40
0.045
309
GRIDFORMAT_END
 95
        2
302
GRIDFORMAT
  1
GRIDFORMAT_BEGIN
 90
        0
 91
        1
 62
     0
 92
       -2
340
0
 93
        0
 40
0.045
309
GRIDFORMAT_END
 95
        4
302
GRIDFORMAT
  1
GRIDFORMAT_BEGIN
 90
        0
 91
        1
 62
     0
 92
       -2
340
0
 93
        0
 40
0.045
309
GRIDFORMAT_END
 95
        8
302
GRIDFORMAT
  1
GRIDFORMAT_BEGIN
 90
        0
 91
        1
 62
     0
 92
       -2
340
0
 93
        0
 40
0.045
309
GRIDFORMAT_END
 95
       16
302
GRIDFORMAT
  1
GRIDFORMAT_BEGIN
 90
        0
 91
        1
 62
     0
 92
       -2
340
0
 93
        0
 40
0.045
309
GRIDFORMAT_END
 95
       32
302
GRIDFORMAT
  1
GRIDFORMAT_BEGIN
 90
        0
 91
        1
 62
     0
 92
       -2
340
0
 93
        0
 40
0.045
309
GRIDFORMAT_END
309
TABLEFORMAT_END
  1
CELLSTYLE_BEGIN
 90
        3
 91
        2
300
_DATA
309
CELLSTYLE_END
  0
XRECORD
  5
149B4
102
{ACAD_REACTORS
330
50D6
102
}
330
50D6
100
AcDbXrecord
280
     1
102
ACAD_ROUNDTRIP_PRE2007_TABLESTYLE
 90
      512
 91
        0
  1

 92
      512
 93
        0
  2

 94
      512
 95
        0
  3

  0
ENDSEC
  0
EOF
