  0
SECTION
  2
HEADER
  9
$ACADVER
  1
AC1015
  9
$ACADMAINTVER
 70
    20
  9
$DWGCODEPAGE
  3
ANSI_936
  9
$INSBASE
 10
0.0
 20
0.0
 30
0.0
  9
$EXTMIN
 10
375.5562134814872
 20
184.529655967694
 30
-0.0015258207003583
  9
$EXTMAX
 10
672.6652799046124
 20
394.5792560126008
 30
0.0000000349246037
  9
$LIMMIN
 10
0.0
 20
0.0
  9
$LIMMAX
 10
12.0
 20
9.0
  9
$ORTHOMODE
 70
     1
  9
$REGENMODE
 70
     1
  9
$FILLMODE
 70
     1
  9
$QTEXTMODE
 70
     0
  9
$MIRRTEXT
 70
     1
  9
$LTSCALE
 40
1.0
  9
$ATTMODE
 70
     1
  9
$TEXTSIZE
 40
0.2
  9
$TRACEWID
 40
0.05
  9
$TEXTSTYLE
  7
Standard
  9
$CLAYER
  8
DIM
  9
$CELTYPE
  6
ByLayer
  9
$CECOLOR
 62
   256
  9
$CELTSCALE
 40
1.0
  9
$DISPSILH
 70
     0
  9
$DIMSCALE
 40
1.0
  9
$DIMASZ
 40
3.0
  9
$DIMEXO
 40
0.2
  9
$DIMDLI
 40
0.2
  9
$DIMRND
 40
0.0
  9
$DIMDLE
 40
0.0
  9
$DIMEXE
 40
1.199999999999999
  9
$DIMTP
 40
0.0
  9
$DIMTM
 40
0.0
  9
$DIMTXT
 40
3.5
  9
$DIMCEN
 40
0.0
  9
$DIMTSZ
 40
0.0
  9
$DIMTOL
 70
     0
  9
$DIMLIM
 70
     0
  9
$DIMTIH
 70
     0
  9
$DIMTOH
 70
     0
  9
$DIMSE1
 70
     0
  9
$DIMSE2
 70
     0
  9
$DIMTAD
 70
     1
  9
$DIMZIN
 70
     8
  9
$DIMBLK
  1

  9
$DIMASO
 70
     1
  9
$DIMSHO
 70
     1
  9
$DIMPOST
  1

  9
$DIMAPOST
  1

  9
$DIMALT
 70
     0
  9
$DIMALTD
 70
     2
  9
$DIMALTF
 40
25.4
  9
$DIMLFAC
 40
1.0
  9
$DIMTOFL
 70
     0
  9
$DIMTVP
 40
0.0
  9
$DIMTIX
 70
     0
  9
$DIMSOXD
 70
     0
  9
$DIMSAH
 70
     0
  9
$DIMBLK1
  1

  9
$DIMBLK2
  1

  9
$DIMSTYLE
  2
01
  9
$DIMCLRD
 70
     1
  9
$DIMCLRE
 70
     6
  9
$DIMCLRT
 70
     4
  9
$DIMTFAC
 40
1.0
  9
$DIMGAP
 40
0.8
  9
$DIMJUST
 70
     0
  9
$DIMSD1
 70
     0
  9
$DIMSD2
 70
     0
  9
$DIMTOLJ
 70
     1
  9
$DIMTZIN
 70
     0
  9
$DIMALTZ
 70
     0
  9
$DIMALTTZ
 70
     0
  9
$DIMUPT
 70
     0
  9
$DIMDEC
 70
     1
  9
$DIMTDEC
 70
     1
  9
$DIMALTU
 70
     2
  9
$DIMALTTD
 70
     2
  9
$DIMTXSTY
  7
Romans字体
  9
$DIMAUNIT
 70
     0
  9
$DIMADEC
 70
     2
  9
$DIMALTRND
 40
0.0
  9
$DIMAZIN
 70
     2
  9
$DIMDSEP
 70
    46
  9
$DIMATFIT
 70
     3
  9
$DIMFRAC
 70
     0
  9
$DIMLDRBLK
  1

  9
$DIMLUNIT
 70
     2
  9
$DIMLWD
 70
    -2
  9
$DIMLWE
 70
    -2
  9
$DIMTMOVE
 70
     0
  9
$LUNITS
 70
     2
  9
$LUPREC
 70
     4
  9
$SKETCHINC
 40
0.1
  9
$FILLETRAD
 40
0.5
  9
$AUNITS
 70
     0
  9
$AUPREC
 70
     0
  9
$MENU
  1
.
  9
$ELEVATION
 40
0.0
  9
$PELEVATION
 40
0.0
  9
$THICKNESS
 40
0.0
  9
$LIMCHECK
 70
     0
  9
$CHAMFERA
 40
0.5
  9
$CHAMFERB
 40
0.5
  9
$CHAMFERC
 40
1.0
  9
$CHAMFERD
 40
0.0
  9
$SKPOLY
 70
     0
  9
$TDCREATE
 40
2456524.383632987
  9
$TDUCREATE
 40
2456524.050299653
  9
$TDUPDATE
 40
2460323.699964514
  9
$TDUUPDATE
 40
2460323.366631181
  9
$TDINDWG
 40
1.0775550926
  9
$TDUSRTIMER
 40
1.0775363426
  9
$USRTIMER
 70
     1
  9
$ANGBASE
 50
0.0
  9
$ANGDIR
 70
     0
  9
$PDMODE
 70
     0
  9
$PDSIZE
 40
0.0
  9
$PLINEWID
 40
0.0
  9
$SPLFRAME
 70
     0
  9
$SPLINETYPE
 70
     6
  9
$SPLINESEGS
 70
     8
  9
$HANDSEED
  5
190A7
  9
$SURFTAB1
 70
     6
  9
$SURFTAB2
 70
     6
  9
$SURFTYPE
 70
     6
  9
$SURFU
 70
     6
  9
$SURFV
 70
     6
  9
$UCSBASE
  2

  9
$UCSNAME
  2

  9
$UCSORG
 10
0.0
 20
0.0
 30
0.0
  9
$UCSXDIR
 10
1.0
 20
0.0
 30
0.0
  9
$UCSYDIR
 10
0.0
 20
1.0
 30
0.0
  9
$UCSORTHOREF
  2

  9
$UCSORTHOVIEW
 70
     0
  9
$UCSORGTOP
 10
0.0
 20
0.0
 30
0.0
  9
$UCSORGBOTTOM
 10
0.0
 20
0.0
 30
0.0
  9
$UCSORGLEFT
 10
0.0
 20
0.0
 30
0.0
  9
$UCSORGRIGHT
 10
0.0
 20
0.0
 30
0.0
  9
$UCSORGFRONT
 10
0.0
 20
0.0
 30
0.0
  9
$UCSORGBACK
 10
0.0
 20
0.0
 30
0.0
  9
$PUCSBASE
  2

  9
$PUCSNAME
  2

  9
$PUCSORG
 10
0.0
 20
0.0
 30
0.0
  9
$PUCSXDIR
 10
1.0
 20
0.0
 30
0.0
  9
$PUCSYDIR
 10
0.0
 20
1.0
 30
0.0
  9
$PUCSORTHOREF
  2

  9
$PUCSORTHOVIEW
 70
     0
  9
$PUCSORGTOP
 10
0.0
 20
0.0
 30
0.0
  9
$PUCSORGBOTTOM
 10
0.0
 20
0.0
 30
0.0
  9
$PUCSORGLEFT
 10
0.0
 20
0.0
 30
0.0
  9
$PUCSORGRIGHT
 10
0.0
 20
0.0
 30
0.0
  9
$PUCSORGFRONT
 10
0.0
 20
0.0
 30
0.0
  9
$PUCSORGBACK
 10
0.0
 20
0.0
 30
0.0
  9
$USERI1
 70
     0
  9
$USERI2
 70
     0
  9
$USERI3
 70
     0
  9
$USERI4
 70
     0
  9
$USERI5
 70
     0
  9
$USERR1
 40
0.0
  9
$USERR2
 40
0.0
  9
$USERR3
 40
0.0
  9
$USERR4
 40
0.0
  9
$USERR5
 40
0.0
  9
$WORLDVIEW
 70
     1
  9
$SHADEDGE
 70
     3
  9
$SHADEDIF
 70
    70
  9
$TILEMODE
 70
     1
  9
$MAXACTVP
 70
    64
  9
$PINSBASE
 10
0.0
 20
0.0
 30
0.0
  9
$PLIMCHECK
 70
     0
  9
$PEXTMIN
 10
1.000000000000000E+20
 20
1.000000000000000E+20
 30
1.000000000000000E+20
  9
$PEXTMAX
 10
-1.000000000000000E+20
 20
-1.000000000000000E+20
 30
-1.000000000000000E+20
  9
$PLIMMIN
 10
0.0
 20
0.0
  9
$PLIMMAX
 10
12.0
 20
9.0
  9
$UNITMODE
 70
     0
  9
$VISRETAIN
 70
     1
  9
$PLINEGEN
 70
     0
  9
$PSLTSCALE
 70
     1
  9
$TREEDEPTH
 70
  3020
  9
$CMLSTYLE
  2
Standard
  9
$CMLJUST
 70
     0
  9
$CMLSCALE
 40
1.0
  9
$PROXYGRAPHICS
 70
     1
  9
$MEASUREMENT
 70
     0
  9
$CELWEIGHT
370
    -1
  9
$ENDCAPS
280
     0
  9
$JOINSTYLE
280
     0
  9
$LWDISPLAY
290
     0
  9
$INSUNITS
 70
     4
  9
$HYPERLINKBASE
  1

  9
$STYLESHEET
  1
monochrome.ctb
  9
$XEDIT
290
     1
  9
$CEPSNTYPE
380
     0
  9
$PSTYLEMODE
290
     1
  9
$FINGERPRINTGUID
  2
{4A02065B-8BB3-4A96-9036-502DC906C165}
  9
$VERSIONGUID
  2
{97E96C27-1A53-41B6-AC3D-B059B2504E30}
  9
$EXTNAMES
290
     1
  9
$PSVPSCALE
 40
0.0
  9
$OLESTARTUP
290
     0
  0
ENDSEC
  0
SECTION
  2
CLASSES
  0
CLASS
  1
ACDBDICTIONARYWDFLT
  2
AcDbDictionaryWithDefault
  3
ObjectDBX Classes
 90
        0
280
     0
281
     0
  0
CLASS
  1
VISUALSTYLE
  2
AcDbVisualStyle
  3
ObjectDBX Classes
 90
     4095
280
     0
281
     0
  0
CLASS
  1
MATERIAL
  2
AcDbMaterial
  3
ObjectDBX Classes
 90
     1153
280
     0
281
     0
  0
CLASS
  1
TABLESTYLE
  2
AcDbTableStyle
  3
ObjectDBX Classes
 90
     4095
280
     0
281
     0
  0
CLASS
  1
SCALE
  2
AcDbScale
  3
ObjectDBX Classes
 90
     1153
280
     0
281
     0
  0
CLASS
  1
MLEADERSTYLE
  2
AcDbMLeaderStyle
  3
ACDB_MLEADERSTYLE_CLASS
 90
     4095
280
     0
281
     0
  0
CLASS
  1
CELLSTYLEMAP
  2
AcDbCellStyleMap
  3
ObjectDBX Classes
 90
     1152
280
     0
281
     0
  0
CLASS
  1
DICTIONARYVAR
  2
AcDbDictionaryVar
  3
ObjectDBX Classes
 90
        0
280
     0
281
     0
  0
CLASS
  1
SORTENTSTABLE
  2
AcDbSortentsTable
  3
ObjectDBX Classes
 90
        0
280
     0
281
     0
  0
CLASS
  1
ACAD_EVALUATION_GRAPH
  2
AcDbEvalGraph
  3
ObjectDBX Classes
 90
     1153
280
     0
281
     0
  0
CLASS
  1
ACAECUSTOBJ
  2
AcAeEditorObj
  3
AcAeEditorObj
 90
     1024
280
     0
281
     0
  0
CLASS
  1
ACDB_DYNAMICBLOCKPURGEPREVENTER_VERSION
  2
AcDbDynamicBlockPurgePreventer
  3
ObjectDBX Classes
 90
     1153
280
     0
281
     0
  0
CLASS
  1
MENTALRAYRENDERSETTINGS
  2
AcDbMentalRayRenderSettings
  3
SCENEOE
 90
     1024
280
     0
281
     0
  0
CLASS
  1
ACDB_BLOCKREPRESENTATION_DATA
  2
AcDbBlockRepresentationData
  3
ObjectDBX Classes
 90
    33921
280
     0
281
     0
  0
CLASS
  1
DIMASSOC
  2
AcDbDimAssoc
  3
"AcDbDimAssoc|Product Desc:     AcDim ARX App For Dimension|Company:          Autodesk, Inc.|WEB Address:      www.autodesk.com"
 90
        0
280
     0
281
     0
  0
CLASS
  1
ACDBPLACEHOLDER
  2
AcDbPlaceHolder
  3
ObjectDBX Classes
 90
        0
280
     0
281
     0
  0
CLASS
  1
LAYOUT
  2
AcDbLayout
  3
ObjectDBX Classes
 90
        0
280
     0
281
     0
  0
ENDSEC
  0
SECTION
  2
TABLES
  0
TABLE
  2
VPORT
  5
8
102
{ACAD_XDICTIONARY
360
50EE
102
}
330
0
100
AcDbSymbolTable
 70
     1
  0
VPORT
  5
29
330
8
100
AcDbSymbolTableRecord
100
AcDbViewportTableRecord
  2
*Active
 70
     0
 10
0.0
 20
0.0
 11
1.0
 21
1.0
 12
375.3804503100962
 22
138.1796042133009
 13
0.0
 23
0.0
 14
0.5
 24
0.5
 15
0.5
 25
0.5
 16
0.0
 26
0.0
 36
1.0
 17
104.9654968719086
 27
148.5022307685978
 37
0.0
 40
263.5011387003881
 41
2.087847730600292
 42
50.0
 43
0.0
 44
0.0
 50
0.0
 51
0.0
 71
     0
 72
   100
 73
     1
 74
     3
 75
     0
 76
     0
 77
     0
 78
     0
281
     0
 65
     1
110
0.0
120
0.0
130
0.0
111
1.0
121
0.0
131
0.0
112
0.0
122
1.0
132
0.0
 79
     0
146
0.0
  0
ENDTAB
  0
TABLE
  2
LTYPE
  5
5
330
0
100
AcDbSymbolTable
 70
     2
  0
LTYPE
  5
14
330
5
100
AcDbSymbolTableRecord
100
AcDbLinetypeTableRecord
  2
ByBlock
 70
     0
  3

 72
    65
 73
     0
 40
0.0
  0
LTYPE
  5
15
330
5
100
AcDbSymbolTableRecord
100
AcDbLinetypeTableRecord
  2
ByLayer
 70
     0
  3

 72
    65
 73
     0
 40
0.0
  0
LTYPE
  5
16
330
5
100
AcDbSymbolTableRecord
100
AcDbLinetypeTableRecord
  2
Continuous
 70
     0
  3
Solid line
 72
    65
 73
     0
 40
0.0
  0
LTYPE
  5
180F9
330
5
100
AcDbSymbolTableRecord
100
AcDbLinetypeTableRecord
  2
CENTER2
 70
     0
  3
Center (.5x) ___ _ ___ _ ___ _ ___ _ ___ _ ___
 72
    65
 73
     4
 40
1.125
 49
0.75
 74
     0
 49
-0.125
 74
     0
 49
0.125
 74
     0
 49
-0.125
 74
     0
  0
ENDTAB
  0
TABLE
  2
LAYER
  5
2
102
{ACAD_XDICTIONARY
360
50B8
102
}
330
0
100
AcDbSymbolTable
 70
     7
  0
LAYER
  5
10
102
{ACAD_XDICTIONARY
360
50D0
102
}
330
2
100
AcDbSymbolTableRecord
100
AcDbLayerTableRecord
  2
0
 70
     0
 62
     7
  6
Continuous
370
    30
390
F
  0
LAYER
  5
3B
102
{ACAD_XDICTIONARY
360
50D2
102
}
330
2
100
AcDbSymbolTableRecord
100
AcDbLayerTableRecord
  2
图层 1
 70
     0
 62
     7
  6
Continuous
370
    -3
390
F
  0
LAYER
  5
50AE
102
{ACAD_XDICTIONARY
360
50AF
102
}
330
2
100
AcDbSymbolTableRecord
100
AcDbLayerTableRecord
  2
图框
 70
     0
 62
     7
  6
Continuous
370
    20
390
F
  0
LAYER
  5
5141
330
2
100
AcDbSymbolTableRecord
100
AcDbLayerTableRecord
  2
Defpoints
 70
     0
 62
     7
  6
Continuous
290
     0
370
    -3
390
F
  0
LAYER
  5
5144
330
2
100
AcDbSymbolTableRecord
100
AcDbLayerTableRecord
  2
DIM
 70
     0
 62
     3
  6
Continuous
370
    15
390
F
1001
AcAecLayerStandard
1000

1000

  0
LAYER
  5
52F3
330
2
100
AcDbSymbolTableRecord
100
AcDbLayerTableRecord
  2
打标文字
 70
     0
 62
     3
  6
Continuous
370
    20
390
F
  0
LAYER
  5
180FC
102
{ACAD_XDICTIONARY
360
180FD
102
}
330
2
100
AcDbSymbolTableRecord
100
AcDbLayerTableRecord
  2
Cen
 70
     0
 62
     1
  6
CENTER2
370
    13
390
F
  0
ENDTAB
  0
TABLE
  2
STYLE
  5
3
330
0
100
AcDbSymbolTable
 70
     7
  0
STYLE
  5
11
330
3
100
AcDbSymbolTableRecord
100
AcDbTextStyleTableRecord
  2
Standard
 70
     0
 40
0.0
 41
0.75
 50
0.0
 71
     0
 42
0.2
  3

  4

1001
ACAD
1000
仿宋_GB2312
1071
    34353
  0
STYLE
  5
FD48
330
3
100
AcDbSymbolTableRecord
100
AcDbTextStyleTableRecord
  2
Romans字体
 70
     0
 40
0.0
 41
0.75
 50
0.0
 71
     0
 42
0.2
  3
romans.shx
  4

  0
STYLE
  5
11080
330
3
100
AcDbSymbolTableRecord
100
AcDbTextStyleTableRecord
  2
工程字
 70
     0
 40
0.0
 41
1.0
 50
0.0
 71
     0
 42
3.5
  3
gbenor.shx
  4
gbcbig.shx
  0
STYLE
  5
11081
330
3
100
AcDbSymbolTableRecord
100
AcDbTextStyleTableRecord
  2
Chinese
 70
     0
 40
0.0
 41
1.0
 50
0.0
 71
     0
 42
2.5
  3
PMingLiU.ttf
  4

1001
ACAD
1000
PMingLiU
1071
    34834
  0
STYLE
  5
180FF
330
3
100
AcDbSymbolTableRecord
100
AcDbTextStyleTableRecord
  2
数字
 70
     0
 40
2.5
 41
0.75
 50
0.0
 71
     0
 42
0.2
  3
romans.shx
  4

  0
STYLE
  5
188CC
330
3
100
AcDbSymbolTableRecord
100
AcDbTextStyleTableRecord
  2
样式 3
 70
     0
 40
3.5
 41
0.7
 50
0.0
 71
     0
 42
3.5
  3
SIMFANG.TTF
  4

1001
ACAD
1000
仿宋_GB2312
1071
    34353
  0
ENDTAB
  0
TABLE
  2
VIEW
  5
6
330
0
100
AcDbSymbolTable
 70
     0
  0
ENDTAB
  0
TABLE
  2
UCS
  5
7
330
0
100
AcDbSymbolTable
 70
     0
  0
ENDTAB
  0
TABLE
  2
APPID
  5
9
330
0
100
AcDbSymbolTable
 70
    17
  0
APPID
  5
12
330
9
100
AcDbSymbolTableRecord
100
AcDbRegAppTableRecord
  2
ACAD
 70
     0
  0
APPID
  5
5024
330
9
100
AcDbSymbolTableRecord
100
AcDbRegAppTableRecord
  2
ACAD_MLEADERVER
 70
     0
  0
APPID
  5
50B5
330
9
100
AcDbSymbolTableRecord
100
AcDbRegAppTableRecord
  2
AcDbDynamicBlockGUID
 70
     0
  0
APPID
  5
50B6
330
9
100
AcDbSymbolTableRecord
100
AcDbRegAppTableRecord
  2
AcDbBlockRepETag
 70
     0
  0
APPID
  5
50B7
330
9
100
AcDbSymbolTableRecord
100
AcDbRegAppTableRecord
  2
ACAD_PSEXT
 70
     0
  0
APPID
  5
50CF
330
9
100
AcDbSymbolTableRecord
100
AcDbRegAppTableRecord
  2
AcadAnnoPO
 70
     0
  0
APPID
  5
5146
330
9
100
AcDbSymbolTableRecord
100
AcDbRegAppTableRecord
  2
AcAecLayerStandard
 70
     0
  0
APPID
  5
5147
330
9
100
AcDbSymbolTableRecord
100
AcDbRegAppTableRecord
  2
ACAD_DSTYLE_DIMJAG
 70
     0
  0
APPID
  5
5148
330
9
100
AcDbSymbolTableRecord
100
AcDbRegAppTableRecord
  2
ACAD_DSTYLE_DIMTALN
 70
     0
  0
APPID
  5
52AD
330
9
100
AcDbSymbolTableRecord
100
AcDbRegAppTableRecord
  2
ACAUTHENVIRON
 70
     0
  0
APPID
  5
52B0
330
9
100
AcDbSymbolTableRecord
100
AcDbRegAppTableRecord
  2
AcDbDynamicBlockTrueName
 70
     0
  0
APPID
  5
67C6
330
9
100
AcDbSymbolTableRecord
100
AcDbRegAppTableRecord
  2
ACAD_EXEMPT_FROM_CAD_STANDARDS
 70
     0
  0
APPID
  5
6838
330
9
100
AcDbSymbolTableRecord
100
AcDbRegAppTableRecord
  2
ACAD_NAV_VCDISPLAY
 70
     0
  0
APPID
  5
70A9
330
9
100
AcDbSymbolTableRecord
100
AcDbRegAppTableRecord
  2
DCO15
 70
     0
  0
APPID
  5
8725
330
9
100
AcDbSymbolTableRecord
100
AcDbRegAppTableRecord
  2
AcDbBlockRepBTag
 70
     0
  0
APPID
  5
FE64
330
9
100
AcDbSymbolTableRecord
100
AcDbRegAppTableRecord
  2
ACAD_DSTYLE_DIMRADIAL_EXTENSION
 70
     0
  0
APPID
  5
FF93
330
9
100
AcDbSymbolTableRecord
100
AcDbRegAppTableRecord
  2
ACAD_DSTYLE_DIMBREAK
 70
     0
  0
ENDTAB
  0
TABLE
  2
DIMSTYLE
  5
A
330
0
100
AcDbSymbolTable
 70
     3
100
AcDbDimStyleTable
 71
     2
340
5145
340
27
  0
DIMSTYLE
105
27
330
A
100
AcDbSymbolTableRecord
100
AcDbDimStyleTableRecord
  2
Standard
 70
     0
340
11
  0
DIMSTYLE
105
5145
102
{ACAD_REACTORS
330
18E3E
330
18E41
330
18E44
102
}
330
A
100
AcDbSymbolTableRecord
100
AcDbDimStyleTableRecord
  2
01
 70
     0
 41
3.0
 42
0.2
 43
0.2
 44
1.199999999999999
 73
     0
 74
     0
 77
     1
 78
     8
 79
     2
140
3.5
141
0.0
147
0.8
176
     1
177
     6
178
     4
179
     2
271
     1
272
     1
340
FD48
1001
ACAD_DSTYLE_DIMJAG
1070
   388
1040
1.5
1001
ACAD_DSTYLE_DIMTALN
1070
   392
1070
     0
  0
ENDTAB
  0
TABLE
  2
BLOCK_RECORD
  5
1
330
0
100
AcDbSymbolTable
 70
    13
  0
BLOCK_RECORD
  5
1F
102
{ACAD_XDICTIONARY
360
67C0
102
}
330
1
100
AcDbSymbolTableRecord
100
AcDbBlockTableRecord
  2
*Model_Space
340
22
  0
BLOCK_RECORD
  5
1B
330
1
100
AcDbSymbolTableRecord
100
AcDbBlockTableRecord
  2
*Paper_Space
340
1E
  0
BLOCK_RECORD
  5
23
330
1
100
AcDbSymbolTableRecord
100
AcDbBlockTableRecord
  2
*Paper_Space0
340
26
  0
BLOCK_RECORD
  5
10FE8
102
{ACAD_XDICTIONARY
360
19053
102
}
330
1
100
AcDbSymbolTableRecord
100
AcDbBlockTableRecord
  2
A4图框-NEW
340
0
310
2800000020000000200000000100080000000000000400000000000000000000000000000000000000000000000080000080000000808000800000008000800080800000C0C0C000C0DCC000F0CAA6000020400000206000002080000020A0000020C0000020E00000400000004020000040400000406000004080000040A0
310
000040C0000040E00000600000006020000060400000606000006080000060A0000060C0000060E00000800000008020000080400000806000008080000080A0000080C0000080E00000A0000000A0200000A0400000A0600000A0800000A0A00000A0C00000A0E00000C0000000C0200000C0400000C0600000C0800000C0
310
A00000C0C00000C0E00000E0000000E0200000E0400000E0600000E0800000E0A00000E0C00000E0E00040000000400020004000400040006000400080004000A0004000C0004000E00040200000402020004020400040206000402080004020A0004020C0004020E000404000004040200040404000404060004040800040
310
40A0004040C0004040E00040600000406020004060400040606000406080004060A0004060C0004060E00040800000408020004080400040806000408080004080A0004080C0004080E00040A0000040A0200040A0400040A0600040A0800040A0A00040A0C00040A0E00040C0000040C0200040C0400040C0600040C08000
310
40C0A00040C0C00040C0E00040E0000040E0200040E0400040E0600040E0800040E0A00040E0C00040E0E00080000000800020008000400080006000800080008000A0008000C0008000E00080200000802020008020400080206000802080008020A0008020C0008020E00080400000804020008040400080406000804080
310
008040A0008040C0008040E00080600000806020008060400080606000806080008060A0008060C0008060E00080800000808020008080400080806000808080008080A0008080C0008080E00080A0000080A0200080A0400080A0600080A0800080A0A00080A0C00080A0E00080C0000080C0200080C0400080C0600080C0
310
800080C0A00080C0C00080C0E00080E0000080E0200080E0400080E0600080E0800080E0A00080E0C00080E0E000C0000000C0002000C0004000C0006000C0008000C000A000C000C000C000E000C0200000C0202000C0204000C0206000C0208000C020A000C020C000C020E000C0400000C0402000C0404000C0406000C0
310
408000C040A000C040C000C040E000C0600000C0602000C0604000C0606000C0608000C060A000C060C000C060E000C0800000C0802000C0804000C0806000C0808000C080A000C080C000C080E000C0A00000C0A02000C0A04000C0A06000C0A08000C0A0A000C0A0C000C0A0E000C0C00000C0C02000C0C04000C0C06000
310
C0C08000C0C0A000F0FBFF00A4A0A000808080000000FF0000FF000000FFFF00FF000000FF00FF00FFFF0000FFFFFF0000000000000000000000000000000000000000000000000000000000000000000000000000000000000000000000000000000000000000000000000000000000000000000000000000000000000000
310
000000000000000000000000000000000000000000000000000000000000000000000000000000000000000000000000000000000000000000000000000000000000000000000000000000000000000000000000000000000000000000000000000000000000000000000000000000000000F9F9F9F9F9F9F9F9F9F9F9F9F9
310
F9F9F9F9F9F9F9F9F9F9F9F9F9F9FF00000000F9FF000000000000000000FFFFFFFFFFFFFFFFFFFFFFFFF9FAFAFAFF00000000F9FF000000000000000000FFFFFFFFFFFFFFFFFFFFFFFFFFFFFFFFFF00000000F9FD000000000000000000FFFFFFFFFFFFFFFFFFFFFFFFFFFFFFFFFF00000000F9FF000000000000000000FF
310
FFFFFFFFFFFFFFFFFFFFFFFFFFFFFFFF00000000F9FD000000000000000000FFFFFFFFFFFFFFFFFFFFFFFFFFFFFFFFFF00000000F9FF00000000000000000000000000000000000000000000000000FF00000000F9FD00000000000000000000000000000000000000000000000000FF00000000F9FF000000000000000000
310
00000000000000000000000000000000FF00000000F9FD00000000000000000000000000000000000000000000000000FF00000000F9FF00000000000000000000000000000000000000000000000000FF00000000F9FD00000000000000000000000000000000000000000000000000FF00000000F9FD0000000000000000
310
0000000000000000000000000000000000FF00000000F9FF00000000000000000000000000000000000000000000000000FF00000000F9FD00000000000000000000000000000000000000000000000000FF00000000F9FF00000000000000000000000000000000000000000000000000FF00000000F9FD00000000000000
310
000000000000000000000000000000000000FF00000000F9FF00000000000000000000000000000000000000000000000000FF00000000F9FFFFFFFFFFFFFFFFFFFFFFFFFFFFFFFFFFFFFFFFFFFFFFFFFFFFFF00000000F9FFFFFFF9F9F9F9F9F9F9F9F9F9F9F9F9F9F9F9F9F9F9F9F9F9F9F9000000000000000000000000
310
00000000000000000000000000000000000000000000000000000000000000000000000000000000000000000000000000000000000000000000000000000000000000000000000000000000000000000000000000000000000000000000000000000000000000000000000000000000000000000000000000000000000000
310
0000000000000000000000000000000000000000000000000000000000000000000000000000000000000000000000000000000000000000
102
{BLKREFS
331
11089
102
}
1001
AcDbDynamicBlockGUID
1000
{8021AD6B-A2ED-48D1-B415-C82049439C4A}
1001
AcDbBlockRepETag
1070
     1
1071
      148
1001
ACAD
1000
DesignCenter Data
1002
{
1070
     1
1070
     4
1002
}
  0
BLOCK_RECORD
  5
1870A
330
1
100
AcDbSymbolTableRecord
100
AcDbBlockTableRecord
  2
*D2
340
0
  0
BLOCK_RECORD
  5
18716
330
1
100
AcDbSymbolTableRecord
100
AcDbBlockTableRecord
  2
*D3
340
0
  0
BLOCK_RECORD
  5
18722
330
1
100
AcDbSymbolTableRecord
100
AcDbBlockTableRecord
  2
*D4
340
0
  0
BLOCK_RECORD
  5
188A5
330
1
100
AcDbSymbolTableRecord
100
AcDbBlockTableRecord
  2
*D5
340
0
  0
BLOCK_RECORD
  5
188B2
330
1
100
AcDbSymbolTableRecord
100
AcDbBlockTableRecord
  2
*D6
340
0
  0
BLOCK_RECORD
  5
188BF
330
1
100
AcDbSymbolTableRecord
100
AcDbBlockTableRecord
  2
*D7
340
0
  0
BLOCK_RECORD
  5
18E49
330
1
100
AcDbSymbolTableRecord
100
AcDbBlockTableRecord
  2
*D8
340
0
  0
BLOCK_RECORD
  5
18E55
330
1
100
AcDbSymbolTableRecord
100
AcDbBlockTableRecord
  2
*D9
340
0
  0
BLOCK_RECORD
  5
18E61
330
1
100
AcDbSymbolTableRecord
100
AcDbBlockTableRecord
  2
*D10
340
0
  0
ENDTAB
  0
ENDSEC
  0
SECTION
  2
BLOCKS
  0
BLOCK
  5
20
330
1F
100
AcDbEntity
  8
0
100
AcDbBlockBegin
  2
*Model_Space
 70
     0
 10
0.0
 20
0.0
 30
0.0
  3
*Model_Space
  1

  0
ENDBLK
  5
21
330
1F
100
AcDbEntity
  8
0
100
AcDbBlockEnd
  0
BLOCK
  5
1C
330
1B
100
AcDbEntity
 67
     1
  8
0
100
AcDbBlockBegin
  2
*Paper_Space
 70
     0
 10
0.0
 20
0.0
 30
0.0
  3
*Paper_Space
  1

  0
ENDBLK
  5
1D
330
1B
100
AcDbEntity
 67
     1
  8
0
100
AcDbBlockEnd
  0
BLOCK
  5
24
330
23
100
AcDbEntity
 67
     1
  8
0
100
AcDbBlockBegin
  2
*Paper_Space0
 70
     0
 10
0.0
 20
0.0
 30
0.0
  3
*Paper_Space0
  1

  0
ENDBLK
  5
25
330
23
100
AcDbEntity
 67
     1
  8
0
100
AcDbBlockEnd
  0
BLOCK
  5
10FEA
330
10FE8
100
AcDbEntity
  8
0
100
AcDbBlockBegin
  2
A4图框-NEW
 70
     0
 10
0.0
 20
0.0
 30
0.0
  3
A4图框-NEW
  1

  0
MTEXT
  5
18FBF
102
{ACAD_XDICTIONARY
360
19062
102
}
330
10FE8
100
AcDbEntity
  8
图框
 62
     3
100
AcDbMText
 10
967.6594956750133
 20
499.7664151964293
 30
0.0
 40
2.985513575034151
 41
15.50176341157864
 71
     5
 72
     5
  1
BQ LUO
  7
Romans字体
 73
     1
 44
1.0
1001
AcDbBlockRepETag
1070
     1
1071
        0
1005
18FBF
1001
ACAD
1000
MTEXTBEGIN
1070
    73
1070
     1
1070
    44
1040
1.0
1070
    74
1070
     0
1000
MTEXTEND
1000
ACAD_MTEXT_DEFINED_HEIGHT_BEGIN
1070
    46
1040
6.292658374511018
1000
ACAD_MTEXT_DEFINED_HEIGHT_END
  0
MTEXT
  5
18FC0
330
10FE8
100
AcDbEntity
  8
图框
 62
     3
100
AcDbMText
 10
983.041569333247
 20
499.7664151964293
 30
0.0
 40
2.487927979195124
 41
15.26238390489051
 71
     5
 72
     5
  1
{\W0.7;18.10.2010}
  7
Romans字体
 73
     1
 44
1.0
1001
AcDbBlockRepETag
1070
     1
1071
        1
1005
18FC0
1001
ACAD
1000
MTEXTBEGIN
1070
    73
1070
     1
1070
    44
1040
1.0
1070
    74
1070
     0
1000
MTEXTEND
1000
ACAD_MTEXT_DEFINED_HEIGHT_BEGIN
1070
    46
1040
6.292658374511042
1000
ACAD_MTEXT_DEFINED_HEIGHT_END
  0
MTEXT
  5
18FC1
330
10FE8
100
AcDbEntity
  8
图框
 62
     3
100
AcDbMText
 10
1012.477254728976
 20
487.1810984474071
 30
0.0
 40
2.985513575034151
 41
17.64876416884615
 71
     5
 72
     5
  1
YY LIN
  7
Romans字体
 73
     1
 44
1.0
1001
AcDbBlockRepETag
1070
     1
1071
        2
1005
18FC1
1001
ACAD
1000
MTEXTBEGIN
1070
    73
1070
     1
1070
    44
1040
1.0
1070
    74
1070
     0
1000
MTEXTEND
1000
ACAD_MTEXT_DEFINED_HEIGHT_BEGIN
1070
    46
1040
6.292658374511455
1000
ACAD_MTEXT_DEFINED_HEIGHT_END
  0
MTEXT
  5
18FC2
330
10FE8
100
AcDbEntity
  8
图框
 62
     3
100
AcDbMText
 10
1028.977802139886
 20
487.1810984474071
 30
0.0
 40
2.487927979195124
 41
15.35233065297276
 71
     5
 72
     5
  1
{\W0.7;18.10.2010}
  7
Romans字体
 73
     1
 44
1.0
1001
AcDbBlockRepETag
1070
     1
1071
        3
1005
18FC2
1001
ACAD
1000
MTEXTBEGIN
1070
    73
1070
     1
1070
    44
1040
1.0
1070
    74
1070
     0
1000
MTEXTEND
1000
ACAD_MTEXT_DEFINED_HEIGHT_BEGIN
1070
    46
1040
6.292658374511495
1000
ACAD_MTEXT_DEFINED_HEIGHT_END
  0
MTEXT
  5
18FC3
330
10FE8
100
AcDbEntity
  8
图框
 62
     3
100
AcDbMText
 10
1063.722665487208
 20
525.4145966538831
 30
0.0
 40
2.985513575034151
 41
32.4973914334545
 71
     5
 72
     5
  1
-
  7
Romans字体
 73
     1
 44
1.0
1001
AcDbBlockRepETag
1070
     1
1071
        4
1005
18FC3
1001
ACAD
1000
MTEXTBEGIN
1070
    73
1070
     1
1070
    44
1040
1.0
1070
    74
1070
     0
1000
MTEXTEND
1000
ACAD_MTEXT_DEFINED_HEIGHT_BEGIN
1070
    46
1040
11.82914190181707
1000
ACAD_MTEXT_DEFINED_HEIGHT_END
  0
MTEXT
  5
18FC4
330
10FE8
100
AcDbEntity
  8
图框
 62
     3
100
AcDbMText
 10
1063.727338552349
 20
513.5854547520641
 30
0.0
 40
2.985513575034151
 41
32.48804530317308
 71
     5
 72
     5
  1
-
  7
Romans字体
 73
     1
 44
1.0
1001
AcDbBlockRepETag
1070
     1
1071
        5
1005
18FC4
1001
ACAD
1000
MTEXTBEGIN
1070
    73
1070
     1
1070
    44
1040
1.0
1070
    74
1070
     0
1000
MTEXTEND
1000
ACAD_MTEXT_DEFINED_HEIGHT_BEGIN
1070
    46
1040
11.82914190182139
1000
ACAD_MTEXT_DEFINED_HEIGHT_END
  0
MTEXT
  5
18FC5
330
10FE8
100
AcDbEntity
  8
图框
 62
     3
100
AcDbMText
 10
1110.122306614152
 20
526.8006839312707
 30
0.0
 40
2.985513575034151
 41
33.61239199242139
 71
     5
 72
     5
  1
-
  7
Romans字体
 73
     1
 44
1.0
1001
AcDbBlockRepETag
1070
     1
1071
        6
1005
18FC5
1001
ACAD
1000
MTEXTBEGIN
1070
    73
1070
     1
1070
    44
1040
1.0
1070
    74
1070
     0
1000
MTEXTEND
1000
ACAD_MTEXT_DEFINED_HEIGHT_BEGIN
1070
    46
1040
9.05696734704178
1000
ACAD_MTEXT_DEFINED_HEIGHT_END
  0
MTEXT
  5
18FC6
330
10FE8
100
AcDbEntity
  8
图框
 62
     3
100
AcDbMText
 10
1110.122306614152
 20
500.2775205517162
 30
0.0
 40
2.985513575034151
 41
33.61239199242139
 71
     5
 72
     5
  1
-
  7
Romans字体
 73
     1
 44
1.0
1001
AcDbBlockRepETag
1070
     1
1071
        7
1005
18FC6
1001
ACAD
1000
MTEXTBEGIN
1070
    73
1070
     1
1070
    44
1040
1.0
1070
    74
1070
     0
1000
MTEXTEND
1000
ACAD_MTEXT_DEFINED_HEIGHT_BEGIN
1070
    46
1040
8.871557304763419
1000
ACAD_MTEXT_DEFINED_HEIGHT_END
  0
MTEXT
  5
18FC7
330
10FE8
100
AcDbEntity
  8
图框
 62
     3
100
AcDbMText
 10
967.6594956750133
 20
493.4737568219182
 30
0.0
 40
2.985513575034151
 41
15.50176341157864
 71
     5
 72
     5
  1
P RAO
  7
Romans字体
 73
     1
 44
1.0
1001
AcDbBlockRepETag
1070
     1
1071
        8
1005
18FC7
1001
ACAD
1000
MTEXTBEGIN
1070
    73
1070
     1
1070
    44
1040
1.0
1070
    74
1070
     0
1000
MTEXTEND
1000
ACAD_MTEXT_DEFINED_HEIGHT_BEGIN
1070
    46
1040
6.292658374510335
1000
ACAD_MTEXT_DEFINED_HEIGHT_END
  0
MTEXT
  5
18FC8
330
10FE8
100
AcDbEntity
  8
图框
 62
     3
100
AcDbMText
 10
983.041569333247
 20
493.2441970450405
 30
0.0
 40
2.487927979195124
 41
15.26238390489051
 71
     5
 72
     5
  1
{\W0.7;18.10.2010}
  7
Romans字体
 73
     1
 44
1.0
1001
AcDbBlockRepETag
1070
     1
1071
        9
1005
18FC8
1001
ACAD
1000
MTEXTBEGIN
1070
    73
1070
     1
1070
    44
1040
1.0
1070
    74
1070
     0
1000
MTEXTEND
1000
ACAD_MTEXT_DEFINED_HEIGHT_BEGIN
1070
    46
1040
6.751777928266487
1000
ACAD_MTEXT_DEFINED_HEIGHT_END
  0
MTEXT
  5
18FC9
330
10FE8
100
AcDbEntity
  8
图框
 62
     3
100
AcDbMText
 10
1012.477254728976
 20
499.7664151964291
 30
0.0
 40
2.985513575034151
 41
17.64876416884615
 71
     5
 72
     5
  1
-
  7
Romans字体
 73
     1
 44
1.0
1001
AcDbBlockRepETag
1070
     1
1071
       10
1005
18FC9
1001
ACAD
1000
MTEXTBEGIN
1070
    73
1070
     1
1070
    44
1040
1.0
1070
    74
1070
     0
1000
MTEXTEND
1000
ACAD_MTEXT_DEFINED_HEIGHT_BEGIN
1070
    46
1040
6.292658374511397
1000
ACAD_MTEXT_DEFINED_HEIGHT_END
  0
MTEXT
  5
18FCA
330
10FE8
100
AcDbEntity
  8
图框
 62
     3
100
AcDbMText
 10
1028.977802139886
 20
499.7664151964289
 30
0.0
 40
2.487927979195124
 41
15.35233065297265
 71
     5
 72
     5
  1
-
  7
Romans字体
 73
     1
 44
1.0
1001
AcDbBlockRepETag
1070
     1
1071
       11
1005
18FCA
1001
ACAD
1000
MTEXTBEGIN
1070
    73
1070
     1
1070
    44
1040
1.0
1070
    74
1070
     0
1000
MTEXTEND
1000
ACAD_MTEXT_DEFINED_HEIGHT_BEGIN
1070
    46
1040
6.292658374511382
1000
ACAD_MTEXT_DEFINED_HEIGHT_END
  0
MTEXT
  5
18FCB
330
10FE8
100
AcDbEntity
  8
图框
 62
     3
100
AcDbMText
 10
967.6594956750133
 20
487.1810984474071
 30
0.0
 40
2.985513575034151
 41
15.50176341157863
 71
     5
 72
     5
  1
-
  7
Romans字体
 73
     1
 44
1.0
1001
AcDbBlockRepETag
1070
     1
1071
       12
1005
18FCB
1001
ACAD
1000
MTEXTBEGIN
1070
    73
1070
     1
1070
    44
1040
1.0
1070
    74
1070
     0
1000
MTEXTEND
1000
ACAD_MTEXT_DEFINED_HEIGHT_BEGIN
1070
    46
1040
6.292658374511478
1000
ACAD_MTEXT_DEFINED_HEIGHT_END
  0
MTEXT
  5
18FCC
330
10FE8
100
AcDbEntity
  8
图框
 62
     3
100
AcDbMText
 10
983.041569333247
 20
487.1810984474071
 30
0.0
 40
2.487927979195124
 41
15.26238390489062
 71
     5
 72
     5
  1
-
  7
Romans字体
 73
     1
 44
1.0
1001
AcDbBlockRepETag
1070
     1
1071
       13
1005
18FCC
1001
ACAD
1000
MTEXTBEGIN
1070
    73
1070
     1
1070
    44
1040
1.0
1070
    74
1070
     0
1000
MTEXTEND
1000
ACAD_MTEXT_DEFINED_HEIGHT_BEGIN
1070
    46
1040
6.292658374511495
1000
ACAD_MTEXT_DEFINED_HEIGHT_END
  0
MTEXT
  5
18FCD
330
10FE8
100
AcDbEntity
  8
图框
 62
     3
100
AcDbMText
 10
1074.556686986741
 20
495.8417418993361
 30
0.0
 40
2.985513575034151
 41
10.82934843438978
 71
     5
 72
     5
  1
-
  7
Romans字体
 73
     1
 44
1.0
1001
AcDbBlockRepETag
1070
     1
1071
       14
1005
18FCD
1001
ACAD
1000
MTEXTBEGIN
1070
    73
1070
     1
1070
    44
1040
1.0
1070
    74
1070
     0
1000
MTEXTEND
1000
ACAD_MTEXT_DEFINED_HEIGHT_BEGIN
1070
    46
1040
7.886094601210427
1000
ACAD_MTEXT_DEFINED_HEIGHT_END
  0
LINE
  5
18FCE
330
10FE8
100
AcDbEntity
  8
图框
370
    -3
100
AcDbLine
 10
1036.653967466372
 20
499.7847891999413
 30
0.0
 11
1079.971361203936
 21
499.7847891999413
 31
0.0
1001
AcDbBlockRepETag
1070
     1
1071
       15
1005
18FCE
  0
MTEXT
  5
18FCF
330
10FE8
100
AcDbEntity
  8
图框
 62
     1
370
    20
100
AcDbMText
 10
1108.26336443907
 20
491.5162596080882
 30
0.0
 40
2.699054613030988
 41
82.30831305643079
 71
     5
 72
     5
  1
{\fSimHei|b0|i0|c134|p2;厦门唯恩电气有限公司}
 73
     1
 44
1.0
1001
AcDbBlockRepETag
1070
     1
1071
       16
1005
18FCF
1001
ACAD
1000
MTEXTBEGIN
1070
    73
1070
     1
1070
    44
1040
1.0
1070
    74
1070
     0
1000
MTEXTEND
  0
MTEXT
  5
18FD0
330
10FE8
100
AcDbEntity
  8
图框
 62
     3
370
    20
100
AcDbMText
 10
1108.435451459908
 20
487.298967726064
 30
0.0
 40
1.652482416141417
 41
68.08558693693567
 71
     5
 72
     5
  1
{\fArial Narrow|b0|i0|c0|p34;XIAMEN WAIN ELECTRICAL CO.LTD}
  7
工程字
 73
     1
 44
1.0
1001
AcDbBlockRepETag
1070
     1
1071
       17
1005
18FD0
1001
ACAD
1000
MTEXTBEGIN
1070
    73
1070
     1
1070
    44
1040
1.0
1070
    74
1070
     0
1000
MTEXTEND
  0
MTEXT
  5
18FD1
330
10FE8
100
AcDbEntity
  8
图框
 62
     1
370
    20
100
AcDbMText
 10
1085.711816899387
 20
491.0944802995856
 30
0.0
 40
2.005930044038334
 41
5.047240019334847
 71
     1
 72
     5
  1
{\fArial|b0|i0|c0|p34;A}
  7
Chinese
 73
     1
 44
1.0
1001
AcDbBlockRepETag
1070
     1
1071
       18
1005
18FD1
1001
ACAD
1000
MTEXTBEGIN
1070
    73
1070
     1
1070
    44
1040
1.0
1070
    74
1070
     0
1000
MTEXTEND
  0
MTEXT
  5
18FD2
330
10FE8
100
AcDbEntity
  8
图框
 62
     1
370
    20
100
AcDbMText
 10
1088.213485935716
 20
491.0944802995856
 30
0.0
 40
2.005930044038334
 41
5.047240019334847
 71
     1
 72
     5
  1
{\fArial|b0|i0|c0|p34;I}
  7
Chinese
 73
     1
 44
1.0
1001
AcDbBlockRepETag
1070
     1
1071
       19
1005
18FD2
1001
ACAD
1000
MTEXTBEGIN
1070
    73
1070
     1
1070
    44
1040
1.0
1070
    74
1070
     0
1000
MTEXTEND
  0
MTEXT
  5
18FD3
330
10FE8
100
AcDbEntity
  8
图框
 62
     1
370
    20
100
AcDbMText
 10
1089.142375222864
 20
491.0822866326808
 30
0.0
 40
2.005930044038334
 41
5.047240019334847
 71
     1
 72
     5
  1
{\fArial|b0|i0|c0|p34;N}
  7
Chinese
 73
     1
 44
1.0
1001
AcDbBlockRepETag
1070
     1
1071
       20
1005
18FD3
1001
ACAD
1000
MTEXTBEGIN
1070
    73
1070
     1
1070
    44
1040
1.0
1070
    74
1070
     0
1000
MTEXTEND
  0
MTEXT
  5
18FD4
330
10FE8
100
AcDbEntity
  8
图框
100
AcDbMText
 10
1069.142012769545
 20
487.9667319294409
 30
0.0
 40
2.252848170144607
 41
21.65869686878327
 71
     5
 72
     5
  1
{\W0.5;\C1;All Dimensions in mm\POriginal Size DIN A 4}
  7
Romans字体
 73
     1
 44
1.0
1001
AcDbBlockRepETag
1070
     1
1071
       21
1005
18FD4
1001
ACAD
1000
MTEXTBEGIN
1070
    73
1070
     1
1070
    44
1040
1.0
1070
    74
1070
     0
1000
MTEXTEND
1000
ACAD_MTEXT_DEFINED_HEIGHT_BEGIN
1070
    46
1040
7.863925338579296
1000
ACAD_MTEXT_DEFINED_HEIGHT_END
  0
MTEXT
  5
18FD5
330
10FE8
100
AcDbEntity
  8
图框
  6
ByBlock
 62
     6
370
    18
100
AcDbMText
 10
1127.40434942308
 20
508.7896535755975
 30
0.0
 40
2.651776162684904
 41
2.557913877927211
 71
     1
 72
     5
  1
A
  7
Romans字体
 11
0.0000000000000001
 21
1.0
 31
0.0
 73
     1
 44
1.0
1001
AcDbBlockRepETag
1070
     1
1071
       22
1005
18FD5
1001
ACAD
1000
MTEXTBEGIN
1070
    73
1070
     1
1070
    44
1040
1.0
1070
    74
1070
     0
1000
MTEXTEND
  0
MTEXT
  5
18FD6
330
10FE8
100
AcDbEntity
  8
图框
 62
     6
100
AcDbMText
 10
1127.40434942308
 20
556.3746573232886
 30
0.0
 40
2.651776162684904
 41
2.557913877927211
 71
     1
 72
     5
  1
B
  7
Romans字体
 11
0.0000000000000001
 21
1.0
 31
0.0
 73
     1
 44
1.0
1001
AcDbBlockRepETag
1070
     1
1071
       23
1005
18FD6
1001
ACAD
1000
MTEXTBEGIN
1070
    73
1070
     1
1070
    44
1040
1.0
1070
    74
1070
     0
1000
MTEXTEND
  0
MTEXT
  5
18FD7
330
10FE8
100
AcDbEntity
  8
图框
 62
     6
100
AcDbMText
 10
1127.40434942308
 20
607.5539372630998
 30
0.0
 40
2.651776162684904
 41
2.557913877927211
 71
     1
 72
     5
  1
C
  7
Romans字体
 11
0.0000000000000001
 21
1.0
 31
0.0
 73
     1
 44
1.0
1001
AcDbBlockRepETag
1070
     1
1071
       24
1005
18FD7
1001
ACAD
1000
MTEXTBEGIN
1070
    73
1070
     1
1070
    44
1040
1.0
1070
    74
1070
     0
1000
MTEXTEND
  0
MTEXT
  5
18FD8
330
10FE8
100
AcDbEntity
  8
图框
 62
     6
100
AcDbMText
 10
1127.40434942308
 20
658.7332172029115
 30
0.0
 40
2.651776162684904
 41
2.557913877927211
 71
     1
 72
     5
  1
D
  7
Romans字体
 11
0.0000000000000001
 21
1.0
 31
0.0
 73
     1
 44
1.0
1001
AcDbBlockRepETag
1070
     1
1071
       25
1005
18FD8
1001
ACAD
1000
MTEXTBEGIN
1070
    73
1070
     1
1070
    44
1040
1.0
1070
    74
1070
     0
1000
MTEXTEND
  0
LINE
  5
18FD9
330
10FE8
100
AcDbEntity
  8
图框
 62
     6
100
AcDbLine
 10
1130.411601781241
 20
634.0726090796082
 30
0.0
 11
1126.928502610363
 21
634.0726090796082
 31
0.0
1001
AcDbBlockRepETag
1070
     1
1071
       26
1005
18FD9
  0
LINE
  5
18FDA
330
10FE8
100
AcDbEntity
  8
图框
 62
     6
100
AcDbLine
 10
1130.411601781241
 20
582.89332913979
 30
0.0
 11
1126.928502610363
 21
582.89332913979
 31
0.0
1001
AcDbBlockRepETag
1070
     1
1071
       27
1005
18FDA
  0
MTEXT
  5
18FDB
330
10FE8
100
AcDbEntity
  8
图框
 62
     6
100
AcDbMText
 10
1105.329704038389
 20
483.6164543011163
 30
0.0
 40
2.651776162684904
 41
2.557913877927211
 71
     1
 72
     5
  1
6
  7
Romans字体
 73
     1
 44
1.0
1001
AcDbBlockRepETag
1070
     1
1071
       28
1005
18FDB
1001
ACAD
1000
MTEXTBEGIN
1070
    73
1070
     1
1070
    44
1040
1.0
1070
    74
1070
     0
1000
MTEXTEND
  0
LINE
  5
18FDC
330
10FE8
100
AcDbEntity
  8
图框
 62
     6
100
AcDbLine
 10
1081.088565155284
 20
484.0347692601515
 30
0.0
 11
1081.088565155284
 21
480.5347692601475
 31
0.0
1001
AcDbBlockRepETag
1070
     1
1071
       29
1005
18FDC
  0
MTEXT
  5
18FDD
330
10FE8
100
AcDbEntity
  8
图框
 62
     6
100
AcDbMText
 10
1055.900596365941
 20
483.520053108993
 30
0.0
 40
2.651776162684904
 41
2.557913877927211
 71
     1
 72
     5
  1
5
  7
Romans字体
 73
     1
 44
1.0
1001
AcDbBlockRepETag
1070
     1
1071
       30
1005
18FDD
1001
ACAD
1000
MTEXTBEGIN
1070
    73
1070
     1
1070
    44
1040
1.0
1070
    74
1070
     0
1000
MTEXTEND
  0
LINE
  5
18FDE
330
10FE8
100
AcDbEntity
  8
图框
 62
     6
100
AcDbLine
 10
1031.553386436349
 20
484.0347692601515
 30
0.0
 11
1031.553386436349
 21
480.5347692601475
 31
0.0
1001
AcDbBlockRepETag
1070
     1
1071
       31
1005
18FDE
  0
MTEXT
  5
18FDF
330
10FE8
100
AcDbEntity
  8
图框
 62
     6
100
AcDbMText
 10
1006.383180575197
 20
483.5687958215896
 30
0.0
 40
2.651776162684904
 41
2.557913877927211
 71
     1
 72
     5
  1
4
  7
Romans字体
 73
     1
 44
1.0
1001
AcDbBlockRepETag
1070
     1
1071
       32
1005
18FDF
1001
ACAD
1000
MTEXTBEGIN
1070
    73
1070
     1
1070
    44
1040
1.0
1070
    74
1070
     0
1000
MTEXTEND
  0
LINE
  5
18FE0
330
10FE8
100
AcDbEntity
  8
图框
 62
     6
100
AcDbLine
 10
982.0182077173887
 20
484.0347692601515
 30
0.0
 11
982.0182077173887
 21
480.5347692601475
 31
0.0
1001
AcDbBlockRepETag
1070
     1
1071
       33
1005
18FE0
  0
MTEXT
  5
18FE1
330
10FE8
100
AcDbEntity
  8
图框
 62
     6
100
AcDbMText
 10
956.8302389280352
 20
483.5989680297948
 30
0.0
 40
2.651776162684904
 41
2.557913877927211
 71
     1
 72
     5
  1
3
  7
Romans字体
 73
     1
 44
1.0
1001
AcDbBlockRepETag
1070
     1
1071
       34
1005
18FE1
1001
ACAD
1000
MTEXTBEGIN
1070
    73
1070
     1
1070
    44
1040
1.0
1070
    74
1070
     0
1000
MTEXTEND
  0
LINE
  5
18FE2
330
10FE8
100
AcDbEntity
  8
图框
 62
     6
100
AcDbLine
 10
932.4830289984245
 20
484.0347692601515
 30
0.0
 11
932.4830289984245
 21
480.5347692601475
 31
0.0
1001
AcDbBlockRepETag
1070
     1
1071
       35
1005
18FE2
  0
MTEXT
  5
18FE3
330
10FE8
100
AcDbEntity
  8
图框
 62
     6
100
AcDbMText
 10
906.0252349826365
 20
483.6475250013156
 30
0.0
 40
2.651776162684904
 41
2.557913877927211
 71
     1
 72
     5
  1
2
  7
Romans字体
 73
     1
 44
1.0
1001
AcDbBlockRepETag
1070
     1
1071
       36
1005
18FE3
1001
ACAD
1000
MTEXTBEGIN
1070
    73
1070
     1
1070
    44
1040
1.0
1070
    74
1070
     0
1000
MTEXTEND
  0
LINE
  5
18FE4
330
10FE8
100
AcDbEntity
  8
图框
 62
     6
100
AcDbLine
 10
882.9478502794648
 20
484.0347692601515
 30
0.0
 11
882.9478502794648
 21
480.5347692601475
 31
0.0
1001
AcDbBlockRepETag
1070
     1
1071
       37
1005
18FE4
  0
MTEXT
  5
18FE5
330
10FE8
100
AcDbEntity
  8
图框
 62
     6
100
AcDbMText
 10
857.7598814901191
 20
483.651829494754
 30
0.0
 40
2.651776162684904
 41
2.557913877927211
 71
     1
 72
     5
  1
1
  7
Romans字体
 73
     1
 44
1.0
1001
AcDbBlockRepETag
1070
     1
1071
       38
1005
18FE5
1001
ACAD
1000
MTEXTBEGIN
1070
    73
1070
     1
1070
    44
1040
1.0
1070
    74
1070
     0
1000
MTEXTEND
  0
LINE
  5
18FE6
330
10FE8
100
AcDbEntity
  8
图框
370
    50
100
AcDbLine
 10
836.8548209370597
 20
484.0347692601515
 30
0.0
 11
1126.928502610363
 21
484.0347692601515
 31
0.0
1001
AcDbBlockRepETag
1070
     1
1071
       39
1005
18FE6
  0
LINE
  5
18FE7
330
10FE8
100
AcDbEntity
  8
图框
370
    50
100
AcDbLine
 10
836.9128518455362
 20
484.0178684310246
 30
0.0
 11
836.9128518455394
 21
675.0207195125422
 31
0.0
1001
AcDbBlockRepETag
1070
     1
1071
       40
1005
18FE7
  0
MTEXT
  5
18FE8
330
10FE8
100
AcDbEntity
  8
图框
 62
     6
100
AcDbMText
 10
833.8475685789031
 20
658.7332172029115
 30
0.0
 40
2.651776162684904
 41
2.557913877927211
 71
     1
 72
     5
  1
D
  7
Romans字体
 11
0.0000000000000001
 21
1.0
 31
0.0
 73
     1
 44
1.0
1001
AcDbBlockRepETag
1070
     1
1071
       41
1005
18FE8
1001
ACAD
1000
MTEXTBEGIN
1070
    73
1070
     1
1070
    44
1040
1.0
1070
    74
1070
     0
1000
MTEXTEND
  0
LINE
  5
18FE9
330
10FE8
100
AcDbEntity
  8
图框
 62
     6
100
AcDbLine
 10
836.9128518455386
 20
634.0726090796082
 30
0.0
 11
833.4128518455365
 21
634.0726090796082
 31
0.0
1001
AcDbBlockRepETag
1070
     1
1071
       42
1005
18FE9
  0
MTEXT
  5
18FEA
330
10FE8
100
AcDbEntity
  8
图框
 62
     6
100
AcDbMText
 10
833.9039177480142
 20
607.5539372630998
 30
0.0
 40
2.651776162684904
 41
2.557913877927211
 71
     1
 72
     5
  1
C
  7
Romans字体
 11
0.0000000000000001
 21
1.0
 31
0.0
 73
     1
 44
1.0
1001
AcDbBlockRepETag
1070
     1
1071
       43
1005
18FEA
1001
ACAD
1000
MTEXTBEGIN
1070
    73
1070
     1
1070
    44
1040
1.0
1070
    74
1070
     0
1000
MTEXTEND
  0
LINE
  5
18FEB
330
10FE8
100
AcDbEntity
  8
图框
 62
     6
100
AcDbLine
 10
836.9128518455378
 20
582.89332913979
 30
0.0
 11
833.4128518455365
 21
582.89332913979
 31
0.0
1001
AcDbBlockRepETag
1070
     1
1071
       44
1005
18FEB
  0
MTEXT
  5
18FEC
330
10FE8
100
AcDbEntity
  8
图框
 62
     6
100
AcDbMText
 10
833.9039177480142
 20
556.3746573232886
 30
0.0
 40
2.651776162684904
 41
2.557913877927211
 71
     1
 72
     5
  1
B
  7
Romans字体
 11
0.0000000000000001
 21
1.0
 31
0.0
 73
     1
 44
1.0
1001
AcDbBlockRepETag
1070
     1
1071
       45
1005
18FEC
1001
ACAD
1000
MTEXTBEGIN
1070
    73
1070
     1
1070
    44
1040
1.0
1070
    74
1070
     0
1000
MTEXTEND
  0
LINE
  5
18FED
330
10FE8
100
AcDbEntity
  8
图框
 62
     6
100
AcDbLine
 10
836.9128518455367
 20
531.714049199969
 30
0.0
 11
833.4128518455365
 21
531.714049199969
 31
0.0
1001
AcDbBlockRepETag
1070
     1
1071
       46
1005
18FED
  0
MTEXT
  5
18FEE
330
10FE8
100
AcDbEntity
  8
图框
 62
     6
100
AcDbMText
 10
833.9039177480142
 20
508.7896535755975
 30
0.0
 40
2.651776162684904
 41
2.557913877927211
 71
     1
 72
     5
  1
A
  7
Romans字体
 11
0.0000000000000001
 21
1.0
 31
0.0
 73
     1
 44
1.0
1001
AcDbBlockRepETag
1070
     1
1071
       47
1005
18FEE
1001
ACAD
1000
MTEXTBEGIN
1070
    73
1070
     1
1070
    44
1040
1.0
1070
    74
1070
     0
1000
MTEXTEND
  0
LINE
  5
18FEF
330
10FE8
100
AcDbEntity
  8
图框
370
    -3
100
AcDbLine
 10
836.9128518455394
 20
675.0207195125422
 30
0.0
 11
836.9128518455394
 21
684.5021384922564
 31
0.0
1001
AcDbBlockRepETag
1070
     1
1071
       48
1005
18FEF
  0
LINE
  5
18FF0
330
10FE8
100
AcDbEntity
  8
图框
370
    -3
100
AcDbLine
 10
842.6237321475781
 20
675.5347692601515
 30
0.0
 11
842.6237321475781
 21
685.0161882398658
 31
0.0
1001
AcDbBlockRepETag
1070
     1
1071
       49
1005
18FF0
  0
LINE
  5
18FF1
330
10FE8
100
AcDbEntity
  8
图框
370
    -3
100
AcDbLine
 10
848.3346124496179
 20
675.5347692601515
 30
0.0
 11
848.3346124496179
 21
685.0161882398658
 31
0.0
1001
AcDbBlockRepETag
1070
     1
1071
       50
1005
18FF1
  0
LINE
  5
18FF2
330
10FE8
100
AcDbEntity
  8
图框
370
    -3
100
AcDbLine
 10
854.0454927516588
 20
675.5347692601515
 30
0.0
 11
854.0454927516588
 21
685.0161882398658
 31
0.0
1001
AcDbBlockRepETag
1070
     1
1071
       51
1005
18FF2
  0
LINE
  5
18FF3
330
10FE8
100
AcDbEntity
  8
图框
370
    -3
100
AcDbLine
 10
861.5351874539182
 20
675.5347692601515
 30
0.0
 11
861.5351874539182
 21
686.7901958362482
 31
0.0
1001
AcDbBlockRepETag
1070
     1
1071
       52
1005
18FF3
  0
MTEXT
  5
18FF4
330
10FE8
100
AcDbEntity
  8
图框
 62
     6
100
AcDbMText
 10
1105.329704038389
 20
678.859919059449
 30
0.0
 40
2.651776162684904
 41
2.557913877927211
 71
     1
 72
     5
  1
6
  7
Romans字体
 73
     1
 44
1.0
1001
AcDbBlockRepETag
1070
     1
1071
       53
1005
18FF4
1001
ACAD
1000
MTEXTBEGIN
1070
    73
1070
     1
1070
    44
1040
1.0
1070
    74
1070
     0
1000
MTEXTEND
  0
LINE
  5
18FF5
330
10FE8
100
AcDbEntity
  8
图框
 62
     6
100
AcDbLine
 10
1081.088565155284
 20
679.0347692601516
 30
0.0
 11
1081.088565155284
 21
675.5347692601515
 31
0.0
1001
AcDbBlockRepETag
1070
     1
1071
       54
1005
18FF5
  0
MTEXT
  5
18FF6
330
10FE8
100
AcDbEntity
  8
图框
 62
     6
100
AcDbMText
 10
1055.900596365941
 20
678.859919059449
 30
0.0
 40
2.651776162684904
 41
2.557913877927211
 71
     1
 72
     5
  1
5
  7
Romans字体
 73
     1
 44
1.0
1001
AcDbBlockRepETag
1070
     1
1071
       55
1005
18FF6
1001
ACAD
1000
MTEXTBEGIN
1070
    73
1070
     1
1070
    44
1040
1.0
1070
    74
1070
     0
1000
MTEXTEND
  0
LINE
  5
18FF7
330
10FE8
100
AcDbEntity
  8
图框
 62
     6
100
AcDbLine
 10
1031.553386436349
 20
679.0347692601516
 30
0.0
 11
1031.553386436349
 21
675.5347692601515
 31
0.0
1001
AcDbBlockRepETag
1070
     1
1071
       56
1005
18FF7
  0
MTEXT
  5
18FF8
330
10FE8
100
AcDbEntity
  8
图框
 62
     6
100
AcDbMText
 10
1006.36541764698
 20
678.7312083656147
 30
0.0
 40
2.651776162684904
 41
2.557913877927211
 71
     1
 72
     5
  1
4
  7
Romans字体
 73
     1
 44
1.0
1001
AcDbBlockRepETag
1070
     1
1071
       57
1005
18FF8
1001
ACAD
1000
MTEXTBEGIN
1070
    73
1070
     1
1070
    44
1040
1.0
1070
    74
1070
     0
1000
MTEXTEND
  0
LINE
  5
18FF9
330
10FE8
100
AcDbEntity
  8
图框
 62
     6
100
AcDbLine
 10
982.0182077173887
 20
679.0347692601516
 30
0.0
 11
982.0182077173887
 21
675.5347692601515
 31
0.0
1001
AcDbBlockRepETag
1070
     1
1071
       58
1005
18FF9
  0
MTEXT
  5
18FFA
330
10FE8
100
AcDbEntity
  8
图框
 62
     6
100
AcDbMText
 10
956.8302389280352
 20
678.859919059449
 30
0.0
 40
2.651776162684904
 41
2.557913877927211
 71
     1
 72
     5
  1
3
  7
Romans字体
 73
     1
 44
1.0
1001
AcDbBlockRepETag
1070
     1
1071
       59
1005
18FFA
1001
ACAD
1000
MTEXTBEGIN
1070
    73
1070
     1
1070
    44
1040
1.0
1070
    74
1070
     0
1000
MTEXTEND
  0
LINE
  5
18FFB
330
10FE8
100
AcDbEntity
  8
图框
 62
     6
100
AcDbLine
 10
932.4830289984245
 20
679.0347692601516
 30
0.0
 11
932.4830289984245
 21
675.5347692601515
 31
0.0
1001
AcDbBlockRepETag
1070
     1
1071
       60
1005
18FFB
  0
MTEXT
  5
18FFC
330
10FE8
100
AcDbEntity
  8
图框
 62
     6
100
AcDbMText
 10
907.295060209082
 20
678.859919059449
 30
0.0
 40
2.651776162684904
 41
2.557913877927211
 71
     1
 72
     5
  1
2
  7
Romans字体
 73
     1
 44
1.0
1001
AcDbBlockRepETag
1070
     1
1071
       61
1005
18FFC
1001
ACAD
1000
MTEXTBEGIN
1070
    73
1070
     1
1070
    44
1040
1.0
1070
    74
1070
     0
1000
MTEXTEND
  0
LINE
  5
18FFD
330
10FE8
100
AcDbEntity
  8
图框
 62
     6
100
AcDbLine
 10
882.9478502794648
 20
678.7962435131815
 30
0.0
 11
882.9478502794648
 21
675.5347692601515
 31
0.0
1001
AcDbBlockRepETag
1070
     1
1071
       62
1005
18FFD
  0
MTEXT
  5
18FFE
330
10FE8
100
AcDbEntity
  8
图框
 62
     6
100
AcDbMText
 10
862.6286629643733
 20
678.859919059449
 30
0.0
 40
2.651776162684904
 41
2.557913877927211
 71
     1
 72
     5
  1
1
  7
Romans字体
 73
     1
 44
1.0
1001
AcDbBlockRepETag
1070
     1
1071
       63
1005
18FFE
1001
ACAD
1000
MTEXTBEGIN
1070
    73
1070
     1
1070
    44
1040
1.0
1070
    74
1070
     0
1000
MTEXTEND
  0
LINE
  5
18FFF
330
10FE8
100
AcDbEntity
  8
图框
370
    -3
100
AcDbLine
 10
836.9128518455394
 20
675.0207195125422
 30
0.0
 11
836.9128518455394
 21
686.7901958362482
 31
0.0
1001
AcDbBlockRepETag
1070
     1
1071
       64
1005
18FFF
  0
LINE
  5
19000
330
10FE8
100
AcDbEntity
  8
图框
370
    50
100
AcDbLine
 10
836.9128518455394
 20
675.5347692601515
 30
0.0
 11
1126.928502610363
 21
675.5347692601515
 31
0.0
1001
AcDbBlockRepETag
1070
     1
1071
       65
1005
19000
  0
LINE
  5
19001
330
10FE8
100
AcDbEntity
  8
图框
370
    -3
100
AcDbLine
 10
842.6237321475781
 20
675.5347692601515
 30
0.0
 11
842.6237321475781
 21
686.7901958362482
 31
0.0
1001
AcDbBlockRepETag
1070
     1
1071
       66
1005
19001
  0
LINE
  5
19002
330
10FE8
100
AcDbEntity
  8
图框
370
    -3
100
AcDbLine
 10
848.3346124496179
 20
675.5347692601515
 30
0.0
 11
848.3346124496179
 21
686.7901958362482
 31
0.0
1001
AcDbBlockRepETag
1070
     1
1071
       67
1005
19002
  0
MTEXT
  5
19003
102
{ACAD_XDICTIONARY
360
19064
102
}
330
10FE8
100
AcDbEntity
  8
图框
100
AcDbMText
 10
857.7903401027889
 20
686.7901958362482
 30
0.0
 40
1.958998408821398
 41
11.25542657609672
 71
     4
 72
     5
  1
{\W2.08073; }档案员{\H0.7x;\P\Fromans|c134;\W1.0325; \W0.75;Filing Clerk\fFangSong_GB2312|b0|i0|c134|p49; }
 11
-0.0000000000000002
 21
-1.0
 31
0.0
 73
     1
 44
1.0
1001
AcDbBlockRepETag
1070
     1
1071
       68
1005
19003
1001
ACAD
1000
MTEXTBEGIN
1070
    73
1070
     1
1070
    44
1040
1.0
1070
    74
1070
     0
1000
MTEXTEND
1000
ACAD_MTEXT_DEFINED_HEIGHT_BEGIN
1070
    46
1040
7.489694702258906
1000
ACAD_MTEXT_DEFINED_HEIGHT_END
  0
MTEXT
  5
19004
102
{ACAD_XDICTIONARY
360
19066
102
}
330
10FE8
100
AcDbEntity
  8
图框
100
AcDbMText
 10
845.479172298598
 20
686.7901958362482
 30
0.0
 40
1.958998408821398
 41
11.25542657609672
 71
     4
 72
     5
  1
{\W0.524929; }日期{\Fromans|c134;/Date}
 11
-0.0000000000000002
 21
-1.0
 31
0.0
 73
     1
 44
1.0
1001
AcDbBlockRepETag
1070
     1
1071
       69
1005
19004
1001
ACAD
1000
MTEXTBEGIN
1070
    73
1070
     1
1070
    44
1040
1.0
1070
    74
1070
     0
1000
MTEXTEND
1000
ACAD_MTEXT_DEFINED_HEIGHT_BEGIN
1070
    46
1040
5.710880302039671
1000
ACAD_MTEXT_DEFINED_HEIGHT_END
  0
LINE
  5
19005
330
10FE8
100
AcDbEntity
  8
图框
370
    -3
100
AcDbLine
 10
854.0454927516588
 20
675.5347692601515
 30
0.0
 11
854.0454927516588
 21
686.7901958362482
 31
0.0
1001
AcDbBlockRepETag
1070
     1
1071
       70
1005
19005
  0
LINE
  5
19006
330
10FE8
100
AcDbEntity
  8
图框
370
    -3
100
AcDbLine
 10
1036.653967466372
 20
531.3291676047914
 30
0.0
 11
1036.653967466372
 21
484.0126019753161
 31
0.0
1001
AcDbBlockRepETag
1070
     1
1071
       71
1005
19006
  0
LINE
  5
19007
330
10FE8
100
AcDbEntity
  8
图框
370
    -3
100
AcDbLine
 10
1047.483315900763
 20
507.6708838011533
 30
0.0
 11
1047.483315900763
 21
491.8986945987308
 31
0.0
1001
AcDbBlockRepETag
1070
     1
1071
       72
1005
19007
  0
LINE
  5
19008
330
10FE8
100
AcDbEntity
  8
图框
370
    -3
100
AcDbLine
 10
1058.312664335153
 20
507.6708838011533
 30
0.0
 11
1058.312664335153
 21
484.0347692601515
 31
0.0
1001
AcDbBlockRepETag
1070
     1
1071
       73
1005
19008
  0
LINE
  5
19009
330
10FE8
100
AcDbEntity
  8
图框
370
    25
100
AcDbLine
 10
1048.474135214456
 20
488.1095628329926
 30
0.0
 11
1054.946420288459
 21
488.1095628329926
 31
0.0
1001
AcDbBlockRepETag
1070
     1
1071
       74
1005
19009
  0
LINE
  5
1900A
330
10FE8
100
AcDbEntity
  8
图框
370
    25
100
AcDbLine
 10
1054.232527365989
 20
487.0761716842634
 30
0.0
 11
1049.156490914508
 21
486.4576273751
 31
0.0
1001
AcDbBlockRepETag
1070
     1
1071
       75
1005
1900A
  0
LINE
  5
1900B
330
10FE8
100
AcDbEntity
  8
图框
370
    25
100
AcDbLine
 10
1054.232527365989
 20
489.1429539817209
 30
0.0
 11
1049.156490914508
 21
489.7614982908846
 31
0.0
1001
AcDbBlockRepETag
1070
     1
1071
       76
1005
1900B
  0
LINE
  5
1900C
330
10FE8
100
AcDbEntity
  8
图框
370
    25
100
AcDbLine
 10
1049.156490914508
 20
489.7614982908846
 30
0.0
 11
1049.156490914508
 21
486.4576273751
 31
0.0
1001
AcDbBlockRepETag
1070
     1
1071
       77
1005
1900C
  0
LINE
  5
1900D
330
10FE8
100
AcDbEntity
  8
图框
370
    25
100
AcDbLine
 10
1054.232527365989
 20
489.1429539817209
 30
0.0
 11
1054.232527365989
 21
487.0761716842634
 31
0.0
1001
AcDbBlockRepETag
1070
     1
1071
       78
1005
1900D
  0
CIRCLE
  5
1900E
330
10FE8
100
AcDbEntity
  8
图框
370
    25
100
AcDbCircle
 10
1042.502700458579
 20
488.1095628329926
 30
0.0
 40
1.651935457891863
1001
AcDbBlockRepETag
1070
     1
1071
       79
1005
1900E
  0
CIRCLE
  5
1900F
330
10FE8
100
AcDbEntity
  8
图框
370
    25
100
AcDbCircle
 10
1042.502700458579
 20
488.1095628329926
 30
0.0
 40
1.033391148728775
1001
AcDbBlockRepETag
1070
     1
1071
       80
1005
1900F
  0
LINE
  5
19010
330
10FE8
100
AcDbEntity
  8
图框
370
    25
100
AcDbLine
 10
1040.136872078216
 20
488.1095628329926
 30
0.0
 11
1044.868528838943
 21
488.1095628329926
 31
0.0
1001
AcDbBlockRepETag
1070
     1
1071
       81
1005
19010
  0
LINE
  5
19011
330
10FE8
100
AcDbEntity
  8
图框
370
    25
100
AcDbLine
 10
1042.502700458579
 20
490.475391213355
 30
0.0
 11
1042.502700458579
 21
485.743734452629
 31
0.0
1001
AcDbBlockRepETag
1070
     1
1071
       82
1005
19011
  0
LINE
  5
19012
330
10FE8
100
AcDbEntity
  8
图框
370
    -3
100
AcDbLine
 10
1069.142012769546
 20
507.6708838011533
 30
0.0
 11
1069.142012769546
 21
491.8986945987308
 31
0.0
1001
AcDbBlockRepETag
1070
     1
1071
       83
1005
19012
  0
MTEXT
  5
19013
330
10FE8
100
AcDbEntity
  8
图框
100
AcDbMText
 10
1086.643735910939
 20
526.8006839312707
 30
0.0
 40
2.154898249703542
 41
13.34474941400573
 71
     5
 72
     5
  1
图号{\Ftxt|c134;\P\Fromans|c134;\W0.65;Drawing No.}
 73
     1
 44
1.0
1001
AcDbBlockRepETag
1070
     1
1071
       84
1005
19013
1001
ACAD
1000
MTEXTBEGIN
1070
    73
1070
     1
1070
    44
1040
1.0
1070
    74
1070
     0
1000
MTEXTEND
1000
ACAD_MTEXT_DEFINED_HEIGHT_BEGIN
1070
    46
1040
9.056967347041775
1000
ACAD_MTEXT_DEFINED_HEIGHT_END
  0
LINE
  5
19014
330
10FE8
100
AcDbEntity
  8
图框
370
    -3
100
AcDbLine
 10
1093.316110617942
 20
531.3291676047914
 30
0.0
 11
1093.316110617942
 21
495.8417418993347
 31
0.0
1001
AcDbBlockRepETag
1070
     1
1071
       85
1005
19014
  0
LINE
  5
19015
330
10FE8
100
AcDbEntity
  8
图框
370
    -3
100
AcDbLine
 10
1047.473969770481
 20
531.3291676047914
 30
0.0
 11
1047.473969770481
 21
507.6708838011533
 31
0.0
1001
AcDbBlockRepETag
1070
     1
1071
       86
1005
19015
  0
MTEXT
  5
19016
330
10FE8
100
AcDbEntity
  8
图框
100
AcDbMText
 10
1063.72733855235
 20
503.7278365005473
 30
0.0
 40
2.252848170144607
 41
10.82934843439208
 71
     5
 72
     5
  1
重量\P{\Fromans|c134;Weight}
 73
     1
 44
1.0
1001
AcDbBlockRepETag
1070
     1
1071
       87
1005
19016
1001
ACAD
1000
MTEXTBEGIN
1070
    73
1070
     1
1070
    44
1040
1.0
1070
    74
1070
     0
1000
MTEXTEND
1000
ACAD_MTEXT_DEFINED_HEIGHT_BEGIN
1070
    46
1040
7.886094601212128
1000
ACAD_MTEXT_DEFINED_HEIGHT_END
  0
LINE
  5
19017
330
10FE8
100
AcDbEntity
  8
图框
370
    -3
100
AcDbLine
 10
1036.653967466372
 20
519.5000257029746
 30
0.0
 11
1079.971361203936
 21
519.5000257029746
 31
0.0
1001
AcDbBlockRepETag
1070
     1
1071
       88
1005
19017
  0
MTEXT
  5
19018
330
10FE8
100
AcDbEntity
  8
图框
100
AcDbMText
 10
1074.556686986741
 20
503.7278365005473
 30
0.0
 40
2.252848170144607
 41
10.82934843438984
 71
     5
 72
     5
  1
数量\P{\Fromans|c134;Qty.}
 73
     1
 44
1.0
1001
AcDbBlockRepETag
1070
     1
1071
       89
1005
19018
1001
ACAD
1000
MTEXTBEGIN
1070
    73
1070
     1
1070
    44
1040
1.0
1070
    74
1070
     0
1000
MTEXTEND
1000
ACAD_MTEXT_DEFINED_HEIGHT_BEGIN
1070
    46
1040
7.886094601212141
1000
ACAD_MTEXT_DEFINED_HEIGHT_END
  0
LINE
  5
19019
330
10FE8
100
AcDbEntity
  8
图框
370
    -3
100
AcDbLine
 10
1079.971361203936
 20
495.8417418993347
 30
0.0
 11
1126.928502610363
 21
495.8417418993342
 31
0.0
1001
AcDbBlockRepETag
1070
     1
1071
       90
1005
19019
  0
LINE
  5
1901A
330
10FE8
100
AcDbEntity
  8
图框
370
    -3
100
AcDbLine
 10
1079.971361203936
 20
504.7132992040975
 30
0.0
 11
1126.928502610363
 21
504.7132992040975
 31
0.0
1001
AcDbBlockRepETag
1070
     1
1071
       91
1005
1901A
  0
MTEXT
  5
1901B
330
10FE8
100
AcDbEntity
  8
图框
100
AcDbMText
 10
1052.893317052817
 20
503.7278365005473
 30
0.0
 40
2.252848170144607
 41
10.83869456467139
 71
     5
 72
     5
  1
版本\P{\Fromans|c134;REV.}
 73
     1
 44
1.0
1001
AcDbBlockRepETag
1070
     1
1071
       92
1005
1901B
1001
ACAD
1000
MTEXTBEGIN
1070
    73
1070
     1
1070
    44
1040
1.0
1070
    74
1070
     0
1000
MTEXTEND
1000
ACAD_MTEXT_DEFINED_HEIGHT_BEGIN
1070
    46
1040
7.886094601212101
1000
ACAD_MTEXT_DEFINED_HEIGHT_END
  0
MTEXT
  5
1901C
330
10FE8
100
AcDbEntity
  8
图框
100
AcDbMText
 10
1042.068641683568
 20
503.7278365005473
 30
0.0
 40
2.252848170144607
 41
10.8293484343908
 71
     5
 72
     5
  1
比例\P{\Fromans|c134;Scale}
 73
     1
 44
1.0
1001
AcDbBlockRepETag
1070
     1
1071
       93
1005
1901C
1001
ACAD
1000
MTEXTBEGIN
1070
    73
1070
     1
1070
    44
1040
1.0
1070
    74
1070
     0
1000
MTEXTEND
1000
ACAD_MTEXT_DEFINED_HEIGHT_BEGIN
1070
    46
1040
7.886094601212136
1000
ACAD_MTEXT_DEFINED_HEIGHT_END
  0
LINE
  5
1901D
330
10FE8
100
AcDbEntity
  8
图框
370
    -3
100
AcDbLine
 10
1036.653967466372
 20
507.6708838011533
 30
0.0
 11
1079.971361203936
 21
507.6708838011533
 31
0.0
1001
AcDbBlockRepETag
1070
     1
1071
       94
1005
1901D
  0
LINE
  5
1901E
330
10FE8
100
AcDbEntity
  8
图框
370
    -3
100
AcDbLine
 10
1036.653967466372
 20
491.8986945987308
 30
0.0
 11
1079.971361203936
 21
491.8986945987308
 31
0.0
1001
AcDbBlockRepETag
1070
     1
1071
       95
1005
1901E
  0
LINE
  5
1901F
330
10FE8
100
AcDbEntity
  8
图框
370
    -3
100
AcDbLine
 10
1079.971361203936
 20
531.3291676047914
 30
0.0
 11
1079.971361203936
 21
484.0125999975168
 31
0.0
1001
AcDbBlockRepETag
1070
     1
1071
       96
1005
1901F
  0
MTEXT
  5
19020
330
10FE8
100
AcDbEntity
  8
图框
100
AcDbMText
 10
1042.063968618426
 20
525.4145966538832
 30
0.0
 40
2.252848170144607
 41
10.82000230410933
 71
     5
 72
     5
  1
表面处理\P{\Fromans|c134;Finish}
 73
     1
 44
1.0
1001
AcDbBlockRepETag
1070
     1
1071
       97
1005
19020
1001
ACAD
1000
MTEXTBEGIN
1070
    73
1070
     1
1070
    44
1040
1.0
1070
    74
1070
     0
1000
MTEXTEND
1000
ACAD_MTEXT_DEFINED_HEIGHT_BEGIN
1070
    46
1040
11.82914190181708
1000
ACAD_MTEXT_DEFINED_HEIGHT_END
  0
MTEXT
  5
19021
330
10FE8
100
AcDbEntity
  8
图框
100
AcDbMText
 10
1042.063968618426
 20
513.5854547520639
 30
0.0
 40
2.252848170144607
 41
10.82000230410933
 71
     5
 72
     5
  1
材料\P{\Fromans|c134;Material}
 73
     1
 44
1.0
1001
AcDbBlockRepETag
1070
     1
1071
       98
1005
19021
1001
ACAD
1000
MTEXTBEGIN
1070
    73
1070
     1
1070
    44
1040
1.0
1070
    74
1070
     0
1000
MTEXTEND
1000
ACAD_MTEXT_DEFINED_HEIGHT_BEGIN
1070
    46
1040
11.8291419018212
1000
ACAD_MTEXT_DEFINED_HEIGHT_END
  0
LINE
  5
19022
330
10FE8
100
AcDbEntity
  8
图框
370
    -3
100
AcDbLine
 10
1079.971361203936
 20
522.27220025775
 30
0.0
 11
1126.928502610363
 21
522.27220025775
 31
0.0
1001
AcDbBlockRepETag
1070
     1
1071
       99
1005
19022
  0
LINE
  5
19023
330
10FE8
100
AcDbEntity
  8
图框
370
    -3
100
AcDbLine
 10
1079.971361203936
 20
513.5854547520641
 30
0.0
 11
1126.928502610363
 21
513.5854547520639
 31
0.0
1001
AcDbBlockRepETag
1070
     1
1071
      100
1005
19023
  0
MTEXT
  5
19024
330
10FE8
100
AcDbEntity
  8
图框
100
AcDbMText
 10
1086.643735910939
 20
517.9288275049072
 30
0.0
 40
1.958998408821398
 41
13.34474941400573
 71
     5
 72
     5
  1
产品代号\P{\Fromans|c134;Part Code}
 73
     1
 44
1.0
1001
AcDbBlockRepETag
1070
     1
1071
      101
1005
19024
1001
ACAD
1000
MTEXTBEGIN
1070
    73
1070
     1
1070
    44
1040
1.0
1070
    74
1070
     0
1000
MTEXTEND
1000
ACAD_MTEXT_DEFINED_HEIGHT_BEGIN
1070
    46
1040
8.686745505685811
1000
ACAD_MTEXT_DEFINED_HEIGHT_END
  0
LINE
  5
19025
330
10FE8
100
AcDbEntity
  8
图框
370
    -3
100
AcDbLine
 10
946.9285026103634
 20
525.7982263931411
 30
0.0
 11
1036.653967466372
 21
525.7982263931411
 31
0.0
1001
AcDbBlockRepETag
1070
     1
1071
      102
1005
19025
  0
LINE
  5
19026
330
10FE8
100
AcDbEntity
  8
图框
370
    -3
100
AcDbLine
 10
946.9285026103634
 20
520.2672851814959
 30
0.0
 11
1036.653967466372
 21
520.2672851814959
 31
0.0
1001
AcDbBlockRepETag
1070
     1
1071
      103
1005
19026
  0
LINE
  5
19027
330
10FE8
100
AcDbEntity
  8
图框
370
    35
100
AcDbLine
 10
946.9285026103634
 20
531.3291676047914
 30
0.0
 11
1126.928502610363
 21
531.3291676047914
 31
0.0
1001
AcDbBlockRepETag
1070
     1
1071
      104
1005
19027
  0
LINE
  5
19028
330
10FE8
100
AcDbEntity
  8
图框
370
    -3
100
AcDbLine
 10
990.6727612856927
 20
509.2054027581959
 30
0.0
 11
990.6727612856927
 21
484.0347692601515
 31
0.0
1001
AcDbBlockRepETag
1070
     1
1071
      105
1005
19028
  0
MTEXT
  5
19029
102
{ACAD_XDICTIONARY
360
19068
102
}
330
10FE8
100
AcDbEntity
  8
图框
100
AcDbMText
 10
997.1628169651232
 20
499.816589978722
 30
0.0
 40
2.252848170144607
 41
12.98011135886052
 71
     5
 72
     5
  1
{\f仿宋_GB2312|b0|i0|c134|p49;标准化}\PStand.
  7
Romans字体
 73
     1
 44
1.0
1001
AcDbBlockRepETag
1070
     1
1071
      106
1005
19029
1001
ACAD
1000
MTEXTBEGIN
1070
    73
1070
     1
1070
    44
1040
1.0
1070
    74
1070
     0
1000
MTEXTEND
1000
ACAD_MTEXT_DEFINED_HEIGHT_BEGIN
1070
    46
1040
6.19230880992475
1000
ACAD_MTEXT_DEFINED_HEIGHT_END
  0
LINE
  5
1902A
330
10FE8
100
AcDbEntity
  8
图框
370
    -3
100
AcDbLine
 10
975.4103773808022
 20
509.2054027581959
 30
0.0
 11
975.4103773808022
 21
484.0347692601515
 31
0.0
1001
AcDbBlockRepETag
1070
     1
1071
      107
1005
1902A
  0
MTEXT
  5
1902B
330
10FE8
100
AcDbEntity
  8
图框
100
AcDbMText
 10
984.5089229802068
 20
511.9708733640202
 30
0.0
 40
2.448748011026752
 41
38.287899328693
 71
     5
 72
     5
  1
  变更描述{\Fromans|c134;/Description}
 73
     1
 44
1.0
1001
AcDbBlockRepETag
1070
     1
1071
      108
1005
1902B
1001
ACAD
1000
MTEXTBEGIN
1070
    73
1070
     1
1070
    44
1040
1.0
1070
    74
1070
     0
1000
MTEXTEND
1000
ACAD_MTEXT_DEFINED_HEIGHT_BEGIN
1070
    46
1040
5.530941211648832
1000
ACAD_MTEXT_DEFINED_HEIGHT_END
  0
MTEXT
  5
1902C
102
{ACAD_XDICTIONARY
360
1906A
102
}
330
10FE8
100
AcDbEntity
  8
图框
100
AcDbMText
 10
1012.466086049227
 20
511.9708733640202
 30
0.0
 40
1.958998408821398
 41
17.6264268093469
 71
     5
 72
     5
  1
签名\P{\Fromans|c134;Signature} 
 73
     1
 44
1.0
1001
AcDbBlockRepETag
1070
     1
1071
      109
1005
1902C
1001
ACAD
1000
MTEXTBEGIN
1070
    73
1070
     1
1070
    44
1040
1.0
1070
    74
1070
     0
1000
MTEXTEND
1000
ACAD_MTEXT_DEFINED_HEIGHT_BEGIN
1070
    46
1040
5.530941211648825
1000
ACAD_MTEXT_DEFINED_HEIGHT_END
  0
MTEXT
  5
1902D
102
{ACAD_XDICTIONARY
360
1906C
102
}
330
10FE8
100
AcDbEntity
  8
图框
100
AcDbMText
 10
960.7558556394856
 20
511.9708733640202
 30
0.0
 40
1.958998408821398
 41
9.218235352749283
 71
     5
 72
     5
  1
处数\P{\Fromans|c134;Number }
 73
     1
 44
1.0
1001
AcDbBlockRepETag
1070
     1
1071
      110
1005
1902D
1001
ACAD
1000
MTEXTBEGIN
1070
    73
1070
     1
1070
    44
1040
1.0
1070
    74
1070
     0
1000
MTEXTEND
1000
ACAD_MTEXT_DEFINED_HEIGHT_BEGIN
1070
    46
1040
5.530941211648841
1000
ACAD_MTEXT_DEFINED_HEIGHT_END
  0
LINE
  5
1902E
330
10FE8
100
AcDbEntity
  8
图框
370
    -3
100
AcDbLine
 10
946.9285026103634
 20
514.7363439698449
 30
0.0
 11
1036.653967466372
 21
514.7363439698449
 31
0.0
1001
AcDbBlockRepETag
1070
     1
1071
      111
1005
1902E
  0
LINE
  5
1902F
330
10FE8
100
AcDbEntity
  8
图框
370
    -3
100
AcDbLine
 10
946.9285026103634
 20
509.2054027581959
 30
0.0
 11
1036.653967466372
 21
509.2054027581959
 31
0.0
1001
AcDbBlockRepETag
1070
     1
1071
      112
1005
1902F
  0
LINE
  5
19030
330
10FE8
100
AcDbEntity
  8
图框
370
    -3
100
AcDbLine
 10
946.9285026103634
 20
502.9127443836848
 30
0.0
 11
1036.653967466372
 21
502.9127443836848
 31
0.0
1001
AcDbBlockRepETag
1070
     1
1071
      113
1005
19030
  0
LINE
  5
19031
330
10FE8
100
AcDbEntity
  8
图框
370
    -3
100
AcDbLine
 10
946.9285026103634
 20
496.620086009173
 30
0.0
 11
1036.653967466372
 21
496.620086009173
 31
0.0
1001
AcDbBlockRepETag
1070
     1
1071
      114
1005
19031
  0
LINE
  5
19032
330
10FE8
100
AcDbEntity
  8
图框
370
    35
380
     1
100
AcDbLine
 10
946.9285026103634
 20
531.3291676047914
 30
0.0
 11
946.9285026103634
 21
484.0347692601515
 31
0.0
1001
AcDbBlockRepETag
1070
     1
1071
      115
1005
19032
  0
LINE
  5
19033
330
10FE8
100
AcDbEntity
  8
图框
370
    -3
100
AcDbLine
 10
1021.301636813399
 20
531.3291676047914
 30
0.0
 11
1021.301636813399
 21
484.0347692601515
 31
0.0
1001
AcDbBlockRepETag
1070
     1
1071
      116
1005
19033
  0
LINE
  5
19034
330
10FE8
100
AcDbEntity
  8
图框
370
    -3
100
AcDbLine
 10
1003.652872644553
 20
531.3291676047914
 30
0.0
 11
1003.652872644553
 21
484.0347692601515
 31
0.0
1001
AcDbBlockRepETag
1070
     1
1071
      117
1005
19034
  0
LINE
  5
19035
330
10FE8
100
AcDbEntity
  8
图框
370
    -3
100
AcDbLine
 10
965.3649733158603
 20
531.3291676047914
 30
0.0
 11
965.3649733158603
 21
509.2054027581959
 31
0.0
1001
AcDbBlockRepETag
1070
     1
1071
      118
1005
19035
  0
LINE
  5
19036
330
10FE8
100
AcDbEntity
  8
图框
370
    -3
100
AcDbLine
 10
956.1467379631109
 20
531.3291676047914
 30
0.0
 11
956.1467379631109
 21
509.2054027581959
 31
0.0
1001
AcDbBlockRepETag
1070
     1
1071
      119
1005
19036
  0
MTEXT
  5
19037
102
{ACAD_XDICTIONARY
360
1906E
102
}
330
10FE8
100
AcDbEntity
  8
图框
100
AcDbMText
 10
951.537620286737
 20
511.9708733640202
 30
0.0
 40
1.958998408821398
 41
9.218235352747692
 71
     5
 72
     5
  1
标记\P{\Fromans|c134;Mark}
 73
     1
 44
1.0
1001
AcDbBlockRepETag
1070
     1
1071
      120
1005
19037
1001
ACAD
1000
MTEXTBEGIN
1070
    73
1070
     1
1070
    44
1040
1.0
1070
    74
1070
     0
1000
MTEXTEND
1000
ACAD_MTEXT_DEFINED_HEIGHT_BEGIN
1070
    46
1040
5.530941211648832
1000
ACAD_MTEXT_DEFINED_HEIGHT_END
  0
MTEXT
  5
19038
102
{ACAD_XDICTIONARY
360
19070
102
}
330
10FE8
100
AcDbEntity
  8
图框
100
AcDbMText
 10
953.4185582897936
 20
493.4737568219182
 30
0.0
 40
2.252848170144607
 41
12.98011135886041
 71
     5
 72
     5
  1
审核\P{\Fromans|c134;Checked}
 73
     1
 44
1.0
1001
AcDbBlockRepETag
1070
     1
1071
      121
1005
19038
1001
ACAD
1000
MTEXTBEGIN
1070
    73
1070
     1
1070
    44
1040
1.0
1070
    74
1070
     0
1000
MTEXTEND
1000
ACAD_MTEXT_DEFINED_HEIGHT_BEGIN
1070
    46
1040
6.292658374510382
1000
ACAD_MTEXT_DEFINED_HEIGHT_END
  0
MTEXT
  5
19039
102
{ACAD_XDICTIONARY
360
19072
102
}
330
10FE8
100
AcDbEntity
  8
图框
100
AcDbMText
 10
953.4185582897936
 20
499.8775635376777
 30
0.0
 40
2.252848170144607
 41
12.98011135886041
 71
     5
 72
     5
  1
绘图\P{\Fromans|c134;Drawn\Ftxt|c134; }
 73
     1
 44
1.0
1001
AcDbBlockRepETag
1070
     1
1071
      122
1005
19039
1001
ACAD
1000
MTEXTBEGIN
1070
    73
1070
     1
1070
    44
1040
1.0
1070
    74
1070
     0
1000
MTEXTEND
1000
ACAD_MTEXT_DEFINED_HEIGHT_BEGIN
1070
    46
1040
6.070361692014189
1000
ACAD_MTEXT_DEFINED_HEIGHT_END
  0
ARC
  5
1903A
330
10FE8
100
AcDbEntity
  8
图框
 62
     4
370
    35
100
AcDbCircle
 10
1086.900627017421
 20
490.0179944151195
 30
0.0
 40
4.063310408393665
100
AcDbArc
 50
18.95237904564806
 51
161.0476209543519
1001
AcDbBlockRepETag
1070
     1
1071
      123
1005
1903A
  0
ARC
  5
1903B
330
10FE8
100
AcDbEntity
  8
图框
 62
     4
370
    35
100
AcDbCircle
 10
1086.900627017421
 20
490.0179944151195
 30
0.0
 40
4.063310408393665
100
AcDbArc
 50
198.952379045648
 51
341.0476209543519
1001
AcDbBlockRepETag
1070
     1
1071
      124
1005
1903B
  0
LINE
  5
1903C
330
10FE8
100
AcDbEntity
  8
图框
 62
     4
370
    35
100
AcDbLine
 10
1083.057593369548
 20
488.6983035966752
 30
0.0
 11
1090.74366066529
 21
488.6983035966752
 31
0.0
1001
AcDbBlockRepETag
1070
     1
1071
      125
1005
1903C
  0
LINE
  5
1903D
330
10FE8
100
AcDbEntity
  8
图框
 62
     4
370
    35
100
AcDbLine
 10
1083.057593369548
 20
491.3376852335652
 30
0.0
 11
1090.74366066529
 21
491.3376852335652
 31
0.0
1001
AcDbBlockRepETag
1070
     1
1071
      126
1005
1903D
  0
MTEXT
  5
1903E
330
10FE8
100
AcDbEntity
  8
图框
 62
     1
370
    20
100
AcDbMText
 10
1083.034582879669
 20
491.0506288081688
 30
0.0
 40
2.005930044038334
 41
5.047240019334847
 71
     1
 72
     5
  1
{\fArial|b0|i0|c0|p34;W}
  7
Chinese
 73
     1
 44
1.0
1001
AcDbBlockRepETag
1070
     1
1071
      127
1005
1903E
1001
ACAD
1000
MTEXTBEGIN
1070
    73
1070
     1
1070
    44
1040
1.0
1070
    74
1070
     0
1000
MTEXTEND
  0
LINE
  5
1903F
330
10FE8
100
AcDbEntity
  8
图框
370
    -3
100
AcDbLine
 10
946.9285026103634
 20
490.327427634663
 30
0.0
 11
1036.653967466372
 21
490.327427634663
 31
0.0
1001
AcDbBlockRepETag
1070
     1
1071
      128
1005
1903F
  0
LINE
  5
19040
330
10FE8
100
AcDbEntity
  8
图框
370
    -3
100
AcDbLine
 10
959.9086139692238
 20
509.2054027581959
 30
0.0
 11
959.9086139692238
 21
484.0347692601515
 31
0.0
1001
AcDbBlockRepETag
1070
     1
1071
      129
1005
19040
  0
MTEXT
  5
19041
330
10FE8
100
AcDbEntity
  8
图框
100
AcDbMText
 10
967.6594956750129
 20
506.0590735709403
 30
0.0
 40
2.252848170144607
 41
15.50176341157869
 71
     5
 72
     5
  1
姓名{\Fromans|c134;/Name\Ftxt|c134; }
 73
     1
 44
1.0
1001
AcDbBlockRepETag
1070
     1
1071
      130
1005
19041
1001
ACAD
1000
MTEXTBEGIN
1070
    73
1070
     1
1070
    44
1040
1.0
1070
    74
1070
     0
1000
MTEXTEND
1000
ACAD_MTEXT_DEFINED_HEIGHT_BEGIN
1070
    46
1040
6.292658374511246
1000
ACAD_MTEXT_DEFINED_HEIGHT_END
  0
MTEXT
  5
19042
330
10FE8
100
AcDbEntity
  8
图框
100
AcDbMText
 10
983.0415693332477
 20
506.0590735709403
 30
0.0
 40
2.252848170144607
 41
15.26238390489042
 71
     5
 72
     5
  1
日期{\Fromans|c134;/Date}
 73
     1
 44
1.0
1001
AcDbBlockRepETag
1070
     1
1071
      131
1005
19042
1001
ACAD
1000
MTEXTBEGIN
1070
    73
1070
     1
1070
    44
1040
1.0
1070
    74
1070
     0
1000
MTEXTEND
1000
ACAD_MTEXT_DEFINED_HEIGHT_BEGIN
1070
    46
1040
6.2926583745112
1000
ACAD_MTEXT_DEFINED_HEIGHT_END
  0
LINE
  5
19043
330
10FE8
100
AcDbEntity
  8
图框
370
    -3
100
AcDbLine
 10
946.9285026103634
 20
509.2054027581959
 30
0.0
 11
959.9086139692238
 21
502.9127443836848
 31
0.0
1001
AcDbBlockRepETag
1070
     1
1071
      132
1005
19043
  0
MTEXT
  5
19044
330
10FE8
100
AcDbEntity
  8
图框
100
AcDbMText
 10
1012.931405110086
 20
506.0185715840725
 30
0.0
 40
2.252848170144607
 41
16.93492221063566
 71
     5
 72
     5
  1
姓名{\Fromans|c134;/Name}
 73
     1
 44
1.0
1001
AcDbBlockRepETag
1070
     1
1071
      133
1005
19044
1001
ACAD
1000
MTEXTBEGIN
1070
    73
1070
     1
1070
    44
1040
1.0
1070
    74
1070
     0
1000
MTEXTEND
  0
MTEXT
  5
19045
330
10FE8
100
AcDbEntity
  8
图框
100
AcDbMText
 10
1028.977802139886
 20
506.0590735709403
 30
0.0
 40
2.252848170144607
 41
15.35233065297283
 71
     5
 72
     5
  1
日期{\Fromans|c134;/Date}
 73
     1
 44
1.0
1001
AcDbBlockRepETag
1070
     1
1071
      134
1005
19045
1001
ACAD
1000
MTEXTBEGIN
1070
    73
1070
     1
1070
    44
1040
1.0
1070
    74
1070
     0
1000
MTEXTEND
1000
ACAD_MTEXT_DEFINED_HEIGHT_BEGIN
1070
    46
1040
6.292658374511256
1000
ACAD_MTEXT_DEFINED_HEIGHT_END
  0
LINE
  5
19046
330
10FE8
100
AcDbEntity
  8
图框
370
    -3
100
AcDbLine
 10
1003.652872644553
 20
502.9127443836848
 30
0.0
 11
990.6727612856927
 21
509.2054027581959
 31
0.0
1001
AcDbBlockRepETag
1070
     1
1071
      135
1005
19046
  0
MTEXT
  5
19047
102
{ACAD_XDICTIONARY
360
19074
102
}
330
10FE8
100
AcDbEntity
  8
图框
100
AcDbMText
 10
997.1628169651232
 20
487.1810984474071
 30
0.0
 40
2.252848170144607
 41
12.98011135886052
 71
     5
 72
     5
  1
批准\P{\Fromans|c134;Approved}
 73
     1
 44
1.0
1001
AcDbBlockRepETag
1070
     1
1071
      136
1005
19047
1001
ACAD
1000
MTEXTBEGIN
1070
    73
1070
     1
1070
    44
1040
1.0
1070
    74
1070
     0
1000
MTEXTEND
1000
ACAD_MTEXT_DEFINED_HEIGHT_BEGIN
1070
    46
1040
6.292658374511517
1000
ACAD_MTEXT_DEFINED_HEIGHT_END
  0
MTEXT
  5
19048
102
{ACAD_XDICTIONARY
360
19076
102
}
330
10FE8
100
AcDbEntity
  8
图框
100
AcDbMText
 10
953.4185582897936
 20
487.1810984474071
 30
0.0
 40
2.252848170144607
 41
12.98011135886041
 71
     5
 72
     5
  1
工艺\P{\Fromans|c134;Process}
 73
     1
 44
1.0
1001
AcDbBlockRepETag
1070
     1
1071
      137
1005
19048
1001
ACAD
1000
MTEXTBEGIN
1070
    73
1070
     1
1070
    44
1040
1.0
1070
    74
1070
     0
1000
MTEXTEND
1000
ACAD_MTEXT_DEFINED_HEIGHT_BEGIN
1070
    46
1040
6.292658374511495
1000
ACAD_MTEXT_DEFINED_HEIGHT_END
  0
MTEXT
  5
19049
102
{ACAD_XDICTIONARY
360
19078
102
}
330
10FE8
100
AcDbEntity
  8
图框
100
AcDbMText
 10
1028.977802139886
 20
511.8287965307664
 30
0.0
 40
1.958998408821398
 41
15.3523306529728
 71
     5
 72
     5
  1
日期\P{\Fromans|c134;Date}
 73
     1
 44
1.0
1001
AcDbBlockRepETag
1070
     1
1071
      138
1005
19049
1001
ACAD
1000
MTEXTBEGIN
1070
    73
1070
     1
1070
    44
1040
1.0
1070
    74
1070
     0
1000
MTEXTEND
1000
ACAD_MTEXT_DEFINED_HEIGHT_BEGIN
1070
    46
1040
5.246787545140668
1000
ACAD_MTEXT_DEFINED_HEIGHT_END
  0
MTEXT
  5
1904A
330
10FE8
100
AcDbEntity
  8
图框
100
AcDbMText
 10
1086.643735910939
 20
509.1493769780809
 30
0.0
 40
2.154898249703542
 41
13.34474941400573
 71
     5
 72
     5
  1
产品料号\P{\Fromans|c134;Part No.}
 73
     1
 44
1.0
1001
AcDbBlockRepETag
1070
     1
1071
      139
1005
1904A
1001
ACAD
1000
MTEXTBEGIN
1070
    73
1070
     1
1070
    44
1040
1.0
1070
    74
1070
     0
1000
MTEXTEND
1000
ACAD_MTEXT_DEFINED_HEIGHT_BEGIN
1070
    46
1040
8.87215554796615
1000
ACAD_MTEXT_DEFINED_HEIGHT_END
  0
MTEXT
  5
1904B
330
10FE8
100
AcDbEntity
  8
图框
100
AcDbMText
 10
1086.643735910939
 20
500.2775205517163
 30
0.0
 40
1.958998408821398
 41
13.34474941400573
 71
     5
 72
     5
  1
产品名称\P{\Fromans|c134;Part Name}
 73
     1
 44
1.0
1001
AcDbBlockRepETag
1070
     1
1071
      140
1005
1904B
1001
ACAD
1000
MTEXTBEGIN
1070
    73
1070
     1
1070
    44
1040
1.0
1070
    74
1070
     0
1000
MTEXTEND
1000
ACAD_MTEXT_DEFINED_HEIGHT_BEGIN
1070
    46
1040
8.871557304763321
1000
ACAD_MTEXT_DEFINED_HEIGHT_END
  0
LINE
  5
1904C
330
10FE8
100
AcDbEntity
  8
图框
 62
     1
370
    18
100
AcDbLine
 10
833.4128518455365
 20
690.5347692601515
 30
0.0
 11
833.4128518455365
 21
480.5347692601515
 31
0.0
1001
AcDbBlockRepETag
1070
     1
1071
      141
1005
1904C
  0
LINE
  5
1904D
330
10FE8
100
AcDbEntity
  8
图框
 62
     1
370
    18
100
AcDbLine
 10
833.4128518455365
 20
480.5347692601515
 30
0.0
 11
1130.411601781236
 21
480.5347692601515
 31
0.0
1001
AcDbBlockRepETag
1070
     1
1071
      142
1005
1904D
  0
LINE
  5
1904E
330
10FE8
100
AcDbEntity
  8
图框
 62
     1
370
    18
100
AcDbLine
 10
833.4128518455365
 20
690.5347692601515
 30
0.0
 11
1130.411601781236
 21
690.5347692601515
 31
0.0
1001
AcDbBlockRepETag
1070
     1
1071
      143
1005
1904E
  0
LINE
  5
1904F
330
10FE8
100
AcDbEntity
  8
图框
 62
     1
370
    18
100
AcDbLine
 10
1130.411601781236
 20
480.5347692601515
 30
0.0
 11
1130.411601781236
 21
690.5347692601515
 31
0.0
1001
AcDbBlockRepETag
1070
     1
1071
      144
1005
1904F
  0
LINE
  5
19050
330
10FE8
100
AcDbEntity
  8
图框
370
    18
100
AcDbLine
 10
836.9128518455394
 20
686.7901958362482
 30
0.0
 11
861.5351874539182
 21
686.7901958362482
 31
0.0
1001
AcDbBlockRepETag
1070
     1
1071
      145
1005
19050
  0
LINE
  5
19051
330
10FE8
100
AcDbEntity
  8
图框
370
    50
100
AcDbLine
 10
1126.928502610363
 20
484.3410054693078
 30
0.0
 11
1126.928502610363
 21
675.5347692601515
 31
0.0
1001
AcDbBlockRepETag
1070
     1
1071
      146
1005
19051
  0
MTEXT
  5
19052
330
10FE8
100
AcDbEntity
  8
图框
 62
     3
100
AcDbMText
 10
1052.897990117958
 20
495.8417418993364
 30
0.0
 40
2.985513575034151
 41
10.82934843439114
 71
     5
 72
     5
  1
V1.0
  7
Romans字体
 73
     1
 44
1.0
1001
AcDbBlockRepETag
1070
     1
1071
      147
1005
19052
1001
ACAD
1000
MTEXTBEGIN
1070
    73
1070
     1
1070
    44
1040
1.0
1070
    74
1070
     0
1000
MTEXTEND
1000
ACAD_MTEXT_DEFINED_HEIGHT_BEGIN
1070
    46
1040
7.886094601211307
1000
ACAD_MTEXT_DEFINED_HEIGHT_END
  0
ENDBLK
  5
1107F
330
10FE8
100
AcDbEntity
  8
0
100
AcDbBlockEnd
  0
BLOCK
  5
1870B
330
1870A
100
AcDbEntity
  8
0
100
AcDbBlockBegin
  2
*D2
 70
     1
 10
0.0
 20
0.0
 30
0.0
  3
*D2
  1

  0
LINE
  5
18809
330
1870A
100
AcDbEntity
  8
DIM
 62
     6
370
    -2
100
AcDbLine
 10
529.5750660908391
 20
302.7727246589464
 30
0.0
 11
529.5750660908391
 21
321.6268746589467
 31
0.0
  0
LINE
  5
1880A
330
1870A
100
AcDbEntity
  8
DIM
 62
     6
370
    -2
100
AcDbLine
 10
502.3750660908391
 20
312.4227246589466
 30
0.0
 11
502.3750660908391
 21
321.6268746589467
 31
0.0
  0
LINE
  5
1880B
330
1870A
100
AcDbEntity
  8
DIM
 62
     1
370
    -2
100
AcDbLine
 10
526.5750660908389
 20
320.4268746589466
 30
0.0
 11
505.3750660908391
 21
320.4268746589466
 31
0.0
  0
SOLID
  5
1880C
330
1870A
100
AcDbEntity
  8
DIM
 62
     1
100
AcDbTrace
 10
526.5750660908389
 20
320.9268746589466
 30
0.0
 11
526.5750660908389
 21
319.9268746589466
 31
0.0
 12
529.5750660908391
 22
320.4268746589466
 32
0.0
 13
529.5750660908391
 23
320.4268746589466
 33
0.0
  0
SOLID
  5
1880D
330
1870A
100
AcDbEntity
  8
DIM
 62
     1
100
AcDbTrace
 10
505.3750660908391
 20
320.9268746589466
 30
0.0
 11
505.3750660908391
 21
319.9268746589466
 31
0.0
 12
502.3750660908391
 22
320.4268746589466
 32
0.0
 13
502.3750660908391
 23
320.4268746589466
 33
0.0
  0
MTEXT
  5
1880E
330
1870A
100
AcDbEntity
  8
DIM
 62
     4
370
     0
100
AcDbMText
 10
515.9750660908396
 20
322.9768746589466
 30
0.0
 40
3.5
 41
0.0
 71
     5
 72
     1
  1
\A1;27.2
  7
Romans字体
 73
     1
 44
1.0
1001
ACAD
1000
MTEXTBEGIN
1070
    73
1070
     1
1070
    44
1040
1.0
1070
    74
1070
     0
1000
MTEXTEND
  0
POINT
  5
1880F
330
1870A
100
AcDbEntity
  8
Defpoints
 62
     0
100
AcDbPoint
 10
529.5750660908391
 20
302.5727246589465
 30
0.0
  0
POINT
  5
18810
330
1870A
100
AcDbEntity
  8
Defpoints
 62
     0
100
AcDbPoint
 10
502.3750660908391
 20
312.2227246589466
 30
0.0
  0
POINT
  5
18811
330
1870A
100
AcDbEntity
  8
Defpoints
 62
     0
100
AcDbPoint
 10
502.3750660908391
 20
320.4268746589466
 30
0.0
  0
ENDBLK
  5
1870C
330
1870A
100
AcDbEntity
  8
0
100
AcDbBlockEnd
  0
BLOCK
  5
18717
330
18716
100
AcDbEntity
  8
0
100
AcDbBlockBegin
  2
*D3
 70
     1
 10
0.0
 20
0.0
 30
0.0
  3
*D3
  1

  0
LINE
  5
18812
330
18716
100
AcDbEntity
  8
DIM
 62
     6
370
    -2
100
AcDbLine
 10
465.9997031261205
 20
304.7727246589464
 30
0.0
 11
465.9997031261205
 21
321.4794096589466
 31
0.0
  0
LINE
  5
18813
330
18716
100
AcDbEntity
  8
DIM
 62
     6
370
    -2
100
AcDbLine
 10
480.599703126121
 20
309.0727246589464
 30
0.0
 11
480.599703126121
 21
321.4794096589466
 31
0.0
  0
LINE
  5
18814
330
18716
100
AcDbEntity
  8
DIM
 62
     1
370
    -2
100
AcDbLine
 10
468.9997031261206
 20
320.2794096589467
 30
0.0
 11
477.5997031261209
 21
320.2794096589467
 31
0.0
  0
SOLID
  5
18815
330
18716
100
AcDbEntity
  8
DIM
 62
     1
100
AcDbTrace
 10
468.9997031261206
 20
320.7794096589466
 30
0.0
 11
468.9997031261206
 21
319.7794096589466
 31
0.0
 12
465.9997031261205
 22
320.2794096589467
 32
0.0
 13
465.9997031261205
 23
320.2794096589467
 33
0.0
  0
SOLID
  5
18816
330
18716
100
AcDbEntity
  8
DIM
 62
     1
100
AcDbTrace
 10
477.5997031261209
 20
320.7794096589466
 30
0.0
 11
477.5997031261209
 21
319.7794096589466
 31
0.0
 12
480.599703126121
 22
320.2794096589467
 32
0.0
 13
480.599703126121
 23
320.2794096589467
 33
0.0
  0
MTEXT
  5
18817
330
18716
100
AcDbEntity
  8
DIM
 62
     4
370
     0
100
AcDbMText
 10
473.2997031261216
 20
322.8294096589466
 30
0.0
 40
3.5
 41
0.0
 71
     5
 72
     1
  1
\A1;14.6
  7
Romans字体
 73
     1
 44
1.0
1001
ACAD
1000
MTEXTBEGIN
1070
    73
1070
     1
1070
    44
1040
1.0
1070
    74
1070
     0
1000
MTEXTEND
  0
POINT
  5
18818
330
18716
100
AcDbEntity
  8
Defpoints
 62
     0
100
AcDbPoint
 10
465.9997031261205
 20
304.5727246589465
 30
0.0
  0
POINT
  5
18819
330
18716
100
AcDbEntity
  8
Defpoints
 62
     0
100
AcDbPoint
 10
480.599703126121
 20
308.8727246589464
 30
0.0
  0
POINT
  5
1881A
330
18716
100
AcDbEntity
  8
Defpoints
 62
     0
100
AcDbPoint
 10
480.599703126121
 20
320.2794096589467
 30
0.0
  0
ENDBLK
  5
18718
330
18716
100
AcDbEntity
  8
0
100
AcDbBlockEnd
  0
BLOCK
  5
18723
330
18722
100
AcDbEntity
  8
0
100
AcDbBlockBegin
  2
*D4
 70
     1
 10
0.0
 20
0.0
 30
0.0
  3
*D4
  1

  0
LINE
  5
1881B
330
18722
100
AcDbEntity
  8
DIM
 62
     6
370
    -2
100
AcDbLine
 10
470.5997031261216
 20
314.1727246589463
 30
0.0
 11
456.7564046261217
 21
314.1727246589463
 31
0.0
  0
LINE
  5
1881C
330
18722
100
AcDbEntity
  8
DIM
 62
     6
370
    -2
100
AcDbLine
 10
469.5997031261216
 20
279.9727226589463
 30
0.0
 11
456.7564046261217
 21
279.9727226589463
 31
0.0
  0
LINE
  5
1881D
330
18722
100
AcDbEntity
  8
DIM
 62
     1
370
    -2
100
AcDbLine
 10
457.9564046261218
 20
311.1727246589463
 30
0.0
 11
457.9564046261218
 21
282.9727226589463
 31
0.0
  0
SOLID
  5
1881E
330
18722
100
AcDbEntity
  8
DIM
 62
     1
100
AcDbTrace
 10
457.4564046261218
 20
311.1727246589463
 30
0.0
 11
458.4564046261219
 21
311.1727246589463
 31
0.0
 12
457.9564046261218
 22
314.1727246589463
 32
0.0
 13
457.9564046261218
 23
314.1727246589463
 33
0.0
  0
SOLID
  5
1881F
330
18722
100
AcDbEntity
  8
DIM
 62
     1
100
AcDbTrace
 10
457.4564046261218
 20
282.9727226589463
 30
0.0
 11
458.4564046261219
 21
282.9727226589463
 31
0.0
 12
457.9564046261218
 22
279.9727226589463
 32
0.0
 13
457.9564046261218
 23
279.9727226589463
 33
0.0
  0
MTEXT
  5
18820
330
18722
100
AcDbEntity
  8
DIM
 62
     4
370
     0
100
AcDbMText
 10
455.4064046261218
 20
297.0727246589465
 30
0.0
 40
3.5
 41
0.0
 71
     5
 72
     1
  1
\A1;34.2
  7
Romans字体
 11
0.0000000000000001
 21
1.0
 31
0.0
 73
     1
 44
1.0
1001
ACAD
1000
MTEXTBEGIN
1070
    73
1070
     1
1070
    44
1040
1.0
1070
    74
1070
     0
1000
MTEXTEND
  0
POINT
  5
18821
330
18722
100
AcDbEntity
  8
Defpoints
 62
     0
100
AcDbPoint
 10
470.7997031261217
 20
314.1727246589463
 30
0.0
  0
POINT
  5
18822
330
18722
100
AcDbEntity
  8
Defpoints
 62
     0
100
AcDbPoint
 10
469.7997031261216
 20
279.9727226589463
 30
0.0
  0
POINT
  5
18823
330
18722
100
AcDbEntity
  8
Defpoints
 62
     0
100
AcDbPoint
 10
457.9564046261218
 20
279.9727226589463
 30
0.0
  0
ENDBLK
  5
18724
330
18722
100
AcDbEntity
  8
0
100
AcDbBlockEnd
  0
BLOCK
  5
188A6
330
188A5
100
AcDbEntity
  8
0
100
AcDbBlockBegin
  2
*D5
 70
     1
 10
0.0
 20
0.0
 30
0.0
  3
*D5
  1

  0
LINE
  5
188A7
330
188A5
100
AcDbEntity
  8
DIM
 62
     6
370
    -2
100
AcDbLine
 10
5539.475798522981
 20
-1842.41709576439
 30
0.0
 11
5525.49787750686
 21
-1842.41709576439
 31
0.0
  0
LINE
  5
188A8
330
188A5
100
AcDbEntity
  8
DIM
 62
     6
370
    -2
100
AcDbLine
 10
5538.475798522981
 20
-1876.61709576439
 30
0.0
 11
5525.49787750686
 21
-1876.61709576439
 31
0.0
  0
LINE
  5
188A9
330
188A5
100
AcDbEntity
  8
DIM
 62
     1
370
    -2
100
AcDbLine
 10
5526.49787750686
 20
-1845.41709576439
 30
0.0
 11
5526.49787750686
 21
-1854.683762431057
 31
0.0
  0
LINE
  5
188AA
330
188A5
100
AcDbEntity
  8
DIM
 62
     1
370
    -2
100
AcDbLine
 10
5526.49787750686
 20
-1873.61709576439
 30
0.0
 11
5526.49787750686
 21
-1864.350429097723
 31
0.0
  0
SOLID
  5
188AB
330
188A5
100
AcDbEntity
  8
DIM
 62
     1
100
AcDbTrace
 10
5525.99787750686
 20
-1845.41709576439
 30
0.0
 11
5526.99787750686
 21
-1845.41709576439
 31
0.0
 12
5526.49787750686
 22
-1842.41709576439
 32
0.0
 13
5526.49787750686
 23
-1842.41709576439
 33
0.0
  0
SOLID
  5
188AC
330
188A5
100
AcDbEntity
  8
DIM
 62
     1
100
AcDbTrace
 10
5525.99787750686
 20
-1873.61709576439
 30
0.0
 11
5526.99787750686
 21
-1873.61709576439
 31
0.0
 12
5526.49787750686
 22
-1876.61709576439
 32
0.0
 13
5526.49787750686
 23
-1876.61709576439
 33
0.0
  0
MTEXT
  5
188AD
330
188A5
100
AcDbEntity
  8
DIM
 62
     4
100
AcDbMText
 10
5526.49787750686
 20
-1859.517095764389
 30
0.0
 40
3.5
 41
0.0
 71
     5
 72
     1
  1
\A1;34.2
 11
0.0000000000000001
 21
1.0
 31
0.0
 73
     1
 44
1.0
1001
ACAD
1000
MTEXTBEGIN
1070
    73
1070
     1
1070
    44
1040
1.0
1070
    74
1070
     0
1000
MTEXTEND
  0
POINT
  5
188AE
330
188A5
100
AcDbEntity
  8
Defpoints
 62
     0
100
AcDbPoint
 10
5539.475798522981
 20
-1842.41709576439
 30
0.0
  0
POINT
  5
188AF
330
188A5
100
AcDbEntity
  8
Defpoints
 62
     0
100
AcDbPoint
 10
5538.475798522981
 20
-1876.61709576439
 30
0.0
  0
POINT
  5
188B0
330
188A5
100
AcDbEntity
  8
Defpoints
 62
     0
100
AcDbPoint
 10
5526.49787750686
 20
-1876.61709576439
 30
0.0
  0
ENDBLK
  5
188B1
330
188A5
100
AcDbEntity
  8
0
100
AcDbBlockEnd
  0
BLOCK
  5
188B3
330
188B2
100
AcDbEntity
  8
0
100
AcDbBlockBegin
  2
*D6
 70
     1
 10
0.0
 20
0.0
 30
0.0
  3
*D6
  1

  0
LINE
  5
188B4
330
188B2
100
AcDbEntity
  8
DIM
 62
     6
370
    -2
100
AcDbLine
 10
5535.67579852298
 20
-1843.16709576439
 30
0.0
 11
5535.67579852298
 21
-1835.062284984023
 31
0.0
  0
LINE
  5
188B5
330
188B2
100
AcDbEntity
  8
DIM
 62
     6
370
    -2
100
AcDbLine
 10
5550.275798522982
 20
-1843.16709576439
 30
0.0
 11
5550.275798522982
 21
-1835.062284984023
 31
0.0
  0
LINE
  5
188B6
330
188B2
100
AcDbEntity
  8
DIM
 62
     1
370
    -2
100
AcDbLine
 10
5532.67579852298
 20
-1836.062284984023
 30
0.0
 11
5529.675798522981
 21
-1836.062284984023
 31
0.0
  0
LINE
  5
188B7
330
188B2
100
AcDbEntity
  8
DIM
 62
     1
370
    -2
100
AcDbLine
 10
5553.275798522981
 20
-1836.062284984023
 30
0.0
 11
5556.275798522981
 21
-1836.062284984023
 31
0.0
  0
SOLID
  5
188B8
330
188B2
100
AcDbEntity
  8
DIM
 62
     1
100
AcDbTrace
 10
5532.67579852298
 20
-1835.562284984023
 30
0.0
 11
5532.67579852298
 21
-1836.562284984023
 31
0.0
 12
5535.67579852298
 22
-1836.062284984023
 32
0.0
 13
5535.67579852298
 23
-1836.062284984023
 33
0.0
  0
SOLID
  5
188B9
330
188B2
100
AcDbEntity
  8
DIM
 62
     1
100
AcDbTrace
 10
5553.275798522981
 20
-1835.562284984023
 30
0.0
 11
5553.275798522981
 21
-1836.562284984023
 31
0.0
 12
5550.275798522982
 22
-1836.062284984023
 32
0.0
 13
5550.275798522982
 23
-1836.062284984023
 33
0.0
  0
MTEXT
  5
188BA
330
188B2
100
AcDbEntity
  8
DIM
 62
     4
100
AcDbMText
 10
5542.975798522981
 20
-1836.062284984023
 30
0.0
 40
3.5
 41
0.0
 71
     5
 72
     1
  1
\A1;14.6
 73
     1
 44
1.0
1001
ACAD
1000
MTEXTBEGIN
1070
    73
1070
     1
1070
    44
1040
1.0
1070
    74
1070
     0
1000
MTEXTEND
  0
POINT
  5
188BB
330
188B2
100
AcDbEntity
  8
Defpoints
 62
     0
100
AcDbPoint
 10
5535.67579852298
 20
-1843.16709576439
 30
0.0
  0
POINT
  5
188BC
330
188B2
100
AcDbEntity
  8
Defpoints
 62
     0
100
AcDbPoint
 10
5550.275798522982
 20
-1843.16709576439
 30
0.0
  0
POINT
  5
188BD
330
188B2
100
AcDbEntity
  8
Defpoints
 62
     0
100
AcDbPoint
 10
5550.275798522982
 20
-1836.062284984023
 30
0.0
  0
ENDBLK
  5
188BE
330
188B2
100
AcDbEntity
  8
0
100
AcDbBlockEnd
  0
BLOCK
  5
188C0
330
188BF
100
AcDbEntity
  8
0
100
AcDbBlockBegin
  2
*D7
 70
     1
 10
0.0
 20
0.0
 30
0.0
  3
*D7
  1

  0
LINE
  5
188C1
330
188BF
100
AcDbEntity
  8
DIM
 62
     6
370
    -2
100
AcDbLine
 10
5571.38861701572
 20
-1844.36709576439
 30
0.0
 11
5571.38861701572
 21
-1835.062284984023
 31
0.0
  0
LINE
  5
188C2
330
188BF
100
AcDbEntity
  8
DIM
 62
     6
370
    -2
100
AcDbLine
 10
5598.588617015722
 20
-1845.36709576439
 30
0.0
 11
5598.588617015722
 21
-1835.062284984023
 31
0.0
  0
LINE
  5
188C3
330
188BF
100
AcDbEntity
  8
DIM
 62
     1
370
    -2
100
AcDbLine
 10
5574.388617015721
 20
-1836.062284984023
 30
0.0
 11
5580.155283682389
 21
-1836.062284984023
 31
0.0
  0
LINE
  5
188C4
330
188BF
100
AcDbEntity
  8
DIM
 62
     1
370
    -2
100
AcDbLine
 10
5595.588617015722
 20
-1836.062284984023
 30
0.0
 11
5589.821950349056
 21
-1836.062284984023
 31
0.0
  0
SOLID
  5
188C5
330
188BF
100
AcDbEntity
  8
DIM
 62
     1
100
AcDbTrace
 10
5574.388617015721
 20
-1835.562284984023
 30
0.0
 11
5574.388617015721
 21
-1836.562284984023
 31
0.0
 12
5571.38861701572
 22
-1836.062284984023
 32
0.0
 13
5571.38861701572
 23
-1836.062284984023
 33
0.0
  0
SOLID
  5
188C6
330
188BF
100
AcDbEntity
  8
DIM
 62
     1
100
AcDbTrace
 10
5595.588617015722
 20
-1835.562284984023
 30
0.0
 11
5595.588617015722
 21
-1836.562284984023
 31
0.0
 12
5598.588617015722
 22
-1836.062284984023
 32
0.0
 13
5598.588617015722
 23
-1836.062284984023
 33
0.0
  0
MTEXT
  5
188C7
330
188BF
100
AcDbEntity
  8
DIM
 62
     4
100
AcDbMText
 10
5584.988617015722
 20
-1836.062284984023
 30
0.0
 40
3.5
 41
0.0
 71
     5
 72
     1
  1
\A1;27.2
 73
     1
 44
1.0
1001
ACAD
1000
MTEXTBEGIN
1070
    73
1070
     1
1070
    44
1040
1.0
1070
    74
1070
     0
1000
MTEXTEND
  0
POINT
  5
188C8
330
188BF
100
AcDbEntity
  8
Defpoints
 62
     0
100
AcDbPoint
 10
5571.38861701572
 20
-1844.36709576439
 30
0.0
  0
POINT
  5
188C9
330
188BF
100
AcDbEntity
  8
Defpoints
 62
     0
100
AcDbPoint
 10
5598.588617015722
 20
-1845.36709576439
 30
0.0
  0
POINT
  5
188CA
330
188BF
100
AcDbEntity
  8
Defpoints
 62
     0
100
AcDbPoint
 10
5598.588617015722
 20
-1836.062284984023
 30
0.0
  0
ENDBLK
  5
188CB
330
188BF
100
AcDbEntity
  8
0
100
AcDbBlockEnd
  0
BLOCK
  5
18E4A
330
18E49
100
AcDbEntity
  8
0
100
AcDbBlockBegin
  2
*D8
 70
     1
 10
0.0
 20
0.0
 30
0.0
  3
*D8
  1

  0
LINE
  5
18EC7
330
18E49
100
AcDbEntity
  8
DIM
 62
     6
370
    -2
100
AcDbLine
 10
470.487934374648
 20
317.3721424587458
 30
0.0
 11
456.5100133585273
 21
317.3721424587458
 31
0.0
  0
LINE
  5
18EC8
330
18E49
100
AcDbEntity
  8
DIM
 62
     6
370
    -2
100
AcDbLine
 10
469.4879343746479
 20
283.172142458746
 30
0.0
 11
456.5100133585273
 21
283.172142458746
 31
0.0
  0
LINE
  5
18EC9
330
18E49
100
AcDbEntity
  8
DIM
 62
     1
370
    -2
100
AcDbLine
 10
457.7100133585274
 20
314.3721424587458
 30
0.0
 11
457.7100133585274
 21
286.172142458746
 31
0.0
  0
SOLID
  5
18ECA
330
18E49
100
AcDbEntity
  8
DIM
 62
     1
100
AcDbTrace
 10
457.2100133585273
 20
314.3721424587458
 30
0.0
 11
458.2100133585274
 21
314.3721424587458
 31
0.0
 12
457.7100133585274
 22
317.3721424587458
 32
0.0
 13
457.7100133585274
 23
317.3721424587458
 33
0.0
  0
SOLID
  5
18ECB
330
18E49
100
AcDbEntity
  8
DIM
 62
     1
100
AcDbTrace
 10
457.2100133585273
 20
286.172142458746
 30
0.0
 11
458.2100133585274
 21
286.172142458746
 31
0.0
 12
457.7100133585274
 22
283.172142458746
 32
0.0
 13
457.7100133585274
 23
283.172142458746
 33
0.0
  0
MTEXT
  5
18ECC
330
18E49
100
AcDbEntity
  8
DIM
 62
     4
100
AcDbMText
 10
455.1600133585274
 20
300.272142458746
 30
0.0
 40
3.5
 41
0.0
 71
     5
 72
     1
  1
\A1;34.2
  7
Romans字体
 11
0.0000000000000001
 21
1.0
 31
0.0
 73
     1
 44
1.0
1001
ACAD
1000
MTEXTBEGIN
1070
    73
1070
     1
1070
    44
1040
1.0
1070
    74
1070
     0
1000
MTEXTEND
  0
POINT
  5
18ECD
330
18E49
100
AcDbEntity
  8
Defpoints
 62
     0
100
AcDbPoint
 10
470.6879343746479
 20
317.3721424587458
 30
0.0
  0
POINT
  5
18ECE
330
18E49
100
AcDbEntity
  8
Defpoints
 62
     0
100
AcDbPoint
 10
469.687934374648
 20
283.172142458746
 30
0.0
  0
POINT
  5
18ECF
330
18E49
100
AcDbEntity
  8
Defpoints
 62
     0
100
AcDbPoint
 10
457.7100133585274
 20
283.172142458746
 30
0.0
  0
ENDBLK
  5
18E4B
330
18E49
100
AcDbEntity
  8
0
100
AcDbBlockEnd
  0
BLOCK
  5
18E56
330
18E55
100
AcDbEntity
  8
0
100
AcDbBlockBegin
  2
*D9
 70
     1
 10
0.0
 20
0.0
 30
0.0
  3
*D9
  1

  0
LINE
  5
18ED0
330
18E55
100
AcDbEntity
  8
DIM
 62
     6
370
    -2
100
AcDbLine
 10
466.8879343746478
 20
316.8221424587459
 30
0.0
 11
466.8879343746478
 21
324.9269532391133
 31
0.0
  0
LINE
  5
18ED1
330
18E55
100
AcDbEntity
  8
DIM
 62
     6
370
    -2
100
AcDbLine
 10
481.4879343746482
 20
316.8221424587459
 30
0.0
 11
481.4879343746482
 21
324.9269532391133
 31
0.0
  0
LINE
  5
18ED2
330
18E55
100
AcDbEntity
  8
DIM
 62
     1
370
    -2
100
AcDbLine
 10
469.8879343746478
 20
323.7269532391133
 30
0.0
 11
478.4879343746482
 21
323.7269532391133
 31
0.0
  0
SOLID
  5
18ED3
330
18E55
100
AcDbEntity
  8
DIM
 62
     1
100
AcDbTrace
 10
469.8879343746478
 20
324.2269532391133
 30
0.0
 11
469.8879343746478
 21
323.2269532391133
 31
0.0
 12
466.8879343746478
 22
323.7269532391133
 32
0.0
 13
466.8879343746478
 23
323.7269532391133
 33
0.0
  0
SOLID
  5
18ED4
330
18E55
100
AcDbEntity
  8
DIM
 62
     1
100
AcDbTrace
 10
478.4879343746482
 20
324.2269532391133
 30
0.0
 11
478.4879343746482
 21
323.2269532391133
 31
0.0
 12
481.4879343746482
 22
323.7269532391133
 32
0.0
 13
481.4879343746482
 23
323.7269532391133
 33
0.0
  0
MTEXT
  5
18ED5
330
18E55
100
AcDbEntity
  8
DIM
 62
     4
100
AcDbMText
 10
474.187934374648
 20
326.2769532391133
 30
0.0
 40
3.5
 41
0.0
 71
     5
 72
     1
  1
\A1;14.6
  7
Romans字体
 73
     1
 44
1.0
1001
ACAD
1000
MTEXTBEGIN
1070
    73
1070
     1
1070
    44
1040
1.0
1070
    74
1070
     0
1000
MTEXTEND
  0
POINT
  5
18ED6
330
18E55
100
AcDbEntity
  8
Defpoints
 62
     0
100
AcDbPoint
 10
466.8879343746478
 20
316.6221424587459
 30
0.0
  0
POINT
  5
18ED7
330
18E55
100
AcDbEntity
  8
Defpoints
 62
     0
100
AcDbPoint
 10
481.4879343746482
 20
316.6221424587459
 30
0.0
  0
POINT
  5
18ED8
330
18E55
100
AcDbEntity
  8
Defpoints
 62
     0
100
AcDbPoint
 10
481.4879343746482
 20
323.7269532391133
 30
0.0
  0
ENDBLK
  5
18E57
330
18E55
100
AcDbEntity
  8
0
100
AcDbBlockEnd
  0
BLOCK
  5
18E62
330
18E61
100
AcDbEntity
  8
0
100
AcDbBlockBegin
  2
*D10
 70
     1
 10
0.0
 20
0.0
 30
0.0
  3
*D10
  1

  0
LINE
  5
18EBE
330
18E61
100
AcDbEntity
  8
DIM
 62
     6
370
    -2
100
AcDbLine
 10
510.5334849114221
 20
315.6221424587461
 30
0.0
 11
510.5334849114221
 21
324.9269532391133
 31
0.0
  0
LINE
  5
18EBF
330
18E61
100
AcDbEntity
  8
DIM
 62
     6
370
    -2
100
AcDbLine
 10
537.7334849114228
 20
314.622142458746
 30
0.0
 11
537.7334849114228
 21
324.9269532391133
 31
0.0
  0
LINE
  5
18EC0
330
18E61
100
AcDbEntity
  8
DIM
 62
     1
370
    -2
100
AcDbLine
 10
513.5334849114221
 20
323.7269532391133
 30
0.0
 11
534.7334849114229
 21
323.7269532391133
 31
0.0
  0
SOLID
  5
18EC1
330
18E61
100
AcDbEntity
  8
DIM
 62
     1
100
AcDbTrace
 10
513.5334849114221
 20
324.2269532391133
 30
0.0
 11
513.5334849114221
 21
323.2269532391133
 31
0.0
 12
510.5334849114221
 22
323.7269532391133
 32
0.0
 13
510.5334849114221
 23
323.7269532391133
 33
0.0
  0
SOLID
  5
18EC2
330
18E61
100
AcDbEntity
  8
DIM
 62
     1
100
AcDbTrace
 10
534.7334849114229
 20
324.2269532391133
 30
0.0
 11
534.7334849114229
 21
323.2269532391133
 31
0.0
 12
537.7334849114228
 22
323.7269532391133
 32
0.0
 13
537.7334849114228
 23
323.7269532391133
 33
0.0
  0
MTEXT
  5
18EC3
330
18E61
100
AcDbEntity
  8
DIM
 62
     4
100
AcDbMText
 10
524.1334849114225
 20
326.2769532391133
 30
0.0
 40
3.5
 41
0.0
 71
     5
 72
     1
  1
\A1;27.2
  7
Romans字体
 73
     1
 44
1.0
1001
ACAD
1000
MTEXTBEGIN
1070
    73
1070
     1
1070
    44
1040
1.0
1070
    74
1070
     0
1000
MTEXTEND
  0
POINT
  5
18EC4
330
18E61
100
AcDbEntity
  8
Defpoints
 62
     0
100
AcDbPoint
 10
510.5334849114221
 20
315.4221424587461
 30
0.0
  0
POINT
  5
18EC5
330
18E61
100
AcDbEntity
  8
Defpoints
 62
     0
100
AcDbPoint
 10
537.7334849114228
 20
314.4221424587461
 30
0.0
  0
POINT
  5
18EC6
330
18E61
100
AcDbEntity
  8
Defpoints
 62
     0
100
AcDbPoint
 10
537.7334849114228
 20
323.7269532391133
 30
0.0
  0
ENDBLK
  5
18E63
330
18E61
100
AcDbEntity
  8
0
100
AcDbBlockEnd
  0
ENDSEC
  0
SECTION
  2
ENTITIES
  0
HATCH
  5
28AE
330
1F
100
AcDbEntity
  8
图层 1
 62
     7
100
AcDbHatch
 10
0.0
 20
0.0
 30
0.0
210
0.0
220
0.0
230
1.0
  2
SOLID
 70
     1
 71
     0
 91
        1
 92
        1
 93
        2
 72
     4
 94
        3
 73
     0
 74
     0
 95
       17
 96
       13
 40
0.0
 40
0.0
 40
0.0
 40
0.0
 40
0.3527780104152769
 40
0.3527780104152769
 40
0.3527780104152769
 40
0.7055560208305538
 40
0.7055560208305538
 40
0.7055560208305538
 40
1.058334031245828
 40
1.058334031245828
 40
1.058334031245828
 40
1.411112041661104
 40
1.411112041661104
 40
1.411112041661104
 40
1.411112041661104
 10
11.07013262565829
 20
29.50312817963231
 10
11.07013262565829
 20
29.50312817963231
 10
10.9431807732774
 20
29.50312817963231
 10
10.9431807732774
 20
29.50312817963231
 10
10.9431807732774
 20
29.50312817963231
 10
10.85843136843155
 20
29.22786486877117
 10
10.85843136843155
 20
29.22786486877117
 10
10.85843136843155
 20
29.22786486877117
 10
10.90080607085448
 20
29.2068497724476
 10
10.90080607085448
 20
29.2068497724476
 10
10.94455881238059
 20
29.31571486159919
 10
11.00346998404173
 20
29.40907701083995
 10
11.07013262565829
 20
29.50312817963231
 72
     1
 10
11.07013262565829
 20
29.50312817963231
 11
11.07013262565829
 21
29.50312817963231
 97
        0
 75
     0
 76
     1
 98
        0
  0
HATCH
  5
2C65
330
1F
100
AcDbEntity
  8
图层 1
 62
     7
100
AcDbHatch
 10
0.0
 20
0.0
 30
0.0
210
0.0
220
0.0
230
1.0
  2
SOLID
 70
     1
 71
     0
 91
        1
 92
        1
 93
        2
 72
     4
 94
        3
 73
     0
 74
     0
 95
       47
 96
       43
 40
0.0
 40
0.0
 40
0.0
 40
0.0
 40
0.3527780104152769
 40
0.3527780104152769
 40
0.3527780104152769
 40
0.7055560208305538
 40
0.7055560208305538
 40
0.7055560208305538
 40
1.058334031245828
 40
1.058334031245828
 40
1.058334031245828
 40
1.411112041661104
 40
1.411112041661104
 40
1.411112041661104
 40
1.763890052076384
 40
1.763890052076384
 40
1.763890052076384
 40
2.116668062491659
 40
2.116668062491659
 40
2.116668062491659
 40
2.469446072906936
 40
2.469446072906936
 40
2.469446072906936
 40
2.822224083322215
 40
2.822224083322215
 40
2.822224083322215
 40
3.175002093737492
 40
3.175002093737492
 40
3.175002093737492
 40
3.527780104152768
 40
3.527780104152768
 40
3.527780104152768
 40
3.880558114568044
 40
3.880558114568044
 40
3.880558114568044
 40
4.233336124983321
 40
4.233336124983321
 40
4.233336124983321
 40
4.586114135398599
 40
4.586114135398599
 40
4.586114135398599
 40
4.938892145813873
 40
4.938892145813873
 40
4.938892145813873
 40
4.938892145813873
 10
162.8986914070121
 20
257.4895347631509
 10
162.8986914070121
 20
257.4895347631509
 10
162.9200510131114
 20
257.4471600607279
 10
162.9200510131114
 20
257.4471600607279
 10
162.9200510131114
 20
257.4471600607279
 10
162.9200510131114
 20
257.404785358305
 10
162.9200510131114
 20
257.404785358305
 10
162.9200510131114
 20
257.404785358305
 10
162.8986914070121
 20
257.36258291077
 10
162.8986914070121
 20
257.36258291077
 10
162.8986914070121
 20
257.36258291077
 10
162.8986914070121
 20
257.320208208347
 10
162.8986914070121
 20
257.320208208347
 10
162.8986914070121
 20
257.320208208347
 10
162.8563167045891
 20
257.2990208571356
 10
162.8563167045891
 20
257.2990208571356
 10
162.8563167045891
 20
257.2990208571356
 10
162.8139420021662
 20
257.2563016449369
 10
162.8139420021662
 20
257.2563016449369
 10
162.8139420021662
 20
257.2563016449369
 10
162.7295371070961
 20
257.2563016449369
 10
162.7295371070961
 20
257.2563016449369
 10
162.7295371070961
 20
257.2563016449369
 10
162.6658027985738
 20
257.2778335059241
 10
162.6658027985738
 20
257.2778335059241
 10
162.6658027985738
 20
257.2778335059241
 10
162.6237726059267
 20
257.2990208571356
 10
162.6237726059267
 20
257.2990208571356
 10
162.6237726059267
 20
257.2990208571356
 10
162.5813979035038
 20
257.3413955595585
 10
162.5813979035038
 20
257.3413955595585
 10
162.5813979035038
 20
257.3413955595585
 10
162.5813979035038
 20
257.4895347631509
 10
162.5813979035038
 20
257.4895347631509
 10
162.5813979035038
 20
257.4895347631509
 10
162.6447877022503
 20
257.5525800521216
 10
162.6447877022503
 20
257.5525800521216
 10
162.6447877022503
 20
257.5525800521216
 10
162.7081775009967
 20
257.5525800521216
 10
162.7081775009967
 20
257.5525800521216
 10
162.8749202324821
 20
257.5424170137356
 10
162.7918933765152
 20
257.5939212252171
 10
162.8986914070121
 20
257.4895347631509
 72
     1
 10
162.8986914070121
 20
257.4895347631509
 11
162.8986914070121
 21
257.4895347631509
 97
        0
 75
     0
 76
     1
 98
        0
  0
HATCH
  5
2EE7
330
1F
100
AcDbEntity
  8
图层 1
 62
     7
100
AcDbHatch
 10
0.0
 20
0.0
 30
0.0
210
0.0
220
0.0
230
1.0
  2
SOLID
 70
     1
 71
     0
 91
        1
 92
        1
 93
        2
 72
     4
 94
        3
 73
     0
 74
     0
 95
       56
 96
       52
 40
0.0
 40
0.0
 40
0.0
 40
0.0
 40
0.3527780104152769
 40
0.3527780104152769
 40
0.3527780104152769
 40
0.7055560208305538
 40
0.7055560208305538
 40
0.7055560208305538
 40
1.058334031245828
 40
1.058334031245828
 40
1.058334031245828
 40
1.411112041661104
 40
1.411112041661104
 40
1.411112041661104
 40
1.763890052076384
 40
1.763890052076384
 40
1.763890052076384
 40
2.116668062491659
 40
2.116668062491659
 40
2.116668062491659
 40
2.469446072906936
 40
2.469446072906936
 40
2.469446072906936
 40
2.822224083322215
 40
2.822224083322215
 40
2.822224083322215
 40
3.175002093737492
 40
3.175002093737492
 40
3.175002093737492
 40
3.527780104152768
 40
3.527780104152768
 40
3.527780104152768
 40
3.880558114568044
 40
3.880558114568044
 40
3.880558114568044
 40
4.233336124983321
 40
4.233336124983321
 40
4.233336124983321
 40
4.586114135398599
 40
4.586114135398599
 40
4.586114135398599
 40
4.938892145813873
 40
4.938892145813873
 40
4.938892145813873
 40
5.291670156229153
 40
5.291670156229153
 40
5.291670156229153
 40
5.64444816664443
 40
5.64444816664443
 40
5.64444816664443
 40
5.997226177059705
 40
5.997226177059705
 40
5.997226177059705
 40
5.997226177059705
 10
185.4837187788815
 20
241.4451977396596
 10
185.4837187788815
 20
241.4451977396596
 10
185.4837187788815
 20
241.4028230372367
 10
185.4837187788815
 20
241.4028230372367
 10
185.4837187788815
 20
241.4028230372367
 10
185.5047338752051
 20
241.3604483348137
 10
185.5047338752051
 20
241.3604483348137
 10
185.4520238795082
 20
241.2782827532863
 10
185.4671823096433
 20
241.1897437409066
 10
185.335579575289
 20
241.2119646214456
 10
185.335579575289
 20
241.2119646214456
 10
185.2932048728662
 20
241.2119646214456
 10
185.2932048728662
 20
241.2119646214456
 10
185.2932048728662
 20
241.2119646214456
 10
185.2294705643439
 20
241.2334964824328
 10
185.2294705643439
 20
241.2334964824328
 10
185.2294705643439
 20
241.2334964824328
 10
185.1660807655974
 20
241.2543393238685
 10
185.1660807655974
 20
241.2543393238685
 10
185.1660807655974
 20
241.2543393238685
 10
185.1450656692739
 20
241.2758711848558
 10
185.1450656692739
 20
241.2758711848558
 10
185.1450656692739
 20
241.2758711848558
 10
185.1450656692739
 20
241.2967140262914
 10
185.1450656692739
 20
241.2967140262914
 10
185.1450656692739
 20
241.2967140262914
 10
185.1237060631745
 20
241.3604483348137
 10
185.1237060631745
 20
241.3604483348137
 10
185.1237060631745
 20
241.3604483348137
 10
185.1237060631745
 20
241.4028230372367
 10
185.1237060631745
 20
241.4028230372367
 10
185.1237060631745
 20
241.4028230372367
 10
185.1660807655974
 20
241.4875724420825
 10
185.1660807655974
 20
241.4875724420825
 10
185.1660807655974
 20
241.4875724420825
 10
185.2084554680203
 20
241.5085875384061
 10
185.2084554680203
 20
241.5085875384061
 10
185.2084554680203
 20
241.5085875384061
 10
185.2718452667668
 20
241.5297748896175
 10
185.2718452667668
 20
241.5297748896175
 10
185.2718452667668
 20
241.5297748896175
 10
185.3565946716127
 20
241.5297748896175
 10
185.3565946716127
 20
241.5297748896175
 10
185.3565946716127
 20
241.5297748896175
 10
185.4199844703592
 20
241.5085875384061
 10
185.4199844703592
 20
241.5085875384061
 10
185.4199844703592
 20
241.5085875384061
 10
185.4623591727821
 20
241.4875724420825
 10
185.4623591727821
 20
241.4875724420825
 10
185.4623591727821
 20
241.4875724420825
 10
185.4837187788815
 20
241.4451977396596
 10
185.4837187788815
 20
241.4451977396596
 72
     1
 10
185.4837187788815
 20
241.4451977396596
 11
185.4837187788815
 21
241.4451977396596
 97
        0
 75
     0
 76
     1
 98
        0
  0
HATCH
  5
2F93
330
1F
100
AcDbEntity
  8
图层 1
 62
     7
100
AcDbHatch
 10
0.0
 20
0.0
 30
0.0
210
0.0
220
0.0
230
1.0
  2
SOLID
 70
     1
 71
     0
 91
        1
 92
        1
 93
        2
 72
     4
 94
        3
 73
     0
 74
     0
 95
       38
 96
       34
 40
0.0
 40
0.0
 40
0.0
 40
0.0
 40
0.3527780104152769
 40
0.3527780104152769
 40
0.3527780104152769
 40
0.7055560208305538
 40
0.7055560208305538
 40
0.7055560208305538
 40
1.058334031245828
 40
1.058334031245828
 40
1.058334031245828
 40
1.411112041661104
 40
1.411112041661104
 40
1.411112041661104
 40
1.763890052076384
 40
1.763890052076384
 40
1.763890052076384
 40
2.116668062491659
 40
2.116668062491659
 40
2.116668062491659
 40
2.469446072906936
 40
2.469446072906936
 40
2.469446072906936
 40
2.822224083322215
 40
2.822224083322215
 40
2.822224083322215
 40
3.175002093737492
 40
3.175002093737492
 40
3.175002093737492
 40
3.527780104152768
 40
3.527780104152768
 40
3.527780104152768
 40
3.880558114568044
 40
3.880558114568044
 40
3.880558114568044
 40
3.880558114568044
 10
185.907121293335
 20
220.1937677098971
 10
185.9005756075949
 20
220.0449394867532
 10
185.9329595265197
 20
220.1136691870245
 10
185.864746590912
 20
219.9817219428946
 10
185.864746590912
 20
219.9817219428946
 10
185.822371888489
 20
219.9605345916831
 10
185.822371888489
 20
219.9605345916831
 10
185.822371888489
 20
219.9605345916831
 10
185.6528730787974
 20
219.9605345916831
 10
185.6528730787974
 20
219.9605345916831
 10
185.6528730787974
 20
219.9605345916831
 10
185.5894832800509
 20
220.002909294106
 10
185.5894832800509
 20
220.002909294106
 10
185.5894832800509
 20
220.002909294106
 10
185.5681236739515
 20
220.0240966453175
 10
185.5681236739515
 20
220.0240966453175
 10
185.5681236739515
 20
220.0240966453175
 10
185.5681236739515
 20
220.045283996529
 10
185.5681236739515
 20
220.045283996529
 10
185.5681236739515
 20
220.045283996529
 10
185.547108577628
 20
220.0876586989519
 10
185.547108577628
 20
220.0876586989519
 10
185.547108577628
 20
220.0876586989519
 10
185.547108577628
 20
220.1513930074742
 10
185.547108577628
 20
220.1513930074742
 10
185.547108577628
 20
220.1513930074742
 10
185.5894832800509
 20
220.23614241232
 10
185.5894832800509
 20
220.23614241232
 10
185.5894832800509
 20
220.23614241232
 10
185.6318579824738
 20
220.2573297635315
 10
185.6318579824738
 20
220.2573297635315
 10
185.7055830744942
 20
220.2566407439799
 10
185.8416644359337
 20
220.3310548555519
 10
185.907121293335
 20
220.1937677098971
 72
     1
 10
185.907121293335
 20
220.1937677098971
 11
185.907121293335
 21
220.1937677098971
 97
        0
 75
     0
 76
     1
 98
        0
  0
HATCH
  5
2FDE
330
1F
100
AcDbEntity
  8
图层 1
 62
     7
100
AcDbHatch
 10
0.0
 20
0.0
 30
0.0
210
0.0
220
0.0
230
1.0
  2
SOLID
 70
     1
 71
     0
 91
        1
 92
        1
 93
        2
 72
     4
 94
        3
 73
     0
 74
     0
 95
       50
 96
       46
 40
0.0
 40
0.0
 40
0.0
 40
0.0
 40
0.3527780104152769
 40
0.3527780104152769
 40
0.3527780104152769
 40
0.7055560208305538
 40
0.7055560208305538
 40
0.7055560208305538
 40
1.058334031245828
 40
1.058334031245828
 40
1.058334031245828
 40
1.411112041661104
 40
1.411112041661104
 40
1.411112041661104
 40
1.763890052076384
 40
1.763890052076384
 40
1.763890052076384
 40
2.116668062491659
 40
2.116668062491659
 40
2.116668062491659
 40
2.469446072906936
 40
2.469446072906936
 40
2.469446072906936
 40
2.822224083322215
 40
2.822224083322215
 40
2.822224083322215
 40
3.175002093737492
 40
3.175002093737492
 40
3.175002093737492
 40
3.527780104152768
 40
3.527780104152768
 40
3.527780104152768
 40
3.880558114568044
 40
3.880558114568044
 40
3.880558114568044
 40
4.233336124983321
 40
4.233336124983321
 40
4.233336124983321
 40
4.586114135398599
 40
4.586114135398599
 40
4.586114135398599
 40
4.938892145813873
 40
4.938892145813873
 40
4.938892145813873
 40
5.291670156229153
 40
5.291670156229153
 40
5.291670156229153
 40
5.291670156229153
 10
180.9117295442905
 20
208.9327766684477
 10
180.9117295442905
 20
208.9327766684477
 10
180.9117295442905
 20
208.7637946234197
 10
180.9117295442905
 20
208.7637946234197
 10
181.2273004989198
 20
208.6749111012643
 10
181.3833634273555
 20
208.6776671794706
 10
181.6948002646751
 20
208.5097186637701
 10
181.9542161258496
 20
208.4294478860095
 10
182.1388733656765
 20
208.2134402565853
 10
182.3297317814676
 20
208.02292635057
 10
182.3297317814676
 20
208.02292635057
 10
182.435496282637
 20
208.065301052993
 10
182.435496282637
 20
208.065301052993
 10
182.288390608372
 20
208.2733849575739
 10
182.3752070718726
 20
208.2134402565853
 10
182.1605774815516
 20
208.3824223016133
 10
182.1605774815516
 20
208.3824223016133
 10
182.1182027791287
 20
208.4247970040363
 10
182.1182027791287
 20
208.4247970040363
 10
182.1182027791287
 20
208.4247970040363
 10
182.0968431730294
 20
208.467516216235
 10
182.0968431730294
 20
208.467516216235
 10
182.0968431730294
 20
208.467516216235
 10
182.0544684706064
 20
208.4883590576707
 10
182.0544684706064
 20
208.4883590576707
 10
182.0544684706064
 20
208.4883590576707
 10
181.9910786718599
 20
208.5305615052057
 10
181.9910786718599
 20
208.5305615052057
 10
181.9910786718599
 20
208.5305615052057
 10
181.948703969437
 20
208.552093366193
 10
181.948703969437
 20
208.552093366193
 10
181.948703969437
 20
208.552093366193
 10
181.9063292670141
 20
208.5729362076286
 10
181.9063292670141
 20
208.5729362076286
 10
181.9063292670141
 20
208.5729362076286
 10
181.8639545645911
 20
208.6156554198274
 10
181.8639545645911
 20
208.6156554198274
 10
181.8639545645911
 20
208.6156554198274
 10
181.821924371944
 20
208.6368427710388
 10
181.821924371944
 20
208.6368427710388
 10
181.6637943848536
 20
208.6742220817127
 10
181.5452830219797
 20
208.8092699138248
 10
181.3771622513911
 20
208.8061693258427
 10
181.2803550043924
 20
208.8573290275484
 10
181.0126709085988
 20
208.8971199066528
 10
180.9117295442905
 20
208.9327766684477
 72
     1
 10
180.9117295442905
 20
208.9327766684477
 11
180.9117295442905
 21
208.9327766684477
 97
        0
 75
     0
 76
     1
 98
        0
  0
HATCH
  5
35C8
330
1F
100
AcDbEntity
  8
图层 1
 62
     7
100
AcDbHatch
 10
0.0
 20
0.0
 30
0.0
210
0.0
220
0.0
230
1.0
  2
SOLID
 70
     1
 71
     0
 91
        1
 92
        1
 93
        2
 72
     4
 94
        3
 73
     0
 74
     0
 95
       38
 96
       34
 40
0.0
 40
0.0
 40
0.0
 40
0.0
 40
0.3527780104152769
 40
0.3527780104152769
 40
0.3527780104152769
 40
0.7055560208305538
 40
0.7055560208305538
 40
0.7055560208305538
 40
1.058334031245828
 40
1.058334031245828
 40
1.058334031245828
 40
1.411112041661104
 40
1.411112041661104
 40
1.411112041661104
 40
1.763890052076384
 40
1.763890052076384
 40
1.763890052076384
 40
2.116668062491659
 40
2.116668062491659
 40
2.116668062491659
 40
2.469446072906936
 40
2.469446072906936
 40
2.469446072906936
 40
2.822224083322215
 40
2.822224083322215
 40
2.822224083322215
 40
3.175002093737492
 40
3.175002093737492
 40
3.175002093737492
 40
3.527780104152768
 40
3.527780104152768
 40
3.527780104152768
 40
3.880558114568044
 40
3.880558114568044
 40
3.880558114568044
 40
3.880558114568044
 10
189.145513185819
 20
166.8326485368285
 10
189.207869455238
 20
166.740492171803
 10
189.1317327947871
 20
166.6833035490209
 10
189.103138483396
 20
166.6209472796017
 10
189.103138483396
 20
166.6209472796017
 10
189.0607637809731
 20
166.5997599283903
 10
189.0607637809731
 20
166.5997599283903
 10
189.0607637809731
 20
166.5997599283903
 10
188.9973739822266
 20
166.5785725771788
 10
188.9973739822266
 20
166.5785725771788
 10
188.9973739822266
 20
166.5785725771788
 10
188.9549992798037
 20
166.5997599283903
 10
188.9549992798037
 20
166.5997599283903
 10
188.9549992798037
 20
166.5997599283903
 10
188.8916094810572
 20
166.5997599283903
 10
188.8916094810572
 20
166.5997599283903
 10
188.8916094810572
 20
166.5997599283903
 10
188.8492347786343
 20
166.6209472796017
 10
188.8492347786343
 20
166.6209472796017
 10
188.8492347786343
 20
166.6209472796017
 10
188.8278751725349
 20
166.6633219820247
 10
188.8278751725349
 20
166.6633219820247
 10
188.8278751725349
 20
166.6633219820247
 10
188.8068600762114
 20
166.6845093332361
 10
188.8068600762114
 20
166.6845093332361
 10
188.8068600762114
 20
166.6845093332361
 10
188.8068600762114
 20
166.8326485368285
 10
188.8068600762114
 20
166.8326485368285
 10
188.8068600762114
 20
166.8326485368285
 10
188.8702498749578
 20
166.896038335575
 10
188.8702498749578
 20
166.896038335575
 10
189.0228677056355
 20
166.8819134347673
 10
189.0686875058164
 20
166.9411691162043
 10
189.145513185819
 20
166.8326485368285
 72
     1
 10
189.145513185819
 20
166.8326485368285
 11
189.145513185819
 21
166.8326485368285
 97
        0
 75
     0
 76
     1
 98
        0
  0
HATCH
  5
35D8
330
1F
100
AcDbEntity
  8
图层 1
 62
     7
100
AcDbHatch
 10
0.0
 20
0.0
 30
0.0
210
0.0
220
0.0
230
1.0
  2
SOLID
 70
     1
 71
     0
 91
        1
 92
        1
 93
        2
 72
     4
 94
        3
 73
     0
 74
     0
 95
       68
 96
       64
 40
0.0
 40
0.0
 40
0.0
 40
0.0
 40
0.3527780104152769
 40
0.3527780104152769
 40
0.3527780104152769
 40
0.7055560208305538
 40
0.7055560208305538
 40
0.7055560208305538
 40
1.058334031245828
 40
1.058334031245828
 40
1.058334031245828
 40
1.411112041661104
 40
1.411112041661104
 40
1.411112041661104
 40
1.763890052076384
 40
1.763890052076384
 40
1.763890052076384
 40
2.116668062491659
 40
2.116668062491659
 40
2.116668062491659
 40
2.469446072906936
 40
2.469446072906936
 40
2.469446072906936
 40
2.822224083322215
 40
2.822224083322215
 40
2.822224083322215
 40
3.175002093737492
 40
3.175002093737492
 40
3.175002093737492
 40
3.527780104152768
 40
3.527780104152768
 40
3.527780104152768
 40
3.880558114568044
 40
3.880558114568044
 40
3.880558114568044
 40
4.233336124983321
 40
4.233336124983321
 40
4.233336124983321
 40
4.586114135398599
 40
4.586114135398599
 40
4.586114135398599
 40
4.938892145813873
 40
4.938892145813873
 40
4.938892145813873
 40
5.291670156229153
 40
5.291670156229153
 40
5.291670156229153
 40
5.64444816664443
 40
5.64444816664443
 40
5.64444816664443
 40
5.997226177059705
 40
5.997226177059705
 40
5.997226177059705
 40
6.350004187474984
 40
6.350004187474984
 40
6.350004187474984
 40
6.702782197890257
 40
6.702782197890257
 40
6.702782197890257
 40
7.055560208305537
 40
7.055560208305537
 40
7.055560208305537
 40
7.408338218720808
 40
7.408338218720808
 40
7.408338218720808
 40
7.408338218720808
 10
174.7732543591544
 20
135.4846705078077
 10
174.7732543591544
 20
135.4846705078077
 10
174.7732543591544
 20
135.3789060066383
 10
174.7732543591544
 20
135.3789060066383
 10
174.7732543591544
 20
135.3789060066383
 10
174.8156290615773
 20
135.3789060066383
 10
174.8156290615773
 20
135.3789060066383
 10
174.8156290615773
 20
135.3789060066383
 10
174.8580037640002
 20
135.3578909103147
 10
174.8580037640002
 20
135.3578909103147
 10
174.8580037640002
 20
135.3578909103147
 10
174.9213935627468
 20
135.3578909103147
 10
174.9213935627468
 20
135.3578909103147
 10
174.9213935627468
 20
135.3578909103147
 10
174.9637682651697
 20
135.3365313042154
 10
174.9637682651697
 20
135.3365313042154
 10
174.9637682651697
 20
135.3365313042154
 10
174.9847833614933
 20
135.3365313042154
 10
174.9847833614933
 20
135.3365313042154
 10
174.9847833614933
 20
135.3365313042154
 10
175.0271580639162
 20
135.3155162078918
 10
175.0271580639162
 20
135.3155162078918
 10
175.0271580639162
 20
135.3155162078918
 10
175.0485176700155
 20
135.2941566017924
 10
175.0485176700155
 20
135.2941566017924
 10
175.0485176700155
 20
135.2941566017924
 10
175.0695327663391
 20
135.2941566017924
 10
175.0695327663391
 20
135.2941566017924
 10
175.0695327663391
 20
135.2941566017924
 10
175.0908923724385
 20
135.2731415054689
 10
175.0908923724385
 20
135.2731415054689
 10
175.0908923724385
 20
135.2731415054689
 10
175.1332670748614
 20
135.2731415054689
 10
175.1332670748614
 20
135.2731415054689
 10
175.1332670748614
 20
135.2731415054689
 10
175.154282171185
 20
135.2517818993695
 10
175.154282171185
 20
135.2517818993695
 10
175.154282171185
 20
135.2517818993695
 10
175.154282171185
 20
135.3578909103147
 10
175.154282171185
 20
135.3578909103147
 10
175.154282171185
 20
135.3578909103147
 10
175.1332670748614
 20
135.3789060066383
 10
175.1332670748614
 20
135.3789060066383
 10
175.1332670748614
 20
135.3789060066383
 10
175.0908923724385
 20
135.3789060066383
 10
175.0908923724385
 20
135.3789060066383
 10
175.0908923724385
 20
135.3789060066383
 10
175.0908923724385
 20
135.3999211029619
 10
175.0908923724385
 20
135.3999211029619
 10
175.0908923724385
 20
135.3999211029619
 10
175.0695327663391
 20
135.3999211029619
 10
175.0695327663391
 20
135.3999211029619
 10
175.0695327663391
 20
135.3999211029619
 10
175.0271580639162
 20
135.4212807090612
 10
175.0271580639162
 20
135.4212807090612
 10
175.0271580639162
 20
135.4212807090612
 10
175.0061429675926
 20
135.4212807090612
 10
175.0061429675926
 20
135.4212807090612
 10
175.0061429675926
 20
135.4212807090612
 10
174.9637682651697
 20
135.4422958053848
 10
174.9637682651697
 20
135.4422958053848
 10
174.8996894468716
 20
135.4498750204523
 10
174.8394002361073
 20
135.4860485469109
 10
174.7732543591544
 20
135.4846705078077
 72
     1
 10
174.7732543591544
 20
135.4846705078077
 11
174.7732543591544
 21
135.4846705078077
 97
        0
 75
     0
 76
     1
 98
        0
  0
HATCH
  5
3807
330
1F
100
AcDbEntity
  8
图层 1
 62
     7
100
AcDbHatch
 10
0.0
 20
0.0
 30
0.0
210
0.0
220
0.0
230
1.0
  2
SOLID
 70
     1
 71
     0
 91
        1
 92
        1
 93
        2
 72
     4
 94
        3
 73
     0
 74
     0
 95
       29
 96
       25
 40
0.0
 40
0.0
 40
0.0
 40
0.0
 40
0.3527780104152769
 40
0.3527780104152769
 40
0.3527780104152769
 40
0.7055560208305538
 40
0.7055560208305538
 40
0.7055560208305538
 40
1.058334031245828
 40
1.058334031245828
 40
1.058334031245828
 40
1.411112041661104
 40
1.411112041661104
 40
1.411112041661104
 40
1.763890052076384
 40
1.763890052076384
 40
1.763890052076384
 40
2.116668062491659
 40
2.116668062491659
 40
2.116668062491659
 40
2.469446072906936
 40
2.469446072906936
 40
2.469446072906936
 40
2.822224083322215
 40
2.822224083322215
 40
2.822224083322215
 40
2.822224083322215
 10
175.4929352807925
 20
164.0174869039101
 10
175.4929352807925
 20
164.0174869039101
 10
175.5139503771161
 20
163.9751122014871
 10
175.5139503771161
 20
163.9751122014871
 10
175.5139503771161
 20
163.9751122014871
 10
175.5139503771161
 20
163.9327374990642
 10
175.5139503771161
 20
163.9327374990642
 10
175.5139503771161
 20
163.9327374990642
 10
175.4929352807925
 20
163.8903627966413
 10
175.4929352807925
 20
163.8903627966413
 10
175.4929352807925
 20
163.8903627966413
 10
175.471920184469
 20
163.8691754454298
 10
175.471920184469
 20
163.8691754454298
 10
175.471920184469
 20
163.8691754454298
 10
175.4505605783696
 20
163.8269729978948
 10
175.4505605783696
 20
163.8269729978948
 10
175.3571984291289
 20
163.7715069239916
 10
175.272449024283
 20
163.8195660377152
 10
175.1966568736079
 20
163.8691754454298
 10
175.208370205985
 20
163.9930267098286
 10
175.1563492298397
 20
164.0216210212197
 10
175.2600466723544
 20
164.0596893514451
 10
175.3330827448232
 20
164.1094710140476
 10
175.4357466580104
 20
164.0753645462439
 10
175.4929352807925
 20
164.0174869039101
 72
     1
 10
175.4929352807925
 20
164.0174869039101
 11
175.4929352807925
 21
164.0174869039101
 97
        0
 75
     0
 76
     1
 98
        0
  0
HATCH
  5
3895
330
1F
100
AcDbEntity
  8
图层 1
 62
     7
100
AcDbHatch
 10
0.0
 20
0.0
 30
0.0
210
0.0
220
0.0
230
1.0
  2
SOLID
 70
     1
 71
     0
 91
        1
 92
        1
 93
        2
 72
     4
 94
        3
 73
     0
 74
     0
 95
       11
 96
        7
 40
0.0
 40
0.0
 40
0.0
 40
0.0
 40
0.3527780104152769
 40
0.3527780104152769
 40
0.3527780104152769
 40
0.7055560208305538
 40
0.7055560208305538
 40
0.7055560208305538
 40
0.7055560208305538
 10
174.9213935627468
 20
174.5369206529582
 10
174.9213935627468
 20
174.5369206529582
 10
174.9213935627468
 20
174.3043765542958
 10
174.9213935627468
 20
174.3043765542958
 10
174.9213935627468
 20
174.3043765542958
 10
174.9213935627468
 20
174.5369206529582
 10
174.9213935627468
 20
174.5369206529582
 72
     1
 10
174.9213935627468
 20
174.5369206529582
 11
174.9213935627468
 21
174.5369206529582
 97
        0
 75
     0
 76
     1
 98
        0
  0
HATCH
  5
3943
330
1F
100
AcDbEntity
  8
图层 1
 62
     7
100
AcDbHatch
 10
0.0
 20
0.0
 30
0.0
210
0.0
220
0.0
230
1.0
  2
SOLID
 70
     1
 71
     0
 91
        1
 92
        1
 93
        2
 72
     4
 94
        3
 73
     0
 74
     0
 95
      131
 96
      127
 40
0.0
 40
0.0
 40
0.0
 40
0.0
 40
0.3527780104152769
 40
0.3527780104152769
 40
0.3527780104152769
 40
0.7055560208305538
 40
0.7055560208305538
 40
0.7055560208305538
 40
1.058334031245828
 40
1.058334031245828
 40
1.058334031245828
 40
1.411112041661104
 40
1.411112041661104
 40
1.411112041661104
 40
1.763890052076384
 40
1.763890052076384
 40
1.763890052076384
 40
2.116668062491659
 40
2.116668062491659
 40
2.116668062491659
 40
2.469446072906936
 40
2.469446072906936
 40
2.469446072906936
 40
2.822224083322215
 40
2.822224083322215
 40
2.822224083322215
 40
3.175002093737492
 40
3.175002093737492
 40
3.175002093737492
 40
3.527780104152768
 40
3.527780104152768
 40
3.527780104152768
 40
3.880558114568044
 40
3.880558114568044
 40
3.880558114568044
 40
4.233336124983321
 40
4.233336124983321
 40
4.233336124983321
 40
4.586114135398599
 40
4.586114135398599
 40
4.586114135398599
 40
4.938892145813873
 40
4.938892145813873
 40
4.938892145813873
 40
5.291670156229153
 40
5.291670156229153
 40
5.291670156229153
 40
5.64444816664443
 40
5.64444816664443
 40
5.64444816664443
 40
5.997226177059705
 40
5.997226177059705
 40
5.997226177059705
 40
6.350004187474984
 40
6.350004187474984
 40
6.350004187474984
 40
6.702782197890257
 40
6.702782197890257
 40
6.702782197890257
 40
7.055560208305537
 40
7.055560208305537
 40
7.055560208305537
 40
7.408338218720808
 40
7.408338218720808
 40
7.408338218720808
 40
7.76111622913609
 40
7.76111622913609
 40
7.76111622913609
 40
8.113894239551369
 40
8.113894239551369
 40
8.113894239551369
 40
8.466672249966642
 40
8.466672249966642
 40
8.466672249966642
 40
8.819450260381922
 40
8.819450260381922
 40
8.819450260381922
 40
9.172228270797198
 40
9.172228270797198
 40
9.172228270797198
 40
9.525006281212476
 40
9.525006281212476
 40
9.525006281212476
 40
9.877784291627751
 40
9.877784291627751
 40
9.877784291627751
 40
10.23056230204303
 40
10.23056230204303
 40
10.23056230204303
 40
10.58334031245831
 40
10.58334031245831
 40
10.58334031245831
 40
10.93611832287358
 40
10.93611832287358
 40
10.93611832287358
 40
11.28889633328886
 40
11.28889633328886
 40
11.28889633328886
 40
11.64167434370414
 40
11.64167434370414
 40
11.64167434370414
 40
11.99445235411941
 40
11.99445235411941
 40
11.99445235411941
 40
12.34723036453469
 40
12.34723036453469
 40
12.34723036453469
 40
12.70000837494997
 40
12.70000837494997
 40
12.70000837494997
 40
13.05278638536524
 40
13.05278638536524
 40
13.05278638536524
 40
13.40556439578052
 40
13.40556439578052
 40
13.40556439578052
 40
13.7583424061958
 40
13.7583424061958
 40
13.7583424061958
 40
14.11112041661107
 40
14.11112041661107
 40
14.11112041661107
 40
14.46389842702635
 40
14.46389842702635
 40
14.46389842702635
 40
14.81667643744163
 40
14.81667643744163
 40
14.81667643744163
 40
14.81667643744163
 10
173.3972823146245
 20
126.8274843518258
 10
173.3972823146245
 20
126.8274843518258
 10
173.3972823146245
 20
126.7217198506564
 10
173.3972823146245
 20
126.7217198506564
 10
173.3972823146245
 20
126.7217198506564
 10
173.4186419207238
 20
126.7217198506564
 10
173.4186419207238
 20
126.7217198506564
 10
173.4186419207238
 20
126.7217198506564
 10
173.4820317194703
 20
126.7007047543328
 10
173.4820317194703
 20
126.7007047543328
 10
173.4820317194703
 20
126.7007047543328
 10
173.5244064218933
 20
126.6793451482334
 10
173.5244064218933
 20
126.6793451482334
 10
173.5244064218933
 20
126.6793451482334
 10
173.5877962206398
 20
126.6793451482334
 10
173.5877962206398
 20
126.6793451482334
 10
173.5877962206398
 20
126.6793451482334
 10
173.6301709230627
 20
126.6583300519099
 10
173.6301709230627
 20
126.6583300519099
 10
173.7955356154449
 20
126.5911506456296
 10
173.759706598762
 20
126.6380039751379
 10
173.9478089363468
 20
126.5525655507404
 10
173.9478089363468
 20
126.5525655507404
 10
173.9688240326703
 20
126.4464565397952
 10
173.9688240326703
 20
126.4464565397952
 10
173.9688240326703
 20
126.4464565397952
 10
174.0325583411926
 20
126.5101908483175
 10
174.0325583411926
 20
126.5101908483175
 10
174.0325583411926
 20
126.5101908483175
 10
174.0749330436156
 20
126.5101908483175
 10
174.0749330436156
 20
126.5101908483175
 10
174.0749330436156
 20
126.5101908483175
 10
174.1593379386856
 20
126.4678161458946
 10
174.1593379386856
 20
126.4678161458946
 10
174.1593379386856
 20
126.4678161458946
 10
174.180697544785
 20
126.4464565397952
 10
174.180697544785
 20
126.4464565397952
 10
174.2464989119621
 20
126.3982251711837
 10
174.3298702777047
 20
126.3716979184474
 10
174.3922265471239
 20
126.3196769423022
 10
174.608234176548
 20
126.2059887162895
 10
174.7749769080334
 20
126.0278771622029
 10
174.9637682651697
 20
125.8749148217494
 10
174.9637682651697
 20
125.8749148217494
 10
175.0061429675926
 20
125.9172895241723
 10
175.0061429675926
 20
125.9172895241723
 10
174.961356696739
 20
125.9631093243532
 10
174.782211613325
 20
126.1246844092016
 10
174.7308796567315
 20
126.1501781326105
 10
174.7308796567315
 20
126.1501781326105
 10
174.6885049543085
 20
126.1925528350335
 10
174.6885049543085
 20
126.1925528350335
 10
174.6885049543085
 20
126.1925528350335
 10
174.667489857985
 20
126.2349275374564
 10
174.667489857985
 20
126.2349275374564
 10
174.667489857985
 20
126.2349275374564
 10
174.625115155562
 20
126.2559426337799
 10
174.625115155562
 20
126.2559426337799
 10
174.625115155562
 20
126.2559426337799
 10
174.5827404531391
 20
126.2983173362029
 10
174.5827404531391
 20
126.2983173362029
 10
174.5827404531391
 20
126.2983173362029
 10
174.5403657507162
 20
126.3196769423022
 10
174.5403657507162
 20
126.3196769423022
 10
174.5403657507162
 20
126.3196769423022
 10
174.4979910482932
 20
126.3620516447252
 10
174.4979910482932
 20
126.3620516447252
 10
174.4735308542117
 20
126.3875453681341
 10
174.3247026310678
 20
126.4695386947736
 10
174.2864620459544
 20
126.4888312422181
 10
174.2864620459544
 20
126.4888312422181
 10
174.2654469496308
 20
126.5101908483175
 10
174.2654469496308
 20
126.5101908483175
 10
174.2654469496308
 20
126.5101908483175
 10
174.2230722472079
 20
126.5312059446411
 10
174.2230722472079
 20
126.5312059446411
 10
174.2230722472079
 20
126.5312059446411
 10
174.2017126411085
 20
126.5525655507404
 10
174.2017126411085
 20
126.5525655507404
 10
174.2017126411085
 20
126.5525655507404
 10
174.1383228423621
 20
126.573580647064
 10
174.1383228423621
 20
126.573580647064
 10
174.1383228423621
 20
126.573580647064
 10
174.1169632362627
 20
126.5945957433876
 10
174.1169632362627
 20
126.5945957433876
 10
174.1169632362627
 20
126.5945957433876
 10
174.0959481399391
 20
126.7007047543328
 10
174.0959481399391
 20
126.7007047543328
 10
174.0959481399391
 20
126.7007047543328
 10
174.0325583411926
 20
126.6369704458105
 10
174.0325583411926
 20
126.6369704458105
 10
174.0325583411926
 20
126.6369704458105
 10
173.9901836387697
 20
126.6369704458105
 10
173.9901836387697
 20
126.6369704458105
 10
173.9901836387697
 20
126.6369704458105
 10
173.9054342339239
 20
126.6793451482334
 10
173.9054342339239
 20
126.6793451482334
 10
173.9054342339239
 20
126.6793451482334
 10
173.8420444351773
 20
126.7007047543328
 10
173.8420444351773
 20
126.7007047543328
 10
173.8420444351773
 20
126.7007047543328
 10
173.7996697327544
 20
126.7217198506564
 10
173.7996697327544
 20
126.7217198506564
 10
173.7996697327544
 20
126.7217198506564
 10
173.7572950303315
 20
126.7217198506564
 10
173.7572950303315
 20
126.7217198506564
 10
173.7572950303315
 20
126.7217198506564
 10
173.6725456254856
 20
126.7640945530793
 10
173.6725456254856
 20
126.7640945530793
 10
173.6725456254856
 20
126.7640945530793
 10
173.6515305291621
 20
126.7640945530793
 10
173.6515305291621
 20
126.7640945530793
 10
173.6515305291621
 20
126.7640945530793
 10
173.5667811243162
 20
126.7851096494029
 10
173.5667811243162
 20
126.7851096494029
 10
173.5667811243162
 20
126.7851096494029
 10
173.5033913255697
 20
126.8064692555022
 10
173.5033913255697
 20
126.8064692555022
 10
173.5033913255697
 20
126.8064692555022
 10
173.4396570170474
 20
126.8064692555022
 10
173.4396570170474
 20
126.8064692555022
 10
173.4396570170474
 20
126.8064692555022
 10
173.4186419207238
 20
126.8274843518258
 10
173.4186419207238
 20
126.8274843518258
 10
173.4186419207238
 20
126.8274843518258
 10
173.3972823146245
 20
126.8274843518258
 10
173.3972823146245
 20
126.8274843518258
 72
     1
 10
173.3972823146245
 20
126.8274843518258
 11
173.3972823146245
 21
126.8274843518258
 97
        0
 75
     0
 76
     1
 98
        0
  0
HATCH
  5
4842
330
1F
100
AcDbEntity
  8
图层 1
 62
     7
100
AcDbHatch
 10
0.0
 20
0.0
 30
0.0
210
0.0
220
0.0
230
1.0
  2
SOLID
 70
     1
 71
     0
 91
        1
 92
        1
 93
        2
 72
     4
 94
        3
 73
     0
 74
     0
 95
       47
 96
       43
 40
0.0
 40
0.0
 40
0.0
 40
0.0
 40
0.3527780104152769
 40
0.3527780104152769
 40
0.3527780104152769
 40
0.7055560208305538
 40
0.7055560208305538
 40
0.7055560208305538
 40
1.058334031245828
 40
1.058334031245828
 40
1.058334031245828
 40
1.411112041661104
 40
1.411112041661104
 40
1.411112041661104
 40
1.763890052076384
 40
1.763890052076384
 40
1.763890052076384
 40
2.116668062491659
 40
2.116668062491659
 40
2.116668062491659
 40
2.469446072906936
 40
2.469446072906936
 40
2.469446072906936
 40
2.822224083322215
 40
2.822224083322215
 40
2.822224083322215
 40
3.175002093737492
 40
3.175002093737492
 40
3.175002093737492
 40
3.527780104152768
 40
3.527780104152768
 40
3.527780104152768
 40
3.880558114568044
 40
3.880558114568044
 40
3.880558114568044
 40
4.233336124983321
 40
4.233336124983321
 40
4.233336124983321
 40
4.586114135398599
 40
4.586114135398599
 40
4.586114135398599
 40
4.938892145813873
 40
4.938892145813873
 40
4.938892145813873
 40
4.938892145813873
 10
180.1920486226523
 20
255.6479577566324
 10
180.1920486226523
 20
255.6479577566324
 10
180.2130637189759
 20
255.6055830542095
 10
180.2130637189759
 20
255.6055830542095
 10
180.2130637189759
 20
255.6055830542095
 10
180.2130637189759
 20
255.5210059042515
 10
180.2130637189759
 20
255.5210059042515
 10
180.2130637189759
 20
255.5210059042515
 10
180.1920486226523
 20
255.4786312018286
 10
180.1920486226523
 20
255.4786312018286
 10
180.1920486226523
 20
255.4786312018286
 10
180.1496739202294
 20
255.4359119896299
 10
180.1496739202294
 20
255.4359119896299
 10
180.1496739202294
 20
255.4359119896299
 10
180.1283143141301
 20
255.4147246384184
 10
180.1283143141301
 20
255.4147246384184
 10
180.1283143141301
 20
255.4147246384184
 10
180.0225498129606
 20
255.4147246384184
 10
180.0225498129606
 20
255.4147246384184
 10
180.0225498129606
 20
255.4147246384184
 10
179.9591600142141
 20
255.4359119896299
 10
179.9591600142141
 20
255.4359119896299
 10
179.9591600142141
 20
255.4359119896299
 10
179.9167853117912
 20
255.4570993408414
 10
179.9167853117912
 20
255.4570993408414
 10
179.9167853117912
 20
255.4570993408414
 10
179.8957702154676
 20
255.4786312018286
 10
179.8957702154676
 20
255.4786312018286
 10
179.8957702154676
 20
255.4786312018286
 10
179.8744106093683
 20
255.4994740432643
 10
179.8744106093683
 20
255.4994740432643
 10
179.8744106093683
 20
255.4994740432643
 10
179.8744106093683
 20
255.6479577566324
 10
179.8744106093683
 20
255.6479577566324
 10
179.9608825630931
 20
255.7323626517025
 10
180.045631967939
 20
255.7085914771726
 10
180.1496739202294
 20
255.7115198102668
 10
180.1496739202294
 20
255.7115198102668
 10
180.170689016553
 20
255.6688005980681
 10
180.170689016553
 20
255.6688005980681
 10
180.170689016553
 20
255.6688005980681
 10
180.1920486226523
 20
255.6479577566324
 10
180.1920486226523
 20
255.6479577566324
 72
     1
 10
180.1920486226523
 20
255.6479577566324
 11
180.1920486226523
 21
255.6479577566324
 97
        0
 75
     0
 76
     1
 98
        0
  0
MTEXT
  5
65A0
330
1F
100
AcDbEntity
  8
图框
 62
     3
100
AcDbMText
 10
652.3064215351515
 20
221.9674786344378
 30
0.0
 40
2.985513575034151
 41
33.61239199242137
 71
     5
 72
     5
  1
HMP-003
  7
Romans字体
 73
     1
 44
1.0
1001
ACAD
1000
MTEXTBEGIN
1070
    73
1070
     1
1070
    44
1040
1.0
1070
    74
1070
     0
1000
MTEXTEND
1000
ACAD_MTEXT_DEFINED_HEIGHT_BEGIN
1070
    46
1040
8.686745505685866
1000
ACAD_MTEXT_DEFINED_HEIGHT_END
  0
MTEXT
  5
65A1
330
1F
100
AcDbEntity
  8
图框
 62
     3
100
AcDbMText
 10
652.3064215351515
 20
213.1880281076118
 30
0.0
 40
2.985513575034151
 41
33.61239199242137
 71
     5
 72
     5
  1
1290030000001
  7
Romans字体
 73
     1
 44
1.0
1001
ACAD
1000
MTEXTBEGIN
1070
    73
1070
     1
1070
    44
1040
1.0
1070
    74
1070
     0
1000
MTEXTEND
1000
ACAD_MTEXT_DEFINED_HEIGHT_BEGIN
1070
    46
1040
8.872155547966105
1000
ACAD_MTEXT_DEFINED_HEIGHT_END
  0
MTEXT
  5
65A3
330
1F
100
AcDbEntity
  8
图框
 62
     3
100
AcDbMText
 10
584.2527566045665
 20
199.8803930288668
 30
0.0
 40
2.985513575034151
 41
10.82934843439047
 71
     5
 72
     5
  1
1:1 
  7
Romans字体
 73
     1
 44
1.0
1001
ACAD
1000
MTEXTBEGIN
1070
    73
1070
     1
1070
    44
1040
1.0
1070
    74
1070
     0
1000
MTEXTEND
1000
ACAD_MTEXT_DEFINED_HEIGHT_BEGIN
1070
    46
1040
7.886094601210496
1000
ACAD_MTEXT_DEFINED_HEIGHT_END
  0
MTEXT
  5
65A4
330
1F
100
AcDbEntity
  8
图框
 62
     3
100
AcDbMText
 10
595.0821050389572
 20
199.8803930288669
 30
0.0
 40
2.985513575034151
 41
10.82934843439126
 71
     5
 72
     5
  1
V1.0 
  7
Romans字体
 73
     1
 44
1.0
1001
ACAD
1000
MTEXTBEGIN
1070
    73
1070
     1
1070
    44
1040
1.0
1070
    74
1070
     0
1000
MTEXTEND
1000
ACAD_MTEXT_DEFINED_HEIGHT_BEGIN
1070
    46
1040
7.886094601210459
1000
ACAD_MTEXT_DEFINED_HEIGHT_END
  0
MTEXT
  5
65B2
330
1F
100
AcDbEntity
  8
图框
 62
     3
100
AcDbMText
 10
605.9114534733492
 20
199.8803930288669
 30
0.0
 40
3.0
 41
10.82934843439217
 71
     5
 72
     5
  1
6.6g
  7
Romans字体
 73
     1
 44
1.0
1001
ACAD
1000
MTEXTBEGIN
1070
    73
1070
     1
1070
    44
1040
1.0
1070
    74
1070
     0
1000
MTEXTEND
1000
ACAD_MTEXT_DEFINED_HEIGHT_BEGIN
1070
    46
1040
7.886094601210402
1000
ACAD_MTEXT_DEFINED_HEIGHT_END
  0
MTEXT
  5
7228
102
{ACAD_XDICTIONARY
360
19060
102
}
330
1F
100
AcDbEntity
  8
打标文字
 62
     3
100
AcDbMText
 10
603.5477355080578
 20
370.75762989435
 30
0.0
 40
1.912985285738284
 41
67.09538717665188
 71
     1
 72
     5
  3
\A1;{\f仿宋_GB2312|b0|i0|c134|p49;技术参数}:\P{\f仿宋_GB2312|b0|i0|c134|p49;插芯：}\P- {\f仿宋_GB2312|b0|i0|c134|p49;插针数}: 3\P- {\f仿宋_GB2312|b0|i0|c134|p49;材料}: {\f仿宋_GB2312|b0|i0|c134|p49;聚碳酸酯}\P- {\f仿宋_GB2312|b0|i0|c134|p49;颜色}: RAL 5012({\f仿宋_GB2312|b0|i0|c134
  3
|p49;蓝色})\P- {\f仿宋_GB2312|b0|i0|c134|p49;温度范围}: -40{\f仿宋_GB2312|b0|i0|c134|p49;℃} - +80{\f仿宋_GB2312|b0|i0|c134|p49;℃}\P- {\f仿宋_GB2312|b0|i0|c134|p49;依据}UL 94{\f仿宋_GB2312|b0|i0|c134|p49;的阻燃等级}: V0\P- {\f仿宋_GB2312|b0|i0|c134|p49;可插拔次数}: {\f仿宋_GB2312|b0
  3
|i0|c134|p49;≥}500\P{\f仿宋_GB2312|b0|i0|c134|p49;插针：}\P- {\f仿宋_GB2312|b0|i0|c134|p49;材料}: {\f仿宋_GB2312|b0|i0|c134|p49;聚甲醛}\P- {\f仿宋_GB2312|b0|i0|c134|p49;颜色}: {\f仿宋_GB2312|b0|i0|c134|p49;黑色}\P- {\f仿宋_GB2312|b0|i0|c134|p49;软管连接}: \P   {\f仿宋_GB2312|b0|i
  3
0|c134|p49;·} {\f仿宋_GB2312|b0|i0|c134|p49;内径}: 1.6mm / 1/16{\f仿宋_GB2312|b0|i0|c134|p49;＂}\P            3.0mm\P        4.0mm / 1/8{\f仿宋_GB2312|b0|i0|c134|p49;＂}\P- {\f仿宋_GB2312|b0|i0|c134|p49;工作压力}: {\f仿宋_GB2312|b0|i0|c134|p49;最大}8 bar / 116 psi\P- {\
  3
f仿宋_GB2312|b0|i0|c134|p49;材料：}\P   {\f仿宋_GB2312|b0|i0|c134|p49;·} {\f仿宋_GB2312|b0|i0|c134|p49;密封\fSimSun|b0|i0|c134|p2;圏\f仿宋_GB2312|b0|i0|c134|p49;：} {\f仿宋_GB2312|b0|i0|c134|p49;氟橡胶}\P   {\f仿宋_GB2312|b0|i0|c134|p49;·} {\f仿宋_GB2312|b0|i0|c134|p49;闭锁阀：
  3
} {\f仿宋_GB2312|b0|i0|c134|p49;聚丙烯}\P\PTechnical specification:\PInsters:\P- No. of contact: 2\P- Material: polycarbonate\P- Colour: RAL 5012(blue) \P- Temperature range: -40{\f仿宋_GB2312|b0|i0|c134|p49;℃} - +80{\f仿宋_GB2312|b0|i0|c134|p49;℃}\P- Flammab
  3
ility acc.to UL 94: V0\P- Mating cycles: {\f仿宋_GB2312|b0|i0|c134|p49;≥}500\PContacts:\P- Material: delrin acetal\P- Colour: black\P- Tube termination: \P   {\f仿宋_GB2312|b0|i0|c134|p49;·} internal diameter(ID): 1.6mm / 1/16{\f仿宋_GB2312|b0|i0|c134|p49;
  3
＂}\P                                 3.0mm\P                       4.0mm / 1/8{\f仿宋_GB2312|b0|i0|c134|p49;＂}\P- Working pressure: up to 8 bar / 116 psi\P- Material: \P   {\f仿宋_GB2312|b0|i0|c134|p49;·} Sealing: FPM\P   {\f仿宋_GB2312|b0|i0|c134|p49;·} S
  1
hut off valve: Polypropylen
  7
Romans字体
 73
     1
 44
1.0
1001
ACAD
1000
MTEXTBEGIN
1070
    73
1070
     1
1070
    44
1040
1.0
1070
    74
1070
     0
1000
MTEXTEND
1000
ACAD_MTEXT_DEFINED_HEIGHT_BEGIN
1070
    46
1040
8.294818561909686
1000
ACAD_MTEXT_DEFINED_HEIGHT_END
  0
INSERT
  5
11089
330
1F
100
AcDbEntity
  8
DIM
100
AcDbBlockReference
  2
A4图框-NEW
 10
-457.8158850790006
 20
-295.9613488704692
 30
0.0
  0
MTEXT
  5
17E6D
330
1F
100
AcDbEntity
  8
DIM
 62
     4
100
AcDbMText
 10
1108.266215402166
 20
1268.944676452501
 30
0.0
 40
2.0
 41
0.0
 71
     1
 72
     1
  1
{\Fromand,hztxt|c134;A}
 73
     1
 44
1.0
1001
ACAD
1000
MTEXTBEGIN
1070
    73
1070
     1
1070
    44
1040
1.0
1070
    74
1070
     0
1000
MTEXTEND
  0
LINE
  5
18B8E
330
1F
100
AcDbEntity
  8
0
100
AcDbLine
 10
408.7754251037777
 20
213.0917587247955
 30
0.0
 11
408.7208201037773
 21
213.0602317247954
 31
0.0
  0
LINE
  5
18B8F
330
1F
100
AcDbEntity
  8
0
100
AcDbLine
 10
404.1246231037774
 20
210.5290947247955
 30
0.0
 11
404.1246231037774
 21
235.2689387247954
 31
0.0
  0
LINE
  5
18B90
330
1F
100
AcDbEntity
  8
0
100
AcDbLine
 10
404.1246231037774
 20
235.2689387247954
 30
0.0
 11
414.448378103777
 21
241.2293637247954
 31
0.0
  0
LINE
  5
18B91
330
1F
100
AcDbEntity
  8
0
100
AcDbLine
 10
409.7814811037769
 20
229.7984127247956
 30
0.0
 11
418.2518231037773
 21
225.7293657247954
 31
0.0
  0
LINE
  5
18B92
330
1F
100
AcDbEntity
  8
0
100
AcDbLine
 10
415.9686651037771
 20
229.4105757247956
 30
0.0
 11
415.9686651037771
 21
228.4307757247955
 31
0.0
  0
LINE
  5
18B93
330
1F
100
AcDbEntity
  8
0
100
AcDbLine
 10
415.9686651037771
 20
229.4105757247956
 30
0.0
 11
417.3828771037769
 21
230.2270687247954
 31
0.0
  0
LINE
  5
18B94
330
1F
100
AcDbEntity
  8
0
100
AcDbLine
 10
416.6757661037771
 20
229.0023247247955
 30
0.0
 11
415.9686651037771
 21
229.4105757247956
 31
0.0
  0
LINE
  5
18B95
330
1F
100
AcDbEntity
  8
0
100
AcDbLine
 10
416.6757661037771
 20
229.0023247247955
 30
0.0
 11
418.0899781037768
 21
229.8188277247955
 31
0.0
  0
LINE
  5
18B96
330
1F
100
AcDbEntity
  8
0
100
AcDbLine
 10
417.3828771037769
 20
230.2270687247954
 30
0.0
 11
418.0899781037768
 21
229.8188277247955
 31
0.0
  0
LINE
  5
18B97
330
1F
100
AcDbEntity
  8
0
100
AcDbLine
 10
418.4675221037768
 20
227.0030957247955
 30
0.0
 11
416.6757661037771
 21
229.0023247247955
 31
0.0
  0
LINE
  5
18B98
330
1F
100
AcDbEntity
  8
0
100
AcDbLine
 10
418.0899781037768
 20
229.8188277247955
 30
0.0
 11
419.8817341037774
 21
227.8195987247955
 31
0.0
  0
LINE
  5
18B99
330
1F
100
AcDbEntity
  8
0
100
AcDbLine
 10
418.6485621037773
 20
225.7129537247954
 30
0.0
 11
420.0627841037776
 21
226.5294567247955
 31
0.0
  0
LINE
  5
18B9A
330
1F
100
AcDbEntity
  8
0
100
AcDbLine
 10
416.5343461037773
 20
229.7371737247955
 30
0.0
 11
411.1956931037774
 21
232.8194497247956
 31
0.0
  0
LINE
  5
18B9B
330
1F
100
AcDbEntity
  8
0
100
AcDbLine
 10
427.3770641037772
 20
232.1470267247956
 30
0.0
 11
425.585309103777
 21
234.1462567247955
 31
0.0
  0
LINE
  5
18B9C
330
1F
100
AcDbEntity
  8
0
100
AcDbLine
 10
425.585309103777
 20
234.1462567247955
 30
0.0
 11
424.878208103777
 21
234.5545087247954
 31
0.0
  0
LINE
  5
18B9D
330
1F
100
AcDbEntity
  8
0
100
AcDbLine
 10
424.878208103777
 20
234.5545087247954
 30
0.0
 11
424.878208103777
 21
233.5747087247956
 31
0.0
  0
LINE
  5
18B9E
330
1F
100
AcDbEntity
  8
0
100
AcDbLine
 10
418.6910241037776
 20
237.1468797247956
 30
0.0
 11
424.878208103777
 21
233.5747087247956
 31
0.0
  0
LINE
  5
18B9F
330
1F
100
AcDbEntity
  8
0
100
AcDbLine
 10
418.6910221037768
 20
235.9297327247956
 30
0.0
 11
418.6910241037776
 21
237.1468797247956
 31
0.0
  0
LINE
  5
18BA0
330
1F
100
AcDbEntity
  8
0
100
AcDbLine
 10
424.878208103777
 20
234.5545087247954
 30
0.0
 11
426.2924201037775
 21
235.3710017247955
 31
0.0
  0
LINE
  5
18BA1
330
1F
100
AcDbEntity
  8
0
100
AcDbLine
 10
425.585309103777
 20
234.1462567247955
 30
0.0
 11
426.9995311037773
 21
234.9627497247955
 31
0.0
  0
LINE
  5
18BA2
330
1F
100
AcDbEntity
  8
0
100
AcDbLine
 10
426.2924201037775
 20
235.3710017247955
 30
0.0
 11
426.9995311037773
 21
234.9627497247955
 31
0.0
  0
LINE
  5
18BA3
330
1F
100
AcDbEntity
  8
0
100
AcDbLine
 10
426.9995311037773
 20
234.9627497247955
 30
0.0
 11
428.7912771037771
 21
232.9635207247955
 31
0.0
  0
LINE
  5
18BA4
330
1F
100
AcDbEntity
  8
0
100
AcDbLine
 10
427.5581141037774
 20
230.8568867247955
 30
0.0
 11
428.972326103777
 21
231.6733797247955
 31
0.0
  0
LINE
  5
18BA5
330
1F
100
AcDbEntity
  8
0
100
AcDbLine
 10
414.448378103777
 20
241.2293637247954
 30
0.0
 11
425.4438921037771
 21
234.8811017247954
 31
0.0
  0
LINE
  5
18BA6
330
1F
100
AcDbEntity
  8
0
100
AcDbLine
 10
427.6172671037774
 20
230.8910397247956
 30
0.0
 11
432.9745741037776
 21
227.7979947247955
 31
0.0
  0
LINE
  5
18BA7
330
1F
100
AcDbEntity
  8
0
100
AcDbLine
 10
425.1191101037774
 20
225.9979017247955
 30
0.0
 11
430.506284103777
 21
229.1081877247955
 31
0.0
  0
LINE
  5
18BA8
330
1F
100
AcDbEntity
  8
0
100
AcDbLine
 10
425.7015361037773
 20
224.7011767247955
 30
0.0
 11
425.1191101037774
 21
225.9979017247955
 31
0.0
  0
LINE
  5
18BA9
330
1F
100
AcDbEntity
  8
0
100
AcDbLine
 10
431.3380701037776
 20
227.9554237247956
 30
0.0
 11
425.7015361037773
 21
224.7011767247955
 31
0.0
  0
LINE
  5
18BAA
330
1F
100
AcDbEntity
  8
0
100
AcDbLine
 10
430.506284103777
 20
229.1081877247955
 30
0.0
 11
431.3380701037776
 21
227.9554237247956
 31
0.0
  0
LINE
  5
18BAB
330
1F
100
AcDbEntity
  8
0
100
AcDbLine
 10
410.347162103777
 20
234.7790387247956
 30
0.0
 11
410.347162103777
 21
236.3712057247954
 31
0.0
  0
LINE
  5
18BAC
330
1F
100
AcDbEntity
  8
0
100
AcDbLine
 10
411.7613741037776
 20
234.7790387247956
 30
0.0
 11
410.347162103777
 21
234.7790387247956
 31
0.0
  0
LINE
  5
18BAD
330
1F
100
AcDbEntity
  8
0
100
AcDbLine
 10
411.7613741037776
 20
236.3712057247954
 30
0.0
 11
411.7613741037776
 21
234.7790387247956
 31
0.0
  0
LINE
  5
18BAE
330
1F
100
AcDbEntity
  8
0
100
AcDbLine
 10
410.347162103777
 20
236.3712057247954
 30
0.0
 11
411.7613741037776
 21
236.3712057247954
 31
0.0
  0
LINE
  5
18BAF
330
1F
100
AcDbEntity
  8
0
100
AcDbLine
 10
415.2969091037776
 20
239.2289457247955
 30
0.0
 11
413.5291471037771
 21
240.2495647247954
 31
0.0
  0
LINE
  5
18BB0
330
1F
100
AcDbEntity
  8
0
100
AcDbLine
 10
408.5793991037771
 20
237.3918337247954
 30
0.0
 11
408.5793991037771
 21
235.7996577247955
 31
0.0
  0
LINE
  5
18BB1
330
1F
100
AcDbEntity
  8
0
100
AcDbLine
 10
413.5291471037771
 20
240.2495647247954
 30
0.0
 11
408.5793991037771
 21
237.3918337247954
 31
0.0
  0
LINE
  5
18BB2
330
1F
100
AcDbEntity
  8
0
100
AcDbLine
 10
410.347162103777
 20
236.3712057247954
 30
0.0
 11
408.5793991037771
 21
237.3918337247954
 31
0.0
  0
LINE
  5
18BB3
330
1F
100
AcDbEntity
  8
0
100
AcDbLine
 10
410.347162103777
 20
234.7790387247956
 30
0.0
 11
408.5793991037771
 21
235.7996577247955
 31
0.0
  0
LINE
  5
18BB4
330
1F
100
AcDbEntity
  8
0
100
AcDbLine
 10
411.7613741037776
 20
236.3712057247954
 30
0.0
 11
415.2969091037776
 21
238.4124527247955
 31
0.0
  0
LINE
  5
18BB5
330
1F
100
AcDbEntity
  8
0
100
AcDbLine
 10
415.2969091037776
 20
238.4124527247955
 30
0.0
 11
415.2969091037776
 21
239.2289457247955
 31
0.0
  0
LINE
  5
18BB6
330
1F
100
AcDbEntity
  8
0
100
AcDbLine
 10
415.2969091037776
 20
236.8202857247955
 30
0.0
 11
411.7613741037776
 21
234.7790387247956
 31
0.0
  0
LINE
  5
18BB7
330
1F
100
AcDbEntity
  8
0
100
AcDbLine
 10
415.2969091037776
 20
236.8202857247955
 30
0.0
 11
415.2969091037776
 21
238.4124527247955
 31
0.0
  0
LINE
  5
18BB8
330
1F
100
AcDbEntity
  8
0
100
AcDbLine
 10
430.506284103777
 20
229.1081877247955
 30
0.0
 11
417.6369451037771
 21
236.5383027247954
 31
0.0
  0
LINE
  5
18BB9
330
1F
100
AcDbEntity
  8
0
100
AcDbLine
 10
418.6910241037776
 20
237.1468797247956
 30
0.0
 11
417.6369451037771
 21
236.5383027247954
 31
0.0
  0
LINE
  5
18BBA
330
1F
100
AcDbEntity
  8
0
100
AcDbLine
 10
404.1246231037774
 20
235.2689387247954
 30
0.0
 11
415.9686651037771
 21
228.4307757247955
 31
0.0
  0
LINE
  5
18BBB
330
1F
100
AcDbEntity
  8
0
100
AcDbLine
 10
412.249772103777
 20
233.4280257247954
 30
0.0
 11
411.1956931037774
 21
232.8194497247956
 31
0.0
  0
LINE
  5
18BBC
330
1F
100
AcDbEntity
  8
0
100
AcDbLine
 10
412.249772103777
 20
233.4280257247954
 30
0.0
 11
425.1191101037774
 21
225.9979017247955
 31
0.0
  0
LINE
  5
18BBD
330
1F
100
AcDbEntity
  8
0
100
AcDbLine
 10
415.9686651037771
 20
202.7111327247956
 30
0.0
 11
416.6757661037771
 21
202.3028917247955
 31
0.0
  0
LINE
  5
18BBE
330
1F
100
AcDbEntity
  8
0
100
AcDbLine
 10
416.6757661037771
 20
202.3028917247955
 30
0.0
 11
418.4675221037768
 21
202.2331797247955
 31
0.0
  0
LINE
  5
18BBF
330
1F
100
AcDbEntity
  8
0
100
AcDbLine
 10
418.6485621037773
 20
202.2750367247955
 30
0.0
 11
420.0627791037777
 21
203.0915327247954
 31
0.0
  0
LINE
  5
18BC0
330
1F
100
AcDbEntity
  8
0
100
AcDbLine
 10
409.7814811037769
 20
209.4676467247956
 30
0.0
 11
410.2410961037776
 21
209.7330077247955
 31
0.0
  0
LINE
  5
18BC1
330
1F
100
AcDbEntity
  8
0
100
AcDbLine
 10
418.2518181037776
 20
203.7559827247956
 30
0.0
 11
409.7814811037769
 21
209.4676467247956
 31
0.0
  0
LINE
  5
18BC2
330
1F
100
AcDbEntity
  8
0
100
AcDbLine
 10
425.1191101037774
 20
201.2580577247955
 30
0.0
 11
422.8497931037773
 21
202.5682497247954
 31
0.0
  0
LINE
  5
18BC3
330
1F
100
AcDbEntity
  8
0
100
AcDbLine
 10
415.9686651037771
 20
203.6909327247955
 30
0.0
 11
404.1246231037774
 21
210.5290947247955
 31
0.0
  0
LINE
  5
18BC4
330
1F
100
AcDbEntity
  8
0
100
AcDbLine
 10
415.9686651037771
 20
203.6909327247955
 30
0.0
 11
415.9686651037771
 21
202.7111327247956
 31
0.0
  0
LINE
  5
18BC5
330
1F
100
AcDbEntity
  8
0
100
AcDbLine
 10
425.1191101037774
 20
201.2580577247955
 30
0.0
 11
425.7015391037774
 21
201.5943197247955
 31
0.0
  0
LINE
  5
18BC6
330
1F
100
AcDbEntity
  8
0
100
AcDbLine
 10
425.4291401037772
 20
203.2208727247956
 30
0.0
 11
425.7015391037774
 21
201.5943197247955
 31
0.0
  0
LINE
  5
18BC7
330
1F
100
AcDbEntity
  8
0
100
AcDbLine
 10
431.7497391037776
 20
207.0050227247955
 30
0.0
 11
432.9745741037776
 21
207.7121737247956
 31
0.0
  0
LINE
  5
18BC8
330
1F
100
AcDbEntity
  8
0
100
AcDbLine
 10
424.0650311037772
 20
202.5682507247955
 30
0.0
 11
425.2898671037773
 21
203.2754127247955
 31
0.0
  0
LINE
  5
18BC9
330
1F
100
AcDbEntity
  8
0
100
AcDbLine
 10
424.0650311037772
 20
202.5682507247955
 30
0.0
 11
422.6508191037773
 21
202.5682507247955
 31
0.0
  0
LINE
  5
18BCA
330
1F
100
AcDbEntity
  8
0
100
AcDbLine
 10
409.7814811037769
 20
209.9983657247954
 30
0.0
 11
422.6508191037773
 21
202.5682507247955
 31
0.0
  0
LINE
  5
18BCB
330
1F
100
AcDbEntity
  8
0
100
AcDbLine
 10
431.3380701037776
 20
204.8485757247955
 30
0.0
 11
431.610466103777
 21
206.7896657247955
 31
0.0
  0
LINE
  5
18BCC
330
1F
100
AcDbEntity
  8
0
100
AcDbLine
 10
425.7015361037773
 20
224.7011767247955
 30
0.0
 11
425.4291401037772
 21
222.7600767247955
 31
0.0
  0
LINE
  5
18BCD
330
1F
100
AcDbEntity
  8
0
100
AcDbLine
 10
412.0917681037771
 20
232.3020977247955
 30
0.0
 11
412.249772103777
 21
233.4280257247954
 31
0.0
  0
LINE
  5
18BCE
330
1F
100
AcDbEntity
  8
0
100
AcDbLine
 10
431.7497391037776
 20
226.2743397247955
 30
0.0
 11
432.9745741037776
 21
226.9815017247954
 31
0.0
  0
LINE
  5
18BCF
330
1F
100
AcDbEntity
  8
0
100
AcDbLine
 10
432.9745741037776
 20
226.9815017247954
 30
0.0
 11
432.9745741037776
 21
227.7979947247955
 31
0.0
  0
LINE
  5
18BD0
330
1F
100
AcDbEntity
  8
0
100
AcDbLine
 10
409.7814811037769
 20
229.2676837247955
 30
0.0
 11
410.2832291037774
 21
229.5573757247956
 31
0.0
  0
LINE
  5
18BD1
330
1F
100
AcDbEntity
  8
0
100
AcDbLine
 10
422.6508191037773
 20
221.8375687247954
 30
0.0
 11
409.7814811037769
 21
229.2676837247955
 31
0.0
  0
LINE
  5
18BD2
330
1F
100
AcDbEntity
  8
0
100
AcDbLine
 10
422.6508191037773
 20
221.8375687247954
 30
0.0
 11
424.0650311037772
 21
221.8375687247954
 31
0.0
  0
LINE
  5
18BD3
330
1F
100
AcDbEntity
  8
0
100
AcDbLine
 10
424.0650311037772
 20
221.8375687247954
 30
0.0
 11
425.2898671037773
 21
222.5447307247955
 31
0.0
  0
LINE
  5
18BD4
330
1F
100
AcDbEntity
  8
0
100
AcDbLine
 10
431.610466103777
 20
226.3288697247954
 30
0.0
 11
431.3380701037776
 21
227.9554237247956
 31
0.0
  0
LINE
  5
18BD5
330
1F
100
AcDbEntity
  8
0
100
AcDbLine
 10
409.7814811037769
 20
229.7984127247956
 30
0.0
 11
409.7814811037769
 21
229.2676837247955
 31
0.0
  0
LINE
  5
18BD6
330
1F
100
AcDbEntity
  8
0
100
AcDbLine
 10
409.7814811037769
 20
209.9983657247954
 30
0.0
 11
409.7814811037769
 21
209.4676467247956
 31
0.0
  0
LINE
  5
18BD7
330
1F
100
AcDbEntity
  8
0
100
AcDbLine
 10
425.6353651037771
 20
220.0497617247955
 30
0.0
 11
424.221152103777
 21
220.8662587247955
 31
0.0
  0
LINE
  5
18BD8
330
1F
100
AcDbEntity
  8
0
100
AcDbLine
 10
425.6353651037771
 20
212.2930447247955
 30
0.0
 11
424.221152103777
 21
213.1095407247954
 31
0.0
  0
LINE
  5
18BD9
330
1F
100
AcDbEntity
  8
0
100
AcDbLine
 10
425.6353651037771
 20
204.5363267247954
 30
0.0
 11
424.221152103777
 21
205.3528237247954
 31
0.0
  0
LINE
  5
18BDA
330
1F
100
AcDbEntity
  8
0
100
AcDbLine
 10
412.2467821037771
 20
226.6660757247956
 30
0.0
 11
412.1149241037774
 21
226.5899547247955
 31
0.0
  0
LINE
  5
18BDB
330
1F
100
AcDbEntity
  8
0
100
AcDbLine
 10
412.2467821037771
 20
218.9093587247956
 30
0.0
 11
412.1149241037774
 21
218.8332367247954
 31
0.0
  0
LINE
  5
18BDC
330
1F
100
AcDbEntity
  8
0
100
AcDbLine
 10
422.6508191037773
 20
220.7761207247955
 30
0.0
 11
424.0650311037772
 21
220.7761207247955
 31
0.0
  0
LINE
  5
18BDD
330
1F
100
AcDbEntity
  8
0
100
AcDbLine
 10
424.0650311037772
 20
221.8375687247954
 30
0.0
 11
424.0650311037772
 21
220.7761207247955
 31
0.0
  0
LINE
  5
18BDE
330
1F
100
AcDbEntity
  8
0
100
AcDbLine
 10
422.6508191037773
 20
220.7761207247955
 30
0.0
 11
422.6508191037773
 21
221.8375687247954
 31
0.0
  0
LINE
  5
18BDF
330
1F
100
AcDbEntity
  8
0
100
AcDbLine
 10
424.0650311037772
 20
219.1431347247954
 30
0.0
 11
422.6508191037773
 21
219.1431347247954
 31
0.0
  0
LINE
  5
18BE0
330
1F
100
AcDbEntity
  8
0
100
AcDbLine
 10
422.6508191037773
 20
213.0194027247956
 30
0.0
 11
422.6508191037773
 21
219.1431347247954
 31
0.0
  0
LINE
  5
18BE1
330
1F
100
AcDbEntity
  8
0
100
AcDbLine
 10
422.6508191037773
 20
213.0194027247956
 30
0.0
 11
424.0650311037772
 21
213.0194027247956
 31
0.0
  0
LINE
  5
18BE2
330
1F
100
AcDbEntity
  8
0
100
AcDbLine
 10
424.0650311037772
 20
219.1431347247954
 30
0.0
 11
424.0650311037772
 21
213.0194027247956
 31
0.0
  0
LINE
  5
18BE3
330
1F
100
AcDbEntity
  8
0
100
AcDbLine
 10
424.0650311037772
 20
211.3864167247955
 30
0.0
 11
422.6508191037773
 21
211.3864167247955
 31
0.0
  0
LINE
  5
18BE4
330
1F
100
AcDbEntity
  8
0
100
AcDbLine
 10
422.6508191037773
 20
205.2626847247955
 30
0.0
 11
422.6508191037773
 21
211.3864167247955
 31
0.0
  0
LINE
  5
18BE5
330
1F
100
AcDbEntity
  8
0
100
AcDbLine
 10
422.6508191037773
 20
205.2626847247955
 30
0.0
 11
424.0650311037772
 21
205.2626847247955
 31
0.0
  0
LINE
  5
18BE6
330
1F
100
AcDbEntity
  8
0
100
AcDbLine
 10
424.0650311037772
 20
211.3864167247955
 30
0.0
 11
424.0650311037772
 21
205.2626847247955
 31
0.0
  0
LINE
  5
18BE7
330
1F
100
AcDbEntity
  8
0
100
AcDbLine
 10
424.0650311037772
 20
203.6296987247955
 30
0.0
 11
422.6508191037773
 21
203.6296987247955
 31
0.0
  0
LINE
  5
18BE8
330
1F
100
AcDbEntity
  8
0
100
AcDbLine
 10
422.6508191037773
 20
202.5682507247955
 30
0.0
 11
422.6508191037773
 21
203.6296987247955
 31
0.0
  0
LINE
  5
18BE9
330
1F
100
AcDbEntity
  8
0
100
AcDbLine
 10
424.0650311037772
 20
203.6296987247955
 30
0.0
 11
424.0650311037772
 21
202.5682507247955
 31
0.0
  0
LINE
  5
18BEA
330
1F
100
AcDbEntity
  8
0
100
AcDbLine
 10
408.6501101037773
 20
228.6553167247955
 30
0.0
 11
408.650106103777
 21
228.6751977247955
 31
0.0
  0
LINE
  5
18BEB
330
1F
100
AcDbEntity
  8
0
100
AcDbLine
 10
410.827999103777
 20
211.8436537247956
 30
0.0
 11
408.6501101037773
 21
213.1418807247956
 31
0.0
  0
LINE
  5
18BEC
330
1F
100
AcDbEntity
  8
0
100
AcDbLine
 10
408.6501101037773
 20
213.1418807247956
 30
0.0
 11
408.650106103777
 21
213.1617627247954
 31
0.0
  0
LINE
  5
18BED
330
1F
100
AcDbEntity
  8
0
100
AcDbLine
 10
412.1149241037774
 20
218.8332367247954
 30
0.0
 11
408.6501101037773
 21
220.8985987247955
 31
0.0
  0
LINE
  5
18BEE
330
1F
100
AcDbEntity
  8
0
100
AcDbLine
 10
408.6501101037773
 20
220.8985987247955
 30
0.0
 11
408.650106103777
 21
220.9184807247955
 31
0.0
  0
LINE
  5
18BEF
330
1F
100
AcDbEntity
  8
0
100
AcDbLine
 10
412.1149241037774
 20
226.5899547247955
 30
0.0
 11
408.6501101037773
 21
228.6553167247955
 31
0.0
  0
LINE
  5
18BF0
330
1F
100
AcDbEntity
  8
0
100
AcDbLine
 10
407.5894481037776
 20
228.0429397247954
 30
0.0
 11
408.6501101037773
 21
228.6553167247955
 31
0.0
  0
LINE
  5
18BF1
330
1F
100
AcDbEntity
  8
0
100
AcDbLine
 10
407.5894481037776
 20
228.0429397247954
 30
0.0
 11
407.5894481037776
 21
229.2676837247955
 31
0.0
  0
LINE
  5
18BF2
330
1F
100
AcDbEntity
  8
0
100
AcDbLine
 10
407.5894481037776
 20
229.2676837247955
 30
0.0
 11
418.4788941037776
 21
223.1847907247955
 31
0.0
  0
LINE
  5
18BF3
330
1F
100
AcDbEntity
  8
0
100
AcDbLine
 10
418.4788941037776
 20
223.1847907247955
 30
0.0
 11
422.6508191037773
 21
220.7761207247955
 31
0.0
  0
LINE
  5
18BF4
330
1F
100
AcDbEntity
  8
0
100
AcDbLine
 10
424.0650311037772
 20
220.7761207247955
 30
0.0
 11
425.6353651037771
 21
221.6827547247954
 31
0.0
  0
LINE
  5
18BF5
330
1F
100
AcDbEntity
  8
0
100
AcDbLine
 10
425.6353651037771
 20
220.0497617247955
 30
0.0
 11
424.0650311037772
 21
219.1431347247954
 31
0.0
  0
LINE
  5
18BF6
330
1F
100
AcDbEntity
  8
0
100
AcDbLine
 10
422.6508191037773
 20
219.1431347247954
 30
0.0
 11
418.4788941037776
 21
221.5517947247954
 31
0.0
  0
LINE
  5
18BF7
330
1F
100
AcDbEntity
  8
0
100
AcDbLine
 10
418.4788941037776
 20
221.5517947247954
 30
0.0
 11
407.5894481037776
 21
228.0429397247954
 31
0.0
  0
LINE
  5
18BF8
330
1F
100
AcDbEntity
  8
0
100
AcDbLine
 10
407.5894481037776
 20
220.2862207247954
 30
0.0
 11
408.6501101037773
 21
220.8985987247955
 31
0.0
  0
LINE
  5
18BF9
330
1F
100
AcDbEntity
  8
0
100
AcDbLine
 10
407.5894481037776
 20
220.2862207247954
 30
0.0
 11
407.5894481037776
 21
221.5109757247955
 31
0.0
  0
LINE
  5
18BFA
330
1F
100
AcDbEntity
  8
0
100
AcDbLine
 10
407.5894481037776
 20
221.5109757247955
 30
0.0
 11
418.4788941037776
 21
215.4280727247954
 31
0.0
  0
LINE
  5
18BFB
330
1F
100
AcDbEntity
  8
0
100
AcDbLine
 10
418.4788941037776
 20
215.4280727247954
 30
0.0
 11
422.6508191037773
 21
213.0194027247956
 31
0.0
  0
LINE
  5
18BFC
330
1F
100
AcDbEntity
  8
0
100
AcDbLine
 10
424.0650311037772
 20
213.0194027247956
 30
0.0
 11
425.6353651037771
 21
213.9260377247954
 31
0.0
  0
LINE
  5
18BFD
330
1F
100
AcDbEntity
  8
0
100
AcDbLine
 10
425.6353651037771
 20
212.2930447247955
 30
0.0
 11
424.0650311037772
 21
211.3864167247955
 31
0.0
  0
LINE
  5
18BFE
330
1F
100
AcDbEntity
  8
0
100
AcDbLine
 10
422.6508191037773
 20
211.3864167247955
 30
0.0
 11
418.4788941037776
 21
213.7950767247956
 31
0.0
  0
LINE
  5
18BFF
330
1F
100
AcDbEntity
  8
0
100
AcDbLine
 10
418.4788941037776
 20
213.7950767247956
 30
0.0
 11
407.5894481037776
 21
220.2862207247954
 31
0.0
  0
LINE
  5
18C00
330
1F
100
AcDbEntity
  8
0
100
AcDbLine
 10
407.5894481037776
 20
212.5295127247956
 30
0.0
 11
408.6501101037773
 21
213.1418807247956
 31
0.0
  0
LINE
  5
18C01
330
1F
100
AcDbEntity
  8
0
100
AcDbLine
 10
407.5894481037776
 20
212.5295127247956
 30
0.0
 11
407.5894481037776
 21
213.7542577247955
 31
0.0
  0
LINE
  5
18C02
330
1F
100
AcDbEntity
  8
0
100
AcDbLine
 10
407.5894481037776
 20
213.7542577247955
 30
0.0
 11
418.4788941037776
 21
207.6713547247956
 31
0.0
  0
LINE
  5
18C03
330
1F
100
AcDbEntity
  8
0
100
AcDbLine
 10
418.4788941037776
 20
207.6713547247956
 30
0.0
 11
422.6508191037773
 21
205.2626847247955
 31
0.0
  0
LINE
  5
18C04
330
1F
100
AcDbEntity
  8
0
100
AcDbLine
 10
424.0650311037772
 20
205.2626847247955
 30
0.0
 11
425.6353651037771
 21
206.1693197247956
 31
0.0
  0
LINE
  5
18C05
330
1F
100
AcDbEntity
  8
0
100
AcDbLine
 10
425.6353651037771
 20
204.5363267247954
 30
0.0
 11
424.0650311037772
 21
203.6296987247955
 31
0.0
  0
LINE
  5
18C06
330
1F
100
AcDbEntity
  8
0
100
AcDbLine
 10
422.6508191037773
 20
203.6296987247955
 30
0.0
 11
418.4788941037776
 21
206.0383587247955
 31
0.0
  0
LINE
  5
18C07
330
1F
100
AcDbEntity
  8
0
100
AcDbLine
 10
418.4788941037776
 20
206.0383587247955
 30
0.0
 11
407.5894481037776
 21
212.5295127247956
 31
0.0
  0
LINE
  5
18C08
330
1F
100
AcDbEntity
  8
0
100
AcDbLine
 10
425.7015391037774
 20
201.5943197247955
 30
0.0
 11
431.3380701037776
 21
204.8485757247955
 31
0.0
  0
LINE
  5
18C09
330
1F
100
AcDbEntity
  8
0
100
AcDbLine
 10
432.9745741037776
 20
207.7121737247956
 30
0.0
 11
432.9745741037776
 21
226.9815017247954
 31
0.0
  0
POLYLINE
  5
18C0A
330
1F
100
AcDbEntity
  8
0
100
AcDb2dPolyline
 66
     1
 10
0.0
 20
0.0
 30
0.0
 70
     2
  0
VERTEX
  5
18C0B
330
18C0A
100
AcDbEntity
  8
0
100
AcDbVertex
100
AcDb2dVertex
 10
426.3277751037776
 20
221.2660217247954
 30
0.0
  0
VERTEX
  5
18C0C
330
18C0A
100
AcDbEntity
  8
0
100
AcDbVertex
100
AcDb2dVertex
 10
426.1973721037774
 20
221.1951287247956
 30
0.0
 42
-0.015387032
 70
     1
  0
VERTEX
  5
18C0D
330
18C0A
100
AcDbEntity
  8
0
100
AcDbVertex
100
AcDb2dVertex
 10
426.0641391037769
 20
221.1321847247955
 30
0.0
 42
-0.013332672
  0
VERTEX
  5
18C0E
330
18C0A
100
AcDbEntity
  8
0
100
AcDbVertex
100
AcDb2dVertex
 10
425.9282251037775
 20
221.0771287247956
 30
0.0
 42
-0.01566186
 70
     1
  0
VERTEX
  5
18C0F
330
18C0A
100
AcDbEntity
  8
0
100
AcDbVertex
100
AcDb2dVertex
 10
425.7879211037771
 20
221.0322987247955
 30
0.0
 42
-0.022604044
  0
VERTEX
  5
18C10
330
18C0A
100
AcDbEntity
  8
0
100
AcDbVertex
100
AcDb2dVertex
 10
425.6432281037768
 20
221.0001777247956
 30
0.0
 42
-0.018411572
 70
     1
  0
VERTEX
  5
18C11
330
18C0A
100
AcDbEntity
  8
0
100
AcDbVertex
100
AcDb2dVertex
 10
425.5056631037768
 20
220.9761327247955
 30
0.0
 42
-0.004765126
  0
VERTEX
  5
18C12
330
18C0A
100
AcDbEntity
  8
0
100
AcDbVertex
100
AcDb2dVertex
 10
425.3798991037774
 20
220.9598957247954
 30
0.0
 42
-0.030578541
 70
     1
  0
VERTEX
  5
18C13
330
18C0A
100
AcDbEntity
  8
0
100
AcDbVertex
100
AcDb2dVertex
 10
425.2259201037777
 20
220.9728807247955
 30
0.0
 42
-0.064003394
  0
VERTEX
  5
18C14
330
18C0A
100
AcDbEntity
  8
0
100
AcDbVertex
100
AcDb2dVertex
 10
425.0016161037773
 20
221.0384697247956
 30
0.0
 42
-0.033012834
 70
     1
  0
VERTEX
  5
18C15
330
18C0A
100
AcDbEntity
  8
0
100
AcDbVertex
100
AcDb2dVertex
 10
424.7153241037777
 20
221.1515687247955
 30
0.0
 42
-0.016793955
  0
SEQEND
  5
18C16
330
18C0A
100
AcDbEntity
  8
0
  0
POLYLINE
  5
18C17
330
1F
100
AcDbEntity
  8
0
100
AcDb2dPolyline
 66
     1
 10
0.0
 20
0.0
 30
0.0
 70
     2
  0
VERTEX
  5
18C18
330
18C17
100
AcDbEntity
  8
0
100
AcDbVertex
100
AcDb2dVertex
 10
428.3784401037774
 20
225.8753717247956
 30
0.0
  0
VERTEX
  5
18C19
330
18C17
100
AcDbEntity
  8
0
100
AcDbVertex
100
AcDb2dVertex
 10
428.4732351037773
 20
225.5662537247955
 30
0.0
 42
-0.052789816
 70
     1
  0
VERTEX
  5
18C1A
330
18C17
100
AcDbEntity
  8
0
100
AcDbVertex
100
AcDb2dVertex
 10
428.5163041037775
 20
225.2037327247954
 30
0.0
 42
-0.038412116
  0
VERTEX
  5
18C1B
330
18C17
100
AcDbEntity
  8
0
100
AcDbVertex
100
AcDb2dVertex
 10
428.5074281037767
 20
224.7843207247955
 30
0.0
 42
-0.032232626
 70
     1
  0
VERTEX
  5
18C1C
330
18C17
100
AcDbEntity
  8
0
100
AcDbVertex
100
AcDb2dVertex
 10
428.4355251037776
 20
224.3189567247956
 30
0.0
 42
-0.034937654
  0
VERTEX
  5
18C1D
330
18C17
100
AcDbEntity
  8
0
100
AcDbVertex
100
AcDb2dVertex
 10
428.2895691037774
 20
223.8225077247956
 30
0.0
 42
-0.02699673
 70
     1
  0
VERTEX
  5
18C1E
330
18C17
100
AcDbEntity
  8
0
100
AcDbVertex
100
AcDb2dVertex
 10
428.1026021037768
 20
223.3363767247955
 30
0.0
 42
-0.015406366
  0
VERTEX
  5
18C1F
330
18C17
100
AcDbEntity
  8
0
100
AcDbVertex
100
AcDb2dVertex
 10
427.8898021037774
 20
222.8894187247955
 30
0.0
 42
-0.029263405
 70
     1
  0
VERTEX
  5
18C20
330
18C17
100
AcDbEntity
  8
0
100
AcDbVertex
100
AcDb2dVertex
 10
427.5668151037772
 20
222.4245297247956
 30
0.0
 42
-0.047201511
  0
VERTEX
  5
18C21
330
18C17
100
AcDbEntity
  8
0
100
AcDbVertex
100
AcDb2dVertex
 10
427.0393821037768
 20
221.8795667247956
 30
0.0
 42
-0.029913367
 70
     1
  0
VERTEX
  5
18C22
330
18C17
100
AcDbEntity
  8
0
100
AcDbVertex
100
AcDb2dVertex
 10
426.3277751037776
 20
221.2660217247954
 30
0.0
 42
-0.017846796
  0
SEQEND
  5
18C23
330
18C17
100
AcDbEntity
  8
0
  0
POLYLINE
  5
18C24
330
1F
100
AcDbEntity
  8
0
100
AcDb2dPolyline
 66
     1
 10
0.0
 20
0.0
 30
0.0
 70
     2
  0
VERTEX
  5
18C25
330
18C24
100
AcDbEntity
  8
0
100
AcDbVertex
100
AcDb2dVertex
 10
426.3277751037776
 20
213.5093037247955
 30
0.0
  0
VERTEX
  5
18C26
330
18C24
100
AcDbEntity
  8
0
100
AcDbVertex
100
AcDb2dVertex
 10
426.1973721037774
 20
213.4384117247956
 30
0.0
 42
-0.015387032
 70
     1
  0
VERTEX
  5
18C27
330
18C24
100
AcDbEntity
  8
0
100
AcDbVertex
100
AcDb2dVertex
 10
426.0641391037769
 20
213.3754667247954
 30
0.0
 42
-0.013332672
  0
VERTEX
  5
18C28
330
18C24
100
AcDbEntity
  8
0
100
AcDbVertex
100
AcDb2dVertex
 10
425.9282251037775
 20
213.3204117247954
 30
0.0
 42
-0.01566186
 70
     1
  0
VERTEX
  5
18C29
330
18C24
100
AcDbEntity
  8
0
100
AcDbVertex
100
AcDb2dVertex
 10
425.7879211037771
 20
213.2755817247956
 30
0.0
 42
-0.022604044
  0
VERTEX
  5
18C2A
330
18C24
100
AcDbEntity
  8
0
100
AcDbVertex
100
AcDb2dVertex
 10
425.6432281037768
 20
213.2434597247955
 30
0.0
 42
-0.018411572
 70
     1
  0
VERTEX
  5
18C2B
330
18C24
100
AcDbEntity
  8
0
100
AcDbVertex
100
AcDb2dVertex
 10
425.5056631037768
 20
213.2194147247954
 30
0.0
 42
-0.004765126
  0
VERTEX
  5
18C2C
330
18C24
100
AcDbEntity
  8
0
100
AcDbVertex
100
AcDb2dVertex
 10
425.3798991037774
 20
213.2031787247955
 30
0.0
 42
-0.030578541
 70
     1
  0
VERTEX
  5
18C2D
330
18C24
100
AcDbEntity
  8
0
100
AcDbVertex
100
AcDb2dVertex
 10
425.2259201037777
 20
213.2161627247954
 30
0.0
 42
-0.064003394
  0
VERTEX
  5
18C2E
330
18C24
100
AcDbEntity
  8
0
100
AcDbVertex
100
AcDb2dVertex
 10
425.0016161037773
 20
213.2817517247955
 30
0.0
 42
-0.033012834
 70
     1
  0
VERTEX
  5
18C2F
330
18C24
100
AcDbEntity
  8
0
100
AcDbVertex
100
AcDb2dVertex
 10
424.7153241037777
 20
213.3948517247955
 30
0.0
 42
-0.016793955
  0
SEQEND
  5
18C30
330
18C24
100
AcDbEntity
  8
0
  0
POLYLINE
  5
18C31
330
1F
100
AcDbEntity
  8
0
100
AcDb2dPolyline
 66
     1
 10
0.0
 20
0.0
 30
0.0
 70
     2
  0
VERTEX
  5
18C32
330
18C31
100
AcDbEntity
  8
0
100
AcDbVertex
100
AcDb2dVertex
 10
428.3784401037774
 20
218.1186547247956
 30
0.0
  0
VERTEX
  5
18C33
330
18C31
100
AcDbEntity
  8
0
100
AcDbVertex
100
AcDb2dVertex
 10
428.4732351037773
 20
217.8095367247955
 30
0.0
 42
-0.052789816
 70
     1
  0
VERTEX
  5
18C34
330
18C31
100
AcDbEntity
  8
0
100
AcDbVertex
100
AcDb2dVertex
 10
428.5163041037775
 20
217.4470157247955
 30
0.0
 42
-0.038412116
  0
VERTEX
  5
18C35
330
18C31
100
AcDbEntity
  8
0
100
AcDbVertex
100
AcDb2dVertex
 10
428.5074281037767
 20
217.0276037247955
 30
0.0
 42
-0.032232626
 70
     1
  0
VERTEX
  5
18C36
330
18C31
100
AcDbEntity
  8
0
100
AcDbVertex
100
AcDb2dVertex
 10
428.4355251037776
 20
216.5622387247954
 30
0.0
 42
-0.034937654
  0
VERTEX
  5
18C37
330
18C31
100
AcDbEntity
  8
0
100
AcDbVertex
100
AcDb2dVertex
 10
428.2895691037774
 20
216.0657897247955
 30
0.0
 42
-0.02699673
 70
     1
  0
VERTEX
  5
18C38
330
18C31
100
AcDbEntity
  8
0
100
AcDbVertex
100
AcDb2dVertex
 10
428.1026021037768
 20
215.5796597247955
 30
0.0
 42
-0.015406366
  0
VERTEX
  5
18C39
330
18C31
100
AcDbEntity
  8
0
100
AcDbVertex
100
AcDb2dVertex
 10
427.8898021037774
 20
215.1327007247956
 30
0.0
 42
-0.029263405
 70
     1
  0
VERTEX
  5
18C3A
330
18C31
100
AcDbEntity
  8
0
100
AcDbVertex
100
AcDb2dVertex
 10
427.5668151037772
 20
214.6678127247954
 30
0.0
 42
-0.047201511
  0
VERTEX
  5
18C3B
330
18C31
100
AcDbEntity
  8
0
100
AcDbVertex
100
AcDb2dVertex
 10
427.0393821037768
 20
214.1228497247956
 30
0.0
 42
-0.029913367
 70
     1
  0
VERTEX
  5
18C3C
330
18C31
100
AcDbEntity
  8
0
100
AcDbVertex
100
AcDb2dVertex
 10
426.3277751037776
 20
213.5093037247955
 30
0.0
 42
-0.017846796
  0
SEQEND
  5
18C3D
330
18C31
100
AcDbEntity
  8
0
  0
POLYLINE
  5
18C3E
330
1F
100
AcDbEntity
  8
0
100
AcDb2dPolyline
 66
     1
 10
0.0
 20
0.0
 30
0.0
 70
     2
  0
VERTEX
  5
18C3F
330
18C3E
100
AcDbEntity
  8
0
100
AcDbVertex
100
AcDb2dVertex
 10
426.3277751037776
 20
205.7525867247956
 30
0.0
  0
VERTEX
  5
18C40
330
18C3E
100
AcDbEntity
  8
0
100
AcDbVertex
100
AcDb2dVertex
 10
426.1973721037774
 20
205.6816937247955
 30
0.0
 42
-0.015387032
 70
     1
  0
VERTEX
  5
18C41
330
18C3E
100
AcDbEntity
  8
0
100
AcDbVertex
100
AcDb2dVertex
 10
426.0641391037769
 20
205.6187497247955
 30
0.0
 42
-0.013332672
  0
VERTEX
  5
18C42
330
18C3E
100
AcDbEntity
  8
0
100
AcDbVertex
100
AcDb2dVertex
 10
425.9282251037775
 20
205.5636937247955
 30
0.0
 42
-0.01566186
 70
     1
  0
VERTEX
  5
18C43
330
18C3E
100
AcDbEntity
  8
0
100
AcDbVertex
100
AcDb2dVertex
 10
425.7879211037771
 20
205.5188637247955
 30
0.0
 42
-0.022604044
  0
VERTEX
  5
18C44
330
18C3E
100
AcDbEntity
  8
0
100
AcDbVertex
100
AcDb2dVertex
 10
425.6432281037768
 20
205.4867427247955
 30
0.0
 42
-0.018411572
 70
     1
  0
VERTEX
  5
18C45
330
18C3E
100
AcDbEntity
  8
0
100
AcDbVertex
100
AcDb2dVertex
 10
425.5056631037768
 20
205.4626977247954
 30
0.0
 42
-0.004765126
  0
VERTEX
  5
18C46
330
18C3E
100
AcDbEntity
  8
0
100
AcDbVertex
100
AcDb2dVertex
 10
425.3798991037774
 20
205.4464607247956
 30
0.0
 42
-0.030578541
 70
     1
  0
VERTEX
  5
18C47
330
18C3E
100
AcDbEntity
  8
0
100
AcDbVertex
100
AcDb2dVertex
 10
425.2259201037777
 20
205.4594457247954
 30
0.0
 42
-0.064003394
  0
VERTEX
  5
18C48
330
18C3E
100
AcDbEntity
  8
0
100
AcDbVertex
100
AcDb2dVertex
 10
425.0016161037773
 20
205.5250347247955
 30
0.0
 42
-0.033012834
 70
     1
  0
VERTEX
  5
18C49
330
18C3E
100
AcDbEntity
  8
0
100
AcDbVertex
100
AcDb2dVertex
 10
424.7153241037777
 20
205.6381337247954
 30
0.0
 42
-0.016793955
  0
SEQEND
  5
18C4A
330
18C3E
100
AcDbEntity
  8
0
  0
POLYLINE
  5
18C4B
330
1F
100
AcDbEntity
  8
0
100
AcDb2dPolyline
 66
     1
 10
0.0
 20
0.0
 30
0.0
 70
     2
  0
VERTEX
  5
18C4C
330
18C4B
100
AcDbEntity
  8
0
100
AcDbVertex
100
AcDb2dVertex
 10
428.3784401037774
 20
210.3619367247955
 30
0.0
  0
VERTEX
  5
18C4D
330
18C4B
100
AcDbEntity
  8
0
100
AcDbVertex
100
AcDb2dVertex
 10
428.4732351037773
 20
210.0528187247956
 30
0.0
 42
-0.052789816
 70
     1
  0
VERTEX
  5
18C4E
330
18C4B
100
AcDbEntity
  8
0
100
AcDbVertex
100
AcDb2dVertex
 10
428.5163041037775
 20
209.6902977247956
 30
0.0
 42
-0.038412116
  0
VERTEX
  5
18C4F
330
18C4B
100
AcDbEntity
  8
0
100
AcDbVertex
100
AcDb2dVertex
 10
428.5074281037767
 20
209.2708857247956
 30
0.0
 42
-0.032232626
 70
     1
  0
VERTEX
  5
18C50
330
18C4B
100
AcDbEntity
  8
0
100
AcDbVertex
100
AcDb2dVertex
 10
428.4355251037776
 20
208.8055217247955
 30
0.0
 42
-0.034937654
  0
VERTEX
  5
18C51
330
18C4B
100
AcDbEntity
  8
0
100
AcDbVertex
100
AcDb2dVertex
 10
428.2895691037774
 20
208.3090727247955
 30
0.0
 42
-0.02699673
 70
     1
  0
VERTEX
  5
18C52
330
18C4B
100
AcDbEntity
  8
0
100
AcDbVertex
100
AcDb2dVertex
 10
428.1026021037768
 20
207.8229417247956
 30
0.0
 42
-0.015406366
  0
VERTEX
  5
18C53
330
18C4B
100
AcDbEntity
  8
0
100
AcDbVertex
100
AcDb2dVertex
 10
427.8898021037774
 20
207.3759837247956
 30
0.0
 42
-0.029263405
 70
     1
  0
VERTEX
  5
18C54
330
18C4B
100
AcDbEntity
  8
0
100
AcDbVertex
100
AcDb2dVertex
 10
427.5668151037772
 20
206.9110947247955
 30
0.0
 42
-0.047201511
  0
VERTEX
  5
18C55
330
18C4B
100
AcDbEntity
  8
0
100
AcDbVertex
100
AcDb2dVertex
 10
427.0393821037768
 20
206.3661317247955
 30
0.0
 42
-0.029913367
 70
     1
  0
VERTEX
  5
18C56
330
18C4B
100
AcDbEntity
  8
0
100
AcDbVertex
100
AcDb2dVertex
 10
426.3277751037776
 20
205.7525867247956
 30
0.0
 42
-0.017846796
  0
SEQEND
  5
18C57
330
18C4B
100
AcDbEntity
  8
0
  0
POLYLINE
  5
18C58
330
1F
100
AcDbEntity
  8
0
100
AcDb2dPolyline
 66
     1
 10
0.0
 20
0.0
 30
0.0
 70
     2
  0
VERTEX
  5
18C59
330
18C58
100
AcDbEntity
  8
0
100
AcDbVertex
100
AcDb2dVertex
 10
418.2518181037776
 20
225.7293657247954
 30
0.0
  0
VERTEX
  5
18C5A
330
18C58
100
AcDbEntity
  8
0
100
AcDbVertex
100
AcDb2dVertex
 10
418.3309181037775
 20
225.6969257247955
 30
0.0
 42
0.034230738
 70
     1
  0
VERTEX
  5
18C5B
330
18C58
100
AcDbEntity
  8
0
100
AcDbVertex
100
AcDb2dVertex
 10
418.4088371037768
 20
225.6774047247955
 30
0.0
 42
0.038401715
  0
VERTEX
  5
18C5C
330
18C58
100
AcDbEntity
  8
0
100
AcDbVertex
100
AcDb2dVertex
 10
418.4858761037776
 20
225.6711817247954
 30
0.0
 42
0.042559571
 70
     1
  0
VERTEX
  5
18C5D
330
18C58
100
AcDbEntity
  8
0
100
AcDbVertex
100
AcDb2dVertex
 10
418.5596751037774
 20
225.6788047247956
 30
0.0
 42
0.051265222
  0
VERTEX
  5
18C5E
330
18C58
100
AcDbEntity
  8
0
100
AcDbVertex
100
AcDb2dVertex
 10
418.627214103777
 20
225.7018997247954
 30
0.0
 42
0.057738438
 70
     1
  0
VERTEX
  5
18C5F
330
18C58
100
AcDbEntity
  8
0
100
AcDbVertex
100
AcDb2dVertex
 10
418.6869921037768
 20
225.7393047247954
 30
0.0
 42
0.058605053
  0
VERTEX
  5
18C60
330
18C58
100
AcDbEntity
  8
0
100
AcDbVertex
100
AcDb2dVertex
 10
418.7372011037767
 20
225.7904327247955
 30
0.0
 42
0.054915579
 70
     1
  0
VERTEX
  5
18C61
330
18C58
100
AcDbEntity
  8
0
100
AcDbVertex
100
AcDb2dVertex
 10
418.7772291037772
 20
225.8524607247955
 30
0.0
 42
0.048612929
  0
VERTEX
  5
18C62
330
18C58
100
AcDbEntity
  8
0
100
AcDbVertex
100
AcDb2dVertex
 10
418.8060691037771
 20
225.9234497247956
 30
0.0
 42
0.042009695
 70
     1
  0
VERTEX
  5
18C63
330
18C58
100
AcDbEntity
  8
0
100
AcDbVertex
100
AcDb2dVertex
 10
418.825100103777
 20
226.0017837247954
 30
0.0
 42
0.033026429
  0
VERTEX
  5
18C64
330
18C58
100
AcDbEntity
  8
0
100
AcDbVertex
100
AcDb2dVertex
 10
418.8346311037776
 20
226.0873517247956
 30
0.0
 42
0.031067182
 70
     1
  0
VERTEX
  5
18C65
330
18C58
100
AcDbEntity
  8
0
100
AcDbVertex
100
AcDb2dVertex
 10
418.8330921037777
 20
226.1823327247956
 30
0.0
 42
0.032712106
  0
VERTEX
  5
18C66
330
18C58
100
AcDbEntity
  8
0
100
AcDbVertex
100
AcDb2dVertex
 10
418.8188661037774
 20
226.2879117247956
 30
0.0
 42
0.022445603
 70
     1
  0
VERTEX
  5
18C67
330
18C58
100
AcDbEntity
  8
0
100
AcDbVertex
100
AcDb2dVertex
 10
418.7978221037774
 20
226.3937647247954
 30
0.0
 42
0.010291336
  0
VERTEX
  5
18C68
330
18C58
100
AcDbEntity
  8
0
100
AcDbVertex
100
AcDb2dVertex
 10
418.7714421037771
 20
226.4943567247954
 30
0.0
 42
0.027393972
 70
     1
  0
VERTEX
  5
18C69
330
18C58
100
AcDbEntity
  8
0
100
AcDbVertex
100
AcDb2dVertex
 10
418.7184081037774
 20
226.6161417247955
 30
0.0
 42
0.042253589
  0
VERTEX
  5
18C6A
330
18C58
100
AcDbEntity
  8
0
100
AcDbVertex
100
AcDb2dVertex
 10
418.6154381037777
 20
226.7876277247954
 30
0.0
 42
0.021538674
 70
     1
  0
VERTEX
  5
18C6B
330
18C58
100
AcDbEntity
  8
0
100
AcDbVertex
100
AcDb2dVertex
 10
418.4675181037773
 20
227.0030987247954
 30
0.0
 42
0.011335379
  0
SEQEND
  5
18C6C
330
18C58
100
AcDbEntity
  8
0
  0
POLYLINE
  5
18C6D
330
1F
100
AcDbEntity
  8
0
100
AcDb2dPolyline
 66
     1
 10
0.0
 20
0.0
 30
0.0
 70
     2
  0
VERTEX
  5
18C6E
330
18C6D
100
AcDbEntity
  8
0
100
AcDbVertex
100
AcDb2dVertex
 10
419.8817321037777
 20
227.8195947247955
 30
0.0
  0
VERTEX
  5
18C6F
330
18C6D
100
AcDbEntity
  8
0
100
AcDbVertex
100
AcDb2dVertex
 10
419.9331741037775
 20
227.7589487247954
 30
0.0
 42
-0.015153724
 70
     1
  0
VERTEX
  5
18C70
330
18C6D
100
AcDbEntity
  8
0
100
AcDbVertex
100
AcDb2dVertex
 10
419.9825991037767
 20
227.6933947247956
 30
0.0
 42
-0.013964161
  0
VERTEX
  5
18C71
330
18C6D
100
AcDbEntity
  8
0
100
AcDbVertex
100
AcDb2dVertex
 10
420.0300571037768
 20
227.6226137247955
 30
0.0
 42
-0.01330601
 70
     1
  0
VERTEX
  5
18C72
330
18C6D
100
AcDbEntity
  8
0
100
AcDbVertex
100
AcDb2dVertex
 10
420.0747341037777
 20
227.5476017247955
 30
0.0
 42
-0.013932523
  0
VERTEX
  5
18C73
330
18C6D
100
AcDbEntity
  8
0
100
AcDbVertex
100
AcDb2dVertex
 10
420.1154411037768
 20
227.4692237247955
 30
0.0
 42
-0.01427693
 70
     1
  0
VERTEX
  5
18C74
330
18C6D
100
AcDbEntity
  8
0
100
AcDbVertex
100
AcDb2dVertex
 10
420.1516601037774
 20
227.3886637247954
 30
0.0
 42
-0.01449763
  0
VERTEX
  5
18C75
330
18C6D
100
AcDbEntity
  8
0
100
AcDbVertex
100
AcDb2dVertex
 10
420.1826051037768
 20
227.3069557247955
 30
0.0
 42
-0.015005747
 70
     1
  0
VERTEX
  5
18C76
330
18C6D
100
AcDbEntity
  8
0
100
AcDbVertex
100
AcDb2dVertex
 10
420.2079861037772
 20
227.2253087247955
 30
0.0
 42
-0.015890692
  0
VERTEX
  5
18C77
330
18C6D
100
AcDbEntity
  8
0
100
AcDbVertex
100
AcDb2dVertex
 10
420.2271821037774
 20
227.1449617247955
 30
0.0
 42
-0.016480831
 70
     1
  0
VERTEX
  5
18C78
330
18C6D
100
AcDbEntity
  8
0
100
AcDbVertex
100
AcDb2dVertex
 10
420.2405431037767
 20
227.0670597247955
 30
0.0
 42
-0.016445774
  0
VERTEX
  5
18C79
330
18C6D
100
AcDbEntity
  8
0
100
AcDbVertex
100
AcDb2dVertex
 10
420.2479051037771
 20
226.9928077247956
 30
0.0
 42
-0.018870354
 70
     1
  0
VERTEX
  5
18C7A
330
18C6D
100
AcDbEntity
  8
0
100
AcDbVertex
100
AcDb2dVertex
 10
420.2489601037767
 20
226.9224487247955
 30
0.0
 42
-0.023846987
  0
VERTEX
  5
18C7B
330
18C6D
100
AcDbEntity
  8
0
100
AcDbVertex
100
AcDb2dVertex
 10
420.2435251037776
 20
226.8567187247955
 30
0.0
 42
-0.020702089
 70
     1
  0
VERTEX
  5
18C7C
330
18C6D
100
AcDbEntity
  8
0
100
AcDbVertex
100
AcDb2dVertex
 10
420.2354101037771
 20
226.7973887247954
 30
0.0
 42
-0.0060404202
  0
VERTEX
  5
18C7D
330
18C6D
100
AcDbEntity
  8
0
100
AcDbVertex
100
AcDb2dVertex
 10
420.2256131037774
 20
226.7446617247955
 30
0.0
 42
-0.03179398
 70
     1
  0
VERTEX
  5
18C7E
330
18C6D
100
AcDbEntity
  8
0
100
AcDbVertex
100
AcDb2dVertex
 10
420.2004541037776
 20
226.6875937247956
 30
0.0
 42
-0.072792115
  0
VERTEX
  5
18C7F
330
18C6D
100
AcDbEntity
  8
0
100
AcDbVertex
100
AcDb2dVertex
 10
420.1451371037774
 20
226.6151657247954
 30
0.0
 42
-0.040282315
 70
     1
  0
VERTEX
  5
18C80
330
18C6D
100
AcDbEntity
  8
0
100
AcDbVertex
100
AcDb2dVertex
 10
420.0627791037777
 20
226.5294547247955
 30
0.0
 42
-0.020901733
  0
SEQEND
  5
18C81
330
18C6D
100
AcDbEntity
  8
0
  0
POLYLINE
  5
18C82
330
1F
100
AcDbEntity
  8
0
100
AcDb2dPolyline
 66
     1
 10
0.0
 20
0.0
 30
0.0
 70
     2
  0
VERTEX
  5
18C83
330
18C82
100
AcDbEntity
  8
0
100
AcDbVertex
100
AcDb2dVertex
 10
427.5137901037768
 20
230.8359047247955
 30
0.0
  0
VERTEX
  5
18C84
330
18C82
100
AcDbEntity
  8
0
100
AcDbVertex
100
AcDb2dVertex
 10
427.5628561037773
 20
230.8599357247954
 30
0.0
 42
0.042309465
 70
     1
  0
VERTEX
  5
18C85
330
18C82
100
AcDbEntity
  8
0
100
AcDbVertex
100
AcDb2dVertex
 10
427.6064621037776
 20
230.8915717247956
 30
0.0
 42
0.044571877
  0
VERTEX
  5
18C86
330
18C82
100
AcDbEntity
  8
0
100
AcDbVertex
100
AcDb2dVertex
 10
427.6444461037772
 20
230.9312607247956
 30
0.0
 42
0.042255085
 70
     1
  0
VERTEX
  5
18C87
330
18C82
100
AcDbEntity
  8
0
100
AcDbVertex
100
AcDb2dVertex
 10
427.6765911037773
 20
230.9777827247954
 30
0.0
 42
0.03857638
  0
VERTEX
  5
18C88
330
18C82
100
AcDbEntity
  8
0
100
AcDbVertex
100
AcDb2dVertex
 10
427.7022051037773
 20
231.0302157247955
 30
0.0
 42
0.034216721
 70
     1
  0
VERTEX
  5
18C89
330
18C82
100
AcDbEntity
  8
0
100
AcDbVertex
100
AcDb2dVertex
 10
427.7216751037776
 20
231.0869967247955
 30
0.0
 42
0.029024125
  0
VERTEX
  5
18C8A
330
18C82
100
AcDbEntity
  8
0
100
AcDbVertex
100
AcDb2dVertex
 10
427.7349881037771
 20
231.1473547247954
 30
0.0
 42
0.026691131
 70
     1
  0
VERTEX
  5
18C8B
330
18C82
100
AcDbEntity
  8
0
100
AcDbVertex
100
AcDb2dVertex
 10
427.7425391037777
 20
231.2122767247954
 30
0.0
 42
0.02439158
  0
VERTEX
  5
18C8C
330
18C82
100
AcDbEntity
  8
0
100
AcDbVertex
100
AcDb2dVertex
 10
427.7441771037774
 20
231.2831367247955
 30
0.0
 42
0.020937268
 70
     1
  0
VERTEX
  5
18C8D
330
18C82
100
AcDbEntity
  8
0
100
AcDbVertex
100
AcDb2dVertex
 10
427.739998103777
 20
231.3588117247955
 30
0.0
 42
0.01902732
  0
VERTEX
  5
18C8E
330
18C82
100
AcDbEntity
  8
0
100
AcDbVertex
100
AcDb2dVertex
 10
427.7293751037769
 20
231.4384287247954
 30
0.0
 42
0.019295881
 70
     1
  0
VERTEX
  5
18C8F
330
18C82
100
AcDbEntity
  8
0
100
AcDbVertex
100
AcDb2dVertex
 10
427.711346103777
 20
231.5221487247955
 30
0.0
 42
0.020858599
  0
VERTEX
  5
18C90
330
18C82
100
AcDbEntity
  8
0
100
AcDbVertex
100
AcDb2dVertex
 10
427.6852991037776
 20
231.6093647247954
 30
0.0
 42
0.015498691
 70
     1
  0
VERTEX
  5
18C91
330
18C82
100
AcDbEntity
  8
0
100
AcDbVertex
100
AcDb2dVertex
 10
427.6563331037768
 20
231.6929817247954
 30
0.0
 42
0.0069750649
  0
VERTEX
  5
18C92
330
18C82
100
AcDbEntity
  8
0
100
AcDbVertex
100
AcDb2dVertex
 10
427.6262021037773
 20
231.7696427247954
 30
0.0
 42
0.019359714
 70
     1
  0
VERTEX
  5
18C93
330
18C82
100
AcDbEntity
  8
0
100
AcDbVertex
100
AcDb2dVertex
 10
427.5780851037771
 20
231.8604497247955
 30
0.0
 42
0.031447935
  0
VERTEX
  5
18C94
330
18C82
100
AcDbEntity
  8
0
100
AcDbVertex
100
AcDb2dVertex
 10
427.4937711037773
 20
231.9877077247955
 30
0.0
 42
0.016419678
 70
     1
  0
VERTEX
  5
18C95
330
18C82
100
AcDbEntity
  8
0
100
AcDbVertex
100
AcDb2dVertex
 10
427.3770641037772
 20
232.1470267247956
 30
0.0
 42
0.008938425
  0
SEQEND
  5
18C96
330
18C82
100
AcDbEntity
  8
0
  0
POLYLINE
  5
18C97
330
1F
100
AcDbEntity
  8
0
100
AcDb2dPolyline
 66
     1
 10
0.0
 20
0.0
 30
0.0
 70
     2
  0
VERTEX
  5
18C98
330
18C97
100
AcDbEntity
  8
0
100
AcDbVertex
100
AcDb2dVertex
 10
428.7912771037771
 20
232.9635237247956
 30
0.0
  0
VERTEX
  5
18C99
330
18C97
100
AcDbEntity
  8
0
100
AcDbVertex
100
AcDb2dVertex
 10
428.8427191037771
 20
232.9028777247955
 30
0.0
 42
-0.015153724
 70
     1
  0
VERTEX
  5
18C9A
330
18C97
100
AcDbEntity
  8
0
100
AcDbVertex
100
AcDb2dVertex
 10
428.8921451037777
 20
232.8373237247955
 30
0.0
 42
-0.013964161
  0
VERTEX
  5
18C9B
330
18C97
100
AcDbEntity
  8
0
100
AcDbVertex
100
AcDb2dVertex
 10
428.9396021037773
 20
232.7665417247954
 30
0.0
 42
-0.01330601
 70
     1
  0
VERTEX
  5
18C9C
330
18C97
100
AcDbEntity
  8
0
100
AcDbVertex
100
AcDb2dVertex
 10
428.9842791037771
 20
232.6915307247956
 30
0.0
 42
-0.013932523
  0
VERTEX
  5
18C9D
330
18C97
100
AcDbEntity
  8
0
100
AcDbVertex
100
AcDb2dVertex
 10
429.0249861037773
 20
232.6131527247956
 30
0.0
 42
-0.01427693
 70
     1
  0
VERTEX
  5
18C9E
330
18C97
100
AcDbEntity
  8
0
100
AcDbVertex
100
AcDb2dVertex
 10
429.0612061037773
 20
232.5325917247954
 30
0.0
 42
-0.01449763
  0
VERTEX
  5
18C9F
330
18C97
100
AcDbEntity
  8
0
100
AcDbVertex
100
AcDb2dVertex
 10
429.0921501037773
 20
232.4508837247955
 30
0.0
 42
-0.015005747
 70
     1
  0
VERTEX
  5
18CA0
330
18C97
100
AcDbEntity
  8
0
100
AcDbVertex
100
AcDb2dVertex
 10
429.1175311037767
 20
232.3692377247956
 30
0.0
 42
-0.015890692
  0
VERTEX
  5
18CA1
330
18C97
100
AcDbEntity
  8
0
100
AcDbVertex
100
AcDb2dVertex
 10
429.136727103777
 20
232.2888897247954
 30
0.0
 42
-0.016480831
 70
     1
  0
VERTEX
  5
18CA2
330
18C97
100
AcDbEntity
  8
0
100
AcDbVertex
100
AcDb2dVertex
 10
429.1500891037776
 20
232.2109887247955
 30
0.0
 42
-0.016445774
  0
VERTEX
  5
18CA3
330
18C97
100
AcDbEntity
  8
0
100
AcDbVertex
100
AcDb2dVertex
 10
429.157451103777
 20
232.1367367247954
 30
0.0
 42
-0.018870354
 70
     1
  0
VERTEX
  5
18CA4
330
18C97
100
AcDbEntity
  8
0
100
AcDbVertex
100
AcDb2dVertex
 10
429.1585051037773
 20
232.0663777247956
 30
0.0
 42
-0.023846987
  0
VERTEX
  5
18CA5
330
18C97
100
AcDbEntity
  8
0
100
AcDbVertex
100
AcDb2dVertex
 10
429.1530711037776
 20
232.0006467247954
 30
0.0
 42
-0.020702089
 70
     1
  0
VERTEX
  5
18CA6
330
18C97
100
AcDbEntity
  8
0
100
AcDbVertex
100
AcDb2dVertex
 10
429.1449551037776
 20
231.9413167247954
 30
0.0
 42
-0.0060404201
  0
VERTEX
  5
18CA7
330
18C97
100
AcDbEntity
  8
0
100
AcDbVertex
100
AcDb2dVertex
 10
429.135158103777
 20
231.8885907247955
 30
0.0
 42
-0.03179398
 70
     1
  0
VERTEX
  5
18CA8
330
18C97
100
AcDbEntity
  8
0
100
AcDbVertex
100
AcDb2dVertex
 10
429.1099991037771
 20
231.8315217247956
 30
0.0
 42
-0.072792115
  0
VERTEX
  5
18CA9
330
18C97
100
AcDbEntity
  8
0
100
AcDbVertex
100
AcDb2dVertex
 10
429.0546831037771
 20
231.7590937247956
 30
0.0
 42
-0.040282315
 70
     1
  0
VERTEX
  5
18CAA
330
18C97
100
AcDbEntity
  8
0
100
AcDbVertex
100
AcDb2dVertex
 10
428.9723251037776
 20
231.6733827247954
 30
0.0
 42
-0.020901733
  0
SEQEND
  5
18CAB
330
18C97
100
AcDbEntity
  8
0
  0
POLYLINE
  5
18CAC
330
1F
100
AcDbEntity
  8
0
100
AcDb2dPolyline
 66
     1
 10
0.0
 20
0.0
 30
0.0
 70
     2
  0
VERTEX
  5
18CAD
330
18CAC
100
AcDbEntity
  8
0
100
AcDbVertex
100
AcDb2dVertex
 10
420.1150151037771
 20
204.0322977247955
 30
0.0
  0
VERTEX
  5
18CAE
330
18CAC
100
AcDbEntity
  8
0
100
AcDbVertex
100
AcDb2dVertex
 10
420.1425711037773
 20
203.9720337247955
 30
0.0
 42
-0.010157462
 70
     1
  0
VERTEX
  5
18CAF
330
18CAC
100
AcDbEntity
  8
0
100
AcDbVertex
100
AcDb2dVertex
 10
420.1669971037771
 20
203.9121657247954
 30
0.0
 42
-0.010901756
  0
VERTEX
  5
18CB0
330
18CAC
100
AcDbEntity
  8
0
100
AcDbVertex
100
AcDb2dVertex
 10
420.1881711037776
 20
203.8526367247956
 30
0.0
 42
-0.01123136
 70
     1
  0
VERTEX
  5
18CB1
330
18CAC
100
AcDbEntity
  8
0
100
AcDbVertex
100
AcDb2dVertex
 10
420.2061681037775
 20
203.7939187247955
 30
0.0
 42
-0.011329881
  0
VERTEX
  5
18CB2
330
18CAC
100
AcDbEntity
  8
0
100
AcDbVertex
100
AcDb2dVertex
 10
420.2208181037776
 20
203.7366237247955
 30
0.0
 42
-0.011574421
 70
     1
  0
VERTEX
  5
18CB3
330
18CAC
100
AcDbEntity
  8
0
100
AcDbVertex
100
AcDb2dVertex
 10
420.232363103777
 20
203.6810337247956
 30
0.0
 42
-0.011581623
  0
VERTEX
  5
18CB4
330
18CAC
100
AcDbEntity
  8
0
100
AcDbVertex
100
AcDb2dVertex
 10
420.2408051037773
 20
203.6273127247956
 30
0.0
 42
-0.01247168
 70
     1
  0
VERTEX
  5
18CB5
330
18CAC
100
AcDbEntity
  8
0
100
AcDbVertex
100
AcDb2dVertex
 10
420.2463321037774
 20
203.5745567247955
 30
0.0
 42
-0.013537528
  0
VERTEX
  5
18CB6
330
18CAC
100
AcDbEntity
  8
0
100
AcDbVertex
100
AcDb2dVertex
 10
420.2488641037771
 20
203.5220257247955
 30
0.0
 42
-0.013795852
 70
     1
  0
VERTEX
  5
18CB7
330
18CAC
100
AcDbEntity
  8
0
100
AcDbVertex
100
AcDb2dVertex
 10
420.2485061037767
 20
203.4702347247956
 30
0.0
 42
-0.014271377
  0
VERTEX
  5
18CB8
330
18CAC
100
AcDbEntity
  8
0
100
AcDbVertex
100
AcDb2dVertex
 10
420.2449751037773
 20
203.4198897247955
 30
0.0
 42
-0.017244626
 70
     1
  0
VERTEX
  5
18CB9
330
18CAC
100
AcDbEntity
  8
0
100
AcDbVertex
100
AcDb2dVertex
 10
420.2376341037769
 20
203.3708817247955
 30
0.0
 42
-0.022623095
  0
VERTEX
  5
18CBA
330
18CAC
100
AcDbEntity
  8
0
100
AcDbVertex
100
AcDb2dVertex
 10
420.2260541037776
 20
203.3235427247956
 30
0.0
 42
-0.019161485
 70
     1
  0
VERTEX
  5
18CBB
330
18CAC
100
AcDbEntity
  8
0
100
AcDbVertex
100
AcDb2dVertex
 10
420.2130151037771
 20
203.2802307247956
 30
0.0
 42
-0.0076088158
  0
VERTEX
  5
18CBC
330
18CAC
100
AcDbEntity
  8
0
100
AcDbVertex
100
AcDb2dVertex
 10
420.199321103777
 20
203.2421907247954
 30
0.0
 42
-0.029856914
 70
     1
  0
VERTEX
  5
18CBD
330
18CAC
100
AcDbEntity
  8
0
100
AcDbVertex
100
AcDb2dVertex
 10
420.1748101037773
 20
203.2017517247955
 30
0.0
 42
-0.060303409
  0
VERTEX
  5
18CBE
330
18CAC
100
AcDbEntity
  8
0
100
AcDbVertex
100
AcDb2dVertex
 10
420.1285341037773
 20
203.1510457247955
 30
0.0
 42
-0.03332591
 70
     1
  0
VERTEX
  5
18CBF
330
18CAC
100
AcDbEntity
  8
0
100
AcDbVertex
100
AcDb2dVertex
 10
420.0627791037777
 20
203.0915327247954
 30
0.0
 42
-0.018037795
  0
SEQEND
  5
18CC0
330
18CAC
100
AcDbEntity
  8
0
  0
POLYLINE
  5
18CC1
330
1F
100
AcDbEntity
  8
0
100
AcDb2dPolyline
 66
     1
 10
0.0
 20
0.0
 30
0.0
 70
     2
  0
VERTEX
  5
18CC2
330
18CC1
100
AcDbEntity
  8
0
100
AcDbVertex
100
AcDb2dVertex
 10
418.4675181037773
 20
202.2331817247955
 30
0.0
  0
VERTEX
  5
18CC3
330
18CC1
100
AcDbEntity
  8
0
100
AcDbVertex
100
AcDb2dVertex
 10
418.5377981037771
 20
202.2365587247955
 30
0.0
 42
0.05053405
 70
     1
  0
VERTEX
  5
18CC4
330
18CC1
100
AcDbEntity
  8
0
100
AcDbVertex
100
AcDb2dVertex
 10
418.603309103777
 20
202.2537027247955
 30
0.0
 42
0.0540277
  0
VERTEX
  5
18CC5
330
18CC1
100
AcDbEntity
  8
0
100
AcDbVertex
100
AcDb2dVertex
 10
418.6641701037769
 20
202.2851837247955
 30
0.0
 42
0.054147994
 70
     1
  0
VERTEX
  5
18CC6
330
18CC1
100
AcDbEntity
  8
0
100
AcDbVertex
100
AcDb2dVertex
 10
418.7184081037774
 20
202.3304347247954
 30
0.0
 42
0.056552723
  0
VERTEX
  5
18CC7
330
18CC1
100
AcDbEntity
  8
0
100
AcDbVertex
100
AcDb2dVertex
 10
418.7632261037768
 20
202.3897577247954
 30
0.0
 42
0.053226263
 70
     1
  0
VERTEX
  5
18CC8
330
18CC1
100
AcDbEntity
  8
0
100
AcDbVertex
100
AcDb2dVertex
 10
418.7978221037774
 20
202.4611137247955
 30
0.0
 42
0.046355364
  0
VERTEX
  5
18CC9
330
18CC1
100
AcDbEntity
  8
0
100
AcDbVertex
100
AcDb2dVertex
 10
418.8209841037768
 20
202.5429467247955
 30
0.0
 42
0.038993016
 70
     1
  0
VERTEX
  5
18CCA
330
18CC1
100
AcDbEntity
  8
0
100
AcDbVertex
100
AcDb2dVertex
 10
418.8330921037777
 20
202.6318197247954
 30
0.0
 42
0.03293345
  0
VERTEX
  5
18CCB
330
18CC1
100
AcDbEntity
  8
0
100
AcDbVertex
100
AcDb2dVertex
 10
418.8339501037772
 20
202.7250707247954
 30
0.0
 42
0.028359674
 70
     1
  0
VERTEX
  5
18CCC
330
18CC1
100
AcDbEntity
  8
0
100
AcDbVertex
100
AcDb2dVertex
 10
418.825100103777
 20
202.8215967247955
 30
0.0
 42
0.022840689
  0
VERTEX
  5
18CCD
330
18CC1
100
AcDbEntity
  8
0
100
AcDbVertex
100
AcDb2dVertex
 10
418.8068111037773
 20
202.9214247247956
 30
0.0
 42
0.022353656
 70
     1
  0
VERTEX
  5
18CCE
330
18CC1
100
AcDbEntity
  8
0
100
AcDbVertex
100
AcDb2dVertex
 10
418.7772291037772
 20
203.0261957247954
 30
0.0
 42
0.024895632
  0
VERTEX
  5
18CCF
330
18CC1
100
AcDbEntity
  8
0
100
AcDbVertex
100
AcDb2dVertex
 10
418.7347631037773
 20
203.1364187247955
 30
0.0
 42
0.018253685
 70
     1
  0
VERTEX
  5
18CD0
330
18CC1
100
AcDbEntity
  8
0
100
AcDbVertex
100
AcDb2dVertex
 10
418.6869921037768
 20
203.2435487247954
 30
0.0
 42
0.0087131826
  0
VERTEX
  5
18CD1
330
18CC1
100
AcDbEntity
  8
0
100
AcDbVertex
100
AcDb2dVertex
 10
418.6367081037769
 20
203.3421727247956
 30
0.0
 42
0.024168552
 70
     1
  0
VERTEX
  5
18CD2
330
18CC1
100
AcDbEntity
  8
0
100
AcDbVertex
100
AcDb2dVertex
 10
418.5596751037774
 20
203.4510617247955
 30
0.0
 42
0.041777952
  0
VERTEX
  5
18CD3
330
18CC1
100
AcDbEntity
  8
0
100
AcDbVertex
100
AcDb2dVertex
 10
418.4295351037771
 20
203.5902867247956
 30
0.0
 42
0.023693232
 70
     1
  0
VERTEX
  5
18CD4
330
18CC1
100
AcDbEntity
  8
0
100
AcDbVertex
100
AcDb2dVertex
 10
418.2518181037776
 20
203.7559827247956
 30
0.0
 42
0.013109036
  0
SEQEND
  5
18CD5
330
18CC1
100
AcDbEntity
  8
0
  0
POLYLINE
  5
18CD6
330
1F
100
AcDbEntity
  8
0
100
AcDb2dPolyline
 66
     1
 10
0.0
 20
0.0
 30
0.0
 70
     2
  0
VERTEX
  5
18CD7
330
18CD6
100
AcDbEntity
  8
0
100
AcDbVertex
100
AcDb2dVertex
 10
425.2898701037774
 20
203.2754097247956
 30
0.0
  0
VERTEX
  5
18CD8
330
18CD6
100
AcDbEntity
  8
0
100
AcDbVertex
100
AcDb2dVertex
 10
425.3054141037774
 20
203.2834177247956
 30
0.0
 42
-0.027925478
 70
     1
  0
VERTEX
  5
18CD9
330
18CD6
100
AcDbEntity
  8
0
100
AcDbVertex
100
AcDb2dVertex
 10
425.3210131037776
 20
203.2893817247955
 30
0.0
 42
-0.027952345
  0
VERTEX
  5
18CDA
330
18CD6
100
AcDbEntity
  8
0
100
AcDbVertex
100
AcDb2dVertex
 10
425.3367111037768
 20
203.2932997247954
 30
0.0
 42
-0.032859138
 70
     1
  0
VERTEX
  5
18CDB
330
18CD6
100
AcDbEntity
  8
0
100
AcDbVertex
100
AcDb2dVertex
 10
425.3522311037777
 20
203.2946797247956
 30
0.0
 42
-0.046855786
  0
VERTEX
  5
18CDC
330
18CD6
100
AcDbEntity
  8
0
100
AcDbVertex
100
AcDb2dVertex
 10
425.3671441037777
 20
203.2930307247955
 30
0.0
 42
-0.044040676
 70
     1
  0
VERTEX
  5
18CDD
330
18CD6
100
AcDbEntity
  8
0
100
AcDbVertex
100
AcDb2dVertex
 10
425.3807741037771
 20
203.2896877247954
 30
0.0
 42
-0.022497469
  0
VERTEX
  5
18CDE
330
18CD6
100
AcDbEntity
  8
0
100
AcDbVertex
100
AcDb2dVertex
 10
425.3926411037772
 20
203.2850327247955
 30
0.0
 42
-0.062935273
 70
     1
  0
VERTEX
  5
18CDF
330
18CD6
100
AcDbEntity
  8
0
100
AcDbVertex
100
AcDb2dVertex
 10
425.4040421037769
 20
203.2743927247955
 30
0.0
 42
-0.1051524
  0
VERTEX
  5
18CE0
330
18CD6
100
AcDbEntity
  8
0
100
AcDbVertex
100
AcDb2dVertex
 10
425.4162801037773
 20
203.2526397247955
 30
0.0
 42
-0.047385296
 70
     1
  0
VERTEX
  5
18CE1
330
18CD6
100
AcDbEntity
  8
0
100
AcDbVertex
100
AcDb2dVertex
 10
425.4291431037771
 20
203.2208757247955
 30
0.0
 42
-0.022743095
  0
SEQEND
  5
18CE2
330
18CD6
100
AcDbEntity
  8
0
  0
POLYLINE
  5
18CE3
330
1F
100
AcDbEntity
  8
0
100
AcDb2dPolyline
 66
     1
 10
0.0
 20
0.0
 30
0.0
 70
     2
  0
VERTEX
  5
18CE4
330
18CE3
100
AcDbEntity
  8
0
100
AcDbVertex
100
AcDb2dVertex
 10
431.6104701037774
 20
206.7896667247956
 30
0.0
  0
VERTEX
  5
18CE5
330
18CE3
100
AcDbEntity
  8
0
100
AcDbVertex
100
AcDb2dVertex
 10
431.6139931037768
 20
206.8092097247955
 30
0.0
 42
-0.021652279
 70
     1
  0
VERTEX
  5
18CE6
330
18CE3
100
AcDbEntity
  8
0
100
AcDbVertex
100
AcDb2dVertex
 10
431.6192971037771
 20
206.8294827247956
 30
0.0
 42
-0.017756077
  0
VERTEX
  5
18CE7
330
18CE3
100
AcDbEntity
  8
0
100
AcDbVertex
100
AcDb2dVertex
 10
431.6264101037776
 20
206.8505467247956
 30
0.0
 42
-0.01740344
 70
     1
  0
VERTEX
  5
18CE8
330
18CE3
100
AcDbEntity
  8
0
100
AcDbVertex
100
AcDb2dVertex
 10
431.6355701037773
 20
206.8721667247956
 30
0.0
 42
-0.020633033
  0
VERTEX
  5
18CE9
330
18CE3
100
AcDbEntity
  8
0
100
AcDbVertex
100
AcDb2dVertex
 10
431.6469101037774
 20
206.8938917247954
 30
0.0
 42
-0.016508577
 70
     1
  0
VERTEX
  5
18CEA
330
18CE3
100
AcDbEntity
  8
0
100
AcDbVertex
100
AcDb2dVertex
 10
431.6588391037774
 20
206.9143307247955
 30
0.0
 42
-0.0079094378
  0
VERTEX
  5
18CEB
330
18CE3
100
AcDbEntity
  8
0
100
AcDbVertex
100
AcDb2dVertex
 10
431.6707131037774
 20
206.9326827247956
 30
0.0
 42
-0.02140359
 70
     1
  0
VERTEX
  5
18CEC
330
18CE3
100
AcDbEntity
  8
0
100
AcDbVertex
100
AcDb2dVertex
 10
431.687382103777
 20
206.9522817247956
 30
0.0
 42
-0.038437698
  0
VERTEX
  5
18CED
330
18CE3
100
AcDbEntity
  8
0
100
AcDbVertex
100
AcDb2dVertex
 10
431.7140861037769
 20
206.9766107247954
 30
0.0
 42
-0.022510349
 70
     1
  0
VERTEX
  5
18CEE
330
18CE3
100
AcDbEntity
  8
0
100
AcDbVertex
100
AcDb2dVertex
 10
431.7497431037772
 20
207.0050187247955
 30
0.0
 42
-0.012826776
  0
SEQEND
  5
18CEF
330
18CE3
100
AcDbEntity
  8
0
  0
POLYLINE
  5
18CF0
330
1F
100
AcDbEntity
  8
0
100
AcDb2dPolyline
 66
     1
 10
0.0
 20
0.0
 30
0.0
 70
     2
  0
VERTEX
  5
18CF1
330
18CF0
100
AcDbEntity
  8
0
100
AcDbVertex
100
AcDb2dVertex
 10
425.4291431037771
 20
222.7600807247955
 30
0.0
  0
VERTEX
  5
18CF2
330
18CF0
100
AcDbEntity
  8
0
100
AcDbVertex
100
AcDb2dVertex
 10
425.4256191037774
 20
222.7405387247955
 30
0.0
 42
-0.021652279
 70
     1
  0
VERTEX
  5
18CF3
330
18CF0
100
AcDbEntity
  8
0
100
AcDbVertex
100
AcDb2dVertex
 10
425.4203151037772
 20
222.7202657247954
 30
0.0
 42
-0.017756077
  0
VERTEX
  5
18CF4
330
18CF0
100
AcDbEntity
  8
0
100
AcDbVertex
100
AcDb2dVertex
 10
425.4132021037776
 20
222.6992017247956
 30
0.0
 42
-0.01740344
 70
     1
  0
VERTEX
  5
18CF5
330
18CF0
100
AcDbEntity
  8
0
100
AcDbVertex
100
AcDb2dVertex
 10
425.4040421037769
 20
222.6775807247955
 30
0.0
 42
-0.020633033
  0
VERTEX
  5
18CF6
330
18CF0
100
AcDbEntity
  8
0
100
AcDbVertex
100
AcDb2dVertex
 10
425.392702103777
 20
222.6558567247955
 30
0.0
 42
-0.016508577
 70
     1
  0
VERTEX
  5
18CF7
330
18CF0
100
AcDbEntity
  8
0
100
AcDbVertex
100
AcDb2dVertex
 10
425.3807741037771
 20
222.6354167247956
 30
0.0
 42
-0.0079094378
  0
VERTEX
  5
18CF8
330
18CF0
100
AcDbEntity
  8
0
100
AcDbVertex
100
AcDb2dVertex
 10
425.3688991037769
 20
222.6170647247955
 30
0.0
 42
-0.02140359
 70
     1
  0
VERTEX
  5
18CF9
330
18CF0
100
AcDbEntity
  8
0
100
AcDbVertex
100
AcDb2dVertex
 10
425.3522311037777
 20
222.5974667247954
 30
0.0
 42
-0.038437698
  0
VERTEX
  5
18CFA
330
18CF0
100
AcDbEntity
  8
0
100
AcDbVertex
100
AcDb2dVertex
 10
425.3255271037768
 20
222.5731367247955
 30
0.0
 42
-0.022510349
 70
     1
  0
VERTEX
  5
18CFB
330
18CF0
100
AcDbEntity
  8
0
100
AcDbVertex
100
AcDb2dVertex
 10
425.2898701037774
 20
222.5447287247956
 30
0.0
 42
-0.012826776
  0
SEQEND
  5
18CFC
330
18CF0
100
AcDbEntity
  8
0
  0
POLYLINE
  5
18CFD
330
1F
100
AcDbEntity
  8
0
100
AcDb2dPolyline
 66
     1
 10
0.0
 20
0.0
 30
0.0
 70
     2
  0
VERTEX
  5
18CFE
330
18CFD
100
AcDbEntity
  8
0
100
AcDbVertex
100
AcDb2dVertex
 10
431.7497431037772
 20
226.2743387247954
 30
0.0
  0
VERTEX
  5
18CFF
330
18CFD
100
AcDbEntity
  8
0
100
AcDbVertex
100
AcDb2dVertex
 10
431.7341991037773
 20
226.2663297247955
 30
0.0
 42
-0.027925478
 70
     1
  0
VERTEX
  5
18D00
330
18CFD
100
AcDbEntity
  8
0
100
AcDbVertex
100
AcDb2dVertex
 10
431.7185991037777
 20
226.2603667247955
 30
0.0
 42
-0.027952345
  0
VERTEX
  5
18D01
330
18CFD
100
AcDbEntity
  8
0
100
AcDbVertex
100
AcDb2dVertex
 10
431.7029021037768
 20
226.2564477247955
 30
0.0
 42
-0.032859138
 70
     1
  0
VERTEX
  5
18D02
330
18CFD
100
AcDbEntity
  8
0
100
AcDbVertex
100
AcDb2dVertex
 10
431.687382103777
 20
226.2550677247955
 30
0.0
 42
-0.046855786
  0
VERTEX
  5
18D03
330
18CFD
100
AcDbEntity
  8
0
100
AcDbVertex
100
AcDb2dVertex
 10
431.6724681037776
 20
226.2567167247956
 30
0.0
 42
-0.044040676
 70
     1
  0
VERTEX
  5
18D04
330
18CFD
100
AcDbEntity
  8
0
100
AcDbVertex
100
AcDb2dVertex
 10
431.6588391037774
 20
226.2600597247955
 30
0.0
 42
-0.022497469
  0
VERTEX
  5
18D05
330
18CFD
100
AcDbEntity
  8
0
100
AcDbVertex
100
AcDb2dVertex
 10
431.6469721037774
 20
226.2647147247954
 30
0.0
 42
-0.062935273
 70
     1
  0
VERTEX
  5
18D06
330
18CFD
100
AcDbEntity
  8
0
100
AcDbVertex
100
AcDb2dVertex
 10
431.6355701037773
 20
226.2753547247956
 30
0.0
 42
-0.1051524
  0
VERTEX
  5
18D07
330
18CFD
100
AcDbEntity
  8
0
100
AcDbVertex
100
AcDb2dVertex
 10
431.6233321037771
 20
226.2971087247954
 30
0.0
 42
-0.047385296
 70
     1
  0
VERTEX
  5
18D08
330
18CFD
100
AcDbEntity
  8
0
100
AcDbVertex
100
AcDb2dVertex
 10
431.6104701037774
 20
226.3288717247954
 30
0.0
 42
-0.022743095
  0
SEQEND
  5
18D09
330
18CFD
100
AcDbEntity
  8
0
  0
POLYLINE
  5
18D0A
330
1F
100
AcDbEntity
  8
0
100
AcDb2dPolyline
 66
     1
 10
0.0
 20
0.0
 30
0.0
 70
     2
  0
VERTEX
  5
18D0B
330
18D0A
100
AcDbEntity
  8
0
100
AcDbVertex
100
AcDb2dVertex
 10
425.6353651037771
 20
221.6827547247954
 30
0.0
  0
VERTEX
  5
18D0C
330
18D0A
100
AcDbEntity
  8
0
100
AcDbVertex
100
AcDb2dVertex
 10
425.813435103777
 20
222.4013897247956
 30
0.0
 42
-0.037436186
 70
     1
  0
VERTEX
  5
18D0D
330
18D0A
100
AcDbEntity
  8
0
100
AcDbVertex
100
AcDb2dVertex
 10
426.1103971037774
 20
223.1454277247954
 30
0.0
 42
-0.031512991
  0
VERTEX
  5
18D0E
330
18D0A
100
AcDbEntity
  8
0
100
AcDbVertex
100
AcDb2dVertex
 10
426.5334791037774
 20
223.9247777247954
 30
0.0
 42
-0.027301888
 70
     1
  0
VERTEX
  5
18D0F
330
18D0A
100
AcDbEntity
  8
0
100
AcDbVertex
100
AcDb2dVertex
 10
427.0620191037768
 20
224.6776577247954
 30
0.0
 42
-0.032019358
  0
VERTEX
  5
18D10
330
18D0A
100
AcDbEntity
  8
0
100
AcDbVertex
100
AcDb2dVertex
 10
427.6753461037769
 20
225.3301137247955
 30
0.0
 42
-0.036362944
 70
     1
  0
VERTEX
  5
18D11
330
18D0A
100
AcDbEntity
  8
0
100
AcDbVertex
100
AcDb2dVertex
 10
428.325452103777
 20
225.8413157247956
 30
0.0
 42
-0.041183696
  0
VERTEX
  5
18D12
330
18D0A
100
AcDbEntity
  8
0
100
AcDbVertex
100
AcDb2dVertex
 10
428.9641141037773
 20
226.1734857247955
 30
0.0
 42
-0.048884383
 70
     1
  0
VERTEX
  5
18D13
330
18D0A
100
AcDbEntity
  8
0
100
AcDbVertex
100
AcDb2dVertex
 10
429.5502781037774
 20
226.3427697247956
 30
0.0
 42
-0.052966483
  0
VERTEX
  5
18D14
330
18D0A
100
AcDbEntity
  8
0
100
AcDbVertex
100
AcDb2dVertex
 10
430.0510611037771
 20
226.3589237247955
 30
0.0
 42
-0.071028395
 70
     1
  0
VERTEX
  5
18D15
330
18D0A
100
AcDbEntity
  8
0
100
AcDbVertex
100
AcDb2dVertex
 10
430.4890731037776
 20
226.2355147247955
 30
0.0
 42
-0.080442237
  0
VERTEX
  5
18D16
330
18D0A
100
AcDbEntity
  8
0
100
AcDbVertex
100
AcDb2dVertex
 10
430.8819571037774
 20
225.9688327247955
 30
0.0
 42
-0.078388894
 70
     1
  0
VERTEX
  5
18D17
330
18D0A
100
AcDbEntity
  8
0
100
AcDbVertex
100
AcDb2dVertex
 10
431.2033351037771
 20
225.5500197247955
 30
0.0
 42
-0.082544905
  0
VERTEX
  5
18D18
330
18D0A
100
AcDbEntity
  8
0
100
AcDbVertex
100
AcDb2dVertex
 10
431.4126401037774
 20
224.9631007247954
 30
0.0
 42
-0.067080682
 70
     1
  0
VERTEX
  5
18D19
330
18D0A
100
AcDbEntity
  8
0
100
AcDbVertex
100
AcDb2dVertex
 10
431.4896551037771
 20
224.2462347247955
 30
0.0
 42
-0.054570256
  0
VERTEX
  5
18D1A
330
18D0A
100
AcDbEntity
  8
0
100
AcDbVertex
100
AcDb2dVertex
 10
431.4127781037767
 20
223.4403087247954
 30
0.0
 42
-0.043298864
 70
     1
  0
VERTEX
  5
18D1B
330
18D0A
100
AcDbEntity
  8
0
100
AcDbVertex
100
AcDb2dVertex
 10
431.2033351037771
 20
222.6118357247954
 30
0.0
 42
-0.035783364
  0
VERTEX
  5
18D1C
330
18D0A
100
AcDbEntity
  8
0
100
AcDbVertex
100
AcDb2dVertex
 10
430.8815161037773
 20
221.8227677247956
 30
0.0
 42
-0.03157631
 70
     1
  0
VERTEX
  5
18D1D
330
18D0A
100
AcDbEntity
  8
0
100
AcDbVertex
100
AcDb2dVertex
 10
430.4890731037776
 20
221.1015817247956
 30
0.0
 42
-0.025288712
  0
VERTEX
  5
18D1E
330
18D0A
100
AcDbEntity
  8
0
100
AcDbVertex
100
AcDb2dVertex
 10
430.0527781037771
 20
220.4690027247955
 30
0.0
 42
-0.028463925
 70
     1
  0
VERTEX
  5
18D1F
330
18D0A
100
AcDbEntity
  8
0
100
AcDbVertex
100
AcDb2dVertex
 10
429.5502781037774
 20
219.9102987247955
 30
0.0
 42
-0.035977228
  0
VERTEX
  5
18D20
330
18D0A
100
AcDbEntity
  8
0
100
AcDbVertex
100
AcDb2dVertex
 10
428.9573481037768
 20
219.4161677247956
 30
0.0
 42
-0.031737175
 70
     1
  0
VERTEX
  5
18D21
330
18D0A
100
AcDbEntity
  8
0
100
AcDbVertex
100
AcDb2dVertex
 10
428.325452103777
 20
218.9974467247956
 30
0.0
 42
-0.024906252
  0
VERTEX
  5
18D22
330
18D0A
100
AcDbEntity
  8
0
100
AcDbVertex
100
AcDb2dVertex
 10
427.702045103777
 20
218.7049757247956
 30
0.0
 42
-0.061436632
 70
     1
  0
VERTEX
  5
18D23
330
18D0A
100
AcDbEntity
  8
0
100
AcDbVertex
100
AcDb2dVertex
 10
427.0620191037768
 20
218.7022167247954
 30
0.0
 42
-0.15607563
  0
VERTEX
  5
18D24
330
18D0A
100
AcDbEntity
  8
0
100
AcDbVertex
100
AcDb2dVertex
 10
426.3709261037774
 20
219.1639847247955
 30
0.0
 42
-0.10808863
 70
     1
  0
VERTEX
  5
18D25
330
18D0A
100
AcDbEntity
  8
0
100
AcDbVertex
100
AcDb2dVertex
 10
425.6353651037771
 20
220.0497617247955
 30
0.0
 42
-0.04901545
  0
SEQEND
  5
18D26
330
18D0A
100
AcDbEntity
  8
0
  0
POLYLINE
  5
18D27
330
1F
100
AcDbEntity
  8
0
100
AcDb2dPolyline
 66
     1
 10
0.0
 20
0.0
 30
0.0
 70
     2
  0
VERTEX
  5
18D28
330
18D27
100
AcDbEntity
  8
0
100
AcDbVertex
100
AcDb2dVertex
 10
429.2150891037771
 20
226.2669957247954
 30
0.0
  0
VERTEX
  5
18D29
330
18D27
100
AcDbEntity
  8
0
100
AcDbVertex
100
AcDb2dVertex
 10
429.2738261037775
 20
225.9277987247954
 30
0.0
 42
-0.028190949
 70
     1
  0
VERTEX
  5
18D2A
330
18D27
100
AcDbEntity
  8
0
100
AcDbVertex
100
AcDb2dVertex
 10
429.2972471037773
 20
225.5662337247955
 30
0.0
 42
-0.025869033
  0
VERTEX
  5
18D2B
330
18D27
100
AcDbEntity
  8
0
100
AcDbVertex
100
AcDb2dVertex
 10
429.2838001037771
 20
225.1802507247956
 30
0.0
 42
-0.022650102
 70
     1
  0
VERTEX
  5
18D2C
330
18D27
100
AcDbEntity
  8
0
100
AcDbVertex
100
AcDb2dVertex
 10
429.2355461037767
 20
224.7784757247956
 30
0.0
 42
-0.020635073
  0
VERTEX
  5
18D2D
330
18D27
100
AcDbEntity
  8
0
100
AcDbVertex
100
AcDb2dVertex
 10
429.1522841037775
 20
224.3697887247955
 30
0.0
 42
-0.018916157
 70
     1
  0
VERTEX
  5
18D2E
330
18D27
100
AcDbEntity
  8
0
100
AcDbVertex
100
AcDb2dVertex
 10
429.0386631037771
 20
223.9617767247956
 30
0.0
 42
-0.017091841
  0
VERTEX
  5
18D2F
330
18D27
100
AcDbEntity
  8
0
100
AcDbVertex
100
AcDb2dVertex
 10
428.8972371037771
 20
223.5613237247956
 30
0.0
 42
-0.016079976
 70
     1
  0
VERTEX
  5
18D30
330
18D27
100
AcDbEntity
  8
0
100
AcDbVertex
100
AcDb2dVertex
 10
428.7325581037776
 20
223.1732617247954
 30
0.0
 42
-0.015406237
  0
VERTEX
  5
18D31
330
18D27
100
AcDbEntity
  8
0
100
AcDbVertex
100
AcDb2dVertex
 10
428.5480681037769
 20
222.8034167247955
 30
0.0
 42
-0.014206788
 70
     1
  0
VERTEX
  5
18D32
330
18D27
100
AcDbEntity
  8
0
100
AcDbVertex
100
AcDb2dVertex
 10
428.3525781037768
 20
222.4574847247955
 30
0.0
 42
-0.012144725
  0
VERTEX
  5
18D33
330
18D27
100
AcDbEntity
  8
0
100
AcDbVertex
100
AcDb2dVertex
 10
428.1511721037777
 20
222.1401167247955
 30
0.0
 42
-0.01372694
 70
     1
  0
VERTEX
  5
18D34
330
18D27
100
AcDbEntity
  8
0
100
AcDbVertex
100
AcDb2dVertex
 10
427.9332531037771
 20
221.8390797247955
 30
0.0
 42
-0.016858028
  0
VERTEX
  5
18D35
330
18D27
100
AcDbEntity
  8
0
100
AcDbVertex
100
AcDb2dVertex
 10
427.6904571037776
 20
221.5448977247955
 30
0.0
 42
-0.012197363
 70
     1
  0
VERTEX
  5
18D36
330
18D27
100
AcDbEntity
  8
0
100
AcDbVertex
100
AcDb2dVertex
 10
427.448335103777
 20
221.2683027247954
 30
0.0
 42
-0.0027084352
  0
VERTEX
  5
18D37
330
18D27
100
AcDbEntity
  8
0
100
AcDbVertex
100
AcDb2dVertex
 10
427.2143291037773
 20
221.0161747247956
 30
0.0
 42
-0.020705508
 70
     1
  0
VERTEX
  5
18D38
330
18D27
100
AcDbEntity
  8
0
100
AcDbVertex
100
AcDb2dVertex
 10
426.8836341037776
 20
220.7494037247955
 30
0.0
 42
-0.043686993
  0
VERTEX
  5
18D39
330
18D27
100
AcDbEntity
  8
0
100
AcDbVertex
100
AcDb2dVertex
 10
426.3448081037777
 20
220.4275687247955
 30
0.0
 42
-0.023792385
 70
     1
  0
VERTEX
  5
18D3A
330
18D27
100
AcDbEntity
  8
0
100
AcDbVertex
100
AcDb2dVertex
 10
425.6206681037774
 20
220.0582477247954
 30
0.0
 42
-0.012287008
  0
SEQEND
  5
18D3B
330
18D27
100
AcDbEntity
  8
0
  0
POLYLINE
  5
18D3C
330
1F
100
AcDbEntity
  8
0
100
AcDb2dPolyline
 66
     1
 10
0.0
 20
0.0
 30
0.0
 70
     2
  0
VERTEX
  5
18D3D
330
18D3C
100
AcDbEntity
  8
0
100
AcDbVertex
100
AcDb2dVertex
 10
425.6353651037771
 20
213.9260377247954
 30
0.0
  0
VERTEX
  5
18D3E
330
18D3C
100
AcDbEntity
  8
0
100
AcDbVertex
100
AcDb2dVertex
 10
425.813435103777
 20
214.6446727247956
 30
0.0
 42
-0.037436186
 70
     1
  0
VERTEX
  5
18D3F
330
18D3C
100
AcDbEntity
  8
0
100
AcDbVertex
100
AcDb2dVertex
 10
426.1103971037774
 20
215.3887107247954
 30
0.0
 42
-0.031512991
  0
VERTEX
  5
18D40
330
18D3C
100
AcDbEntity
  8
0
100
AcDbVertex
100
AcDb2dVertex
 10
426.5334791037774
 20
216.1680597247956
 30
0.0
 42
-0.027301888
 70
     1
  0
VERTEX
  5
18D41
330
18D3C
100
AcDbEntity
  8
0
100
AcDbVertex
100
AcDb2dVertex
 10
427.0620191037768
 20
216.9209407247954
 30
0.0
 42
-0.032019358
  0
VERTEX
  5
18D42
330
18D3C
100
AcDbEntity
  8
0
100
AcDbVertex
100
AcDb2dVertex
 10
427.6753461037769
 20
217.5733957247956
 30
0.0
 42
-0.036362944
 70
     1
  0
VERTEX
  5
18D43
330
18D3C
100
AcDbEntity
  8
0
100
AcDbVertex
100
AcDb2dVertex
 10
428.325452103777
 20
218.0845977247955
 30
0.0
 42
-0.041183696
  0
VERTEX
  5
18D44
330
18D3C
100
AcDbEntity
  8
0
100
AcDbVertex
100
AcDb2dVertex
 10
428.9641141037773
 20
218.4167687247955
 30
0.0
 42
-0.048884383
 70
     1
  0
VERTEX
  5
18D45
330
18D3C
100
AcDbEntity
  8
0
100
AcDbVertex
100
AcDb2dVertex
 10
429.5502781037774
 20
218.5860527247956
 30
0.0
 42
-0.052966483
  0
VERTEX
  5
18D46
330
18D3C
100
AcDbEntity
  8
0
100
AcDbVertex
100
AcDb2dVertex
 10
430.0510611037771
 20
218.6022067247955
 30
0.0
 42
-0.071028395
 70
     1
  0
VERTEX
  5
18D47
330
18D3C
100
AcDbEntity
  8
0
100
AcDbVertex
100
AcDb2dVertex
 10
430.4890731037776
 20
218.4787967247956
 30
0.0
 42
-0.080442237
  0
VERTEX
  5
18D48
330
18D3C
100
AcDbEntity
  8
0
100
AcDbVertex
100
AcDb2dVertex
 10
430.8819571037774
 20
218.2121157247955
 30
0.0
 42
-0.078388894
 70
     1
  0
VERTEX
  5
18D49
330
18D3C
100
AcDbEntity
  8
0
100
AcDbVertex
100
AcDb2dVertex
 10
431.2033351037771
 20
217.7933017247954
 30
0.0
 42
-0.082544905
  0
VERTEX
  5
18D4A
330
18D3C
100
AcDbEntity
  8
0
100
AcDbVertex
100
AcDb2dVertex
 10
431.4126401037774
 20
217.2063827247955
 30
0.0
 42
-0.067080682
 70
     1
  0
VERTEX
  5
18D4B
330
18D3C
100
AcDbEntity
  8
0
100
AcDbVertex
100
AcDb2dVertex
 10
431.4896551037771
 20
216.4895167247956
 30
0.0
 42
-0.054570256
  0
VERTEX
  5
18D4C
330
18D3C
100
AcDbEntity
  8
0
100
AcDbVertex
100
AcDb2dVertex
 10
431.4127781037767
 20
215.6835907247956
 30
0.0
 42
-0.043298864
 70
     1
  0
VERTEX
  5
18D4D
330
18D3C
100
AcDbEntity
  8
0
100
AcDbVertex
100
AcDb2dVertex
 10
431.2033351037771
 20
214.8551187247954
 30
0.0
 42
-0.035783364
  0
VERTEX
  5
18D4E
330
18D3C
100
AcDbEntity
  8
0
100
AcDbVertex
100
AcDb2dVertex
 10
430.8815161037773
 20
214.0660497247955
 30
0.0
 42
-0.03157631
 70
     1
  0
VERTEX
  5
18D4F
330
18D3C
100
AcDbEntity
  8
0
100
AcDbVertex
100
AcDb2dVertex
 10
430.4890731037776
 20
213.3448647247954
 30
0.0
 42
-0.025288712
  0
VERTEX
  5
18D50
330
18D3C
100
AcDbEntity
  8
0
100
AcDbVertex
100
AcDb2dVertex
 10
430.0527781037771
 20
212.7122847247954
 30
0.0
 42
-0.028463925
 70
     1
  0
VERTEX
  5
18D51
330
18D3C
100
AcDbEntity
  8
0
100
AcDbVertex
100
AcDb2dVertex
 10
429.5502781037774
 20
212.1535817247955
 30
0.0
 42
-0.035977228
  0
VERTEX
  5
18D52
330
18D3C
100
AcDbEntity
  8
0
100
AcDbVertex
100
AcDb2dVertex
 10
428.9573481037768
 20
211.6594507247956
 30
0.0
 42
-0.031737175
 70
     1
  0
VERTEX
  5
18D53
330
18D3C
100
AcDbEntity
  8
0
100
AcDbVertex
100
AcDb2dVertex
 10
428.325452103777
 20
211.2407287247955
 30
0.0
 42
-0.024906252
  0
VERTEX
  5
18D54
330
18D3C
100
AcDbEntity
  8
0
100
AcDbVertex
100
AcDb2dVertex
 10
427.702045103777
 20
210.9482587247956
 30
0.0
 42
-0.061436632
 70
     1
  0
VERTEX
  5
18D55
330
18D3C
100
AcDbEntity
  8
0
100
AcDbVertex
100
AcDb2dVertex
 10
427.0620191037768
 20
210.9454997247954
 30
0.0
 42
-0.15607563
  0
VERTEX
  5
18D56
330
18D3C
100
AcDbEntity
  8
0
100
AcDbVertex
100
AcDb2dVertex
 10
426.3709261037774
 20
211.4072677247955
 30
0.0
 42
-0.10808863
 70
     1
  0
VERTEX
  5
18D57
330
18D3C
100
AcDbEntity
  8
0
100
AcDbVertex
100
AcDb2dVertex
 10
425.6353651037771
 20
212.2930447247955
 30
0.0
 42
-0.04901545
  0
SEQEND
  5
18D58
330
18D3C
100
AcDbEntity
  8
0
  0
POLYLINE
  5
18D59
330
1F
100
AcDbEntity
  8
0
100
AcDb2dPolyline
 66
     1
 10
0.0
 20
0.0
 30
0.0
 70
     2
  0
VERTEX
  5
18D5A
330
18D59
100
AcDbEntity
  8
0
100
AcDbVertex
100
AcDb2dVertex
 10
429.2150891037771
 20
218.5102787247954
 30
0.0
  0
VERTEX
  5
18D5B
330
18D59
100
AcDbEntity
  8
0
100
AcDbVertex
100
AcDb2dVertex
 10
429.2738261037775
 20
218.1710807247956
 30
0.0
 42
-0.028190949
 70
     1
  0
VERTEX
  5
18D5C
330
18D59
100
AcDbEntity
  8
0
100
AcDbVertex
100
AcDb2dVertex
 10
429.2972471037773
 20
217.8095157247954
 30
0.0
 42
-0.025869033
  0
VERTEX
  5
18D5D
330
18D59
100
AcDbEntity
  8
0
100
AcDbVertex
100
AcDb2dVertex
 10
429.2838001037771
 20
217.4235337247954
 30
0.0
 42
-0.022650102
 70
     1
  0
VERTEX
  5
18D5E
330
18D59
100
AcDbEntity
  8
0
100
AcDbVertex
100
AcDb2dVertex
 10
429.2355461037767
 20
217.0217577247955
 30
0.0
 42
-0.020635073
  0
VERTEX
  5
18D5F
330
18D59
100
AcDbEntity
  8
0
100
AcDbVertex
100
AcDb2dVertex
 10
429.1522841037775
 20
216.6130717247955
 30
0.0
 42
-0.018916157
 70
     1
  0
VERTEX
  5
18D60
330
18D59
100
AcDbEntity
  8
0
100
AcDbVertex
100
AcDb2dVertex
 10
429.0386631037771
 20
216.2050587247955
 30
0.0
 42
-0.017091841
  0
VERTEX
  5
18D61
330
18D59
100
AcDbEntity
  8
0
100
AcDbVertex
100
AcDb2dVertex
 10
428.8972371037771
 20
215.8046067247954
 30
0.0
 42
-0.016079976
 70
     1
  0
VERTEX
  5
18D62
330
18D59
100
AcDbEntity
  8
0
100
AcDbVertex
100
AcDb2dVertex
 10
428.7325581037776
 20
215.4165447247954
 30
0.0
 42
-0.015406237
  0
VERTEX
  5
18D63
330
18D59
100
AcDbEntity
  8
0
100
AcDbVertex
100
AcDb2dVertex
 10
428.5480681037769
 20
215.0466987247956
 30
0.0
 42
-0.014206788
 70
     1
  0
VERTEX
  5
18D64
330
18D59
100
AcDbEntity
  8
0
100
AcDbVertex
100
AcDb2dVertex
 10
428.3525781037768
 20
214.7007667247954
 30
0.0
 42
-0.012144725
  0
VERTEX
  5
18D65
330
18D59
100
AcDbEntity
  8
0
100
AcDbVertex
100
AcDb2dVertex
 10
428.1511721037777
 20
214.3833987247954
 30
0.0
 42
-0.01372694
 70
     1
  0
VERTEX
  5
18D66
330
18D59
100
AcDbEntity
  8
0
100
AcDbVertex
100
AcDb2dVertex
 10
427.9332531037771
 20
214.0823617247955
 30
0.0
 42
-0.016858028
  0
VERTEX
  5
18D67
330
18D59
100
AcDbEntity
  8
0
100
AcDbVertex
100
AcDb2dVertex
 10
427.6904571037776
 20
213.7881807247955
 30
0.0
 42
-0.012197363
 70
     1
  0
VERTEX
  5
18D68
330
18D59
100
AcDbEntity
  8
0
100
AcDbVertex
100
AcDb2dVertex
 10
427.448335103777
 20
213.5115857247955
 30
0.0
 42
-0.0027084352
  0
VERTEX
  5
18D69
330
18D59
100
AcDbEntity
  8
0
100
AcDbVertex
100
AcDb2dVertex
 10
427.2143291037773
 20
213.2594567247955
 30
0.0
 42
-0.020705508
 70
     1
  0
VERTEX
  5
18D6A
330
18D59
100
AcDbEntity
  8
0
100
AcDbVertex
100
AcDb2dVertex
 10
426.8836341037776
 20
212.9926857247954
 30
0.0
 42
-0.043686993
  0
VERTEX
  5
18D6B
330
18D59
100
AcDbEntity
  8
0
100
AcDbVertex
100
AcDb2dVertex
 10
426.3448081037777
 20
212.6708507247955
 30
0.0
 42
-0.023792385
 70
     1
  0
VERTEX
  5
18D6C
330
18D59
100
AcDbEntity
  8
0
100
AcDbVertex
100
AcDb2dVertex
 10
425.6206681037774
 20
212.3015297247956
 30
0.0
 42
-0.012287008
  0
SEQEND
  5
18D6D
330
18D59
100
AcDbEntity
  8
0
  0
POLYLINE
  5
18D6E
330
1F
100
AcDbEntity
  8
0
100
AcDb2dPolyline
 66
     1
 10
0.0
 20
0.0
 30
0.0
 70
     2
  0
VERTEX
  5
18D6F
330
18D6E
100
AcDbEntity
  8
0
100
AcDbVertex
100
AcDb2dVertex
 10
425.6353651037771
 20
206.1693197247956
 30
0.0
  0
VERTEX
  5
18D70
330
18D6E
100
AcDbEntity
  8
0
100
AcDbVertex
100
AcDb2dVertex
 10
425.813435103777
 20
206.8879547247955
 30
0.0
 42
-0.037436186
 70
     1
  0
VERTEX
  5
18D71
330
18D6E
100
AcDbEntity
  8
0
100
AcDbVertex
100
AcDb2dVertex
 10
426.1103971037774
 20
207.6319927247955
 30
0.0
 42
-0.031512991
  0
VERTEX
  5
18D72
330
18D6E
100
AcDbEntity
  8
0
100
AcDbVertex
100
AcDb2dVertex
 10
426.5334791037774
 20
208.4113427247956
 30
0.0
 42
-0.027301888
 70
     1
  0
VERTEX
  5
18D73
330
18D6E
100
AcDbEntity
  8
0
100
AcDbVertex
100
AcDb2dVertex
 10
427.0620191037768
 20
209.1642227247956
 30
0.0
 42
-0.032019358
  0
VERTEX
  5
18D74
330
18D6E
100
AcDbEntity
  8
0
100
AcDbVertex
100
AcDb2dVertex
 10
427.6753461037769
 20
209.8166787247954
 30
0.0
 42
-0.036362944
 70
     1
  0
VERTEX
  5
18D75
330
18D6E
100
AcDbEntity
  8
0
100
AcDbVertex
100
AcDb2dVertex
 10
428.325452103777
 20
210.3278807247956
 30
0.0
 42
-0.041183696
  0
VERTEX
  5
18D76
330
18D6E
100
AcDbEntity
  8
0
100
AcDbVertex
100
AcDb2dVertex
 10
428.9641141037773
 20
210.6600507247955
 30
0.0
 42
-0.048884383
 70
     1
  0
VERTEX
  5
18D77
330
18D6E
100
AcDbEntity
  8
0
100
AcDbVertex
100
AcDb2dVertex
 10
429.5502781037774
 20
210.8293347247955
 30
0.0
 42
-0.052966483
  0
VERTEX
  5
18D78
330
18D6E
100
AcDbEntity
  8
0
100
AcDbVertex
100
AcDb2dVertex
 10
430.0510611037771
 20
210.8454887247954
 30
0.0
 42
-0.071028395
 70
     1
  0
VERTEX
  5
18D79
330
18D6E
100
AcDbEntity
  8
0
100
AcDbVertex
100
AcDb2dVertex
 10
430.4890731037776
 20
210.7220797247956
 30
0.0
 42
-0.080442237
  0
VERTEX
  5
18D7A
330
18D6E
100
AcDbEntity
  8
0
100
AcDbVertex
100
AcDb2dVertex
 10
430.8819571037774
 20
210.4553977247954
 30
0.0
 42
-0.078388894
 70
     1
  0
VERTEX
  5
18D7B
330
18D6E
100
AcDbEntity
  8
0
100
AcDbVertex
100
AcDb2dVertex
 10
431.2033351037771
 20
210.0365847247954
 30
0.0
 42
-0.082544905
  0
VERTEX
  5
18D7C
330
18D6E
100
AcDbEntity
  8
0
100
AcDbVertex
100
AcDb2dVertex
 10
431.4126401037774
 20
209.4496657247956
 30
0.0
 42
-0.067080682
 70
     1
  0
VERTEX
  5
18D7D
330
18D6E
100
AcDbEntity
  8
0
100
AcDbVertex
100
AcDb2dVertex
 10
431.4896551037771
 20
208.7327987247955
 30
0.0
 42
-0.054570256
  0
VERTEX
  5
18D7E
330
18D6E
100
AcDbEntity
  8
0
100
AcDbVertex
100
AcDb2dVertex
 10
431.4127781037767
 20
207.9268727247955
 30
0.0
 42
-0.043298864
 70
     1
  0
VERTEX
  5
18D7F
330
18D6E
100
AcDbEntity
  8
0
100
AcDbVertex
100
AcDb2dVertex
 10
431.2033351037771
 20
207.0984007247956
 30
0.0
 42
-0.035783364
  0
VERTEX
  5
18D80
330
18D6E
100
AcDbEntity
  8
0
100
AcDbVertex
100
AcDb2dVertex
 10
430.8815161037773
 20
206.3093317247954
 30
0.0
 42
-0.03157631
 70
     1
  0
VERTEX
  5
18D81
330
18D6E
100
AcDbEntity
  8
0
100
AcDbVertex
100
AcDb2dVertex
 10
430.4890731037776
 20
205.5881467247955
 30
0.0
 42
-0.025288712
  0
VERTEX
  5
18D82
330
18D6E
100
AcDbEntity
  8
0
100
AcDbVertex
100
AcDb2dVertex
 10
430.0527781037771
 20
204.9555677247954
 30
0.0
 42
-0.028463925
 70
     1
  0
VERTEX
  5
18D83
330
18D6E
100
AcDbEntity
  8
0
100
AcDbVertex
100
AcDb2dVertex
 10
429.5502781037774
 20
204.3968637247954
 30
0.0
 42
-0.035977228
  0
VERTEX
  5
18D84
330
18D6E
100
AcDbEntity
  8
0
100
AcDbVertex
100
AcDb2dVertex
 10
428.9573481037768
 20
203.9027327247955
 30
0.0
 42
-0.031737175
 70
     1
  0
VERTEX
  5
18D85
330
18D6E
100
AcDbEntity
  8
0
100
AcDbVertex
100
AcDb2dVertex
 10
428.325452103777
 20
203.4840117247955
 30
0.0
 42
-0.024906252
  0
VERTEX
  5
18D86
330
18D6E
100
AcDbEntity
  8
0
100
AcDbVertex
100
AcDb2dVertex
 10
427.702045103777
 20
203.1915407247955
 30
0.0
 42
-0.061436632
 70
     1
  0
VERTEX
  5
18D87
330
18D6E
100
AcDbEntity
  8
0
100
AcDbVertex
100
AcDb2dVertex
 10
427.0620191037768
 20
203.1887817247955
 30
0.0
 42
-0.15607563
  0
VERTEX
  5
18D88
330
18D6E
100
AcDbEntity
  8
0
100
AcDbVertex
100
AcDb2dVertex
 10
426.3709261037774
 20
203.6505497247954
 30
0.0
 42
-0.10808863
 70
     1
  0
VERTEX
  5
18D89
330
18D6E
100
AcDbEntity
  8
0
100
AcDbVertex
100
AcDb2dVertex
 10
425.6353651037771
 20
204.5363267247954
 30
0.0
 42
-0.04901545
  0
SEQEND
  5
18D8A
330
18D6E
100
AcDbEntity
  8
0
  0
POLYLINE
  5
18D8B
330
1F
100
AcDbEntity
  8
0
100
AcDb2dPolyline
 66
     1
 10
0.0
 20
0.0
 30
0.0
 70
     2
  0
VERTEX
  5
18D8C
330
18D8B
100
AcDbEntity
  8
0
100
AcDbVertex
100
AcDb2dVertex
 10
429.2150891037771
 20
210.7535607247956
 30
0.0
  0
VERTEX
  5
18D8D
330
18D8B
100
AcDbEntity
  8
0
100
AcDbVertex
100
AcDb2dVertex
 10
429.2738261037775
 20
210.4143637247956
 30
0.0
 42
-0.028190949
 70
     1
  0
VERTEX
  5
18D8E
330
18D8B
100
AcDbEntity
  8
0
100
AcDbVertex
100
AcDb2dVertex
 10
429.2972471037773
 20
210.0527987247954
 30
0.0
 42
-0.025869033
  0
VERTEX
  5
18D8F
330
18D8B
100
AcDbEntity
  8
0
100
AcDbVertex
100
AcDb2dVertex
 10
429.2838001037771
 20
209.6668157247955
 30
0.0
 42
-0.022650102
 70
     1
  0
VERTEX
  5
18D90
330
18D8B
100
AcDbEntity
  8
0
100
AcDbVertex
100
AcDb2dVertex
 10
429.2355461037767
 20
209.2650407247955
 30
0.0
 42
-0.020635073
  0
VERTEX
  5
18D91
330
18D8B
100
AcDbEntity
  8
0
100
AcDbVertex
100
AcDb2dVertex
 10
429.1522841037775
 20
208.8563537247956
 30
0.0
 42
-0.018916157
 70
     1
  0
VERTEX
  5
18D92
330
18D8B
100
AcDbEntity
  8
0
100
AcDbVertex
100
AcDb2dVertex
 10
429.0386631037771
 20
208.4483417247955
 30
0.0
 42
-0.017091841
  0
VERTEX
  5
18D93
330
18D8B
100
AcDbEntity
  8
0
100
AcDbVertex
100
AcDb2dVertex
 10
428.8972371037771
 20
208.0478887247955
 30
0.0
 42
-0.016079976
 70
     1
  0
VERTEX
  5
18D94
330
18D8B
100
AcDbEntity
  8
0
100
AcDbVertex
100
AcDb2dVertex
 10
428.7325581037776
 20
207.6598267247955
 30
0.0
 42
-0.015406237
  0
VERTEX
  5
18D95
330
18D8B
100
AcDbEntity
  8
0
100
AcDbVertex
100
AcDb2dVertex
 10
428.5480681037769
 20
207.2899817247956
 30
0.0
 42
-0.014206788
 70
     1
  0
VERTEX
  5
18D96
330
18D8B
100
AcDbEntity
  8
0
100
AcDbVertex
100
AcDb2dVertex
 10
428.3525781037768
 20
206.9440497247954
 30
0.0
 42
-0.012144725
  0
VERTEX
  5
18D97
330
18D8B
100
AcDbEntity
  8
0
100
AcDbVertex
100
AcDb2dVertex
 10
428.1511721037777
 20
206.6266817247954
 30
0.0
 42
-0.01372694
 70
     1
  0
VERTEX
  5
18D98
330
18D8B
100
AcDbEntity
  8
0
100
AcDbVertex
100
AcDb2dVertex
 10
427.9332531037771
 20
206.3256447247955
 30
0.0
 42
-0.016858028
  0
VERTEX
  5
18D99
330
18D8B
100
AcDbEntity
  8
0
100
AcDbVertex
100
AcDb2dVertex
 10
427.6904571037776
 20
206.0314627247954
 30
0.0
 42
-0.012197363
 70
     1
  0
VERTEX
  5
18D9A
330
18D8B
100
AcDbEntity
  8
0
100
AcDbVertex
100
AcDb2dVertex
 10
427.448335103777
 20
205.7548677247956
 30
0.0
 42
-0.0027084352
  0
VERTEX
  5
18D9B
330
18D8B
100
AcDbEntity
  8
0
100
AcDbVertex
100
AcDb2dVertex
 10
427.2143291037773
 20
205.5027397247955
 30
0.0
 42
-0.020705508
 70
     1
  0
VERTEX
  5
18D9C
330
18D8B
100
AcDbEntity
  8
0
100
AcDbVertex
100
AcDb2dVertex
 10
426.8836341037776
 20
205.2359677247955
 30
0.0
 42
-0.043686993
  0
VERTEX
  5
18D9D
330
18D8B
100
AcDbEntity
  8
0
100
AcDbVertex
100
AcDb2dVertex
 10
426.3448081037777
 20
204.9141337247955
 30
0.0
 42
-0.023792385
 70
     1
  0
VERTEX
  5
18D9E
330
18D8B
100
AcDbEntity
  8
0
100
AcDbVertex
100
AcDb2dVertex
 10
425.6206681037774
 20
204.5448117247955
 30
0.0
 42
-0.012287008
  0
SEQEND
  5
18D9F
330
18D8B
100
AcDbEntity
  8
0
  0
LINE
  5
18DA0
330
1F
100
AcDbEntity
  8
Cen
 48
10.0
100
AcDbLine
 10
507.9323393910006
 20
300.272142458746
 30
0.0
 11
540.4982808177371
 21
300.272142458746
 31
0.0
  0
LINE
  5
18DA1
330
1F
100
AcDbEntity
  8
0
100
AcDbLine
 10
537.7334849114228
 20
314.4221424587461
 30
0.0
 11
536.7334849114229
 21
315.4221424587461
 31
0.0
  0
LINE
  5
18DA2
330
1F
100
AcDbEntity
  8
0
100
AcDbLine
 10
513.0334849114221
 20
317.3721424587459
 30
0.0
 11
516.5334849114222
 21
317.3721424587459
 31
0.0
  0
LINE
  5
18DA3
330
1F
100
AcDbEntity
  8
0
100
AcDbLine
 10
528.283484911422
 20
316.6221424587459
 30
0.0
 11
527.2834849114222
 21
316.6221424587459
 31
0.0
  0
LINE
  5
18DA4
330
1F
100
AcDbEntity
  8
0
100
AcDbLine
 10
530.8173906986228
 20
315.4405617547461
 30
0.0
 11
528.283484911422
 21
316.6221424587459
 31
0.0
  0
LINE
  5
18DA5
330
1F
100
AcDbEntity
  8
0
100
AcDbLine
 10
536.7334849114229
 20
315.4221424587461
 30
0.0
 11
530.8443039956235
 21
315.4221424587461
 31
0.0
  0
LINE
  5
18DA6
330
1F
100
AcDbEntity
  8
0
100
AcDbLine
 10
527.2834849114222
 20
315.4221424587461
 30
0.0
 11
510.5334849114221
 21
315.4221424587461
 31
0.0
  0
LINE
  5
18DA7
330
1F
100
AcDbEntity
  8
0
100
AcDbLine
 10
518.8083815291227
 20
312.7452261998462
 30
0.0
 11
530.5123761644223
 21
313.7280392434461
 31
0.0
  0
LINE
  5
18DA8
102
{ACAD_REACTORS
330
18E46
102
}
330
1F
100
AcDbEntity
  8
0
100
AcDbLine
 10
510.5334849114221
 20
315.4221424587461
 30
0.0
 11
510.5334849114221
 21
285.1221424587459
 31
0.0
  0
LINE
  5
18DA9
330
1F
100
AcDbEntity
  8
0
100
AcDbLine
 10
537.7334849114228
 20
312.2374124587461
 30
0.0
 11
518.533484911422
 21
312.2374124587461
 31
0.0
  0
LINE
  5
18DAA
330
1F
100
AcDbEntity
  8
0
100
AcDbLine
 10
518.533484911422
 20
312.0721424588461
 30
0.0
 11
537.7334849114228
 21
312.0721424588461
 31
0.0
  0
LINE
  5
18DAB
330
1F
100
AcDbEntity
  8
0
100
AcDbLine
 10
530.8334849114231
 20
310.772142458746
 30
0.0
 11
515.4334849114226
 21
310.522142458746
 31
0.0
  0
LINE
  5
18DAC
330
1F
100
AcDbEntity
  8
0
100
AcDbLine
 10
537.7334849114228
 20
310.772142458746
 30
0.0
 11
530.8334849114231
 21
310.772142458746
 31
0.0
  0
LINE
  5
18DAD
330
1F
100
AcDbEntity
  8
0
100
AcDbLine
 10
520.3334849114233
 20
310.5721424587462
 30
0.0
 11
518.5134849114226
 21
310.5721424587462
 31
0.0
  0
LINE
  5
18DAE
330
1F
100
AcDbEntity
  8
0
100
AcDbLine
 10
513.0334849114221
 20
283.1721424587461
 30
0.0
 11
513.0334849114221
 21
285.1221424587459
 31
0.0
  0
LINE
  5
18DAF
330
1F
100
AcDbEntity
  8
0
100
AcDbLine
 10
513.0334849114221
 20
315.4221424587461
 30
0.0
 11
513.0334849114221
 21
317.3721424587459
 31
0.0
  0
LINE
  5
18DB0
330
1F
100
AcDbEntity
  8
0
100
AcDbLine
 10
537.7334849114228
 20
308.772142458746
 30
0.0
 11
530.8334849114231
 21
308.772142458746
 31
0.0
  0
LINE
  5
18DB1
330
1F
100
AcDbEntity
  8
0
100
AcDbLine
 10
515.4334849114226
 20
309.022142458746
 30
0.0
 11
530.8334849114231
 21
308.772142458746
 31
0.0
  0
LINE
  5
18DB2
330
1F
100
AcDbEntity
  8
0
100
AcDbLine
 10
515.4334849114226
 20
310.522142458746
 30
0.0
 11
515.4334849114226
 21
309.022142458746
 31
0.0
  0
LINE
  5
18DB3
330
1F
100
AcDbEntity
  8
0
100
AcDbLine
 10
515.4334849114226
 20
301.022142458746
 30
0.0
 11
515.4334849114226
 21
299.522142458746
 31
0.0
  0
LINE
  5
18DB4
330
1F
100
AcDbEntity
  8
0
100
AcDbLine
 10
515.4334849114226
 20
291.522142458746
 30
0.0
 11
515.4334849114226
 21
290.022142458746
 31
0.0
  0
LINE
  5
18DB5
330
1F
100
AcDbEntity
  8
0
100
AcDbLine
 10
515.5334849114222
 20
317.3721424587459
 30
0.0
 11
515.5334849114222
 21
315.4221424587461
 31
0.0
  0
LINE
  5
18DB6
330
1F
100
AcDbEntity
  8
0
100
AcDbLine
 10
515.5334849114222
 20
285.1221424587459
 30
0.0
 11
515.5334849114222
 21
283.1721424587461
 31
0.0
  0
LINE
  5
18DB7
330
1F
100
AcDbEntity
  8
0
100
AcDbLine
 10
516.5334849114222
 20
317.3721424587459
 30
0.0
 11
516.5334849114222
 21
315.4221424587461
 31
0.0
  0
LINE
  5
18DB8
330
1F
100
AcDbEntity
  8
0
100
AcDbLine
 10
516.5334849114222
 20
285.1221424587459
 30
0.0
 11
516.5334849114222
 21
283.1721424587461
 31
0.0
  0
LINE
  5
18DB9
330
1F
100
AcDbEntity
  8
0
100
AcDbLine
 10
518.533484911422
 20
312.4462783445463
 30
0.0
 11
518.533484911422
 21
312.0721424588461
 31
0.0
  0
LINE
  5
18DBA
330
1F
100
AcDbEntity
  8
0
100
AcDbLine
 10
518.533484911422
 20
288.4721424588463
 30
0.0
 11
518.533484911422
 21
288.0980065730462
 31
0.0
  0
LINE
  5
18DBB
330
1F
100
AcDbEntity
  8
0
100
AcDbLine
 10
520.3334849114233
 20
289.9721719995461
 30
0.0
 11
520.3334849114233
 21
291.6016879133461
 31
0.0
  0
LINE
  5
18DBC
330
1F
100
AcDbEntity
  8
0
100
AcDbLine
 10
520.3334849114233
 20
299.442597004246
 30
0.0
 11
520.3334849114233
 21
301.101687913346
 31
0.0
  0
LINE
  5
18DBD
330
1F
100
AcDbEntity
  8
0
100
AcDbLine
 10
520.3334849114233
 20
308.942597004246
 30
0.0
 11
520.3334849114233
 21
310.5721424587462
 31
0.0
  0
LINE
  5
18DBE
330
1F
100
AcDbEntity
  8
0
100
AcDbLine
 10
530.8334849114231
 20
301.272142458746
 30
0.0
 11
515.4334849114226
 21
301.022142458746
 31
0.0
  0
LINE
  5
18DBF
330
1F
100
AcDbEntity
  8
0
100
AcDbLine
 10
537.7334849114228
 20
301.272142458746
 30
0.0
 11
530.8334849114231
 21
301.272142458746
 31
0.0
  0
LINE
  5
18DC0
330
1F
100
AcDbEntity
  8
0
100
AcDbLine
 10
537.7334849114228
 20
299.272142458746
 30
0.0
 11
530.8334849114231
 21
299.272142458746
 31
0.0
  0
LINE
  5
18DC1
330
1F
100
AcDbEntity
  8
0
100
AcDbLine
 10
515.4334849114226
 20
299.522142458746
 30
0.0
 11
530.8334849114231
 21
299.272142458746
 31
0.0
  0
LINE
  5
18DC2
330
1F
100
AcDbEntity
  8
0
100
AcDbLine
 10
527.2834849114222
 20
283.922142458746
 30
0.0
 11
527.2834849114222
 21
285.1221424587459
 31
0.0
  0
LINE
  5
18DC3
330
1F
100
AcDbEntity
  8
0
100
AcDbLine
 10
527.2834849114222
 20
316.6221424587459
 30
0.0
 11
527.2834849114222
 21
315.4221424587461
 31
0.0
  0
LINE
  5
18DC4
330
1F
100
AcDbEntity
  8
0
100
AcDbLine
 10
530.8334849114231
 20
289.772142458746
 30
0.0
 11
530.8334849114231
 21
291.772142458746
 31
0.0
  0
LINE
  5
18DC5
330
1F
100
AcDbEntity
  8
0
100
AcDbLine
 10
530.8334849114231
 20
299.272142458746
 30
0.0
 11
530.8334849114231
 21
301.272142458746
 31
0.0
  0
LINE
  5
18DC6
330
1F
100
AcDbEntity
  8
0
100
AcDbLine
 10
530.8334849114231
 20
308.772142458746
 30
0.0
 11
530.8334849114231
 21
310.772142458746
 31
0.0
  0
LINE
  5
18DC7
330
1F
100
AcDbEntity
  8
0
100
AcDbLine
 10
530.8334849114231
 20
291.772142458746
 30
0.0
 11
515.4334849114226
 21
291.522142458746
 31
0.0
  0
LINE
  5
18DC8
330
1F
100
AcDbEntity
  8
0
100
AcDbLine
 10
537.7334849114228
 20
291.772142458746
 30
0.0
 11
530.8334849114231
 21
291.772142458746
 31
0.0
  0
LINE
  5
18DC9
330
1F
100
AcDbEntity
  8
0
100
AcDbLine
 10
520.3334849114233
 20
289.9721719995461
 30
0.0
 11
518.511665199723
 21
289.9721719995461
 31
0.0
  0
LINE
  5
18DCA
330
1F
100
AcDbEntity
  8
0
100
AcDbLine
 10
537.7334849114228
 20
289.772142458746
 30
0.0
 11
530.8334849114231
 21
289.772142458746
 31
0.0
  0
LINE
  5
18DCB
330
1F
100
AcDbEntity
  8
0
100
AcDbLine
 10
515.4334849114226
 20
290.022142458746
 30
0.0
 11
530.8334849114231
 21
289.772142458746
 31
0.0
  0
LINE
  5
18DCC
330
1F
100
AcDbEntity
  8
0
100
AcDbLine
 10
534.6334849114225
 20
289.772142458746
 30
0.0
 11
534.6334849114225
 21
291.772142458746
 31
0.0
  0
LINE
  5
18DCD
330
1F
100
AcDbEntity
  8
0
100
AcDbLine
 10
534.6334849114225
 20
299.272142458746
 30
0.0
 11
534.6334849114225
 21
301.272142458746
 31
0.0
  0
LINE
  5
18DCE
330
1F
100
AcDbEntity
  8
0
100
AcDbLine
 10
534.6334849114225
 20
308.772142458746
 30
0.0
 11
534.6334849114225
 21
310.772142458746
 31
0.0
  0
LINE
  5
18DCF
330
1F
100
AcDbEntity
  8
0
100
AcDbLine
 10
537.7334849114228
 20
288.4721424588463
 30
0.0
 11
518.533484911422
 21
288.4721424588463
 31
0.0
  0
LINE
  5
18DD0
330
1F
100
AcDbEntity
  8
0
100
AcDbLine
 10
537.7334849114228
 20
288.3068724587463
 30
0.0
 11
518.533484911422
 21
288.3068724587463
 31
0.0
  0
LINE
  5
18DD1
330
1F
100
AcDbEntity
  8
0
100
AcDbLine
 10
518.8083815291227
 20
287.7990587177462
 30
0.0
 11
530.5123761644223
 21
286.8162456741459
 31
0.0
  0
LINE
  5
18DD2
330
1F
100
AcDbEntity
  8
0
100
AcDbLine
 10
536.7334849114229
 20
312.0721424588461
 30
0.0
 11
536.7334849114229
 21
310.772142458746
 31
0.0
  0
LINE
  5
18DD3
330
1F
100
AcDbEntity
  8
0
100
AcDbLine
 10
536.7334849114229
 20
308.772142458746
 30
0.0
 11
536.7334849114229
 21
301.272142458746
 31
0.0
  0
LINE
  5
18DD4
330
1F
100
AcDbEntity
  8
0
100
AcDbLine
 10
536.7334849114229
 20
299.272142458746
 30
0.0
 11
536.7334849114229
 21
291.772142458746
 31
0.0
  0
LINE
  5
18DD5
330
1F
100
AcDbEntity
  8
0
100
AcDbLine
 10
536.7334849114229
 20
289.772142458746
 30
0.0
 11
536.7334849114229
 21
288.4721424588463
 31
0.0
  0
LINE
  5
18DD6
102
{ACAD_REACTORS
330
18E46
102
}
330
1F
100
AcDbEntity
  8
0
100
AcDbLine
 10
537.7334849114228
 20
314.4221424587461
 30
0.0
 11
537.7334849114228
 21
286.1221424587459
 31
0.0
  0
LINE
  5
18DD7
330
1F
100
AcDbEntity
  8
0
100
AcDbLine
 10
536.7334849114229
 20
285.1221424587459
 30
0.0
 11
530.8443039956235
 21
285.1221424587459
 31
0.0
  0
LINE
  5
18DD8
330
1F
100
AcDbEntity
  8
0
100
AcDbLine
 10
510.5334849114221
 20
285.1221424587459
 30
0.0
 11
527.2834849114222
 21
285.1221424587459
 31
0.0
  0
LINE
  5
18DD9
330
1F
100
AcDbEntity
  8
0
100
AcDbLine
 10
528.283484911422
 20
283.922142458746
 30
0.0
 11
527.2834849114222
 21
283.922142458746
 31
0.0
  0
LINE
  5
18DDA
330
1F
100
AcDbEntity
  8
0
100
AcDbLine
 10
513.0334849114221
 20
283.1721424587461
 30
0.0
 11
516.5334849114222
 21
283.1721424587461
 31
0.0
  0
LINE
  5
18DDB
330
1F
100
AcDbEntity
  8
0
100
AcDbLine
 10
530.8173906986228
 20
285.1037231627458
 30
0.0
 11
528.283484911422
 21
283.922142458746
 31
0.0
  0
LINE
  5
18DDC
330
1F
100
AcDbEntity
  8
0
100
AcDbLine
 10
536.7334849114229
 20
285.1221424587459
 30
0.0
 11
537.7334849114228
 21
286.1221424587459
 31
0.0
  0
LINE
  5
18DDD
330
1F
100
AcDbEntity
  8
0
100
AcDbLine
 10
470.6879343746479
 20
317.3721424587459
 30
0.0
 11
477.6879343746479
 21
317.3721424587459
 31
0.0
  0
LINE
  5
18DDE
330
1F
100
AcDbEntity
  8
0
100
AcDbLine
 10
481.4879343746482
 20
316.6221424587459
 30
0.0
 11
479.4879343746481
 21
316.6221424587459
 31
0.0
  0
LINE
  5
18DDF
330
1F
100
AcDbEntity
  8
0
100
AcDbLine
 10
466.8879343746478
 20
316.6221424587459
 30
0.0
 11
468.8879343746478
 21
316.6221424587459
 31
0.0
  0
LINE
  5
18DE0
330
1F
100
AcDbEntity
  8
0
100
AcDbLine
 10
481.4879343746482
 20
315.4405574587461
 30
0.0
 11
479.4879343746481
 21
315.4405574587461
 31
0.0
  0
LINE
  5
18DE1
330
1F
100
AcDbEntity
  8
0
100
AcDbLine
 10
466.8879343746478
 20
315.4405574587461
 30
0.0
 11
468.8879343746478
 21
315.4405574587461
 31
0.0
  0
LINE
  5
18DE2
330
1F
100
AcDbEntity
  8
0
100
AcDbLine
 10
479.4879343746481
 20
315.4221424587461
 30
0.0
 11
468.8879343746478
 21
315.4221424587461
 31
0.0
  0
LINE
  5
18DE3
330
1F
100
AcDbEntity
  8
0
100
AcDbLine
 10
478.1735658746477
 20
314.4221424587461
 30
0.0
 11
470.2023028746474
 21
314.4221424587461
 31
0.0
  0
LINE
  5
18DE4
330
1F
100
AcDbEntity
  8
0
100
AcDbLine
 10
481.4879343746482
 20
313.728037458746
 30
0.0
 11
479.4879343746481
 21
313.728037458746
 31
0.0
  0
LINE
  5
18DE5
330
1F
100
AcDbEntity
  8
0
100
AcDbLine
 10
466.8879343746478
 20
313.728037458746
 30
0.0
 11
468.8879343746478
 21
313.728037458746
 31
0.0
  0
LINE
  5
18DE6
330
1F
100
AcDbEntity
  8
0
100
AcDbLine
 10
466.8879343746478
 20
312.7452261998462
 30
0.0
 11
468.8879343746478
 21
312.7452261998462
 31
0.0
  0
LINE
  5
18DE7
330
1F
100
AcDbEntity
  8
0
100
AcDbLine
 10
479.4879343746481
 20
312.7452261998462
 30
0.0
 11
481.4879343746482
 21
312.7452261998462
 31
0.0
  0
LINE
  5
18DE8
330
1F
100
AcDbEntity
  8
0
100
AcDbLine
 10
466.8879343746478
 20
312.4462783445463
 30
0.0
 11
468.8879343746478
 21
312.4462783445463
 31
0.0
  0
LINE
  5
18DE9
330
1F
100
AcDbEntity
  8
0
100
AcDbLine
 10
479.4879343746481
 20
312.4462783445463
 30
0.0
 11
481.4879343746482
 21
312.4462783445463
 31
0.0
  0
LINE
  5
18DEA
330
1F
100
AcDbEntity
  8
0
100
AcDbLine
 10
466.8879343746478
 20
312.0721424588461
 30
0.0
 11
469.6201143746478
 21
312.0721424588461
 31
0.0
  0
LINE
  5
18DEB
330
1F
100
AcDbEntity
  8
0
100
AcDbLine
 10
478.7557543746472
 20
312.0721424588461
 30
0.0
 11
481.4879343746482
 21
312.0721424588461
 31
0.0
  0
LINE
  5
18DEC
330
1F
100
AcDbEntity
  8
0
100
AcDbLine
 10
466.8879343746478
 20
310.772142458746
 30
0.0
 11
470.2879343746475
 21
310.772142458746
 31
0.0
  0
LINE
  5
18DED
330
1F
100
AcDbEntity
  8
0
100
AcDbLine
 10
468.3879343746478
 20
310.5721424587462
 30
0.0
 11
470.0648287490477
 21
310.5721424587462
 31
0.0
  0
LINE
  5
18DEE
330
1F
100
AcDbEntity
  8
0
100
AcDbLine
 10
466.8879343746478
 20
310.522142458746
 30
0.0
 11
468.3879343746478
 21
310.522142458746
 31
0.0
  0
LINE
  5
18DEF
330
1F
100
AcDbEntity
  8
0
100
AcDbLine
 10
466.8879343746478
 20
309.022142458746
 30
0.0
 11
468.3879343746478
 21
309.022142458746
 31
0.0
  0
LINE
  5
18DF0
330
1F
100
AcDbEntity
  8
0
100
AcDbLine
 10
468.3879343746478
 20
308.942597004246
 30
0.0
 11
470.070671407748
 21
308.942597004246
 31
0.0
  0
LINE
  5
18DF1
330
1F
100
AcDbEntity
  8
0
100
AcDbLine
 10
466.8879343746478
 20
308.772142458746
 30
0.0
 11
470.2879343746475
 21
308.772142458746
 31
0.0
  0
LINE
  5
18DF2
102
{ACAD_REACTORS
330
18E43
102
}
330
1F
100
AcDbEntity
  8
0
100
AcDbLine
 10
466.8879343746478
 20
316.6221424587459
 30
0.0
 11
466.8879343746478
 21
283.922142458746
 31
0.0
  0
LINE
  5
18DF3
330
1F
100
AcDbEntity
  8
0
100
AcDbLine
 10
470.3786299265478
 20
285.1221424587459
 30
0.0
 11
469.8170759487478
 21
288.3068720387462
 31
0.0
  0
LINE
  5
18DF4
330
1F
100
AcDbEntity
  8
0
100
AcDbLine
 10
467.8879343746478
 20
312.0721424588461
 30
0.0
 11
467.8879343746478
 21
310.772142458746
 31
0.0
  0
LINE
  5
18DF5
330
1F
100
AcDbEntity
  8
0
100
AcDbLine
 10
467.8879343746478
 20
308.772142458746
 30
0.0
 11
467.8879343746478
 21
301.272142458746
 31
0.0
  0
LINE
  5
18DF6
330
1F
100
AcDbEntity
  8
0
100
AcDbLine
 10
467.8879343746478
 20
299.272142458746
 30
0.0
 11
467.8879343746478
 21
291.772142458746
 31
0.0
  0
LINE
  5
18DF7
330
1F
100
AcDbEntity
  8
0
100
AcDbLine
 10
467.8879343746478
 20
289.772142458746
 30
0.0
 11
467.8879343746478
 21
288.4721424588463
 31
0.0
  0
LINE
  5
18DF8
330
1F
100
AcDbEntity
  8
0
100
AcDbLine
 10
468.3879343746478
 20
310.5721424587462
 30
0.0
 11
468.3879343746478
 21
308.942597004246
 31
0.0
  0
LINE
  5
18DF9
330
1F
100
AcDbEntity
  8
0
100
AcDbLine
 10
468.3879343746478
 20
301.101687913346
 30
0.0
 11
468.3879343746478
 21
299.442597004246
 31
0.0
  0
LINE
  5
18DFA
330
1F
100
AcDbEntity
  8
0
100
AcDbLine
 10
468.3879343746478
 20
291.6016879133461
 30
0.0
 11
468.3879343746478
 21
289.9721424631459
 31
0.0
  0
LINE
  5
18DFB
330
1F
100
AcDbEntity
  8
0
100
AcDbLine
 10
468.8879343746478
 20
316.6221424587459
 30
0.0
 11
468.8879343746478
 21
312.4462783445463
 31
0.0
  0
LINE
  5
18DFC
330
1F
100
AcDbEntity
  8
0
100
AcDbLine
 10
468.8879343746478
 20
288.0980065730462
 30
0.0
 11
468.8879343746478
 21
283.922142458746
 31
0.0
  0
LINE
  5
18DFD
330
1F
100
AcDbEntity
  8
0
100
AcDbLine
 10
469.8170759517481
 20
312.2374128960462
 30
0.0
 11
470.3786299265478
 21
315.4221424587461
 31
0.0
  0
LINE
  5
18DFE
330
1F
100
AcDbEntity
  8
0
100
AcDbLine
 10
469.687934374648
 20
285.1221424587459
 30
0.0
 11
469.687934374648
 21
283.1721424587461
 31
0.0
  0
LINE
  5
18DFF
330
1F
100
AcDbEntity
  8
0
100
AcDbLine
 10
470.2879343746475
 20
289.772142458746
 30
0.0
 11
470.2879343746475
 21
291.772142458746
 31
0.0
  0
LINE
  5
18E00
330
1F
100
AcDbEntity
  8
0
100
AcDbLine
 10
470.2879343746475
 20
299.272142458746
 30
0.0
 11
470.2879343746475
 21
301.272142458746
 31
0.0
  0
LINE
  5
18E01
330
1F
100
AcDbEntity
  8
0
100
AcDbLine
 10
470.2879343746475
 20
308.772142458746
 30
0.0
 11
470.2879343746475
 21
310.772142458746
 31
0.0
  0
LINE
  5
18E02
102
{ACAD_REACTORS
330
18E40
102
}
330
1F
100
AcDbEntity
  8
0
100
AcDbLine
 10
470.6879343746479
 20
317.3721424587459
 30
0.0
 11
470.6879343746479
 21
315.4221424587461
 31
0.0
  0
LINE
  5
18E03
330
1F
100
AcDbEntity
  8
0
100
AcDbLine
 10
470.6879343746479
 20
285.1221424587459
 30
0.0
 11
470.6879343746479
 21
283.1721424587461
 31
0.0
  0
LINE
  5
18E04
330
1F
100
AcDbEntity
  8
0
100
AcDbLine
 10
471.6879343746479
 20
317.3721424587459
 30
0.0
 11
471.6879343746479
 21
315.4221424587461
 31
0.0
  0
LINE
  5
18E05
330
1F
100
AcDbEntity
  8
0
100
AcDbLine
 10
466.8879343746478
 20
301.272142458746
 30
0.0
 11
470.2879343746475
 21
301.272142458746
 31
0.0
  0
LINE
  5
18E06
330
1F
100
AcDbEntity
  8
0
100
AcDbLine
 10
468.3879343746478
 20
301.101687913346
 30
0.0
 11
470.070671407748
 21
301.101687913346
 31
0.0
  0
LINE
  5
18E07
330
1F
100
AcDbEntity
  8
0
100
AcDbLine
 10
466.8879343746478
 20
301.022142458746
 30
0.0
 11
468.3879343746478
 21
301.022142458746
 31
0.0
  0
LINE
  5
18E08
330
1F
100
AcDbEntity
  8
0
100
AcDbLine
 10
466.8879343746478
 20
299.522142458746
 30
0.0
 11
468.3879343746478
 21
299.522142458746
 31
0.0
  0
LINE
  5
18E09
330
1F
100
AcDbEntity
  8
0
100
AcDbLine
 10
468.3879343746478
 20
299.442597004246
 30
0.0
 11
470.070671407748
 21
299.442597004246
 31
0.0
  0
LINE
  5
18E0A
330
1F
100
AcDbEntity
  8
0
100
AcDbLine
 10
466.8879343746478
 20
299.272142458746
 30
0.0
 11
470.2879343746475
 21
299.272142458746
 31
0.0
  0
LINE
  5
18E0B
330
1F
100
AcDbEntity
  8
0
100
AcDbLine
 10
476.6879343746479
 20
315.4221424587461
 30
0.0
 11
476.6879343746479
 21
317.3721424587459
 31
0.0
  0
LINE
  5
18E0C
330
1F
100
AcDbEntity
  8
0
100
AcDbLine
 10
477.6879343746479
 20
283.1721424587461
 30
0.0
 11
477.6879343746479
 21
285.1221424587459
 31
0.0
  0
LINE
  5
18E0D
330
1F
100
AcDbEntity
  8
0
100
AcDbLine
 10
477.6879343746479
 20
315.4221424587461
 30
0.0
 11
477.6879343746479
 21
317.3721424587459
 31
0.0
  0
LINE
  5
18E0E
330
1F
100
AcDbEntity
  8
0
100
AcDbLine
 10
478.687934374648
 20
283.1721424587461
 30
0.0
 11
478.687934374648
 21
285.1221424587459
 31
0.0
  0
LINE
  5
18E0F
330
1F
100
AcDbEntity
  8
0
100
AcDbLine
 10
479.4879343746481
 20
312.4462783445463
 30
0.0
 11
479.4879343746481
 21
316.6221424587459
 31
0.0
  0
LINE
  5
18E10
330
1F
100
AcDbEntity
  8
0
100
AcDbLine
 10
479.4879343746481
 20
288.0980065730462
 30
0.0
 11
479.4879343746481
 21
283.922142458746
 31
0.0
  0
LINE
  5
18E11
330
1F
100
AcDbEntity
  8
0
100
AcDbLine
 10
477.9972388227482
 20
315.4221424587461
 30
0.0
 11
478.5587927975478
 21
312.2374128960462
 31
0.0
  0
LINE
  5
18E12
330
1F
100
AcDbEntity
  8
0
100
AcDbLine
 10
480.4879343746482
 20
288.4721424588463
 30
0.0
 11
480.4879343746482
 21
312.0721424588461
 31
0.0
  0
LINE
  5
18E13
102
{ACAD_REACTORS
330
18E43
102
}
330
1F
100
AcDbEntity
  8
0
100
AcDbLine
 10
481.4879343746482
 20
316.6221424587459
 30
0.0
 11
481.4879343746482
 21
283.922142458746
 31
0.0
  0
LINE
  5
18E14
330
1F
100
AcDbEntity
  8
0
100
AcDbLine
 10
478.5587927975478
 20
288.3068720215463
 30
0.0
 11
477.9972388227482
 21
285.1221424587459
 31
0.0
  0
LINE
  5
18E15
330
1F
100
AcDbEntity
  8
0
100
AcDbLine
 10
466.8879343746478
 20
291.772142458746
 30
0.0
 11
470.2879343746475
 21
291.772142458746
 31
0.0
  0
LINE
  5
18E16
330
1F
100
AcDbEntity
  8
0
100
AcDbLine
 10
468.3879343746478
 20
291.6016879133461
 30
0.0
 11
470.070671407748
 21
291.6016879133461
 31
0.0
  0
LINE
  5
18E17
330
1F
100
AcDbEntity
  8
0
100
AcDbLine
 10
466.8879343746478
 20
291.522142458746
 30
0.0
 11
468.3879343746478
 21
291.522142458746
 31
0.0
  0
LINE
  5
18E18
330
1F
100
AcDbEntity
  8
0
100
AcDbLine
 10
466.8879343746478
 20
290.022142458746
 30
0.0
 11
468.3879343746478
 21
290.022142458746
 31
0.0
  0
LINE
  5
18E19
330
1F
100
AcDbEntity
  8
0
100
AcDbLine
 10
468.3879343746478
 20
289.9721424631459
 30
0.0
 11
470.0648277797474
 21
289.972147454446
 31
0.0
  0
LINE
  5
18E1A
330
1F
100
AcDbEntity
  8
0
100
AcDbLine
 10
466.8879343746478
 20
289.772142458746
 30
0.0
 11
470.2879343746475
 21
289.772142458746
 31
0.0
  0
LINE
  5
18E1B
330
1F
100
AcDbEntity
  8
0
100
AcDbLine
 10
481.4879343746482
 20
288.4721424588463
 30
0.0
 11
478.7557543816486
 21
288.4721424588463
 31
0.0
  0
LINE
  5
18E1C
330
1F
100
AcDbEntity
  8
0
100
AcDbLine
 10
466.8879343746478
 20
288.4721424588463
 30
0.0
 11
469.6201143641476
 21
288.4721424588463
 31
0.0
  0
LINE
  5
18E1D
330
1F
100
AcDbEntity
  8
0
100
AcDbLine
 10
481.4879343746482
 20
288.0980065730462
 30
0.0
 11
479.4879343746481
 21
288.0980065730462
 31
0.0
  0
LINE
  5
18E1E
330
1F
100
AcDbEntity
  8
0
100
AcDbLine
 10
468.8879343746478
 20
288.0980065730462
 30
0.0
 11
466.8879343746478
 21
288.0980065730462
 31
0.0
  0
LINE
  5
18E1F
330
1F
100
AcDbEntity
  8
0
100
AcDbLine
 10
481.4879343746482
 20
287.7990587177462
 30
0.0
 11
479.4879343746481
 21
287.7990587177462
 31
0.0
  0
LINE
  5
18E20
330
1F
100
AcDbEntity
  8
0
100
AcDbLine
 10
468.8879343746478
 20
287.7990587177462
 30
0.0
 11
466.8879343746478
 21
287.7990587177462
 31
0.0
  0
LINE
  5
18E21
330
1F
100
AcDbEntity
  8
0
100
AcDbLine
 10
481.4879343746482
 20
286.8162474587458
 30
0.0
 11
479.4879343746481
 21
286.8162474587458
 31
0.0
  0
LINE
  5
18E22
330
1F
100
AcDbEntity
  8
0
100
AcDbLine
 10
466.8879343746478
 20
286.8162474587458
 30
0.0
 11
468.8879343746478
 21
286.8162474587458
 31
0.0
  0
LINE
  5
18E23
330
1F
100
AcDbEntity
  8
0
100
AcDbLine
 10
470.2023028746474
 20
286.1221424587459
 30
0.0
 11
478.1735658746477
 21
286.1221424587459
 31
0.0
  0
LINE
  5
18E24
330
1F
100
AcDbEntity
  8
0
100
AcDbLine
 10
468.8879343746478
 20
285.1221424587459
 30
0.0
 11
479.4879343746481
 21
285.1221424587459
 31
0.0
  0
LINE
  5
18E25
330
1F
100
AcDbEntity
  8
0
100
AcDbLine
 10
481.4879343746482
 20
285.1037274587459
 30
0.0
 11
479.4879343746481
 21
285.1037274587459
 31
0.0
  0
LINE
  5
18E26
330
1F
100
AcDbEntity
  8
0
100
AcDbLine
 10
466.8879343746478
 20
285.1037274587459
 30
0.0
 11
468.8879343746478
 21
285.1037274587459
 31
0.0
  0
LINE
  5
18E27
330
1F
100
AcDbEntity
  8
0
100
AcDbLine
 10
481.4879343746482
 20
283.922142458746
 30
0.0
 11
479.4879343746481
 21
283.922142458746
 31
0.0
  0
LINE
  5
18E28
330
1F
100
AcDbEntity
  8
0
100
AcDbLine
 10
466.8879343746478
 20
283.922142458746
 30
0.0
 11
468.8879343746478
 21
283.922142458746
 31
0.0
  0
LINE
  5
18E29
102
{ACAD_REACTORS
330
18E40
102
}
330
1F
100
AcDbEntity
  8
0
100
AcDbLine
 10
478.687934374648
 20
283.1721424587461
 30
0.0
 11
469.687934374648
 21
283.1721424587461
 31
0.0
  0
ARC
  5
18E2A
330
1F
100
AcDbEntity
  8
0
100
AcDbCircle
 10
530.4370449114228
 20
285.919407458746
 30
0.0
 40
0.9
100
AcDbArc
 50
294.9991895489747
 51
85.19862693056273
  0
ARC
  5
18E2B
330
1F
100
AcDbEntity
  8
0
100
AcDbCircle
 10
530.4370449114228
 20
314.6248774587458
 30
0.0
 40
0.9
100
AcDbArc
 50
274.8013730694373
 51
65.00081045102523
  0
ARC
  5
18E2C
330
1F
100
AcDbEntity
  8
0
100
AcDbCircle
 10
518.8334849114233
 20
288.0980065730462
 30
0.0
 40
0.3
100
AcDbArc
 50
180.0
 51
265.1999943876981
  0
ARC
  5
18E2D
330
1F
100
AcDbEntity
  8
0
100
AcDbCircle
 10
518.8334849114233
 20
312.4462783445463
 30
0.0
 40
0.3
100
AcDbArc
 50
94.80000561230179
 51
180.0
  0
ARC
  5
18E2E
330
1F
100
AcDbEntity
  8
0
100
AcDbCircle
 10
474.187934374648
 20
309.772142458746
 30
0.0
 40
4.2
100
AcDbArc
 50
191.3914363195912
 51
169.0194245723866
  0
ARC
  5
18E2F
330
1F
100
AcDbEntity
  8
0
100
AcDbCircle
 10
474.187934374648
 20
300.272142458746
 30
0.0
 40
4.2
100
AcDbArc
 50
191.3914363195912
 51
168.6085636804088
  0
ARC
  5
18E30
330
1F
100
AcDbEntity
  8
0
100
AcDbCircle
 10
474.187934374648
 20
290.772142458746
 30
0.0
 40
4.2
100
AcDbArc
 50
190.9805060066025
 51
168.6085636804088
  0
CIRCLE
  5
18E31
330
1F
100
AcDbEntity
  8
0
100
AcDbCircle
 10
474.187934374648
 20
309.772142458746
 30
0.0
 40
3.0999495799
  0
CIRCLE
  5
18E32
330
1F
100
AcDbEntity
  8
0
100
AcDbCircle
 10
474.187934374648
 20
300.272142458746
 30
0.0
 40
3.0999495799
  0
CIRCLE
  5
18E33
330
1F
100
AcDbEntity
  8
0
100
AcDbCircle
 10
474.187934374648
 20
290.772142458746
 30
0.0
 40
3.0999495799
  0
CIRCLE
  5
18E34
330
1F
100
AcDbEntity
  8
0
100
AcDbCircle
 10
474.187934374648
 20
290.772142458746
 30
0.0
 40
2.799999999999998
  0
CIRCLE
  5
18E35
330
1F
100
AcDbEntity
  8
0
100
AcDbCircle
 10
474.187934374648
 20
300.272142458746
 30
0.0
 40
2.799999999999998
  0
CIRCLE
  5
18E36
330
1F
100
AcDbEntity
  8
0
100
AcDbCircle
 10
474.187934374648
 20
309.772142458746
 30
0.0
 40
2.799999999999998
  0
ARC
  5
18E37
330
1F
100
AcDbEntity
  8
0
100
AcDbCircle
 10
469.6201143746478
 20
312.272142458846
 30
0.0
 40
0.2
100
AcDbArc
 50
270.0
 51
350.0000218608923
  0
ARC
  5
18E38
330
1F
100
AcDbEntity
  8
0
100
AcDbCircle
 10
478.7557543746472
 20
312.272142458846
 30
0.0
 40
0.2
100
AcDbArc
 50
189.9999781391077
 51
270.0
  0
ARC
  5
18E39
330
1F
100
AcDbEntity
  8
0
100
AcDbCircle
 10
478.7557543746472
 20
288.272142458846
 30
0.0
 40
0.2
100
AcDbArc
 50
89.99999800001022
 51
170.0000218608922
  0
ARC
  5
18E3A
330
1F
100
AcDbEntity
  8
0
100
AcDbCircle
 10
469.6201143746478
 20
288.272142458846
 30
0.0
 40
0.2
100
AcDbArc
 50
9.999983139088961
 51
90.00000299998459
  0
MTEXT
  5
18E3B
330
1F
100
AcDbEntity
  8
打标文字
100
AcDbMText
 10
479.1668387654284
 20
310.8057942407202
 30
0.0
 40
2.5
 41
12.37818607289227
 71
     1
 72
     5
  1
1
  7
数字
 73
     1
 44
1.0
1001
ACAD
1000
MTEXTBEGIN
1070
    73
1070
     1
1070
    44
1040
1.0
1070
    74
1070
     0
1000
MTEXTEND
  0
MTEXT
  5
18E3C
330
1F
100
AcDbEntity
  8
打标文字
100
AcDbMText
 10
478.8934011017047
 20
301.5585265512267
 30
0.0
 40
2.5
 41
12.37818607289227
 71
     1
 72
     5
  1
2
  7
数字
 73
     1
 44
1.0
1001
ACAD
1000
MTEXTBEGIN
1070
    73
1070
     1
1070
    44
1040
1.0
1070
    74
1070
     0
1000
MTEXTEND
  0
MTEXT
  5
18E3D
330
1F
100
AcDbEntity
  8
打标文字
100
AcDbMText
 10
478.812002777064
 20
291.8174742816201
 30
0.0
 40
2.5
 41
12.37818607289227
 71
     1
 72
     5
  1
3
  7
数字
 73
     1
 44
1.0
1001
ACAD
1000
MTEXTBEGIN
1070
    73
1070
     1
1070
    44
1040
1.0
1070
    74
1070
     0
1000
MTEXTEND
  0
DIMENSION
  5
18E3E
102
{ACAD_XDICTIONARY
360
18E3F
102
}
102
{ACAD_REACTORS
330
18E40
102
}
330
1F
100
AcDbEntity
  8
DIM
100
AcDbDimension
  2
*D8
 10
457.7100133585274
 20
283.172142458746
 30
0.0
 11
455.1600133585274
 21
300.272142458746
 31
0.0
 70
    32
 71
     5
 42
34.19999999999982
  3
01
100
AcDbAlignedDimension
 13
470.6879343746479
 23
317.3721424587459
 33
0.0
 14
469.687934374648
 24
283.1721424587461
 34
0.0
 50
90.0
100
AcDbRotatedDimension
  0
DIMENSION
  5
18E41
102
{ACAD_XDICTIONARY
360
18E42
102
}
102
{ACAD_REACTORS
330
18E43
102
}
330
1F
100
AcDbEntity
  8
DIM
100
AcDbDimension
  2
*D9
 10
481.4879343746482
 20
323.7269532391133
 30
0.0
 11
474.187934374648
 21
326.2769532391133
 31
0.0
 70
    32
 71
     5
 42
14.60000000000036
  3
01
100
AcDbAlignedDimension
 13
466.8879343746478
 23
316.6221424587459
 33
0.0
 14
481.4879343746482
 24
316.6221424587459
 34
0.0
100
AcDbRotatedDimension
  0
DIMENSION
  5
18E44
102
{ACAD_XDICTIONARY
360
18E45
102
}
102
{ACAD_REACTORS
330
18E46
102
}
330
1F
100
AcDbEntity
  8
DIM
100
AcDbDimension
  2
*D10
 10
537.7334849114228
 20
323.7269532391133
 30
0.0
 11
524.1334849114225
 21
326.2769532391133
 31
0.0
 70
    32
 71
     5
 42
27.20000000000073
  3
01
100
AcDbAlignedDimension
 13
510.5334849114221
 23
315.4221424587461
 33
0.0
 14
537.7334849114228
 24
314.4221424587461
 34
0.0
100
AcDbRotatedDimension
  0
LINE
  5
18E47
330
1F
100
AcDbEntity
  8
Cen
 48
10.0
100
AcDbLine
 10
483.4538530508956
 20
300.272142458746
 30
0.0
 11
465.2261661438672
 21
300.272142458746
 31
0.0
  0
LINE
  5
18E48
330
1F
100
AcDbEntity
  8
Cen
 48
10.0
100
AcDbLine
 10
474.187934374648
 20
319.711423289325
 30
0.0
 11
474.187934374648
 21
281.0784507845164
 31
0.0
  0
ENDSEC
  0
SECTION
  2
OBJECTS
  0
DICTIONARY
  5
C
330
0
100
AcDbDictionary
281
     1
  3
ACAD_COLOR
350
4FFE
  3
ACAD_GROUP
350
D
  3
ACAD_LAYOUT
350
1A
  3
ACAD_MATERIAL
350
4FE5
  3
ACAD_MLEADERSTYLE
350
5022
  3
ACAD_MLINESTYLE
350
17
  3
ACAD_PLOTSETTINGS
350
19
  3
ACAD_PLOTSTYLENAME
350
E
  3
ACAD_RENDER_PLOT_SETTINGS
350
6537
  3
ACAD_SCALELIST
350
5000
  3
ACAD_TABLESTYLE
350
4FE3
  3
ACAD_VISUALSTYLE
350
2A
  3
ACDB_RECOMPOSE_DATA
350
50EC
  3
AcDbVariableDictionary
350
5108
  3
ASE_INDEX_DICTIONARY
350
11ACE
  3
DWGPROPS
350
1907A
  0
DICTIONARY
  5
50EE
330
8
100
AcDbDictionary
280
     1
281
     1
  0
DICTIONARY
  5
50B8
330
2
100
AcDbDictionary
280
     1
281
     1
  3
ACAD_LAYERFILTERS
360
138AC
  3
ACAD_LAYERSTATES
360
50B9
  3
ACLYDICTIONARY
360
138AB
  0
DICTIONARY
  5
50D0
330
10
100
AcDbDictionary
280
     1
281
     1
  3
ADSK_XREC_LAYER_RECONCILED
360
50D1
  0
DICTIONARY
  5
50D2
330
3B
100
AcDbDictionary
280
     1
281
     1
  3
ADSK_XREC_LAYER_RECONCILED
360
50D3
  0
DICTIONARY
  5
50AF
330
50AE
100
AcDbDictionary
280
     1
281
     1
  3
ADSK_XREC_LAYER_RECONCILED
360
50D4
  0
DICTIONARY
  5
180FD
330
180FC
100
AcDbDictionary
280
     1
281
     1
  0
DICTIONARY
  5
67C0
330
1F
100
AcDbDictionary
280
     1
281
     1
  3
ACAD_SORTENTS
360
67C1
  0
DICTIONARY
  5
19053
330
10FE8
100
AcDbDictionary
280
     1
281
     1
  0
DICTIONARY
  5
19062
330
18FBF
100
AcDbDictionary
280
     1
281
     1
  3
ACAD_MTEXT_2008_RT
360
19063
  3
ACAD_MTEXT_RT
360
1909B
  0
DICTIONARY
  5
19064
330
19003
100
AcDbDictionary
280
     1
281
     1
  3
ACAD_MTEXT_2008_RT
360
19065
  3
ACAD_MTEXT_RT
360
1909C
  0
DICTIONARY
  5
19066
330
19004
100
AcDbDictionary
280
     1
281
     1
  3
ACAD_MTEXT_2008_RT
360
19067
  3
ACAD_MTEXT_RT
360
1909D
  0
DICTIONARY
  5
19068
330
19029
100
AcDbDictionary
280
     1
281
     1
  3
ACAD_MTEXT_2008_RT
360
19069
  3
ACAD_MTEXT_RT
360
1909E
  0
DICTIONARY
  5
1906A
330
1902C
100
AcDbDictionary
280
     1
281
     1
  3
ACAD_MTEXT_2008_RT
360
1906B
  3
ACAD_MTEXT_RT
360
1909F
  0
DICTIONARY
  5
1906C
330
1902D
100
AcDbDictionary
280
     1
281
     1
  3
ACAD_MTEXT_2008_RT
360
1906D
  3
ACAD_MTEXT_RT
360
190A0
  0
DICTIONARY
  5
1906E
330
19037
100
AcDbDictionary
280
     1
281
     1
  3
ACAD_MTEXT_2008_RT
360
1906F
  3
ACAD_MTEXT_RT
360
190A1
  0
DICTIONARY
  5
19070
330
19038
100
AcDbDictionary
280
     1
281
     1
  3
ACAD_MTEXT_2008_RT
360
19071
  3
ACAD_MTEXT_RT
360
190A2
  0
DICTIONARY
  5
19072
330
19039
100
AcDbDictionary
280
     1
281
     1
  3
ACAD_MTEXT_2008_RT
360
19073
  3
ACAD_MTEXT_RT
360
190A3
  0
DICTIONARY
  5
19074
330
19047
100
AcDbDictionary
280
     1
281
     1
  3
ACAD_MTEXT_2008_RT
360
19075
  3
ACAD_MTEXT_RT
360
190A4
  0
DICTIONARY
  5
19076
330
19048
100
AcDbDictionary
280
     1
281
     1
  3
ACAD_MTEXT_2008_RT
360
19077
  3
ACAD_MTEXT_RT
360
190A5
  0
DICTIONARY
  5
19078
330
19049
100
AcDbDictionary
280
     1
281
     1
  3
ACAD_MTEXT_2008_RT
360
19079
  3
ACAD_MTEXT_RT
360
190A6
  0
DICTIONARY
  5
19060
330
7228
100
AcDbDictionary
280
     1
281
     1
  3
ACAD_MTEXT_2008_RT
360
19061
  3
ACAD_MTEXT_RT
360
19082
  0
DICTIONARY
  5
18E3F
330
18E3E
100
AcDbDictionary
280
     1
281
     1
  3
ACAD_DIMASSOC
360
18E40
  0
DICTIONARY
  5
18E42
330
18E41
100
AcDbDictionary
280
     1
281
     1
  3
ACAD_DIMASSOC
360
18E43
  0
DICTIONARY
  5
18E45
330
18E44
100
AcDbDictionary
280
     1
281
     1
  3
ACAD_DIMASSOC
360
18E46
  0
DICTIONARY
  5
4FFE
102
{ACAD_REACTORS
330
C
102
}
330
C
100
AcDbDictionary
281
     1
  0
DICTIONARY
  5
D
102
{ACAD_REACTORS
330
C
102
}
330
C
100
AcDbDictionary
281
     1
  0
DICTIONARY
  5
1A
102
{ACAD_REACTORS
330
C
102
}
330
C
100
AcDbDictionary
281
     1
  3
Layout1
350
1E
  3
Layout2
350
26
  3
Model
350
22
  0
DICTIONARY
  5
4FE5
102
{ACAD_REACTORS
330
C
102
}
330
C
100
AcDbDictionary
281
     1
  3
ByBlock
350
4FEE
  3
ByLayer
350
4FE6
  3
Global
350
4FF6
  0
DICTIONARY
  5
5022
102
{ACAD_REACTORS
330
C
102
}
330
C
100
AcDbDictionary
281
     1
  3
Standard
350
5023
  0
DICTIONARY
  5
17
102
{ACAD_REACTORS
330
C
102
}
330
C
100
AcDbDictionary
281
     1
  3
Standard
350
18
  0
DICTIONARY
  5
19
102
{ACAD_REACTORS
330
C
102
}
330
C
100
AcDbDictionary
281
     1
  0
ACDBDICTIONARYWDFLT
  5
E
102
{ACAD_REACTORS
330
C
102
}
330
C
100
AcDbDictionary
281
     1
  3
Normal
350
F
100
AcDbDictionaryWithDefault
340
F
  0
DICTIONARY
  5
6537
102
{ACAD_REACTORS
330
C
102
}
330
C
100
AcDbDictionary
281
     1
  3
{1DC63513-1B1A-422F-9880-65CFD2B8D533}
350
6538
  0
DICTIONARY
  5
5000
102
{ACAD_REACTORS
330
C
102
}
330
C
100
AcDbDictionary
281
     1
  3
A0
350
5001
  3
A1
350
5002
  3
A2
350
5003
  3
A3
350
5004
  3
A4
350
5005
  3
A5
350
5006
  3
A6
350
5007
  3
A7
350
5008
  3
A8
350
5009
  3
A9
350
500A
  3
B0
350
500B
  3
B1
350
500C
  3
B2
350
500D
  3
B3
350
500E
  3
B4
350
500F
  3
B5
350
5010
  3
B6
350
5011
  3
B7
350
5012
  3
B8
350
5013
  3
B9
350
5014
  3
C0
350
5015
  3
C1
350
5016
  3
C2
350
5017
  3
C3
350
5018
  3
C4
350
5019
  3
C5
350
501A
  3
C6
350
501B
  3
C7
350
501C
  3
C8
350
501D
  3
C9
350
501E
  3
D0
350
501F
  3
D1
350
5020
  3
D2
350
5021
  0
DICTIONARY
  5
4FE3
102
{ACAD_REACTORS
330
C
102
}
330
C
100
AcDbDictionary
281
     1
  3
Standard
350
4FFF
  0
DICTIONARY
  5
2A
102
{ACAD_REACTORS
330
C
102
}
330
C
100
AcDbDictionary
281
     1
  3
2dWireframe
350
2F
  3
3D Hidden
350
31
  3
3dWireframe
350
30
  3
Basic
350
32
  3
Brighten
350
36
  3
ColorChange
350
3A
  3
Conceptual
350
34
  3
Dim
350
35
  3
Facepattern
350
39
  3
Flat
350
2B
  3
FlatWithEdges
350
2C
  3
Gouraud
350
2D
  3
GouraudWithEdges
350
2E
  3
Linepattern
350
38
  3
Realistic
350
33
  3
Thicken
350
37
  0
XRECORD
  5
50EC
102
{ACAD_REACTORS
330
C
102
}
330
C
100
AcDbXrecord
280
     1
 90
        1
330
4FFF
330
7228
330
18FBF
330
19003
330
19004
330
19029
330
1902C
330
1902D
330
19037
330
19038
330
19039
330
19047
330
19048
330
19049
  0
DICTIONARY
  5
5108
102
{ACAD_REACTORS
330
C
102
}
330
C
100
AcDbDictionary
281
     1
  3
CANNOSCALE
350
510B
  3
CMLEADERSTYLE
350
510A
  3
CTABLESTYLE
350
5109
  3
DIMASSOC
350
510E
  3
INDEXCTL
350
510D
  3
SORTENTS
350
510C
  0
DICTIONARY
  5
11ACE
102
{ACAD_REACTORS
330
C
102
}
330
C
100
AcDbDictionary
281
     1
  3
ASEBlockHierarchyIndexRecord
350
11ACF
1001
DCO15
1040
1901610418.781
  0
XRECORD
  5
1907A
102
{ACAD_REACTORS
330
C
102
}
330
C
100
AcDbXrecord
280
     1
  1
DWGPROPS COOKIE
  2

  3

  4

  6

  7

  8
yl.gao
  9

300
=
301
=
302
=
303
=
304
=
305
=
306
=
307
=
308
=
309
=
 40
1.077554548611111
 41
2456524.383632987
 42
2460323.699964514
  1

 90
        0
  0
DICTIONARY
  5
138AC
102
{ACAD_REACTORS
330
50B8
102
}
330
50B8
100
AcDbDictionary
281
     1
  0
DICTIONARY
  5
50B9
102
{ACAD_REACTORS
330
50B8
102
}
330
50B8
100
AcDbDictionary
281
     1
  0
DICTIONARY
  5
138AB
102
{ACAD_REACTORS
330
50B8
102
}
330
50B8
100
AcDbDictionary
281
     1
1001
ACAD
1000
<All
  0
XRECORD
  5
50D1
102
{ACAD_REACTORS
330
50D0
102
}
330
50D0
100
AcDbXrecord
280
     1
290
     1
  0
XRECORD
  5
50D3
102
{ACAD_REACTORS
330
50D2
102
}
330
50D2
100
AcDbXrecord
280
     1
290
     1
  0
XRECORD
  5
50D4
102
{ACAD_REACTORS
330
50AF
102
}
330
50AF
100
AcDbXrecord
280
     1
290
     1
  0
SORTENTSTABLE
  5
67C1
102
{ACAD_REACTORS
330
67C0
102
}
330
67C0
100
AcDbSortentsTable
330
1F
331
35C8
  5
35D8
331
65A3
  5
65A4
331
65A1
  5
65A2
331
7228
  5
99F4
331
2F93
  5
2FDE
331
28AE
  5
2A38
331
65B2
  5
65B3
331
2EE7
  5
2F93
331
2FDE
  5
35C8
331
65A4
  5
65A5
331
3943
  5
4842
331
2C65
  5
2EE7
331
65A0
  5
65A1
331
3895
  5
3943
331
35D8
  5
3807
331
4842
  5
4E94
331
3807
  5
3895
  0
XRECORD
  5
19063
102
{ACAD_REACTORS
330
19062
102
}
330
19062
100
AcDbXrecord
280
     1
 40
1527.0
  1
\pxqc;BQ LUO
  0
XRECORD
  5
1909B
102
{ACAD_REACTORS
330
19062
102
}
330
19062
100
AcDbXrecord
280
     1
 40
1527.0
  1
\pxqc;BQ LUO
  0
XRECORD
  5
19065
102
{ACAD_REACTORS
330
19064
102
}
330
19064
100
AcDbXrecord
280
     1
 40
1262561.0
  1
\pxqc;档案员{\H0.7x;\P\Fromans|c134;Filing Clerk\fFangSong_GB2312|b0|i0|c134|p49; }
  0
XRECORD
  5
1909C
102
{ACAD_REACTORS
330
19064
102
}
330
19064
100
AcDbXrecord
280
     1
 40
448513.0
  1
\pxqc;档案员{\H0.7x;\P\Fromans|c134;Filing Clerk\fFangSong_GB2312|b0|i0|c134|p49; }
  0
XRECORD
  5
19067
102
{ACAD_REACTORS
330
19066
102
}
330
19066
100
AcDbXrecord
280
     1
 40
650528.0
  1
\pxqc;日期{\Fromans|c134;/Date}
  0
XRECORD
  5
1909D
102
{ACAD_REACTORS
330
19066
102
}
330
19066
100
AcDbXrecord
280
     1
 40
58584.0
  1
\pxqc;日期{\Fromans|c134;/Date}
  0
XRECORD
  5
19069
102
{ACAD_REACTORS
330
19068
102
}
330
19068
100
AcDbXrecord
280
     1
 40
2318748.0
  1
\pxsm0.7;{\f仿宋_GB2312|b0|i0|c134|p49;标准化}\PStand.
  0
XRECORD
  5
1909E
102
{ACAD_REACTORS
330
19068
102
}
330
19068
100
AcDbXrecord
280
     1
 40
55334.0
  1
\pxsm0.7;{\f仿宋_GB2312|b0|i0|c134|p49;标准化}\PStand.
  0
XRECORD
  5
1906B
102
{ACAD_REACTORS
330
1906A
102
}
330
1906A
100
AcDbXrecord
280
     1
 40
118135.0
  1
\pxsm0.7;签名\P{\Fromans|c134;Signature} 
  0
XRECORD
  5
1909F
102
{ACAD_REACTORS
330
1906A
102
}
330
1906A
100
AcDbXrecord
280
     1
 40
48353.0
  1
\pxsm0.7;签名\P{\Fromans|c134;Signature} 
  0
XRECORD
  5
1906D
102
{ACAD_REACTORS
330
1906C
102
}
330
1906C
100
AcDbXrecord
280
     1
 40
108939.0
  1
\pxsm0.7,qc;处数\P{\Fromans|c134;Number }
  0
XRECORD
  5
190A0
102
{ACAD_REACTORS
330
1906C
102
}
330
1906C
100
AcDbXrecord
280
     1
 40
38427.0
  1
\pxsm0.7,qc;处数\P{\Fromans|c134;Number }
  0
XRECORD
  5
1906F
102
{ACAD_REACTORS
330
1906E
102
}
330
1906E
100
AcDbXrecord
280
     1
 40
125762.0
  1
\pxsm0.7;标记\P{\Fromans|c134;Mark}
  0
XRECORD
  5
190A1
102
{ACAD_REACTORS
330
1906E
102
}
330
1906E
100
AcDbXrecord
280
     1
 40
31190.0
  1
\pxsm0.7;标记\P{\Fromans|c134;Mark}
  0
XRECORD
  5
19071
102
{ACAD_REACTORS
330
19070
102
}
330
19070
100
AcDbXrecord
280
     1
 40
111973.0
  1
\pxsm0.7;审核\P{\Fromans|c134;Checked}
  0
XRECORD
  5
190A2
102
{ACAD_REACTORS
330
19070
102
}
330
19070
100
AcDbXrecord
280
     1
 40
39355.0
  1
\pxsm0.7;审核\P{\Fromans|c134;Checked}
  0
XRECORD
  5
19073
102
{ACAD_REACTORS
330
19072
102
}
330
19072
100
AcDbXrecord
280
     1
 40
137968.0
  1
\pxsm0.7;绘图\P{\Fromans|c134;Drawn\Ftxt|c134; }
  0
XRECORD
  5
190A3
102
{ACAD_REACTORS
330
19072
102
}
330
19072
100
AcDbXrecord
280
     1
 40
66730.0
  1
\pxsm0.7;绘图\P{\Fromans|c134;Drawn\Ftxt|c134; }
  0
XRECORD
  5
19075
102
{ACAD_REACTORS
330
19074
102
}
330
19074
100
AcDbXrecord
280
     1
 40
106320.0
  1
\pxsm0.7;批准\P{\Fromans|c134;Approved}
  0
XRECORD
  5
190A4
102
{ACAD_REACTORS
330
19074
102
}
330
19074
100
AcDbXrecord
280
     1
 40
43787.0
  1
\pxsm0.7;批准\P{\Fromans|c134;Approved}
  0
XRECORD
  5
19077
102
{ACAD_REACTORS
330
19076
102
}
330
19076
100
AcDbXrecord
280
     1
 40
127283.0
  1
\pxsm0.7;工艺\P{\Fromans|c134;Process}
  0
XRECORD
  5
190A5
102
{ACAD_REACTORS
330
19076
102
}
330
19076
100
AcDbXrecord
280
     1
 40
40691.0
  1
\pxsm0.7;工艺\P{\Fromans|c134;Process}
  0
XRECORD
  5
19079
102
{ACAD_REACTORS
330
19078
102
}
330
19078
100
AcDbXrecord
280
     1
 40
106220.0
  1
\pxsm0.7;日期\P{\Fromans|c134;Date}
  0
XRECORD
  5
190A6
102
{ACAD_REACTORS
330
19078
102
}
330
19078
100
AcDbXrecord
280
     1
 40
30977.0
  1
\pxsm0.7;日期\P{\Fromans|c134;Date}
  0
XRECORD
  5
19061
102
{ACAD_REACTORS
330
19060
102
}
330
19060
100
AcDbXrecord
280
     1
 40
3566703418.0
  1
\A1;\pxql;{\f仿宋_GB2312|b0|i0|c134|p49;技术参数}:\P{\f仿宋_GB2312|b0|i0|c134|p49;插芯：}\P- {\f仿宋_GB2312|b0|i0|c134|p49;插针数}: 3\P- {\f仿宋_GB2312|b0|i0|c134|p49;材料}: {\f仿宋_GB2312|b0|i0|c134|p49;聚碳酸酯}\P- {\f仿宋_GB2312|b0|i0|c134|p49;颜色}: RAL 5012({\f仿宋_GB2312|b0|i
  1
0|c134|p49;蓝色})\P- {\f仿宋_GB2312|b0|i0|c134|p49;温度范围}: -40{\f仿宋_GB2312|b0|i0|c134|p49;℃} - +80{\f仿宋_GB2312|b0|i0|c134|p49;℃}\P- {\f仿宋_GB2312|b0|i0|c134|p49;依据}UL 94{\f仿宋_GB2312|b0|i0|c134|p49;的阻燃等级}: V0\P\pq*;- {\f仿宋_GB2312|b0|i0|c134|p49;可插拔次数}: {\f仿
  1
宋_GB2312|b0|i0|c134|p49;≥}500\P\pql;{\f仿宋_GB2312|b0|i0|c134|p49;插针：}\P- {\f仿宋_GB2312|b0|i0|c134|p49;材料}: {\f仿宋_GB2312|b0|i0|c134|p49;聚甲醛}\P- {\f仿宋_GB2312|b0|i0|c134|p49;颜色}: {\f仿宋_GB2312|b0|i0|c134|p49;黑色}\P- {\f仿宋_GB2312|b0|i0|c134|p49;软管连接}: \P   {
  1
\f仿宋_GB2312|b0|i0|c134|p49;·} {\f仿宋_GB2312|b0|i0|c134|p49;内径}: 1.6mm / 1/16{\f仿宋_GB2312|b0|i0|c134|p49;＂}\P            3.0mm\P        4.0mm / 1/8{\f仿宋_GB2312|b0|i0|c134|p49;＂}\P- {\f仿宋_GB2312|b0|i0|c134|p49;工作压力}: {\f仿宋_GB2312|b0|i0|c134|p49;最大}8 bar
  1
 / 116 psi\P- {\f仿宋_GB2312|b0|i0|c134|p49;材料：}\P   {\f仿宋_GB2312|b0|i0|c134|p49;·} {\f仿宋_GB2312|b0|i0|c134|p49;密封\fSimSun|b0|i0|c134|p2;圏\f仿宋_GB2312|b0|i0|c134|p49;：} {\f仿宋_GB2312|b0|i0|c134|p49;氟橡胶}\P   {\f仿宋_GB2312|b0|i0|c134|p49;·} {\f仿宋_GB2312|b0|
  1
i0|c134|p49;闭锁阀：} {\f仿宋_GB2312|b0|i0|c134|p49;聚丙烯}\P\PTechnical specification:\PInsters:\P- No. of contact: 2\P- Material: polycarbonate\P- Colour: RAL 5012(blue) \P- Temperature range: -40{\f仿宋_GB2312|b0|i0|c134|p49;℃} - +80{\f仿宋_GB2312|b0|i0|c134|p
  1
49;℃}\P- Flammability acc.to UL 94: V0\P- Mating cycles: {\f仿宋_GB2312|b0|i0|c134|p49;≥}500\PContacts:\P- Material: delrin acetal\P- Colour: black\P- Tube termination: \P   {\f仿宋_GB2312|b0|i0|c134|p49;·} internal diameter(ID): 1.6mm / 1/16{\f仿宋_GB2312
  1
|b0|i0|c134|p49;＂}\P                                 3.0mm\P                       4.0mm / 1/8{\f仿宋_GB2312|b0|i0|c134|p49;＂}\P- Working pressure: up to 8 bar / 116 psi\P- Material: \P   {\f仿宋_GB2312|b0|i0|c134|p49;·} Sealing: FPM\P   {\f仿宋_GB2312|b0|
  1
i0|c134|p49;·} Shut off valve: Polypropylen
  0
XRECORD
  5
19082
102
{ACAD_REACTORS
330
19060
102
}
330
19060
100
AcDbXrecord
280
     1
 40
146317896.0
  1
\A1;\pxql;{\f仿宋_GB2312|b0|i0|c134|p49;技术参数}:\P{\f仿宋_GB2312|b0|i0|c134|p49;插芯：}\P- {\f仿宋_GB2312|b0|i0|c134|p49;插针数}: 3\P- {\f仿宋_GB2312|b0|i0|c134|p49;材料}: {\f仿宋_GB2312|b0|i0|c134|p49;聚碳酸酯}\P- {\f仿宋_GB2312|b0|i0|c134|p49;颜色}: RAL 5012({\f仿宋_GB2312|b0|i
  1
0|c134|p49;蓝色})\P- {\f仿宋_GB2312|b0|i0|c134|p49;温度范围}: -40{\f仿宋_GB2312|b0|i0|c134|p49;℃} - +80{\f仿宋_GB2312|b0|i0|c134|p49;℃}\P- {\f仿宋_GB2312|b0|i0|c134|p49;依据}UL 94{\f仿宋_GB2312|b0|i0|c134|p49;的阻燃等级}: V0\P\pq*;- {\f仿宋_GB2312|b0|i0|c134|p49;可插拔次数}: {\f仿
  1
宋_GB2312|b0|i0|c134|p49;≥}500\P\pql;{\f仿宋_GB2312|b0|i0|c134|p49;插针：}\P- {\f仿宋_GB2312|b0|i0|c134|p49;材料}: {\f仿宋_GB2312|b0|i0|c134|p49;聚甲醛}\P- {\f仿宋_GB2312|b0|i0|c134|p49;颜色}: {\f仿宋_GB2312|b0|i0|c134|p49;黑色}\P- {\f仿宋_GB2312|b0|i0|c134|p49;软管连接}: \P   {
  1
\f仿宋_GB2312|b0|i0|c134|p49;·} {\f仿宋_GB2312|b0|i0|c134|p49;内径}: 1.6mm / 1/16{\f仿宋_GB2312|b0|i0|c134|p49;＂}\P            3.0mm\P        4.0mm / 1/8{\f仿宋_GB2312|b0|i0|c134|p49;＂}\P- {\f仿宋_GB2312|b0|i0|c134|p49;工作压力}: {\f仿宋_GB2312|b0|i0|c134|p49;最大}8 bar
  1
 / 116 psi\P- {\f仿宋_GB2312|b0|i0|c134|p49;材料：}\P   {\f仿宋_GB2312|b0|i0|c134|p49;·} {\f仿宋_GB2312|b0|i0|c134|p49;密封\fSimSun|b0|i0|c134|p2;圏\f仿宋_GB2312|b0|i0|c134|p49;：} {\f仿宋_GB2312|b0|i0|c134|p49;氟橡胶}\P   {\f仿宋_GB2312|b0|i0|c134|p49;·} {\f仿宋_GB2312|b0|
  1
i0|c134|p49;闭锁阀：} {\f仿宋_GB2312|b0|i0|c134|p49;聚丙烯}\P\PTechnical specification:\PInsters:\P- No. of contact: 2\P- Material: polycarbonate\P- Colour: RAL 5012(blue) \P- Temperature range: -40{\f仿宋_GB2312|b0|i0|c134|p49;℃} - +80{\f仿宋_GB2312|b0|i0|c134|p
  1
49;℃}\P- Flammability acc.to UL 94: V0\P- Mating cycles: {\f仿宋_GB2312|b0|i0|c134|p49;≥}500\PContacts:\P- Material: delrin acetal\P- Colour: black\P- Tube termination: \P   {\f仿宋_GB2312|b0|i0|c134|p49;·} internal diameter(ID): 1.6mm / 1/16{\f仿宋_GB2312
  1
|b0|i0|c134|p49;＂}\P                                 3.0mm\P                       4.0mm / 1/8{\f仿宋_GB2312|b0|i0|c134|p49;＂}\P- Working pressure: up to 8 bar / 116 psi\P- Material: \P   {\f仿宋_GB2312|b0|i0|c134|p49;·} Sealing: FPM\P   {\f仿宋_GB2312|b0|
  1
i0|c134|p49;·} Shut off valve: Polypropylen
  0
DIMASSOC
  5
18E40
102
{ACAD_REACTORS
330
18E3F
102
}
330
18E3F
100
AcDbDimAssoc
330
18E3E
 90
        3
 70
     0
 71
     0
  1
AcDbOsnapPointRef
 72
    13
331
18E02
 73
     2
 91
        0
 40
0.0
 10
0.0
 20
0.0
 30
2.000000000000000E+50
 75
     0
  1
AcDbOsnapPointRef
 72
     1
331
18E29
 73
     2
 91
        0
 40
1.0
 10
0.0
 20
0.0
 30
2.000000000000000E+50
 75
     0
  0
DIMASSOC
  5
18E43
102
{ACAD_REACTORS
330
18E42
102
}
330
18E42
100
AcDbDimAssoc
330
18E41
 90
        3
 70
     0
 71
     0
  1
AcDbOsnapPointRef
 72
    13
331
18DF2
 73
     2
 91
        0
 40
0.0
 10
0.0
 20
0.0
 30
2.000000000000000E+50
 75
     0
  1
AcDbOsnapPointRef
 72
    13
331
18E13
 73
     2
 91
        0
 40
0.0
 10
0.0
 20
0.0
 30
2.000000000000000E+50
 75
     0
  0
DIMASSOC
  5
18E46
102
{ACAD_REACTORS
330
18E45
102
}
330
18E45
100
AcDbDimAssoc
330
18E44
 90
        3
 70
     0
 71
     0
  1
AcDbOsnapPointRef
 72
    13
331
18DA8
 73
     2
 91
        0
 40
0.0
 10
0.0
 20
0.0
 30
2.000000000000000E+50
 75
     0
  1
AcDbOsnapPointRef
 72
    13
331
18DD6
 73
     2
 91
        0
 40
0.0
 10
0.0
 20
0.0
 30
2.000000000000000E+50
 75
     0
  0
LAYOUT
  5
1E
102
{ACAD_XDICTIONARY
360
1907B
102
}
102
{ACAD_REACTORS
330
1A
102
}
330
1A
100
AcDbPlotSettings
  1

  2
none_device
  4

  6

 40
0.0
 41
0.0
 42
0.0
 43
0.0
 44
0.0
 45
0.0
 46
0.0
 47
0.0
 48
0.0
 49
0.0
140
0.0
141
0.0
142
1.0
143
1.0
 70
   688
 72
     0
 73
     0
 74
     5
  7

 75
    16
147
1.0
148
0.0
149
0.0
100
AcDbLayout
  1
Layout1
 70
     1
 71
     1
 10
0.0
 20
0.0
 11
12.0
 21
9.0
 12
0.0
 22
0.0
 32
0.0
 14
1.000000000000000E+20
 24
1.000000000000000E+20
 34
1.000000000000000E+20
 15
-1.000000000000000E+20
 25
-1.000000000000000E+20
 35
-1.000000000000000E+20
146
0.0
 13
0.0
 23
0.0
 33
0.0
 16
1.0
 26
0.0
 36
0.0
 17
0.0
 27
1.0
 37
0.0
 76
     0
330
1B
  0
LAYOUT
  5
26
102
{ACAD_XDICTIONARY
360
1907F
102
}
102
{ACAD_REACTORS
330
1A
102
}
330
1A
100
AcDbPlotSettings
  1

  2
none_device
  4

  6

 40
0.0
 41
0.0
 42
0.0
 43
0.0
 44
0.0
 45
0.0
 46
0.0
 47
0.0
 48
0.0
 49
0.0
140
0.0
141
0.0
142
1.0
143
1.0
 70
   688
 72
     0
 73
     0
 74
     5
  7

 75
    16
147
1.0
148
0.0
149
0.0
100
AcDbLayout
  1
Layout2
 70
     1
 71
     2
 10
0.0
 20
0.0
 11
0.0
 21
0.0
 12
0.0
 22
0.0
 32
0.0
 14
0.0
 24
0.0
 34
0.0
 15
0.0
 25
0.0
 35
0.0
146
0.0
 13
0.0
 23
0.0
 33
0.0
 16
1.0
 26
0.0
 36
0.0
 17
0.0
 27
1.0
 37
0.0
 76
     0
330
23
  0
LAYOUT
  5
22
102
{ACAD_XDICTIONARY
360
1907D
102
}
102
{ACAD_REACTORS
330
1A
102
}
330
1A
100
AcDbPlotSettings
  1

  2
Adobe PDF Converter.pc3
  4
A4
  6

 40
3.174999952316281
 41
3.174999952316281
 42
3.17498779296875
 43
3.175003051757812
 44
297.0318298339844
 45
209.9733276367186
 46
0.0000000000000076
 47
1.630241740247063
 48
246.9897427644609
 49
39.36804549891383
140
544.952097801264
141
244.7492402188181
142
1.0
143
1.025046328645055
 70
  3764
 72
     1
 73
     0
 74
     4
  7
monochrome.ctb
 75
     0
147
0.9755656618192436
148
-246.9897427644609
149
-39.36804549891383
100
AcDbLayout
  1
Model
 70
     1
 71
     0
 10
0.0
 20
0.0
 11
12.0
 21
9.0
 12
0.0
 22
0.0
 32
0.0
 14
1.000000000000000E+20
 24
1.000000000000000E+20
 34
1.000000000000000E+20
 15
-1.000000000000000E+20
 25
-1.000000000000000E+20
 35
-1.000000000000000E+20
146
0.0
 13
0.0
 23
0.0
 33
0.0
 16
1.0
 26
0.0
 36
0.0
 17
0.0
 27
1.0
 37
0.0
 76
     0
330
1F
331
29
1001
ACAD_PSEXT
1000
Adobe PDF Converter.pc3
1000
Adobe PDF Converter
1000
桌面\*.pdf
1000

1070
     0
  0
MATERIAL
  5
4FEE
102
{ACAD_XDICTIONARY
360
4FEF
102
}
102
{ACAD_REACTORS
330
4FE5
102
}
330
4FE5
100
AcDbMaterial
  1
ByBlock
 72
     0
 43
0.0208333333333333
 43
0.0
 43
0.0
 43
0.0
 43
0.0
 43
0.0208333333333333
 43
0.0
 43
0.0
 43
0.0
 43
0.0
 43
1.0
 43
0.0
 43
0.0
 43
0.0
 43
0.0
 43
1.0
 77
     0
 47
0.0208333333333333
 47
0.0
 47
0.0
 47
0.0
 47
0.0
 47
0.0208333333333333
 47
0.0
 47
0.0
 47
0.0
 47
0.0
 47
1.0
 47
0.0
 47
0.0
 47
0.0
 47
0.0
 47
1.0
171
     0
 49
0.0208333333333333
 49
0.0
 49
0.0
 49
0.0
 49
0.0
 49
0.0208333333333333
 49
0.0
 49
0.0
 49
0.0
 49
0.0
 49
1.0
 49
0.0
 49
0.0
 49
0.0
 49
0.0
 49
1.0
175
     0
142
0.0208333333333333
142
0.0
142
0.0
142
0.0
142
0.0
142
0.0208333333333333
142
0.0
142
0.0
142
0.0
142
0.0
142
1.0
142
0.0
142
0.0
142
0.0
142
0.0
142
1.0
179
     0
144
0.0208333333333333
144
0.0
144
0.0
144
0.0
144
0.0
144
0.0208333333333333
144
0.0
144
0.0
144
0.0
144
0.0
144
1.0
144
0.0
144
0.0
144
0.0
144
0.0
144
1.0
147
0.0208333333333333
147
0.0
147
0.0
147
0.0
147
0.0
147
0.0208333333333333
147
0.0
147
0.0
147
0.0
147
0.0
147
1.0
147
0.0
147
0.0
147
0.0
147
0.0
147
1.0
  0
MATERIAL
  5
4FE6
102
{ACAD_XDICTIONARY
360
4FE7
102
}
102
{ACAD_REACTORS
330
4FE5
102
}
330
4FE5
100
AcDbMaterial
  1
ByLayer
 72
     0
 43
0.0208333333333333
 43
0.0
 43
0.0
 43
0.0
 43
0.0
 43
0.0208333333333333
 43
0.0
 43
0.0
 43
0.0
 43
0.0
 43
1.0
 43
0.0
 43
0.0
 43
0.0
 43
0.0
 43
1.0
 77
     0
 47
0.0208333333333333
 47
0.0
 47
0.0
 47
0.0
 47
0.0
 47
0.0208333333333333
 47
0.0
 47
0.0
 47
0.0
 47
0.0
 47
1.0
 47
0.0
 47
0.0
 47
0.0
 47
0.0
 47
1.0
171
     0
 49
0.0208333333333333
 49
0.0
 49
0.0
 49
0.0
 49
0.0
 49
0.0208333333333333
 49
0.0
 49
0.0
 49
0.0
 49
0.0
 49
1.0
 49
0.0
 49
0.0
 49
0.0
 49
0.0
 49
1.0
175
     0
142
0.0208333333333333
142
0.0
142
0.0
142
0.0
142
0.0
142
0.0208333333333333
142
0.0
142
0.0
142
0.0
142
0.0
142
1.0
142
0.0
142
0.0
142
0.0
142
0.0
142
1.0
179
     0
144
0.0208333333333333
144
0.0
144
0.0
144
0.0
144
0.0
144
0.0208333333333333
144
0.0
144
0.0
144
0.0
144
0.0
144
1.0
144
0.0
144
0.0
144
0.0
144
0.0
144
1.0
147
0.0208333333333333
147
0.0
147
0.0
147
0.0
147
0.0
147
0.0208333333333333
147
0.0
147
0.0
147
0.0
147
0.0
147
1.0
147
0.0
147
0.0
147
0.0
147
0.0
147
1.0
  0
MATERIAL
  5
4FF6
102
{ACAD_XDICTIONARY
360
4FF7
102
}
102
{ACAD_REACTORS
330
4FE5
102
}
330
4FE5
100
AcDbMaterial
  1
Global
 72
     0
 43
0.0208333333333333
 43
0.0
 43
0.0
 43
0.0
 43
0.0
 43
0.0208333333333333
 43
0.0
 43
0.0
 43
0.0
 43
0.0
 43
1.0
 43
0.0
 43
0.0
 43
0.0
 43
0.0
 43
1.0
 77
     0
 47
0.0208333333333333
 47
0.0
 47
0.0
 47
0.0
 47
0.0
 47
0.0208333333333333
 47
0.0
 47
0.0
 47
0.0
 47
0.0
 47
1.0
 47
0.0
 47
0.0
 47
0.0
 47
0.0
 47
1.0
171
     0
 49
0.0208333333333333
 49
0.0
 49
0.0
 49
0.0
 49
0.0
 49
0.0208333333333333
 49
0.0
 49
0.0
 49
0.0
 49
0.0
 49
1.0
 49
0.0
 49
0.0
 49
0.0
 49
0.0
 49
1.0
175
     0
142
0.0208333333333333
142
0.0
142
0.0
142
0.0
142
0.0
142
0.0208333333333333
142
0.0
142
0.0
142
0.0
142
0.0
142
1.0
142
0.0
142
0.0
142
0.0
142
0.0
142
1.0
179
     0
144
0.0208333333333333
144
0.0
144
0.0
144
0.0
144
0.0
144
0.0208333333333333
144
0.0
144
0.0
144
0.0
144
0.0
144
1.0
144
0.0
144
0.0
144
0.0
144
0.0
144
1.0
147
0.0208333333333333
147
0.0
147
0.0
147
0.0
147
0.0
147
0.0208333333333333
147
0.0
147
0.0
147
0.0
147
0.0
147
1.0
147
0.0
147
0.0
147
0.0
147
0.0
147
1.0
  0
MLEADERSTYLE
  5
5023
102
{ACAD_REACTORS
330
5022
102
}
330
5022
100
AcDbMLeaderStyle
170
     2
171
     1
172
     0
 90
        2
 40
0.0
 41
0.0
173
     1
 91
-1056964608
340
14
 92
       -2
290
     1
 42
0.09
291
     1
 43
0.36
  3
Standard
 44
0.18
300

342
11
174
     1
178
     6
175
     1
176
     0
 93
-1056964608
 45
0.18
292
     0
297
     0
 46
0.18
 94
-1056964608
 47
1.0
 49
1.0
140
1.0
293
     1
141
0.0
294
     1
177
     0
142
1.0
295
     0
296
     0
143
0.125
1001
ACAD_MLEADERVER
1070
     2
  0
MLINESTYLE
  5
18
102
{ACAD_REACTORS
330
17
102
}
330
17
100
AcDbMlineStyle
  2
STANDARD
 70
     0
  3

 62
   256
 51
90.0
 52
90.0
 71
     2
 49
0.5
 62
   256
  6
BYLAYER
 49
-0.5
 62
   256
  6
BYLAYER
  0
ACDBPLACEHOLDER
  5
F
102
{ACAD_REACTORS
330
E
102
}
330
E
  0
MENTALRAYRENDERSETTINGS
  5
6538
102
{ACAD_REACTORS
330
6537
102
}
330
6537
100
AcDbRenderSettings
 90
        2
  1
中
290
     1
290
     1
290
     1
290
     1
  1

  1
渲染质量好于“低级”。包括纹理过滤并且强制双面处于激活状态。处理中等级反锯齿和 5 反射/折射的光线跟踪深度。
 90
        0
100
AcDbMentalRayRenderSettings
 90
        2
 90
        0
 90
        1
 70
     2
 40
3.0
 40
3.0
 40
0.0500000007450581
 40
0.0500000007450581
 40
0.0500000007450581
 40
0.0500000007450581
 70
     0
290
     0
290
     1
 90
        5
 90
        5
 90
        5
290
     0
 90
      500
290
     0
 40
1.0
 90
    10000
 90
        5
 90
        5
 90
        5
290
     0
 90
      200
290
     0
290
     0
290
     0
 40
0.1
 40
1.0
 40
1500.0
 70
     0
 70
     0
 40
10.0
 70
     0
 70
     0
290
     0
  1

 90
       32
 70
     0
 90
     1048
290
     0
 40
1.0
  0
SCALE
  5
5001
102
{ACAD_REACTORS
330
5000
102
}
330
5000
100
AcDbScale
 70
     0
300
1:1
140
1.0
141
1.0
290
     1
  0
SCALE
  5
5002
102
{ACAD_REACTORS
330
5000
102
}
330
5000
100
AcDbScale
 70
     0
300
1:2
140
1.0
141
2.0
290
     0
  0
SCALE
  5
5003
102
{ACAD_REACTORS
330
5000
102
}
330
5000
100
AcDbScale
 70
     0
300
1:4
140
1.0
141
4.0
290
     0
  0
SCALE
  5
5004
102
{ACAD_REACTORS
330
5000
102
}
330
5000
100
AcDbScale
 70
     0
300
1:5
140
1.0
141
5.0
290
     0
  0
SCALE
  5
5005
102
{ACAD_REACTORS
330
5000
102
}
330
5000
100
AcDbScale
 70
     0
300
1:8
140
1.0
141
8.0
290
     0
  0
SCALE
  5
5006
102
{ACAD_REACTORS
330
5000
102
}
330
5000
100
AcDbScale
 70
     0
300
1:10
140
1.0
141
10.0
290
     0
  0
SCALE
  5
5007
102
{ACAD_REACTORS
330
5000
102
}
330
5000
100
AcDbScale
 70
     0
300
1:16
140
1.0
141
16.0
290
     0
  0
SCALE
  5
5008
102
{ACAD_REACTORS
330
5000
102
}
330
5000
100
AcDbScale
 70
     0
300
1:20
140
1.0
141
20.0
290
     0
  0
SCALE
  5
5009
102
{ACAD_REACTORS
330
5000
102
}
330
5000
100
AcDbScale
 70
     0
300
1:30
140
1.0
141
30.0
290
     0
  0
SCALE
  5
500A
102
{ACAD_REACTORS
330
5000
102
}
330
5000
100
AcDbScale
 70
     0
300
1:40
140
1.0
141
40.0
290
     0
  0
SCALE
  5
500B
102
{ACAD_REACTORS
330
5000
102
}
330
5000
100
AcDbScale
 70
     0
300
1:50
140
1.0
141
50.0
290
     0
  0
SCALE
  5
500C
102
{ACAD_REACTORS
330
5000
102
}
330
5000
100
AcDbScale
 70
     0
300
1:100
140
1.0
141
100.0
290
     0
  0
SCALE
  5
500D
102
{ACAD_REACTORS
330
5000
102
}
330
5000
100
AcDbScale
 70
     0
300
2:1
140
2.0
141
1.0
290
     0
  0
SCALE
  5
500E
102
{ACAD_REACTORS
330
5000
102
}
330
5000
100
AcDbScale
 70
     0
300
4:1
140
4.0
141
1.0
290
     0
  0
SCALE
  5
500F
102
{ACAD_REACTORS
330
5000
102
}
330
5000
100
AcDbScale
 70
     0
300
8:1
140
8.0
141
1.0
290
     0
  0
SCALE
  5
5010
102
{ACAD_REACTORS
330
5000
102
}
330
5000
100
AcDbScale
 70
     0
300
10:1
140
10.0
141
1.0
290
     0
  0
SCALE
  5
5011
102
{ACAD_REACTORS
330
5000
102
}
330
5000
100
AcDbScale
 70
     0
300
100:1
140
100.0
141
1.0
290
     0
  0
SCALE
  5
5012
102
{ACAD_REACTORS
330
5000
102
}
330
5000
100
AcDbScale
 70
     0
300
1/128" = 1'-0"
140
0.0078125
141
12.0
290
     0
  0
SCALE
  5
5013
102
{ACAD_REACTORS
330
5000
102
}
330
5000
100
AcDbScale
 70
     0
300
1/64" = 1'-0"
140
0.015625
141
12.0
290
     0
  0
SCALE
  5
5014
102
{ACAD_REACTORS
330
5000
102
}
330
5000
100
AcDbScale
 70
     0
300
1/32" = 1'-0"
140
0.03125
141
12.0
290
     0
  0
SCALE
  5
5015
102
{ACAD_REACTORS
330
5000
102
}
330
5000
100
AcDbScale
 70
     0
300
1/16" = 1'-0"
140
0.0625
141
12.0
290
     0
  0
SCALE
  5
5016
102
{ACAD_REACTORS
330
5000
102
}
330
5000
100
AcDbScale
 70
     0
300
3/32" = 1'-0"
140
0.09375
141
12.0
290
     0
  0
SCALE
  5
5017
102
{ACAD_REACTORS
330
5000
102
}
330
5000
100
AcDbScale
 70
     0
300
1/8" = 1'-0"
140
0.125
141
12.0
290
     0
  0
SCALE
  5
5018
102
{ACAD_REACTORS
330
5000
102
}
330
5000
100
AcDbScale
 70
     0
300
3/16" = 1'-0"
140
0.1875
141
12.0
290
     0
  0
SCALE
  5
5019
102
{ACAD_REACTORS
330
5000
102
}
330
5000
100
AcDbScale
 70
     0
300
1/4" = 1'-0"
140
0.25
141
12.0
290
     0
  0
SCALE
  5
501A
102
{ACAD_REACTORS
330
5000
102
}
330
5000
100
AcDbScale
 70
     0
300
3/8" = 1'-0"
140
0.375
141
12.0
290
     0
  0
SCALE
  5
501B
102
{ACAD_REACTORS
330
5000
102
}
330
5000
100
AcDbScale
 70
     0
300
1/2" = 1'-0"
140
0.5
141
12.0
290
     0
  0
SCALE
  5
501C
102
{ACAD_REACTORS
330
5000
102
}
330
5000
100
AcDbScale
 70
     0
300
3/4" = 1'-0"
140
0.75
141
12.0
290
     0
  0
SCALE
  5
501D
102
{ACAD_REACTORS
330
5000
102
}
330
5000
100
AcDbScale
 70
     0
300
1" = 1'-0"
140
1.0
141
12.0
290
     0
  0
SCALE
  5
501E
102
{ACAD_REACTORS
330
5000
102
}
330
5000
100
AcDbScale
 70
     0
300
1-1/2" = 1'-0"
140
1.5
141
12.0
290
     0
  0
SCALE
  5
501F
102
{ACAD_REACTORS
330
5000
102
}
330
5000
100
AcDbScale
 70
     0
300
3" = 1'-0"
140
3.0
141
12.0
290
     0
  0
SCALE
  5
5020
102
{ACAD_REACTORS
330
5000
102
}
330
5000
100
AcDbScale
 70
     0
300
6" = 1'-0"
140
6.0
141
12.0
290
     0
  0
SCALE
  5
5021
102
{ACAD_REACTORS
330
5000
102
}
330
5000
100
AcDbScale
 70
     0
300
1'-0" = 1'-0"
140
12.0
141
12.0
290
     0
  0
TABLESTYLE
  5
4FFF
102
{ACAD_XDICTIONARY
360
50D6
102
}
102
{ACAD_REACTORS
330
4FE3
102
}
330
4FE3
100
AcDbTableStyle
  3
Standard
 70
     0
 71
     0
 40
0.06
 41
0.06
280
     0
281
     0
  7
Standard
140
0.18
170
     2
 62
     0
 63
     7
283
     0
274
    -2
284
     1
 64
     0
275
    -2
285
     1
 65
     0
276
    -2
286
     1
 66
     0
277
    -2
287
     1
 67
     0
278
    -2
288
     1
 68
     0
279
    -2
289
     1
 69
     0
  7
Standard
140
0.25
170
     5
 62
     0
 63
     7
283
     0
274
    -2
284
     1
 64
     0
275
    -2
285
     1
 65
     0
276
    -2
286
     1
 66
     0
277
    -2
287
     1
 67
     0
278
    -2
288
     1
 68
     0
279
    -2
289
     1
 69
     0
  7
Standard
140
0.18
170
     5
 62
     0
 63
     7
283
     0
274
    -2
284
     1
 64
     0
275
    -2
285
     1
 65
     0
276
    -2
286
     1
 66
     0
277
    -2
287
     1
 67
     0
278
    -2
288
     1
 68
     0
279
    -2
289
     1
 69
     0
  0
VISUALSTYLE
  5
2F
102
{ACAD_REACTORS
330
2A
102
}
330
2A
100
AcDbVisualStyle
  2
2dWireframe
 70
     4
 71
     0
 72
     2
 73
     0
 90
        0
 40
-0.6
 41
-30.0
 62
     5
 63
     7
 74
     1
 91
        4
 64
     7
 65
   257
 75
     1
175
     1
 42
1.0
 92
        0
 66
   257
 43
1.0
 76
     1
 77
     6
 78
     2
 67
     7
 79
     5
170
     0
171
     0
290
     0
174
     0
 93
        1
 44
0.0
173
     0
291
     0
 45
0.0
1001
ACAD
1000
AcDbSavedByObjectVersion
1070
     0
1000
AcDbSavedByObjectVersion
1070
     0
1000
AcDbSavedByObjectVersion
1070
     0
1000
AcDbSavedByObjectVersion
1070
     0
1000
AcDbSavedByObjectVersion
1070
     0
1000
AcDbSavedByObjectVersion
1070
     0
1000
AcDbSavedByObjectVersion
1070
     0
1000
AcDbSavedByObjectVersion
1070
     0
1000
AcDbSavedByObjectVersion
1070
     0
1000
AcDbSavedByObjectVersion
1070
     0
1000
AcDbSavedByObjectVersion
1070
     0
1000
AcDbSavedByObjectVersion
1070
     0
1000
AcDbSavedByObjectVersion
1070
     0
1000
AcDbSavedByObjectVersion
1070
     0
1000
AcDbSavedByObjectVersion
1070
     0
1000
AcDbSavedByObjectVersion
1070
     0
1000
AcDbSavedByObjectVersion
1070
     0
1000
AcDbSavedByObjectVersion
1070
     0
1000
AcDbSavedByObjectVersion
1070
     0
1000
AcDbSavedByObjectVersion
1070
     0
1000
AcDbSavedByObjectVersion
1070
     0
1000
AcDbSavedByObjectVersion
1070
     0
1000
AcDbSavedByObjectVersion
1070
     0
1000
AcDbSavedByObjectVersion
1070
     0
1000
AcDbSavedByObjectVersion
1070
     0
1000
AcDbSavedByObjectVersion
1070
     0
1000
AcDbSavedByObjectVersion
1070
     0
1000
AcDbSavedByObjectVersion
1070
     0
1000
AcDbSavedByObjectVersion
1070
     0
1000
AcDbSavedByObjectVersion
1070
     0
1000
AcDbSavedByObjectVersion
1070
     0
1000
AcDbSavedByObjectVersion
1070
     0
1000
AcDbSavedByObjectVersion
1070
     0
1000
AcDbSavedByObjectVersion
1070
     0
1000
AcDbSavedByObjectVersion
1070
     0
1000
AcDbSavedByObjectVersion
1070
     0
1000
AcDbSavedByObjectVersion
1070
     0
1000
AcDbSavedByObjectVersion
1070
     0
1000
AcDbSavedByObjectVersion
1070
     0
1000
AcDbSavedByObjectVersion
1070
     0
1000
AcDbSavedByObjectVersion
1070
     0
1000
AcDbSavedByObjectVersion
1070
     0
  0
VISUALSTYLE
  5
31
102
{ACAD_REACTORS
330
2A
102
}
330
2A
100
AcDbVisualStyle
  2
3D Hidden
 70
     6
 71
     1
 72
     2
 73
     2
 90
        0
 40
-0.6
 41
-30.0
 62
     5
 63
     7
 74
     2
 91
        2
 64
     7
 65
   257
 75
     2
175
     1
 42
40.0
 92
        0
 66
   257
 43
1.0
 76
     1
 77
     6
 78
     2
 67
     7
 79
     3
170
     0
171
     0
290
     0
174
     0
 93
        1
 44
0.0
173
     0
291
     0
 45
0.0
1001
ACAD
1000
AcDbSavedByObjectVersion
1070
     0
1000
AcDbSavedByObjectVersion
1070
     0
1000
AcDbSavedByObjectVersion
1070
     0
1000
AcDbSavedByObjectVersion
1070
     0
1000
AcDbSavedByObjectVersion
1070
     0
1000
AcDbSavedByObjectVersion
1070
     0
1000
AcDbSavedByObjectVersion
1070
     0
1000
AcDbSavedByObjectVersion
1070
     0
1000
AcDbSavedByObjectVersion
1070
     0
1000
AcDbSavedByObjectVersion
1070
     0
1000
AcDbSavedByObjectVersion
1070
     0
1000
AcDbSavedByObjectVersion
1070
     0
1000
AcDbSavedByObjectVersion
1070
     0
1000
AcDbSavedByObjectVersion
1070
     0
1000
AcDbSavedByObjectVersion
1070
     0
1000
AcDbSavedByObjectVersion
1070
     0
1000
AcDbSavedByObjectVersion
1070
     0
1000
AcDbSavedByObjectVersion
1070
     0
1000
AcDbSavedByObjectVersion
1070
     0
1000
AcDbSavedByObjectVersion
1070
     0
1000
AcDbSavedByObjectVersion
1070
     0
1000
AcDbSavedByObjectVersion
1070
     0
1000
AcDbSavedByObjectVersion
1070
     0
1000
AcDbSavedByObjectVersion
1070
     0
1000
AcDbSavedByObjectVersion
1070
     0
1000
AcDbSavedByObjectVersion
1070
     0
1000
AcDbSavedByObjectVersion
1070
     0
1000
AcDbSavedByObjectVersion
1070
     0
1000
AcDbSavedByObjectVersion
1070
     0
1000
AcDbSavedByObjectVersion
1070
     0
1000
AcDbSavedByObjectVersion
1070
     0
1000
AcDbSavedByObjectVersion
1070
     0
1000
AcDbSavedByObjectVersion
1070
     0
1000
AcDbSavedByObjectVersion
1070
     0
1000
AcDbSavedByObjectVersion
1070
     0
1000
AcDbSavedByObjectVersion
1070
     0
1000
AcDbSavedByObjectVersion
1070
     0
1000
AcDbSavedByObjectVersion
1070
     0
1000
AcDbSavedByObjectVersion
1070
     0
1000
AcDbSavedByObjectVersion
1070
     0
1000
AcDbSavedByObjectVersion
1070
     0
1000
AcDbSavedByObjectVersion
1070
     0
  0
VISUALSTYLE
  5
30
102
{ACAD_REACTORS
330
2A
102
}
330
2A
100
AcDbVisualStyle
  2
3dWireframe
 70
     5
 71
     0
 72
     2
 73
     0
 90
        0
 40
-0.6
 41
-30.0
 62
     5
 63
     7
 74
     1
 91
        4
 64
     7
 65
   257
 75
     1
175
     1
 42
1.0
 92
        0
 66
   257
 43
1.0
 76
     1
 77
     6
 78
     2
 67
     7
 79
     5
170
     0
171
     0
290
     0
174
     0
 93
        1
 44
0.0
173
     0
291
     0
 45
0.0
1001
ACAD
1000
AcDbSavedByObjectVersion
1070
     0
1000
AcDbSavedByObjectVersion
1070
     0
1000
AcDbSavedByObjectVersion
1070
     0
1000
AcDbSavedByObjectVersion
1070
     0
1000
AcDbSavedByObjectVersion
1070
     0
1000
AcDbSavedByObjectVersion
1070
     0
1000
AcDbSavedByObjectVersion
1070
     0
1000
AcDbSavedByObjectVersion
1070
     0
1000
AcDbSavedByObjectVersion
1070
     0
1000
AcDbSavedByObjectVersion
1070
     0
1000
AcDbSavedByObjectVersion
1070
     0
1000
AcDbSavedByObjectVersion
1070
     0
1000
AcDbSavedByObjectVersion
1070
     0
1000
AcDbSavedByObjectVersion
1070
     0
1000
AcDbSavedByObjectVersion
1070
     0
1000
AcDbSavedByObjectVersion
1070
     0
1000
AcDbSavedByObjectVersion
1070
     0
1000
AcDbSavedByObjectVersion
1070
     0
1000
AcDbSavedByObjectVersion
1070
     0
1000
AcDbSavedByObjectVersion
1070
     0
1000
AcDbSavedByObjectVersion
1070
     0
1000
AcDbSavedByObjectVersion
1070
     0
1000
AcDbSavedByObjectVersion
1070
     0
1000
AcDbSavedByObjectVersion
1070
     0
1000
AcDbSavedByObjectVersion
1070
     0
1000
AcDbSavedByObjectVersion
1070
     0
1000
AcDbSavedByObjectVersion
1070
     0
1000
AcDbSavedByObjectVersion
1070
     0
1000
AcDbSavedByObjectVersion
1070
     0
1000
AcDbSavedByObjectVersion
1070
     0
1000
AcDbSavedByObjectVersion
1070
     0
1000
AcDbSavedByObjectVersion
1070
     0
1000
AcDbSavedByObjectVersion
1070
     0
1000
AcDbSavedByObjectVersion
1070
     0
1000
AcDbSavedByObjectVersion
1070
     0
1000
AcDbSavedByObjectVersion
1070
     0
1000
AcDbSavedByObjectVersion
1070
     0
1000
AcDbSavedByObjectVersion
1070
     0
1000
AcDbSavedByObjectVersion
1070
     0
1000
AcDbSavedByObjectVersion
1070
     0
1000
AcDbSavedByObjectVersion
1070
     0
1000
AcDbSavedByObjectVersion
1070
     0
  0
VISUALSTYLE
  5
32
102
{ACAD_REACTORS
330
2A
102
}
330
2A
100
AcDbVisualStyle
  2
Basic
 70
     7
 71
     1
 72
     0
 73
     1
 90
        0
 40
-0.6
 41
-30.0
 62
     5
 63
     7
 74
     0
 91
        4
 64
     7
 65
   257
 75
     1
175
     1
 42
1.0
 92
        8
 66
     7
 43
1.0
 76
     1
 77
     6
 78
     2
 67
     7
 79
     5
170
     0
171
     0
290
     0
174
     0
 93
        1
 44
0.0
173
     0
291
     1
 45
0.0
1001
ACAD
1000
AcDbSavedByObjectVersion
1070
     0
1000
AcDbSavedByObjectVersion
1070
     0
1000
AcDbSavedByObjectVersion
1070
     0
1000
AcDbSavedByObjectVersion
1070
     0
1000
AcDbSavedByObjectVersion
1070
     0
1000
AcDbSavedByObjectVersion
1070
     0
1000
AcDbSavedByObjectVersion
1070
     0
1000
AcDbSavedByObjectVersion
1070
     0
1000
AcDbSavedByObjectVersion
1070
     0
1000
AcDbSavedByObjectVersion
1070
     0
1000
AcDbSavedByObjectVersion
1070
     0
1000
AcDbSavedByObjectVersion
1070
     0
1000
AcDbSavedByObjectVersion
1070
     0
1000
AcDbSavedByObjectVersion
1070
     0
1000
AcDbSavedByObjectVersion
1070
     0
1000
AcDbSavedByObjectVersion
1070
     0
1000
AcDbSavedByObjectVersion
1070
     0
1000
AcDbSavedByObjectVersion
1070
     0
1000
AcDbSavedByObjectVersion
1070
     0
1000
AcDbSavedByObjectVersion
1070
     0
1000
AcDbSavedByObjectVersion
1070
     0
1000
AcDbSavedByObjectVersion
1070
     0
1000
AcDbSavedByObjectVersion
1070
     0
1000
AcDbSavedByObjectVersion
1070
     0
1000
AcDbSavedByObjectVersion
1070
     0
1000
AcDbSavedByObjectVersion
1070
     0
1000
AcDbSavedByObjectVersion
1070
     0
1000
AcDbSavedByObjectVersion
1070
     0
1000
AcDbSavedByObjectVersion
1070
     0
1000
AcDbSavedByObjectVersion
1070
     0
1000
AcDbSavedByObjectVersion
1070
     0
1000
AcDbSavedByObjectVersion
1070
     0
1000
AcDbSavedByObjectVersion
1070
     0
1000
AcDbSavedByObjectVersion
1070
     0
1000
AcDbSavedByObjectVersion
1070
     0
1000
AcDbSavedByObjectVersion
1070
     0
1000
AcDbSavedByObjectVersion
1070
     0
1000
AcDbSavedByObjectVersion
1070
     0
1000
AcDbSavedByObjectVersion
1070
     0
1000
AcDbSavedByObjectVersion
1070
     0
1000
AcDbSavedByObjectVersion
1070
     0
1000
AcDbSavedByObjectVersion
1070
     0
  0
VISUALSTYLE
  5
36
102
{ACAD_REACTORS
330
2A
102
}
330
2A
100
AcDbVisualStyle
  2
Brighten
 70
    12
 71
     2
 72
     2
 73
     0
 90
        0
 40
-0.6
 41
-30.0
 62
     5
 63
     7
 74
     1
 91
        4
 64
     7
 65
   257
 75
     1
175
     1
 42
1.0
 92
        8
 66
     7
 43
1.0
 76
     1
 77
     6
 78
     2
 67
     7
 79
     5
170
     0
171
     0
290
     0
174
     0
 93
        1
 44
50.0
173
     0
291
     1
 45
0.0
1001
ACAD
1000
AcDbSavedByObjectVersion
1070
     0
1000
AcDbSavedByObjectVersion
1070
     0
1000
AcDbSavedByObjectVersion
1070
     0
1000
AcDbSavedByObjectVersion
1070
     0
1000
AcDbSavedByObjectVersion
1070
     0
1000
AcDbSavedByObjectVersion
1070
     0
1000
AcDbSavedByObjectVersion
1070
     0
1000
AcDbSavedByObjectVersion
1070
     0
1000
AcDbSavedByObjectVersion
1070
     0
1000
AcDbSavedByObjectVersion
1070
     0
1000
AcDbSavedByObjectVersion
1070
     0
1000
AcDbSavedByObjectVersion
1070
     0
1000
AcDbSavedByObjectVersion
1070
     0
1000
AcDbSavedByObjectVersion
1070
     0
1000
AcDbSavedByObjectVersion
1070
     0
1000
AcDbSavedByObjectVersion
1070
     0
1000
AcDbSavedByObjectVersion
1070
     0
1000
AcDbSavedByObjectVersion
1070
     0
1000
AcDbSavedByObjectVersion
1070
     0
1000
AcDbSavedByObjectVersion
1070
     0
1000
AcDbSavedByObjectVersion
1070
     0
1000
AcDbSavedByObjectVersion
1070
     0
1000
AcDbSavedByObjectVersion
1070
     0
1000
AcDbSavedByObjectVersion
1070
     0
1000
AcDbSavedByObjectVersion
1070
     0
1000
AcDbSavedByObjectVersion
1070
     0
1000
AcDbSavedByObjectVersion
1070
     0
1000
AcDbSavedByObjectVersion
1070
     0
1000
AcDbSavedByObjectVersion
1070
     0
1000
AcDbSavedByObjectVersion
1070
     0
1000
AcDbSavedByObjectVersion
1070
     0
1000
AcDbSavedByObjectVersion
1070
     0
1000
AcDbSavedByObjectVersion
1070
     0
1000
AcDbSavedByObjectVersion
1070
     0
1000
AcDbSavedByObjectVersion
1070
     0
1000
AcDbSavedByObjectVersion
1070
     0
1000
AcDbSavedByObjectVersion
1070
     0
1000
AcDbSavedByObjectVersion
1070
     0
1000
AcDbSavedByObjectVersion
1070
     0
1000
AcDbSavedByObjectVersion
1070
     0
1000
AcDbSavedByObjectVersion
1070
     0
1000
AcDbSavedByObjectVersion
1070
     0
  0
VISUALSTYLE
  5
3A
102
{ACAD_REACTORS
330
2A
102
}
330
2A
100
AcDbVisualStyle
  2
ColorChange
 70
    16
 71
     2
 72
     2
 73
     3
 90
        0
 40
-0.6
 41
-30.0
 62
     5
 63
     8
 74
     1
 91
        4
 64
     7
 65
   257
 75
     1
175
     1
 42
1.0
 92
        8
 66
     8
 43
1.0
 76
     1
 77
     6
 78
     2
 67
     7
 79
     5
170
     0
171
     0
290
     0
174
     0
 93
        1
 44
0.0
173
     0
291
     1
 45
0.0
1001
ACAD
1000
AcDbSavedByObjectVersion
1070
     0
1000
AcDbSavedByObjectVersion
1070
     0
1000
AcDbSavedByObjectVersion
1070
     0
1000
AcDbSavedByObjectVersion
1070
     0
1000
AcDbSavedByObjectVersion
1070
     0
1000
AcDbSavedByObjectVersion
1070
     0
1000
AcDbSavedByObjectVersion
1070
     0
1000
AcDbSavedByObjectVersion
1070
     0
1000
AcDbSavedByObjectVersion
1070
     0
1000
AcDbSavedByObjectVersion
1070
     0
1000
AcDbSavedByObjectVersion
1070
     0
1000
AcDbSavedByObjectVersion
1070
     0
1000
AcDbSavedByObjectVersion
1070
     0
1000
AcDbSavedByObjectVersion
1070
     0
1000
AcDbSavedByObjectVersion
1070
     0
1000
AcDbSavedByObjectVersion
1070
     0
1000
AcDbSavedByObjectVersion
1070
     0
1000
AcDbSavedByObjectVersion
1070
     0
1000
AcDbSavedByObjectVersion
1070
     0
1000
AcDbSavedByObjectVersion
1070
     0
1000
AcDbSavedByObjectVersion
1070
     0
1000
AcDbSavedByObjectVersion
1070
     0
1000
AcDbSavedByObjectVersion
1070
     0
1000
AcDbSavedByObjectVersion
1070
     0
1000
AcDbSavedByObjectVersion
1070
     0
1000
AcDbSavedByObjectVersion
1070
     0
1000
AcDbSavedByObjectVersion
1070
     0
1000
AcDbSavedByObjectVersion
1070
     0
1000
AcDbSavedByObjectVersion
1070
     0
1000
AcDbSavedByObjectVersion
1070
     0
1000
AcDbSavedByObjectVersion
1070
     0
1000
AcDbSavedByObjectVersion
1070
     0
1000
AcDbSavedByObjectVersion
1070
     0
1000
AcDbSavedByObjectVersion
1070
     0
1000
AcDbSavedByObjectVersion
1070
     0
1000
AcDbSavedByObjectVersion
1070
     0
1000
AcDbSavedByObjectVersion
1070
     0
1000
AcDbSavedByObjectVersion
1070
     0
1000
AcDbSavedByObjectVersion
1070
     0
1000
AcDbSavedByObjectVersion
1070
     0
1000
AcDbSavedByObjectVersion
1070
     0
1000
AcDbSavedByObjectVersion
1070
     0
  0
VISUALSTYLE
  5
34
102
{ACAD_REACTORS
330
2A
102
}
330
2A
100
AcDbVisualStyle
  2
Conceptual
 70
     9
 71
     3
 72
     2
 73
     0
 90
        0
 40
-0.6
 41
-30.0
 62
     5
 63
     7
 74
     2
 91
        2
 64
     7
 65
   257
 75
     1
175
     1
 42
40.0
 92
        8
 66
     7
 43
1.0
 76
     1
 77
     6
 78
     2
 67
     7
 79
     3
170
     0
171
     0
290
     0
174
     0
 93
        1
 44
0.0
173
     0
291
     0
 45
0.0
1001
ACAD
1000
AcDbSavedByObjectVersion
1070
     0
1000
AcDbSavedByObjectVersion
1070
     0
1000
AcDbSavedByObjectVersion
1070
     0
1000
AcDbSavedByObjectVersion
1070
     0
1000
AcDbSavedByObjectVersion
1070
     0
1000
AcDbSavedByObjectVersion
1070
     0
1000
AcDbSavedByObjectVersion
1070
     0
1000
AcDbSavedByObjectVersion
1070
     0
1000
AcDbSavedByObjectVersion
1070
     0
1000
AcDbSavedByObjectVersion
1070
     0
1000
AcDbSavedByObjectVersion
1070
     0
1000
AcDbSavedByObjectVersion
1070
     0
1000
AcDbSavedByObjectVersion
1070
     0
1000
AcDbSavedByObjectVersion
1070
     0
1000
AcDbSavedByObjectVersion
1070
     0
1000
AcDbSavedByObjectVersion
1070
     0
1000
AcDbSavedByObjectVersion
1070
     0
1000
AcDbSavedByObjectVersion
1070
     0
1000
AcDbSavedByObjectVersion
1070
     0
1000
AcDbSavedByObjectVersion
1070
     0
1000
AcDbSavedByObjectVersion
1070
     0
1000
AcDbSavedByObjectVersion
1070
     0
1000
AcDbSavedByObjectVersion
1070
     0
1000
AcDbSavedByObjectVersion
1070
     0
1000
AcDbSavedByObjectVersion
1070
     0
1000
AcDbSavedByObjectVersion
1070
     0
1000
AcDbSavedByObjectVersion
1070
     0
1000
AcDbSavedByObjectVersion
1070
     0
1000
AcDbSavedByObjectVersion
1070
     0
1000
AcDbSavedByObjectVersion
1070
     0
1000
AcDbSavedByObjectVersion
1070
     0
1000
AcDbSavedByObjectVersion
1070
     0
1000
AcDbSavedByObjectVersion
1070
     0
1000
AcDbSavedByObjectVersion
1070
     0
1000
AcDbSavedByObjectVersion
1070
     0
1000
AcDbSavedByObjectVersion
1070
     0
1000
AcDbSavedByObjectVersion
1070
     0
1000
AcDbSavedByObjectVersion
1070
     0
1000
AcDbSavedByObjectVersion
1070
     0
1000
AcDbSavedByObjectVersion
1070
     0
1000
AcDbSavedByObjectVersion
1070
     0
1000
AcDbSavedByObjectVersion
1070
     0
  0
VISUALSTYLE
  5
35
102
{ACAD_REACTORS
330
2A
102
}
330
2A
100
AcDbVisualStyle
  2
Dim
 70
    11
 71
     2
 72
     2
 73
     0
 90
        0
 40
-0.6
 41
-30.0
 62
     5
 63
     7
 74
     1
 91
        4
 64
     7
 65
   257
 75
     1
175
     1
 42
1.0
 92
        8
 66
     7
 43
1.0
 76
     1
 77
     6
 78
     2
 67
     7
 79
     5
170
     0
171
     0
290
     0
174
     0
 93
        1
 44
-50.0
173
     0
291
     1
 45
0.0
1001
ACAD
1000
AcDbSavedByObjectVersion
1070
     0
1000
AcDbSavedByObjectVersion
1070
     0
1000
AcDbSavedByObjectVersion
1070
     0
1000
AcDbSavedByObjectVersion
1070
     0
1000
AcDbSavedByObjectVersion
1070
     0
1000
AcDbSavedByObjectVersion
1070
     0
1000
AcDbSavedByObjectVersion
1070
     0
1000
AcDbSavedByObjectVersion
1070
     0
1000
AcDbSavedByObjectVersion
1070
     0
1000
AcDbSavedByObjectVersion
1070
     0
1000
AcDbSavedByObjectVersion
1070
     0
1000
AcDbSavedByObjectVersion
1070
     0
1000
AcDbSavedByObjectVersion
1070
     0
1000
AcDbSavedByObjectVersion
1070
     0
1000
AcDbSavedByObjectVersion
1070
     0
1000
AcDbSavedByObjectVersion
1070
     0
1000
AcDbSavedByObjectVersion
1070
     0
1000
AcDbSavedByObjectVersion
1070
     0
1000
AcDbSavedByObjectVersion
1070
     0
1000
AcDbSavedByObjectVersion
1070
     0
1000
AcDbSavedByObjectVersion
1070
     0
1000
AcDbSavedByObjectVersion
1070
     0
1000
AcDbSavedByObjectVersion
1070
     0
1000
AcDbSavedByObjectVersion
1070
     0
1000
AcDbSavedByObjectVersion
1070
     0
1000
AcDbSavedByObjectVersion
1070
     0
1000
AcDbSavedByObjectVersion
1070
     0
1000
AcDbSavedByObjectVersion
1070
     0
1000
AcDbSavedByObjectVersion
1070
     0
1000
AcDbSavedByObjectVersion
1070
     0
1000
AcDbSavedByObjectVersion
1070
     0
1000
AcDbSavedByObjectVersion
1070
     0
1000
AcDbSavedByObjectVersion
1070
     0
1000
AcDbSavedByObjectVersion
1070
     0
1000
AcDbSavedByObjectVersion
1070
     0
1000
AcDbSavedByObjectVersion
1070
     0
1000
AcDbSavedByObjectVersion
1070
     0
1000
AcDbSavedByObjectVersion
1070
     0
1000
AcDbSavedByObjectVersion
1070
     0
1000
AcDbSavedByObjectVersion
1070
     0
1000
AcDbSavedByObjectVersion
1070
     0
1000
AcDbSavedByObjectVersion
1070
     0
  0
VISUALSTYLE
  5
39
102
{ACAD_REACTORS
330
2A
102
}
330
2A
100
AcDbVisualStyle
  2
Facepattern
 70
    15
 71
     2
 72
     2
 73
     0
 90
        0
 40
-0.6
 41
-30.0
 62
     5
 63
     7
 74
     1
 91
        4
 64
     7
 65
   257
 75
     1
175
     1
 42
1.0
 92
        8
 66
     7
 43
1.0
 76
     1
 77
     6
 78
     2
 67
     7
 79
     5
170
     0
171
     0
290
     0
174
     0
 93
        1
 44
0.0
173
     0
291
     1
 45
0.0
1001
ACAD
1000
AcDbSavedByObjectVersion
1070
     0
1000
AcDbSavedByObjectVersion
1070
     0
1000
AcDbSavedByObjectVersion
1070
     0
1000
AcDbSavedByObjectVersion
1070
     0
1000
AcDbSavedByObjectVersion
1070
     0
1000
AcDbSavedByObjectVersion
1070
     0
1000
AcDbSavedByObjectVersion
1070
     0
1000
AcDbSavedByObjectVersion
1070
     0
1000
AcDbSavedByObjectVersion
1070
     0
1000
AcDbSavedByObjectVersion
1070
     0
1000
AcDbSavedByObjectVersion
1070
     0
1000
AcDbSavedByObjectVersion
1070
     0
1000
AcDbSavedByObjectVersion
1070
     0
1000
AcDbSavedByObjectVersion
1070
     0
1000
AcDbSavedByObjectVersion
1070
     0
1000
AcDbSavedByObjectVersion
1070
     0
1000
AcDbSavedByObjectVersion
1070
     0
1000
AcDbSavedByObjectVersion
1070
     0
1000
AcDbSavedByObjectVersion
1070
     0
1000
AcDbSavedByObjectVersion
1070
     0
1000
AcDbSavedByObjectVersion
1070
     0
1000
AcDbSavedByObjectVersion
1070
     0
1000
AcDbSavedByObjectVersion
1070
     0
1000
AcDbSavedByObjectVersion
1070
     0
1000
AcDbSavedByObjectVersion
1070
     0
1000
AcDbSavedByObjectVersion
1070
     0
1000
AcDbSavedByObjectVersion
1070
     0
1000
AcDbSavedByObjectVersion
1070
     0
1000
AcDbSavedByObjectVersion
1070
     0
1000
AcDbSavedByObjectVersion
1070
     0
1000
AcDbSavedByObjectVersion
1070
     0
1000
AcDbSavedByObjectVersion
1070
     0
1000
AcDbSavedByObjectVersion
1070
     0
1000
AcDbSavedByObjectVersion
1070
     0
1000
AcDbSavedByObjectVersion
1070
     0
1000
AcDbSavedByObjectVersion
1070
     0
1000
AcDbSavedByObjectVersion
1070
     0
1000
AcDbSavedByObjectVersion
1070
     0
1000
AcDbSavedByObjectVersion
1070
     0
1000
AcDbSavedByObjectVersion
1070
     0
1000
AcDbSavedByObjectVersion
1070
     0
1000
AcDbSavedByObjectVersion
1070
     0
  0
VISUALSTYLE
  5
2B
102
{ACAD_REACTORS
330
2A
102
}
330
2A
100
AcDbVisualStyle
  2
Flat
 70
     0
 71
     2
 72
     1
 73
     1
 90
        2
 40
-0.6
 41
30.0
 62
     5
 63
     7
 74
     0
 91
        4
 64
     7
 65
   257
 75
     1
175
     1
 42
1.0
 92
        8
 66
     7
 43
1.0
 76
     1
 77
     6
 78
     2
 67
     7
 79
     5
170
     0
171
     0
290
     0
174
     0
 93
       13
 44
0.0
173
     0
291
     1
 45
0.0
1001
ACAD
1000
AcDbSavedByObjectVersion
1070
     0
1000
AcDbSavedByObjectVersion
1070
     0
1000
AcDbSavedByObjectVersion
1070
     0
1000
AcDbSavedByObjectVersion
1070
     0
1000
AcDbSavedByObjectVersion
1070
     0
1000
AcDbSavedByObjectVersion
1070
     0
1000
AcDbSavedByObjectVersion
1070
     0
1000
AcDbSavedByObjectVersion
1070
     0
1000
AcDbSavedByObjectVersion
1070
     0
1000
AcDbSavedByObjectVersion
1070
     0
1000
AcDbSavedByObjectVersion
1070
     0
1000
AcDbSavedByObjectVersion
1070
     0
1000
AcDbSavedByObjectVersion
1070
     0
1000
AcDbSavedByObjectVersion
1070
     0
1000
AcDbSavedByObjectVersion
1070
     0
1000
AcDbSavedByObjectVersion
1070
     0
1000
AcDbSavedByObjectVersion
1070
     0
1000
AcDbSavedByObjectVersion
1070
     0
1000
AcDbSavedByObjectVersion
1070
     0
1000
AcDbSavedByObjectVersion
1070
     0
1000
AcDbSavedByObjectVersion
1070
     0
1000
AcDbSavedByObjectVersion
1070
     0
1000
AcDbSavedByObjectVersion
1070
     0
1000
AcDbSavedByObjectVersion
1070
     0
1000
AcDbSavedByObjectVersion
1070
     0
1000
AcDbSavedByObjectVersion
1070
     0
1000
AcDbSavedByObjectVersion
1070
     0
1000
AcDbSavedByObjectVersion
1070
     0
1000
AcDbSavedByObjectVersion
1070
     0
1000
AcDbSavedByObjectVersion
1070
     0
1000
AcDbSavedByObjectVersion
1070
     0
1000
AcDbSavedByObjectVersion
1070
     0
1000
AcDbSavedByObjectVersion
1070
     0
1000
AcDbSavedByObjectVersion
1070
     0
1000
AcDbSavedByObjectVersion
1070
     0
1000
AcDbSavedByObjectVersion
1070
     0
1000
AcDbSavedByObjectVersion
1070
     0
1000
AcDbSavedByObjectVersion
1070
     0
1000
AcDbSavedByObjectVersion
1070
     0
1000
AcDbSavedByObjectVersion
1070
     0
1000
AcDbSavedByObjectVersion
1070
     0
1000
AcDbSavedByObjectVersion
1070
     0
  0
VISUALSTYLE
  5
2C
102
{ACAD_REACTORS
330
2A
102
}
330
2A
100
AcDbVisualStyle
  2
FlatWithEdges
 70
     1
 71
     2
 72
     1
 73
     1
 90
        2
 40
-0.6
 41
30.0
 62
     5
 63
     7
 74
     1
 91
        4
 64
     7
 65
   257
 75
     1
175
     1
 42
1.0
 92
        0
 66
   257
 43
1.0
 76
     1
 77
     6
 78
     2
 67
     7
 79
     5
170
     0
171
     0
290
     0
174
     0
 93
       13
 44
0.0
173
     0
291
     1
 45
0.0
1001
ACAD
1000
AcDbSavedByObjectVersion
1070
     0
1000
AcDbSavedByObjectVersion
1070
     0
1000
AcDbSavedByObjectVersion
1070
     0
1000
AcDbSavedByObjectVersion
1070
     0
1000
AcDbSavedByObjectVersion
1070
     0
1000
AcDbSavedByObjectVersion
1070
     0
1000
AcDbSavedByObjectVersion
1070
     0
1000
AcDbSavedByObjectVersion
1070
     0
1000
AcDbSavedByObjectVersion
1070
     0
1000
AcDbSavedByObjectVersion
1070
     0
1000
AcDbSavedByObjectVersion
1070
     0
1000
AcDbSavedByObjectVersion
1070
     0
1000
AcDbSavedByObjectVersion
1070
     0
1000
AcDbSavedByObjectVersion
1070
     0
1000
AcDbSavedByObjectVersion
1070
     0
1000
AcDbSavedByObjectVersion
1070
     0
1000
AcDbSavedByObjectVersion
1070
     0
1000
AcDbSavedByObjectVersion
1070
     0
1000
AcDbSavedByObjectVersion
1070
     0
1000
AcDbSavedByObjectVersion
1070
     0
1000
AcDbSavedByObjectVersion
1070
     0
1000
AcDbSavedByObjectVersion
1070
     0
1000
AcDbSavedByObjectVersion
1070
     0
1000
AcDbSavedByObjectVersion
1070
     0
1000
AcDbSavedByObjectVersion
1070
     0
1000
AcDbSavedByObjectVersion
1070
     0
1000
AcDbSavedByObjectVersion
1070
     0
1000
AcDbSavedByObjectVersion
1070
     0
1000
AcDbSavedByObjectVersion
1070
     0
1000
AcDbSavedByObjectVersion
1070
     0
1000
AcDbSavedByObjectVersion
1070
     0
1000
AcDbSavedByObjectVersion
1070
     0
1000
AcDbSavedByObjectVersion
1070
     0
1000
AcDbSavedByObjectVersion
1070
     0
1000
AcDbSavedByObjectVersion
1070
     0
1000
AcDbSavedByObjectVersion
1070
     0
1000
AcDbSavedByObjectVersion
1070
     0
1000
AcDbSavedByObjectVersion
1070
     0
1000
AcDbSavedByObjectVersion
1070
     0
1000
AcDbSavedByObjectVersion
1070
     0
1000
AcDbSavedByObjectVersion
1070
     0
1000
AcDbSavedByObjectVersion
1070
     0
  0
VISUALSTYLE
  5
2D
102
{ACAD_REACTORS
330
2A
102
}
330
2A
100
AcDbVisualStyle
  2
Gouraud
 70
     2
 71
     2
 72
     2
 73
     1
 90
        2
 40
-0.6
 41
30.0
 62
     5
 63
     7
 74
     0
 91
        4
 64
     7
 65
   257
 75
     1
175
     1
 42
1.0
 92
        0
 66
     7
 43
1.0
 76
     1
 77
     6
 78
     2
 67
     7
 79
     5
170
     0
171
     0
290
     0
174
     0
 93
       13
 44
0.0
173
     0
291
     1
 45
0.0
1001
ACAD
1000
AcDbSavedByObjectVersion
1070
     0
1000
AcDbSavedByObjectVersion
1070
     0
1000
AcDbSavedByObjectVersion
1070
     0
1000
AcDbSavedByObjectVersion
1070
     0
1000
AcDbSavedByObjectVersion
1070
     0
1000
AcDbSavedByObjectVersion
1070
     0
1000
AcDbSavedByObjectVersion
1070
     0
1000
AcDbSavedByObjectVersion
1070
     0
1000
AcDbSavedByObjectVersion
1070
     0
1000
AcDbSavedByObjectVersion
1070
     0
1000
AcDbSavedByObjectVersion
1070
     0
1000
AcDbSavedByObjectVersion
1070
     0
1000
AcDbSavedByObjectVersion
1070
     0
1000
AcDbSavedByObjectVersion
1070
     0
1000
AcDbSavedByObjectVersion
1070
     0
1000
AcDbSavedByObjectVersion
1070
     0
1000
AcDbSavedByObjectVersion
1070
     0
1000
AcDbSavedByObjectVersion
1070
     0
1000
AcDbSavedByObjectVersion
1070
     0
1000
AcDbSavedByObjectVersion
1070
     0
1000
AcDbSavedByObjectVersion
1070
     0
1000
AcDbSavedByObjectVersion
1070
     0
1000
AcDbSavedByObjectVersion
1070
     0
1000
AcDbSavedByObjectVersion
1070
     0
1000
AcDbSavedByObjectVersion
1070
     0
1000
AcDbSavedByObjectVersion
1070
     0
1000
AcDbSavedByObjectVersion
1070
     0
1000
AcDbSavedByObjectVersion
1070
     0
1000
AcDbSavedByObjectVersion
1070
     0
1000
AcDbSavedByObjectVersion
1070
     0
1000
AcDbSavedByObjectVersion
1070
     0
1000
AcDbSavedByObjectVersion
1070
     0
1000
AcDbSavedByObjectVersion
1070
     0
1000
AcDbSavedByObjectVersion
1070
     0
1000
AcDbSavedByObjectVersion
1070
     0
1000
AcDbSavedByObjectVersion
1070
     0
1000
AcDbSavedByObjectVersion
1070
     0
1000
AcDbSavedByObjectVersion
1070
     0
1000
AcDbSavedByObjectVersion
1070
     0
1000
AcDbSavedByObjectVersion
1070
     0
1000
AcDbSavedByObjectVersion
1070
     0
1000
AcDbSavedByObjectVersion
1070
     0
  0
VISUALSTYLE
  5
2E
102
{ACAD_REACTORS
330
2A
102
}
330
2A
100
AcDbVisualStyle
  2
GouraudWithEdges
 70
     3
 71
     2
 72
     2
 73
     1
 90
        2
 40
-0.6
 41
30.0
 62
     5
 63
     7
 74
     1
 91
        4
 64
     7
 65
   257
 75
     1
175
     1
 42
1.0
 92
        0
 66
   257
 43
1.0
 76
     1
 77
     6
 78
     2
 67
     7
 79
     5
170
     0
171
     0
290
     0
174
     0
 93
       13
 44
0.0
173
     0
291
     1
 45
0.0
1001
ACAD
1000
AcDbSavedByObjectVersion
1070
     0
1000
AcDbSavedByObjectVersion
1070
     0
1000
AcDbSavedByObjectVersion
1070
     0
1000
AcDbSavedByObjectVersion
1070
     0
1000
AcDbSavedByObjectVersion
1070
     0
1000
AcDbSavedByObjectVersion
1070
     0
1000
AcDbSavedByObjectVersion
1070
     0
1000
AcDbSavedByObjectVersion
1070
     0
1000
AcDbSavedByObjectVersion
1070
     0
1000
AcDbSavedByObjectVersion
1070
     0
1000
AcDbSavedByObjectVersion
1070
     0
1000
AcDbSavedByObjectVersion
1070
     0
1000
AcDbSavedByObjectVersion
1070
     0
1000
AcDbSavedByObjectVersion
1070
     0
1000
AcDbSavedByObjectVersion
1070
     0
1000
AcDbSavedByObjectVersion
1070
     0
1000
AcDbSavedByObjectVersion
1070
     0
1000
AcDbSavedByObjectVersion
1070
     0
1000
AcDbSavedByObjectVersion
1070
     0
1000
AcDbSavedByObjectVersion
1070
     0
1000
AcDbSavedByObjectVersion
1070
     0
1000
AcDbSavedByObjectVersion
1070
     0
1000
AcDbSavedByObjectVersion
1070
     0
1000
AcDbSavedByObjectVersion
1070
     0
1000
AcDbSavedByObjectVersion
1070
     0
1000
AcDbSavedByObjectVersion
1070
     0
1000
AcDbSavedByObjectVersion
1070
     0
1000
AcDbSavedByObjectVersion
1070
     0
1000
AcDbSavedByObjectVersion
1070
     0
1000
AcDbSavedByObjectVersion
1070
     0
1000
AcDbSavedByObjectVersion
1070
     0
1000
AcDbSavedByObjectVersion
1070
     0
1000
AcDbSavedByObjectVersion
1070
     0
1000
AcDbSavedByObjectVersion
1070
     0
1000
AcDbSavedByObjectVersion
1070
     0
1000
AcDbSavedByObjectVersion
1070
     0
1000
AcDbSavedByObjectVersion
1070
     0
1000
AcDbSavedByObjectVersion
1070
     0
1000
AcDbSavedByObjectVersion
1070
     0
1000
AcDbSavedByObjectVersion
1070
     0
1000
AcDbSavedByObjectVersion
1070
     0
1000
AcDbSavedByObjectVersion
1070
     0
  0
VISUALSTYLE
  5
38
102
{ACAD_REACTORS
330
2A
102
}
330
2A
100
AcDbVisualStyle
  2
Linepattern
 70
    14
 71
     2
 72
     2
 73
     0
 90
        0
 40
-0.6
 41
-30.0
 62
     5
 63
     7
 74
     1
 91
        4
 64
     7
 65
   257
 75
     7
175
     7
 42
1.0
 92
        8
 66
     7
 43
1.0
 76
     1
 77
     6
 78
     2
 67
     7
 79
     5
170
     0
171
     0
290
     0
174
     0
 93
        1
 44
0.0
173
     0
291
     1
 45
0.0
1001
ACAD
1000
AcDbSavedByObjectVersion
1070
     0
1000
AcDbSavedByObjectVersion
1070
     0
1000
AcDbSavedByObjectVersion
1070
     0
1000
AcDbSavedByObjectVersion
1070
     0
1000
AcDbSavedByObjectVersion
1070
     0
1000
AcDbSavedByObjectVersion
1070
     0
1000
AcDbSavedByObjectVersion
1070
     0
1000
AcDbSavedByObjectVersion
1070
     0
1000
AcDbSavedByObjectVersion
1070
     0
1000
AcDbSavedByObjectVersion
1070
     0
1000
AcDbSavedByObjectVersion
1070
     0
1000
AcDbSavedByObjectVersion
1070
     0
1000
AcDbSavedByObjectVersion
1070
     0
1000
AcDbSavedByObjectVersion
1070
     0
1000
AcDbSavedByObjectVersion
1070
     0
1000
AcDbSavedByObjectVersion
1070
     0
1000
AcDbSavedByObjectVersion
1070
     0
1000
AcDbSavedByObjectVersion
1070
     0
1000
AcDbSavedByObjectVersion
1070
     0
1000
AcDbSavedByObjectVersion
1070
     0
1000
AcDbSavedByObjectVersion
1070
     0
1000
AcDbSavedByObjectVersion
1070
     0
1000
AcDbSavedByObjectVersion
1070
     0
1000
AcDbSavedByObjectVersion
1070
     0
1000
AcDbSavedByObjectVersion
1070
     0
1000
AcDbSavedByObjectVersion
1070
     0
1000
AcDbSavedByObjectVersion
1070
     0
1000
AcDbSavedByObjectVersion
1070
     0
1000
AcDbSavedByObjectVersion
1070
     0
1000
AcDbSavedByObjectVersion
1070
     0
1000
AcDbSavedByObjectVersion
1070
     0
1000
AcDbSavedByObjectVersion
1070
     0
1000
AcDbSavedByObjectVersion
1070
     0
1000
AcDbSavedByObjectVersion
1070
     0
1000
AcDbSavedByObjectVersion
1070
     0
1000
AcDbSavedByObjectVersion
1070
     0
1000
AcDbSavedByObjectVersion
1070
     0
1000
AcDbSavedByObjectVersion
1070
     0
1000
AcDbSavedByObjectVersion
1070
     0
1000
AcDbSavedByObjectVersion
1070
     0
1000
AcDbSavedByObjectVersion
1070
     0
1000
AcDbSavedByObjectVersion
1070
     0
  0
VISUALSTYLE
  5
33
102
{ACAD_REACTORS
330
2A
102
}
330
2A
100
AcDbVisualStyle
  2
Realistic
 70
     8
 71
     2
 72
     2
 73
     0
 90
        0
 40
-0.6
 41
-30.0
 62
     5
 63
     7
 74
     1
 91
        0
 64
     7
 65
   257
 75
     1
175
     1
 42
1.0
 92
        8
 66
     8
 43
1.0
 76
     1
 77
     6
 78
     2
 67
     7
 79
     5
170
     0
171
     0
290
     0
174
     0
 93
       13
 44
0.0
173
     0
291
     0
 45
0.0
1001
ACAD
1000
AcDbSavedByObjectVersion
1070
     0
1000
AcDbSavedByObjectVersion
1070
     0
1000
AcDbSavedByObjectVersion
1070
     0
1000
AcDbSavedByObjectVersion
1070
     0
1000
AcDbSavedByObjectVersion
1070
     0
1000
AcDbSavedByObjectVersion
1070
     0
1000
AcDbSavedByObjectVersion
1070
     0
1000
AcDbSavedByObjectVersion
1070
     0
1000
AcDbSavedByObjectVersion
1070
     0
1000
AcDbSavedByObjectVersion
1070
     0
1000
AcDbSavedByObjectVersion
1070
     0
1000
AcDbSavedByObjectVersion
1070
     0
1000
AcDbSavedByObjectVersion
1070
     0
1000
AcDbSavedByObjectVersion
1070
     0
1000
AcDbSavedByObjectVersion
1070
     0
1000
AcDbSavedByObjectVersion
1070
     0
1000
AcDbSavedByObjectVersion
1070
     0
1000
AcDbSavedByObjectVersion
1070
     0
1000
AcDbSavedByObjectVersion
1070
     0
1000
AcDbSavedByObjectVersion
1070
     0
1000
AcDbSavedByObjectVersion
1070
     0
1000
AcDbSavedByObjectVersion
1070
     0
1000
AcDbSavedByObjectVersion
1070
     0
1000
AcDbSavedByObjectVersion
1070
     0
1000
AcDbSavedByObjectVersion
1070
     0
1000
AcDbSavedByObjectVersion
1070
     0
1000
AcDbSavedByObjectVersion
1070
     0
1000
AcDbSavedByObjectVersion
1070
     0
1000
AcDbSavedByObjectVersion
1070
     0
1000
AcDbSavedByObjectVersion
1070
     0
1000
AcDbSavedByObjectVersion
1070
     0
1000
AcDbSavedByObjectVersion
1070
     0
1000
AcDbSavedByObjectVersion
1070
     0
1000
AcDbSavedByObjectVersion
1070
     0
1000
AcDbSavedByObjectVersion
1070
     0
1000
AcDbSavedByObjectVersion
1070
     0
1000
AcDbSavedByObjectVersion
1070
     0
1000
AcDbSavedByObjectVersion
1070
     0
1000
AcDbSavedByObjectVersion
1070
     0
1000
AcDbSavedByObjectVersion
1070
     0
1000
AcDbSavedByObjectVersion
1070
     0
1000
AcDbSavedByObjectVersion
1070
     0
  0
VISUALSTYLE
  5
37
102
{ACAD_REACTORS
330
2A
102
}
330
2A
100
AcDbVisualStyle
  2
Thicken
 70
    13
 71
     2
 72
     2
 73
     0
 90
        0
 40
-0.6
 41
-30.0
 62
     5
 63
     7
 74
     1
 91
        4
 64
     7
 65
   257
 75
     1
175
     1
 42
1.0
 92
       12
 66
     7
 43
1.0
 76
     1
 77
     6
 78
     2
 67
     7
 79
     5
170
     0
171
     0
290
     0
174
     0
 93
        1
 44
0.0
173
     0
291
     1
 45
0.0
1001
ACAD
1000
AcDbSavedByObjectVersion
1070
     0
1000
AcDbSavedByObjectVersion
1070
     0
1000
AcDbSavedByObjectVersion
1070
     0
1000
AcDbSavedByObjectVersion
1070
     0
1000
AcDbSavedByObjectVersion
1070
     0
1000
AcDbSavedByObjectVersion
1070
     0
1000
AcDbSavedByObjectVersion
1070
     0
1000
AcDbSavedByObjectVersion
1070
     0
1000
AcDbSavedByObjectVersion
1070
     0
1000
AcDbSavedByObjectVersion
1070
     0
1000
AcDbSavedByObjectVersion
1070
     0
1000
AcDbSavedByObjectVersion
1070
     0
1000
AcDbSavedByObjectVersion
1070
     0
1000
AcDbSavedByObjectVersion
1070
     0
1000
AcDbSavedByObjectVersion
1070
     0
1000
AcDbSavedByObjectVersion
1070
     0
1000
AcDbSavedByObjectVersion
1070
     0
1000
AcDbSavedByObjectVersion
1070
     0
1000
AcDbSavedByObjectVersion
1070
     0
1000
AcDbSavedByObjectVersion
1070
     0
1000
AcDbSavedByObjectVersion
1070
     0
1000
AcDbSavedByObjectVersion
1070
     0
1000
AcDbSavedByObjectVersion
1070
     0
1000
AcDbSavedByObjectVersion
1070
     0
1000
AcDbSavedByObjectVersion
1070
     0
1000
AcDbSavedByObjectVersion
1070
     0
1000
AcDbSavedByObjectVersion
1070
     0
1000
AcDbSavedByObjectVersion
1070
     0
1000
AcDbSavedByObjectVersion
1070
     0
1000
AcDbSavedByObjectVersion
1070
     0
1000
AcDbSavedByObjectVersion
1070
     0
1000
AcDbSavedByObjectVersion
1070
     0
1000
AcDbSavedByObjectVersion
1070
     0
1000
AcDbSavedByObjectVersion
1070
     0
1000
AcDbSavedByObjectVersion
1070
     0
1000
AcDbSavedByObjectVersion
1070
     0
1000
AcDbSavedByObjectVersion
1070
     0
1000
AcDbSavedByObjectVersion
1070
     0
1000
AcDbSavedByObjectVersion
1070
     0
1000
AcDbSavedByObjectVersion
1070
     0
1000
AcDbSavedByObjectVersion
1070
     0
1000
AcDbSavedByObjectVersion
1070
     0
  0
DICTIONARYVAR
  5
510B
102
{ACAD_REACTORS
330
5108
102
}
330
5108
100
DictionaryVariables
280
     0
  1
1:1
  0
DICTIONARYVAR
  5
510A
102
{ACAD_REACTORS
330
5108
102
}
330
5108
100
DictionaryVariables
280
     0
  1
STANDARD
  0
DICTIONARYVAR
  5
5109
102
{ACAD_REACTORS
330
5108
102
}
330
5108
100
DictionaryVariables
280
     0
  1
STANDARD
  0
DICTIONARYVAR
  5
510E
102
{ACAD_REACTORS
330
5108
102
}
330
5108
100
DictionaryVariables
280
     0
  1
1
  0
DICTIONARYVAR
  5
510D
102
{ACAD_REACTORS
330
5108
102
}
330
5108
100
DictionaryVariables
280
     0
  1
0
  0
DICTIONARYVAR
  5
510C
102
{ACAD_REACTORS
330
5108
102
}
330
5108
100
DictionaryVariables
280
     0
  1
127
  0
XRECORD
  5
11ACF
102
{ACAD_REACTORS
330
11ACE
102
}
330
11ACE
100
AcDbXrecord
280
     1
330
11089
  0
DICTIONARY
  5
1907B
330
1E
100
AcDbDictionary
280
     1
281
     1
  3
ACAD_XREC_ROUNDTRIP
360
1907C
  0
DICTIONARY
  5
1907F
330
26
100
AcDbDictionary
280
     1
281
     1
  3
ACAD_XREC_ROUNDTRIP
360
19080
  0
DICTIONARY
  5
1907D
330
22
100
AcDbDictionary
280
     1
281
     1
  3
ACAD_XREC_ROUNDTRIP
360
1907E
  0
DICTIONARY
  5
4FEF
330
4FEE
100
AcDbDictionary
280
     1
281
     1
  3
ACAD_XREC_ROUNDTRIP
360
7C2C
  3
BUMPTILE
360
4FF1
  3
DIFFUSETILE
360
4FF0
  3
OPACITYTILE
360
4FF4
  3
REFLECTIONTILE
360
4FF3
  3
REFRACTIONTILE
360
4FF5
  3
SPECULARTILE
360
4FF2
  0
DICTIONARY
  5
4FE7
330
4FE6
100
AcDbDictionary
280
     1
281
     1
  3
ACAD_XREC_ROUNDTRIP
360
7C2B
  3
BUMPTILE
360
4FE9
  3
DIFFUSETILE
360
4FE8
  3
OPACITYTILE
360
4FEC
  3
REFLECTIONTILE
360
4FEB
  3
REFRACTIONTILE
360
4FED
  3
SPECULARTILE
360
4FEA
  0
DICTIONARY
  5
4FF7
330
4FF6
100
AcDbDictionary
280
     1
281
     1
  3
ACAD_XREC_ROUNDTRIP
360
7C2D
  3
BUMPTILE
360
4FF9
  3
DIFFUSETILE
360
4FF8
  3
OPACITYTILE
360
4FFC
  3
REFLECTIONTILE
360
4FFB
  3
REFRACTIONTILE
360
4FFD
  3
SPECULARTILE
360
4FFA
  0
DICTIONARY
  5
50D6
330
4FFF
100
AcDbDictionary
280
     1
281
     1
  3
ACAD_ROUNDTRIP_2008_TABLESTYLE_CELLSTYLEMAP
360
1905F
  3
ACAD_XREC_ROUNDTRIP
360
19081
  0
XRECORD
  5
1907C
102
{ACAD_REACTORS
330
1907B
102
}
330
1907B
100
AcDbXrecord
280
     1
102
SHADEPLOT
 70
     0
102
SHADEPLOTRESLEVEL
 70
     2
102
SHADEPLOTCUSTOMDPI
 70
   300
  0
XRECORD
  5
19080
102
{ACAD_REACTORS
330
1907F
102
}
330
1907F
100
AcDbXrecord
280
     1
102
SHADEPLOT
 70
     0
102
SHADEPLOTRESLEVEL
 70
     2
102
SHADEPLOTCUSTOMDPI
 70
   300
  0
XRECORD
  5
1907E
102
{ACAD_REACTORS
330
1907D
102
}
330
1907D
100
AcDbXrecord
280
     1
102
SHADEPLOT
 70
     1
102
SHADEPLOTRESLEVEL
 70
     2
102
SHADEPLOTCUSTOMDPI
 70
   300
  0
XRECORD
  5
7C2C
102
{ACAD_REACTORS
330
4FEF
102
}
330
4FEF
100
AcDbXrecord
280
     1
102
MATERIAL
148
0.0
149
0.0
149
0.0
 93
        0
 94
      127
282
     0
 72
     0
 77
     0
171
     0
175
     0
179
     0
273
     0
  0
XRECORD
  5
4FF1
102
{ACAD_REACTORS
330
4FEF
102
}
330
4FEF
100
AcDbXrecord
280
     1
270
     1
271
     1
  0
XRECORD
  5
4FF0
102
{ACAD_REACTORS
330
4FEF
102
}
330
4FEF
100
AcDbXrecord
280
     1
270
     1
271
     1
  0
XRECORD
  5
4FF4
102
{ACAD_REACTORS
330
4FEF
102
}
330
4FEF
100
AcDbXrecord
280
     1
270
     1
271
     1
  0
XRECORD
  5
4FF3
102
{ACAD_REACTORS
330
4FEF
102
}
330
4FEF
100
AcDbXrecord
280
     1
270
     1
271
     1
  0
XRECORD
  5
4FF5
102
{ACAD_REACTORS
330
4FEF
102
}
330
4FEF
100
AcDbXrecord
280
     1
270
     1
271
     1
  0
XRECORD
  5
4FF2
102
{ACAD_REACTORS
330
4FEF
102
}
330
4FEF
100
AcDbXrecord
280
     1
270
     1
271
     1
  0
XRECORD
  5
7C2B
102
{ACAD_REACTORS
330
4FE7
102
}
330
4FE7
100
AcDbXrecord
280
     1
102
MATERIAL
148
0.0
149
0.0
149
0.0
 93
        0
 94
      127
282
     0
 72
     0
 77
     0
171
     0
175
     0
179
     0
273
     0
  0
XRECORD
  5
4FE9
102
{ACAD_REACTORS
330
4FE7
102
}
330
4FE7
100
AcDbXrecord
280
     1
270
     1
271
     1
  0
XRECORD
  5
4FE8
102
{ACAD_REACTORS
330
4FE7
102
}
330
4FE7
100
AcDbXrecord
280
     1
270
     1
271
     1
  0
XRECORD
  5
4FEC
102
{ACAD_REACTORS
330
4FE7
102
}
330
4FE7
100
AcDbXrecord
280
     1
270
     1
271
     1
  0
XRECORD
  5
4FEB
102
{ACAD_REACTORS
330
4FE7
102
}
330
4FE7
100
AcDbXrecord
280
     1
270
     1
271
     1
  0
XRECORD
  5
4FED
102
{ACAD_REACTORS
330
4FE7
102
}
330
4FE7
100
AcDbXrecord
280
     1
270
     1
271
     1
  0
XRECORD
  5
4FEA
102
{ACAD_REACTORS
330
4FE7
102
}
330
4FE7
100
AcDbXrecord
280
     1
270
     1
271
     1
  0
XRECORD
  5
7C2D
102
{ACAD_REACTORS
330
4FF7
102
}
330
4FF7
100
AcDbXrecord
280
     1
102
MATERIAL
148
0.0
149
0.0
149
0.0
 93
        0
 94
      127
282
     0
 72
     0
 77
     0
171
     0
175
     0
179
     0
273
     0
  0
XRECORD
  5
4FF9
102
{ACAD_REACTORS
330
4FF7
102
}
330
4FF7
100
AcDbXrecord
280
     1
270
     1
271
     1
  0
XRECORD
  5
4FF8
102
{ACAD_REACTORS
330
4FF7
102
}
330
4FF7
100
AcDbXrecord
280
     1
270
     1
271
     1
  0
XRECORD
  5
4FFC
102
{ACAD_REACTORS
330
4FF7
102
}
330
4FF7
100
AcDbXrecord
280
     1
270
     1
271
     1
  0
XRECORD
  5
4FFB
102
{ACAD_REACTORS
330
4FF7
102
}
330
4FF7
100
AcDbXrecord
280
     1
270
     1
271
     1
  0
XRECORD
  5
4FFD
102
{ACAD_REACTORS
330
4FF7
102
}
330
4FF7
100
AcDbXrecord
280
     1
270
     1
271
     1
  0
XRECORD
  5
4FFA
102
{ACAD_REACTORS
330
4FF7
102
}
330
4FF7
100
AcDbXrecord
280
     1
270
     1
271
     1
  0
CELLSTYLEMAP
  5
1905F
102
{ACAD_REACTORS
330
50D6
102
}
330
50D6
100
AcDbCellStyleMap
 90
        3
300
CELLSTYLE
  1
TABLEFORMAT_BEGIN
 90
        5
170
     1
 91
        0
 92
    32768
 62
   257
 93
        1
300
CONTENTFORMAT
  1
CONTENTFORMAT_BEGIN
 90
        0
 91
        0
 92
      512
 93
        0
300

 40
0.0
140
1.0
 94
        5
 62
     0
340
11
144
0.25
309
CONTENTFORMAT_END
171
     1
301
MARGIN
  1
CELLMARGIN_BEGIN
 40
0.06
 40
0.06
 40
0.06
 40
0.06
 40
0.18
 40
0.18
309
CELLMARGIN_END
 94
        6
 95
        1
302
GRIDFORMAT
  1
GRIDFORMAT_BEGIN
 90
        0
 91
        1
 62
     0
 92
       -2
340
0
 93
        0
 40
0.045
309
GRIDFORMAT_END
 95
        2
302
GRIDFORMAT
  1
GRIDFORMAT_BEGIN
 90
        0
 91
        1
 62
     0
 92
       -2
340
0
 93
        0
 40
0.045
309
GRIDFORMAT_END
 95
        4
302
GRIDFORMAT
  1
GRIDFORMAT_BEGIN
 90
        0
 91
        1
 62
     0
 92
       -2
340
0
 93
        0
 40
0.045
309
GRIDFORMAT_END
 95
        8
302
GRIDFORMAT
  1
GRIDFORMAT_BEGIN
 90
        0
 91
        1
 62
     0
 92
       -2
340
0
 93
        0
 40
0.045
309
GRIDFORMAT_END
 95
       16
302
GRIDFORMAT
  1
GRIDFORMAT_BEGIN
 90
        0
 91
        1
 62
     0
 92
       -2
340
0
 93
        0
 40
0.045
309
GRIDFORMAT_END
 95
       32
302
GRIDFORMAT
  1
GRIDFORMAT_BEGIN
 90
        0
 91
        1
 62
     0
 92
       -2
340
0
 93
        0
 40
0.045
309
GRIDFORMAT_END
309
TABLEFORMAT_END
  1
CELLSTYLE_BEGIN
 90
        1
 91
        1
300
_TITLE
309
CELLSTYLE_END
300
CELLSTYLE
  1
TABLEFORMAT_BEGIN
 90
        5
170
     1
 91
        0
 92
        0
 62
   257
 93
        1
300
CONTENTFORMAT
  1
CONTENTFORMAT_BEGIN
 90
        0
 91
        0
 92
      512
 93
        0
300

 40
0.0
140
1.0
 94
        5
 62
     0
340
11
144
0.18
309
CONTENTFORMAT_END
171
     1
301
MARGIN
  1
CELLMARGIN_BEGIN
 40
0.06
 40
0.06
 40
0.06
 40
0.06
 40
0.18
 40
0.18
309
CELLMARGIN_END
 94
        6
 95
        1
302
GRIDFORMAT
  1
GRIDFORMAT_BEGIN
 90
        0
 91
        1
 62
     0
 92
       -2
340
0
 93
        0
 40
0.045
309
GRIDFORMAT_END
 95
        2
302
GRIDFORMAT
  1
GRIDFORMAT_BEGIN
 90
        0
 91
        1
 62
     0
 92
       -2
340
0
 93
        0
 40
0.045
309
GRIDFORMAT_END
 95
        4
302
GRIDFORMAT
  1
GRIDFORMAT_BEGIN
 90
        0
 91
        1
 62
     0
 92
       -2
340
0
 93
        0
 40
0.045
309
GRIDFORMAT_END
 95
        8
302
GRIDFORMAT
  1
GRIDFORMAT_BEGIN
 90
        0
 91
        1
 62
     0
 92
       -2
340
0
 93
        0
 40
0.045
309
GRIDFORMAT_END
 95
       16
302
GRIDFORMAT
  1
GRIDFORMAT_BEGIN
 90
        0
 91
        1
 62
     0
 92
       -2
340
0
 93
        0
 40
0.045
309
GRIDFORMAT_END
 95
       32
302
GRIDFORMAT
  1
GRIDFORMAT_BEGIN
 90
        0
 91
        1
 62
     0
 92
       -2
340
0
 93
        0
 40
0.045
309
GRIDFORMAT_END
309
TABLEFORMAT_END
  1
CELLSTYLE_BEGIN
 90
        2
 91
        1
300
_HEADER
309
CELLSTYLE_END
300
CELLSTYLE
  1
TABLEFORMAT_BEGIN
 90
        5
170
     1
 91
        0
 92
        0
 62
   257
 93
        1
300
CONTENTFORMAT
  1
CONTENTFORMAT_BEGIN
 90
        0
 91
        0
 92
      512
 93
        0
300

 40
0.0
140
1.0
 94
        2
 62
     0
340
11
144
0.18
309
CONTENTFORMAT_END
171
     1
301
MARGIN
  1
CELLMARGIN_BEGIN
 40
0.06
 40
0.06
 40
0.06
 40
0.06
 40
0.18
 40
0.18
309
CELLMARGIN_END
 94
        6
 95
        1
302
GRIDFORMAT
  1
GRIDFORMAT_BEGIN
 90
        0
 91
        1
 62
     0
 92
       -2
340
0
 93
        0
 40
0.045
309
GRIDFORMAT_END
 95
        2
302
GRIDFORMAT
  1
GRIDFORMAT_BEGIN
 90
        0
 91
        1
 62
     0
 92
       -2
340
0
 93
        0
 40
0.045
309
GRIDFORMAT_END
 95
        4
302
GRIDFORMAT
  1
GRIDFORMAT_BEGIN
 90
        0
 91
        1
 62
     0
 92
       -2
340
0
 93
        0
 40
0.045
309
GRIDFORMAT_END
 95
        8
302
GRIDFORMAT
  1
GRIDFORMAT_BEGIN
 90
        0
 91
        1
 62
     0
 92
       -2
340
0
 93
        0
 40
0.045
309
GRIDFORMAT_END
 95
       16
302
GRIDFORMAT
  1
GRIDFORMAT_BEGIN
 90
        0
 91
        1
 62
     0
 92
       -2
340
0
 93
        0
 40
0.045
309
GRIDFORMAT_END
 95
       32
302
GRIDFORMAT
  1
GRIDFORMAT_BEGIN
 90
        0
 91
        1
 62
     0
 92
       -2
340
0
 93
        0
 40
0.045
309
GRIDFORMAT_END
309
TABLEFORMAT_END
  1
CELLSTYLE_BEGIN
 90
        3
 91
        2
300
_DATA
309
CELLSTYLE_END
  0
XRECORD
  5
19081
102
{ACAD_REACTORS
330
50D6
102
}
330
50D6
100
AcDbXrecord
280
     1
102
ACAD_ROUNDTRIP_PRE2007_TABLESTYLE
 90
      512
 91
        0
  1

 92
      512
 93
        0
  2

 94
      512
 95
        0
  3

  0
ENDSEC
  0
EOF
