  0
SECTION
  2
HEADER
  9
$ACADVER
  1
AC1015
  9
$ACADMAINTVER
 70
    20
  9
$DWGCODEPAGE
  3
ANSI_936
  9
$INSBASE
 10
0.0
 20
0.0
 30
0.0
  9
$EXTMIN
 10
407.1213568174844
 20
211.0822014474513
 30
-0.0015258207003583
  9
$EXTMAX
 10
629.9747171960921
 20
368.6062303746635
 30
0.0000000349246037
  9
$LIMMIN
 10
0.0
 20
0.0
  9
$LIMMAX
 10
12.0
 20
9.0
  9
$ORTHOMODE
 70
     1
  9
$REGENMODE
 70
     1
  9
$FILLMODE
 70
     1
  9
$QTEXTMODE
 70
     0
  9
$MIRRTEXT
 70
     1
  9
$LTSCALE
 40
1.0
  9
$ATTMODE
 70
     1
  9
$TEXTSIZE
 40
0.2
  9
$TRACEWID
 40
0.05
  9
$TEXTSTYLE
  7
Standard
  9
$CLAYER
  8
DIM
  9
$CELTYPE
  6
ByLayer
  9
$CECOLOR
 62
   256
  9
$CELTSCALE
 40
1.0
  9
$DISPSILH
 70
     0
  9
$DIMSCALE
 40
1.0
  9
$DIMASZ
 40
3.0
  9
$DIMEXO
 40
0.2
  9
$DIMDLI
 40
0.2
  9
$DIMRND
 40
0.0
  9
$DIMDLE
 40
0.0
  9
$DIMEXE
 40
1.199999999999999
  9
$DIMTP
 40
0.0
  9
$DIMTM
 40
0.0
  9
$DIMTXT
 40
3.5
  9
$DIMCEN
 40
0.0
  9
$DIMTSZ
 40
0.0
  9
$DIMTOL
 70
     0
  9
$DIMLIM
 70
     0
  9
$DIMTIH
 70
     0
  9
$DIMTOH
 70
     0
  9
$DIMSE1
 70
     0
  9
$DIMSE2
 70
     0
  9
$DIMTAD
 70
     1
  9
$DIMZIN
 70
     8
  9
$DIMBLK
  1

  9
$DIMASO
 70
     1
  9
$DIMSHO
 70
     1
  9
$DIMPOST
  1

  9
$DIMAPOST
  1

  9
$DIMALT
 70
     0
  9
$DIMALTD
 70
     2
  9
$DIMALTF
 40
25.4
  9
$DIMLFAC
 40
1.0
  9
$DIMTOFL
 70
     0
  9
$DIMTVP
 40
0.0
  9
$DIMTIX
 70
     0
  9
$DIMSOXD
 70
     0
  9
$DIMSAH
 70
     0
  9
$DIMBLK1
  1

  9
$DIMBLK2
  1

  9
$DIMSTYLE
  2
01
  9
$DIMCLRD
 70
     1
  9
$DIMCLRE
 70
     6
  9
$DIMCLRT
 70
     4
  9
$DIMTFAC
 40
1.0
  9
$DIMGAP
 40
0.8
  9
$DIMJUST
 70
     0
  9
$DIMSD1
 70
     0
  9
$DIMSD2
 70
     0
  9
$DIMTOLJ
 70
     1
  9
$DIMTZIN
 70
     0
  9
$DIMALTZ
 70
     0
  9
$DIMALTTZ
 70
     0
  9
$DIMUPT
 70
     0
  9
$DIMDEC
 70
     1
  9
$DIMTDEC
 70
     1
  9
$DIMALTU
 70
     2
  9
$DIMALTTD
 70
     2
  9
$DIMTXSTY
  7
Romans字体
  9
$DIMAUNIT
 70
     0
  9
$DIMADEC
 70
     2
  9
$DIMALTRND
 40
0.0
  9
$DIMAZIN
 70
     2
  9
$DIMDSEP
 70
    46
  9
$DIMATFIT
 70
     3
  9
$DIMFRAC
 70
     0
  9
$DIMLDRBLK
  1

  9
$DIMLUNIT
 70
     2
  9
$DIMLWD
 70
    -2
  9
$DIMLWE
 70
    -2
  9
$DIMTMOVE
 70
     0
  9
$LUNITS
 70
     2
  9
$LUPREC
 70
     4
  9
$SKETCHINC
 40
0.1
  9
$FILLETRAD
 40
0.5
  9
$AUNITS
 70
     0
  9
$AUPREC
 70
     0
  9
$MENU
  1
.
  9
$ELEVATION
 40
0.0
  9
$PELEVATION
 40
0.0
  9
$THICKNESS
 40
0.0
  9
$LIMCHECK
 70
     0
  9
$CHAMFERA
 40
0.5
  9
$CHAMFERB
 40
0.5
  9
$CHAMFERC
 40
1.0
  9
$CHAMFERD
 40
0.0
  9
$SKPOLY
 70
     0
  9
$TDCREATE
 40
2456524.383632987
  9
$TDUCREATE
 40
2456524.050299653
  9
$TDUPDATE
 40
2460316.705088450
  9
$TDUUPDATE
 40
2460316.371755116
  9
$TDINDWG
 40
0.9381770833
  9
$TDUSRTIMER
 40
0.9381590509
  9
$USRTIMER
 70
     1
  9
$ANGBASE
 50
0.0
  9
$ANGDIR
 70
     0
  9
$PDMODE
 70
     0
  9
$PDSIZE
 40
0.0
  9
$PLINEWID
 40
0.0
  9
$SPLFRAME
 70
     0
  9
$SPLINETYPE
 70
     6
  9
$SPLINESEGS
 70
     8
  9
$HANDSEED
  5
12569
  9
$SURFTAB1
 70
     6
  9
$SURFTAB2
 70
     6
  9
$SURFTYPE
 70
     6
  9
$SURFU
 70
     6
  9
$SURFV
 70
     6
  9
$UCSBASE
  2

  9
$UCSNAME
  2

  9
$UCSORG
 10
0.0
 20
0.0
 30
0.0
  9
$UCSXDIR
 10
1.0
 20
0.0
 30
0.0
  9
$UCSYDIR
 10
0.0
 20
1.0
 30
0.0
  9
$UCSORTHOREF
  2

  9
$UCSORTHOVIEW
 70
     0
  9
$UCSORGTOP
 10
0.0
 20
0.0
 30
0.0
  9
$UCSORGBOTTOM
 10
0.0
 20
0.0
 30
0.0
  9
$UCSORGLEFT
 10
0.0
 20
0.0
 30
0.0
  9
$UCSORGRIGHT
 10
0.0
 20
0.0
 30
0.0
  9
$UCSORGFRONT
 10
0.0
 20
0.0
 30
0.0
  9
$UCSORGBACK
 10
0.0
 20
0.0
 30
0.0
  9
$PUCSBASE
  2

  9
$PUCSNAME
  2

  9
$PUCSORG
 10
0.0
 20
0.0
 30
0.0
  9
$PUCSXDIR
 10
1.0
 20
0.0
 30
0.0
  9
$PUCSYDIR
 10
0.0
 20
1.0
 30
0.0
  9
$PUCSORTHOREF
  2

  9
$PUCSORTHOVIEW
 70
     0
  9
$PUCSORGTOP
 10
0.0
 20
0.0
 30
0.0
  9
$PUCSORGBOTTOM
 10
0.0
 20
0.0
 30
0.0
  9
$PUCSORGLEFT
 10
0.0
 20
0.0
 30
0.0
  9
$PUCSORGRIGHT
 10
0.0
 20
0.0
 30
0.0
  9
$PUCSORGFRONT
 10
0.0
 20
0.0
 30
0.0
  9
$PUCSORGBACK
 10
0.0
 20
0.0
 30
0.0
  9
$USERI1
 70
     0
  9
$USERI2
 70
     0
  9
$USERI3
 70
     0
  9
$USERI4
 70
     0
  9
$USERI5
 70
     0
  9
$USERR1
 40
0.0
  9
$USERR2
 40
0.0
  9
$USERR3
 40
0.0
  9
$USERR4
 40
0.0
  9
$USERR5
 40
0.0
  9
$WORLDVIEW
 70
     1
  9
$SHADEDGE
 70
     3
  9
$SHADEDIF
 70
    70
  9
$TILEMODE
 70
     1
  9
$MAXACTVP
 70
    64
  9
$PINSBASE
 10
0.0
 20
0.0
 30
0.0
  9
$PLIMCHECK
 70
     0
  9
$PEXTMIN
 10
1.000000000000000E+20
 20
1.000000000000000E+20
 30
1.000000000000000E+20
  9
$PEXTMAX
 10
-1.000000000000000E+20
 20
-1.000000000000000E+20
 30
-1.000000000000000E+20
  9
$PLIMMIN
 10
0.0
 20
0.0
  9
$PLIMMAX
 10
12.0
 20
9.0
  9
$UNITMODE
 70
     0
  9
$VISRETAIN
 70
     1
  9
$PLINEGEN
 70
     0
  9
$PSLTSCALE
 70
     1
  9
$TREEDEPTH
 70
  3020
  9
$CMLSTYLE
  2
Standard
  9
$CMLJUST
 70
     0
  9
$CMLSCALE
 40
1.0
  9
$PROXYGRAPHICS
 70
     1
  9
$MEASUREMENT
 70
     0
  9
$CELWEIGHT
370
    -1
  9
$ENDCAPS
280
     0
  9
$JOINSTYLE
280
     0
  9
$LWDISPLAY
290
     0
  9
$INSUNITS
 70
     4
  9
$HYPERLINKBASE
  1

  9
$STYLESHEET
  1
monochrome.ctb
  9
$XEDIT
290
     1
  9
$CEPSNTYPE
380
     0
  9
$PSTYLEMODE
290
     1
  9
$FINGERPRINTGUID
  2
{4A02065B-8BB3-4A96-9036-502DC906C165}
  9
$VERSIONGUID
  2
{BB24DB5B-4E17-4AFE-844D-25A523306EDD}
  9
$EXTNAMES
290
     1
  9
$PSVPSCALE
 40
0.0
  9
$OLESTARTUP
290
     0
  0
ENDSEC
  0
SECTION
  2
CLASSES
  0
CLASS
  1
ACDBDICTIONARYWDFLT
  2
AcDbDictionaryWithDefault
  3
ObjectDBX Classes
 90
        0
280
     0
281
     0
  0
CLASS
  1
VISUALSTYLE
  2
AcDbVisualStyle
  3
ObjectDBX Classes
 90
     4095
280
     0
281
     0
  0
CLASS
  1
MATERIAL
  2
AcDbMaterial
  3
ObjectDBX Classes
 90
     1153
280
     0
281
     0
  0
CLASS
  1
TABLESTYLE
  2
AcDbTableStyle
  3
ObjectDBX Classes
 90
     4095
280
     0
281
     0
  0
CLASS
  1
SCALE
  2
AcDbScale
  3
ObjectDBX Classes
 90
     1153
280
     0
281
     0
  0
CLASS
  1
MLEADERSTYLE
  2
AcDbMLeaderStyle
  3
ACDB_MLEADERSTYLE_CLASS
 90
     4095
280
     0
281
     0
  0
CLASS
  1
CELLSTYLEMAP
  2
AcDbCellStyleMap
  3
ObjectDBX Classes
 90
     1152
280
     0
281
     0
  0
CLASS
  1
DICTIONARYVAR
  2
AcDbDictionaryVar
  3
ObjectDBX Classes
 90
        0
280
     0
281
     0
  0
CLASS
  1
SORTENTSTABLE
  2
AcDbSortentsTable
  3
ObjectDBX Classes
 90
        0
280
     0
281
     0
  0
CLASS
  1
ACAD_EVALUATION_GRAPH
  2
AcDbEvalGraph
  3
ObjectDBX Classes
 90
     1153
280
     0
281
     0
  0
CLASS
  1
ACAECUSTOBJ
  2
AcAeEditorObj
  3
AcAeEditorObj
 90
     1024
280
     0
281
     0
  0
CLASS
  1
ACDB_DYNAMICBLOCKPURGEPREVENTER_VERSION
  2
AcDbDynamicBlockPurgePreventer
  3
ObjectDBX Classes
 90
     1153
280
     0
281
     0
  0
CLASS
  1
MENTALRAYRENDERSETTINGS
  2
AcDbMentalRayRenderSettings
  3
SCENEOE
 90
     1024
280
     0
281
     0
  0
CLASS
  1
ACDB_BLOCKREPRESENTATION_DATA
  2
AcDbBlockRepresentationData
  3
ObjectDBX Classes
 90
    33921
280
     0
281
     0
  0
CLASS
  1
ACDBPLACEHOLDER
  2
AcDbPlaceHolder
  3
ObjectDBX Classes
 90
        0
280
     0
281
     0
  0
CLASS
  1
LAYOUT
  2
AcDbLayout
  3
ObjectDBX Classes
 90
        0
280
     0
281
     0
  0
ENDSEC
  0
SECTION
  2
TABLES
  0
TABLE
  2
VPORT
  5
8
102
{ACAD_XDICTIONARY
360
50EE
102
}
330
0
100
AcDbSymbolTable
 70
     1
  0
VPORT
  5
29
330
8
100
AcDbSymbolTableRecord
100
AcDbViewportTableRecord
  2
*Active
 70
     0
 10
0.0
 20
0.0
 11
1.0
 21
1.0
 12
356.106998672946
 22
162.2479233738467
 13
0.0
 23
0.0
 14
0.5
 24
0.5
 15
0.5
 25
0.5
 16
0.0
 26
0.0
 36
1.0
 17
104.9654968719086
 27
148.5022307685978
 37
0.0
 40
243.0411676551123
 41
2.087847730600292
 42
50.0
 43
0.0
 44
0.0
 50
0.0
 51
0.0
 71
     0
 72
   100
 73
     1
 74
     3
 75
     0
 76
     0
 77
     0
 78
     0
281
     0
 65
     1
110
0.0
120
0.0
130
0.0
111
1.0
121
0.0
131
0.0
112
0.0
122
1.0
132
0.0
 79
     0
146
0.0
  0
ENDTAB
  0
TABLE
  2
LTYPE
  5
5
330
0
100
AcDbSymbolTable
 70
     1
  0
LTYPE
  5
14
330
5
100
AcDbSymbolTableRecord
100
AcDbLinetypeTableRecord
  2
ByBlock
 70
     0
  3

 72
    65
 73
     0
 40
0.0
  0
LTYPE
  5
15
330
5
100
AcDbSymbolTableRecord
100
AcDbLinetypeTableRecord
  2
ByLayer
 70
     0
  3

 72
    65
 73
     0
 40
0.0
  0
LTYPE
  5
16
330
5
100
AcDbSymbolTableRecord
100
AcDbLinetypeTableRecord
  2
Continuous
 70
     0
  3
Solid line
 72
    65
 73
     0
 40
0.0
  0
ENDTAB
  0
TABLE
  2
LAYER
  5
2
102
{ACAD_XDICTIONARY
360
50B8
102
}
330
0
100
AcDbSymbolTable
 70
     6
  0
LAYER
  5
10
102
{ACAD_XDICTIONARY
360
50D0
102
}
330
2
100
AcDbSymbolTableRecord
100
AcDbLayerTableRecord
  2
0
 70
     0
 62
     7
  6
Continuous
370
    30
390
F
  0
LAYER
  5
3B
102
{ACAD_XDICTIONARY
360
50D2
102
}
330
2
100
AcDbSymbolTableRecord
100
AcDbLayerTableRecord
  2
图层 1
 70
     0
 62
     7
  6
Continuous
370
    -3
390
F
  0
LAYER
  5
50AE
102
{ACAD_XDICTIONARY
360
50AF
102
}
330
2
100
AcDbSymbolTableRecord
100
AcDbLayerTableRecord
  2
图框
 70
     0
 62
     7
  6
Continuous
370
    20
390
F
  0
LAYER
  5
5141
330
2
100
AcDbSymbolTableRecord
100
AcDbLayerTableRecord
  2
Defpoints
 70
     0
 62
     7
  6
Continuous
290
     0
370
    -3
390
F
  0
LAYER
  5
5144
330
2
100
AcDbSymbolTableRecord
100
AcDbLayerTableRecord
  2
DIM
 70
     0
 62
     3
  6
Continuous
370
    15
390
F
1001
AcAecLayerStandard
1000

1000

  0
LAYER
  5
52F3
330
2
100
AcDbSymbolTableRecord
100
AcDbLayerTableRecord
  2
打标文字
 70
     0
 62
     3
  6
Continuous
370
    20
390
F
  0
ENDTAB
  0
TABLE
  2
STYLE
  5
3
330
0
100
AcDbSymbolTable
 70
     6
  0
STYLE
  5
11
330
3
100
AcDbSymbolTableRecord
100
AcDbTextStyleTableRecord
  2
Standard
 70
     0
 40
0.0
 41
0.75
 50
0.0
 71
     0
 42
0.2
  3

  4

1001
ACAD
1000
仿宋_GB2312
1071
    34353
  0
STYLE
  5
FD48
330
3
100
AcDbSymbolTableRecord
100
AcDbTextStyleTableRecord
  2
Romans字体
 70
     0
 40
0.0
 41
0.75
 50
0.0
 71
     0
 42
0.2
  3
romans.shx
  4

  0
STYLE
  5
11080
330
3
100
AcDbSymbolTableRecord
100
AcDbTextStyleTableRecord
  2
工程字
 70
     0
 40
0.0
 41
1.0
 50
0.0
 71
     0
 42
3.5
  3
gbenor.shx
  4
gbcbig.shx
  0
STYLE
  5
11081
330
3
100
AcDbSymbolTableRecord
100
AcDbTextStyleTableRecord
  2
Chinese
 70
     0
 40
0.0
 41
1.0
 50
0.0
 71
     0
 42
2.5
  3
PMingLiU.ttf
  4

1001
ACAD
1000
PMingLiU
1071
    34834
  0
STYLE
  5
11AF8
330
3
100
AcDbSymbolTableRecord
100
AcDbTextStyleTableRecord
  2
数字
 70
     0
 40
1.8
 41
0.6
 50
0.0
 71
     0
 42
0.2
  3
romans.shx
  4

  0
ENDTAB
  0
TABLE
  2
VIEW
  5
6
330
0
100
AcDbSymbolTable
 70
     0
  0
ENDTAB
  0
TABLE
  2
UCS
  5
7
330
0
100
AcDbSymbolTable
 70
     0
  0
ENDTAB
  0
TABLE
  2
APPID
  5
9
330
0
100
AcDbSymbolTable
 70
    17
  0
APPID
  5
12
330
9
100
AcDbSymbolTableRecord
100
AcDbRegAppTableRecord
  2
ACAD
 70
     0
  0
APPID
  5
5024
330
9
100
AcDbSymbolTableRecord
100
AcDbRegAppTableRecord
  2
ACAD_MLEADERVER
 70
     0
  0
APPID
  5
50B5
330
9
100
AcDbSymbolTableRecord
100
AcDbRegAppTableRecord
  2
AcDbDynamicBlockGUID
 70
     0
  0
APPID
  5
50B6
330
9
100
AcDbSymbolTableRecord
100
AcDbRegAppTableRecord
  2
AcDbBlockRepETag
 70
     0
  0
APPID
  5
50B7
330
9
100
AcDbSymbolTableRecord
100
AcDbRegAppTableRecord
  2
ACAD_PSEXT
 70
     0
  0
APPID
  5
50CF
330
9
100
AcDbSymbolTableRecord
100
AcDbRegAppTableRecord
  2
AcadAnnoPO
 70
     0
  0
APPID
  5
5146
330
9
100
AcDbSymbolTableRecord
100
AcDbRegAppTableRecord
  2
AcAecLayerStandard
 70
     0
  0
APPID
  5
5147
330
9
100
AcDbSymbolTableRecord
100
AcDbRegAppTableRecord
  2
ACAD_DSTYLE_DIMJAG
 70
     0
  0
APPID
  5
5148
330
9
100
AcDbSymbolTableRecord
100
AcDbRegAppTableRecord
  2
ACAD_DSTYLE_DIMTALN
 70
     0
  0
APPID
  5
52AD
330
9
100
AcDbSymbolTableRecord
100
AcDbRegAppTableRecord
  2
ACAUTHENVIRON
 70
     0
  0
APPID
  5
52B0
330
9
100
AcDbSymbolTableRecord
100
AcDbRegAppTableRecord
  2
AcDbDynamicBlockTrueName
 70
     0
  0
APPID
  5
67C6
330
9
100
AcDbSymbolTableRecord
100
AcDbRegAppTableRecord
  2
ACAD_EXEMPT_FROM_CAD_STANDARDS
 70
     0
  0
APPID
  5
6838
330
9
100
AcDbSymbolTableRecord
100
AcDbRegAppTableRecord
  2
ACAD_NAV_VCDISPLAY
 70
     0
  0
APPID
  5
70A9
330
9
100
AcDbSymbolTableRecord
100
AcDbRegAppTableRecord
  2
DCO15
 70
     0
  0
APPID
  5
8725
330
9
100
AcDbSymbolTableRecord
100
AcDbRegAppTableRecord
  2
AcDbBlockRepBTag
 70
     0
  0
APPID
  5
FE64
330
9
100
AcDbSymbolTableRecord
100
AcDbRegAppTableRecord
  2
ACAD_DSTYLE_DIMRADIAL_EXTENSION
 70
     0
  0
APPID
  5
FF93
330
9
100
AcDbSymbolTableRecord
100
AcDbRegAppTableRecord
  2
ACAD_DSTYLE_DIMBREAK
 70
     0
  0
ENDTAB
  0
TABLE
  2
DIMSTYLE
  5
A
330
0
100
AcDbSymbolTable
 70
     3
100
AcDbDimStyleTable
 71
     2
340
5145
340
27
  0
DIMSTYLE
105
27
330
A
100
AcDbSymbolTableRecord
100
AcDbDimStyleTableRecord
  2
Standard
 70
     0
340
11
  0
DIMSTYLE
105
5145
102
{ACAD_REACTORS
330
11CF6
330
11CF7
330
11CF8
102
}
330
A
100
AcDbSymbolTableRecord
100
AcDbDimStyleTableRecord
  2
01
 70
     0
 41
3.0
 42
0.2
 43
0.2
 44
1.199999999999999
 73
     0
 74
     0
 77
     1
 78
     8
 79
     2
140
3.5
141
0.0
147
0.8
176
     1
177
     6
178
     4
179
     2
271
     1
272
     1
340
FD48
1001
ACAD_DSTYLE_DIMJAG
1070
   388
1040
1.5
1001
ACAD_DSTYLE_DIMTALN
1070
   392
1070
     0
  0
ENDTAB
  0
TABLE
  2
BLOCK_RECORD
  5
1
330
0
100
AcDbSymbolTable
 70
     7
  0
BLOCK_RECORD
  5
1F
102
{ACAD_XDICTIONARY
360
67C0
102
}
330
1
100
AcDbSymbolTableRecord
100
AcDbBlockTableRecord
  2
*Model_Space
340
22
  0
BLOCK_RECORD
  5
1B
330
1
100
AcDbSymbolTableRecord
100
AcDbBlockTableRecord
  2
*Paper_Space
340
1E
  0
BLOCK_RECORD
  5
23
330
1
100
AcDbSymbolTableRecord
100
AcDbBlockTableRecord
  2
*Paper_Space0
340
26
  0
BLOCK_RECORD
  5
10FE8
102
{ACAD_XDICTIONARY
360
12512
102
}
330
1
100
AcDbSymbolTableRecord
100
AcDbBlockTableRecord
  2
A4图框-NEW
340
0
310
2800000020000000200000000100080000000000000400000000000000000000000000000000000000000000000080000080000000808000800000008000800080800000C0C0C000C0DCC000F0CAA6000020400000206000002080000020A0000020C0000020E00000400000004020000040400000406000004080000040A0
310
000040C0000040E00000600000006020000060400000606000006080000060A0000060C0000060E00000800000008020000080400000806000008080000080A0000080C0000080E00000A0000000A0200000A0400000A0600000A0800000A0A00000A0C00000A0E00000C0000000C0200000C0400000C0600000C0800000C0
310
A00000C0C00000C0E00000E0000000E0200000E0400000E0600000E0800000E0A00000E0C00000E0E00040000000400020004000400040006000400080004000A0004000C0004000E00040200000402020004020400040206000402080004020A0004020C0004020E000404000004040200040404000404060004040800040
310
40A0004040C0004040E00040600000406020004060400040606000406080004060A0004060C0004060E00040800000408020004080400040806000408080004080A0004080C0004080E00040A0000040A0200040A0400040A0600040A0800040A0A00040A0C00040A0E00040C0000040C0200040C0400040C0600040C08000
310
40C0A00040C0C00040C0E00040E0000040E0200040E0400040E0600040E0800040E0A00040E0C00040E0E00080000000800020008000400080006000800080008000A0008000C0008000E00080200000802020008020400080206000802080008020A0008020C0008020E00080400000804020008040400080406000804080
310
008040A0008040C0008040E00080600000806020008060400080606000806080008060A0008060C0008060E00080800000808020008080400080806000808080008080A0008080C0008080E00080A0000080A0200080A0400080A0600080A0800080A0A00080A0C00080A0E00080C0000080C0200080C0400080C0600080C0
310
800080C0A00080C0C00080C0E00080E0000080E0200080E0400080E0600080E0800080E0A00080E0C00080E0E000C0000000C0002000C0004000C0006000C0008000C000A000C000C000C000E000C0200000C0202000C0204000C0206000C0208000C020A000C020C000C020E000C0400000C0402000C0404000C0406000C0
310
408000C040A000C040C000C040E000C0600000C0602000C0604000C0606000C0608000C060A000C060C000C060E000C0800000C0802000C0804000C0806000C0808000C080A000C080C000C080E000C0A00000C0A02000C0A04000C0A06000C0A08000C0A0A000C0A0C000C0A0E000C0C00000C0C02000C0C04000C0C06000
310
C0C08000C0C0A000F0FBFF00A4A0A000808080000000FF0000FF000000FFFF00FF000000FF00FF00FFFF0000FFFFFF0000000000000000000000000000000000000000000000000000000000000000000000000000000000000000000000000000000000000000000000000000000000000000000000000000000000000000
310
000000000000000000000000000000000000000000000000000000000000000000000000000000000000000000000000000000000000000000000000000000000000000000000000000000000000000000000000000000000000000000000000000000000000000000000000000000000000F9F9F9F9F9F9F9F9F9F9F9F9F9
310
F9F9F9F9F9F9F9F9F9F9F9F9F9F9FF00000000F9FF000000000000000000FFFFFFFFFFFFFFFFFFFFFFFFF9FAFAFAFF00000000F9FF000000000000000000FFFFFFFFFFFFFFFFFFFFFFFFFFFFFFFFFF00000000F9FD000000000000000000FFFFFFFFFFFFFFFFFFFFFFFFFFFFFFFFFF00000000F9FF000000000000000000FF
310
FFFFFFFFFFFFFFFFFFFFFFFFFFFFFFFF00000000F9FD000000000000000000FFFFFFFFFFFFFFFFFFFFFFFFFFFFFFFFFF00000000F9FF00000000000000000000000000000000000000000000000000FF00000000F9FD00000000000000000000000000000000000000000000000000FF00000000F9FF000000000000000000
310
00000000000000000000000000000000FF00000000F9FD00000000000000000000000000000000000000000000000000FF00000000F9FF00000000000000000000000000000000000000000000000000FF00000000F9FD00000000000000000000000000000000000000000000000000FF00000000F9FD0000000000000000
310
0000000000000000000000000000000000FF00000000F9FF00000000000000000000000000000000000000000000000000FF00000000F9FD00000000000000000000000000000000000000000000000000FF00000000F9FF00000000000000000000000000000000000000000000000000FF00000000F9FD00000000000000
310
000000000000000000000000000000000000FF00000000F9FF00000000000000000000000000000000000000000000000000FF00000000F9FFFFFFFFFFFFFFFFFFFFFFFFFFFFFFFFFFFFFFFFFFFFFFFFFFFFFF00000000F9FFFFFFF9F9F9F9F9F9F9F9F9F9F9F9F9F9F9F9F9F9F9F9F9F9F9F9000000000000000000000000
310
00000000000000000000000000000000000000000000000000000000000000000000000000000000000000000000000000000000000000000000000000000000000000000000000000000000000000000000000000000000000000000000000000000000000000000000000000000000000000000000000000000000000000
310
0000000000000000000000000000000000000000000000000000000000000000000000000000000000000000000000000000000000000000
102
{BLKREFS
331
11089
102
}
1001
AcDbDynamicBlockGUID
1000
{CD2B6DD4-F2BB-43DB-94CB-4CA0DFDFAC8E}
1001
AcDbBlockRepETag
1070
     1
1071
      149
1001
ACAD
1000
DesignCenter Data
1002
{
1070
     1
1070
     4
1002
}
  0
BLOCK_RECORD
  5
11EEB
330
1
100
AcDbSymbolTableRecord
100
AcDbBlockTableRecord
  2
*D2
340
0
  0
BLOCK_RECORD
  5
11EF7
330
1
100
AcDbSymbolTableRecord
100
AcDbBlockTableRecord
  2
*D3
340
0
  0
BLOCK_RECORD
  5
11F03
330
1
100
AcDbSymbolTableRecord
100
AcDbBlockTableRecord
  2
*D4
340
0
  0
ENDTAB
  0
ENDSEC
  0
SECTION
  2
BLOCKS
  0
BLOCK
  5
20
330
1F
100
AcDbEntity
  8
0
100
AcDbBlockBegin
  2
*Model_Space
 70
     0
 10
0.0
 20
0.0
 30
0.0
  3
*Model_Space
  1

  0
ENDBLK
  5
21
330
1F
100
AcDbEntity
  8
0
100
AcDbBlockEnd
  0
BLOCK
  5
1C
330
1B
100
AcDbEntity
 67
     1
  8
0
100
AcDbBlockBegin
  2
*Paper_Space
 70
     0
 10
0.0
 20
0.0
 30
0.0
  3
*Paper_Space
  1

  0
ENDBLK
  5
1D
330
1B
100
AcDbEntity
 67
     1
  8
0
100
AcDbBlockEnd
  0
BLOCK
  5
24
330
23
100
AcDbEntity
 67
     1
  8
0
100
AcDbBlockBegin
  2
*Paper_Space0
 70
     0
 10
0.0
 20
0.0
 30
0.0
  3
*Paper_Space0
  1

  0
ENDBLK
  5
25
330
23
100
AcDbEntity
 67
     1
  8
0
100
AcDbBlockEnd
  0
BLOCK
  5
10FEA
330
10FE8
100
AcDbEntity
  8
0
100
AcDbBlockBegin
  2
A4图框-NEW
 70
     0
 10
0.0
 20
0.0
 30
0.0
  3
A4图框-NEW
  1

  0
MTEXT
  5
1247D
102
{ACAD_XDICTIONARY
360
12523
102
}
330
10FE8
100
AcDbEntity
  8
图框
 62
     3
100
AcDbMText
 10
967.6594956750133
 20
499.7664151964293
 30
0.0
 40
2.985513575034151
 41
15.50176341157864
 71
     5
 72
     5
  1
BQ LUO
  7
Romans字体
 73
     1
 44
1.0
1001
AcDbBlockRepETag
1070
     1
1071
        0
1005
1247D
1001
ACAD
1000
MTEXTBEGIN
1070
    73
1070
     1
1070
    44
1040
1.0
1070
    74
1070
     0
1000
MTEXTEND
1000
ACAD_MTEXT_DEFINED_HEIGHT_BEGIN
1070
    46
1040
6.292658374511018
1000
ACAD_MTEXT_DEFINED_HEIGHT_END
  0
MTEXT
  5
1247E
330
10FE8
100
AcDbEntity
  8
图框
 62
     3
100
AcDbMText
 10
983.041569333247
 20
499.7664151964293
 30
0.0
 40
2.487927979195124
 41
15.26238390489051
 71
     5
 72
     5
  1
{\W0.7;18.10.2010}
  7
Romans字体
 73
     1
 44
1.0
1001
AcDbBlockRepETag
1070
     1
1071
        1
1005
1247E
1001
ACAD
1000
MTEXTBEGIN
1070
    73
1070
     1
1070
    44
1040
1.0
1070
    74
1070
     0
1000
MTEXTEND
1000
ACAD_MTEXT_DEFINED_HEIGHT_BEGIN
1070
    46
1040
6.292658374511042
1000
ACAD_MTEXT_DEFINED_HEIGHT_END
  0
MTEXT
  5
1247F
330
10FE8
100
AcDbEntity
  8
图框
 62
     3
100
AcDbMText
 10
1012.477254728976
 20
487.1810984474071
 30
0.0
 40
2.985513575034151
 41
17.64876416884615
 71
     5
 72
     5
  1
YY LIN
  7
Romans字体
 73
     1
 44
1.0
1001
AcDbBlockRepETag
1070
     1
1071
        2
1005
1247F
1001
ACAD
1000
MTEXTBEGIN
1070
    73
1070
     1
1070
    44
1040
1.0
1070
    74
1070
     0
1000
MTEXTEND
1000
ACAD_MTEXT_DEFINED_HEIGHT_BEGIN
1070
    46
1040
6.292658374511455
1000
ACAD_MTEXT_DEFINED_HEIGHT_END
  0
MTEXT
  5
12480
330
10FE8
100
AcDbEntity
  8
图框
 62
     3
100
AcDbMText
 10
1028.977802139886
 20
487.1810984474071
 30
0.0
 40
2.487927979195124
 41
15.35233065297276
 71
     5
 72
     5
  1
{\W0.7;18.10.2010}
  7
Romans字体
 73
     1
 44
1.0
1001
AcDbBlockRepETag
1070
     1
1071
        3
1005
12480
1001
ACAD
1000
MTEXTBEGIN
1070
    73
1070
     1
1070
    44
1040
1.0
1070
    74
1070
     0
1000
MTEXTEND
1000
ACAD_MTEXT_DEFINED_HEIGHT_BEGIN
1070
    46
1040
6.292658374511495
1000
ACAD_MTEXT_DEFINED_HEIGHT_END
  0
MTEXT
  5
12481
330
10FE8
100
AcDbEntity
  8
图框
 62
     3
100
AcDbMText
 10
1063.722665487208
 20
525.4145966538831
 30
0.0
 40
2.985513575034151
 41
32.4973914334545
 71
     5
 72
     5
  1
-
  7
Romans字体
 73
     1
 44
1.0
1001
AcDbBlockRepETag
1070
     1
1071
        4
1005
12481
1001
ACAD
1000
MTEXTBEGIN
1070
    73
1070
     1
1070
    44
1040
1.0
1070
    74
1070
     0
1000
MTEXTEND
1000
ACAD_MTEXT_DEFINED_HEIGHT_BEGIN
1070
    46
1040
11.82914190181707
1000
ACAD_MTEXT_DEFINED_HEIGHT_END
  0
MTEXT
  5
12482
330
10FE8
100
AcDbEntity
  8
图框
 62
     3
100
AcDbMText
 10
1063.727338552349
 20
513.5854547520641
 30
0.0
 40
2.985513575034151
 41
32.48804530317308
 71
     5
 72
     5
  1
-
  7
Romans字体
 73
     1
 44
1.0
1001
AcDbBlockRepETag
1070
     1
1071
        5
1005
12482
1001
ACAD
1000
MTEXTBEGIN
1070
    73
1070
     1
1070
    44
1040
1.0
1070
    74
1070
     0
1000
MTEXTEND
1000
ACAD_MTEXT_DEFINED_HEIGHT_BEGIN
1070
    46
1040
11.82914190182139
1000
ACAD_MTEXT_DEFINED_HEIGHT_END
  0
MTEXT
  5
12483
330
10FE8
100
AcDbEntity
  8
图框
 62
     3
100
AcDbMText
 10
1110.122306614152
 20
526.8006839312707
 30
0.0
 40
2.985513575034151
 41
33.61239199242139
 71
     5
 72
     5
  1
-
  7
Romans字体
 73
     1
 44
1.0
1001
AcDbBlockRepETag
1070
     1
1071
        6
1005
12483
1001
ACAD
1000
MTEXTBEGIN
1070
    73
1070
     1
1070
    44
1040
1.0
1070
    74
1070
     0
1000
MTEXTEND
1000
ACAD_MTEXT_DEFINED_HEIGHT_BEGIN
1070
    46
1040
9.05696734704178
1000
ACAD_MTEXT_DEFINED_HEIGHT_END
  0
MTEXT
  5
12484
330
10FE8
100
AcDbEntity
  8
图框
 62
     3
100
AcDbMText
 10
1110.122306614152
 20
500.2775205517162
 30
0.0
 40
2.985513575034151
 41
33.61239199242139
 71
     5
 72
     5
  1
-
  7
Romans字体
 73
     1
 44
1.0
1001
AcDbBlockRepETag
1070
     1
1071
        7
1005
12484
1001
ACAD
1000
MTEXTBEGIN
1070
    73
1070
     1
1070
    44
1040
1.0
1070
    74
1070
     0
1000
MTEXTEND
1000
ACAD_MTEXT_DEFINED_HEIGHT_BEGIN
1070
    46
1040
8.871557304763419
1000
ACAD_MTEXT_DEFINED_HEIGHT_END
  0
MTEXT
  5
12485
330
10FE8
100
AcDbEntity
  8
图框
 62
     3
100
AcDbMText
 10
967.6594956750133
 20
493.4737568219182
 30
0.0
 40
2.985513575034151
 41
15.50176341157864
 71
     5
 72
     5
  1
P RAO
  7
Romans字体
 73
     1
 44
1.0
1001
AcDbBlockRepETag
1070
     1
1071
        8
1005
12485
1001
ACAD
1000
MTEXTBEGIN
1070
    73
1070
     1
1070
    44
1040
1.0
1070
    74
1070
     0
1000
MTEXTEND
1000
ACAD_MTEXT_DEFINED_HEIGHT_BEGIN
1070
    46
1040
6.292658374510335
1000
ACAD_MTEXT_DEFINED_HEIGHT_END
  0
MTEXT
  5
12486
330
10FE8
100
AcDbEntity
  8
图框
 62
     3
100
AcDbMText
 10
983.041569333247
 20
493.2441970450405
 30
0.0
 40
2.487927979195124
 41
15.26238390489051
 71
     5
 72
     5
  1
{\W0.7;18.10.2010}
  7
Romans字体
 73
     1
 44
1.0
1001
AcDbBlockRepETag
1070
     1
1071
        9
1005
12486
1001
ACAD
1000
MTEXTBEGIN
1070
    73
1070
     1
1070
    44
1040
1.0
1070
    74
1070
     0
1000
MTEXTEND
1000
ACAD_MTEXT_DEFINED_HEIGHT_BEGIN
1070
    46
1040
6.751777928266487
1000
ACAD_MTEXT_DEFINED_HEIGHT_END
  0
MTEXT
  5
12487
330
10FE8
100
AcDbEntity
  8
图框
 62
     3
100
AcDbMText
 10
1012.477254728976
 20
499.7664151964291
 30
0.0
 40
2.985513575034151
 41
17.64876416884615
 71
     5
 72
     5
  1
-
  7
Romans字体
 73
     1
 44
1.0
1001
AcDbBlockRepETag
1070
     1
1071
       10
1005
12487
1001
ACAD
1000
MTEXTBEGIN
1070
    73
1070
     1
1070
    44
1040
1.0
1070
    74
1070
     0
1000
MTEXTEND
1000
ACAD_MTEXT_DEFINED_HEIGHT_BEGIN
1070
    46
1040
6.292658374511397
1000
ACAD_MTEXT_DEFINED_HEIGHT_END
  0
MTEXT
  5
12488
330
10FE8
100
AcDbEntity
  8
图框
 62
     3
100
AcDbMText
 10
1028.977802139886
 20
499.7664151964289
 30
0.0
 40
2.487927979195124
 41
15.35233065297265
 71
     5
 72
     5
  1
-
  7
Romans字体
 73
     1
 44
1.0
1001
AcDbBlockRepETag
1070
     1
1071
       11
1005
12488
1001
ACAD
1000
MTEXTBEGIN
1070
    73
1070
     1
1070
    44
1040
1.0
1070
    74
1070
     0
1000
MTEXTEND
1000
ACAD_MTEXT_DEFINED_HEIGHT_BEGIN
1070
    46
1040
6.292658374511382
1000
ACAD_MTEXT_DEFINED_HEIGHT_END
  0
MTEXT
  5
12489
330
10FE8
100
AcDbEntity
  8
图框
 62
     3
100
AcDbMText
 10
967.6594956750133
 20
487.1810984474071
 30
0.0
 40
2.985513575034151
 41
15.50176341157863
 71
     5
 72
     5
  1
-
  7
Romans字体
 73
     1
 44
1.0
1001
AcDbBlockRepETag
1070
     1
1071
       12
1005
12489
1001
ACAD
1000
MTEXTBEGIN
1070
    73
1070
     1
1070
    44
1040
1.0
1070
    74
1070
     0
1000
MTEXTEND
1000
ACAD_MTEXT_DEFINED_HEIGHT_BEGIN
1070
    46
1040
6.292658374511478
1000
ACAD_MTEXT_DEFINED_HEIGHT_END
  0
MTEXT
  5
1248A
330
10FE8
100
AcDbEntity
  8
图框
 62
     3
100
AcDbMText
 10
983.041569333247
 20
487.1810984474071
 30
0.0
 40
2.487927979195124
 41
15.26238390489062
 71
     5
 72
     5
  1
-
  7
Romans字体
 73
     1
 44
1.0
1001
AcDbBlockRepETag
1070
     1
1071
       13
1005
1248A
1001
ACAD
1000
MTEXTBEGIN
1070
    73
1070
     1
1070
    44
1040
1.0
1070
    74
1070
     0
1000
MTEXTEND
1000
ACAD_MTEXT_DEFINED_HEIGHT_BEGIN
1070
    46
1040
6.292658374511495
1000
ACAD_MTEXT_DEFINED_HEIGHT_END
  0
MTEXT
  5
1248B
330
10FE8
100
AcDbEntity
  8
图框
 62
     3
100
AcDbMText
 10
1074.556686986741
 20
495.8417418993361
 30
0.0
 40
2.985513575034151
 41
10.82934843438978
 71
     5
 72
     5
  1
-
  7
Romans字体
 73
     1
 44
1.0
1001
AcDbBlockRepETag
1070
     1
1071
       14
1005
1248B
1001
ACAD
1000
MTEXTBEGIN
1070
    73
1070
     1
1070
    44
1040
1.0
1070
    74
1070
     0
1000
MTEXTEND
1000
ACAD_MTEXT_DEFINED_HEIGHT_BEGIN
1070
    46
1040
7.886094601210427
1000
ACAD_MTEXT_DEFINED_HEIGHT_END
  0
LINE
  5
1248C
330
10FE8
100
AcDbEntity
  8
图框
370
    -3
100
AcDbLine
 10
1036.653967466372
 20
499.7847891999413
 30
0.0
 11
1079.971361203936
 21
499.7847891999413
 31
0.0
1001
AcDbBlockRepETag
1070
     1
1071
       15
1005
1248C
  0
MTEXT
  5
1248D
330
10FE8
100
AcDbEntity
  8
图框
 62
     1
370
    20
100
AcDbMText
 10
1108.26336443907
 20
491.5162596080882
 30
0.0
 40
2.699054613030988
 41
82.30831305643079
 71
     5
 72
     5
  1
{\fSimHei|b0|i0|c134|p2;厦门唯恩电气有限公司}
 73
     1
 44
1.0
1001
AcDbBlockRepETag
1070
     1
1071
       16
1005
1248D
1001
ACAD
1000
MTEXTBEGIN
1070
    73
1070
     1
1070
    44
1040
1.0
1070
    74
1070
     0
1000
MTEXTEND
  0
MTEXT
  5
1248E
330
10FE8
100
AcDbEntity
  8
图框
 62
     3
370
    20
100
AcDbMText
 10
1108.435451459908
 20
487.298967726064
 30
0.0
 40
1.652482416141417
 41
68.08558693693567
 71
     5
 72
     5
  1
{\fArial Narrow|b0|i0|c0|p34;XIAMEN WAIN ELECTRICAL CO.LTD}
  7
工程字
 73
     1
 44
1.0
1001
AcDbBlockRepETag
1070
     1
1071
       17
1005
1248E
1001
ACAD
1000
MTEXTBEGIN
1070
    73
1070
     1
1070
    44
1040
1.0
1070
    74
1070
     0
1000
MTEXTEND
  0
MTEXT
  5
1248F
330
10FE8
100
AcDbEntity
  8
图框
 62
     1
370
    20
100
AcDbMText
 10
1085.711816899387
 20
491.0944802995856
 30
0.0
 40
2.005930044038334
 41
5.047240019334847
 71
     1
 72
     5
  1
{\fArial|b0|i0|c0|p34;A}
  7
Chinese
 73
     1
 44
1.0
1001
AcDbBlockRepETag
1070
     1
1071
       18
1005
1248F
1001
ACAD
1000
MTEXTBEGIN
1070
    73
1070
     1
1070
    44
1040
1.0
1070
    74
1070
     0
1000
MTEXTEND
  0
MTEXT
  5
12490
330
10FE8
100
AcDbEntity
  8
图框
 62
     1
370
    20
100
AcDbMText
 10
1088.213485935716
 20
491.0944802995856
 30
0.0
 40
2.005930044038334
 41
5.047240019334847
 71
     1
 72
     5
  1
{\fArial|b0|i0|c0|p34;I}
  7
Chinese
 73
     1
 44
1.0
1001
AcDbBlockRepETag
1070
     1
1071
       19
1005
12490
1001
ACAD
1000
MTEXTBEGIN
1070
    73
1070
     1
1070
    44
1040
1.0
1070
    74
1070
     0
1000
MTEXTEND
  0
MTEXT
  5
12491
330
10FE8
100
AcDbEntity
  8
图框
 62
     1
370
    20
100
AcDbMText
 10
1089.142375222864
 20
491.0822866326808
 30
0.0
 40
2.005930044038334
 41
5.047240019334847
 71
     1
 72
     5
  1
{\fArial|b0|i0|c0|p34;N}
  7
Chinese
 73
     1
 44
1.0
1001
AcDbBlockRepETag
1070
     1
1071
       20
1005
12491
1001
ACAD
1000
MTEXTBEGIN
1070
    73
1070
     1
1070
    44
1040
1.0
1070
    74
1070
     0
1000
MTEXTEND
  0
MTEXT
  5
12492
330
10FE8
100
AcDbEntity
  8
图框
100
AcDbMText
 10
1069.142012769545
 20
487.9667319294409
 30
0.0
 40
2.252848170144607
 41
21.65869686878327
 71
     5
 72
     5
  1
{\W0.5;\C1;All Dimensions in mm\POriginal Size DIN A 4}
  7
Romans字体
 73
     1
 44
1.0
1001
AcDbBlockRepETag
1070
     1
1071
       21
1005
12492
1001
ACAD
1000
MTEXTBEGIN
1070
    73
1070
     1
1070
    44
1040
1.0
1070
    74
1070
     0
1000
MTEXTEND
1000
ACAD_MTEXT_DEFINED_HEIGHT_BEGIN
1070
    46
1040
7.863925338579296
1000
ACAD_MTEXT_DEFINED_HEIGHT_END
  0
MTEXT
  5
12493
330
10FE8
100
AcDbEntity
  8
图框
  6
ByBlock
 62
     6
370
    18
100
AcDbMText
 10
1127.40434942308
 20
508.7896535755975
 30
0.0
 40
2.651776162684904
 41
2.557913877927211
 71
     1
 72
     5
  1
A
  7
Romans字体
 11
0.0000000000000001
 21
1.0
 31
0.0
 73
     1
 44
1.0
1001
AcDbBlockRepETag
1070
     1
1071
       22
1005
12493
1001
ACAD
1000
MTEXTBEGIN
1070
    73
1070
     1
1070
    44
1040
1.0
1070
    74
1070
     0
1000
MTEXTEND
  0
MTEXT
  5
12494
330
10FE8
100
AcDbEntity
  8
图框
 62
     6
100
AcDbMText
 10
1127.40434942308
 20
556.3746573232886
 30
0.0
 40
2.651776162684904
 41
2.557913877927211
 71
     1
 72
     5
  1
B
  7
Romans字体
 11
0.0000000000000001
 21
1.0
 31
0.0
 73
     1
 44
1.0
1001
AcDbBlockRepETag
1070
     1
1071
       23
1005
12494
1001
ACAD
1000
MTEXTBEGIN
1070
    73
1070
     1
1070
    44
1040
1.0
1070
    74
1070
     0
1000
MTEXTEND
  0
MTEXT
  5
12495
330
10FE8
100
AcDbEntity
  8
图框
 62
     6
100
AcDbMText
 10
1127.40434942308
 20
607.5539372630998
 30
0.0
 40
2.651776162684904
 41
2.557913877927211
 71
     1
 72
     5
  1
C
  7
Romans字体
 11
0.0000000000000001
 21
1.0
 31
0.0
 73
     1
 44
1.0
1001
AcDbBlockRepETag
1070
     1
1071
       24
1005
12495
1001
ACAD
1000
MTEXTBEGIN
1070
    73
1070
     1
1070
    44
1040
1.0
1070
    74
1070
     0
1000
MTEXTEND
  0
MTEXT
  5
12496
330
10FE8
100
AcDbEntity
  8
图框
 62
     6
100
AcDbMText
 10
1127.40434942308
 20
658.7332172029115
 30
0.0
 40
2.651776162684904
 41
2.557913877927211
 71
     1
 72
     5
  1
D
  7
Romans字体
 11
0.0000000000000001
 21
1.0
 31
0.0
 73
     1
 44
1.0
1001
AcDbBlockRepETag
1070
     1
1071
       25
1005
12496
1001
ACAD
1000
MTEXTBEGIN
1070
    73
1070
     1
1070
    44
1040
1.0
1070
    74
1070
     0
1000
MTEXTEND
  0
LINE
  5
12497
330
10FE8
100
AcDbEntity
  8
图框
 62
     6
100
AcDbLine
 10
1130.411601781241
 20
634.0726090796082
 30
0.0
 11
1126.928502610363
 21
634.0726090796082
 31
0.0
1001
AcDbBlockRepETag
1070
     1
1071
       26
1005
12497
  0
LINE
  5
12498
330
10FE8
100
AcDbEntity
  8
图框
 62
     6
100
AcDbLine
 10
1130.411601781241
 20
582.89332913979
 30
0.0
 11
1126.928502610363
 21
582.89332913979
 31
0.0
1001
AcDbBlockRepETag
1070
     1
1071
       27
1005
12498
  0
MTEXT
  5
12499
330
10FE8
100
AcDbEntity
  8
图框
 62
     6
100
AcDbMText
 10
1105.329704038389
 20
483.6164543011163
 30
0.0
 40
2.651776162684904
 41
2.557913877927211
 71
     1
 72
     5
  1
6
  7
Romans字体
 73
     1
 44
1.0
1001
AcDbBlockRepETag
1070
     1
1071
       28
1005
12499
1001
ACAD
1000
MTEXTBEGIN
1070
    73
1070
     1
1070
    44
1040
1.0
1070
    74
1070
     0
1000
MTEXTEND
  0
LINE
  5
1249A
330
10FE8
100
AcDbEntity
  8
图框
 62
     6
100
AcDbLine
 10
1081.088565155284
 20
484.0347692601515
 30
0.0
 11
1081.088565155284
 21
480.5347692601476
 31
0.0
1001
AcDbBlockRepETag
1070
     1
1071
       29
1005
1249A
  0
MTEXT
  5
1249B
330
10FE8
100
AcDbEntity
  8
图框
 62
     6
100
AcDbMText
 10
1055.900596365941
 20
483.520053108993
 30
0.0
 40
2.651776162684904
 41
2.557913877927211
 71
     1
 72
     5
  1
5
  7
Romans字体
 73
     1
 44
1.0
1001
AcDbBlockRepETag
1070
     1
1071
       30
1005
1249B
1001
ACAD
1000
MTEXTBEGIN
1070
    73
1070
     1
1070
    44
1040
1.0
1070
    74
1070
     0
1000
MTEXTEND
  0
LINE
  5
1249C
330
10FE8
100
AcDbEntity
  8
图框
 62
     6
100
AcDbLine
 10
1031.553386436349
 20
484.0347692601515
 30
0.0
 11
1031.553386436349
 21
480.5347692601476
 31
0.0
1001
AcDbBlockRepETag
1070
     1
1071
       31
1005
1249C
  0
MTEXT
  5
1249D
330
10FE8
100
AcDbEntity
  8
图框
 62
     6
100
AcDbMText
 10
1006.383180575197
 20
483.5687958215896
 30
0.0
 40
2.651776162684904
 41
2.557913877927211
 71
     1
 72
     5
  1
4
  7
Romans字体
 73
     1
 44
1.0
1001
AcDbBlockRepETag
1070
     1
1071
       32
1005
1249D
1001
ACAD
1000
MTEXTBEGIN
1070
    73
1070
     1
1070
    44
1040
1.0
1070
    74
1070
     0
1000
MTEXTEND
  0
LINE
  5
1249E
330
10FE8
100
AcDbEntity
  8
图框
 62
     6
100
AcDbLine
 10
982.0182077173887
 20
484.0347692601515
 30
0.0
 11
982.0182077173887
 21
480.5347692601476
 31
0.0
1001
AcDbBlockRepETag
1070
     1
1071
       33
1005
1249E
  0
MTEXT
  5
1249F
330
10FE8
100
AcDbEntity
  8
图框
 62
     6
100
AcDbMText
 10
956.8302389280352
 20
483.5989680297948
 30
0.0
 40
2.651776162684904
 41
2.557913877927211
 71
     1
 72
     5
  1
3
  7
Romans字体
 73
     1
 44
1.0
1001
AcDbBlockRepETag
1070
     1
1071
       34
1005
1249F
1001
ACAD
1000
MTEXTBEGIN
1070
    73
1070
     1
1070
    44
1040
1.0
1070
    74
1070
     0
1000
MTEXTEND
  0
LINE
  5
124A0
330
10FE8
100
AcDbEntity
  8
图框
 62
     6
100
AcDbLine
 10
932.4830289984245
 20
484.0347692601515
 30
0.0
 11
932.4830289984245
 21
480.5347692601476
 31
0.0
1001
AcDbBlockRepETag
1070
     1
1071
       35
1005
124A0
  0
MTEXT
  5
124A1
330
10FE8
100
AcDbEntity
  8
图框
 62
     6
100
AcDbMText
 10
906.0252349826365
 20
483.6475250013156
 30
0.0
 40
2.651776162684904
 41
2.557913877927211
 71
     1
 72
     5
  1
2
  7
Romans字体
 73
     1
 44
1.0
1001
AcDbBlockRepETag
1070
     1
1071
       36
1005
124A1
1001
ACAD
1000
MTEXTBEGIN
1070
    73
1070
     1
1070
    44
1040
1.0
1070
    74
1070
     0
1000
MTEXTEND
  0
LINE
  5
124A2
330
10FE8
100
AcDbEntity
  8
图框
 62
     6
100
AcDbLine
 10
882.9478502794648
 20
484.0347692601515
 30
0.0
 11
882.9478502794648
 21
480.5347692601476
 31
0.0
1001
AcDbBlockRepETag
1070
     1
1071
       37
1005
124A2
  0
MTEXT
  5
124A3
330
10FE8
100
AcDbEntity
  8
图框
 62
     6
100
AcDbMText
 10
857.7598814901191
 20
483.651829494754
 30
0.0
 40
2.651776162684904
 41
2.557913877927211
 71
     1
 72
     5
  1
1
  7
Romans字体
 73
     1
 44
1.0
1001
AcDbBlockRepETag
1070
     1
1071
       38
1005
124A3
1001
ACAD
1000
MTEXTBEGIN
1070
    73
1070
     1
1070
    44
1040
1.0
1070
    74
1070
     0
1000
MTEXTEND
  0
LINE
  5
124A4
330
10FE8
100
AcDbEntity
  8
图框
370
    50
100
AcDbLine
 10
836.8548209370597
 20
484.0347692601515
 30
0.0
 11
1126.928502610363
 21
484.0347692601515
 31
0.0
1001
AcDbBlockRepETag
1070
     1
1071
       39
1005
124A4
  0
LINE
  5
124A5
330
10FE8
100
AcDbEntity
  8
图框
370
    50
100
AcDbLine
 10
836.9128518455362
 20
484.0178684310246
 30
0.0
 11
836.9128518455394
 21
675.0207195125422
 31
0.0
1001
AcDbBlockRepETag
1070
     1
1071
       40
1005
124A5
  0
MTEXT
  5
124A6
330
10FE8
100
AcDbEntity
  8
图框
 62
     6
100
AcDbMText
 10
833.8475685789031
 20
658.7332172029115
 30
0.0
 40
2.651776162684904
 41
2.557913877927211
 71
     1
 72
     5
  1
D
  7
Romans字体
 11
0.0000000000000001
 21
1.0
 31
0.0
 73
     1
 44
1.0
1001
AcDbBlockRepETag
1070
     1
1071
       41
1005
124A6
1001
ACAD
1000
MTEXTBEGIN
1070
    73
1070
     1
1070
    44
1040
1.0
1070
    74
1070
     0
1000
MTEXTEND
  0
LINE
  5
124A7
330
10FE8
100
AcDbEntity
  8
图框
 62
     6
100
AcDbLine
 10
836.9128518455386
 20
634.0726090796082
 30
0.0
 11
833.4128518455365
 21
634.0726090796082
 31
0.0
1001
AcDbBlockRepETag
1070
     1
1071
       42
1005
124A7
  0
MTEXT
  5
124A8
330
10FE8
100
AcDbEntity
  8
图框
 62
     6
100
AcDbMText
 10
833.9039177480142
 20
607.5539372630998
 30
0.0
 40
2.651776162684904
 41
2.557913877927211
 71
     1
 72
     5
  1
C
  7
Romans字体
 11
0.0000000000000001
 21
1.0
 31
0.0
 73
     1
 44
1.0
1001
AcDbBlockRepETag
1070
     1
1071
       43
1005
124A8
1001
ACAD
1000
MTEXTBEGIN
1070
    73
1070
     1
1070
    44
1040
1.0
1070
    74
1070
     0
1000
MTEXTEND
  0
LINE
  5
124A9
330
10FE8
100
AcDbEntity
  8
图框
 62
     6
100
AcDbLine
 10
836.9128518455378
 20
582.89332913979
 30
0.0
 11
833.4128518455365
 21
582.89332913979
 31
0.0
1001
AcDbBlockRepETag
1070
     1
1071
       44
1005
124A9
  0
MTEXT
  5
124AA
330
10FE8
100
AcDbEntity
  8
图框
 62
     6
100
AcDbMText
 10
833.9039177480142
 20
556.3746573232886
 30
0.0
 40
2.651776162684904
 41
2.557913877927211
 71
     1
 72
     5
  1
B
  7
Romans字体
 11
0.0000000000000001
 21
1.0
 31
0.0
 73
     1
 44
1.0
1001
AcDbBlockRepETag
1070
     1
1071
       45
1005
124AA
1001
ACAD
1000
MTEXTBEGIN
1070
    73
1070
     1
1070
    44
1040
1.0
1070
    74
1070
     0
1000
MTEXTEND
  0
LINE
  5
124AB
330
10FE8
100
AcDbEntity
  8
图框
 62
     6
100
AcDbLine
 10
836.9128518455367
 20
531.714049199969
 30
0.0
 11
833.4128518455365
 21
531.714049199969
 31
0.0
1001
AcDbBlockRepETag
1070
     1
1071
       46
1005
124AB
  0
MTEXT
  5
124AC
330
10FE8
100
AcDbEntity
  8
图框
 62
     6
100
AcDbMText
 10
833.9039177480142
 20
508.7896535755975
 30
0.0
 40
2.651776162684904
 41
2.557913877927211
 71
     1
 72
     5
  1
A
  7
Romans字体
 11
0.0000000000000001
 21
1.0
 31
0.0
 73
     1
 44
1.0
1001
AcDbBlockRepETag
1070
     1
1071
       47
1005
124AC
1001
ACAD
1000
MTEXTBEGIN
1070
    73
1070
     1
1070
    44
1040
1.0
1070
    74
1070
     0
1000
MTEXTEND
  0
LINE
  5
124AD
330
10FE8
100
AcDbEntity
  8
图框
370
    -3
100
AcDbLine
 10
836.9128518455394
 20
675.0207195125422
 30
0.0
 11
836.9128518455394
 21
684.5021384922564
 31
0.0
1001
AcDbBlockRepETag
1070
     1
1071
       48
1005
124AD
  0
LINE
  5
124AE
330
10FE8
100
AcDbEntity
  8
图框
370
    -3
100
AcDbLine
 10
842.6237321475781
 20
675.5347692601515
 30
0.0
 11
842.6237321475781
 21
685.0161882398658
 31
0.0
1001
AcDbBlockRepETag
1070
     1
1071
       49
1005
124AE
  0
LINE
  5
124AF
330
10FE8
100
AcDbEntity
  8
图框
370
    -3
100
AcDbLine
 10
848.3346124496179
 20
675.5347692601515
 30
0.0
 11
848.3346124496179
 21
685.0161882398658
 31
0.0
1001
AcDbBlockRepETag
1070
     1
1071
       50
1005
124AF
  0
LINE
  5
124B0
330
10FE8
100
AcDbEntity
  8
图框
370
    -3
100
AcDbLine
 10
854.0454927516588
 20
675.5347692601515
 30
0.0
 11
854.0454927516588
 21
685.0161882398658
 31
0.0
1001
AcDbBlockRepETag
1070
     1
1071
       51
1005
124B0
  0
LINE
  5
124B1
330
10FE8
100
AcDbEntity
  8
图框
370
    -3
100
AcDbLine
 10
861.5351874539182
 20
675.5347692601515
 30
0.0
 11
861.5351874539182
 21
686.7901958362482
 31
0.0
1001
AcDbBlockRepETag
1070
     1
1071
       52
1005
124B1
  0
MTEXT
  5
124B2
330
10FE8
100
AcDbEntity
  8
图框
 62
     6
100
AcDbMText
 10
1105.329704038389
 20
678.859919059449
 30
0.0
 40
2.651776162684904
 41
2.557913877927211
 71
     1
 72
     5
  1
6
  7
Romans字体
 73
     1
 44
1.0
1001
AcDbBlockRepETag
1070
     1
1071
       53
1005
124B2
1001
ACAD
1000
MTEXTBEGIN
1070
    73
1070
     1
1070
    44
1040
1.0
1070
    74
1070
     0
1000
MTEXTEND
  0
LINE
  5
124B3
330
10FE8
100
AcDbEntity
  8
图框
 62
     6
100
AcDbLine
 10
1081.088565155284
 20
679.0347692601516
 30
0.0
 11
1081.088565155284
 21
675.5347692601515
 31
0.0
1001
AcDbBlockRepETag
1070
     1
1071
       54
1005
124B3
  0
MTEXT
  5
124B4
330
10FE8
100
AcDbEntity
  8
图框
 62
     6
100
AcDbMText
 10
1055.900596365941
 20
678.859919059449
 30
0.0
 40
2.651776162684904
 41
2.557913877927211
 71
     1
 72
     5
  1
5
  7
Romans字体
 73
     1
 44
1.0
1001
AcDbBlockRepETag
1070
     1
1071
       55
1005
124B4
1001
ACAD
1000
MTEXTBEGIN
1070
    73
1070
     1
1070
    44
1040
1.0
1070
    74
1070
     0
1000
MTEXTEND
  0
LINE
  5
124B5
330
10FE8
100
AcDbEntity
  8
图框
 62
     6
100
AcDbLine
 10
1031.553386436349
 20
679.0347692601516
 30
0.0
 11
1031.553386436349
 21
675.5347692601515
 31
0.0
1001
AcDbBlockRepETag
1070
     1
1071
       56
1005
124B5
  0
MTEXT
  5
124B6
330
10FE8
100
AcDbEntity
  8
图框
 62
     6
100
AcDbMText
 10
1006.36541764698
 20
678.7312083656147
 30
0.0
 40
2.651776162684904
 41
2.557913877927211
 71
     1
 72
     5
  1
4
  7
Romans字体
 73
     1
 44
1.0
1001
AcDbBlockRepETag
1070
     1
1071
       57
1005
124B6
1001
ACAD
1000
MTEXTBEGIN
1070
    73
1070
     1
1070
    44
1040
1.0
1070
    74
1070
     0
1000
MTEXTEND
  0
LINE
  5
124B7
330
10FE8
100
AcDbEntity
  8
图框
 62
     6
100
AcDbLine
 10
982.0182077173887
 20
679.0347692601516
 30
0.0
 11
982.0182077173887
 21
675.5347692601515
 31
0.0
1001
AcDbBlockRepETag
1070
     1
1071
       58
1005
124B7
  0
MTEXT
  5
124B8
330
10FE8
100
AcDbEntity
  8
图框
 62
     6
100
AcDbMText
 10
956.8302389280352
 20
678.859919059449
 30
0.0
 40
2.651776162684904
 41
2.557913877927211
 71
     1
 72
     5
  1
3
  7
Romans字体
 73
     1
 44
1.0
1001
AcDbBlockRepETag
1070
     1
1071
       59
1005
124B8
1001
ACAD
1000
MTEXTBEGIN
1070
    73
1070
     1
1070
    44
1040
1.0
1070
    74
1070
     0
1000
MTEXTEND
  0
LINE
  5
124B9
330
10FE8
100
AcDbEntity
  8
图框
 62
     6
100
AcDbLine
 10
932.4830289984245
 20
679.0347692601516
 30
0.0
 11
932.4830289984245
 21
675.5347692601515
 31
0.0
1001
AcDbBlockRepETag
1070
     1
1071
       60
1005
124B9
  0
MTEXT
  5
124BA
330
10FE8
100
AcDbEntity
  8
图框
 62
     6
100
AcDbMText
 10
907.295060209082
 20
678.859919059449
 30
0.0
 40
2.651776162684904
 41
2.557913877927211
 71
     1
 72
     5
  1
2
  7
Romans字体
 73
     1
 44
1.0
1001
AcDbBlockRepETag
1070
     1
1071
       61
1005
124BA
1001
ACAD
1000
MTEXTBEGIN
1070
    73
1070
     1
1070
    44
1040
1.0
1070
    74
1070
     0
1000
MTEXTEND
  0
LINE
  5
124BB
330
10FE8
100
AcDbEntity
  8
图框
 62
     6
100
AcDbLine
 10
882.9478502794648
 20
678.7962435131815
 30
0.0
 11
882.9478502794648
 21
675.5347692601515
 31
0.0
1001
AcDbBlockRepETag
1070
     1
1071
       62
1005
124BB
  0
MTEXT
  5
124BC
330
10FE8
100
AcDbEntity
  8
图框
 62
     6
100
AcDbMText
 10
862.6286629643733
 20
678.859919059449
 30
0.0
 40
2.651776162684904
 41
2.557913877927211
 71
     1
 72
     5
  1
1
  7
Romans字体
 73
     1
 44
1.0
1001
AcDbBlockRepETag
1070
     1
1071
       63
1005
124BC
1001
ACAD
1000
MTEXTBEGIN
1070
    73
1070
     1
1070
    44
1040
1.0
1070
    74
1070
     0
1000
MTEXTEND
  0
LINE
  5
124BD
330
10FE8
100
AcDbEntity
  8
图框
370
    -3
100
AcDbLine
 10
836.9128518455394
 20
675.0207195125422
 30
0.0
 11
836.9128518455394
 21
686.7901958362482
 31
0.0
1001
AcDbBlockRepETag
1070
     1
1071
       64
1005
124BD
  0
LINE
  5
124BE
330
10FE8
100
AcDbEntity
  8
图框
370
    50
100
AcDbLine
 10
836.9128518455394
 20
675.5347692601515
 30
0.0
 11
1126.928502610363
 21
675.5347692601515
 31
0.0
1001
AcDbBlockRepETag
1070
     1
1071
       65
1005
124BE
  0
LINE
  5
124BF
330
10FE8
100
AcDbEntity
  8
图框
370
    -3
100
AcDbLine
 10
842.6237321475781
 20
675.5347692601515
 30
0.0
 11
842.6237321475781
 21
686.7901958362482
 31
0.0
1001
AcDbBlockRepETag
1070
     1
1071
       66
1005
124BF
  0
LINE
  5
124C0
330
10FE8
100
AcDbEntity
  8
图框
370
    -3
100
AcDbLine
 10
848.3346124496179
 20
675.5347692601515
 30
0.0
 11
848.3346124496179
 21
686.7901958362482
 31
0.0
1001
AcDbBlockRepETag
1070
     1
1071
       67
1005
124C0
  0
MTEXT
  5
124C1
102
{ACAD_XDICTIONARY
360
12525
102
}
330
10FE8
100
AcDbEntity
  8
图框
100
AcDbMText
 10
857.7903401027889
 20
686.7901958362482
 30
0.0
 40
1.958998408821398
 41
11.25542657609672
 71
     4
 72
     5
  1
{\W2.08073; }档案员{\H0.7x;\P\Fromans|c134;\W1.0325; \W0.75;Filing Clerk\fFangSong_GB2312|b0|i0|c134|p49; }
 11
-0.0000000000000002
 21
-1.0
 31
0.0
 73
     1
 44
1.0
1001
AcDbBlockRepETag
1070
     1
1071
       68
1005
124C1
1001
ACAD
1000
MTEXTBEGIN
1070
    73
1070
     1
1070
    44
1040
1.0
1070
    74
1070
     0
1000
MTEXTEND
1000
ACAD_MTEXT_DEFINED_HEIGHT_BEGIN
1070
    46
1040
7.489694702258906
1000
ACAD_MTEXT_DEFINED_HEIGHT_END
  0
MTEXT
  5
124C2
102
{ACAD_XDICTIONARY
360
12527
102
}
330
10FE8
100
AcDbEntity
  8
图框
100
AcDbMText
 10
845.479172298598
 20
686.7901958362482
 30
0.0
 40
1.958998408821398
 41
11.25542657609672
 71
     4
 72
     5
  1
{\W0.524929; }日期{\Fromans|c134;/Date}
 11
-0.0000000000000002
 21
-1.0
 31
0.0
 73
     1
 44
1.0
1001
AcDbBlockRepETag
1070
     1
1071
       69
1005
124C2
1001
ACAD
1000
MTEXTBEGIN
1070
    73
1070
     1
1070
    44
1040
1.0
1070
    74
1070
     0
1000
MTEXTEND
1000
ACAD_MTEXT_DEFINED_HEIGHT_BEGIN
1070
    46
1040
5.710880302039671
1000
ACAD_MTEXT_DEFINED_HEIGHT_END
  0
LINE
  5
124C3
330
10FE8
100
AcDbEntity
  8
图框
370
    -3
100
AcDbLine
 10
854.0454927516588
 20
675.5347692601515
 30
0.0
 11
854.0454927516588
 21
686.7901958362482
 31
0.0
1001
AcDbBlockRepETag
1070
     1
1071
       70
1005
124C3
  0
LINE
  5
124C4
330
10FE8
100
AcDbEntity
  8
图框
370
    -3
100
AcDbLine
 10
1036.653967466372
 20
531.3291676047914
 30
0.0
 11
1036.653967466372
 21
484.0126019753161
 31
0.0
1001
AcDbBlockRepETag
1070
     1
1071
       71
1005
124C4
  0
LINE
  5
124C5
330
10FE8
100
AcDbEntity
  8
图框
370
    -3
100
AcDbLine
 10
1047.483315900763
 20
507.6708838011533
 30
0.0
 11
1047.483315900763
 21
491.8986945987308
 31
0.0
1001
AcDbBlockRepETag
1070
     1
1071
       72
1005
124C5
  0
LINE
  5
124C6
330
10FE8
100
AcDbEntity
  8
图框
370
    -3
100
AcDbLine
 10
1058.312664335153
 20
507.6708838011533
 30
0.0
 11
1058.312664335153
 21
484.0347692601515
 31
0.0
1001
AcDbBlockRepETag
1070
     1
1071
       73
1005
124C6
  0
LINE
  5
124C7
330
10FE8
100
AcDbEntity
  8
图框
370
    25
100
AcDbLine
 10
1048.474135214456
 20
488.1095628329926
 30
0.0
 11
1054.946420288459
 21
488.1095628329926
 31
0.0
1001
AcDbBlockRepETag
1070
     1
1071
       74
1005
124C7
  0
LINE
  5
124C8
330
10FE8
100
AcDbEntity
  8
图框
370
    25
100
AcDbLine
 10
1054.232527365989
 20
487.0761716842634
 30
0.0
 11
1049.156490914508
 21
486.4576273751
 31
0.0
1001
AcDbBlockRepETag
1070
     1
1071
       75
1005
124C8
  0
LINE
  5
124C9
330
10FE8
100
AcDbEntity
  8
图框
370
    25
100
AcDbLine
 10
1054.232527365989
 20
489.1429539817209
 30
0.0
 11
1049.156490914508
 21
489.7614982908846
 31
0.0
1001
AcDbBlockRepETag
1070
     1
1071
       76
1005
124C9
  0
LINE
  5
124CA
330
10FE8
100
AcDbEntity
  8
图框
370
    25
100
AcDbLine
 10
1049.156490914508
 20
489.7614982908846
 30
0.0
 11
1049.156490914508
 21
486.4576273751
 31
0.0
1001
AcDbBlockRepETag
1070
     1
1071
       77
1005
124CA
  0
LINE
  5
124CB
330
10FE8
100
AcDbEntity
  8
图框
370
    25
100
AcDbLine
 10
1054.232527365989
 20
489.1429539817209
 30
0.0
 11
1054.232527365989
 21
487.0761716842634
 31
0.0
1001
AcDbBlockRepETag
1070
     1
1071
       78
1005
124CB
  0
CIRCLE
  5
124CC
330
10FE8
100
AcDbEntity
  8
图框
370
    25
100
AcDbCircle
 10
1042.502700458579
 20
488.1095628329926
 30
0.0
 40
1.651935457891863
1001
AcDbBlockRepETag
1070
     1
1071
       79
1005
124CC
  0
CIRCLE
  5
124CD
330
10FE8
100
AcDbEntity
  8
图框
370
    25
100
AcDbCircle
 10
1042.502700458579
 20
488.1095628329926
 30
0.0
 40
1.033391148728775
1001
AcDbBlockRepETag
1070
     1
1071
       80
1005
124CD
  0
LINE
  5
124CE
330
10FE8
100
AcDbEntity
  8
图框
370
    25
100
AcDbLine
 10
1040.136872078216
 20
488.1095628329926
 30
0.0
 11
1044.868528838943
 21
488.1095628329926
 31
0.0
1001
AcDbBlockRepETag
1070
     1
1071
       81
1005
124CE
  0
LINE
  5
124CF
330
10FE8
100
AcDbEntity
  8
图框
370
    25
100
AcDbLine
 10
1042.502700458579
 20
490.475391213355
 30
0.0
 11
1042.502700458579
 21
485.743734452629
 31
0.0
1001
AcDbBlockRepETag
1070
     1
1071
       82
1005
124CF
  0
LINE
  5
124D0
330
10FE8
100
AcDbEntity
  8
图框
370
    -3
100
AcDbLine
 10
1069.142012769546
 20
507.6708838011533
 30
0.0
 11
1069.142012769546
 21
491.8986945987308
 31
0.0
1001
AcDbBlockRepETag
1070
     1
1071
       83
1005
124D0
  0
MTEXT
  5
124D1
330
10FE8
100
AcDbEntity
  8
图框
100
AcDbMText
 10
1086.643735910939
 20
526.8006839312707
 30
0.0
 40
2.154898249703542
 41
13.34474941400573
 71
     5
 72
     5
  1
图号{\Ftxt|c134;\P\Fromans|c134;\W0.65;Drawing No.}
 73
     1
 44
1.0
1001
AcDbBlockRepETag
1070
     1
1071
       84
1005
124D1
1001
ACAD
1000
MTEXTBEGIN
1070
    73
1070
     1
1070
    44
1040
1.0
1070
    74
1070
     0
1000
MTEXTEND
1000
ACAD_MTEXT_DEFINED_HEIGHT_BEGIN
1070
    46
1040
9.056967347041775
1000
ACAD_MTEXT_DEFINED_HEIGHT_END
  0
LINE
  5
124D2
330
10FE8
100
AcDbEntity
  8
图框
370
    -3
100
AcDbLine
 10
1093.316110617942
 20
531.3291676047914
 30
0.0
 11
1093.316110617942
 21
495.8417418993347
 31
0.0
1001
AcDbBlockRepETag
1070
     1
1071
       85
1005
124D2
  0
LINE
  5
124D3
330
10FE8
100
AcDbEntity
  8
图框
370
    -3
100
AcDbLine
 10
1047.473969770481
 20
531.3291676047914
 30
0.0
 11
1047.473969770481
 21
507.6708838011533
 31
0.0
1001
AcDbBlockRepETag
1070
     1
1071
       86
1005
124D3
  0
MTEXT
  5
124D4
330
10FE8
100
AcDbEntity
  8
图框
100
AcDbMText
 10
1063.72733855235
 20
503.7278365005473
 30
0.0
 40
2.252848170144607
 41
10.82934843439208
 71
     5
 72
     5
  1
重量\P{\Fromans|c134;Weight}
 73
     1
 44
1.0
1001
AcDbBlockRepETag
1070
     1
1071
       87
1005
124D4
1001
ACAD
1000
MTEXTBEGIN
1070
    73
1070
     1
1070
    44
1040
1.0
1070
    74
1070
     0
1000
MTEXTEND
1000
ACAD_MTEXT_DEFINED_HEIGHT_BEGIN
1070
    46
1040
7.886094601212128
1000
ACAD_MTEXT_DEFINED_HEIGHT_END
  0
LINE
  5
124D5
330
10FE8
100
AcDbEntity
  8
图框
370
    -3
100
AcDbLine
 10
1036.653967466372
 20
519.5000257029746
 30
0.0
 11
1079.971361203936
 21
519.5000257029746
 31
0.0
1001
AcDbBlockRepETag
1070
     1
1071
       88
1005
124D5
  0
MTEXT
  5
124D6
330
10FE8
100
AcDbEntity
  8
图框
100
AcDbMText
 10
1074.556686986741
 20
503.7278365005473
 30
0.0
 40
2.252848170144607
 41
10.82934843438984
 71
     5
 72
     5
  1
数量\P{\Fromans|c134;Qty.}
 73
     1
 44
1.0
1001
AcDbBlockRepETag
1070
     1
1071
       89
1005
124D6
1001
ACAD
1000
MTEXTBEGIN
1070
    73
1070
     1
1070
    44
1040
1.0
1070
    74
1070
     0
1000
MTEXTEND
1000
ACAD_MTEXT_DEFINED_HEIGHT_BEGIN
1070
    46
1040
7.886094601212141
1000
ACAD_MTEXT_DEFINED_HEIGHT_END
  0
LINE
  5
124D7
330
10FE8
100
AcDbEntity
  8
图框
370
    -3
100
AcDbLine
 10
1079.971361203936
 20
495.8417418993347
 30
0.0
 11
1126.928502610363
 21
495.8417418993342
 31
0.0
1001
AcDbBlockRepETag
1070
     1
1071
       90
1005
124D7
  0
LINE
  5
124D8
330
10FE8
100
AcDbEntity
  8
图框
370
    -3
100
AcDbLine
 10
1079.971361203936
 20
504.7132992040975
 30
0.0
 11
1126.928502610363
 21
504.7132992040975
 31
0.0
1001
AcDbBlockRepETag
1070
     1
1071
       91
1005
124D8
  0
MTEXT
  5
124D9
330
10FE8
100
AcDbEntity
  8
图框
100
AcDbMText
 10
1052.893317052817
 20
503.7278365005473
 30
0.0
 40
2.252848170144607
 41
10.83869456467139
 71
     5
 72
     5
  1
版本\P{\Fromans|c134;REV.}
 73
     1
 44
1.0
1001
AcDbBlockRepETag
1070
     1
1071
       92
1005
124D9
1001
ACAD
1000
MTEXTBEGIN
1070
    73
1070
     1
1070
    44
1040
1.0
1070
    74
1070
     0
1000
MTEXTEND
1000
ACAD_MTEXT_DEFINED_HEIGHT_BEGIN
1070
    46
1040
7.886094601212101
1000
ACAD_MTEXT_DEFINED_HEIGHT_END
  0
MTEXT
  5
124DA
330
10FE8
100
AcDbEntity
  8
图框
100
AcDbMText
 10
1042.068641683568
 20
503.7278365005473
 30
0.0
 40
2.252848170144607
 41
10.8293484343908
 71
     5
 72
     5
  1
比例\P{\Fromans|c134;Scale}
 73
     1
 44
1.0
1001
AcDbBlockRepETag
1070
     1
1071
       93
1005
124DA
1001
ACAD
1000
MTEXTBEGIN
1070
    73
1070
     1
1070
    44
1040
1.0
1070
    74
1070
     0
1000
MTEXTEND
1000
ACAD_MTEXT_DEFINED_HEIGHT_BEGIN
1070
    46
1040
7.886094601212136
1000
ACAD_MTEXT_DEFINED_HEIGHT_END
  0
LINE
  5
124DB
330
10FE8
100
AcDbEntity
  8
图框
370
    -3
100
AcDbLine
 10
1036.653967466372
 20
507.6708838011533
 30
0.0
 11
1079.971361203936
 21
507.6708838011533
 31
0.0
1001
AcDbBlockRepETag
1070
     1
1071
       94
1005
124DB
  0
LINE
  5
124DC
330
10FE8
100
AcDbEntity
  8
图框
370
    -3
100
AcDbLine
 10
1036.653967466372
 20
491.8986945987308
 30
0.0
 11
1079.971361203936
 21
491.8986945987308
 31
0.0
1001
AcDbBlockRepETag
1070
     1
1071
       95
1005
124DC
  0
LINE
  5
124DD
330
10FE8
100
AcDbEntity
  8
图框
370
    -3
100
AcDbLine
 10
1079.971361203936
 20
531.3291676047914
 30
0.0
 11
1079.971361203936
 21
484.0125999975168
 31
0.0
1001
AcDbBlockRepETag
1070
     1
1071
       96
1005
124DD
  0
MTEXT
  5
124DE
330
10FE8
100
AcDbEntity
  8
图框
100
AcDbMText
 10
1042.063968618426
 20
525.4145966538832
 30
0.0
 40
2.252848170144607
 41
10.82000230410933
 71
     5
 72
     5
  1
表面处理\P{\Fromans|c134;Finish}
 73
     1
 44
1.0
1001
AcDbBlockRepETag
1070
     1
1071
       97
1005
124DE
1001
ACAD
1000
MTEXTBEGIN
1070
    73
1070
     1
1070
    44
1040
1.0
1070
    74
1070
     0
1000
MTEXTEND
1000
ACAD_MTEXT_DEFINED_HEIGHT_BEGIN
1070
    46
1040
11.82914190181708
1000
ACAD_MTEXT_DEFINED_HEIGHT_END
  0
MTEXT
  5
124DF
330
10FE8
100
AcDbEntity
  8
图框
100
AcDbMText
 10
1042.063968618426
 20
513.5854547520639
 30
0.0
 40
2.252848170144607
 41
10.82000230410933
 71
     5
 72
     5
  1
材料\P{\Fromans|c134;Material}
 73
     1
 44
1.0
1001
AcDbBlockRepETag
1070
     1
1071
       98
1005
124DF
1001
ACAD
1000
MTEXTBEGIN
1070
    73
1070
     1
1070
    44
1040
1.0
1070
    74
1070
     0
1000
MTEXTEND
1000
ACAD_MTEXT_DEFINED_HEIGHT_BEGIN
1070
    46
1040
11.8291419018212
1000
ACAD_MTEXT_DEFINED_HEIGHT_END
  0
LINE
  5
124E0
330
10FE8
100
AcDbEntity
  8
图框
370
    -3
100
AcDbLine
 10
1079.971361203936
 20
522.27220025775
 30
0.0
 11
1126.928502610363
 21
522.27220025775
 31
0.0
1001
AcDbBlockRepETag
1070
     1
1071
       99
1005
124E0
  0
LINE
  5
124E1
330
10FE8
100
AcDbEntity
  8
图框
370
    -3
100
AcDbLine
 10
1079.971361203936
 20
513.5854547520641
 30
0.0
 11
1126.928502610363
 21
513.5854547520639
 31
0.0
1001
AcDbBlockRepETag
1070
     1
1071
      100
1005
124E1
  0
MTEXT
  5
124E2
330
10FE8
100
AcDbEntity
  8
图框
100
AcDbMText
 10
1086.643735910939
 20
517.9288275049072
 30
0.0
 40
1.958998408821398
 41
13.34474941400573
 71
     5
 72
     5
  1
产品代号\P{\Fromans|c134;Part Code}
 73
     1
 44
1.0
1001
AcDbBlockRepETag
1070
     1
1071
      101
1005
124E2
1001
ACAD
1000
MTEXTBEGIN
1070
    73
1070
     1
1070
    44
1040
1.0
1070
    74
1070
     0
1000
MTEXTEND
1000
ACAD_MTEXT_DEFINED_HEIGHT_BEGIN
1070
    46
1040
8.686745505685811
1000
ACAD_MTEXT_DEFINED_HEIGHT_END
  0
LINE
  5
124E3
330
10FE8
100
AcDbEntity
  8
图框
370
    -3
100
AcDbLine
 10
946.9285026103634
 20
525.7982263931411
 30
0.0
 11
1036.653967466372
 21
525.7982263931411
 31
0.0
1001
AcDbBlockRepETag
1070
     1
1071
      102
1005
124E3
  0
LINE
  5
124E4
330
10FE8
100
AcDbEntity
  8
图框
370
    -3
100
AcDbLine
 10
946.9285026103634
 20
520.2672851814959
 30
0.0
 11
1036.653967466372
 21
520.2672851814959
 31
0.0
1001
AcDbBlockRepETag
1070
     1
1071
      103
1005
124E4
  0
LINE
  5
124E5
330
10FE8
100
AcDbEntity
  8
图框
370
    35
100
AcDbLine
 10
946.9285026103634
 20
531.3291676047914
 30
0.0
 11
1126.928502610363
 21
531.3291676047914
 31
0.0
1001
AcDbBlockRepETag
1070
     1
1071
      104
1005
124E5
  0
LINE
  5
124E6
330
10FE8
100
AcDbEntity
  8
图框
370
    -3
100
AcDbLine
 10
990.6727612856927
 20
509.2054027581959
 30
0.0
 11
990.6727612856927
 21
484.0347692601515
 31
0.0
1001
AcDbBlockRepETag
1070
     1
1071
      105
1005
124E6
  0
MTEXT
  5
124E7
102
{ACAD_XDICTIONARY
360
12529
102
}
330
10FE8
100
AcDbEntity
  8
图框
100
AcDbMText
 10
997.1628169651232
 20
499.816589978722
 30
0.0
 40
2.252848170144607
 41
12.98011135886052
 71
     5
 72
     5
  1
{\f仿宋_GB2312|b0|i0|c134|p49;标准化}\PStand.
  7
Romans字体
 73
     1
 44
1.0
1001
AcDbBlockRepETag
1070
     1
1071
      106
1005
124E7
1001
ACAD
1000
MTEXTBEGIN
1070
    73
1070
     1
1070
    44
1040
1.0
1070
    74
1070
     0
1000
MTEXTEND
1000
ACAD_MTEXT_DEFINED_HEIGHT_BEGIN
1070
    46
1040
6.19230880992475
1000
ACAD_MTEXT_DEFINED_HEIGHT_END
  0
LINE
  5
124E8
330
10FE8
100
AcDbEntity
  8
图框
370
    -3
100
AcDbLine
 10
975.4103773808022
 20
509.2054027581959
 30
0.0
 11
975.4103773808022
 21
484.0347692601515
 31
0.0
1001
AcDbBlockRepETag
1070
     1
1071
      107
1005
124E8
  0
MTEXT
  5
124E9
330
10FE8
100
AcDbEntity
  8
图框
100
AcDbMText
 10
984.5089229802068
 20
511.9708733640202
 30
0.0
 40
2.448748011026752
 41
38.287899328693
 71
     5
 72
     5
  1
  变更描述{\Fromans|c134;/Description}
 73
     1
 44
1.0
1001
AcDbBlockRepETag
1070
     1
1071
      108
1005
124E9
1001
ACAD
1000
MTEXTBEGIN
1070
    73
1070
     1
1070
    44
1040
1.0
1070
    74
1070
     0
1000
MTEXTEND
1000
ACAD_MTEXT_DEFINED_HEIGHT_BEGIN
1070
    46
1040
5.530941211648832
1000
ACAD_MTEXT_DEFINED_HEIGHT_END
  0
MTEXT
  5
124EA
102
{ACAD_XDICTIONARY
360
1252B
102
}
330
10FE8
100
AcDbEntity
  8
图框
100
AcDbMText
 10
1012.466086049227
 20
511.9708733640202
 30
0.0
 40
1.958998408821398
 41
17.6264268093469
 71
     5
 72
     5
  1
签名\P{\Fromans|c134;Signature} 
 73
     1
 44
1.0
1001
AcDbBlockRepETag
1070
     1
1071
      109
1005
124EA
1001
ACAD
1000
MTEXTBEGIN
1070
    73
1070
     1
1070
    44
1040
1.0
1070
    74
1070
     0
1000
MTEXTEND
1000
ACAD_MTEXT_DEFINED_HEIGHT_BEGIN
1070
    46
1040
5.530941211648825
1000
ACAD_MTEXT_DEFINED_HEIGHT_END
  0
MTEXT
  5
124EB
102
{ACAD_XDICTIONARY
360
1252D
102
}
330
10FE8
100
AcDbEntity
  8
图框
100
AcDbMText
 10
960.7558556394856
 20
511.9708733640202
 30
0.0
 40
1.958998408821398
 41
9.218235352749283
 71
     5
 72
     5
  1
处数\P{\Fromans|c134;Number }
 73
     1
 44
1.0
1001
AcDbBlockRepETag
1070
     1
1071
      110
1005
124EB
1001
ACAD
1000
MTEXTBEGIN
1070
    73
1070
     1
1070
    44
1040
1.0
1070
    74
1070
     0
1000
MTEXTEND
1000
ACAD_MTEXT_DEFINED_HEIGHT_BEGIN
1070
    46
1040
5.530941211648841
1000
ACAD_MTEXT_DEFINED_HEIGHT_END
  0
LINE
  5
124EC
330
10FE8
100
AcDbEntity
  8
图框
370
    -3
100
AcDbLine
 10
946.9285026103634
 20
514.7363439698449
 30
0.0
 11
1036.653967466372
 21
514.7363439698449
 31
0.0
1001
AcDbBlockRepETag
1070
     1
1071
      111
1005
124EC
  0
LINE
  5
124ED
330
10FE8
100
AcDbEntity
  8
图框
370
    -3
100
AcDbLine
 10
946.9285026103634
 20
509.2054027581959
 30
0.0
 11
1036.653967466372
 21
509.2054027581959
 31
0.0
1001
AcDbBlockRepETag
1070
     1
1071
      112
1005
124ED
  0
LINE
  5
124EE
330
10FE8
100
AcDbEntity
  8
图框
370
    -3
100
AcDbLine
 10
946.9285026103634
 20
502.9127443836848
 30
0.0
 11
1036.653967466372
 21
502.9127443836848
 31
0.0
1001
AcDbBlockRepETag
1070
     1
1071
      113
1005
124EE
  0
LINE
  5
124EF
330
10FE8
100
AcDbEntity
  8
图框
370
    -3
100
AcDbLine
 10
946.9285026103634
 20
496.620086009173
 30
0.0
 11
1036.653967466372
 21
496.620086009173
 31
0.0
1001
AcDbBlockRepETag
1070
     1
1071
      114
1005
124EF
  0
LINE
  5
124F0
330
10FE8
100
AcDbEntity
  8
图框
370
    35
380
     1
100
AcDbLine
 10
946.9285026103634
 20
531.3291676047914
 30
0.0
 11
946.9285026103634
 21
484.0347692601515
 31
0.0
1001
AcDbBlockRepETag
1070
     1
1071
      115
1005
124F0
  0
LINE
  5
124F1
330
10FE8
100
AcDbEntity
  8
图框
370
    -3
100
AcDbLine
 10
1021.301636813399
 20
531.3291676047914
 30
0.0
 11
1021.301636813399
 21
484.0347692601515
 31
0.0
1001
AcDbBlockRepETag
1070
     1
1071
      116
1005
124F1
  0
LINE
  5
124F2
330
10FE8
100
AcDbEntity
  8
图框
370
    -3
100
AcDbLine
 10
1003.652872644553
 20
531.3291676047914
 30
0.0
 11
1003.652872644553
 21
484.0347692601515
 31
0.0
1001
AcDbBlockRepETag
1070
     1
1071
      117
1005
124F2
  0
LINE
  5
124F3
330
10FE8
100
AcDbEntity
  8
图框
370
    -3
100
AcDbLine
 10
965.3649733158603
 20
531.3291676047914
 30
0.0
 11
965.3649733158603
 21
509.2054027581959
 31
0.0
1001
AcDbBlockRepETag
1070
     1
1071
      118
1005
124F3
  0
LINE
  5
124F4
330
10FE8
100
AcDbEntity
  8
图框
370
    -3
100
AcDbLine
 10
956.1467379631109
 20
531.3291676047914
 30
0.0
 11
956.1467379631109
 21
509.2054027581959
 31
0.0
1001
AcDbBlockRepETag
1070
     1
1071
      119
1005
124F4
  0
MTEXT
  5
124F5
102
{ACAD_XDICTIONARY
360
1252F
102
}
330
10FE8
100
AcDbEntity
  8
图框
100
AcDbMText
 10
951.537620286737
 20
511.9708733640202
 30
0.0
 40
1.958998408821398
 41
9.218235352747692
 71
     5
 72
     5
  1
标记\P{\Fromans|c134;Mark}
 73
     1
 44
1.0
1001
AcDbBlockRepETag
1070
     1
1071
      120
1005
124F5
1001
ACAD
1000
MTEXTBEGIN
1070
    73
1070
     1
1070
    44
1040
1.0
1070
    74
1070
     0
1000
MTEXTEND
1000
ACAD_MTEXT_DEFINED_HEIGHT_BEGIN
1070
    46
1040
5.530941211648832
1000
ACAD_MTEXT_DEFINED_HEIGHT_END
  0
MTEXT
  5
124F6
102
{ACAD_XDICTIONARY
360
12531
102
}
330
10FE8
100
AcDbEntity
  8
图框
100
AcDbMText
 10
953.4185582897936
 20
493.4737568219182
 30
0.0
 40
2.252848170144607
 41
12.98011135886041
 71
     5
 72
     5
  1
审核\P{\Fromans|c134;Checked}
 73
     1
 44
1.0
1001
AcDbBlockRepETag
1070
     1
1071
      121
1005
124F6
1001
ACAD
1000
MTEXTBEGIN
1070
    73
1070
     1
1070
    44
1040
1.0
1070
    74
1070
     0
1000
MTEXTEND
1000
ACAD_MTEXT_DEFINED_HEIGHT_BEGIN
1070
    46
1040
6.292658374510382
1000
ACAD_MTEXT_DEFINED_HEIGHT_END
  0
MTEXT
  5
124F7
102
{ACAD_XDICTIONARY
360
12533
102
}
330
10FE8
100
AcDbEntity
  8
图框
100
AcDbMText
 10
953.4185582897936
 20
499.8775635376777
 30
0.0
 40
2.252848170144607
 41
12.98011135886041
 71
     5
 72
     5
  1
绘图\P{\Fromans|c134;Drawn\Ftxt|c134; }
 73
     1
 44
1.0
1001
AcDbBlockRepETag
1070
     1
1071
      122
1005
124F7
1001
ACAD
1000
MTEXTBEGIN
1070
    73
1070
     1
1070
    44
1040
1.0
1070
    74
1070
     0
1000
MTEXTEND
1000
ACAD_MTEXT_DEFINED_HEIGHT_BEGIN
1070
    46
1040
6.070361692014189
1000
ACAD_MTEXT_DEFINED_HEIGHT_END
  0
ARC
  5
124F8
330
10FE8
100
AcDbEntity
  8
图框
 62
     4
370
    35
100
AcDbCircle
 10
1086.900627017421
 20
490.0179944151195
 30
0.0
 40
4.063310408393665
100
AcDbArc
 50
18.95237904564806
 51
161.0476209543519
1001
AcDbBlockRepETag
1070
     1
1071
      123
1005
124F8
  0
ARC
  5
124F9
330
10FE8
100
AcDbEntity
  8
图框
 62
     4
370
    35
100
AcDbCircle
 10
1086.900627017421
 20
490.0179944151195
 30
0.0
 40
4.063310408393665
100
AcDbArc
 50
198.952379045648
 51
341.0476209543519
1001
AcDbBlockRepETag
1070
     1
1071
      124
1005
124F9
  0
LINE
  5
124FA
330
10FE8
100
AcDbEntity
  8
图框
 62
     4
370
    35
100
AcDbLine
 10
1083.057593369548
 20
488.6983035966752
 30
0.0
 11
1090.74366066529
 21
488.6983035966752
 31
0.0
1001
AcDbBlockRepETag
1070
     1
1071
      125
1005
124FA
  0
LINE
  5
124FB
330
10FE8
100
AcDbEntity
  8
图框
 62
     4
370
    35
100
AcDbLine
 10
1083.057593369548
 20
491.3376852335652
 30
0.0
 11
1090.74366066529
 21
491.3376852335652
 31
0.0
1001
AcDbBlockRepETag
1070
     1
1071
      126
1005
124FB
  0
MTEXT
  5
124FC
330
10FE8
100
AcDbEntity
  8
图框
 62
     1
370
    20
100
AcDbMText
 10
1083.034582879669
 20
491.0506288081688
 30
0.0
 40
2.005930044038334
 41
5.047240019334847
 71
     1
 72
     5
  1
{\fArial|b0|i0|c0|p34;W}
  7
Chinese
 73
     1
 44
1.0
1001
AcDbBlockRepETag
1070
     1
1071
      127
1005
124FC
1001
ACAD
1000
MTEXTBEGIN
1070
    73
1070
     1
1070
    44
1040
1.0
1070
    74
1070
     0
1000
MTEXTEND
  0
LINE
  5
124FD
330
10FE8
100
AcDbEntity
  8
图框
370
    -3
100
AcDbLine
 10
946.9285026103634
 20
490.327427634663
 30
0.0
 11
1036.653967466372
 21
490.327427634663
 31
0.0
1001
AcDbBlockRepETag
1070
     1
1071
      128
1005
124FD
  0
LINE
  5
124FE
330
10FE8
100
AcDbEntity
  8
图框
370
    -3
100
AcDbLine
 10
959.9086139692238
 20
509.2054027581959
 30
0.0
 11
959.9086139692238
 21
484.0347692601515
 31
0.0
1001
AcDbBlockRepETag
1070
     1
1071
      129
1005
124FE
  0
MTEXT
  5
124FF
330
10FE8
100
AcDbEntity
  8
图框
100
AcDbMText
 10
967.6594956750129
 20
506.0590735709403
 30
0.0
 40
2.252848170144607
 41
15.50176341157869
 71
     5
 72
     5
  1
姓名{\Fromans|c134;/Name\Ftxt|c134; }
 73
     1
 44
1.0
1001
AcDbBlockRepETag
1070
     1
1071
      130
1005
124FF
1001
ACAD
1000
MTEXTBEGIN
1070
    73
1070
     1
1070
    44
1040
1.0
1070
    74
1070
     0
1000
MTEXTEND
1000
ACAD_MTEXT_DEFINED_HEIGHT_BEGIN
1070
    46
1040
6.292658374511246
1000
ACAD_MTEXT_DEFINED_HEIGHT_END
  0
MTEXT
  5
12500
330
10FE8
100
AcDbEntity
  8
图框
100
AcDbMText
 10
983.0415693332477
 20
506.0590735709403
 30
0.0
 40
2.252848170144607
 41
15.26238390489042
 71
     5
 72
     5
  1
日期{\Fromans|c134;/Date}
 73
     1
 44
1.0
1001
AcDbBlockRepETag
1070
     1
1071
      131
1005
12500
1001
ACAD
1000
MTEXTBEGIN
1070
    73
1070
     1
1070
    44
1040
1.0
1070
    74
1070
     0
1000
MTEXTEND
1000
ACAD_MTEXT_DEFINED_HEIGHT_BEGIN
1070
    46
1040
6.2926583745112
1000
ACAD_MTEXT_DEFINED_HEIGHT_END
  0
LINE
  5
12501
330
10FE8
100
AcDbEntity
  8
图框
370
    -3
100
AcDbLine
 10
946.9285026103634
 20
509.2054027581959
 30
0.0
 11
959.9086139692238
 21
502.9127443836848
 31
0.0
1001
AcDbBlockRepETag
1070
     1
1071
      132
1005
12501
  0
MTEXT
  5
12502
330
10FE8
100
AcDbEntity
  8
图框
100
AcDbMText
 10
1012.931405110086
 20
506.0185715840725
 30
0.0
 40
2.252848170144607
 41
16.93492221063566
 71
     5
 72
     5
  1
姓名{\Fromans|c134;/Name}
 73
     1
 44
1.0
1001
AcDbBlockRepETag
1070
     1
1071
      133
1005
12502
1001
ACAD
1000
MTEXTBEGIN
1070
    73
1070
     1
1070
    44
1040
1.0
1070
    74
1070
     0
1000
MTEXTEND
  0
MTEXT
  5
12503
330
10FE8
100
AcDbEntity
  8
图框
100
AcDbMText
 10
1028.977802139886
 20
506.0590735709403
 30
0.0
 40
2.252848170144607
 41
15.35233065297283
 71
     5
 72
     5
  1
日期{\Fromans|c134;/Date}
 73
     1
 44
1.0
1001
AcDbBlockRepETag
1070
     1
1071
      134
1005
12503
1001
ACAD
1000
MTEXTBEGIN
1070
    73
1070
     1
1070
    44
1040
1.0
1070
    74
1070
     0
1000
MTEXTEND
1000
ACAD_MTEXT_DEFINED_HEIGHT_BEGIN
1070
    46
1040
6.292658374511256
1000
ACAD_MTEXT_DEFINED_HEIGHT_END
  0
LINE
  5
12504
330
10FE8
100
AcDbEntity
  8
图框
370
    -3
100
AcDbLine
 10
1003.652872644553
 20
502.9127443836848
 30
0.0
 11
990.6727612856927
 21
509.2054027581959
 31
0.0
1001
AcDbBlockRepETag
1070
     1
1071
      135
1005
12504
  0
MTEXT
  5
12505
102
{ACAD_XDICTIONARY
360
12535
102
}
330
10FE8
100
AcDbEntity
  8
图框
100
AcDbMText
 10
997.1628169651232
 20
487.1810984474071
 30
0.0
 40
2.252848170144607
 41
12.98011135886052
 71
     5
 72
     5
  1
批准\P{\Fromans|c134;Approved}
 73
     1
 44
1.0
1001
AcDbBlockRepETag
1070
     1
1071
      136
1005
12505
1001
ACAD
1000
MTEXTBEGIN
1070
    73
1070
     1
1070
    44
1040
1.0
1070
    74
1070
     0
1000
MTEXTEND
1000
ACAD_MTEXT_DEFINED_HEIGHT_BEGIN
1070
    46
1040
6.292658374511517
1000
ACAD_MTEXT_DEFINED_HEIGHT_END
  0
MTEXT
  5
12506
102
{ACAD_XDICTIONARY
360
12537
102
}
330
10FE8
100
AcDbEntity
  8
图框
100
AcDbMText
 10
953.4185582897936
 20
487.1810984474071
 30
0.0
 40
2.252848170144607
 41
12.98011135886041
 71
     5
 72
     5
  1
工艺\P{\Fromans|c134;Process}
 73
     1
 44
1.0
1001
AcDbBlockRepETag
1070
     1
1071
      137
1005
12506
1001
ACAD
1000
MTEXTBEGIN
1070
    73
1070
     1
1070
    44
1040
1.0
1070
    74
1070
     0
1000
MTEXTEND
1000
ACAD_MTEXT_DEFINED_HEIGHT_BEGIN
1070
    46
1040
6.292658374511495
1000
ACAD_MTEXT_DEFINED_HEIGHT_END
  0
MTEXT
  5
12507
102
{ACAD_XDICTIONARY
360
12539
102
}
330
10FE8
100
AcDbEntity
  8
图框
100
AcDbMText
 10
1028.977802139886
 20
511.8287965307664
 30
0.0
 40
1.958998408821398
 41
15.3523306529728
 71
     5
 72
     5
  1
日期\P{\Fromans|c134;Date}
 73
     1
 44
1.0
1001
AcDbBlockRepETag
1070
     1
1071
      138
1005
12507
1001
ACAD
1000
MTEXTBEGIN
1070
    73
1070
     1
1070
    44
1040
1.0
1070
    74
1070
     0
1000
MTEXTEND
1000
ACAD_MTEXT_DEFINED_HEIGHT_BEGIN
1070
    46
1040
5.246787545140668
1000
ACAD_MTEXT_DEFINED_HEIGHT_END
  0
MTEXT
  5
12508
330
10FE8
100
AcDbEntity
  8
图框
100
AcDbMText
 10
1086.643735910939
 20
509.1493769780809
 30
0.0
 40
2.154898249703542
 41
13.34474941400573
 71
     5
 72
     5
  1
产品料号\P{\Fromans|c134;Part No.}
 73
     1
 44
1.0
1001
AcDbBlockRepETag
1070
     1
1071
      139
1005
12508
1001
ACAD
1000
MTEXTBEGIN
1070
    73
1070
     1
1070
    44
1040
1.0
1070
    74
1070
     0
1000
MTEXTEND
1000
ACAD_MTEXT_DEFINED_HEIGHT_BEGIN
1070
    46
1040
8.87215554796615
1000
ACAD_MTEXT_DEFINED_HEIGHT_END
  0
MTEXT
  5
12509
330
10FE8
100
AcDbEntity
  8
图框
100
AcDbMText
 10
1086.643735910939
 20
500.2775205517163
 30
0.0
 40
1.958998408821398
 41
13.34474941400573
 71
     5
 72
     5
  1
产品名称\P{\Fromans|c134;Part Name}
 73
     1
 44
1.0
1001
AcDbBlockRepETag
1070
     1
1071
      140
1005
12509
1001
ACAD
1000
MTEXTBEGIN
1070
    73
1070
     1
1070
    44
1040
1.0
1070
    74
1070
     0
1000
MTEXTEND
1000
ACAD_MTEXT_DEFINED_HEIGHT_BEGIN
1070
    46
1040
8.871557304763321
1000
ACAD_MTEXT_DEFINED_HEIGHT_END
  0
LINE
  5
1250A
330
10FE8
100
AcDbEntity
  8
图框
 62
     1
370
    18
100
AcDbLine
 10
833.4128518455365
 20
690.5347692601515
 30
0.0
 11
833.4128518455365
 21
480.5347692601515
 31
0.0
1001
AcDbBlockRepETag
1070
     1
1071
      141
1005
1250A
  0
LINE
  5
1250B
330
10FE8
100
AcDbEntity
  8
图框
 62
     1
370
    18
100
AcDbLine
 10
833.4128518455365
 20
480.5347692601515
 30
0.0
 11
1130.411601781236
 21
480.5347692601515
 31
0.0
1001
AcDbBlockRepETag
1070
     1
1071
      142
1005
1250B
  0
LINE
  5
1250C
330
10FE8
100
AcDbEntity
  8
图框
 62
     1
370
    18
100
AcDbLine
 10
833.4128518455365
 20
690.5347692601515
 30
0.0
 11
1130.411601781236
 21
690.5347692601515
 31
0.0
1001
AcDbBlockRepETag
1070
     1
1071
      143
1005
1250C
  0
LINE
  5
1250D
330
10FE8
100
AcDbEntity
  8
图框
 62
     1
370
    18
100
AcDbLine
 10
1130.411601781236
 20
480.5347692601515
 30
0.0
 11
1130.411601781236
 21
690.5347692601515
 31
0.0
1001
AcDbBlockRepETag
1070
     1
1071
      144
1005
1250D
  0
LINE
  5
1250E
330
10FE8
100
AcDbEntity
  8
图框
370
    18
100
AcDbLine
 10
836.9128518455394
 20
686.7901958362482
 30
0.0
 11
861.5351874539182
 21
686.7901958362482
 31
0.0
1001
AcDbBlockRepETag
1070
     1
1071
      145
1005
1250E
  0
LINE
  5
1250F
330
10FE8
100
AcDbEntity
  8
图框
370
    50
100
AcDbLine
 10
1126.928502610363
 20
484.3410054693078
 30
0.0
 11
1126.928502610363
 21
675.5347692601515
 31
0.0
1001
AcDbBlockRepETag
1070
     1
1071
      146
1005
1250F
  0
MTEXT
  5
12510
330
10FE8
100
AcDbEntity
  8
图框
 62
     3
100
AcDbMText
 10
1052.897990117958
 20
495.8417418993364
 30
0.0
 40
2.985513575034151
 41
10.82934843439114
 71
     5
 72
     5
  1
V1.0
  7
Romans字体
 73
     1
 44
1.0
1001
AcDbBlockRepETag
1070
     1
1071
      147
1005
12510
1001
ACAD
1000
MTEXTBEGIN
1070
    73
1070
     1
1070
    44
1040
1.0
1070
    74
1070
     0
1000
MTEXTEND
1000
ACAD_MTEXT_DEFINED_HEIGHT_BEGIN
1070
    46
1040
7.886094601211307
1000
ACAD_MTEXT_DEFINED_HEIGHT_END
  0
LINE
  5
12511
330
10FE8
100
AcDbEntity
  8
图框
 62
     6
100
AcDbLine
 10
1126.911601781236
 20
531.714049199969
 30
0.0
 11
1130.411601781236
 21
531.714049199969
 31
0.0
1001
AcDbBlockRepETag
1070
     1
1071
      148
1005
12511
  0
ENDBLK
  5
1107F
330
10FE8
100
AcDbEntity
  8
0
100
AcDbBlockEnd
  0
BLOCK
  5
11EEC
330
11EEB
100
AcDbEntity
  8
0
100
AcDbBlockBegin
  2
*D2
 70
     1
 10
0.0
 20
0.0
 30
0.0
  3
*D2
  1

  0
LINE
  5
1206F
330
11EEB
100
AcDbEntity
  8
DIM
 62
     6
370
    -2
100
AcDbLine
 10
532.2406992046824
 20
316.6271910074273
 30
0.0
 11
532.2406992046824
 21
328.3828710074274
 31
0.0
  0
LINE
  5
12070
330
11EEB
100
AcDbEntity
  8
DIM
 62
     6
370
    -2
100
AcDbLine
 10
485.5406992046827
 20
317.7073710074272
 30
0.0
 11
485.5406992046827
 21
328.3828710074274
 31
0.0
  0
LINE
  5
12071
330
11EEB
100
AcDbEntity
  8
DIM
 62
     1
370
    -2
100
AcDbLine
 10
529.2406992046823
 20
327.1828710074273
 30
0.0
 11
488.5406992046827
 21
327.1828710074273
 31
0.0
  0
SOLID
  5
12072
330
11EEB
100
AcDbEntity
  8
DIM
 62
     1
100
AcDbTrace
 10
529.2406992046823
 20
327.6828710074273
 30
0.0
 11
529.2406992046823
 21
326.6828710074273
 31
0.0
 12
532.2406992046824
 22
327.1828710074273
 32
0.0
 13
532.2406992046824
 23
327.1828710074273
 33
0.0
  0
SOLID
  5
12073
330
11EEB
100
AcDbEntity
  8
DIM
 62
     1
100
AcDbTrace
 10
488.5406992046827
 20
327.6828710074273
 30
0.0
 11
488.5406992046827
 21
326.6828710074273
 31
0.0
 12
485.5406992046827
 22
327.1828710074273
 32
0.0
 13
485.5406992046827
 23
327.1828710074273
 33
0.0
  0
MTEXT
  5
12074
330
11EEB
100
AcDbEntity
  8
DIM
 62
     4
100
AcDbMText
 10
508.8906992046831
 20
329.7328710074273
 30
0.0
 40
3.5
 41
0.0
 71
     5
 72
     1
  1
\A1;46.7
  7
Romans字体
 73
     1
 44
1.0
1001
ACAD
1000
MTEXTBEGIN
1070
    73
1070
     1
1070
    44
1040
1.0
1070
    74
1070
     0
1000
MTEXTEND
  0
POINT
  5
12075
330
11EEB
100
AcDbEntity
  8
Defpoints
 62
     0
100
AcDbPoint
 10
532.2406992046824
 20
316.4271910074273
 30
0.0
  0
POINT
  5
12076
330
11EEB
100
AcDbEntity
  8
Defpoints
 62
     0
100
AcDbPoint
 10
485.5406992046827
 20
317.5073710074272
 30
0.0
  0
POINT
  5
12077
330
11EEB
100
AcDbEntity
  8
Defpoints
 62
     0
100
AcDbPoint
 10
485.5406992046827
 20
327.1828710074273
 30
0.0
  0
ENDBLK
  5
11EED
330
11EEB
100
AcDbEntity
  8
0
100
AcDbBlockEnd
  0
BLOCK
  5
11EF8
330
11EF7
100
AcDbEntity
  8
0
100
AcDbBlockBegin
  2
*D3
 70
     1
 10
0.0
 20
0.0
 30
0.0
  3
*D3
  1

  0
LINE
  5
12078
330
11EF7
100
AcDbEntity
  8
DIM
 62
     6
370
    -2
100
AcDbLine
 10
456.3746309717513
 20
319.0573710059879
 30
0.0
 11
456.3746309717513
 21
328.3828710059878
 31
0.0
  0
LINE
  5
12079
330
11EF7
100
AcDbEntity
  8
DIM
 62
     6
370
    -2
100
AcDbLine
 10
470.974630971751
 20
319.0573710059879
 30
0.0
 11
470.974630971751
 21
328.3828710059878
 31
0.0
  0
LINE
  5
1207A
330
11EF7
100
AcDbEntity
  8
DIM
 62
     1
370
    -2
100
AcDbLine
 10
459.3746309717515
 20
327.1828710059878
 30
0.0
 11
467.974630971751
 21
327.1828710059878
 31
0.0
  0
SOLID
  5
1207B
330
11EF7
100
AcDbEntity
  8
DIM
 62
     1
100
AcDbTrace
 10
459.3746309717515
 20
327.6828710059878
 30
0.0
 11
459.3746309717515
 21
326.6828710059878
 31
0.0
 12
456.3746309717513
 22
327.1828710059878
 32
0.0
 13
456.3746309717513
 23
327.1828710059878
 33
0.0
  0
SOLID
  5
1207C
330
11EF7
100
AcDbEntity
  8
DIM
 62
     1
100
AcDbTrace
 10
467.974630971751
 20
327.6828710059878
 30
0.0
 11
467.974630971751
 21
326.6828710059878
 31
0.0
 12
470.974630971751
 22
327.1828710059878
 32
0.0
 13
470.974630971751
 23
327.1828710059878
 33
0.0
  0
MTEXT
  5
1207D
330
11EF7
100
AcDbEntity
  8
DIM
 62
     4
100
AcDbMText
 10
463.6746309717508
 20
329.7328710059878
 30
0.0
 40
3.5
 41
0.0
 71
     5
 72
     1
  1
\A1;14.6
  7
Romans字体
 73
     1
 44
1.0
1001
ACAD
1000
MTEXTBEGIN
1070
    73
1070
     1
1070
    44
1040
1.0
1070
    74
1070
     0
1000
MTEXTEND
  0
POINT
  5
1207E
330
11EF7
100
AcDbEntity
  8
Defpoints
 62
     0
100
AcDbPoint
 10
456.3746309717513
 20
318.8573710059879
 30
0.0
  0
POINT
  5
1207F
330
11EF7
100
AcDbEntity
  8
Defpoints
 62
     0
100
AcDbPoint
 10
470.974630971751
 20
318.8573710059879
 30
0.0
  0
POINT
  5
12080
330
11EF7
100
AcDbEntity
  8
Defpoints
 62
     0
100
AcDbPoint
 10
470.974630971751
 20
327.1828710059878
 30
0.0
  0
ENDBLK
  5
11EF9
330
11EF7
100
AcDbEntity
  8
0
100
AcDbBlockEnd
  0
BLOCK
  5
11F04
330
11F03
100
AcDbEntity
  8
0
100
AcDbBlockBegin
  2
*D4
 70
     1
 10
0.0
 20
0.0
 30
0.0
  3
*D4
  1

  0
LINE
  5
120D7
330
11F03
100
AcDbEntity
  8
DIM
 62
     6
370
    -2
100
AcDbLine
 10
460.9746309717507
 20
320.8073710059879
 30
0.0
 11
448.7991309717513
 21
320.8073710059879
 31
0.0
  0
LINE
  5
120D8
330
11F03
100
AcDbEntity
  8
DIM
 62
     6
370
    -2
100
AcDbLine
 10
459.774630971751
 20
286.6073710059879
 30
0.0
 11
448.7991309717513
 21
286.6073710059879
 31
0.0
  0
LINE
  5
120D9
330
11F03
100
AcDbEntity
  8
DIM
 62
     1
370
    -2
100
AcDbLine
 10
449.9991309717514
 20
317.8073710059879
 30
0.0
 11
449.9991309717514
 21
289.6073710059879
 31
0.0
  0
SOLID
  5
120DA
330
11F03
100
AcDbEntity
  8
DIM
 62
     1
100
AcDbTrace
 10
449.4991309717514
 20
317.8073710059879
 30
0.0
 11
450.4991309717515
 21
317.8073710059879
 31
0.0
 12
449.9991309717514
 22
320.8073710059879
 32
0.0
 13
449.9991309717514
 23
320.8073710059879
 33
0.0
  0
SOLID
  5
120DB
330
11F03
100
AcDbEntity
  8
DIM
 62
     1
100
AcDbTrace
 10
449.4991309717514
 20
289.6073710059879
 30
0.0
 11
450.4991309717515
 21
289.6073710059879
 31
0.0
 12
449.9991309717514
 22
286.6073710059879
 32
0.0
 13
449.9991309717514
 23
286.6073710059879
 33
0.0
  0
MTEXT
  5
120DC
330
11F03
100
AcDbEntity
  8
DIM
 62
     4
100
AcDbMText
 10
447.4491309717514
 20
303.7073710059878
 30
0.0
 40
3.5
 41
0.0
 71
     5
 72
     1
  1
\A1;34.2
  7
Romans字体
 11
0.0000000000000001
 21
1.0
 31
0.0
 73
     1
 44
1.0
1001
ACAD
1000
MTEXTBEGIN
1070
    73
1070
     1
1070
    44
1040
1.0
1070
    74
1070
     0
1000
MTEXTEND
  0
POINT
  5
120DD
330
11F03
100
AcDbEntity
  8
Defpoints
 62
     0
100
AcDbPoint
 10
461.1746309717507
 20
320.8073710059879
 30
0.0
  0
POINT
  5
120DE
330
11F03
100
AcDbEntity
  8
Defpoints
 62
     0
100
AcDbPoint
 10
459.9746309717509
 20
286.6073710059879
 30
0.0
  0
POINT
  5
120DF
330
11F03
100
AcDbEntity
  8
Defpoints
 62
     0
100
AcDbPoint
 10
449.9991309717514
 20
286.6073710059879
 30
0.0
  0
ENDBLK
  5
11F05
330
11F03
100
AcDbEntity
  8
0
100
AcDbBlockEnd
  0
ENDSEC
  0
SECTION
  2
ENTITIES
  0
HATCH
  5
28AE
330
1F
100
AcDbEntity
  8
图层 1
 62
     7
100
AcDbHatch
 10
0.0
 20
0.0
 30
0.0
210
0.0
220
0.0
230
1.0
  2
SOLID
 70
     1
 71
     0
 91
        1
 92
        1
 93
        2
 72
     4
 94
        3
 73
     0
 74
     0
 95
       17
 96
       13
 40
0.0
 40
0.0
 40
0.0
 40
0.0
 40
0.3527780104152769
 40
0.3527780104152769
 40
0.3527780104152769
 40
0.7055560208305538
 40
0.7055560208305538
 40
0.7055560208305538
 40
1.058334031245828
 40
1.058334031245828
 40
1.058334031245828
 40
1.411112041661104
 40
1.411112041661104
 40
1.411112041661104
 40
1.411112041661104
 10
11.07013262565829
 20
29.50312817963231
 10
11.07013262565829
 20
29.50312817963231
 10
10.9431807732774
 20
29.50312817963231
 10
10.9431807732774
 20
29.50312817963231
 10
10.9431807732774
 20
29.50312817963231
 10
10.85843136843155
 20
29.22786486877117
 10
10.85843136843155
 20
29.22786486877117
 10
10.85843136843155
 20
29.22786486877117
 10
10.90080607085448
 20
29.2068497724476
 10
10.90080607085448
 20
29.2068497724476
 10
10.94455881238059
 20
29.31571486159919
 10
11.00346998404173
 20
29.40907701083995
 10
11.07013262565829
 20
29.50312817963231
 72
     1
 10
11.07013262565829
 20
29.50312817963231
 11
11.07013262565829
 21
29.50312817963231
 97
        0
 75
     0
 76
     1
 98
        0
  0
HATCH
  5
2C65
330
1F
100
AcDbEntity
  8
图层 1
 62
     7
100
AcDbHatch
 10
0.0
 20
0.0
 30
0.0
210
0.0
220
0.0
230
1.0
  2
SOLID
 70
     1
 71
     0
 91
        1
 92
        1
 93
        2
 72
     4
 94
        3
 73
     0
 74
     0
 95
       47
 96
       43
 40
0.0
 40
0.0
 40
0.0
 40
0.0
 40
0.3527780104152769
 40
0.3527780104152769
 40
0.3527780104152769
 40
0.7055560208305538
 40
0.7055560208305538
 40
0.7055560208305538
 40
1.058334031245828
 40
1.058334031245828
 40
1.058334031245828
 40
1.411112041661104
 40
1.411112041661104
 40
1.411112041661104
 40
1.763890052076384
 40
1.763890052076384
 40
1.763890052076384
 40
2.116668062491659
 40
2.116668062491659
 40
2.116668062491659
 40
2.469446072906936
 40
2.469446072906936
 40
2.469446072906936
 40
2.822224083322215
 40
2.822224083322215
 40
2.822224083322215
 40
3.175002093737492
 40
3.175002093737492
 40
3.175002093737492
 40
3.527780104152768
 40
3.527780104152768
 40
3.527780104152768
 40
3.880558114568044
 40
3.880558114568044
 40
3.880558114568044
 40
4.233336124983321
 40
4.233336124983321
 40
4.233336124983321
 40
4.586114135398599
 40
4.586114135398599
 40
4.586114135398599
 40
4.938892145813873
 40
4.938892145813873
 40
4.938892145813873
 40
4.938892145813873
 10
162.8986914070121
 20
257.4895347631509
 10
162.8986914070121
 20
257.4895347631509
 10
162.9200510131114
 20
257.4471600607279
 10
162.9200510131114
 20
257.4471600607279
 10
162.9200510131114
 20
257.4471600607279
 10
162.9200510131114
 20
257.404785358305
 10
162.9200510131114
 20
257.404785358305
 10
162.9200510131114
 20
257.404785358305
 10
162.8986914070121
 20
257.36258291077
 10
162.8986914070121
 20
257.36258291077
 10
162.8986914070121
 20
257.36258291077
 10
162.8986914070121
 20
257.320208208347
 10
162.8986914070121
 20
257.320208208347
 10
162.8986914070121
 20
257.320208208347
 10
162.8563167045891
 20
257.2990208571356
 10
162.8563167045891
 20
257.2990208571356
 10
162.8563167045891
 20
257.2990208571356
 10
162.8139420021662
 20
257.2563016449369
 10
162.8139420021662
 20
257.2563016449369
 10
162.8139420021662
 20
257.2563016449369
 10
162.7295371070961
 20
257.2563016449369
 10
162.7295371070961
 20
257.2563016449369
 10
162.7295371070961
 20
257.2563016449369
 10
162.6658027985738
 20
257.2778335059241
 10
162.6658027985738
 20
257.2778335059241
 10
162.6658027985738
 20
257.2778335059241
 10
162.6237726059267
 20
257.2990208571356
 10
162.6237726059267
 20
257.2990208571356
 10
162.6237726059267
 20
257.2990208571356
 10
162.5813979035038
 20
257.3413955595585
 10
162.5813979035038
 20
257.3413955595585
 10
162.5813979035038
 20
257.3413955595585
 10
162.5813979035038
 20
257.4895347631509
 10
162.5813979035038
 20
257.4895347631509
 10
162.5813979035038
 20
257.4895347631509
 10
162.6447877022503
 20
257.5525800521216
 10
162.6447877022503
 20
257.5525800521216
 10
162.6447877022503
 20
257.5525800521216
 10
162.7081775009967
 20
257.5525800521216
 10
162.7081775009967
 20
257.5525800521216
 10
162.8749202324821
 20
257.5424170137356
 10
162.7918933765152
 20
257.5939212252171
 10
162.8986914070121
 20
257.4895347631509
 72
     1
 10
162.8986914070121
 20
257.4895347631509
 11
162.8986914070121
 21
257.4895347631509
 97
        0
 75
     0
 76
     1
 98
        0
  0
HATCH
  5
2EE7
330
1F
100
AcDbEntity
  8
图层 1
 62
     7
100
AcDbHatch
 10
0.0
 20
0.0
 30
0.0
210
0.0
220
0.0
230
1.0
  2
SOLID
 70
     1
 71
     0
 91
        1
 92
        1
 93
        2
 72
     4
 94
        3
 73
     0
 74
     0
 95
       56
 96
       52
 40
0.0
 40
0.0
 40
0.0
 40
0.0
 40
0.3527780104152769
 40
0.3527780104152769
 40
0.3527780104152769
 40
0.7055560208305538
 40
0.7055560208305538
 40
0.7055560208305538
 40
1.058334031245828
 40
1.058334031245828
 40
1.058334031245828
 40
1.411112041661104
 40
1.411112041661104
 40
1.411112041661104
 40
1.763890052076384
 40
1.763890052076384
 40
1.763890052076384
 40
2.116668062491659
 40
2.116668062491659
 40
2.116668062491659
 40
2.469446072906936
 40
2.469446072906936
 40
2.469446072906936
 40
2.822224083322215
 40
2.822224083322215
 40
2.822224083322215
 40
3.175002093737492
 40
3.175002093737492
 40
3.175002093737492
 40
3.527780104152768
 40
3.527780104152768
 40
3.527780104152768
 40
3.880558114568044
 40
3.880558114568044
 40
3.880558114568044
 40
4.233336124983321
 40
4.233336124983321
 40
4.233336124983321
 40
4.586114135398599
 40
4.586114135398599
 40
4.586114135398599
 40
4.938892145813873
 40
4.938892145813873
 40
4.938892145813873
 40
5.291670156229153
 40
5.291670156229153
 40
5.291670156229153
 40
5.64444816664443
 40
5.64444816664443
 40
5.64444816664443
 40
5.997226177059705
 40
5.997226177059705
 40
5.997226177059705
 40
5.997226177059705
 10
185.4837187788815
 20
241.4451977396596
 10
185.4837187788815
 20
241.4451977396596
 10
185.4837187788815
 20
241.4028230372367
 10
185.4837187788815
 20
241.4028230372367
 10
185.4837187788815
 20
241.4028230372367
 10
185.5047338752051
 20
241.3604483348137
 10
185.5047338752051
 20
241.3604483348137
 10
185.4520238795082
 20
241.2782827532863
 10
185.4671823096433
 20
241.1897437409066
 10
185.335579575289
 20
241.2119646214456
 10
185.335579575289
 20
241.2119646214456
 10
185.2932048728662
 20
241.2119646214456
 10
185.2932048728662
 20
241.2119646214456
 10
185.2932048728662
 20
241.2119646214456
 10
185.2294705643439
 20
241.2334964824328
 10
185.2294705643439
 20
241.2334964824328
 10
185.2294705643439
 20
241.2334964824328
 10
185.1660807655974
 20
241.2543393238685
 10
185.1660807655974
 20
241.2543393238685
 10
185.1660807655974
 20
241.2543393238685
 10
185.1450656692739
 20
241.2758711848558
 10
185.1450656692739
 20
241.2758711848558
 10
185.1450656692739
 20
241.2758711848558
 10
185.1450656692739
 20
241.2967140262914
 10
185.1450656692739
 20
241.2967140262914
 10
185.1450656692739
 20
241.2967140262914
 10
185.1237060631745
 20
241.3604483348137
 10
185.1237060631745
 20
241.3604483348137
 10
185.1237060631745
 20
241.3604483348137
 10
185.1237060631745
 20
241.4028230372367
 10
185.1237060631745
 20
241.4028230372367
 10
185.1237060631745
 20
241.4028230372367
 10
185.1660807655974
 20
241.4875724420825
 10
185.1660807655974
 20
241.4875724420825
 10
185.1660807655974
 20
241.4875724420825
 10
185.2084554680203
 20
241.5085875384061
 10
185.2084554680203
 20
241.5085875384061
 10
185.2084554680203
 20
241.5085875384061
 10
185.2718452667668
 20
241.5297748896175
 10
185.2718452667668
 20
241.5297748896175
 10
185.2718452667668
 20
241.5297748896175
 10
185.3565946716127
 20
241.5297748896175
 10
185.3565946716127
 20
241.5297748896175
 10
185.3565946716127
 20
241.5297748896175
 10
185.4199844703592
 20
241.5085875384061
 10
185.4199844703592
 20
241.5085875384061
 10
185.4199844703592
 20
241.5085875384061
 10
185.4623591727821
 20
241.4875724420825
 10
185.4623591727821
 20
241.4875724420825
 10
185.4623591727821
 20
241.4875724420825
 10
185.4837187788815
 20
241.4451977396596
 10
185.4837187788815
 20
241.4451977396596
 72
     1
 10
185.4837187788815
 20
241.4451977396596
 11
185.4837187788815
 21
241.4451977396596
 97
        0
 75
     0
 76
     1
 98
        0
  0
HATCH
  5
2F93
330
1F
100
AcDbEntity
  8
图层 1
 62
     7
100
AcDbHatch
 10
0.0
 20
0.0
 30
0.0
210
0.0
220
0.0
230
1.0
  2
SOLID
 70
     1
 71
     0
 91
        1
 92
        1
 93
        2
 72
     4
 94
        3
 73
     0
 74
     0
 95
       38
 96
       34
 40
0.0
 40
0.0
 40
0.0
 40
0.0
 40
0.3527780104152769
 40
0.3527780104152769
 40
0.3527780104152769
 40
0.7055560208305538
 40
0.7055560208305538
 40
0.7055560208305538
 40
1.058334031245828
 40
1.058334031245828
 40
1.058334031245828
 40
1.411112041661104
 40
1.411112041661104
 40
1.411112041661104
 40
1.763890052076384
 40
1.763890052076384
 40
1.763890052076384
 40
2.116668062491659
 40
2.116668062491659
 40
2.116668062491659
 40
2.469446072906936
 40
2.469446072906936
 40
2.469446072906936
 40
2.822224083322215
 40
2.822224083322215
 40
2.822224083322215
 40
3.175002093737492
 40
3.175002093737492
 40
3.175002093737492
 40
3.527780104152768
 40
3.527780104152768
 40
3.527780104152768
 40
3.880558114568044
 40
3.880558114568044
 40
3.880558114568044
 40
3.880558114568044
 10
185.907121293335
 20
220.1937677098971
 10
185.9005756075949
 20
220.0449394867532
 10
185.9329595265197
 20
220.1136691870245
 10
185.864746590912
 20
219.9817219428946
 10
185.864746590912
 20
219.9817219428946
 10
185.822371888489
 20
219.9605345916831
 10
185.822371888489
 20
219.9605345916831
 10
185.822371888489
 20
219.9605345916831
 10
185.6528730787974
 20
219.9605345916831
 10
185.6528730787974
 20
219.9605345916831
 10
185.6528730787974
 20
219.9605345916831
 10
185.5894832800509
 20
220.002909294106
 10
185.5894832800509
 20
220.002909294106
 10
185.5894832800509
 20
220.002909294106
 10
185.5681236739515
 20
220.0240966453175
 10
185.5681236739515
 20
220.0240966453175
 10
185.5681236739515
 20
220.0240966453175
 10
185.5681236739515
 20
220.045283996529
 10
185.5681236739515
 20
220.045283996529
 10
185.5681236739515
 20
220.045283996529
 10
185.547108577628
 20
220.0876586989519
 10
185.547108577628
 20
220.0876586989519
 10
185.547108577628
 20
220.0876586989519
 10
185.547108577628
 20
220.1513930074742
 10
185.547108577628
 20
220.1513930074742
 10
185.547108577628
 20
220.1513930074742
 10
185.5894832800509
 20
220.23614241232
 10
185.5894832800509
 20
220.23614241232
 10
185.5894832800509
 20
220.23614241232
 10
185.6318579824738
 20
220.2573297635315
 10
185.6318579824738
 20
220.2573297635315
 10
185.7055830744942
 20
220.2566407439799
 10
185.8416644359337
 20
220.3310548555519
 10
185.907121293335
 20
220.1937677098971
 72
     1
 10
185.907121293335
 20
220.1937677098971
 11
185.907121293335
 21
220.1937677098971
 97
        0
 75
     0
 76
     1
 98
        0
  0
HATCH
  5
2FDE
330
1F
100
AcDbEntity
  8
图层 1
 62
     7
100
AcDbHatch
 10
0.0
 20
0.0
 30
0.0
210
0.0
220
0.0
230
1.0
  2
SOLID
 70
     1
 71
     0
 91
        1
 92
        1
 93
        2
 72
     4
 94
        3
 73
     0
 74
     0
 95
       50
 96
       46
 40
0.0
 40
0.0
 40
0.0
 40
0.0
 40
0.3527780104152769
 40
0.3527780104152769
 40
0.3527780104152769
 40
0.7055560208305538
 40
0.7055560208305538
 40
0.7055560208305538
 40
1.058334031245828
 40
1.058334031245828
 40
1.058334031245828
 40
1.411112041661104
 40
1.411112041661104
 40
1.411112041661104
 40
1.763890052076384
 40
1.763890052076384
 40
1.763890052076384
 40
2.116668062491659
 40
2.116668062491659
 40
2.116668062491659
 40
2.469446072906936
 40
2.469446072906936
 40
2.469446072906936
 40
2.822224083322215
 40
2.822224083322215
 40
2.822224083322215
 40
3.175002093737492
 40
3.175002093737492
 40
3.175002093737492
 40
3.527780104152768
 40
3.527780104152768
 40
3.527780104152768
 40
3.880558114568044
 40
3.880558114568044
 40
3.880558114568044
 40
4.233336124983321
 40
4.233336124983321
 40
4.233336124983321
 40
4.586114135398599
 40
4.586114135398599
 40
4.586114135398599
 40
4.938892145813873
 40
4.938892145813873
 40
4.938892145813873
 40
5.291670156229153
 40
5.291670156229153
 40
5.291670156229153
 40
5.291670156229153
 10
180.9117295442905
 20
208.9327766684477
 10
180.9117295442905
 20
208.9327766684477
 10
180.9117295442905
 20
208.7637946234197
 10
180.9117295442905
 20
208.7637946234197
 10
181.2273004989198
 20
208.6749111012643
 10
181.3833634273555
 20
208.6776671794706
 10
181.6948002646751
 20
208.5097186637701
 10
181.9542161258496
 20
208.4294478860095
 10
182.1388733656765
 20
208.2134402565853
 10
182.3297317814676
 20
208.02292635057
 10
182.3297317814676
 20
208.02292635057
 10
182.435496282637
 20
208.065301052993
 10
182.435496282637
 20
208.065301052993
 10
182.288390608372
 20
208.2733849575739
 10
182.3752070718726
 20
208.2134402565853
 10
182.1605774815516
 20
208.3824223016133
 10
182.1605774815516
 20
208.3824223016133
 10
182.1182027791287
 20
208.4247970040363
 10
182.1182027791287
 20
208.4247970040363
 10
182.1182027791287
 20
208.4247970040363
 10
182.0968431730294
 20
208.467516216235
 10
182.0968431730294
 20
208.467516216235
 10
182.0968431730294
 20
208.467516216235
 10
182.0544684706064
 20
208.4883590576707
 10
182.0544684706064
 20
208.4883590576707
 10
182.0544684706064
 20
208.4883590576707
 10
181.9910786718599
 20
208.5305615052057
 10
181.9910786718599
 20
208.5305615052057
 10
181.9910786718599
 20
208.5305615052057
 10
181.948703969437
 20
208.552093366193
 10
181.948703969437
 20
208.552093366193
 10
181.948703969437
 20
208.552093366193
 10
181.9063292670141
 20
208.5729362076286
 10
181.9063292670141
 20
208.5729362076286
 10
181.9063292670141
 20
208.5729362076286
 10
181.8639545645911
 20
208.6156554198274
 10
181.8639545645911
 20
208.6156554198274
 10
181.8639545645911
 20
208.6156554198274
 10
181.821924371944
 20
208.6368427710388
 10
181.821924371944
 20
208.6368427710388
 10
181.6637943848536
 20
208.6742220817127
 10
181.5452830219797
 20
208.8092699138248
 10
181.3771622513911
 20
208.8061693258427
 10
181.2803550043924
 20
208.8573290275484
 10
181.0126709085988
 20
208.8971199066528
 10
180.9117295442905
 20
208.9327766684477
 72
     1
 10
180.9117295442905
 20
208.9327766684477
 11
180.9117295442905
 21
208.9327766684477
 97
        0
 75
     0
 76
     1
 98
        0
  0
HATCH
  5
35C8
330
1F
100
AcDbEntity
  8
图层 1
 62
     7
100
AcDbHatch
 10
0.0
 20
0.0
 30
0.0
210
0.0
220
0.0
230
1.0
  2
SOLID
 70
     1
 71
     0
 91
        1
 92
        1
 93
        2
 72
     4
 94
        3
 73
     0
 74
     0
 95
       38
 96
       34
 40
0.0
 40
0.0
 40
0.0
 40
0.0
 40
0.3527780104152769
 40
0.3527780104152769
 40
0.3527780104152769
 40
0.7055560208305538
 40
0.7055560208305538
 40
0.7055560208305538
 40
1.058334031245828
 40
1.058334031245828
 40
1.058334031245828
 40
1.411112041661104
 40
1.411112041661104
 40
1.411112041661104
 40
1.763890052076384
 40
1.763890052076384
 40
1.763890052076384
 40
2.116668062491659
 40
2.116668062491659
 40
2.116668062491659
 40
2.469446072906936
 40
2.469446072906936
 40
2.469446072906936
 40
2.822224083322215
 40
2.822224083322215
 40
2.822224083322215
 40
3.175002093737492
 40
3.175002093737492
 40
3.175002093737492
 40
3.527780104152768
 40
3.527780104152768
 40
3.527780104152768
 40
3.880558114568044
 40
3.880558114568044
 40
3.880558114568044
 40
3.880558114568044
 10
189.145513185819
 20
166.8326485368285
 10
189.207869455238
 20
166.740492171803
 10
189.1317327947871
 20
166.6833035490209
 10
189.103138483396
 20
166.6209472796017
 10
189.103138483396
 20
166.6209472796017
 10
189.0607637809731
 20
166.5997599283903
 10
189.0607637809731
 20
166.5997599283903
 10
189.0607637809731
 20
166.5997599283903
 10
188.9973739822266
 20
166.5785725771788
 10
188.9973739822266
 20
166.5785725771788
 10
188.9973739822266
 20
166.5785725771788
 10
188.9549992798037
 20
166.5997599283903
 10
188.9549992798037
 20
166.5997599283903
 10
188.9549992798037
 20
166.5997599283903
 10
188.8916094810572
 20
166.5997599283903
 10
188.8916094810572
 20
166.5997599283903
 10
188.8916094810572
 20
166.5997599283903
 10
188.8492347786343
 20
166.6209472796017
 10
188.8492347786343
 20
166.6209472796017
 10
188.8492347786343
 20
166.6209472796017
 10
188.8278751725349
 20
166.6633219820247
 10
188.8278751725349
 20
166.6633219820247
 10
188.8278751725349
 20
166.6633219820247
 10
188.8068600762114
 20
166.6845093332361
 10
188.8068600762114
 20
166.6845093332361
 10
188.8068600762114
 20
166.6845093332361
 10
188.8068600762114
 20
166.8326485368285
 10
188.8068600762114
 20
166.8326485368285
 10
188.8068600762114
 20
166.8326485368285
 10
188.8702498749578
 20
166.896038335575
 10
188.8702498749578
 20
166.896038335575
 10
189.0228677056355
 20
166.8819134347673
 10
189.0686875058164
 20
166.9411691162043
 10
189.145513185819
 20
166.8326485368285
 72
     1
 10
189.145513185819
 20
166.8326485368285
 11
189.145513185819
 21
166.8326485368285
 97
        0
 75
     0
 76
     1
 98
        0
  0
HATCH
  5
35D8
330
1F
100
AcDbEntity
  8
图层 1
 62
     7
100
AcDbHatch
 10
0.0
 20
0.0
 30
0.0
210
0.0
220
0.0
230
1.0
  2
SOLID
 70
     1
 71
     0
 91
        1
 92
        1
 93
        2
 72
     4
 94
        3
 73
     0
 74
     0
 95
       68
 96
       64
 40
0.0
 40
0.0
 40
0.0
 40
0.0
 40
0.3527780104152769
 40
0.3527780104152769
 40
0.3527780104152769
 40
0.7055560208305538
 40
0.7055560208305538
 40
0.7055560208305538
 40
1.058334031245828
 40
1.058334031245828
 40
1.058334031245828
 40
1.411112041661104
 40
1.411112041661104
 40
1.411112041661104
 40
1.763890052076384
 40
1.763890052076384
 40
1.763890052076384
 40
2.116668062491659
 40
2.116668062491659
 40
2.116668062491659
 40
2.469446072906936
 40
2.469446072906936
 40
2.469446072906936
 40
2.822224083322215
 40
2.822224083322215
 40
2.822224083322215
 40
3.175002093737492
 40
3.175002093737492
 40
3.175002093737492
 40
3.527780104152768
 40
3.527780104152768
 40
3.527780104152768
 40
3.880558114568044
 40
3.880558114568044
 40
3.880558114568044
 40
4.233336124983321
 40
4.233336124983321
 40
4.233336124983321
 40
4.586114135398599
 40
4.586114135398599
 40
4.586114135398599
 40
4.938892145813873
 40
4.938892145813873
 40
4.938892145813873
 40
5.291670156229153
 40
5.291670156229153
 40
5.291670156229153
 40
5.64444816664443
 40
5.64444816664443
 40
5.64444816664443
 40
5.997226177059705
 40
5.997226177059705
 40
5.997226177059705
 40
6.350004187474984
 40
6.350004187474984
 40
6.350004187474984
 40
6.702782197890257
 40
6.702782197890257
 40
6.702782197890257
 40
7.055560208305537
 40
7.055560208305537
 40
7.055560208305537
 40
7.408338218720808
 40
7.408338218720808
 40
7.408338218720808
 40
7.408338218720808
 10
174.7732543591544
 20
135.4846705078077
 10
174.7732543591544
 20
135.4846705078077
 10
174.7732543591544
 20
135.3789060066383
 10
174.7732543591544
 20
135.3789060066383
 10
174.7732543591544
 20
135.3789060066383
 10
174.8156290615773
 20
135.3789060066383
 10
174.8156290615773
 20
135.3789060066383
 10
174.8156290615773
 20
135.3789060066383
 10
174.8580037640002
 20
135.3578909103147
 10
174.8580037640002
 20
135.3578909103147
 10
174.8580037640002
 20
135.3578909103147
 10
174.9213935627468
 20
135.3578909103147
 10
174.9213935627468
 20
135.3578909103147
 10
174.9213935627468
 20
135.3578909103147
 10
174.9637682651697
 20
135.3365313042154
 10
174.9637682651697
 20
135.3365313042154
 10
174.9637682651697
 20
135.3365313042154
 10
174.9847833614933
 20
135.3365313042154
 10
174.9847833614933
 20
135.3365313042154
 10
174.9847833614933
 20
135.3365313042154
 10
175.0271580639162
 20
135.3155162078918
 10
175.0271580639162
 20
135.3155162078918
 10
175.0271580639162
 20
135.3155162078918
 10
175.0485176700155
 20
135.2941566017924
 10
175.0485176700155
 20
135.2941566017924
 10
175.0485176700155
 20
135.2941566017924
 10
175.0695327663391
 20
135.2941566017924
 10
175.0695327663391
 20
135.2941566017924
 10
175.0695327663391
 20
135.2941566017924
 10
175.0908923724385
 20
135.2731415054689
 10
175.0908923724385
 20
135.2731415054689
 10
175.0908923724385
 20
135.2731415054689
 10
175.1332670748614
 20
135.2731415054689
 10
175.1332670748614
 20
135.2731415054689
 10
175.1332670748614
 20
135.2731415054689
 10
175.154282171185
 20
135.2517818993695
 10
175.154282171185
 20
135.2517818993695
 10
175.154282171185
 20
135.2517818993695
 10
175.154282171185
 20
135.3578909103147
 10
175.154282171185
 20
135.3578909103147
 10
175.154282171185
 20
135.3578909103147
 10
175.1332670748614
 20
135.3789060066383
 10
175.1332670748614
 20
135.3789060066383
 10
175.1332670748614
 20
135.3789060066383
 10
175.0908923724385
 20
135.3789060066383
 10
175.0908923724385
 20
135.3789060066383
 10
175.0908923724385
 20
135.3789060066383
 10
175.0908923724385
 20
135.3999211029619
 10
175.0908923724385
 20
135.3999211029619
 10
175.0908923724385
 20
135.3999211029619
 10
175.0695327663391
 20
135.3999211029619
 10
175.0695327663391
 20
135.3999211029619
 10
175.0695327663391
 20
135.3999211029619
 10
175.0271580639162
 20
135.4212807090612
 10
175.0271580639162
 20
135.4212807090612
 10
175.0271580639162
 20
135.4212807090612
 10
175.0061429675926
 20
135.4212807090612
 10
175.0061429675926
 20
135.4212807090612
 10
175.0061429675926
 20
135.4212807090612
 10
174.9637682651697
 20
135.4422958053848
 10
174.9637682651697
 20
135.4422958053848
 10
174.8996894468716
 20
135.4498750204523
 10
174.8394002361073
 20
135.4860485469109
 10
174.7732543591544
 20
135.4846705078077
 72
     1
 10
174.7732543591544
 20
135.4846705078077
 11
174.7732543591544
 21
135.4846705078077
 97
        0
 75
     0
 76
     1
 98
        0
  0
HATCH
  5
3807
330
1F
100
AcDbEntity
  8
图层 1
 62
     7
100
AcDbHatch
 10
0.0
 20
0.0
 30
0.0
210
0.0
220
0.0
230
1.0
  2
SOLID
 70
     1
 71
     0
 91
        1
 92
        1
 93
        2
 72
     4
 94
        3
 73
     0
 74
     0
 95
       29
 96
       25
 40
0.0
 40
0.0
 40
0.0
 40
0.0
 40
0.3527780104152769
 40
0.3527780104152769
 40
0.3527780104152769
 40
0.7055560208305538
 40
0.7055560208305538
 40
0.7055560208305538
 40
1.058334031245828
 40
1.058334031245828
 40
1.058334031245828
 40
1.411112041661104
 40
1.411112041661104
 40
1.411112041661104
 40
1.763890052076384
 40
1.763890052076384
 40
1.763890052076384
 40
2.116668062491659
 40
2.116668062491659
 40
2.116668062491659
 40
2.469446072906936
 40
2.469446072906936
 40
2.469446072906936
 40
2.822224083322215
 40
2.822224083322215
 40
2.822224083322215
 40
2.822224083322215
 10
175.4929352807925
 20
164.0174869039101
 10
175.4929352807925
 20
164.0174869039101
 10
175.5139503771161
 20
163.9751122014871
 10
175.5139503771161
 20
163.9751122014871
 10
175.5139503771161
 20
163.9751122014871
 10
175.5139503771161
 20
163.9327374990642
 10
175.5139503771161
 20
163.9327374990642
 10
175.5139503771161
 20
163.9327374990642
 10
175.4929352807925
 20
163.8903627966413
 10
175.4929352807925
 20
163.8903627966413
 10
175.4929352807925
 20
163.8903627966413
 10
175.471920184469
 20
163.8691754454298
 10
175.471920184469
 20
163.8691754454298
 10
175.471920184469
 20
163.8691754454298
 10
175.4505605783696
 20
163.8269729978948
 10
175.4505605783696
 20
163.8269729978948
 10
175.3571984291289
 20
163.7715069239916
 10
175.272449024283
 20
163.8195660377152
 10
175.1966568736079
 20
163.8691754454298
 10
175.208370205985
 20
163.9930267098286
 10
175.1563492298397
 20
164.0216210212197
 10
175.2600466723544
 20
164.0596893514451
 10
175.3330827448232
 20
164.1094710140476
 10
175.4357466580104
 20
164.0753645462439
 10
175.4929352807925
 20
164.0174869039101
 72
     1
 10
175.4929352807925
 20
164.0174869039101
 11
175.4929352807925
 21
164.0174869039101
 97
        0
 75
     0
 76
     1
 98
        0
  0
HATCH
  5
3895
330
1F
100
AcDbEntity
  8
图层 1
 62
     7
100
AcDbHatch
 10
0.0
 20
0.0
 30
0.0
210
0.0
220
0.0
230
1.0
  2
SOLID
 70
     1
 71
     0
 91
        1
 92
        1
 93
        2
 72
     4
 94
        3
 73
     0
 74
     0
 95
       11
 96
        7
 40
0.0
 40
0.0
 40
0.0
 40
0.0
 40
0.3527780104152769
 40
0.3527780104152769
 40
0.3527780104152769
 40
0.7055560208305538
 40
0.7055560208305538
 40
0.7055560208305538
 40
0.7055560208305538
 10
174.9213935627468
 20
174.5369206529582
 10
174.9213935627468
 20
174.5369206529582
 10
174.9213935627468
 20
174.3043765542958
 10
174.9213935627468
 20
174.3043765542958
 10
174.9213935627468
 20
174.3043765542958
 10
174.9213935627468
 20
174.5369206529582
 10
174.9213935627468
 20
174.5369206529582
 72
     1
 10
174.9213935627468
 20
174.5369206529582
 11
174.9213935627468
 21
174.5369206529582
 97
        0
 75
     0
 76
     1
 98
        0
  0
HATCH
  5
3943
330
1F
100
AcDbEntity
  8
图层 1
 62
     7
100
AcDbHatch
 10
0.0
 20
0.0
 30
0.0
210
0.0
220
0.0
230
1.0
  2
SOLID
 70
     1
 71
     0
 91
        1
 92
        1
 93
        2
 72
     4
 94
        3
 73
     0
 74
     0
 95
      131
 96
      127
 40
0.0
 40
0.0
 40
0.0
 40
0.0
 40
0.3527780104152769
 40
0.3527780104152769
 40
0.3527780104152769
 40
0.7055560208305538
 40
0.7055560208305538
 40
0.7055560208305538
 40
1.058334031245828
 40
1.058334031245828
 40
1.058334031245828
 40
1.411112041661104
 40
1.411112041661104
 40
1.411112041661104
 40
1.763890052076384
 40
1.763890052076384
 40
1.763890052076384
 40
2.116668062491659
 40
2.116668062491659
 40
2.116668062491659
 40
2.469446072906936
 40
2.469446072906936
 40
2.469446072906936
 40
2.822224083322215
 40
2.822224083322215
 40
2.822224083322215
 40
3.175002093737492
 40
3.175002093737492
 40
3.175002093737492
 40
3.527780104152768
 40
3.527780104152768
 40
3.527780104152768
 40
3.880558114568044
 40
3.880558114568044
 40
3.880558114568044
 40
4.233336124983321
 40
4.233336124983321
 40
4.233336124983321
 40
4.586114135398599
 40
4.586114135398599
 40
4.586114135398599
 40
4.938892145813873
 40
4.938892145813873
 40
4.938892145813873
 40
5.291670156229153
 40
5.291670156229153
 40
5.291670156229153
 40
5.64444816664443
 40
5.64444816664443
 40
5.64444816664443
 40
5.997226177059705
 40
5.997226177059705
 40
5.997226177059705
 40
6.350004187474984
 40
6.350004187474984
 40
6.350004187474984
 40
6.702782197890257
 40
6.702782197890257
 40
6.702782197890257
 40
7.055560208305537
 40
7.055560208305537
 40
7.055560208305537
 40
7.408338218720808
 40
7.408338218720808
 40
7.408338218720808
 40
7.76111622913609
 40
7.76111622913609
 40
7.76111622913609
 40
8.113894239551369
 40
8.113894239551369
 40
8.113894239551369
 40
8.466672249966642
 40
8.466672249966642
 40
8.466672249966642
 40
8.819450260381922
 40
8.819450260381922
 40
8.819450260381922
 40
9.172228270797198
 40
9.172228270797198
 40
9.172228270797198
 40
9.525006281212476
 40
9.525006281212476
 40
9.525006281212476
 40
9.877784291627751
 40
9.877784291627751
 40
9.877784291627751
 40
10.23056230204303
 40
10.23056230204303
 40
10.23056230204303
 40
10.58334031245831
 40
10.58334031245831
 40
10.58334031245831
 40
10.93611832287358
 40
10.93611832287358
 40
10.93611832287358
 40
11.28889633328886
 40
11.28889633328886
 40
11.28889633328886
 40
11.64167434370414
 40
11.64167434370414
 40
11.64167434370414
 40
11.99445235411941
 40
11.99445235411941
 40
11.99445235411941
 40
12.34723036453469
 40
12.34723036453469
 40
12.34723036453469
 40
12.70000837494997
 40
12.70000837494997
 40
12.70000837494997
 40
13.05278638536524
 40
13.05278638536524
 40
13.05278638536524
 40
13.40556439578052
 40
13.40556439578052
 40
13.40556439578052
 40
13.7583424061958
 40
13.7583424061958
 40
13.7583424061958
 40
14.11112041661107
 40
14.11112041661107
 40
14.11112041661107
 40
14.46389842702635
 40
14.46389842702635
 40
14.46389842702635
 40
14.81667643744163
 40
14.81667643744163
 40
14.81667643744163
 40
14.81667643744163
 10
173.3972823146245
 20
126.8274843518258
 10
173.3972823146245
 20
126.8274843518258
 10
173.3972823146245
 20
126.7217198506564
 10
173.3972823146245
 20
126.7217198506564
 10
173.3972823146245
 20
126.7217198506564
 10
173.4186419207238
 20
126.7217198506564
 10
173.4186419207238
 20
126.7217198506564
 10
173.4186419207238
 20
126.7217198506564
 10
173.4820317194703
 20
126.7007047543328
 10
173.4820317194703
 20
126.7007047543328
 10
173.4820317194703
 20
126.7007047543328
 10
173.5244064218933
 20
126.6793451482334
 10
173.5244064218933
 20
126.6793451482334
 10
173.5244064218933
 20
126.6793451482334
 10
173.5877962206398
 20
126.6793451482334
 10
173.5877962206398
 20
126.6793451482334
 10
173.5877962206398
 20
126.6793451482334
 10
173.6301709230627
 20
126.6583300519099
 10
173.6301709230627
 20
126.6583300519099
 10
173.7955356154449
 20
126.5911506456296
 10
173.759706598762
 20
126.6380039751379
 10
173.9478089363468
 20
126.5525655507404
 10
173.9478089363468
 20
126.5525655507404
 10
173.9688240326703
 20
126.4464565397952
 10
173.9688240326703
 20
126.4464565397952
 10
173.9688240326703
 20
126.4464565397952
 10
174.0325583411926
 20
126.5101908483175
 10
174.0325583411926
 20
126.5101908483175
 10
174.0325583411926
 20
126.5101908483175
 10
174.0749330436156
 20
126.5101908483175
 10
174.0749330436156
 20
126.5101908483175
 10
174.0749330436156
 20
126.5101908483175
 10
174.1593379386856
 20
126.4678161458946
 10
174.1593379386856
 20
126.4678161458946
 10
174.1593379386856
 20
126.4678161458946
 10
174.180697544785
 20
126.4464565397952
 10
174.180697544785
 20
126.4464565397952
 10
174.2464989119621
 20
126.3982251711837
 10
174.3298702777047
 20
126.3716979184474
 10
174.3922265471239
 20
126.3196769423022
 10
174.608234176548
 20
126.2059887162895
 10
174.7749769080334
 20
126.0278771622029
 10
174.9637682651697
 20
125.8749148217494
 10
174.9637682651697
 20
125.8749148217494
 10
175.0061429675926
 20
125.9172895241723
 10
175.0061429675926
 20
125.9172895241723
 10
174.961356696739
 20
125.9631093243532
 10
174.782211613325
 20
126.1246844092016
 10
174.7308796567315
 20
126.1501781326105
 10
174.7308796567315
 20
126.1501781326105
 10
174.6885049543085
 20
126.1925528350335
 10
174.6885049543085
 20
126.1925528350335
 10
174.6885049543085
 20
126.1925528350335
 10
174.667489857985
 20
126.2349275374564
 10
174.667489857985
 20
126.2349275374564
 10
174.667489857985
 20
126.2349275374564
 10
174.625115155562
 20
126.2559426337799
 10
174.625115155562
 20
126.2559426337799
 10
174.625115155562
 20
126.2559426337799
 10
174.5827404531391
 20
126.2983173362029
 10
174.5827404531391
 20
126.2983173362029
 10
174.5827404531391
 20
126.2983173362029
 10
174.5403657507162
 20
126.3196769423022
 10
174.5403657507162
 20
126.3196769423022
 10
174.5403657507162
 20
126.3196769423022
 10
174.4979910482932
 20
126.3620516447252
 10
174.4979910482932
 20
126.3620516447252
 10
174.4735308542117
 20
126.3875453681341
 10
174.3247026310678
 20
126.4695386947736
 10
174.2864620459544
 20
126.4888312422181
 10
174.2864620459544
 20
126.4888312422181
 10
174.2654469496308
 20
126.5101908483175
 10
174.2654469496308
 20
126.5101908483175
 10
174.2654469496308
 20
126.5101908483175
 10
174.2230722472079
 20
126.5312059446411
 10
174.2230722472079
 20
126.5312059446411
 10
174.2230722472079
 20
126.5312059446411
 10
174.2017126411085
 20
126.5525655507404
 10
174.2017126411085
 20
126.5525655507404
 10
174.2017126411085
 20
126.5525655507404
 10
174.1383228423621
 20
126.573580647064
 10
174.1383228423621
 20
126.573580647064
 10
174.1383228423621
 20
126.573580647064
 10
174.1169632362627
 20
126.5945957433876
 10
174.1169632362627
 20
126.5945957433876
 10
174.1169632362627
 20
126.5945957433876
 10
174.0959481399391
 20
126.7007047543328
 10
174.0959481399391
 20
126.7007047543328
 10
174.0959481399391
 20
126.7007047543328
 10
174.0325583411926
 20
126.6369704458105
 10
174.0325583411926
 20
126.6369704458105
 10
174.0325583411926
 20
126.6369704458105
 10
173.9901836387697
 20
126.6369704458105
 10
173.9901836387697
 20
126.6369704458105
 10
173.9901836387697
 20
126.6369704458105
 10
173.9054342339239
 20
126.6793451482334
 10
173.9054342339239
 20
126.6793451482334
 10
173.9054342339239
 20
126.6793451482334
 10
173.8420444351773
 20
126.7007047543328
 10
173.8420444351773
 20
126.7007047543328
 10
173.8420444351773
 20
126.7007047543328
 10
173.7996697327544
 20
126.7217198506564
 10
173.7996697327544
 20
126.7217198506564
 10
173.7996697327544
 20
126.7217198506564
 10
173.7572950303315
 20
126.7217198506564
 10
173.7572950303315
 20
126.7217198506564
 10
173.7572950303315
 20
126.7217198506564
 10
173.6725456254856
 20
126.7640945530793
 10
173.6725456254856
 20
126.7640945530793
 10
173.6725456254856
 20
126.7640945530793
 10
173.6515305291621
 20
126.7640945530793
 10
173.6515305291621
 20
126.7640945530793
 10
173.6515305291621
 20
126.7640945530793
 10
173.5667811243162
 20
126.7851096494029
 10
173.5667811243162
 20
126.7851096494029
 10
173.5667811243162
 20
126.7851096494029
 10
173.5033913255697
 20
126.8064692555022
 10
173.5033913255697
 20
126.8064692555022
 10
173.5033913255697
 20
126.8064692555022
 10
173.4396570170474
 20
126.8064692555022
 10
173.4396570170474
 20
126.8064692555022
 10
173.4396570170474
 20
126.8064692555022
 10
173.4186419207238
 20
126.8274843518258
 10
173.4186419207238
 20
126.8274843518258
 10
173.4186419207238
 20
126.8274843518258
 10
173.3972823146245
 20
126.8274843518258
 10
173.3972823146245
 20
126.8274843518258
 72
     1
 10
173.3972823146245
 20
126.8274843518258
 11
173.3972823146245
 21
126.8274843518258
 97
        0
 75
     0
 76
     1
 98
        0
  0
HATCH
  5
4842
330
1F
100
AcDbEntity
  8
图层 1
 62
     7
100
AcDbHatch
 10
0.0
 20
0.0
 30
0.0
210
0.0
220
0.0
230
1.0
  2
SOLID
 70
     1
 71
     0
 91
        1
 92
        1
 93
        2
 72
     4
 94
        3
 73
     0
 74
     0
 95
       47
 96
       43
 40
0.0
 40
0.0
 40
0.0
 40
0.0
 40
0.3527780104152769
 40
0.3527780104152769
 40
0.3527780104152769
 40
0.7055560208305538
 40
0.7055560208305538
 40
0.7055560208305538
 40
1.058334031245828
 40
1.058334031245828
 40
1.058334031245828
 40
1.411112041661104
 40
1.411112041661104
 40
1.411112041661104
 40
1.763890052076384
 40
1.763890052076384
 40
1.763890052076384
 40
2.116668062491659
 40
2.116668062491659
 40
2.116668062491659
 40
2.469446072906936
 40
2.469446072906936
 40
2.469446072906936
 40
2.822224083322215
 40
2.822224083322215
 40
2.822224083322215
 40
3.175002093737492
 40
3.175002093737492
 40
3.175002093737492
 40
3.527780104152768
 40
3.527780104152768
 40
3.527780104152768
 40
3.880558114568044
 40
3.880558114568044
 40
3.880558114568044
 40
4.233336124983321
 40
4.233336124983321
 40
4.233336124983321
 40
4.586114135398599
 40
4.586114135398599
 40
4.586114135398599
 40
4.938892145813873
 40
4.938892145813873
 40
4.938892145813873
 40
4.938892145813873
 10
180.1920486226523
 20
255.6479577566324
 10
180.1920486226523
 20
255.6479577566324
 10
180.2130637189759
 20
255.6055830542095
 10
180.2130637189759
 20
255.6055830542095
 10
180.2130637189759
 20
255.6055830542095
 10
180.2130637189759
 20
255.5210059042515
 10
180.2130637189759
 20
255.5210059042515
 10
180.2130637189759
 20
255.5210059042515
 10
180.1920486226523
 20
255.4786312018286
 10
180.1920486226523
 20
255.4786312018286
 10
180.1920486226523
 20
255.4786312018286
 10
180.1496739202294
 20
255.4359119896299
 10
180.1496739202294
 20
255.4359119896299
 10
180.1496739202294
 20
255.4359119896299
 10
180.1283143141301
 20
255.4147246384184
 10
180.1283143141301
 20
255.4147246384184
 10
180.1283143141301
 20
255.4147246384184
 10
180.0225498129606
 20
255.4147246384184
 10
180.0225498129606
 20
255.4147246384184
 10
180.0225498129606
 20
255.4147246384184
 10
179.9591600142141
 20
255.4359119896299
 10
179.9591600142141
 20
255.4359119896299
 10
179.9591600142141
 20
255.4359119896299
 10
179.9167853117912
 20
255.4570993408414
 10
179.9167853117912
 20
255.4570993408414
 10
179.9167853117912
 20
255.4570993408414
 10
179.8957702154676
 20
255.4786312018286
 10
179.8957702154676
 20
255.4786312018286
 10
179.8957702154676
 20
255.4786312018286
 10
179.8744106093683
 20
255.4994740432643
 10
179.8744106093683
 20
255.4994740432643
 10
179.8744106093683
 20
255.4994740432643
 10
179.8744106093683
 20
255.6479577566324
 10
179.8744106093683
 20
255.6479577566324
 10
179.9608825630931
 20
255.7323626517025
 10
180.045631967939
 20
255.7085914771726
 10
180.1496739202294
 20
255.7115198102668
 10
180.1496739202294
 20
255.7115198102668
 10
180.170689016553
 20
255.6688005980681
 10
180.170689016553
 20
255.6688005980681
 10
180.170689016553
 20
255.6688005980681
 10
180.1920486226523
 20
255.6479577566324
 10
180.1920486226523
 20
255.6479577566324
 72
     1
 10
180.1920486226523
 20
255.6479577566324
 11
180.1920486226523
 21
255.6479577566324
 97
        0
 75
     0
 76
     1
 98
        0
  0
MTEXT
  5
65A0
330
1F
100
AcDbEntity
  8
图框
 62
     3
100
AcDbMText
 10
614.7098387661592
 20
239.1322446765669
 30
0.0
 40
2.239135181275613
 41
25.20929399431603
 71
     5
 72
     5
  1
HMK70-002-MC
  7
Romans字体
 73
     1
 44
1.0
1001
ACAD
1000
MTEXTBEGIN
1070
    73
1070
     1
1070
    44
1040
1.0
1070
    74
1070
     0
1000
MTEXTEND
1000
ACAD_MTEXT_DEFINED_HEIGHT_BEGIN
1070
    46
1040
6.5150591292644
1000
ACAD_MTEXT_DEFINED_HEIGHT_END
  0
MTEXT
  5
65A1
330
1F
100
AcDbEntity
  8
图框
 62
     3
100
AcDbMText
 10
614.7098387661592
 20
232.5476567814474
 30
0.0
 40
2.239135181275613
 41
25.20929399431603
 71
     5
 72
     5
  1
1290020100201
  7
Romans字体
 73
     1
 44
1.0
1001
ACAD
1000
MTEXTBEGIN
1070
    73
1070
     1
1070
    44
1040
1.0
1070
    74
1070
     0
1000
MTEXTEND
1000
ACAD_MTEXT_DEFINED_HEIGHT_BEGIN
1070
    46
1040
6.654116660974579
1000
ACAD_MTEXT_DEFINED_HEIGHT_END
  0
MTEXT
  5
65A3
330
1F
100
AcDbEntity
  8
图框
 62
     3
100
AcDbMText
 10
563.6695900682203
 20
222.5669304723886
 30
0.0
 40
2.239135181275613
 41
8.122011325792854
 71
     5
 72
     5
  1
3:4
  7
Romans字体
 73
     1
 44
1.0
1001
ACAD
1000
MTEXTBEGIN
1070
    73
1070
     1
1070
    44
1040
1.0
1070
    74
1070
     0
1000
MTEXTEND
1000
ACAD_MTEXT_DEFINED_HEIGHT_BEGIN
1070
    46
1040
5.91457095090787
1000
ACAD_MTEXT_DEFINED_HEIGHT_END
  0
MTEXT
  5
65A4
330
1F
100
AcDbEntity
  8
图框
 62
     3
100
AcDbMText
 10
571.7916013940135
 20
222.5669304723888
 30
0.0
 40
2.239135181275613
 41
8.122011325793444
 71
     5
 72
     5
  1
V1.0 
  7
Romans字体
 73
     1
 44
1.0
1001
ACAD
1000
MTEXTBEGIN
1070
    73
1070
     1
1070
    44
1040
1.0
1070
    74
1070
     0
1000
MTEXTEND
1000
ACAD_MTEXT_DEFINED_HEIGHT_BEGIN
1070
    46
1040
5.914570950907844
1000
ACAD_MTEXT_DEFINED_HEIGHT_END
  0
MTEXT
  5
65B2
330
1F
100
AcDbEntity
  8
图框
 62
     3
100
AcDbMText
 10
579.9136127198074
 20
222.5669304723888
 30
0.0
 40
2.239135181275613
 41
8.122011325792854
 71
     5
 72
     5
  1
9.8g
  7
Romans字体
 73
     1
 44
1.0
1001
ACAD
1000
MTEXTBEGIN
1070
    73
1070
     1
1070
    44
1040
1.0
1070
    74
1070
     0
1000
MTEXTEND
1000
ACAD_MTEXT_DEFINED_HEIGHT_BEGIN
1070
    46
1040
5.914570950907799
1000
ACAD_MTEXT_DEFINED_HEIGHT_END
  0
MTEXT
  5
6E00
102
{ACAD_XDICTIONARY
360
1251F
102
}
330
1F
100
AcDbEntity
  8
打标文字
 62
     3
100
AcDbMText
 10
552.8206653295378
 20
310.1752397650396
 30
0.0
 40
1.434738964303713
 41
41.38758842774978
 71
     1
 72
     5
  3
\A1;{\f仿宋_GB2312|b0|i0|c134|p49;技术参数}:\P{\f仿宋_GB2312|b0|i0|c134|p49;插芯：}\P- {\f仿宋_GB2312|b0|i0|c134|p49;插针数}: 2\P- {\f仿宋_GB2312|b0|i0|c134|p49;额定电流}: 70A\P- {\f仿宋_GB2312|b0|i0|c134|p49;额定电压}: 1000V\P- {\f仿宋_GB2312|b0|i0|c134|p49;额定脉冲电压}: 8kV\P- {\f仿宋
  3
_GB2312|b0|i0|c134|p49;污染等级}: 3\P- {\f仿宋_GB2312|b0|i0|c134|p49;绝缘阻抗}: {\f仿宋_GB2312|b0|i0|c134|p49;≥}10{\H0.7x;\S10^ ;}\U+03A9\P- {\f仿宋_GB2312|b0|i0|c134|p49;材料}: {\f仿宋_GB2312|b0|i0|c134|p49;聚碳酸酯}\P- {\f仿宋_GB2312|b0|i0|c134|p49;颜色}: RAL 7032{\f仿宋_GB231
  3
2|b0|i0|c134|p49;（浅灰色）}\P- {\f仿宋_GB2312|b0|i0|c134|p49;温度范围}: -40{\f仿宋_GB2312|b0|i0|c134|p49;℃} - +125{\f仿宋_GB2312|b0|i0|c134|p49;℃}\P- {\f仿宋_GB2312|b0|i0|c134|p49;依据}UL 94{\f仿宋_GB2312|b0|i0|c134|p49;的阻燃等级}: V0\P- {\f仿宋_GB2312|b0|i0|c134|p49;可插拔次数}: 
  3
{\f仿宋_GB2312|b0|i0|c134|p49;≥}500\P{\f仿宋_GB2312|b0|i0|c134|p49;插针：}\P- {\f仿宋_GB2312|b0|i0|c134|p49;接线方式}: {\f仿宋_GB2312|b0|i0|c134|p49;冷压连接}\P- {\f仿宋_GB2312|b0|i0|c134|p49;材料}: {\f仿宋_GB2312|b0|i0|c134|p49;铜合金}\P- {\f仿宋_GB2312|b0|i0|c134|p49;表面处理}: {\f
  3
仿宋_GB2312|b0|i0|c134|p49;镀银}\P- {\f仿宋_GB2312|b0|i0|c134|p49;接触电阻}: \U+22640.5m\U+03A9\P- {\f仿宋_GB2312|b0|i0|c134|p49;线径范围}: 10-25mm{\H0.7x;\S2^ ;}\P- {\f仿宋_GB2312|b0|i0|c134|p49;最大电缆直径}: 11mm\P- {\f仿宋_GB2312|b0|i0|c134|p49;剥线长度}: 15.5mm\P- {\f仿宋_GB231
  1
2|b0|i0|c134|p49;工具：冷压钳}-TL05
  7
Romans字体
 73
     1
 44
1.0
1001
ACAD
1000
MTEXTBEGIN
1070
    73
1070
     1
1070
    44
1040
1.0
1070
    74
1070
     0
1000
MTEXTEND
1000
ACAD_MTEXT_DEFINED_HEIGHT_BEGIN
1070
    46
1040
6.221113921432262
1000
ACAD_MTEXT_DEFINED_HEIGHT_END
  0
MTEXT
  5
7228
102
{ACAD_XDICTIONARY
360
12521
102
}
330
1F
100
AcDbEntity
  8
打标文字
 62
     3
100
AcDbMText
 10
587.0889470248539
 20
310.3064786319049
 30
0.0
 40
1.434738964303713
 41
50.32154038248891
 71
     1
 72
     5
  3
\A1;Technical specification:\PInsters:\P- No. of contact: 2\P- Rated current: 70A\P- Rated voltage: 1000V\P- Rated impulse voltage: 8kV\P- Pollution degree: 3\P- Insulation resistance: {\fSimSun|b0|i0|c134|p2;≥}10{\H0.7x;\S10^ ;}\U+03A9\P- Material: p
  3
olycarbonate\P- Colour: RAL 7032(light grey) \P- Temperature range: -40{\fSimSun|b0|i0|c0|p2;\U+2103} - +125{\fSimSun|b0|i0|c0|p2;\U+2103}\P- Flammability acc.to UL 94: V0\P- Mating cycles: {\fSimSun|b0|i0|c134|p2;≥}500\PContacts:\P- Terminal: crimp 
  3
terminal\P- Material: copper alloy\P- Surface: hard-silver plated\P- Contact resistance: {\fFangSong_GB2312|b0|i0|c134|p49;≤}0.5m\U+03A9\P- Wire gauge: 10-25mm{\H0.7x;\S2^ ;}\P- Max. insulation diameter: 11mm\P- Stripping length: 15.5mm\P- Tools: Crim
  1
p contact tool-TL05
  7
Romans字体
 73
     1
 44
1.0
1001
ACAD
1000
MTEXTBEGIN
1070
    73
1070
     1
1070
    44
1040
1.0
1070
    74
1070
     0
1000
MTEXTEND
1000
ACAD_MTEXT_DEFINED_HEIGHT_BEGIN
1070
    46
1040
6.221113921432262
1000
ACAD_MTEXT_DEFINED_HEIGHT_END
  0
INSERT
  5
11089
330
1F
100
AcDbEntity
  8
DIM
100
AcDbBlockReference
  2
A4图框-NEW
 10
-217.881891194455
 20
-149.3143759521133
 30
0.0
 41
0.75
 42
0.75
 43
0.75
  0
DIMENSION
  5
11CF6
330
1F
100
AcDbEntity
  8
DIM
100
AcDbDimension
  2
*D2
 10
485.5406992046827
 20
327.1828710074273
 30
0.0
 11
508.8906992046831
 21
327.1828710074273
 31
0.0
 70
   160
 71
     5
 42
46.69999999999982
  3
01
100
AcDbAlignedDimension
 13
532.2406992046824
 23
316.4271910074273
 33
0.0
 14
485.5406992046827
 24
317.5073710074272
 34
0.0
 50
180.0
100
AcDbRotatedDimension
  0
DIMENSION
  5
11CF7
330
1F
100
AcDbEntity
  8
DIM
100
AcDbDimension
  2
*D3
 10
470.974630971751
 20
327.1828710059878
 30
0.0
 11
463.6746309717508
 21
327.1828710059878
 31
0.0
 70
   160
 71
     5
 42
14.59999999999945
  3
01
100
AcDbAlignedDimension
 13
456.3746309717513
 23
318.8573710059879
 33
0.0
 14
470.974630971751
 24
318.8573710059879
 34
0.0
100
AcDbRotatedDimension
  0
DIMENSION
  5
11CF8
330
1F
100
AcDbEntity
  8
DIM
100
AcDbDimension
  2
*D4
 10
449.9991309717514
 20
286.6073710059879
 30
0.0
 11
449.9991309717514
 21
303.7073710059878
 31
0.0
 70
   160
  1
<>
 71
     5
 42
34.20000000000005
  3
01
100
AcDbAlignedDimension
 13
461.1746309717507
 23
320.8073710059879
 33
0.0
 14
459.9746309717509
 24
286.6073710059879
 34
0.0
 50
90.0
100
AcDbRotatedDimension
  0
LINE
  5
11CF9
330
1F
100
AcDbEntity
  8
0
100
AcDbLine
 10
485.5406992046827
 20
289.9073710077873
 30
0.0
 11
485.5406992046827
 21
317.5073710070673
 31
0.0
  0
LINE
  5
11CFA
330
1F
100
AcDbEntity
  8
0
100
AcDbLine
 10
485.8406992041254
 20
289.607371005808
 30
0.0
 11
485.8406992041254
 21
317.8073710065072
 31
0.0
  0
LINE
  5
11CFB
330
1F
100
AcDbEntity
  8
0
100
AcDbLine
 10
488.040699203402
 20
318.8573710070877
 30
0.0
 11
488.040699203402
 21
288.5573710077678
 31
0.0
  0
LINE
  5
11CFC
330
1F
100
AcDbEntity
  8
0
100
AcDbLine
 10
499.5406992031036
 20
320.8073710059879
 30
0.0
 11
503.0406992033366
 21
320.8073710059879
 31
0.0
  0
LINE
  5
11CFD
330
1F
100
AcDbEntity
  8
0
100
AcDbLine
 10
492.0406992043989
 20
293.0573710069875
 30
0.0
 11
492.0406992043989
 21
293.1573710076472
 31
0.0
  0
LINE
  5
11CFE
330
1F
100
AcDbEntity
  8
0
100
AcDbLine
 10
492.0406992043989
 20
314.2573710072074
 30
0.0
 11
492.0406992043989
 21
314.3573710078671
 31
0.0
  0
LINE
  5
11CFF
330
1F
100
AcDbEntity
  8
0
100
AcDbLine
 10
488.040699203402
 20
318.8573710070877
 30
0.0
 11
532.2406992030209
 21
318.8573710070877
 31
0.0
  0
LINE
  5
11D00
330
1F
100
AcDbEntity
  8
0
100
AcDbLine
 10
532.2406992030209
 20
318.4003376514074
 30
0.0
 11
513.0406992033003
 21
318.4003376514074
 31
0.0
  0
LINE
  5
11D01
330
1F
100
AcDbEntity
  8
0
100
AcDbLine
 10
493.0406992033802
 20
291.5073710056476
 30
0.0
 11
493.0406992033802
 21
293.0573710069875
 31
0.0
  0
LINE
  5
11D02
330
1F
100
AcDbEntity
  8
0
100
AcDbLine
 10
493.0406992033802
 20
314.3573710078671
 30
0.0
 11
493.0406992033802
 21
315.9073710066677
 31
0.0
  0
LINE
  5
11D03
330
1F
100
AcDbEntity
  8
0
100
AcDbLine
 10
488.040699203402
 20
317.8073710065072
 30
0.0
 11
485.8406992041254
 21
317.8073710065072
 31
0.0
  0
LINE
  5
11D04
330
1F
100
AcDbEntity
  8
0
100
AcDbLine
 10
532.2406992030209
 20
316.5374653446479
 30
0.0
 11
513.0406992033003
 21
316.5374653446479
 31
0.0
  0
LINE
  5
11D05
330
1F
100
AcDbEntity
  8
0
100
AcDbLine
 10
493.0406992033802
 20
315.9073710066677
 30
0.0
 11
499.0406992048863
 21
315.9073710066677
 31
0.0
  0
LINE
  5
11D06
330
1F
100
AcDbEntity
  8
0
100
AcDbLine
 10
504.0406992048643
 20
315.9073710066677
 30
0.0
 11
511.0406992053448
 21
315.9073710066677
 31
0.0
  0
LINE
  5
11D07
330
1F
100
AcDbEntity
  8
0
100
AcDbLine
 10
493.0406992033802
 20
315.3073710077878
 30
0.0
 11
499.0406992048863
 21
315.3073710077878
 31
0.0
  0
LINE
  5
11D08
330
1F
100
AcDbEntity
  8
0
100
AcDbLine
 10
504.0406992048643
 20
315.3073710077878
 30
0.0
 11
511.0406992053448
 21
315.3073710077878
 31
0.0
  0
LINE
  5
11D09
330
1F
100
AcDbEntity
  8
0
100
AcDbLine
 10
488.040699203402
 20
314.3573710078671
 30
0.0
 11
493.0406992033802
 21
314.3573710078671
 31
0.0
  0
LINE
  5
11D0A
330
1F
100
AcDbEntity
  8
0
100
AcDbLine
 10
499.0406992048863
 20
314.3573710078671
 30
0.0
 11
504.0406992048643
 21
314.3573710078671
 31
0.0
  0
LINE
  5
11D0B
330
1F
100
AcDbEntity
  8
0
100
AcDbLine
 10
511.0406992053448
 20
314.3573710078671
 30
0.0
 11
512.7406992038576
 21
314.3573710078671
 31
0.0
  0
LINE
  5
11D0C
330
1F
100
AcDbEntity
  8
0
100
AcDbLine
 10
510.0406992038241
 20
314.2573710072074
 30
0.0
 11
488.040699203402
 21
314.2573710072074
 31
0.0
  0
LINE
  5
11D0D
330
1F
100
AcDbEntity
  8
0
100
AcDbLine
 10
498.5406992041224
 20
296.007366006147
 30
0.0
 11
498.5406992041224
 21
300.4073660072472
 31
0.0
  0
LINE
  5
11D0E
330
1F
100
AcDbEntity
  8
0
100
AcDbLine
 10
498.5406992041224
 20
307.0073760076074
 30
0.0
 11
498.5406992041224
 21
311.4073760061673
 31
0.0
  0
LINE
  5
11D0F
330
1F
100
AcDbEntity
  8
0
100
AcDbLine
 10
498.9406992042185
 20
311.4073710074471
 30
0.0
 11
498.9406992042185
 21
307.0073710063479
 31
0.0
  0
LINE
  5
11D10
330
1F
100
AcDbEntity
  8
0
100
AcDbLine
 10
498.9406992042185
 20
300.4073710059674
 30
0.0
 11
498.9406992042185
 21
296.0073710074075
 31
0.0
  0
LINE
  5
11D11
330
1F
100
AcDbEntity
  8
0
100
AcDbLine
 10
512.7406992038576
 20
313.0051960642676
 30
0.0
 11
532.2406992030209
 21
313.0051960642676
 31
0.0
  0
LINE
  5
11D12
330
1F
100
AcDbEntity
  8
0
100
AcDbLine
 10
499.0406992048863
 20
315.9073710066677
 30
0.0
 11
499.0406992048863
 21
314.3573710078671
 31
0.0
  0
LINE
  5
11D13
330
1F
100
AcDbEntity
  8
0
100
AcDbLine
 10
499.0406992048863
 20
293.0573710069875
 30
0.0
 11
499.0406992048863
 21
291.5073710056476
 31
0.0
  0
LINE
  5
11D14
330
1F
100
AcDbEntity
  8
0
100
AcDbLine
 10
499.5406992031036
 20
286.6073710063274
 30
0.0
 11
499.5406992031036
 21
288.5573710077678
 31
0.0
  0
LINE
  5
11D15
330
1F
100
AcDbEntity
  8
0
100
AcDbLine
 10
499.5406992031036
 20
318.8573710070877
 30
0.0
 11
499.5406992031036
 21
320.8073710059879
 31
0.0
  0
LINE
  5
11D16
330
1F
100
AcDbEntity
  8
0
100
AcDbLine
 10
498.8406992035576
 20
311.7073760056073
 30
0.0
 11
504.2406992036393
 21
311.7073760056073
 31
0.0
  0
LINE
  5
11D17
330
1F
100
AcDbEntity
  8
0
100
AcDbLine
 10
498.9406992042185
 20
311.4073710074471
 30
0.0
 11
504.4406992049606
 21
311.4073710074471
 31
0.0
  0
LINE
  5
11D18
330
1F
100
AcDbEntity
  8
0
100
AcDbLine
 10
501.9164351348861
 20
286.6073710063274
 30
0.0
 11
501.9164351348861
 21
288.5573710077678
 31
0.0
  0
LINE
  5
11D19
330
1F
100
AcDbEntity
  8
0
100
AcDbLine
 10
501.9164351348861
 20
320.8073710059879
 30
0.0
 11
501.9164351348861
 21
318.8573710070877
 31
0.0
  0
LINE
  5
11D1A
330
1F
100
AcDbEntity
  8
0
100
AcDbLine
 10
502.4406992044584
 20
311.4073710074471
 30
0.0
 11
502.4406992044584
 21
307.0073710063479
 31
0.0
  0
LINE
  5
11D1B
330
1F
100
AcDbEntity
  8
0
100
AcDbLine
 10
502.4406992044584
 20
300.4073710059674
 30
0.0
 11
502.4406992044584
 21
296.0073710074075
 31
0.0
  0
LINE
  5
11D1C
330
1F
100
AcDbEntity
  8
0
100
AcDbLine
 10
503.0406992033366
 20
320.8073710059879
 30
0.0
 11
503.0406992033366
 21
318.8573710070877
 31
0.0
  0
LINE
  5
11D1D
330
1F
100
AcDbEntity
  8
0
100
AcDbLine
 10
503.0406992033366
 20
288.5573710077678
 30
0.0
 11
503.0406992033366
 21
286.6073710063274
 31
0.0
  0
LINE
  5
11D1E
330
1F
100
AcDbEntity
  8
0
100
AcDbLine
 10
513.0406992033003
 20
308.4095459490072
 30
0.0
 11
532.2406992030209
 21
308.4095459490072
 31
0.0
  0
LINE
  5
11D1F
330
1F
100
AcDbEntity
  8
0
100
AcDbLine
 10
504.0406992048643
 20
291.5073710056476
 30
0.0
 11
504.0406992048643
 21
293.0573710069875
 31
0.0
  0
LINE
  5
11D20
330
1F
100
AcDbEntity
  8
0
100
AcDbLine
 10
504.0406992048643
 20
314.3573710078671
 30
0.0
 11
504.0406992048643
 21
315.9073710066677
 31
0.0
  0
LINE
  5
11D21
330
1F
100
AcDbEntity
  8
0
100
AcDbLine
 10
504.4406992049606
 20
311.4073710074471
 30
0.0
 11
504.4406992049606
 21
307.0073710063479
 31
0.0
  0
LINE
  5
11D22
330
1F
100
AcDbEntity
  8
0
100
AcDbLine
 10
504.4406992049606
 20
300.4073710059674
 30
0.0
 11
504.4406992049606
 21
296.0073710074075
 31
0.0
  0
LINE
  5
11D23
330
1F
100
AcDbEntity
  8
0
100
AcDbLine
 10
504.5406992030819
 20
311.4073760061673
 30
0.0
 11
504.5406992030819
 21
307.0073760076074
 31
0.0
  0
LINE
  5
11D24
330
1F
100
AcDbEntity
  8
0
100
AcDbLine
 10
504.5406992030819
 20
300.4073660072472
 30
0.0
 11
504.5406992030819
 21
296.007366006147
 31
0.0
  0
LINE
  5
11D25
330
1F
100
AcDbEntity
  8
0
100
AcDbLine
 10
504.4406992049606
 20
307.0073710063479
 30
0.0
 11
498.9406992042185
 21
307.0073710063479
 31
0.0
  0
LINE
  5
11D26
330
1F
100
AcDbEntity
  8
0
100
AcDbLine
 10
511.5406992035619
 20
306.9073710056873
 30
0.0
 11
513.0406992033003
 21
306.9073710056873
 31
0.0
  0
LINE
  5
11D27
330
1F
100
AcDbEntity
  8
0
100
AcDbLine
 10
504.2406992036393
 20
306.7073760056274
 30
0.0
 11
498.8406992035576
 21
306.7073760056274
 31
0.0
  0
LINE
  5
11D28
330
1F
100
AcDbEntity
  8
0
100
AcDbLine
 10
513.0406992033003
 20
305.1531413162873
 30
0.0
 11
532.2406992030209
 21
305.1531413162873
 31
0.0
  0
LINE
  5
11D29
330
1F
100
AcDbEntity
  8
0
100
AcDbLine
 10
488.040699203402
 20
304.571568537347
 30
0.0
 11
485.8406992041254
 21
304.571568537347
 31
0.0
  0
LINE
  5
11D2A
330
1F
100
AcDbEntity
  8
0
100
AcDbLine
 10
513.0406992033003
 20
304.3363428330476
 30
0.0
 11
532.2406992030209
 21
304.3363428330476
 31
0.0
  0
LINE
  5
11D2B
330
1F
100
AcDbEntity
  8
0
100
AcDbLine
 10
511.5406992035619
 20
303.2073710066679
 30
0.0
 11
513.0406992033003
 21
303.2073710066679
 31
0.0
  0
LINE
  5
11D2C
330
1F
100
AcDbEntity
  8
0
100
AcDbLine
 10
513.0406992033003
 20
303.0783991818079
 30
0.0
 11
532.2406992030209
 21
303.0783991818079
 31
0.0
  0
LINE
  5
11D2D
330
1F
100
AcDbEntity
  8
0
100
AcDbLine
 10
485.8406992041254
 20
302.8431734749674
 30
0.0
 11
488.040699203402
 21
302.8431734749674
 31
0.0
  0
LINE
  5
11D2E
330
1F
100
AcDbEntity
  8
0
100
AcDbLine
 10
511.5406992035619
 20
302.8073710065673
 30
0.0
 11
513.0406992033003
 21
302.8073710065673
 31
0.0
  0
LINE
  5
11D2F
330
1F
100
AcDbEntity
  8
0
100
AcDbLine
 10
513.0406992033003
 20
302.2616006985672
 30
0.0
 11
532.2406992030209
 21
302.2616006985672
 31
0.0
  0
LINE
  5
11D30
330
1F
100
AcDbEntity
  8
0
100
AcDbLine
 10
513.0406992033003
 20
301.6073710062673
 30
0.0
 11
511.5406992035619
 21
301.6073710062673
 31
0.0
  0
LINE
  5
11D31
330
1F
100
AcDbEntity
  8
0
100
AcDbLine
 10
511.0406992053448
 20
315.9073710066677
 30
0.0
 11
511.0406992053448
 21
314.3573710078671
 31
0.0
  0
LINE
  5
11D32
330
1F
100
AcDbEntity
  8
0
100
AcDbLine
 10
511.0406992053448
 20
293.0573710069875
 30
0.0
 11
511.0406992053448
 21
291.5073710056476
 31
0.0
  0
LINE
  5
11D33
330
1F
100
AcDbEntity
  8
0
100
AcDbLine
 10
511.5406992035619
 20
312.7573710074675
 30
0.0
 11
511.5406992035619
 21
294.6573710073871
 31
0.0
  0
LINE
  5
11D34
330
1F
100
AcDbEntity
  8
0
100
AcDbLine
 10
498.8406992035576
 20
300.7073660066871
 30
0.0
 11
504.2406992036393
 21
300.7073660066871
 31
0.0
  0
LINE
  5
11D35
330
1F
100
AcDbEntity
  8
0
100
AcDbLine
 10
498.9406992042185
 20
300.4073710059674
 30
0.0
 11
504.4406992049606
 21
300.4073710059674
 31
0.0
  0
LINE
  5
11D36
330
1F
100
AcDbEntity
  8
0
100
AcDbLine
 10
511.8406992030048
 20
288.5573710077678
 30
0.0
 11
511.8406992030048
 21
293.0573710069875
 31
0.0
  0
LINE
  5
11D37
330
1F
100
AcDbEntity
  8
0
100
AcDbLine
 10
511.8406992030048
 20
314.3573710078671
 30
0.0
 11
511.8406992030048
 21
318.8573710070877
 31
0.0
  0
LINE
  5
11D38
330
1F
100
AcDbEntity
  8
0
100
AcDbLine
 10
512.7406992038576
 20
293.0573710069875
 30
0.0
 11
512.7406992038576
 21
294.4095459480477
 31
0.0
  0
LINE
  5
11D39
330
1F
100
AcDbEntity
  8
0
100
AcDbLine
 10
512.7406992038576
 20
313.0051960642676
 30
0.0
 11
512.7406992038576
 21
314.3573710078671
 31
0.0
  0
LINE
  5
11D3A
330
1F
100
AcDbEntity
  8
0
100
AcDbLine
 10
513.0406992033003
 20
318.8573710070877
 30
0.0
 11
513.0406992033003
 21
313.7123668470276
 31
0.0
  0
LINE
  5
11D3B
330
1F
100
AcDbEntity
  8
0
100
AcDbLine
 10
513.0406992033003
 20
308.4095459490072
 30
0.0
 11
513.0406992033003
 21
299.0051960658474
 31
0.0
  0
LINE
  5
11D3C
330
1F
100
AcDbEntity
  8
0
100
AcDbLine
 10
513.0406992033003
 20
293.702375167827
 30
0.0
 11
513.0406992033003
 21
288.5573710077678
 31
0.0
  0
LINE
  5
11D3D
330
1F
100
AcDbEntity
  8
0
100
AcDbLine
 10
513.0406992033003
 20
299.0051960658474
 30
0.0
 11
532.2406992030209
 21
299.0051960658474
 31
0.0
  0
LINE
  5
11D3E
330
1F
100
AcDbEntity
  8
0
100
AcDbLine
 10
504.4406992049606
 20
296.0073710074075
 30
0.0
 11
498.9406992042185
 21
296.0073710074075
 31
0.0
  0
LINE
  5
11D3F
330
1F
100
AcDbEntity
  8
0
100
AcDbLine
 10
504.2406992036393
 20
295.7073660067071
 30
0.0
 11
498.8406992035576
 21
295.7073660067071
 31
0.0
  0
LINE
  5
11D40
330
1F
100
AcDbEntity
  8
0
100
AcDbLine
 10
512.7406992038576
 20
294.4095459480477
 30
0.0
 11
532.2406992030209
 21
294.4095459480477
 31
0.0
  0
LINE
  5
11D41
330
1F
100
AcDbEntity
  8
0
100
AcDbLine
 10
488.040699203402
 20
293.1573710076472
 30
0.0
 11
510.0406992038241
 21
293.1573710076472
 31
0.0
  0
LINE
  5
11D42
330
1F
100
AcDbEntity
  8
0
100
AcDbLine
 10
504.0406992048643
 20
293.0573710069875
 30
0.0
 11
499.0406992048863
 21
293.0573710069875
 31
0.0
  0
LINE
  5
11D43
330
1F
100
AcDbEntity
  8
0
100
AcDbLine
 10
493.0406992033802
 20
293.0573710069875
 30
0.0
 11
488.040699203402
 21
293.0573710069875
 31
0.0
  0
LINE
  5
11D44
330
1F
100
AcDbEntity
  8
0
100
AcDbLine
 10
511.0406992053448
 20
293.0573710069875
 30
0.0
 11
512.7406992038576
 21
293.0573710069875
 31
0.0
  0
LINE
  5
11D45
330
1F
100
AcDbEntity
  8
0
100
AcDbLine
 10
511.0406992053448
 20
292.1073710070677
 30
0.0
 11
504.0406992048643
 21
292.1073710070677
 31
0.0
  0
LINE
  5
11D46
330
1F
100
AcDbEntity
  8
0
100
AcDbLine
 10
499.0406992048863
 20
292.1073710070677
 30
0.0
 11
493.0406992033802
 21
292.1073710070677
 31
0.0
  0
LINE
  5
11D47
330
1F
100
AcDbEntity
  8
0
100
AcDbLine
 10
511.0406992053448
 20
291.5073710056476
 30
0.0
 11
504.0406992048643
 21
291.5073710056476
 31
0.0
  0
LINE
  5
11D48
330
1F
100
AcDbEntity
  8
0
100
AcDbLine
 10
499.0406992048863
 20
291.5073710056476
 30
0.0
 11
493.0406992033802
 21
291.5073710056476
 31
0.0
  0
LINE
  5
11D49
330
1F
100
AcDbEntity
  8
0
100
AcDbLine
 10
532.2406992030209
 20
290.8772766676674
 30
0.0
 11
513.0406992033003
 21
290.8772766676674
 31
0.0
  0
LINE
  5
11D4A
330
1F
100
AcDbEntity
  8
0
100
AcDbLine
 10
488.040699203402
 20
289.607371005808
 30
0.0
 11
485.8406992041254
 21
289.607371005808
 31
0.0
  0
LINE
  5
11D4B
330
1F
100
AcDbEntity
  8
0
100
AcDbLine
 10
513.0406992033003
 20
289.014404360907
 30
0.0
 11
532.2406992030209
 21
289.014404360907
 31
0.0
  0
LINE
  5
11D4C
330
1F
100
AcDbEntity
  8
0
100
AcDbLine
 10
488.040699203402
 20
288.5573710077678
 30
0.0
 11
532.2406992030209
 21
288.5573710077678
 31
0.0
  0
LINE
  5
11D4D
330
1F
100
AcDbEntity
  8
0
100
AcDbLine
 10
503.0406992033366
 20
286.6073710063274
 30
0.0
 11
499.5406992031036
 21
286.6073710063274
 31
0.0
  0
LINE
  5
11D4E
330
1F
100
AcDbEntity
  8
0
100
AcDbLine
 10
532.2406992030209
 20
318.8573710070877
 30
0.0
 11
532.2406992030209
 21
288.5573710077678
 31
0.0
  0
LINE
  5
11D4F
330
1F
100
AcDbEntity
  8
0
100
AcDbLine
 10
459.1746309725293
 20
320.8073710059879
 30
0.0
 11
468.1746309709723
 21
320.8073710059879
 31
0.0
  0
LINE
  5
11D50
330
1F
100
AcDbEntity
  8
0
100
AcDbLine
 10
456.3746309718278
 20
318.8573710070877
 30
0.0
 11
470.9746309716736
 21
318.8573710070877
 31
0.0
  0
LINE
  5
11D51
330
1F
100
AcDbEntity
  8
0
100
AcDbLine
 10
470.9746309716736
 20
314.3573710078671
 30
0.0
 11
470.0746309708137
 21
314.3573710078671
 31
0.0
  0
LINE
  5
11D52
330
1F
100
AcDbEntity
  8
0
100
AcDbLine
 10
456.3746309718278
 20
314.3573710078671
 30
0.0
 11
457.2746309726951
 21
314.3573710078671
 31
0.0
  0
LINE
  5
11D53
330
1F
100
AcDbEntity
  8
0
100
AcDbLine
 10
470.9746309716736
 20
314.2573710072074
 30
0.0
 11
470.0746309708137
 21
314.2573710072074
 31
0.0
  0
LINE
  5
11D54
330
1F
100
AcDbEntity
  8
0
100
AcDbLine
 10
457.2746309726951
 20
314.2573710072074
 30
0.0
 11
456.3746309718278
 21
314.2573710072074
 31
0.0
  0
LINE
  5
11D55
330
1F
100
AcDbEntity
  8
0
100
AcDbLine
 10
467.1746309719909
 20
316.5374653446479
 30
0.0
 11
465.9701386921313
 21
318.4003376514074
 31
0.0
  0
LINE
  5
11D56
330
1F
100
AcDbEntity
  8
0
100
AcDbLine
 10
461.3791232513703
 20
318.4003376514074
 30
0.0
 11
460.1746309715107
 21
316.5374653446479
 31
0.0
  0
LINE
  5
11D57
330
1F
100
AcDbEntity
  8
0
100
AcDbLine
 10
470.9746309716736
 20
312.7573710074675
 30
0.0
 11
470.6246309706274
 21
312.7573710074675
 31
0.0
  0
LINE
  5
11D58
330
1F
100
AcDbEntity
  8
0
100
AcDbLine
 10
456.7246309703277
 20
312.7573710074675
 30
0.0
 11
456.3746309718278
 21
312.7573710074675
 31
0.0
  0
LINE
  5
11D59
330
1F
100
AcDbEntity
  8
0
100
AcDbLine
 10
457.2746309726951
 20
311.4073710074471
 30
0.0
 11
457.2246309710916
 21
311.4073710074471
 31
0.0
  0
LINE
  5
11D5A
330
1F
100
AcDbEntity
  8
0
100
AcDbLine
 10
470.0746309708137
 20
311.4073710074471
 30
0.0
 11
470.1246309724099
 21
311.4073710074471
 31
0.0
  0
LINE
  5
11D5B
330
1F
100
AcDbEntity
  8
0
100
AcDbLine
 10
456.3746309718278
 20
288.5573710077678
 30
0.0
 11
456.3746309718278
 21
293.0573710069875
 31
0.0
  0
LINE
  5
11D5C
330
1F
100
AcDbEntity
  8
0
100
AcDbLine
 10
456.3746309718278
 20
314.3573710078671
 30
0.0
 11
456.3746309718278
 21
318.8573710070877
 31
0.0
  0
LINE
  5
11D5D
330
1F
100
AcDbEntity
  8
0
100
AcDbLine
 10
456.3746309718278
 20
314.2573710072074
 30
0.0
 11
456.3746309718278
 21
293.1573710076472
 31
0.0
  0
LINE
  5
11D5E
330
1F
100
AcDbEntity
  8
0
100
AcDbLine
 10
456.5746309706097
 20
303.2073710066679
 30
0.0
 11
456.5746309706097
 21
306.9073710056873
 31
0.0
  0
LINE
  5
11D5F
330
1F
100
AcDbEntity
  8
0
100
AcDbLine
 10
456.7246309703277
 20
294.6573710073871
 30
0.0
 11
456.7246309703277
 21
303.2073710066679
 31
0.0
  0
LINE
  5
11D60
330
1F
100
AcDbEntity
  8
0
100
AcDbLine
 10
456.7246309703277
 20
306.9073710056873
 30
0.0
 11
456.7246309703277
 21
312.7573710074675
 31
0.0
  0
LINE
  5
11D61
330
1F
100
AcDbEntity
  8
0
100
AcDbLine
 10
470.1246309724099
 20
306.2189510058478
 30
0.0
 11
470.0746309708137
 21
306.2853010077668
 31
0.0
  0
LINE
  5
11D62
330
1F
100
AcDbEntity
  8
0
100
AcDbLine
 10
457.2246309710916
 20
293.1573710076472
 30
0.0
 11
457.2246309710916
 21
301.4073710074872
 31
0.0
  0
LINE
  5
11D63
330
1F
100
AcDbEntity
  8
0
100
AcDbLine
 10
457.2246309710916
 20
303.0073710078877
 30
0.0
 11
457.2246309710916
 21
314.2573710072074
 31
0.0
  0
LINE
  5
11D64
330
1F
100
AcDbEntity
  8
0
100
AcDbLine
 10
457.2746309726951
 20
314.3573710078671
 30
0.0
 11
457.2746309726951
 21
302.8073710065673
 31
0.0
  0
LINE
  5
11D65
330
1F
100
AcDbEntity
  8
0
100
AcDbLine
 10
457.2746309726951
 20
301.6073710062673
 30
0.0
 11
457.2746309726951
 21
293.0573710069875
 31
0.0
  0
LINE
  5
11D66
330
1F
100
AcDbEntity
  8
0
100
AcDbLine
 10
457.5746309721306
 20
318.8573710070877
 30
0.0
 11
457.5746309721306
 21
313.7123668470276
 31
0.0
  0
LINE
  5
11D67
330
1F
100
AcDbEntity
  8
0
100
AcDbLine
 10
457.5746309721306
 20
293.702375167827
 30
0.0
 11
457.5746309721306
 21
288.5573710077678
 31
0.0
  0
LINE
  5
11D68
330
1F
100
AcDbEntity
  8
0
100
AcDbLine
 10
457.7746309709126
 20
306.9073710056873
 30
0.0
 11
457.7746309709126
 21
303.2073710066679
 31
0.0
  0
LINE
  5
11D69
330
1F
100
AcDbEntity
  8
0
100
AcDbLine
 10
459.1746309725293
 20
320.8073710059879
 30
0.0
 11
459.1746309725293
 21
318.8573710070877
 31
0.0
  0
LINE
  5
11D6A
330
1F
100
AcDbEntity
  8
0
100
AcDbLine
 10
457.2746309726951
 20
307.0073710063479
 30
0.0
 11
457.2246309710916
 21
307.0073710063479
 31
0.0
  0
LINE
  5
11D6B
330
1F
100
AcDbEntity
  8
0
100
AcDbLine
 10
470.0746309708137
 20
307.0073710063479
 30
0.0
 11
470.1246309724099
 21
307.0073710063479
 31
0.0
  0
LINE
  5
11D6C
330
1F
100
AcDbEntity
  8
0
100
AcDbLine
 10
456.5746309706097
 20
306.9073710056873
 30
0.0
 11
457.2246309710916
 21
306.9073710056873
 31
0.0
  0
LINE
  5
11D6D
330
1F
100
AcDbEntity
  8
0
100
AcDbLine
 10
457.2746309726951
 20
306.9073710056873
 30
0.0
 11
457.7746309709126
 21
306.9073710056873
 31
0.0
  0
LINE
  5
11D6E
330
1F
100
AcDbEntity
  8
0
100
AcDbLine
 10
460.1746309715107
 20
286.6073710063274
 30
0.0
 11
460.1746309715107
 21
288.5573710077678
 31
0.0
  0
LINE
  5
11D6F
330
1F
100
AcDbEntity
  8
0
100
AcDbLine
 10
460.1746309715107
 20
304.3363428330476
 30
0.0
 11
460.1746309715107
 21
303.0783991818079
 31
0.0
  0
LINE
  5
11D70
330
1F
100
AcDbEntity
  8
0
100
AcDbLine
 10
460.2988950409943
 20
320.8073710059879
 30
0.0
 11
460.2988950409943
 21
318.8573710070877
 31
0.0
  0
LINE
  5
11D71
330
1F
100
AcDbEntity
  8
0
100
AcDbLine
 10
461.2988950399756
 20
288.5573710077678
 30
0.0
 11
461.2988950399756
 21
286.6073710063274
 31
0.0
  0
LINE
  5
11D72
330
1F
100
AcDbEntity
  8
0
100
AcDbLine
 10
470.7746309703524
 20
304.2073710056474
 30
0.0
 11
470.1246309724099
 21
304.2073710056474
 31
0.0
  0
LINE
  5
11D73
330
1F
100
AcDbEntity
  8
0
100
AcDbLine
 10
470.0746309708137
 20
304.2073710056474
 30
0.0
 11
469.574630972589
 21
304.2073710056474
 31
0.0
  0
LINE
  5
11D74
330
1F
100
AcDbEntity
  8
0
100
AcDbLine
 10
462.6746309702299
 20
305.1973800822679
 30
0.0
 11
462.6746309702299
 21
303.6073710067676
 31
0.0
  0
LINE
  5
11D75
330
1F
100
AcDbEntity
  8
0
100
AcDbLine
 10
462.6746309702299
 20
291.1973800813075
 30
0.0
 11
462.6746309702299
 21
289.607371005808
 31
0.0
  0
LINE
  5
11D76
330
1F
100
AcDbEntity
  8
0
100
AcDbLine
 10
462.6746309702299
 20
303.6073710067676
 30
0.0
 11
464.6746309707322
 21
303.6073710067676
 31
0.0
  0
LINE
  5
11D77
330
1F
100
AcDbEntity
  8
0
100
AcDbLine
 10
456.5746309706097
 20
303.2073710066679
 30
0.0
 11
457.2246309710916
 21
303.2073710066679
 31
0.0
  0
LINE
  5
11D78
330
1F
100
AcDbEntity
  8
0
100
AcDbLine
 10
457.2746309726951
 20
303.2073710066679
 30
0.0
 11
457.7746309709126
 21
303.2073710066679
 31
0.0
  0
LINE
  5
11D79
330
1F
100
AcDbEntity
  8
0
100
AcDbLine
 10
464.6746309707322
 20
289.607371005808
 30
0.0
 11
464.6746309707322
 21
291.1973800813075
 31
0.0
  0
LINE
  5
11D7A
330
1F
100
AcDbEntity
  8
0
100
AcDbLine
 10
464.6746309707322
 20
303.6073710067676
 30
0.0
 11
464.6746309707322
 21
305.1973800822679
 31
0.0
  0
LINE
  5
11D7B
330
1F
100
AcDbEntity
  8
0
100
AcDbLine
 10
466.0503669035332
 20
286.6073710063274
 30
0.0
 11
466.0503669035332
 21
288.5573710077678
 31
0.0
  0
LINE
  5
11D7C
330
1F
100
AcDbEntity
  8
0
100
AcDbLine
 10
470.0746309708137
 20
300.5073710066271
 30
0.0
 11
469.574630972589
 21
300.5073710066271
 31
0.0
  0
LINE
  5
11D7D
330
1F
100
AcDbEntity
  8
0
100
AcDbLine
 10
470.1246309724099
 20
300.5073710066271
 30
0.0
 11
470.7746309703524
 21
300.5073710066271
 31
0.0
  0
LINE
  5
11D7E
330
1F
100
AcDbEntity
  8
0
100
AcDbLine
 10
457.2746309726951
 20
300.4073710059674
 30
0.0
 11
457.2246309710916
 21
300.4073710059674
 31
0.0
  0
LINE
  5
11D7F
330
1F
100
AcDbEntity
  8
0
100
AcDbLine
 10
470.0746309708137
 20
300.4073710059674
 30
0.0
 11
470.1246309724099
 21
300.4073710059674
 31
0.0
  0
LINE
  5
11D80
330
1F
100
AcDbEntity
  8
0
100
AcDbLine
 10
467.0503669025146
 20
320.8073710059879
 30
0.0
 11
467.0503669025146
 21
318.8573710070877
 31
0.0
  0
LINE
  5
11D81
330
1F
100
AcDbEntity
  8
0
100
AcDbLine
 10
467.1746309719909
 20
286.6073710063274
 30
0.0
 11
467.1746309719909
 21
288.5573710077678
 31
0.0
  0
LINE
  5
11D82
330
1F
100
AcDbEntity
  8
0
100
AcDbLine
 10
467.1746309719909
 20
303.0783991818079
 30
0.0
 11
467.1746309719909
 21
304.3363428330476
 31
0.0
  0
LINE
  5
11D83
330
1F
100
AcDbEntity
  8
0
100
AcDbLine
 10
468.1746309709723
 20
320.8073710059879
 30
0.0
 11
468.1746309709723
 21
318.8573710070877
 31
0.0
  0
LINE
  5
11D84
330
1F
100
AcDbEntity
  8
0
100
AcDbLine
 10
457.2246309710916
 20
301.1957910064674
 30
0.0
 11
457.2746309726951
 21
301.1294410070877
 31
0.0
  0
LINE
  5
11D85
330
1F
100
AcDbEntity
  8
0
100
AcDbLine
 10
469.574630972589
 20
300.5073710066271
 30
0.0
 11
469.574630972589
 21
304.2073710056474
 31
0.0
  0
LINE
  5
11D86
330
1F
100
AcDbEntity
  8
0
100
AcDbLine
 10
469.774630971371
 20
288.5573710077678
 30
0.0
 11
469.774630971371
 21
293.702375167827
 31
0.0
  0
LINE
  5
11D87
330
1F
100
AcDbEntity
  8
0
100
AcDbLine
 10
469.774630971371
 20
313.7123668470276
 30
0.0
 11
469.774630971371
 21
318.8573710070877
 31
0.0
  0
LINE
  5
11D88
330
1F
100
AcDbEntity
  8
0
100
AcDbLine
 10
470.0746309708137
 20
293.0573710069875
 30
0.0
 11
470.0746309708137
 21
304.607371005748
 31
0.0
  0
LINE
  5
11D89
330
1F
100
AcDbEntity
  8
0
100
AcDbLine
 10
470.0746309708137
 20
305.807371006048
 30
0.0
 11
470.0746309708137
 21
314.3573710078671
 31
0.0
  0
LINE
  5
11D8A
330
1F
100
AcDbEntity
  8
0
100
AcDbLine
 10
470.1246309724099
 20
314.2573710072074
 30
0.0
 11
470.1246309724099
 21
306.0073710073675
 31
0.0
  0
LINE
  5
11D8B
330
1F
100
AcDbEntity
  8
0
100
AcDbLine
 10
470.1246309724099
 20
304.4073710069678
 30
0.0
 11
470.1246309724099
 21
293.1573710076472
 31
0.0
  0
LINE
  5
11D8C
330
1F
100
AcDbEntity
  8
0
100
AcDbLine
 10
470.6246309706274
 20
312.7573710074675
 30
0.0
 11
470.6246309706274
 21
304.2073710056474
 31
0.0
  0
LINE
  5
11D8D
330
1F
100
AcDbEntity
  8
0
100
AcDbLine
 10
470.6246309706274
 20
300.5073710066271
 30
0.0
 11
470.6246309706274
 21
294.6573710073871
 31
0.0
  0
LINE
  5
11D8E
330
1F
100
AcDbEntity
  8
0
100
AcDbLine
 10
470.7746309703524
 20
304.2073710056474
 30
0.0
 11
470.7746309703524
 21
300.5073710066271
 31
0.0
  0
LINE
  5
11D8F
330
1F
100
AcDbEntity
  8
0
100
AcDbLine
 10
457.2746309726951
 20
296.0073710074075
 30
0.0
 11
457.2246309710916
 21
296.0073710074075
 31
0.0
  0
LINE
  5
11D90
330
1F
100
AcDbEntity
  8
0
100
AcDbLine
 10
470.0746309708137
 20
296.0073710074075
 30
0.0
 11
470.1246309724099
 21
296.0073710074075
 31
0.0
  0
LINE
  5
11D91
330
1F
100
AcDbEntity
  8
0
100
AcDbLine
 10
470.9746309716736
 20
318.8573710070877
 30
0.0
 11
470.9746309716736
 21
314.3573710078671
 31
0.0
  0
LINE
  5
11D92
330
1F
100
AcDbEntity
  8
0
100
AcDbLine
 10
470.9746309716736
 20
314.2573710072074
 30
0.0
 11
470.9746309716736
 21
293.1573710076472
 31
0.0
  0
LINE
  5
11D93
330
1F
100
AcDbEntity
  8
0
100
AcDbLine
 10
470.9746309716736
 20
293.0573710069875
 30
0.0
 11
470.9746309716736
 21
288.5573710077678
 31
0.0
  0
LINE
  5
11D94
330
1F
100
AcDbEntity
  8
0
100
AcDbLine
 10
456.3746309718278
 20
294.6573710073871
 30
0.0
 11
456.7246309703277
 21
294.6573710073871
 31
0.0
  0
LINE
  5
11D95
330
1F
100
AcDbEntity
  8
0
100
AcDbLine
 10
470.6246309706274
 20
294.6573710073871
 30
0.0
 11
470.9746309716736
 21
294.6573710073871
 31
0.0
  0
LINE
  5
11D96
330
1F
100
AcDbEntity
  8
0
100
AcDbLine
 10
456.3746309718278
 20
293.1573710076472
 30
0.0
 11
457.2746309726951
 21
293.1573710076472
 31
0.0
  0
LINE
  5
11D97
330
1F
100
AcDbEntity
  8
0
100
AcDbLine
 10
470.0746309708137
 20
293.1573710076472
 30
0.0
 11
470.9746309716736
 21
293.1573710076472
 31
0.0
  0
LINE
  5
11D98
330
1F
100
AcDbEntity
  8
0
100
AcDbLine
 10
470.9746309716736
 20
293.0573710069875
 30
0.0
 11
470.0746309708137
 21
293.0573710069875
 31
0.0
  0
LINE
  5
11D99
330
1F
100
AcDbEntity
  8
0
100
AcDbLine
 10
456.3746309718278
 20
293.0573710069875
 30
0.0
 11
457.2746309726951
 21
293.0573710069875
 31
0.0
  0
LINE
  5
11D9A
330
1F
100
AcDbEntity
  8
0
100
AcDbLine
 10
460.1746309715107
 20
290.8772766676674
 30
0.0
 11
461.3791232513703
 21
289.014404360907
 31
0.0
  0
LINE
  5
11D9B
330
1F
100
AcDbEntity
  8
0
100
AcDbLine
 10
465.9701386921313
 20
289.014404360907
 30
0.0
 11
467.1746309719909
 21
290.8772766676674
 31
0.0
  0
LINE
  5
11D9C
330
1F
100
AcDbEntity
  8
0
100
AcDbLine
 10
462.6746309702299
 20
289.607371005808
 30
0.0
 11
464.6746309707322
 21
289.607371005808
 31
0.0
  0
LINE
  5
11D9D
330
1F
100
AcDbEntity
  8
0
100
AcDbLine
 10
456.3746309718278
 20
288.5573710077678
 30
0.0
 11
470.9746309716736
 21
288.5573710077678
 31
0.0
  0
LINE
  5
11D9E
330
1F
100
AcDbEntity
  8
0
100
AcDbLine
 10
467.1746309719909
 20
286.6073710063274
 30
0.0
 11
460.1746309715107
 21
286.6073710063274
 31
0.0
  0
ARC
  5
11D9F
330
1F
100
AcDbEntity
  8
0
100
AcDbCircle
 10
519.1389502579822
 20
296.706769621308
 30
0.0
 40
6.798150716599997
100
AcDbArc
 50
199.7501333797013
 51
206.2276009162338
  0
ARC
  5
11DA0
330
1F
100
AcDbEntity
  8
0
100
AcDbCircle
 10
519.137303101006
 20
310.708671193267
 30
0.0
 40
6.796364314279997
100
AcDbArc
 50
153.7715468849173
 51
160.2507188191867
  0
ARC
  5
11DA1
330
1F
100
AcDbEntity
  8
0
100
AcDbCircle
 10
510.0406992038241
 20
294.6573710073871
 30
0.0
 40
1.499999999739998
100
AcDbArc
 50
270.0
 51
0.0
  0
ARC
  5
11DA2
330
1F
100
AcDbEntity
  8
0
100
AcDbCircle
 10
510.0406992038241
 20
312.7573710074675
 30
0.0
 40
1.499999999739998
100
AcDbArc
 50
0.0
 51
90.0
  0
ARC
  5
11DA3
330
1F
100
AcDbEntity
  8
0
100
AcDbCircle
 10
485.8406992041254
 20
317.5073710070673
 30
0.0
 40
0.29999999944
100
AcDbArc
 50
90.0
 51
180.0
  0
ARC
  5
11DA4
330
1F
100
AcDbEntity
  8
0
100
AcDbCircle
 10
485.8406992041254
 20
289.9073710077873
 30
0.0
 40
0.29999999944
100
AcDbArc
 50
180.0
 51
270.0
  0
ARC
  5
11DA5
330
1F
100
AcDbEntity
  8
0
100
AcDbCircle
 10
498.8406992035576
 20
307.0073760076074
 30
0.0
 40
0.29999999944
100
AcDbArc
 50
180.0
 51
270.0
  0
ARC
  5
11DA6
330
1F
100
AcDbEntity
  8
0
100
AcDbCircle
 10
504.2406992036393
 20
307.0073760076074
 30
0.0
 40
0.29999999944
100
AcDbArc
 50
270.0
 51
0.0
  0
ARC
  5
11DA7
330
1F
100
AcDbEntity
  8
0
100
AcDbCircle
 10
504.2406992036393
 20
311.4073760061673
 30
0.0
 40
0.29999999944
100
AcDbArc
 50
0.0
 51
90.0
  0
ARC
  5
11DA8
330
1F
100
AcDbEntity
  8
0
100
AcDbCircle
 10
498.8406992035576
 20
311.4073760061673
 30
0.0
 40
0.29999999944
100
AcDbArc
 50
90.0
 51
180.0
  0
ARC
  5
11DA9
330
1F
100
AcDbEntity
  8
0
100
AcDbCircle
 10
498.8406992035576
 20
300.4073660072472
 30
0.0
 40
0.29999999944
100
AcDbArc
 50
90.0
 51
180.0
  0
ARC
  5
11DAA
330
1F
100
AcDbEntity
  8
0
100
AcDbCircle
 10
498.8406992035576
 20
296.007366006147
 30
0.0
 40
0.29999999944
100
AcDbArc
 50
180.0
 51
270.0
  0
ARC
  5
11DAB
330
1F
100
AcDbEntity
  8
0
100
AcDbCircle
 10
504.2406992036393
 20
296.007366006147
 30
0.0
 40
0.29999999944
100
AcDbArc
 50
270.0
 51
0.0
  0
ARC
  5
11DAC
330
1F
100
AcDbEntity
  8
0
100
AcDbCircle
 10
504.2406992036393
 20
300.4073660072472
 30
0.0
 40
0.29999999944
100
AcDbArc
 50
0.0
 51
90.0
  0
ARC
  5
11DAD
330
1F
100
AcDbEntity
  8
0
100
AcDbCircle
 10
462.2188775154734
 20
317.8573710081072
 30
0.0
 40
0.9999999989799999
100
AcDbArc
 50
90.0
 51
147.1141794812949
  0
ARC
  5
11DAE
330
1F
100
AcDbEntity
  8
0
100
AcDbCircle
 10
459.1746309725293
 20
304.3363428330476
 30
0.0
 40
0.9999999989799999
100
AcDbArc
 50
0.0
 51
54.76558201543356
  0
ARC
  5
11DAF
330
1F
100
AcDbEntity
  8
0
100
AcDbCircle
 10
465.1303844280351
 20
317.8573710081072
 30
0.0
 40
0.9999999989799999
100
AcDbArc
 50
32.88582051870506
 51
90.0
  0
ARC
  5
11DB0
330
1F
100
AcDbEntity
  8
0
100
AcDbCircle
 10
463.6746309717508
 20
310.7073710079075
 30
0.0
 40
9.150000000699998
100
AcDbArc
 50
314.3926982088828
 51
314.8229224240172
  0
ARC
  5
11DB1
330
1F
100
AcDbEntity
  8
0
100
AcDbCircle
 10
463.6746309717508
 20
310.7073710079075
 30
0.0
 40
6.799999999159996
100
AcDbArc
 50
199.7499227956295
 51
234.7655820154336
  0
ARC
  5
11DB2
330
1F
100
AcDbEntity
  8
0
100
AcDbCircle
 10
463.6746309717508
 20
310.7073710079075
 30
0.0
 40
6.799999999159996
100
AcDbArc
 50
120.9777977806465
 51
160.2500772043215
  0
ARC
  5
11DB3
330
1F
100
AcDbEntity
  8
0
100
AcDbCircle
 10
463.6746309717508
 20
310.7073710079075
 30
0.0
 40
6.799999999159996
100
AcDbArc
 50
19.7499227956785
 51
59.02220221935349
  0
ARC
  5
11DB4
330
1F
100
AcDbEntity
  8
0
100
AcDbCircle
 10
463.6746309717508
 20
310.7073710079075
 30
0.0
 40
6.799999999159996
100
AcDbArc
 50
305.2344179845665
 51
340.2500772043702
  0
ARC
  5
11DB5
330
1F
100
AcDbEntity
  8
0
100
AcDbCircle
 10
463.6746309717508
 20
310.7073710079075
 30
0.0
 40
6.549999998779997
100
AcDbArc
 50
10.02469275388066
 51
11.90172655229228
  0
ARC
  5
11DB6
330
1F
100
AcDbEntity
  8
0
100
AcDbCircle
 10
463.6746309717508
 20
310.7073710079075
 30
0.0
 40
6.549999998779997
100
AcDbArc
 50
168.0982732131219
 51
169.9753072461193
  0
ARC
  5
11DB7
330
1F
100
AcDbEntity
  8
0
100
AcDbCircle
 10
463.6746309717508
 20
310.7073710079075
 30
0.0
 40
6.099999999619996
100
AcDbArc
 50
279.4353387232963
 51
260.5646612767038
  0
ARC
  5
11DB8
330
1F
100
AcDbEntity
  8
0
100
AcDbCircle
 10
463.6746309717508
 20
310.7073710079075
 30
0.0
 40
5.599999998859999
100
AcDbArc
 50
280.2865606115354
 51
259.7134393884646
  0
CIRCLE
  5
11DB9
330
1F
100
AcDbEntity
  8
0
100
AcDbCircle
 10
463.6746309717508
 20
310.7073710079075
 30
0.0
 40
3.050000001079998
  0
ARC
  5
11DBA
330
1F
100
AcDbEntity
  8
0
100
AcDbCircle
 10
469.5246309709926
 20
305.2073710071672
 30
0.0
 40
0.9999999989799999
100
AcDbArc
 50
306.8698976459352
 51
53.13010235399964
  0
ARC
  5
11DBB
330
1F
100
AcDbEntity
  8
0
100
AcDbCircle
 10
468.1746309709723
 20
304.3363428330476
 30
0.0
 40
0.9999999989799999
100
AcDbArc
 50
125.2344179845664
 51
180.0
  0
ARC
  5
11DBC
330
1F
100
AcDbEntity
  8
0
100
AcDbCircle
 10
469.6246309716532
 20
305.2073710071672
 30
0.0
 40
0.75000000114
100
AcDbArc
 50
306.8698976461957
 51
53.13010235393448
  0
ARC
  5
11DBD
330
1F
100
AcDbEntity
  8
0
100
AcDbCircle
 10
457.824630972509
 20
302.2073710076873
 30
0.0
 40
0.9999999989799999
100
AcDbArc
 50
126.8698976457398
 51
233.1301023542601
  0
ARC
  5
11DBE
330
1F
100
AcDbEntity
  8
0
100
AcDbCircle
 10
462.2188775154734
 20
289.5573710067473
 30
0.0
 40
0.9999999989799999
100
AcDbArc
 50
212.8858205187051
 51
270.0
  0
ARC
  5
11DBF
330
1F
100
AcDbEntity
  8
0
100
AcDbCircle
 10
459.1746309725293
 20
303.0783991818079
 30
0.0
 40
0.9999999989799999
100
AcDbArc
 50
305.2344179845665
 51
0.0
  0
ARC
  5
11DC0
330
1F
100
AcDbEntity
  8
0
100
AcDbCircle
 10
457.7246309718482
 20
302.2073710076873
 30
0.0
 40
0.75000000114
100
AcDbArc
 50
126.8698976456014
 51
233.1301023543986
  0
ARC
  5
11DC1
330
1F
100
AcDbEntity
  8
0
100
AcDbCircle
 10
463.6746309717508
 20
296.7073710069471
 30
0.0
 40
9.150000000699998
100
AcDbArc
 50
134.3926982088094
 51
134.8229224240172
  0
ARC
  5
11DC2
330
1F
100
AcDbEntity
  8
0
100
AcDbCircle
 10
463.6746309717508
 20
296.7073710069471
 30
0.0
 40
6.799999999159996
100
AcDbArc
 50
199.7499227956295
 51
239.0222022193534
  0
ARC
  5
11DC3
330
1F
100
AcDbEntity
  8
0
100
AcDbCircle
 10
463.6746309717508
 20
296.7073710069471
 30
0.0
 40
6.799999999159996
100
AcDbArc
 50
125.2344179845664
 51
160.2500772043215
  0
ARC
  5
11DC4
330
1F
100
AcDbEntity
  8
0
100
AcDbCircle
 10
463.6746309717508
 20
296.7073710069471
 30
0.0
 40
6.799999999159996
100
AcDbArc
 50
19.7499227956785
 51
54.76558201543356
  0
ARC
  5
11DC5
330
1F
100
AcDbEntity
  8
0
100
AcDbCircle
 10
463.6746309717508
 20
296.7073710069471
 30
0.0
 40
6.799999999159996
100
AcDbArc
 50
300.9777977806465
 51
340.2500772043702
  0
ARC
  5
11DC6
330
1F
100
AcDbEntity
  8
0
100
AcDbCircle
 10
463.6746309717508
 20
296.7073710069471
 30
0.0
 40
6.549999998779997
100
AcDbArc
 50
348.0982732131219
 51
349.9753072461207
  0
ARC
  5
11DC7
330
1F
100
AcDbEntity
  8
0
100
AcDbCircle
 10
463.6746309717508
 20
296.7073710069471
 30
0.0
 40
6.549999998779997
100
AcDbArc
 50
190.0246927538792
 51
191.9017265522923
  0
ARC
  5
11DC8
330
1F
100
AcDbEntity
  8
0
100
AcDbCircle
 10
463.6746309717508
 20
296.7073710069471
 30
0.0
 40
6.099999999619996
100
AcDbArc
 50
279.4353387232963
 51
260.5646612767038
  0
ARC
  5
11DC9
330
1F
100
AcDbEntity
  8
0
100
AcDbCircle
 10
463.6746309717508
 20
296.7073710069471
 30
0.0
 40
5.599999998859999
100
AcDbArc
 50
280.2865606115354
 51
259.7134393884646
  0
CIRCLE
  5
11DCA
330
1F
100
AcDbEntity
  8
0
100
AcDbCircle
 10
463.6746309717508
 20
296.7073710069471
 30
0.0
 40
3.050000001079998
  0
ARC
  5
11DCB
330
1F
100
AcDbEntity
  8
0
100
AcDbCircle
 10
465.1303844280351
 20
289.5573710067473
 30
0.0
 40
0.9999999989799999
100
AcDbArc
 50
270.0
 51
327.1141794812948
  0
ARC
  5
11DCC
330
1F
100
AcDbEntity
  8
0
100
AcDbCircle
 10
468.1746309709723
 20
303.0783991818079
 30
0.0
 40
0.9999999989799999
100
AcDbArc
 50
180.0
 51
234.7655820154336
  0
SPLINE
  5
11DCD
330
1F
100
AcDbEntity
  8
0
100
AcDbSpline
210
0.0
220
0.0
230
1.0
 70
     8
 71
     3
 72
    11
 73
     7
 74
     0
 42
0.0000000001
 43
0.0000000001
 40
0.0
 40
0.0
 40
0.0
 40
0.0
 40
0.2329693289
 40
0.476258794
 40
0.733437141
 40
1.0
 40
1.0
 40
1.0
 40
1.0
 10
485.5406992046827
 20
304.8308277978476
 30
0.0
 10
485.5406992046827
 20
304.7968916630278
 30
0.0
 10
485.5572335328012
 20
304.7266350115678
 30
0.0
 10
485.6255599849227
 20
304.6406834232475
 30
0.0
 10
485.7249104517012
 20
304.5844725145872
 30
0.0
 10
485.801869573877
 20
304.571568537347
 30
0.0
 10
485.8406992041254
 20
304.571568537347
 30
0.0
  0
SPLINE
  5
11DCE
330
1F
100
AcDbEntity
  8
0
100
AcDbSpline
210
0.0
220
0.0
230
1.0
 70
     8
 71
     3
 72
    11
 73
     7
 74
     0
 42
0.0000000001
 43
0.0000000001
 40
0.0
 40
0.0
 40
0.0
 40
0.0
 40
0.2329693241
 40
0.4762587921
 40
0.7334371443000001
 40
1.0
 40
1.0
 40
1.0
 40
1.0
 10
485.5406992046827
 20
302.5839142195473
 30
0.0
 10
485.5406992046827
 20
302.6178503518276
 30
0.0
 10
485.5572335328012
 20
302.6881070032877
 30
0.0
 10
485.6255599849227
 20
302.7740585890678
 30
0.0
 10
485.7249104517012
 20
302.8302695002675
 30
0.0
 10
485.801869573877
 20
302.8431734775076
 30
0.0
 10
485.8406992041254
 20
302.8431734775076
 30
0.0
  0
ELLIPSE
  5
11DCF
330
1F
100
AcDbEntity
  8
0
100
AcDbEllipse
 10
457.2246309710916
 20
312.7573710074675
 30
0.0
 11
-0.0000000000000003
 21
-1.499999999739995
 31
0.0
210
0.0
220
0.0
230
0.9999999999999998
 40
0.3333333333
 41
3.1415926536
 42
4.7123889804
  0
ELLIPSE
  5
11DD0
330
1F
100
AcDbEntity
  8
0
100
AcDbEllipse
 10
470.1246309724099
 20
294.6573710073871
 30
0.0
 11
-0.0000000000000003
 21
-1.499999999739995
 31
0.0
210
0.0
220
0.0
230
0.9999999999999998
 40
0.3333333333
 41
0.0
 42
1.5707963268
  0
ELLIPSE
  5
11DD1
330
1F
100
AcDbEntity
  8
0
100
AcDbEllipse
 10
470.1246309724099
 20
312.7573710074675
 30
0.0
 11
-0.0000000000000003
 21
-1.499999999739995
 31
0.0
210
0.0
220
0.0
230
0.9999999999999998
 40
0.3333333333
 41
1.5707963268
 42
3.1415926536
  0
ELLIPSE
  5
11DD2
330
1F
100
AcDbEntity
  8
0
100
AcDbEllipse
 10
457.2246309710916
 20
294.6573710073871
 30
0.0
 11
-0.0000000000000003
 21
-1.499999999739995
 31
0.0
210
0.0
220
0.0
230
0.9999999999999998
 40
0.3333333333
 41
-1.5707963268
 42
0.0
  0
MTEXT
  5
11DD3
330
1F
100
AcDbEntity
  8
打标文字
100
AcDbMText
 10
458.6807327177863
 20
289.1156962723162
 30
0.0
 40
1.8
 41
12.37818607289227
 71
     1
 72
     5
  1
1
  7
数字
 11
-1.0
 21
0.0000000000000004
 31
0.0
 73
     1
 44
1.0
1001
ACAD
1000
MTEXTBEGIN
1070
    73
1070
     1
1070
    44
1040
1.0
1070
    74
1070
     0
1000
MTEXTEND
  0
MTEXT
  5
11DD4
330
1F
100
AcDbEntity
  8
打标文字
100
AcDbMText
 10
458.8294988262176
 20
316.3139041090998
 30
0.0
 40
1.8
 41
12.37818607289227
 71
     1
 72
     5
  1
2
  7
数字
 11
-1.0
 21
0.0000000000000006
 31
0.0
 73
     1
 44
1.0
1001
ACAD
1000
MTEXTBEGIN
1070
    73
1070
     1
1070
    44
1040
1.0
1070
    74
1070
     0
1000
MTEXTEND
  0
LINE
  5
11DD5
330
1F
100
AcDbEntity
  8
0
100
AcDbLine
 10
446.1096435315266
 20
220.9219353248617
 30
0.0
 11
432.6621530190267
 21
220.9219353248617
 31
0.0
  0
LINE
  5
11DD6
330
1F
100
AcDbEntity
  8
0
100
AcDbLine
 10
431.0127223633271
 20
271.7738947588612
 30
0.0
 11
429.452372856227
 21
270.3146567519614
 31
0.0
  0
LINE
  5
11DD7
330
1F
100
AcDbEntity
  8
0
100
AcDbLine
 10
447.2231486191263
 20
224.5252391091615
 30
0.0
 11
447.160501885327
 21
224.5252391091615
 31
0.0
  0
LINE
  5
11DD8
330
1F
100
AcDbEntity
  8
0
100
AcDbLine
 10
431.2611130053274
 20
226.5429624861616
 30
0.0
 11
439.5506619513271
 21
226.5429624861616
 31
0.0
  0
LINE
  5
11DD9
330
1F
100
AcDbEntity
  8
0
100
AcDbLine
 10
445.6737326536266
 20
227.5549562595614
 30
0.0
 11
444.8447777590271
 21
227.5549562595614
 31
0.0
  0
LINE
  5
11DDA
330
1F
100
AcDbEntity
  8
0
100
AcDbLine
 10
425.9262525357271
 20
267.5477351726616
 30
0.0
 11
424.8138004081265
 21
263.9478387686616
 31
0.0
  0
LINE
  5
11DDB
330
1F
100
AcDbEntity
  8
0
100
AcDbLine
 10
422.5373240080271
 20
256.5811584378614
 30
0.0
 11
421.4248718804274
 21
252.9812620338615
 31
0.0
  0
LINE
  5
11DDC
330
1F
100
AcDbEntity
  8
0
100
AcDbLine
 10
437.4474996375266
 20
228.7185973751614
 30
0.0
 11
431.2289822527269
 21
228.7185973751614
 31
0.0
  0
LINE
  5
11DDD
330
1F
100
AcDbEntity
  8
0
100
AcDbLine
 10
437.9195289681265
 20
230.2460848488616
 30
0.0
 11
431.7010115834271
 21
230.2460848488616
 31
0.0
  0
LINE
  5
11DDE
330
1F
100
AcDbEntity
  8
0
100
AcDbLine
 10
426.4988919880269
 20
260.7571891595615
 30
0.0
 11
426.1943861933268
 21
259.7718080469615
 31
0.0
  0
LINE
  5
11DDF
330
1F
100
AcDbEntity
  8
0
100
AcDbLine
 10
438.8259630282273
 20
228.0197436230613
 30
0.0
 11
437.4474996375266
 21
228.7185973751614
 31
0.0
  0
LINE
  5
11DE0
330
1F
100
AcDbEntity
  8
0
100
AcDbLine
 10
437.9195289681265
 20
230.2460848488616
 30
0.0
 11
439.2979923589273
 21
229.5472310968615
 31
0.0
  0
LINE
  5
11DE1
330
1F
100
AcDbEntity
  8
0
100
AcDbLine
 10
432.6621530190267
 20
220.9219353248617
 30
0.0
 11
425.4021565931268
 21
235.7162525696615
 31
0.0
  0
LINE
  5
11DE2
330
1F
100
AcDbEntity
  8
0
100
AcDbLine
 10
432.0624267357271
 20
271.3094080289614
 30
0.0
 11
431.8003837808273
 21
270.4614367162615
 31
0.0
  0
LINE
  5
11DE3
330
1F
100
AcDbEntity
  8
0
100
AcDbLine
 10
428.6734982080266
 20
260.3428312942613
 30
0.0
 11
428.4114552531272
 21
259.4948599814614
 31
0.0
  0
LINE
  5
11DE4
330
1F
100
AcDbEntity
  8
0
100
AcDbLine
 10
444.5221566294266
 20
233.2846215517614
 30
0.0
 11
444.7100968309269
 21
233.2846215517614
 31
0.0
  0
LINE
  5
11DE5
330
1F
100
AcDbEntity
  8
0
100
AcDbLine
 10
442.3182721207266
 20
234.3926659104616
 30
0.0
 11
441.4893172261272
 21
234.3926659104616
 31
0.0
  0
LINE
  5
11DE6
330
1F
100
AcDbEntity
  8
0
100
AcDbLine
 10
430.5364140822266
 20
228.0197436230613
 30
0.0
 11
431.2611130053274
 21
226.5429624861616
 31
0.0
  0
LINE
  5
11DE7
330
1F
100
AcDbEntity
  8
0
100
AcDbLine
 10
430.2535772411265
 20
259.4948599814614
 30
0.0
 11
430.5156201960271
 21
260.3428312942613
 31
0.0
  0
LINE
  5
11DE8
330
1F
100
AcDbEntity
  8
0
100
AcDbLine
 10
433.6425057688265
 20
270.4614367162615
 30
0.0
 11
433.9045487237272
 21
271.3094080289614
 31
0.0
  0
LINE
  5
11DE9
330
1F
100
AcDbEntity
  8
0
100
AcDbLine
 10
437.3783236728268
 20
236.4621845315613
 30
0.0
 11
433.100689335427
 21
236.4621845315613
 31
0.0
  0
LINE
  5
11DEA
330
1F
100
AcDbEntity
  8
0
100
AcDbLine
 10
430.4190138834265
 20
236.4621845315613
 30
0.0
 11
426.1413795460265
 21
236.4621845315613
 31
0.0
  0
LINE
  5
11DEB
330
1F
100
AcDbEntity
  8
0
100
AcDbLine
 10
444.992286808927
 20
236.7312599541613
 30
0.0
 11
445.7751886538272
 21
236.7312599541613
 31
0.0
  0
LINE
  5
11DEC
330
1F
100
AcDbEntity
  8
0
100
AcDbLine
 10
442.8674145467265
 20
236.9521242811614
 30
0.0
 11
442.9103510281263
 21
236.9521242811614
 31
0.0
  0
LINE
  5
11DED
330
1F
100
AcDbEntity
  8
0
100
AcDbLine
 10
444.9733941460272
 20
237.1527410174615
 30
0.0
 11
445.7562959909274
 21
237.1527410174615
 31
0.0
  0
LINE
  5
11DEE
330
1F
100
AcDbEntity
  8
0
100
AcDbLine
 10
427.6281169016264
 20
239.8506084244612
 30
0.0
 11
421.7713130623269
 21
251.7855198152613
 31
0.0
  0
LINE
  5
11DEF
330
1F
100
AcDbEntity
  8
0
100
AcDbLine
 10
429.7633485533268
 20
236.8049687323613
 30
0.0
 11
423.9065447140265
 21
248.7398801231614
 31
0.0
  0
LINE
  5
11DF0
330
1F
100
AcDbEntity
  8
0
100
AcDbLine
 10
430.4190138834265
 20
236.4621845315613
 30
0.0
 11
424.5622100441269
 21
248.3970959223614
 31
0.0
  0
LINE
  5
11DF1
330
1F
100
AcDbEntity
  8
0
100
AcDbLine
 10
423.8993775318268
 20
248.7551024476614
 30
0.0
 11
423.9067377205273
 21
248.7396457601615
 31
0.0
  0
LINE
  5
11DF2
330
1F
100
AcDbEntity
  8
0
100
AcDbLine
 10
423.2409053251267
 20
250.2143404545612
 30
0.0
 11
423.8993775318268
 21
248.7551024476614
 31
0.0
  0
LINE
  5
11DF3
330
1F
100
AcDbEntity
  8
0
100
AcDbLine
 10
432.6418131513273
 20
259.7718080469615
 30
0.0
 11
432.9463189460266
 21
260.7571891595615
 31
0.0
  0
LINE
  5
11DF4
330
1F
100
AcDbEntity
  8
0
100
AcDbLine
 10
425.4021565931268
 20
235.7162525696615
 30
0.0
 11
426.4914550485273
 21
239.2412236629614
 31
0.0
  0
LINE
  5
11DF5
330
1F
100
AcDbEntity
  8
0
100
AcDbLine
 10
427.137722308027
 20
240.8499275381613
 30
0.0
 11
426.9702737259263
 21
240.3080637279616
 31
0.0
  0
LINE
  5
11DF6
330
1F
100
AcDbEntity
  8
0
100
AcDbLine
 10
427.2803196596268
 20
240.5593446874612
 30
0.0
 11
427.0458722631273
 21
239.8006726344614
 31
0.0
  0
LINE
  5
11DF7
330
1F
100
AcDbEntity
  8
0
100
AcDbLine
 10
427.3583562968267
 20
240.4003227403612
 30
0.0
 11
426.1413795460265
 21
236.4621845315613
 31
0.0
  0
LINE
  5
11DF8
330
1F
100
AcDbEntity
  8
0
100
AcDbLine
 10
428.1279827760272
 20
248.7551024476614
 30
0.0
 11
429.6883322831272
 21
250.2143404545612
 31
0.0
  0
LINE
  5
11DF9
330
1F
100
AcDbEntity
  8
0
100
AcDbLine
 10
440.0150936778272
 20
238.2006584110616
 30
0.0
 11
440.5122275532266
 21
238.2006584110616
 31
0.0
  0
LINE
  5
11DFA
330
1F
100
AcDbEntity
  8
0
100
AcDbLine
 10
438.8496471056269
 20
235.7162525696615
 30
0.0
 11
437.3783236728268
 21
236.4621845315613
 31
0.0
  0
LINE
  5
11DFB
330
1F
100
AcDbEntity
  8
0
100
AcDbLine
 10
427.2438854961263
 20
248.3970959223614
 30
0.0
 11
433.100689335427
 21
236.4621845315613
 31
0.0
  0
LINE
  5
11DFD
330
1F
100
AcDbEntity
  8
0
100
AcDbLine
 10
433.2144526037271
 20
252.9812620338615
 30
0.0
 11
434.3269047312269
 21
256.5811584378614
 31
0.0
  0
LINE
  5
11DFE
330
1F
100
AcDbEntity
  8
0
100
AcDbLine
 10
436.6033811314273
 20
263.9478387686616
 30
0.0
 11
437.7158332589268
 21
267.5477351726616
 31
0.0
  0
LINE
  5
11DFF
330
1F
100
AcDbEntity
  8
0
100
AcDbLine
 10
426.9702737259263
 20
240.3080637279616
 30
0.0
 11
427.2026679700267
 21
240.3080637279616
 31
0.0
  0
LINE
  5
11E00
330
1F
100
AcDbEntity
  8
0
100
AcDbLine
 10
440.0953928905273
 20
240.3080637279616
 30
0.0
 11
440.4177642384265
 21
240.3080637279616
 31
0.0
  0
LINE
  5
11E01
330
1F
100
AcDbEntity
  8
0
100
AcDbLine
 10
443.9257294635272
 20
240.3987626835613
 30
0.0
 11
443.9754428510268
 21
240.3987626835613
 31
0.0
  0
LINE
  5
11E02
330
1F
100
AcDbEntity
  8
0
100
AcDbLine
 10
443.9672021515271
 20
240.5094348461615
 30
0.0
 11
444.1090699111273
 21
240.5094348461615
 31
0.0
  0
LINE
  5
11E03
330
1F
100
AcDbEntity
  8
0
100
AcDbLine
 10
452.3549546753265
 20
241.1317695932615
 30
0.0
 11
452.2923079415268
 21
241.1317695932615
 31
0.0
  0
LINE
  5
11E04
330
1F
100
AcDbEntity
  8
0
100
AcDbLine
 10
439.9389455609271
 20
239.2412236629614
 30
0.0
 11
438.8354529863272
 21
239.8006726344614
 31
0.0
  0
LINE
  5
11E05
330
1F
100
AcDbEntity
  8
0
100
AcDbLine
 10
428.1279827760272
 20
248.7551024476614
 30
0.0
 11
433.9847866154268
 21
236.8201910568612
 31
0.0
  0
LINE
  5
11E06
330
1F
100
AcDbEntity
  8
0
100
AcDbLine
 10
439.5506619513271
 20
226.5429624861616
 30
0.0
 11
438.8259630282273
 21
228.0197436230613
 31
0.0
  0
LINE
  5
11E07
330
1F
100
AcDbEntity
  8
0
100
AcDbLine
 10
440.0226912820271
 20
228.0704499599613
 30
0.0
 11
439.2979923589273
 21
229.5472310968615
 31
0.0
  0
LINE
  5
11E08
330
1F
100
AcDbEntity
  8
0
100
AcDbLine
 10
426.4914550485273
 20
239.2412236629614
 30
0.0
 11
427.0458722631273
 21
239.8006726344614
 31
0.0
  0
LINE
  5
11E09
330
1F
100
AcDbEntity
  8
0
100
AcDbLine
 10
447.1848886075266
 20
241.9012253909612
 30
0.0
 11
447.3728288090269
 21
241.9012253909612
 31
0.0
  0
LINE
  5
11E0A
330
1F
100
AcDbEntity
  8
0
100
AcDbLine
 10
429.6883322831272
 20
250.2143404545612
 30
0.0
 11
435.5451361225266
 21
238.2794290637615
 31
0.0
  0
LINE
  5
11E0B
330
1F
100
AcDbEntity
  8
0
100
AcDbLine
 10
426.3599073606265
 20
260.3074347406612
 30
0.0
 11
425.1602415900268
 21
262.7520965500615
 31
0.0
  0
LINE
  5
11E0C
330
1F
100
AcDbEntity
  8
0
100
AcDbLine
 10
438.8496471056269
 20
235.7162525696615
 30
0.0
 11
446.1096435315266
 21
220.9219353248617
 31
0.0
  0
LINE
  5
11E0D
330
1F
100
AcDbEntity
  8
0
100
AcDbLine
 10
426.5299920763273
 20
260.9424602230614
 30
0.0
 11
426.306931742627
 21
261.3970093917613
 31
0.0
  0
LINE
  5
11E0E
330
1F
100
AcDbEntity
  8
0
100
AcDbLine
 10
430.5364140822266
 20
228.0197436230613
 30
0.0
 11
431.0084434128266
 21
229.5472310968615
 31
0.0
  0
LINE
  5
11E0F
330
1F
100
AcDbEntity
  8
0
100
AcDbLine
 10
431.2289822527269
 20
228.7185973751614
 30
0.0
 11
431.7010115834271
 21
230.2460848488616
 31
0.0
  0
LINE
  5
11E10
330
1F
100
AcDbEntity
  8
0
100
AcDbLine
 10
426.1413795460265
 20
236.4621845315613
 30
0.0
 11
425.4021565931268
 21
235.7162525696615
 31
0.0
  0
LINE
  5
11E11
330
1F
100
AcDbEntity
  8
0
100
AcDbLine
 10
450.8297453422273
 20
244.2398194345613
 30
0.0
 11
450.7670986083267
 21
244.2398194345613
 31
0.0
  0
LINE
  5
11E12
330
1F
100
AcDbEntity
  8
0
100
AcDbLine
 10
441.5114808824273
 20
244.8905261492612
 30
0.0
 11
441.6496400315272
 21
244.8905261492612
 31
0.0
  0
LINE
  5
11E13
330
1F
100
AcDbEntity
  8
0
100
AcDbLine
 10
447.6550187871271
 20
245.3478637932615
 30
0.0
 11
448.4379206320272
 21
245.3478637932615
 31
0.0
  0
LINE
  5
11E14
330
1F
100
AcDbEntity
  8
0
100
AcDbLine
 10
451.2049481435268
 20
245.4539761444615
 30
0.0
 11
450.9286298453271
 21
245.4539761444615
 31
0.0
  0
LINE
  5
11E15
330
1F
100
AcDbEntity
  8
0
100
AcDbLine
 10
445.5301449583267
 20
245.5687202870616
 30
0.0
 11
445.5730805855274
 21
245.5687202870616
 31
0.0
  0
LINE
  5
11E16
330
1F
100
AcDbEntity
  8
0
100
AcDbLine
 10
447.6361261241271
 20
245.7693448566613
 30
0.0
 11
448.4190279690274
 21
245.7693448566613
 31
0.0
  0
LINE
  5
11E17
330
1F
100
AcDbEntity
  8
0
100
AcDbLine
 10
440.5473345357266
 20
245.8229411016612
 30
0.0
 11
440.0868040387266
 21
245.8229411016612
 31
0.0
  0
LINE
  5
11E18
330
1F
100
AcDbEntity
  8
0
100
AcDbLine
 10
431.6373804891014
 20
252.2732587600348
 30
0.0
 11
428.4411314905273
 21
258.7865294155616
 31
0.0
  0
LINE
  5
11E1A
330
1F
100
AcDbEntity
  8
0
100
AcDbLine
 10
445.2985298523271
 20
226.3407995495616
 30
0.0
 11
443.4682786525271
 21
230.0704593592616
 31
0.0
  0
LINE
  5
11E1B
330
1F
100
AcDbEntity
  8
0
100
AcDbLine
 10
441.9430693194271
 20
233.1785092005615
 30
0.0
 11
439.8077762529274
 21
237.5297789784616
 31
0.0
  0
LINE
  5
11E1C
330
1F
100
AcDbEntity
  8
0
100
AcDbLine
 10
432.2792629601272
 20
252.9950552729613
 30
0.0
 11
428.6734982080266
 21
260.3428312942613
 31
0.0
  0
LINE
  5
11E1D
330
1F
100
AcDbEntity
  8
0
100
AcDbLine
 10
444.9534775426273
 20
227.5549562595614
 30
0.0
 11
443.565175633327
 21
230.3840181037616
 31
0.0
  0
LINE
  5
11E1E
330
1F
100
AcDbEntity
  8
0
100
AcDbLine
 10
441.5980170096271
 20
234.3926659104616
 30
0.0
 11
439.9046732337273
 21
237.8433377229615
 31
0.0
  0
LINE
  5
11E1F
330
1F
100
AcDbEntity
  8
0
100
AcDbLine
 10
430.2832534785266
 20
258.7865294155616
 30
0.0
 11
432.7665131746271
 21
253.7261781989613
 31
0.0
  0
LINE
  5
11E20
330
1F
100
AcDbEntity
  8
0
100
AcDbLine
 10
439.9389455609271
 20
239.2412236629614
 30
0.0
 11
440.182979054227
 21
238.7439356883613
 31
0.0
  0
LINE
  5
11E21
330
1F
100
AcDbEntity
  8
0
100
AcDbLine
 10
447.1989419868267
 20
224.4469064181615
 30
0.0
 11
445.6737326536266
 21
227.5549562595614
 31
0.0
  0
LINE
  5
11E22
330
1F
100
AcDbEntity
  8
0
100
AcDbLine
 10
443.8434814538267
 20
231.2846160691614
 30
0.0
 11
442.3182721207266
 21
234.3926659104616
 31
0.0
  0
LINE
  5
11E23
330
1F
100
AcDbEntity
  8
0
100
AcDbLine
 10
439.1627690030269
 20
240.8598676525615
 30
0.0
 11
433.2144526037271
 21
252.9812620338615
 31
0.0
  0
LINE
  5
11E24
330
1F
100
AcDbEntity
  8
0
100
AcDbLine
 10
440.5122275532266
 20
238.2006584110616
 30
0.0
 11
447.2231486191263
 21
224.5252391091615
 31
0.0
  0
LINE
  5
11E25
330
1F
100
AcDbEntity
  8
0
100
AcDbLine
 10
438.6376016181266
 20
248.2866510750612
 30
0.0
 11
438.8031227854271
 21
248.8222777687614
 31
0.0
  0
LINE
  5
11E26
330
1F
100
AcDbEntity
  8
0
100
AcDbLine
 10
447.5731693123271
 20
252.2916857954613
 30
0.0
 11
447.0039404821273
 21
251.9083294304613
 31
0.0
  0
LINE
  5
11E27
330
1F
100
AcDbEntity
  8
0
100
AcDbLine
 10
442.5452854281266
 20
247.7888357148616
 30
0.0
 11
442.4071262790266
 21
247.7888357148616
 31
0.0
  0
LINE
  5
11E28
330
1F
100
AcDbEntity
  8
0
100
AcDbLine
 10
448.9994941424265
 20
247.9694792441613
 30
0.0
 11
448.9368474085265
 21
247.9694792441613
 31
0.0
  0
LINE
  5
11E29
330
1F
100
AcDbEntity
  8
0
100
AcDbLine
 10
424.5622100441269
 20
248.3970959223614
 30
0.0
 11
427.2438854961263
 21
248.3970959223614
 31
0.0
  0
LINE
  5
11E2A
330
1F
100
AcDbEntity
  8
0
100
AcDbLine
 10
441.4429799323269
 20
248.7212506672616
 30
0.0
 11
440.9824494353268
 21
248.7212506672616
 31
0.0
  0
LINE
  5
11E2C
330
1F
100
AcDbEntity
  8
0
100
AcDbLine
 10
444.5459643738266
 20
233.2361064693612
 30
0.0
 11
442.8987382940268
 21
236.5928002980616
 31
0.0
  0
LINE
  5
11E2D
330
1F
100
AcDbEntity
  8
0
100
AcDbLine
 10
443.5204347613271
 20
235.7089043446616
 30
0.0
 11
442.9103510281263
 21
236.9521242811614
 31
0.0
  0
LINE
  5
11E2E
330
1F
100
AcDbEntity
  8
0
100
AcDbLine
 10
433.052141983927
 20
258.9356458000614
 30
0.0
 11
432.6418131513273
 21
259.7718080469615
 31
0.0
  0
LINE
  5
11E2F
330
1F
100
AcDbEntity
  8
0
100
AcDbLine
 10
440.0868040387266
 20
245.8229411016612
 30
0.0
 11
440.9824494353268
 21
248.7212506672616
 31
0.0
  0
LINE
  5
11E30
330
1F
100
AcDbEntity
  8
0
100
AcDbLine
 10
437.3783236728268
 20
236.4621845315613
 30
0.0
 11
438.6237559137271
 21
240.4924047400612
 31
0.0
  0
LINE
  5
11E31
330
1F
100
AcDbEntity
  8
0
100
AcDbLine
 10
443.4675010312266
 20
256.1667696848616
 30
0.0
 11
444.7129332720268
 21
260.1969898933615
 31
0.0
  0
LINE
  5
11E32
330
1F
100
AcDbEntity
  8
0
100
AcDbLine
 10
440.1837085706265
 20
244.6462470470613
 30
0.0
 11
440.5473345357266
 21
245.8229411016612
 31
0.0
  0
LINE
  5
11E33
330
1F
100
AcDbEntity
  8
0
100
AcDbLine
 10
441.4429799323269
 20
248.7212506672616
 30
0.0
 11
441.5398064617265
 21
249.0345814311616
 31
0.0
  0
LINE
  5
11E34
330
1F
100
AcDbEntity
  8
0
100
AcDbLine
 10
441.8302860498268
 20
249.9745737226616
 30
0.0
 11
442.4601849707268
 21
252.0129273778614
 31
0.0
  0
LINE
  5
11E35
330
1F
100
AcDbEntity
  8
0
100
AcDbLine
 10
443.9914656749269
 20
256.4855358095613
 30
0.0
 11
443.6641496582266
 21
255.4263407913616
 31
0.0
  0
LINE
  5
11E36
330
1F
100
AcDbEntity
  8
0
100
AcDbLine
 10
439.1627690030269
 20
240.8598676525615
 30
0.0
 11
438.8354529863272
 21
239.8006726344614
 31
0.0
  0
LINE
  5
11E37
330
1F
100
AcDbEntity
  8
0
100
AcDbLine
 10
446.5884590210271
 20
249.0153586894615
 30
0.0
 11
446.6381724085267
 21
249.0153586894615
 31
0.0
  0
LINE
  5
11E38
330
1F
100
AcDbEntity
  8
0
100
AcDbLine
 10
446.6299341296271
 20
249.1260386853613
 30
0.0
 11
446.7718018892274
 21
249.1260386853613
 31
0.0
  0
LINE
  5
11E39
330
1F
100
AcDbEntity
  8
0
100
AcDbLine
 10
440.1837085706265
 20
244.6462470470613
 30
0.0
 11
434.3269047312269
 21
256.5811584378614
 31
0.0
  0
LINE
  5
11E3A
330
1F
100
AcDbEntity
  8
0
100
AcDbLine
 10
439.837267388727
 20
245.8419892656614
 30
0.0
 11
433.9804635494265
 21
257.7769006564616
 31
0.0
  0
LINE
  5
11E3B
330
1F
100
AcDbEntity
  8
0
100
AcDbLine
 10
438.8031227854271
 20
248.8222777687614
 30
0.0
 11
432.9463189460266
 21
260.7571891595615
 31
0.0
  0
LINE
  5
11E3C
330
1F
100
AcDbEntity
  8
0
100
AcDbLine
 10
441.3157375305273
 20
244.2571004304612
 30
0.0
 11
440.5473345357266
 21
245.8229411016612
 31
0.0
  0
LINE
  5
11E3D
330
1F
100
AcDbEntity
  8
0
100
AcDbLine
 10
444.756842440227
 20
237.5940269972614
 30
0.0
 11
444.9733941460272
 21
237.1527410174615
 31
0.0
  0
LINE
  5
11E3E
330
1F
100
AcDbEntity
  8
0
100
AcDbLine
 10
439.3905218426271
 20
249.4620980009616
 30
0.0
 11
433.5337180033266
 21
261.3970093917613
 31
0.0
  0
LINE
  5
11E3F
330
1F
100
AcDbEntity
  8
0
100
AcDbLine
 10
443.9754428510268
 20
240.3987626835613
 30
0.0
 11
444.5855265843261
 21
239.1555427470615
 31
0.0
  0
LINE
  5
11E40
330
1F
100
AcDbEntity
  8
0
100
AcDbLine
 10
444.1090699111273
 20
240.5094348461615
 30
0.0
 11
445.7562959909274
 21
237.1527410174615
 31
0.0
  0
LINE
  5
11E41
330
1F
100
AcDbEntity
  8
0
100
AcDbLine
 10
443.5745517014265
 20
235.2156373684614
 30
0.0
 11
443.5204347613271
 21
235.7089043446616
 31
0.0
  0
LINE
  5
11E42
330
1F
100
AcDbEntity
  8
0
100
AcDbLine
 10
442.4071262790266
 20
247.7888357148616
 30
0.0
 11
442.4056884908266
 21
247.3370998603612
 31
0.0
  0
LINE
  5
11E43
330
1F
100
AcDbEntity
  8
0
100
AcDbLine
 10
444.4767933441271
 20
254.4862807921616
 30
0.0
 11
442.4071262790266
 21
247.7888357148616
 31
0.0
  0
LINE
  5
11E44
330
1F
100
AcDbEntity
  8
0
100
AcDbLine
 10
441.5114808824273
 20
244.8905261492612
 30
0.0
 11
440.0953928905273
 21
240.3080637279616
 31
0.0
  0
LINE
  5
11E45
330
1F
100
AcDbEntity
  8
0
100
AcDbLine
 10
442.5452854281266
 20
247.7888357148616
 30
0.0
 11
441.6496400315272
 21
244.8905261492612
 31
0.0
  0
LINE
  5
11E46
330
1F
100
AcDbEntity
  8
0
100
AcDbLine
 10
446.1842567048269
 20
259.4510579313613
 30
0.0
 11
445.0949582495268
 21
255.9260868380614
 31
0.0
  0
LINE
  5
11E47
330
1F
100
AcDbEntity
  8
0
100
AcDbLine
 10
439.9389455609271
 20
239.2412236629614
 30
0.0
 11
438.8496471056269
 21
235.7162525696615
 31
0.0
  0
LINE
  5
11E48
330
1F
100
AcDbEntity
  8
0
100
AcDbLine
 10
440.4177642384265
 20
240.3080637279616
 30
0.0
 11
444.7991646920272
 21
254.4862807921616
 31
0.0
  0
LINE
  5
11E49
330
1F
100
AcDbEntity
  8
0
100
AcDbLine
 10
439.8077762529274
 20
237.5297789784616
 30
0.0
 11
440.182979054227
 21
238.7439356883613
 31
0.0
  0
LINE
  5
11E4A
330
1F
100
AcDbEntity
  8
0
100
AcDbLine
 10
445.3389917428267
 20
255.4287988634613
 30
0.0
 11
445.7141945441271
 21
256.6429555733614
 31
0.0
  0
LINE
  5
11E4B
330
1F
100
AcDbEntity
  8
0
100
AcDbLine
 10
437.4474996375266
 20
228.7185973751614
 30
0.0
 11
437.9195289681265
 21
230.2460848488616
 31
0.0
  0
LINE
  5
11E4C
330
1F
100
AcDbEntity
  8
0
100
AcDbLine
 10
435.5451361225266
 20
238.2794290637615
 30
0.0
 11
433.9847866154268
 21
236.8201910568612
 31
0.0
  0
LINE
  5
11E4D
330
1F
100
AcDbEntity
  8
0
100
AcDbLine
 10
447.4742848092272
 20
251.0775290855616
 30
0.0
 11
447.4116380754266
 21
251.0775290855616
 31
0.0
  0
LINE
  5
11E4E
330
1F
100
AcDbEntity
  8
0
100
AcDbLine
 10
447.8494876105266
 20
252.2916857954613
 30
0.0
 11
447.5731693123271
 21
252.2916857954613
 31
0.0
  0
LINE
  5
11E4F
330
1F
100
AcDbEntity
  8
0
100
AcDbLine
 10
441.9440678224273
 20
249.8345284725613
 30
0.0
 11
441.8302860498268
 21
249.9745737226616
 31
0.0
  0
LINE
  5
11E50
330
1F
100
AcDbEntity
  8
0
100
AcDbLine
 10
440.9824494353268
 20
248.7212506672616
 30
0.0
 11
442.2474532794266
 21
246.8250505286613
 31
0.0
  0
LINE
  5
11E51
330
1F
100
AcDbEntity
  8
0
100
AcDbLine
 10
442.2961575257267
 20
246.9826575272612
 30
0.0
 11
441.4429799323269
 21
248.7212506672616
 31
0.0
  0
LINE
  5
11E52
330
1F
100
AcDbEntity
  8
0
100
AcDbLine
 10
442.3929840551273
 20
247.2959882911612
 30
0.0
 11
441.5398064617265
 21
249.0345814311616
 31
0.0
  0
LINE
  5
11E53
330
1F
100
AcDbEntity
  8
0
100
AcDbLine
 10
435.0263090168015
 20
263.239835494835
 30
0.0
 11
431.8300600182274
 21
269.7531061503612
 31
0.0
  0
LINE
  5
11E54
330
1F
100
AcDbEntity
  8
0
100
AcDbLine
 10
442.6161083386269
 20
248.4651019075617
 30
0.0
 11
441.9438675485271
 21
249.8349846085615
 31
0.0
  0
LINE
  5
11E56
330
1F
100
AcDbEntity
  8
0
100
AcDbLine
 10
435.6681914878272
 20
263.9616320076614
 30
0.0
 11
432.0624267357271
 21
271.3094080289614
 31
0.0
  0
LINE
  5
11E57
330
1F
100
AcDbEntity
  8
0
100
AcDbLine
 10
444.5855265843261
 20
239.1555427470615
 30
0.0
 11
444.8242182229267
 21
236.9799078580616
 31
0.0
  0
LINE
  5
11E58
330
1F
100
AcDbEntity
  8
0
100
AcDbLine
 10
446.2372794550271
 20
243.8322498163614
 30
0.0
 11
446.1831643188268
 21
244.3255003505613
 31
0.0
  0
LINE
  5
11E59
330
1F
100
AcDbEntity
  8
0
100
AcDbLine
 10
438.8259630282273
 20
228.0197436230613
 30
0.0
 11
439.2979923589273
 21
229.5472310968615
 31
0.0
  0
LINE
  5
11E5A
330
1F
100
AcDbEntity
  8
0
100
AcDbLine
 10
441.4893172261272
 20
234.3926659104616
 30
0.0
 11
441.4344217278267
 21
234.2150240131612
 31
0.0
  0
LINE
  5
11E5B
330
1F
100
AcDbEntity
  8
0
100
AcDbLine
 10
440.0226912820271
 20
228.0704499599613
 30
0.0
 11
439.5506619513271
 21
226.5429624861616
 31
0.0
  0
LINE
  5
11E5C
330
1F
100
AcDbEntity
  8
0
100
AcDbLine
 10
442.8798456311268
 20
237.0142813613614
 30
0.0
 11
443.9449374540272
 21
240.4609197637613
 31
0.0
  0
LINE
  5
11E5D
330
1F
100
AcDbEntity
  8
0
100
AcDbLine
 10
445.542577609227
 20
245.6308852005612
 30
0.0
 11
446.6076694322273
 21
249.0775236029616
 31
0.0
  0
LINE
  5
11E5E
330
1F
100
AcDbEntity
  8
0
100
AcDbLine
 10
442.9103510281263
 20
236.9521242811614
 30
0.0
 11
443.9754428510268
 21
240.3987626835613
 31
0.0
  0
LINE
  5
11E5F
330
1F
100
AcDbEntity
  8
0
100
AcDbLine
 10
445.5730805855274
 20
245.5687202870616
 30
0.0
 11
446.6381724085267
 21
249.0153586894615
 31
0.0
  0
LINE
  5
11E60
330
1F
100
AcDbEntity
  8
0
100
AcDbLine
 10
447.8494876105266
 20
252.2916857954613
 30
0.0
 11
447.4742848092272
 21
251.0775290855616
 31
0.0
  0
LINE
  5
11E61
330
1F
100
AcDbEntity
  8
0
100
AcDbLine
 10
442.3182721207266
 20
234.3926659104616
 30
0.0
 11
441.9430693194271
 21
233.1785092005615
 31
0.0
  0
LINE
  5
11E62
330
1F
100
AcDbEntity
  8
0
100
AcDbLine
 10
431.0084434128266
 20
229.5472310968615
 30
0.0
 11
431.7010115834271
 21
230.2460848488616
 31
0.0
  0
LINE
  5
11E63
330
1F
100
AcDbEntity
  8
0
100
AcDbLine
 10
431.2289822527269
 20
228.7185973751614
 30
0.0
 11
430.5364140822266
 21
228.0197436230613
 31
0.0
  0
LINE
  5
11E64
330
1F
100
AcDbEntity
  8
0
100
AcDbLine
 10
450.9286298453271
 20
245.4539761444615
 30
0.0
 11
450.3594010151273
 21
245.0706197795615
 31
0.0
  0
LINE
  5
11E65
330
1F
100
AcDbEntity
  8
0
100
AcDbLine
 10
444.7991646920272
 20
254.4862807921616
 30
0.0
 11
444.4767933441271
 21
254.4862807921616
 31
0.0
  0
LINE
  5
11E66
330
1F
100
AcDbEntity
  8
0
100
AcDbLine
 10
445.2567274920266
 20
255.0538658397616
 30
0.0
 11
444.7576128345271
 21
255.0538658397616
 31
0.0
  0
LINE
  5
11E67
330
1F
100
AcDbEntity
  8
0
100
AcDbLine
 10
445.3389917428267
 20
255.4287988634613
 30
0.0
 11
444.5100368482271
 21
255.4287988634613
 31
0.0
  0
LINE
  5
11E68
330
1F
100
AcDbEntity
  8
0
100
AcDbLine
 10
447.2086963520268
 20
241.8527103085615
 30
0.0
 11
445.5614702722268
 21
245.2094041371613
 31
0.0
  0
LINE
  5
11E69
330
1F
100
AcDbEntity
  8
0
100
AcDbLine
 10
433.6721820062266
 20
269.7531061503612
 30
0.0
 11
436.155441702327
 21
264.6927549337614
 31
0.0
  0
LINE
  5
11E6A
330
1F
100
AcDbEntity
  8
0
100
AcDbLine
 10
446.1831643188268
 20
244.3255003505613
 30
0.0
 11
445.5730805855274
 21
245.5687202870616
 31
0.0
  0
LINE
  5
11E6B
330
1F
100
AcDbEntity
  8
0
100
AcDbLine
 10
442.4601849707268
 20
252.0129273778614
 30
0.0
 11
436.6033811314273
 21
263.9478387686616
 31
0.0
  0
LINE
  5
11E6C
330
1F
100
AcDbEntity
  8
0
100
AcDbLine
 10
435.8997998142267
 20
270.3146567519614
 30
0.0
 11
435.2413276075266
 21
271.7738947588612
 31
0.0
  0
LINE
  5
11E6D
330
1F
100
AcDbEntity
  8
0
100
AcDbLine
 10
447.2482561418273
 20
247.7721387529612
 30
0.0
 11
447.4869477804268
 21
245.5965038639614
 31
0.0
  0
LINE
  5
11E6E
330
1F
100
AcDbEntity
  8
0
100
AcDbLine
 10
443.5204347613271
 20
235.7089043446616
 30
0.0
 11
444.5855265843261
 21
239.1555427470615
 31
0.0
  0
LINE
  5
11E6F
330
1F
100
AcDbEntity
  8
0
100
AcDbLine
 10
446.1831643188268
 20
244.3255003505613
 30
0.0
 11
447.2482561418273
 21
247.7721387529612
 31
0.0
  0
LINE
  5
11E70
330
1F
100
AcDbEntity
  8
0
100
AcDbLine
 10
444.0068125956265
 20
234.3347822787612
 30
0.0
 11
444.8242182229267
 21
236.9799078580616
 31
0.0
  0
LINE
  5
11E71
330
1F
100
AcDbEntity
  8
0
100
AcDbLine
 10
446.6695445738269
 20
242.9513861179615
 30
0.0
 11
447.4869477804268
 21
245.5965038639614
 31
0.0
  0
LINE
  5
11E72
330
1F
100
AcDbEntity
  8
0
100
AcDbLine
 10
447.6550187871271
 20
245.3478637932615
 30
0.0
 11
446.8198195200264
 21
242.6451579744615
 31
0.0
  0
LINE
  5
11E73
330
1F
100
AcDbEntity
  8
0
100
AcDbLine
 10
444.992286808927
 20
236.7312599541613
 30
0.0
 11
444.1570875418263
 21
234.0285541352612
 31
0.0
  0
LINE
  5
11E74
330
1F
100
AcDbEntity
  8
0
100
AcDbLine
 10
443.4682786525271
 20
230.0704593592616
 30
0.0
 11
443.8434814538267
 21
231.2846160691614
 31
0.0
  0
LINE
  5
11E75
330
1F
100
AcDbEntity
  8
0
100
AcDbLine
 10
448.9994941424265
 20
247.9694792441613
 30
0.0
 11
449.374696943727
 21
249.1836359541615
 31
0.0
  0
LINE
  5
11E76
330
1F
100
AcDbEntity
  8
0
100
AcDbLine
 10
448.4379206320272
 20
245.3478637932615
 30
0.0
 11
447.3728288090269
 21
241.9012253909612
 31
0.0
  0
LINE
  5
11E77
330
1F
100
AcDbEntity
  8
0
100
AcDbLine
 10
445.7751886538272
 20
236.7312599541613
 30
0.0
 11
444.7100968309269
 21
233.2846215517614
 31
0.0
  0
LINE
  5
11E78
330
1F
100
AcDbEntity
  8
0
100
AcDbLine
 10
447.419570193827
 20
246.2106394450614
 30
0.0
 11
447.6361261241271
 21
245.7693448566613
 31
0.0
  0
LINE
  5
11E79
330
1F
100
AcDbEntity
  8
0
100
AcDbLine
 10
435.9916739799272
 20
270.2448496154614
 30
0.0
 11
435.2341604253266
 21
271.7891170833616
 31
0.0
  0
LINE
  5
11E7A
330
1F
100
AcDbEntity
  8
0
100
AcDbLine
 10
446.6381724085267
 20
249.0153586894615
 30
0.0
 11
447.2482561418273
 21
247.7721387529612
 31
0.0
  0
LINE
  5
11E7B
330
1F
100
AcDbEntity
  8
0
100
AcDbLine
 10
443.6641496582266
 20
255.4263407913616
 30
0.0
 11
437.7158332589268
 21
267.5477351726616
 31
0.0
  0
LINE
  5
11E7C
330
1F
100
AcDbEntity
  8
0
100
AcDbLine
 10
446.7718018892274
 20
249.1260386853613
 30
0.0
 11
448.4190279690274
 21
245.7693448566613
 31
0.0
  0
LINE
  5
11E7D
330
1F
100
AcDbEntity
  8
0
100
AcDbLine
 10
443.2261959164272
 20
256.8085660004616
 30
0.0
 11
437.3693920771263
 21
268.7434773912613
 31
0.0
  0
LINE
  5
11E7E
330
1F
100
AcDbEntity
  8
0
100
AcDbLine
 10
443.9914656749269
 20
256.4855358095613
 30
0.0
 11
444.5100368482271
 21
255.4287988634613
 31
0.0
  0
LINE
  5
11E7F
330
1F
100
AcDbEntity
  8
0
100
AcDbLine
 10
435.2413276075266
 20
271.7738947588612
 30
0.0
 11
435.233967418827
 21
271.7893514463615
 31
0.0
  0
LINE
  5
11E80
330
1F
100
AcDbEntity
  8
0
100
AcDbLine
 10
443.2261780502265
 20
256.8086071178612
 30
0.0
 11
443.4675010312266
 21
256.1667696848616
 31
0.0
  0
LINE
  5
11E81
330
1F
100
AcDbEntity
  8
0
100
AcDbLine
 10
444.8447777590271
 20
227.5549562595614
 30
0.0
 11
444.7898822608267
 21
227.3773143622614
 31
0.0
  0
LINE
  5
11E82
330
1F
100
AcDbEntity
  8
0
100
AcDbLine
 10
441.5633989827265
 20
260.1969898933615
 30
0.0
 11
444.7129332720268
 21
260.1969898933615
 31
0.0
  0
LINE
  5
11E83
330
1F
100
AcDbEntity
  8
0
100
AcDbLine
 10
445.0949582495268
 20
255.9260868380614
 30
0.0
 11
443.9914656749269
 21
256.4855358095613
 31
0.0
  0
LINE
  5
11E84
330
1F
100
AcDbEntity
  8
0
100
AcDbLine
 10
445.1051808196271
 20
255.4287988634613
 30
0.0
 11
445.2925477533272
 21
255.0469851964615
 31
0.0
  0
LINE
  5
11E85
330
1F
100
AcDbEntity
  8
0
100
AcDbLine
 10
452.3307480430266
 20
241.0534369022615
 30
0.0
 11
445.6198269771266
 21
254.7288562042616
 31
0.0
  0
LINE
  5
11E86
330
1F
100
AcDbEntity
  8
0
100
AcDbLine
 10
445.0949582495268
 20
255.9260868380614
 30
0.0
 11
445.3389917428267
 21
255.4287988634613
 31
0.0
  0
LINE
  5
11E87
330
1F
100
AcDbEntity
  8
0
100
AcDbLine
 10
447.4742848092272
 20
251.0775290855616
 30
0.0
 11
448.9994941424265
 21
247.9694792441613
 31
0.0
  0
LINE
  5
11E88
330
1F
100
AcDbEntity
  8
0
100
AcDbLine
 10
450.8297453422273
 20
244.2398194345613
 30
0.0
 11
452.3549546753265
 21
241.1317695932615
 31
0.0
  0
LINE
  5
11E89
330
1F
100
AcDbEntity
  8
0
100
AcDbLine
 10
445.6074254430268
 20
256.2974506358612
 30
0.0
 11
447.5731693123271
 21
252.2916857954613
 31
0.0
  0
LINE
  5
11E8A
330
1F
100
AcDbEntity
  8
0
100
AcDbLine
 10
449.2679278426266
 20
248.8381310165613
 30
0.0
 11
450.9286298453271
 21
245.4539761444615
 31
0.0
  0
LINE
  5
11E8B
330
1F
100
AcDbEntity
  8
0
100
AcDbLine
 10
445.7141945441271
 20
256.6429555733614
 30
0.0
 11
447.8494876105266
 21
252.2916857954613
 31
0.0
  0
LINE
  5
11E8C
330
1F
100
AcDbEntity
  8
0
100
AcDbLine
 10
449.374696943727
 20
249.1836359541615
 30
0.0
 11
451.2049481435268
 21
245.4539761444615
 31
0.0
  0
LINE
  5
11E8D
330
1F
100
AcDbEntity
  8
0
100
AcDbLine
 10
451.2049481435268
 20
245.4539761444615
 30
0.0
 11
450.8297453422273
 21
244.2398194345613
 31
0.0
  0
LINE
  5
11E8E
330
1F
100
AcDbEntity
  8
0
100
AcDbLine
 10
445.6737326536266
 20
227.5549562595614
 30
0.0
 11
445.2985298523271
 21
226.3407995495616
 31
0.0
  0
LINE
  5
11E8F
330
1F
100
AcDbEntity
  8
0
100
AcDbLine
 10
430.5156201960271
 20
260.3428312942613
 30
0.0
 11
428.6734982080266
 21
260.3428312942613
 31
0.0
  0
LINE
  5
11E90
330
1F
100
AcDbEntity
  8
0
100
AcDbLine
 10
444.7129332720268
 20
260.1969898933615
 30
0.0
 11
446.1842567048269
 21
259.4510579313613
 31
0.0
  0
LINE
  5
11E91
330
1F
100
AcDbEntity
  8
0
100
AcDbLine
 10
446.1842567048269
 20
259.4510579313613
 30
0.0
 11
453.4442531307266
 21
244.6567406865614
 31
0.0
  0
LINE
  5
11E92
330
1F
100
AcDbEntity
  8
0
100
AcDbLine
 10
453.4442531307266
 20
244.6567406865614
 30
0.0
 11
452.3549546753265
 21
241.1317695932615
 31
0.0
  0
LINE
  5
11E93
330
1F
100
AcDbEntity
  8
0
100
AcDbLine
 10
452.3307480430266
 20
241.0534369022615
 30
0.0
 11
447.2231486191263
 21
224.5252391091615
 31
0.0
  0
LINE
  5
11E94
330
1F
100
AcDbEntity
  8
0
100
AcDbLine
 10
447.1989419868267
 20
224.4469064181615
 30
0.0
 11
446.1096435315266
 21
220.9219353248617
 31
0.0
  0
LINE
  5
11E95
330
1F
100
AcDbEntity
  8
0
100
AcDbLine
 10
433.9045487237272
 20
271.3094080289614
 30
0.0
 11
432.0624267357271
 21
271.3094080289614
 31
0.0
  0
LINE
  5
11E96
330
1F
100
AcDbEntity
  8
0
100
AcDbLine
 10
434.5784950953266
 20
272.1319012841612
 30
0.0
 11
431.896819643327
 21
272.1319012841612
 31
0.0
  0
ARC
  5
11E97
330
1F
100
AcDbEntity
  8
0
100
AcDbCircle
 10
448.412396610427
 20
238.3815499492615
 30
0.0
 40
3.7624091047
100
AcDbArc
 50
15.26769615949875
 51
20.63462456389622
  0
ARC
  5
11E98
330
1F
100
AcDbEntity
  8
0
100
AcDbCircle
 10
430.4685384665271
 20
239.3877107653614
 30
0.0
 40
3.6244805944
100
AcDbArc
 50
173.0964375834011
 51
176.5764542006045
  0
SPLINE
  5
11EA3
330
1F
100
AcDbEntity
  8
0
100
AcDbSpline
210
0.0
220
0.0
230
1.0
 70
     8
 71
     3
 72
     9
 73
     5
 74
     0
 42
0.0000000001
 43
0.0000000001
 40
0.0
 40
0.0
 40
0.0
 40
0.0
 40
0.264197942
 40
1.0
 40
1.0
 40
1.0
 40
1.0
 10
426.8703358262273
 20
239.8233681286614
 30
0.0
 10
426.8756073753265
 20
239.8666620760612
 30
0.0
 10
426.8987154863268
 20
240.0300976257616
 30
0.0
 10
426.9344112250273
 20
240.1920126323615
 30
0.0
 10
426.9702737259263
 20
240.3080637279616
 30
0.0
  0
SPLINE
  5
11EA4
330
1F
100
AcDbEntity
  8
0
100
AcDbSpline
210
0.0
220
0.0
230
1.0
 70
     8
 71
     3
 72
    11
 73
     7
 74
     0
 42
0.0000000001
 43
0.0000000001
 40
0.0
 40
0.0
 40
0.0
 40
0.0
 40
0.3157605445
 40
0.5821410561000003
 40
0.8045766630999999
 40
1.0
 40
1.0
 40
1.0
 40
1.0
 10
445.6198269771266
 20
254.7288562042616
 30
0.0
 10
445.5961606531273
 20
254.7770831019614
 30
0.0
 10
445.5469417061267
 20
254.8635421147613
 30
0.0
 10
445.4583319493266
 20
254.9691813165612
 30
0.0
 10
445.3615516591271
 20
255.0372224267615
 30
0.0
 10
445.289921284927
 20
255.0538447967613
 30
0.0
 10
445.2566736045269
 20
255.0538433745613
 30
0.0
  0
SPLINE
  5
11EA5
330
1F
100
AcDbEntity
  8
0
100
AcDbSpline
210
0.0
220
0.0
230
1.0
 70
     8
 71
     3
 72
    14
 73
    10
 74
     0
 42
0.0000000001
 43
0.0000000001
 40
0.0
 40
0.0
 40
0.0
 40
0.0
 40
0.111984119
 40
0.2261005168
 40
0.3435675313
 40
0.4653013310000003
 40
0.5918528385000002
 40
0.7234032786000001
 40
1.0
 40
1.0
 40
1.0
 40
1.0
 10
448.5469220774265
 20
228.7362443345613
 30
0.0
 10
448.6311803868265
 20
228.5141156573616
 30
0.0
 10
448.7600345075271
 20
228.0488153173613
 30
0.0
 10
448.8264279013264
 20
227.3194475699614
 30
0.0
 10
448.7678984038266
 20
226.5688151099614
 30
0.0
 10
448.5873795453271
 20
225.8112368745613
 30
0.0
 10
448.289676719327
 20
225.0595923141612
 30
0.0
 10
447.7365875205268
 20
224.0665258446614
 30
0.0
 10
447.1782398409268
 20
223.3918530191616
 30
0.0
 10
446.7600361638268
 20
222.9802292537613
 30
0.0
  0
SPLINE
  5
11EA6
330
1F
100
AcDbEntity
  8
0
100
AcDbSpline
210
0.0
220
0.0
230
1.0
 70
     8
 71
     3
 72
    11
 73
     7
 74
     0
 42
0.0000000001
 43
0.0000000001
 40
0.0
 40
0.0
 40
0.0
 40
0.0
 40
0.268229302
 40
0.5268049482000004
 40
0.7713130979000004
 40
1.0
 40
1.0
 40
1.0
 40
1.0
 10
443.5079324363268
 20
220.9100125841613
 30
0.0
 10
443.0031837463266
 20
220.7175116134616
 30
0.0
 10
441.9777825799273
 20
220.4218523527614
 30
0.0
 10
440.4237350511266
 20
220.2620322661613
 30
0.0
 10
438.9463703799265
 20
220.4010539336612
 30
0.0
 10
438.0310238037274
 20
220.7050435745612
 30
0.0
 10
437.6176856313268
 20
220.9082159625612
 30
0.0
  0
SPLINE
  5
11EA7
330
1F
100
AcDbEntity
  8
0
100
AcDbSpline
210
0.0
220
0.0
230
1.0
 70
     8
 71
     3
 72
    14
 73
    10
 74
     0
 42
0.0000000001
 43
0.0000000001
 40
0.0
 40
0.0
 40
0.0
 40
0.0
 40
0.111987018
 40
0.2261188383
 40
0.3435991572999999
 40
0.4653383
 40
0.5918886552
 40
0.7234299428000001
 40
1.0
 40
1.0
 40
1.0
 40
1.0
 10
451.9370396337271
 20
239.6997199895616
 30
0.0
 10
452.0209846110272
 20
239.4778422926614
 30
0.0
 10
452.1493073986266
 20
239.0131064897612
 30
0.0
 10
452.2152967968268
 20
238.2847367232614
 30
0.0
 10
452.1567412002267
 20
237.5351614531613
 30
0.0
 10
451.9765207019272
 20
236.7786671519614
 30
0.0
 10
451.6794554168273
 20
236.0280770391613
 30
0.0
 10
451.1276369480273
 20
235.0363258301616
 30
0.0
 10
450.5705865788268
 20
234.3623889896615
 30
0.0
 10
450.1533337986264
 20
233.9511187384613
 30
0.0
  0
SPLINE
  5
11EA8
330
1F
100
AcDbEntity
  8
0
100
AcDbSpline
210
0.0
220
0.0
230
1.0
 70
     8
 71
     3
 72
    11
 73
     7
 74
     0
 42
0.0000000001
 43
0.0000000001
 40
0.0
 40
0.0
 40
0.0
 40
0.0
 40
0.1953997005
 40
0.4181410661000001
 40
0.6849448089
 40
1.0
 40
1.0
 40
1.0
 40
1.0
 10
444.6186868853263
 20
233.1711122155614
 30
0.0
 10
444.6120328330271
 20
233.1711009033614
 30
0.0
 10
444.5976765296271
 20
233.1743971540612
 30
0.0
 10
444.5782807286268
 20
233.1880356986615
 30
0.0
 10
444.5605620380264
 20
233.2091921859613
 30
0.0
 10
444.5506908514271
 20
233.2264749207614
 30
0.0
 10
444.5459643738266
 20
233.2361064693612
 30
0.0
  0
SPLINE
  5
11EA9
330
1F
100
AcDbEntity
  8
0
100
AcDbSpline
210
0.0
220
0.0
230
1.0
 70
     8
 71
     3
 72
    11
 73
     7
 74
     0
 42
0.0000000001
 43
0.0000000001
 40
0.0
 40
0.0
 40
0.0
 40
0.0
 40
0.1953997005
 40
0.4181410661000001
 40
0.6849448089
 40
1.0
 40
1.0
 40
1.0
 40
1.0
 10
447.2814188634266
 20
241.7877160547612
 30
0.0
 10
447.2747648112272
 20
241.7877047425616
 30
0.0
 10
447.2604085078264
 20
241.7910009932614
 30
0.0
 10
447.2410127068267
 20
241.8046395377613
 30
0.0
 10
447.2232940162266
 20
241.8257960251615
 30
0.0
 10
447.2134228295272
 20
241.8430787599612
 30
0.0
 10
447.2086963520268
 20
241.8527103085615
 30
0.0
  0
SPLINE
  5
11EAA
330
1F
100
AcDbEntity
  8
0
100
AcDbSpline
210
0.0
220
0.0
230
1.0
 70
     8
 71
     3
 72
    11
 73
     7
 74
     0
 42
0.0000000001
 43
0.0000000001
 40
0.0
 40
0.0
 40
0.0
 40
0.0
 40
0.2189996504
 40
0.480661267
 40
0.752603691
 40
1.0
 40
1.0
 40
1.0
 40
1.0
 10
445.5614702722268
 20
245.2094041371613
 30
0.0
 10
445.5476667988269
 20
245.2375326584613
 30
0.0
 10
445.527740848327
 20
245.3041925403616
 30
0.0
 10
445.515159342927
 20
245.4114343106615
 30
0.0
 10
445.5185362243271
 20
245.5234985900613
 30
0.0
 10
445.5321271302271
 20
245.5970674381613
 30
0.0
 10
445.542577609227
 20
245.6308852005612
 30
0.0
  0
SPLINE
  5
11EAB
330
1F
100
AcDbEntity
  8
0
100
AcDbSpline
210
0.0
220
0.0
230
1.0
 70
     8
 71
     3
 72
    11
 73
     7
 74
     0
 42
0.0000000001
 43
0.0000000001
 40
0.0
 40
0.0
 40
0.0
 40
0.0
 40
0.3320313157
 40
0.6071410056000001
 40
0.8237062381999999
 40
1.0
 40
1.0
 40
1.0
 40
1.0
 10
446.6076694322273
 20
249.0775236029616
 30
0.0
 10
446.6126939685273
 20
249.0937830085616
 30
0.0
 10
446.6236610281265
 20
249.1230465690613
 30
0.0
 10
446.645114519727
 20
249.1597085744614
 30
0.0
 10
446.6698520832268
 20
249.1843129550614
 30
0.0
 10
446.6900435649265
 20
249.1910175777614
 30
0.0
 10
446.6990793777267
 20
249.1910329391615
 30
0.0
  0
SPLINE
  5
11EAC
330
1F
100
AcDbEntity
  8
0
100
AcDbSpline
210
0.0
220
0.0
230
1.0
 70
     8
 71
     3
 72
    11
 73
     7
 74
     0
 42
0.0000000001
 43
0.0000000001
 40
0.0
 40
0.0
 40
0.0
 40
0.0
 40
0.247396309
 40
0.5193387330000001
 40
0.7810003496000001
 40
1.0
 40
1.0
 40
1.0
 40
1.0
 10
447.6550187871271
 20
245.3478637932615
 30
0.0
 10
447.6654692661266
 20
245.3816815557614
 30
0.0
 10
447.6790601720265
 20
245.4552504037613
 30
0.0
 10
447.6824370534268
 20
245.5673146831612
 30
0.0
 10
447.669855547927
 20
245.6745564535616
 30
0.0
 10
447.6499295974272
 20
245.7412163354614
 30
0.0
 10
447.6361261241271
 20
245.7693448566613
 30
0.0
  0
SPLINE
  5
11EAD
330
1F
100
AcDbEntity
  8
0
100
AcDbSpline
210
0.0
220
0.0
230
1.0
 70
     8
 71
     3
 72
    11
 73
     7
 74
     0
 42
0.0000000001
 43
0.0000000001
 40
0.0
 40
0.0
 40
0.0
 40
0.0
 40
0.2189996504
 40
0.480661267
 40
0.752603691
 40
1.0
 40
1.0
 40
1.0
 40
1.0
 10
442.8987382940268
 20
236.5928002980616
 30
0.0
 10
442.8849348207267
 20
236.6209288192616
 30
0.0
 10
442.8650088702267
 20
236.6875887011614
 30
0.0
 10
442.8524273648271
 20
236.7948304714612
 30
0.0
 10
442.8558042462273
 20
236.9068947509616
 30
0.0
 10
442.8693951521271
 20
236.9804635989615
 30
0.0
 10
442.8798456311268
 20
237.0142813613614
 30
0.0
  0
SPLINE
  5
11EAE
330
1F
100
AcDbEntity
  8
0
100
AcDbSpline
210
0.0
220
0.0
230
1.0
 70
     8
 71
     3
 72
    11
 73
     7
 74
     0
 42
0.0000000001
 43
0.0000000001
 40
0.0
 40
0.0
 40
0.0
 40
0.0
 40
0.3320313157
 40
0.6071410056000001
 40
0.8237062381999999
 40
1.0
 40
1.0
 40
1.0
 40
1.0
 10
443.9449374540272
 20
240.4609197637613
 30
0.0
 10
443.9499619904272
 20
240.4771791693613
 30
0.0
 10
443.9609290499265
 20
240.5064427298615
 30
0.0
 10
443.9823825415269
 20
240.5431047352616
 30
0.0
 10
444.0071201051266
 20
240.5677091158612
 30
0.0
 10
444.0273115868267
 20
240.5744137386612
 30
0.0
 10
444.0363473996267
 20
240.5744290999613
 30
0.0
  0
SPLINE
  5
11EAF
330
1F
100
AcDbEntity
  8
0
100
AcDbSpline
210
0.0
220
0.0
230
1.0
 70
     8
 71
     3
 72
    11
 73
     7
 74
     0
 42
0.0000000001
 43
0.0000000001
 40
0.0
 40
0.0
 40
0.0
 40
0.0
 40
0.247396309
 40
0.5193387330000001
 40
0.7810003496000001
 40
1.0
 40
1.0
 40
1.0
 40
1.0
 10
444.992286808927
 20
236.7312599541613
 30
0.0
 10
445.0027372879267
 20
236.7650777165616
 30
0.0
 10
445.0163281938266
 20
236.8386465646616
 30
0.0
 10
445.0197050752263
 20
236.9507108440615
 30
0.0
 10
445.0071235698269
 20
237.0579526143613
 30
0.0
 10
444.9871976193271
 20
237.1246124962616
 30
0.0
 10
444.9733941460272
 20
237.1527410174615
 30
0.0
  0
SPLINE
  5
11EB0
330
1F
100
AcDbEntity
  8
0
100
AcDbSpline
210
0.0
220
0.0
230
1.0
 70
     8
 71
     3
 72
    14
 73
    10
 74
     0
 42
0.0000000001
 43
0.0000000001
 40
0.0
 40
0.0
 40
0.0
 40
0.0
 40
0.1101585301
 40
0.2228283546
 40
0.3393895621
 40
0.4608318025
 40
0.5877099768999999
 40
0.7201561361
 40
1.0
 40
1.0
 40
1.0
 40
1.0
 10
448.5372117654269
 20
228.7600784973613
 30
0.0
 10
448.6187812338267
 20
228.5472747143615
 30
0.0
 10
448.7441182104267
 20
228.1005239409613
 30
0.0
 10
448.8111435013268
 20
227.3982292394615
 30
0.0
 10
448.7582281970269
 20
226.6714431338613
 30
0.0
 10
448.5869616841273
 20
225.9334263134613
 30
0.0
 10
448.3009657939263
 20
225.1967026199616
 30
0.0
 10
447.7647737259267
 20
224.2159670676613
 30
0.0
 10
447.2208414475272
 20
223.5465766522614
 30
0.0
 10
446.812513331927
 20
223.1361419223615
 30
0.0
  0
SPLINE
  5
11EB1
330
1F
100
AcDbEntity
  8
0
100
AcDbSpline
210
0.0
220
0.0
230
1.0
 70
     8
 71
     3
 72
    11
 73
     7
 74
     0
 42
0.0000000001
 43
0.0000000001
 40
0.0
 40
0.0
 40
0.0
 40
0.0
 40
0.2691912514
 40
0.5281554860000001
 40
0.7724624572
 40
1.0
 40
1.0
 40
1.0
 40
1.0
 10
443.2965063726268
 20
220.9196013382614
 30
0.0
 10
442.8097953859269
 20
220.7440092285613
 30
0.0
 10
441.8252727157267
 20
220.4751463534615
 30
0.0
 10
440.3397509709265
 20
220.3315051873613
 30
0.0
 10
438.9321461064271
 20
220.4595306106615
 30
0.0
 10
438.0579181513267
 20
220.7354221949616
 30
0.0
 10
437.6612366921271
 20
220.9196013497615
 30
0.0
  0
SPLINE
  5
11EB2
330
1F
100
AcDbEntity
  8
0
100
AcDbSpline
210
0.0
220
0.0
230
1.0
 70
     8
 71
     3
 72
    13
 73
     9
 74
     0
 42
0.0000000001
 43
0.0000000001
 40
0.0
 40
0.0
 40
0.0
 40
0.0
 40
0.0859096233
 40
0.177559631
 40
0.2794245305
 40
0.3943896979999999
 40
0.6681882701
 40
1.0
 40
1.0
 40
1.0
 40
1.0
 10
445.2566736045269
 20
255.0538433745613
 30
0.0
 10
445.234589180327
 20
255.0538424299614
 30
0.0
 10
445.1887079236266
 20
255.0469996934615
 30
0.0
 10
445.1226224260271
 20
255.0170596214615
 30
0.0
 10
445.059061572927
 20
254.9687564138615
 30
0.0
 10
444.9734349651271
 20
254.8754674996615
 30
0.0
 10
444.8790567399274
 20
254.7140215310613
 30
0.0
 10
444.8243485373266
 20
254.5677757452616
 30
0.0
 10
444.7991646920272
 20
254.4862807921616
 30
0.0
  0
SPLINE
  5
11EB3
330
1F
100
AcDbEntity
  8
0
100
AcDbSpline
210
0.0
220
0.0
230
1.0
 70
     8
 71
     3
 72
    13
 73
     9
 74
     0
 42
0.0000000001
 43
0.0000000001
 40
0.0
 40
0.0
 40
0.0
 40
0.0
 40
0.1186229099
 40
0.2475222463
 40
0.5192664114
 40
0.7807378997
 40
0.8973875035999999
 40
1.0
 40
1.0
 40
1.0
 40
1.0
 10
440.4177642384265
 20
240.3080637279616
 30
0.0
 10
440.3926935358267
 20
240.2269349047613
 30
0.0
 10
440.3503402145268
 20
240.0545023967614
 30
0.0
 10
440.2947957109272
 20
239.6865943444616
 30
0.0
 10
440.2808474776263
 20
239.2109915927616
 30
0.0
 10
440.3347299975266
 20
238.7465783595615
 30
0.0
 10
440.4225000565266
 20
238.4133312809616
 30
0.0
 10
440.4798681754273
 20
238.2665998899613
 30
0.0
 10
440.5122275532266
 20
238.2006584110616
 30
0.0
  0
SPLINE
  5
11EB4
330
1F
100
AcDbEntity
  8
0
100
AcDbSpline
210
0.0
220
0.0
230
1.0
 70
     8
 71
     3
 72
    11
 73
     7
 74
     0
 42
0.0000000001
 43
0.0000000001
 40
0.0
 40
0.0
 40
0.0
 40
0.0
 40
0.1953997005
 40
0.4181410661000001
 40
0.6849448089
 40
1.0
 40
1.0
 40
1.0
 40
1.0
 10
444.0363473996267
 20
240.5744290999613
 30
0.0
 10
444.043001451927
 20
240.5744404121613
 30
0.0
 10
444.0573577553268
 20
240.5711441614615
 30
0.0
 10
444.0767535563272
 20
240.5575056168612
 30
0.0
 10
444.0944722469266
 20
240.5363491295614
 30
0.0
 10
444.1043434335268
 20
240.5190663947613
 30
0.0
 10
444.1090699111273
 20
240.5094348461615
 30
0.0
  0
SPLINE
  5
11EB5
330
1F
100
AcDbEntity
  8
0
100
AcDbSpline
210
0.0
220
0.0
230
1.0
 70
     8
 71
     3
 72
    14
 73
    10
 74
     0
 42
0.0000000001
 43
0.0000000001
 40
0.0
 40
0.0
 40
0.0
 40
0.0
 40
0.1102242962
 40
0.2234265313
 40
0.3406568435
 40
0.4626269273000001
 40
0.5896995758
 40
0.7219050925000003
 40
1.0
 40
1.0
 40
1.0
 40
1.0
 10
452.0420153949271
 20
239.3723020630612
 30
0.0
 10
452.0986233817266
 20
239.1649854111614
 30
0.0
 10
452.1775467836268
 20
238.7341626053615
 30
0.0
 10
452.1902284217266
 20
238.0675077024615
 30
0.0
 10
452.0987838514265
 20
237.3840108104612
 30
0.0
 10
451.9051876806269
 20
236.6944074538613
 30
0.0
 10
451.612750007227
 20
236.0088394999614
 30
0.0
 10
451.088981147027
 20
235.0993580923612
 30
0.0
 10
450.5746823729269
 20
234.4765829650612
 30
0.0
 10
450.191616177427
 20
234.0928539265613
 30
0.0
  0
SPLINE
  5
11EB6
330
1F
100
AcDbEntity
  8
0
100
AcDbSpline
210
0.0
220
0.0
230
1.0
 70
     8
 71
     3
 72
    11
 73
     7
 74
     0
 42
0.0000000001
 43
0.0000000001
 40
0.0
 40
0.0
 40
0.0
 40
0.0
 40
0.1953997005
 40
0.4181410661000001
 40
0.6849448089
 40
1.0
 40
1.0
 40
1.0
 40
1.0
 10
446.6990793777267
 20
249.1910329391615
 30
0.0
 10
446.705733430027
 20
249.1910442513616
 30
0.0
 10
446.7200897334269
 20
249.1877480005613
 30
0.0
 10
446.7394855344273
 20
249.1741094560615
 30
0.0
 10
446.7572042250266
 20
249.1529529686616
 30
0.0
 10
446.7670754117269
 20
249.1356702338615
 30
0.0
 10
446.7718018892274
 20
249.1260386853613
 30
0.0
  0
SPLINE
  5
11EB7
330
1F
100
AcDbEntity
  8
0
100
AcDbSpline
210
0.0
220
0.0
230
1.0
 70
     8
 71
     3
 72
    11
 73
     7
 74
     0
 42
0.0000000001
 43
0.0000000001
 40
0.0
 40
0.0
 40
0.0
 40
0.0
 40
0.2189996504
 40
0.480661267
 40
0.752603691
 40
1.0
 40
1.0
 40
1.0
 40
1.0
 10
448.4190279690274
 20
245.7693448566613
 30
0.0
 10
448.4328314423273
 20
245.7412163354614
 30
0.0
 10
448.4527573928271
 20
245.6745564535616
 30
0.0
 10
448.465338898327
 20
245.5673146831612
 30
0.0
 10
448.4619620169268
 20
245.4552504037613
 30
0.0
 10
448.448371111027
 20
245.3816815557614
 30
0.0
 10
448.4379206320272
 20
245.3478637932615
 30
0.0
  0
SPLINE
  5
11EB8
330
1F
100
AcDbEntity
  8
0
100
AcDbSpline
210
0.0
220
0.0
230
1.0
 70
     8
 71
     3
 72
    11
 73
     7
 74
     0
 42
0.0000000001
 43
0.0000000001
 40
0.0
 40
0.0
 40
0.0
 40
0.0
 40
0.3320313157
 40
0.6071410056000001
 40
0.8237062381999999
 40
1.0
 40
1.0
 40
1.0
 40
1.0
 10
447.3728288090269
 20
241.9012253909612
 30
0.0
 10
447.3678042726269
 20
241.8849659852615
 30
0.0
 10
447.3568372131266
 20
241.8557024248615
 30
0.0
 10
447.3353837215269
 20
241.8190404194614
 30
0.0
 10
447.3106461580273
 20
241.7944360388613
 30
0.0
 10
447.2904546762263
 20
241.7877314160612
 30
0.0
 10
447.2814188634266
 20
241.7877160547612
 30
0.0
  0
SPLINE
  5
11EB9
330
1F
100
AcDbEntity
  8
0
100
AcDbSpline
210
0.0
220
0.0
230
1.0
 70
     8
 71
     3
 72
    11
 73
     7
 74
     0
 42
0.0000000001
 43
0.0000000001
 40
0.0
 40
0.0
 40
0.0
 40
0.0
 40
0.3320313157
 40
0.6071410056000001
 40
0.8237062381999999
 40
1.0
 40
1.0
 40
1.0
 40
1.0
 10
444.7100968309269
 20
233.2846215517614
 30
0.0
 10
444.7050722945268
 20
233.2683621461614
 30
0.0
 10
444.6941052350267
 20
233.2390985856612
 30
0.0
 10
444.6726517434272
 20
233.2024365802616
 30
0.0
 10
444.647914179827
 20
233.1778321996615
 30
0.0
 10
444.6277226981265
 20
233.1711275768615
 30
0.0
 10
444.6186868853263
 20
233.1711122155614
 30
0.0
  0
SPLINE
  5
11EBA
330
1F
100
AcDbEntity
  8
0
100
AcDbSpline
210
0.0
220
0.0
230
1.0
 70
     8
 71
     3
 72
    11
 73
     7
 74
     0
 42
0.0000000001
 43
0.0000000001
 40
0.0
 40
0.0
 40
0.0
 40
0.0
 40
0.2189996504
 40
0.480661267
 40
0.752603691
 40
1.0
 40
1.0
 40
1.0
 40
1.0
 10
445.7562959909274
 20
237.1527410174615
 30
0.0
 10
445.7700994642273
 20
237.1246124962616
 30
0.0
 10
445.790025414727
 20
237.0579526143613
 30
0.0
 10
445.8026069201268
 20
236.9507108440615
 30
0.0
 10
445.7992300387267
 20
236.8386465646616
 30
0.0
 10
445.7856391328268
 20
236.7650777165616
 30
0.0
 10
445.7751886538272
 20
236.7312599541613
 30
0.0
  0
SPLINE
  5
11EBB
330
1F
100
AcDbEntity
  8
0
100
AcDbSpline
210
0.0
220
0.0
230
1.0
 70
     8
 71
     3
 72
     9
 73
     5
 74
     0
 42
0.0000000001
 43
0.0000000001
 40
0.0
 40
0.0
 40
0.0
 40
0.0
 40
0.5034626757
 40
1.0
 40
1.0
 40
1.0
 40
1.0
 10
421.4248718804274
 20
252.9812620338615
 30
0.0
 10
421.4484462373266
 20
252.7729007462615
 30
0.0
 10
421.5294263698266
 20
252.3620706048612
 30
0.0
 10
421.6801890360265
 20
251.9712323601614
 30
0.0
 10
421.7712973816269
 20
251.7855764765617
 30
0.0
  0
SPLINE
  5
11EBC
330
1F
100
AcDbEntity
  8
0
100
AcDbSpline
210
0.0
220
0.0
230
1.0
 70
     8
 71
     3
 72
     9
 73
     5
 74
     0
 42
0.0000000001
 43
0.0000000001
 40
0.0
 40
0.0
 40
0.0
 40
0.0
 40
0.5115253287
 40
1.0
 40
1.0
 40
1.0
 40
1.0
 10
425.6069871361266
 20
259.1319878147613
 30
0.0
 10
424.9958000443266
 20
258.8223296676613
 30
0.0
 10
423.8628527409272
 20
258.0856461240613
 30
0.0
 10
422.9235046608273
 20
257.1093131684614
 30
0.0
 10
422.5373240080271
 20
256.5811584378614
 30
0.0
  0
SPLINE
  5
11EBD
330
1F
100
AcDbEntity
  8
0
100
AcDbSpline
210
0.0
220
0.0
230
1.0
 70
     8
 71
     3
 72
     9
 73
     5
 74
     0
 42
0.0000000001
 43
0.0000000001
 40
0.0
 40
0.0
 40
0.0
 40
0.0
 40
0.5035131530000001
 40
1.0
 40
1.0
 40
1.0
 40
1.0
 10
424.8138004081265
 20
263.9478387686616
 30
0.0
 10
424.8373824045263
 20
263.7394099595616
 30
0.0
 10
424.9183618282266
 20
263.3284807256612
 30
0.0
 10
425.0692142453272
 20
262.9375756928614
 30
0.0
 10
425.160342083227
 20
262.7519012482615
 30
0.0
  0
SPLINE
  5
11EBE
330
1F
100
AcDbEntity
  8
0
100
AcDbSpline
210
0.0
220
0.0
230
1.0
 70
     8
 71
     3
 72
     9
 73
     5
 74
     0
 42
0.0000000001
 43
0.0000000001
 40
0.0
 40
0.0
 40
0.0
 40
0.0
 40
0.5114837895000001
 40
1.0
 40
1.0
 40
1.0
 40
1.0
 10
429.452372856227
 20
270.3146567519614
 30
0.0
 10
428.7472943528272
 20
270.0037283541613
 30
0.0
 10
427.4378681999269
 20
269.2255615249613
 30
0.0
 10
426.3606609359266
 20
268.1418479275615
 30
0.0
 10
425.9262525357271
 20
267.5477351726616
 30
0.0
  0
SPLINE
  5
11EBF
330
1F
100
AcDbEntity
  8
0
100
AcDbSpline
210
0.0
220
0.0
230
1.0
 70
     8
 71
     3
 72
     9
 73
     5
 74
     0
 42
0.0000000001
 43
0.0000000001
 40
0.0
 40
0.0
 40
0.0
 40
0.0
 40
0.494177308
 40
1.0
 40
1.0
 40
1.0
 40
1.0
 10
431.896819643327
 20
272.1319012841612
 30
0.0
 10
431.7370471927269
 20
272.1319012841612
 30
0.0
 10
431.4124893205271
 20
272.0615943994615
 30
0.0
 10
431.1321660855273
 20
271.8855984625614
 30
0.0
 10
431.0127223633271
 20
271.7738947588612
 30
0.0
  0
SPLINE
  5
11EC0
330
1F
100
AcDbEntity
  8
0
100
AcDbSpline
210
0.0
220
0.0
230
1.0
 70
     8
 71
     3
 72
    11
 73
     7
 74
     0
 42
0.0000000001
 43
0.0000000001
 40
0.0
 40
0.0
 40
0.0
 40
0.0
 40
0.2269005514
 40
0.4650736562
 40
0.72208076
 40
1.0
 40
1.0
 40
1.0
 40
1.0
 10
435.2340280789267
 20
271.7893812459613
 30
0.0
 10
435.2080935484273
 20
271.8421215056614
 30
0.0
 10
435.1356829012265
 20
271.9417171213616
 30
0.0
 10
434.9807544560271
 20
272.0513685804615
 30
0.0
 10
434.7896545736266
 20
272.1181270052615
 30
0.0
 10
434.6504818685271
 20
272.1319012841612
 30
0.0
 10
434.5784950953266
 20
272.1319012841612
 30
0.0
  0
SPLINE
  5
11EC1
330
1F
100
AcDbEntity
  8
0
100
AcDbSpline
210
0.0
220
0.0
230
1.0
 70
     8
 71
     3
 72
     9
 73
     5
 74
     0
 42
0.0000000001
 43
0.0000000001
 40
0.0
 40
0.0
 40
0.0
 40
0.0
 40
0.4825433450000002
 40
1.0
 40
1.0
 40
1.0
 40
1.0
 10
426.4755594415273
 20
261.1977298515615
 30
0.0
 10
426.5073955913265
 20
261.1328474951613
 30
0.0
 10
426.544639468927
 20
260.9828094136613
 30
0.0
 10
426.5217740171273
 20
260.8312354328617
 30
0.0
 10
426.4988919880269
 20
260.7571891595615
 30
0.0
  0
SPLINE
  5
11EC2
330
1F
100
AcDbEntity
  8
0
100
AcDbSpline
210
0.0
220
0.0
230
1.0
 70
     8
 71
     3
 72
    23
 73
    19
 74
     0
 42
0.0000000001
 43
0.0000000001
 40
0.0
 40
0.0
 40
0.0
 40
0.0
 40
0.0493521631
 40
0.1011580201
 40
0.1571423227
 40
0.2180273342
 40
0.2836816316
 40
0.3533634404999999
 40
0.425929894
 40
0.4999962469
 40
0.5740629091000004
 40
0.6466302274000002
 40
0.7163133590000001
 40
0.7819691540000001
 40
0.8428556615999999
 40
0.8988410176999998
 40
0.9506476905999999
 40
1.0
 40
1.0
 40
1.0
 40
1.0
 10
436.4446350262269
 20
267.9040211564614
 30
0.0
 10
436.5534057291268
 20
267.6823697683615
 30
0.0
 10
436.7130510154265
 20
267.1941916502613
 30
0.0
 10
436.749751046227
 20
266.4006583797617
 30
0.0
 10
436.584708244427
 20
265.5656654676612
 30
0.0
 10
436.2217002602273
 20
264.7214030751614
 30
0.0
 10
435.6728721088265
 20
263.9015862782615
 30
0.0
 10
434.9583391221266
 20
263.1399712521614
 30
0.0
 10
434.1054772411271
 20
262.4676510743614
 30
0.0
 10
433.1473705287272
 20
261.9116701855613
 30
0.0
 10
432.121391600127
 20
261.4939860168614
 30
0.0
 10
431.0677737835265
 20
261.2307282262616
 30
0.0
 10
430.0281527596271
 20
261.1315229918612
 30
0.0
 10
429.0438754826273
 20
261.1990019896615
 30
0.0
 10
428.1539564442272
 20
261.4284261246615
 30
0.0
 10
427.3924962575263
 20
261.8087681367613
 30
0.0
 10
426.7872752311268
 20
262.3233223938612
 30
0.0
 10
426.4988115328268
 20
262.7482907714614
 30
0.0
 10
426.3900405074272
 20
262.9699428166611
 30
0.0
  0
SPLINE
  5
11EC3
330
1F
100
AcDbEntity
  8
0
100
AcDbSpline
210
0.0
220
0.0
230
1.0
 70
     8
 71
     3
 72
    23
 73
    19
 74
     0
 42
0.0000000001
 43
0.0000000001
 40
0.0
 40
0.0
 40
0.0
 40
0.0
 40
0.0493521631
 40
0.1011580201
 40
0.1571423227
 40
0.2180273342
 40
0.2836816316
 40
0.3533634404999999
 40
0.425929894
 40
0.4999962469
 40
0.5740629091000004
 40
0.6466302274000002
 40
0.7163133590000001
 40
0.7819691540000001
 40
0.8428556615999999
 40
0.8988410176999998
 40
0.9506476905999999
 40
1.0
 40
1.0
 40
1.0
 40
1.0
 10
433.0557064985268
 20
256.9374444216613
 30
0.0
 10
433.164477201427
 20
256.7157930335614
 30
0.0
 10
433.3241224877265
 20
256.2276149154612
 30
0.0
 10
433.3608225185271
 20
255.4340816449615
 30
0.0
 10
433.195779716727
 20
254.5990887328615
 30
0.0
 10
432.8327717325271
 20
253.7548263403613
 30
0.0
 10
432.2839435811265
 20
252.9350095434614
 30
0.0
 10
431.5694105944266
 20
252.1733945173612
 30
0.0
 10
430.7165487134271
 20
251.5010743395613
 30
0.0
 10
429.7584420010271
 20
250.9450934507616
 30
0.0
 10
428.732463072427
 20
250.5274092820612
 30
0.0
 10
427.6788452558267
 20
250.2641514914615
 30
0.0
 10
426.6392242319271
 20
250.1649462570616
 30
0.0
 10
425.6549469549272
 20
250.2324252548613
 30
0.0
 10
424.7650279165273
 20
250.4618493898614
 30
0.0
 10
424.0035677298265
 20
250.8421914020612
 30
0.0
 10
423.3983467034268
 20
251.3567456590616
 30
0.0
 10
423.1098830051267
 20
251.7817140366613
 30
0.0
 10
423.0011119798273
 20
252.0033660818616
 30
0.0
  0
SPLINE
  5
11EC4
330
1F
100
AcDbEntity
  8
0
100
AcDbSpline
210
0.0
220
0.0
230
1.0
 70
     8
 71
     3
 72
     9
 73
     5
 74
     0
 42
0.0000000001
 43
0.0000000001
 40
0.0
 40
0.0
 40
0.0
 40
0.0
 40
0.4930234598
 40
1.0
 40
1.0
 40
1.0
 40
1.0
 10
433.9803630562273
 20
257.7770959581615
 30
0.0
 10
433.8509073447267
 20
258.0408640654612
 30
0.0
 10
433.5196319321267
 20
258.5446408849614
 30
0.0
 10
433.0769213546273
 20
258.9526356233612
 30
0.0
 10
432.8337733967273
 20
259.1319878147613
 30
0.0
  0
SPLINE
  5
11EC5
330
1F
100
AcDbEntity
  8
0
100
AcDbSpline
210
0.0
220
0.0
230
1.0
 70
     8
 71
     3
 72
    11
 73
     7
 74
     0
 42
0.0000000001
 43
0.0000000001
 40
0.0
 40
0.0
 40
0.0
 40
0.0
 40
0.2438039577
 40
0.4902072187
 40
0.7416811409000001
 40
1.0
 40
1.0
 40
1.0
 40
1.0
 10
437.3694077577265
 20
268.7434207299614
 30
0.0
 10
437.291384105627
 20
268.9024133007613
 30
0.0
 10
437.1101258064271
 20
269.2107557556613
 30
0.0
 10
436.7699433395272
 20
269.6309624005615
 30
0.0
 10
436.3651504617273
 20
270.0049259772612
 30
0.0
 10
436.0602669581266
 20
270.2173808738615
 30
0.0
 10
435.8997998142267
 20
270.3146567519614
 30
0.0
  0
SPLINE
  5
11EC6
330
1F
100
AcDbEntity
  8
0
100
AcDbSpline
210
0.0
220
0.0
230
1.0
 70
     8
 71
     3
 72
    11
 73
     7
 74
     0
 42
0.0000000001
 43
0.0000000001
 40
0.0
 40
0.0
 40
0.0
 40
0.0
 40
0.2194395057
 40
0.4815832321000002
 40
0.7531213238
 40
1.0
 40
1.0
 40
1.0
 40
1.0
 10
433.6721820062266
 20
269.7531061503612
 30
0.0
 10
433.6489420304268
 20
269.8004642417616
 30
0.0
 10
433.6158065337266
 20
269.9128572746616
 30
0.0
 10
433.5955016133266
 20
270.0932551496615
 30
0.0
 10
433.6019020788271
 20
270.2814205780613
 30
0.0
 10
433.6249830111273
 20
270.4047330514616
 30
0.0
 10
433.6425057688265
 20
270.4614367162615
 30
0.0
  0
SPLINE
  5
11EC7
330
1F
100
AcDbEntity
  8
0
100
AcDbSpline
210
0.0
220
0.0
230
1.0
 70
     8
 71
     3
 72
    11
 73
     7
 74
     0
 42
0.0000000001
 43
0.0000000001
 40
0.0
 40
0.0
 40
0.0
 40
0.0
 40
0.2194395057
 40
0.4815832321000002
 40
0.7531213238
 40
1.0
 40
1.0
 40
1.0
 40
1.0
 10
430.2832534785266
 20
258.7865294155616
 30
0.0
 10
430.2600135027269
 20
258.8338875069615
 30
0.0
 10
430.2268780060265
 20
258.9462805398615
 30
0.0
 10
430.2065730856265
 20
259.1266784149614
 30
0.0
 10
430.2129735511271
 20
259.3148438432616
 30
0.0
 10
430.2360544834272
 20
259.4381563166615
 30
0.0
 10
430.2535772411265
 20
259.4948599814614
 30
0.0
  0
SPLINE
  5
11EC8
330
1F
100
AcDbEntity
  8
0
100
AcDbSpline
210
0.0
220
0.0
230
1.0
 70
     8
 71
     3
 72
     9
 73
     5
 74
     0
 42
0.0000000001
 43
0.0000000001
 40
0.0
 40
0.0
 40
0.0
 40
0.0
 40
0.5067810968
 40
1.0
 40
1.0
 40
1.0
 40
1.0
 10
432.8337733967273
 20
259.1319878147613
 30
0.0
 10
432.7980261755262
 20
259.1583558850615
 30
0.0
 10
432.7329301430272
 20
259.2183754303613
 30
0.0
 10
432.6841892444271
 20
259.2924564375615
 30
0.0
 10
432.6651456978268
 20
259.3312673549615
 30
0.0
  0
SPLINE
  5
11EC9
330
1F
100
AcDbEntity
  8
0
100
AcDbSpline
210
0.0
220
0.0
230
1.0
 70
     8
 71
     3
 72
     9
 73
     5
 74
     0
 42
0.0000000001
 43
0.0000000001
 40
0.0
 40
0.0
 40
0.0
 40
0.0
 40
0.4736257607
 40
1.0
 40
1.0
 40
1.0
 40
1.0
 10
426.1943861933268
 20
259.7718080469615
 30
0.0
 10
426.1531188810265
 20
259.6382669752614
 30
0.0
 10
425.9889752373265
 20
259.3797149109613
 30
0.0
 10
425.7455556590266
 20
259.2021936038616
 30
0.0
 10
425.6069871361266
 20
259.1319878147613
 30
0.0
  0
SPLINE
  5
11ECA
330
1F
100
AcDbEntity
  8
0
100
AcDbSpline
210
0.0
220
0.0
230
1.0
 70
     8
 71
     3
 72
    11
 73
     7
 74
     0
 42
0.0000000001
 43
0.0000000001
 40
0.0
 40
0.0
 40
0.0
 40
0.0
 40
0.2438039577
 40
0.4902072187
 40
0.7416811409000001
 40
1.0
 40
1.0
 40
1.0
 40
1.0
 10
421.7712973816269
 20
251.7855764765617
 30
0.0
 10
421.8493210337273
 20
251.6265839057613
 30
0.0
 10
422.0305793329271
 20
251.3182414508613
 30
0.0
 10
422.3707617999271
 20
250.8980348059616
 30
0.0
 10
422.775554677627
 20
250.5240712292614
 30
0.0
 10
423.0804381812268
 20
250.3116163326616
 30
0.0
 10
423.2409053251267
 20
250.2143404545612
 30
0.0
  0
SPLINE
  5
11ECB
330
1F
100
AcDbEntity
  8
0
100
AcDbSpline
210
0.0
220
0.0
230
1.0
 70
     8
 71
     3
 72
     9
 73
     5
 74
     0
 42
0.0000000001
 43
0.0000000001
 40
0.0
 40
0.0
 40
0.0
 40
0.0
 40
0.5035131530000001
 40
1.0
 40
1.0
 40
1.0
 40
1.0
 10
434.3269047312269
 20
256.5811584378614
 30
0.0
 10
434.3033227348269
 20
256.7895872469615
 30
0.0
 10
434.2223433112266
 20
257.2005164808614
 30
0.0
 10
434.0714908940269
 20
257.5914215136616
 30
0.0
 10
433.9803630562273
 20
257.7770959581615
 30
0.0
  0
SPLINE
  5
11ECC
330
1F
100
AcDbEntity
  8
0
100
AcDbSpline
210
0.0
220
0.0
230
1.0
 70
     8
 71
     3
 72
     9
 73
     5
 74
     0
 42
0.0000000001
 43
0.0000000001
 40
0.0
 40
0.0
 40
0.0
 40
0.0
 40
0.4930234598
 40
1.0
 40
1.0
 40
1.0
 40
1.0
 10
425.160342083227
 20
262.7519012482615
 30
0.0
 10
425.2897977946267
 20
262.4881331410614
 30
0.0
 10
425.6210732073268
 20
261.9843563215616
 30
0.0
 10
426.063783784727
 20
261.5763615831614
 30
0.0
 10
426.306931742627
 20
261.3970093917613
 30
0.0
  0
SPLINE
  5
11ECD
330
1F
100
AcDbEntity
  8
0
100
AcDbSpline
210
0.0
220
0.0
230
1.0
 70
     8
 71
     3
 72
    11
 73
     7
 74
     0
 42
0.0000000001
 43
0.0000000001
 40
0.0
 40
0.0
 40
0.0
 40
0.0
 40
0.2269005514
 40
0.4650736562
 40
0.72208076
 40
1.0
 40
1.0
 40
1.0
 40
1.0
 10
423.9066770605266
 20
248.7396159605613
 30
0.0
 10
423.9326115910271
 20
248.6868757008613
 30
0.0
 10
424.0050222381269
 20
248.5872800851615
 30
0.0
 10
424.1599506833272
 20
248.4776286260615
 30
0.0
 10
424.3510505657267
 20
248.4108702012616
 30
0.0
 10
424.4902232708271
 20
248.3970959223614
 30
0.0
 10
424.5622100441269
 20
248.3970959223614
 30
0.0
  0
SPLINE
  5
11ECE
330
1F
100
AcDbEntity
  8
0
100
AcDbSpline
210
0.0
220
0.0
230
1.0
 70
     8
 71
     3
 72
     9
 73
     5
 74
     0
 42
0.0000000001
 43
0.0000000001
 40
0.0
 40
0.0
 40
0.0
 40
0.0
 40
0.5114837895000001
 40
1.0
 40
1.0
 40
1.0
 40
1.0
 10
429.6883322831272
 20
250.2143404545612
 30
0.0
 10
430.3934107866271
 20
250.5252688523613
 30
0.0
 10
431.7028369395266
 20
251.3034356815613
 30
0.0
 10
432.7800442035266
 20
252.3871492789615
 30
0.0
 10
433.2144526037271
 20
252.9812620338615
 30
0.0
  0
SPLINE
  5
11ECF
330
1F
100
AcDbEntity
  8
0
100
AcDbSpline
210
0.0
220
0.0
230
1.0
 70
     8
 71
     3
 72
     9
 73
     5
 74
     0
 42
0.0000000001
 43
0.0000000001
 40
0.0
 40
0.0
 40
0.0
 40
0.0
 40
0.494177308
 40
1.0
 40
1.0
 40
1.0
 40
1.0
 10
427.2438854961263
 20
248.3970959223614
 30
0.0
 10
427.4036579466273
 20
248.3970959223614
 30
0.0
 10
427.7282158188271
 20
248.4674028070616
 30
0.0
 10
428.0085390538268
 20
248.6433987439612
 30
0.0
 10
428.1279827760272
 20
248.7551024476614
 30
0.0
  0
SPLINE
  5
11ED0
330
1F
100
AcDbEntity
  8
0
100
AcDbSpline
210
0.0
220
0.0
230
1.0
 70
     8
 71
     3
 72
     9
 73
     5
 74
     0
 42
0.0000000001
 43
0.0000000001
 40
0.0
 40
0.0
 40
0.0
 40
0.0
 40
0.4825433450000002
 40
1.0
 40
1.0
 40
1.0
 40
1.0
 10
432.6651456978268
 20
259.3312673549615
 30
0.0
 10
432.6333095480268
 20
259.3961497113613
 30
0.0
 10
432.5960656704274
 20
259.5461877928613
 30
0.0
 10
432.6189311222267
 20
259.6977617736614
 30
0.0
 10
432.6418131513273
 20
259.7718080469615
 30
0.0
  0
SPLINE
  5
11ED1
330
1F
100
AcDbEntity
  8
0
100
AcDbSpline
210
0.0
220
0.0
230
1.0
 70
     8
 71
     3
 72
    11
 73
     7
 74
     0
 42
0.0000000001
 43
0.0000000001
 40
0.0
 40
0.0
 40
0.0
 40
0.0
 40
0.2576596392
 40
0.5089223007000001
 40
0.7556125863
 40
1.0
 40
1.0
 40
1.0
 40
1.0
 10
429.0010581039267
 20
238.3397462375613
 30
0.0
 10
428.8517986678271
 20
238.4356206186615
 30
0.0
 10
428.5682002047267
 20
238.6433020419616
 30
0.0
 10
428.1913633924268
 20
239.0041952451614
 30
0.0
 10
427.8732060397269
 20
239.4062408180614
 30
0.0
 10
427.7022583580261
 20
239.6995131443612
 30
0.0
 10
427.6281372284265
 20
239.8505685144613
 30
0.0
  0
SPLINE
  5
11ED2
330
1F
100
AcDbEntity
  8
0
100
AcDbSpline
210
0.0
220
0.0
230
1.0
 70
     8
 71
     3
 72
     9
 73
     5
 74
     0
 42
0.0000000001
 43
0.0000000001
 40
0.0
 40
0.0
 40
0.0
 40
0.0
 40
0.4922385038
 40
1.0
 40
1.0
 40
1.0
 40
1.0
 10
438.6237559137271
 20
240.4924047400612
 30
0.0
 10
438.208275497227
 20
240.0246607068614
 30
0.0
 10
437.2490302706274
 20
239.1730655654613
 30
0.0
 10
436.1356256703266
 20
238.5398255559615
 30
0.0
 10
435.5451361225266
 20
238.2794290637615
 30
0.0
  0
SPLINE
  5
11ED3
330
1F
100
AcDbEntity
  8
0
100
AcDbSpline
210
0.0
220
0.0
230
1.0
 70
     8
 71
     3
 72
     9
 73
     5
 74
     0
 42
0.0000000001
 43
0.0000000001
 40
0.0
 40
0.0
 40
0.0
 40
0.0
 40
0.5035131142
 40
1.0
 40
1.0
 40
1.0
 40
1.0
 10
440.1837085706265
 20
244.6462470470613
 30
0.0
 10
440.1601271239268
 20
244.8546709980613
 30
0.0
 10
440.0791507782265
 20
245.2655908438613
 30
0.0
 10
439.9283037872272
 20
245.6564874149615
 30
0.0
 10
439.8371796615264
 20
245.8421583469615
 30
0.0
  0
SPLINE
  5
11ED4
330
1F
100
AcDbEntity
  8
0
100
AcDbSpline
210
0.0
220
0.0
230
1.0
 70
     8
 71
     3
 72
     9
 73
     5
 74
     0
 42
0.0000000001
 43
0.0000000001
 40
0.0
 40
0.0
 40
0.0
 40
0.0
 40
0.5263742393000001
 40
1.0
 40
1.0
 40
1.0
 40
1.0
 10
439.3905218426271
 20
249.4620980009616
 30
0.0
 10
439.2519533197273
 20
249.3918922118613
 30
0.0
 10
439.0085337414266
 20
249.2143709047612
 30
0.0
 10
438.8443900977271
 20
248.9558188404615
 30
0.0
 10
438.8031227854271
 20
248.8222777687614
 30
0.0
  0
SPLINE
  5
11ED5
330
1F
100
AcDbEntity
  8
0
100
AcDbSpline
210
0.0
220
0.0
230
1.0
 70
     8
 71
     3
 72
     9
 73
     5
 74
     0
 42
0.0000000001
 43
0.0000000001
 40
0.0
 40
0.0
 40
0.0
 40
0.0
 40
0.5115262293000003
 40
1.0
 40
1.0
 40
1.0
 40
1.0
 10
439.3905218426271
 20
249.4620980009616
 30
0.0
 10
440.0017100108271
 20
249.7717566934614
 30
0.0
 10
441.134657231827
 20
250.5084404846614
 30
0.0
 10
442.0740050296271
 20
251.4847736207615
 30
0.0
 10
442.4601849707268
 20
252.0129273778614
 30
0.0
  0
SPLINE
  5
11ED6
330
1F
100
AcDbEntity
  8
0
100
AcDbSpline
210
0.0
220
0.0
230
1.0
 70
     8
 71
     3
 72
    13
 73
     9
 74
     0
 42
0.0000000001
 43
0.0000000001
 40
0.0
 40
0.0
 40
0.0
 40
0.0
 40
0.2852045524
 40
0.5499679511
 40
0.6717853504000001
 40
0.7862490850000004
 40
0.8947415968000001
 40
1.0
 40
1.0
 40
1.0
 40
1.0
 10
441.5398064617265
 20
249.0345814311616
 30
0.0
 10
441.6222338770266
 20
249.0785005657615
 30
0.0
 10
441.7706947330271
 20
249.1848712476615
 30
0.0
 10
441.9077432470266
 20
249.3624421190614
 30
0.0
 10
441.9688008211267
 20
249.5157802821612
 30
0.0
 10
441.9884357864266
 20
249.6279224085613
 30
0.0
 10
441.981624908527
 20
249.7362377753614
 30
0.0
 10
441.9592504359268
 20
249.8035825794612
 30
0.0
 10
441.9440657409268
 20
249.8345274511615
 30
0.0
  0
SPLINE
  5
11ED7
330
1F
100
AcDbEntity
  8
0
100
AcDbSpline
210
0.0
220
0.0
230
1.0
 70
     8
 71
     3
 72
    22
 73
    18
 74
     0
 42
0.0000000001
 43
0.0000000001
 40
0.0
 40
0.0
 40
0.0
 40
0.0
 40
0.0614182064
 40
0.1189587415
 40
0.1732755579
 40
0.2256689342
 40
0.2778925601
 40
0.3317407807
 40
0.3886221170000001
 40
0.4493102654
 40
0.5139111586000002
 40
0.5819591547
 40
0.65255853
 40
0.7245302432999999
 40
0.7965532348000001
 40
0.8673012561
 40
1.0
 40
1.0
 40
1.0
 40
1.0
 10
430.2535772411265
 20
259.4948599814614
 30
0.0
 10
430.5914243544266
 20
259.4449307315616
 30
0.0
 10
431.2394369170269
 20
259.2893848898614
 30
0.0
 10
432.1160407802271
 20
258.8710576670613
 30
0.0
 10
432.8313558522268
 20
258.2874679158615
 30
0.0
 10
433.351724549927
 20
257.5594703368614
 30
0.0
 10
433.6514109998269
 20
256.7189074650613
 30
0.0
 10
433.7182479383272
 20
255.8051488251615
 30
0.0
 10
433.5540349862267
 20
254.8577236881613
 30
0.0
 10
433.169731183827
 20
253.9131561635616
 30
0.0
 10
432.582679511127
 20
253.0058713491615
 30
0.0
 10
431.8162821265268
 20
252.1687929748612
 30
0.0
 10
430.8998408692268
 20
251.4326852079615
 30
0.0
 10
429.8684257650266
 20
250.8249904531616
 30
0.0
 10
428.7599880514271
 20
250.3684876135615
 30
0.0
 10
427.2725377465267
 20
249.9930424876614
 30
0.0
 10
426.1139251221266
 20
249.9628071560613
 30
0.0
 10
425.3862807210268
 20
250.0852406344614
 30
0.0
  0
SPLINE
  5
11ED8
330
1F
100
AcDbEntity
  8
0
100
AcDbSpline
210
0.0
220
0.0
230
1.0
 70
     8
 71
     3
 72
    17
 73
    13
 74
     0
 42
0.0000000001
 43
0.0000000001
 40
0.0
 40
0.0
 40
0.0
 40
0.0
 40
0.137233488
 40
0.277222692
 40
0.4159087005
 40
0.5494079094
 40
0.6747355047
 40
0.7904957542000001
 40
0.8451043634999999
 40
0.8978644704999998
 40
0.9492848052999999
 40
1.0
 40
1.0
 40
1.0
 40
1.0
 10
428.4411314905273
 20
258.7865294155616
 30
0.0
 10
427.9925291826266
 20
258.7204403834615
 30
0.0
 10
427.0976687075271
 20
258.4970794343615
 30
0.0
 10
425.8391493542267
 20
257.9283880066612
 30
0.0
 10
424.7103438648273
 20
257.1530794568614
 30
0.0
 10
423.7784041876266
 20
256.2155927736615
 30
0.0
 10
423.0986937340267
 20
255.1697420708613
 30
0.0
 10
422.7723412693267
 20
254.2354510483613
 30
0.0
 10
422.6847648910267
 20
253.5009176769616
 30
0.0
 10
422.7031572681271
 20
252.9742905036613
 30
0.0
 10
422.8046709454265
 20
252.4703313285616
 30
0.0
 10
422.9273000836265
 20
252.1538062712614
 30
0.0
 10
423.0011283688273
 20
252.0033741247615
 30
0.0
  0
SPLINE
  5
11ED9
330
1F
100
AcDbEntity
  8
0
100
AcDbSpline
210
0.0
220
0.0
230
1.0
 70
     8
 71
     3
 72
    22
 73
    18
 74
     0
 42
0.0000000001
 43
0.0000000001
 40
0.0
 40
0.0
 40
0.0
 40
0.0
 40
0.0614182064
 40
0.1189587415
 40
0.1732755579
 40
0.2256689342
 40
0.2778925601
 40
0.3317407807
 40
0.3886221170000001
 40
0.4493102654
 40
0.5139111586000002
 40
0.5819591547
 40
0.65255853
 40
0.7245302432999999
 40
0.7965532348000001
 40
0.8673012561
 40
1.0
 40
1.0
 40
1.0
 40
1.0
 10
433.6425057688265
 20
270.4614367162615
 30
0.0
 10
433.9803528821266
 20
270.4115074663612
 30
0.0
 10
434.628365444727
 20
270.2559616246615
 30
0.0
 10
435.5049693079272
 20
269.8376344018614
 30
0.0
 10
436.2202843799268
 20
269.2540446506612
 30
0.0
 10
436.740653077627
 20
268.5260470716615
 30
0.0
 10
437.0403395275268
 20
267.6854841998614
 30
0.0
 10
437.1071764660272
 20
266.7717255599612
 30
0.0
 10
436.9429635139267
 20
265.8243004229615
 30
0.0
 10
436.558659711427
 20
264.8797328983613
 30
0.0
 10
435.9716080388269
 20
263.9724480838616
 30
0.0
 10
435.2052106542268
 20
263.1353697096614
 30
0.0
 10
434.2887693969266
 20
262.3992619427616
 30
0.0
 10
433.2573542927263
 20
261.7915671878616
 30
0.0
 10
432.1489165791271
 20
261.3350643483617
 30
0.0
 10
430.6614662742267
 20
260.9596192224615
 30
0.0
 10
429.5028536498266
 20
260.9293838908614
 30
0.0
 10
428.7752092487271
 20
261.0518173692615
 30
0.0
  0
SPLINE
  5
11EDA
330
1F
100
AcDbEntity
  8
0
100
AcDbSpline
210
0.0
220
0.0
230
1.0
 70
     8
 71
     3
 72
    17
 73
    13
 74
     0
 42
0.0000000001
 43
0.0000000001
 40
0.0
 40
0.0
 40
0.0
 40
0.0
 40
0.137233488
 40
0.277222692
 40
0.4159087005
 40
0.5494079094
 40
0.6747355047
 40
0.7904957542000001
 40
0.8451043634999999
 40
0.8978644704999998
 40
0.9492848052999999
 40
1.0
 40
1.0
 40
1.0
 40
1.0
 10
431.8300600182274
 20
269.7531061503612
 30
0.0
 10
431.3814577103267
 20
269.6870171182616
 30
0.0
 10
430.4865972352271
 20
269.4636561691612
 30
0.0
 10
429.2280778819266
 20
268.8949647414613
 30
0.0
 10
428.0992723925272
 20
268.1196561916616
 30
0.0
 10
427.1673327153266
 20
267.1821695083616
 30
0.0
 10
426.4876222617266
 20
266.1363188056615
 30
0.0
 10
426.1612697970265
 20
265.2020277831614
 30
0.0
 10
426.073693418627
 20
264.4674944117613
 30
0.0
 10
426.0920857958272
 20
263.9408672384614
 30
0.0
 10
426.1935994731265
 20
263.4369080633613
 30
0.0
 10
426.3162286113265
 20
263.1203830059615
 30
0.0
 10
426.3900568965273
 20
262.9699508595611
 30
0.0
  0
SPLINE
  5
11EDB
330
1F
100
AcDbEntity
  8
0
100
AcDbSpline
210
0.0
220
0.0
230
1.0
 70
     8
 71
     3
 72
     9
 73
     5
 74
     0
 42
0.0000000001
 43
0.0000000001
 40
0.0
 40
0.0
 40
0.0
 40
0.0
 40
0.4736257607
 40
1.0
 40
1.0
 40
1.0
 40
1.0
 10
432.9463189460266
 20
260.7571891595615
 30
0.0
 10
432.9875862583267
 20
260.8907302312617
 30
0.0
 10
433.1517299021268
 20
261.1492822955614
 30
0.0
 10
433.3951494804266
 20
261.3268036026614
 30
0.0
 10
433.5337180033266
 20
261.3970093917613
 30
0.0
  0
SPLINE
  5
11EDC
330
1F
100
AcDbEntity
  8
0
100
AcDbSpline
210
0.0
220
0.0
230
1.0
 70
     8
 71
     3
 72
     9
 73
     5
 74
     0
 42
0.0000000001
 43
0.0000000001
 40
0.0
 40
0.0
 40
0.0
 40
0.0
 40
0.5067810968
 40
1.0
 40
1.0
 40
1.0
 40
1.0
 10
426.306931742627
 20
261.3970093917613
 30
0.0
 10
426.342678963827
 20
261.3706413214616
 30
0.0
 10
426.4077749963271
 20
261.3106217761613
 30
0.0
 10
426.4565158950271
 20
261.2365407689615
 30
0.0
 10
426.4755594415273
 20
261.1977298515615
 30
0.0
  0
SPLINE
  5
11EDD
330
1F
100
AcDbEntity
  8
0
100
AcDbSpline
210
0.0
220
0.0
230
1.0
 70
     8
 71
     3
 72
     9
 73
     5
 74
     0
 42
0.0000000001
 43
0.0000000001
 40
0.0
 40
0.0
 40
0.0
 40
0.0
 40
0.5058226920000001
 40
1.0
 40
1.0
 40
1.0
 40
1.0
 10
433.9847866154268
 20
236.8201910568612
 30
0.0
 10
433.8653428932266
 20
236.7084873531615
 30
0.0
 10
433.5850196582267
 20
236.5324914162614
 30
0.0
 10
433.260461786027
 20
236.4621845315613
 30
0.0
 10
433.100689335427
 20
236.4621845315613
 30
0.0
  0
SPLINE
  5
11EDE
330
1F
100
AcDbEntity
  8
0
100
AcDbSpline
210
0.0
220
0.0
230
1.0
 70
     8
 71
     3
 72
    11
 73
     7
 74
     0
 42
0.0000000001
 43
0.0000000001
 40
0.0
 40
0.0
 40
0.0
 40
0.0
 40
0.27791924
 40
0.5349263438000002
 40
0.7730994486000001
 40
1.0
 40
1.0
 40
1.0
 40
1.0
 10
430.4190138834265
 20
236.4621845315613
 30
0.0
 10
430.3470271102269
 20
236.4621845315613
 30
0.0
 10
430.2078544051274
 20
236.4759588104615
 30
0.0
 10
430.0167545226267
 20
236.5427172352614
 30
0.0
 10
429.8618260775262
 20
236.6523686943613
 30
0.0
 10
429.7894154303267
 20
236.7519643100616
 30
0.0
 10
429.7634808998274
 20
236.8047045697616
 30
0.0
  0
SPLINE
  5
11EDF
330
1F
100
AcDbEntity
  8
0
100
AcDbSpline
210
0.0
220
0.0
230
1.0
 70
     8
 71
     3
 72
    11
 73
     7
 74
     0
 42
0.0000000001
 43
0.0000000001
 40
0.0
 40
0.0
 40
0.0
 40
0.0
 40
0.2327138178
 40
0.4733922435000001
 40
0.7280956005000001
 40
1.0
 40
1.0
 40
1.0
 40
1.0
 10
433.0557009822268
 20
256.9374419146614
 30
0.0
 10
432.9376130540267
 20
257.1781269815613
 30
0.0
 10
432.6270922506274
 20
257.6362818538612
 30
0.0
 10
431.9820030527271
 20
258.1861435211616
 30
0.0
 10
431.1846695582271
 20
258.5847779430613
 30
0.0
 10
430.5924605143273
 20
258.7364132091614
 30
0.0
 10
430.2832534785266
 20
258.7865294155616
 30
0.0
  0
SPLINE
  5
11EE0
330
1F
100
AcDbEntity
  8
0
100
AcDbSpline
210
0.0
220
0.0
230
1.0
 70
     8
 71
     3
 72
     9
 73
     5
 74
     0
 42
0.0000000001
 43
0.0000000001
 40
0.0
 40
0.0
 40
0.0
 40
0.0
 40
0.2489929053
 40
1.0
 40
1.0
 40
1.0
 40
1.0
 10
439.1627690030269
 20
240.8598676525615
 30
0.0
 10
439.1208927571268
 20
240.8254875682613
 30
0.0
 10
438.9495335827269
 20
240.6913050337615
 30
0.0
 10
438.7661113265266
 20
240.5727017129614
 30
0.0
 10
438.6237639226265
 20
240.4924306568613
 30
0.0
  0
SPLINE
  5
11EE1
330
1F
100
AcDbEntity
  8
0
100
AcDbSpline
210
0.0
220
0.0
230
1.0
 70
     8
 71
     3
 72
     9
 73
     5
 74
     0
 42
0.0000000001
 43
0.0000000001
 40
0.0
 40
0.0
 40
0.0
 40
0.0
 40
0.2527603122
 40
1.0
 40
1.0
 40
1.0
 40
1.0
 10
443.4674930223271
 20
256.1667437680615
 30
0.0
 10
443.4878482914273
 20
256.1054682960616
 30
0.0
 10
443.564874692227
 20
255.8619033893613
 30
0.0
 10
443.6272787728267
 20
255.6136293204616
 30
0.0
 10
443.6641496582266
 20
255.4263407913616
 30
0.0
  0
SPLINE
  5
11EE2
330
1F
100
AcDbEntity
  8
0
100
AcDbSpline
210
0.0
220
0.0
230
1.0
 70
     8
 71
     3
 72
    11
 73
     7
 74
     0
 42
0.0000000001
 43
0.0000000001
 40
0.0
 40
0.0
 40
0.0
 40
0.0
 40
0.2468786762
 40
0.5184167679
 40
0.7805604943000001
 40
1.0
 40
1.0
 40
1.0
 40
1.0
 10
431.8003837808273
 20
270.4614367162615
 30
0.0
 10
431.7828610231272
 20
270.4047330514616
 30
0.0
 10
431.759780090827
 20
270.2814205780613
 30
0.0
 10
431.7533796253274
 20
270.0932551496615
 30
0.0
 10
431.7736845457265
 20
269.9128572746616
 30
0.0
 10
431.8068200424268
 20
269.8004642417616
 30
0.0
 10
431.8300600182274
 20
269.7531061503612
 30
0.0
  0
SPLINE
  5
11EE3
330
1F
100
AcDbEntity
  8
0
100
AcDbSpline
210
0.0
220
0.0
230
1.0
 70
     8
 71
     3
 72
    11
 73
     7
 74
     0
 42
0.0000000001
 43
0.0000000001
 40
0.0
 40
0.0
 40
0.0
 40
0.0
 40
0.2327138178
 40
0.4733922435000001
 40
0.7280956005000001
 40
1.0
 40
1.0
 40
1.0
 40
1.0
 10
436.4446295098268
 20
267.9040186494615
 30
0.0
 10
436.3265415817267
 20
268.1447037163614
 30
0.0
 10
436.0160207783273
 20
268.6028585886614
 30
0.0
 10
435.3709315804271
 20
269.1527202559612
 30
0.0
 10
434.5735980859272
 20
269.5513546778614
 30
0.0
 10
433.9813890420272
 20
269.7029899439615
 30
0.0
 10
433.6721820062266
 20
269.7531061503612
 30
0.0
  0
SPLINE
  5
11EE4
330
1F
100
AcDbEntity
  8
0
100
AcDbSpline
210
0.0
220
0.0
230
1.0
 70
     8
 71
     3
 72
     9
 73
     5
 74
     0
 42
0.0000000001
 43
0.0000000001
 40
0.0
 40
0.0
 40
0.0
 40
0.0
 40
0.5034626757
 40
1.0
 40
1.0
 40
1.0
 40
1.0
 10
437.7158332589268
 20
267.5477351726616
 30
0.0
 10
437.6922589020268
 20
267.7560964602615
 30
0.0
 10
437.6112787696263
 20
268.1669266016614
 30
0.0
 10
437.4605161033269
 20
268.5577648463612
 30
0.0
 10
437.3694077577265
 20
268.7434207299614
 30
0.0
  0
SPLINE
  5
11EE5
330
1F
100
AcDbEntity
  8
0
100
AcDbSpline
210
0.0
220
0.0
230
1.0
 70
     8
 71
     3
 72
     9
 73
     5
 74
     0
 42
0.0000000001
 43
0.0000000001
 40
0.0
 40
0.0
 40
0.0
 40
0.0
 40
0.5115253287
 40
1.0
 40
1.0
 40
1.0
 40
1.0
 10
433.5337180033266
 20
261.3970093917613
 30
0.0
 10
434.1449050950267
 20
261.7066675388613
 30
0.0
 10
435.277852398527
 20
262.4433510824613
 30
0.0
 10
436.2172004785271
 20
263.4196840380612
 30
0.0
 10
436.6033811314273
 20
263.9478387686616
 30
0.0
  0
SPLINE
  5
11EE6
330
1F
100
AcDbEntity
  8
0
100
AcDbSpline
210
0.0
220
0.0
230
1.0
 70
     8
 71
     3
 72
    11
 73
     7
 74
     0
 42
0.0000000001
 43
0.0000000001
 40
0.0
 40
0.0
 40
0.0
 40
0.0
 40
0.2468786762
 40
0.5184167679
 40
0.7805604943000001
 40
1.0
 40
1.0
 40
1.0
 40
1.0
 10
428.4114552531272
 20
259.4948599814614
 30
0.0
 10
428.3939324954268
 20
259.4381563166615
 30
0.0
 10
428.3708515631269
 20
259.3148438432616
 30
0.0
 10
428.3644510976273
 20
259.1266784149614
 30
0.0
 10
428.3847560180265
 20
258.9462805398615
 30
0.0
 10
428.4178915147268
 20
258.8338875069615
 30
0.0
 10
428.4411314905273
 20
258.7865294155616
 30
0.0
  0
SPLINE
  5
11EE7
330
1F
100
AcDbEntity
  8
0
100
AcDbSpline
210
0.0
220
0.0
230
1.0
 70
     8
 71
     3
 72
    23
 73
    19
 74
     0
 42
0.0000000001
 43
0.0000000001
 40
0.0
 40
0.0
 40
0.0
 40
0.0
 40
0.0616717992
 40
0.1198911905
 40
0.1751295845
 40
0.2283227104
 40
0.2807717489999999
 40
0.3339218048
 40
0.3890821949
 40
0.4472017873
 40
0.4775721907000002
 40
0.5088257568
 40
0.5738636045000001
 40
0.6420112470000002
 40
0.7126000150000003
 40
0.7847479370999999
 40
0.8574416226999998
 40
1.0
 40
1.0
 40
1.0
 40
1.0
 10
425.3862807210268
 20
250.0852406344614
 30
0.0
 10
425.0899212894273
 20
250.1351060852615
 30
0.0
 10
424.5200159610265
 20
250.2785619066616
 30
0.0
 10
423.7400288724264
 20
250.6376632375616
 30
0.0
 10
423.0829445380268
 20
251.1259021457616
 30
0.0
 10
422.5715690508267
 20
251.7298034544613
 30
0.0
 10
422.2246665968269
 20
252.4301159646614
 30
0.0
 10
422.0544437721271
 20
253.2023642137613
 30
0.0
 10
422.0647859547271
 20
254.0197455067612
 30
0.0
 10
422.2193522057266
 20
254.7074015701613
 30
0.0
 10
422.4241135578266
 20
255.2544372379614
 30
0.0
 10
422.6906012646268
 20
255.8119613042616
 30
0.0
 10
423.1259214547272
 20
256.4890362073614
 30
0.0
 10
423.7830304597273
 20
257.2378309073613
 30
0.0
 10
424.5621377678271
 20
257.9124822831616
 30
0.0
 10
425.4404174901273
 20
258.4931971872614
 30
0.0
 10
426.6979818364268
 20
259.1144462427613
 30
0.0
 10
427.7230546348273
 20
259.4016384112613
 30
0.0
 10
428.4114552531272
 20
259.4948599814614
 30
0.0
  0
SPLINE
  5
11EE8
330
1F
100
AcDbEntity
  8
0
100
AcDbSpline
210
0.0
220
0.0
230
1.0
 70
     8
 71
     3
 72
    23
 73
    19
 74
     0
 42
0.0000000001
 43
0.0000000001
 40
0.0
 40
0.0
 40
0.0
 40
0.0
 40
0.0616717992
 40
0.1198911905
 40
0.1751295845
 40
0.2283227104
 40
0.2807717489999999
 40
0.3339218048
 40
0.3890821949
 40
0.4472017873
 40
0.4775721907000002
 40
0.5088257568
 40
0.5738636045000001
 40
0.6420112470000002
 40
0.7126000150000003
 40
0.7847479370999999
 40
0.8574416226999998
 40
1.0
 40
1.0
 40
1.0
 40
1.0
 10
428.7752092487271
 20
261.0518173692615
 30
0.0
 10
428.4788498171264
 20
261.1016828200616
 30
0.0
 10
427.9089444886267
 20
261.2451386414611
 30
0.0
 10
427.1289574001266
 20
261.6042399723613
 30
0.0
 10
426.4718730657269
 20
262.0924788805613
 30
0.0
 10
425.9604975785268
 20
262.6963801892614
 30
0.0
 10
425.6135951245268
 20
263.3966926994615
 30
0.0
 10
425.4433722998273
 20
264.1689409485614
 30
0.0
 10
425.4537144824271
 20
264.9863222415614
 30
0.0
 10
425.6082807334268
 20
265.6739783049614
 30
0.0
 10
425.8130420855268
 20
266.2210139727616
 30
0.0
 10
426.0795297923269
 20
266.7785380390613
 30
0.0
 10
426.5148499823271
 20
267.4556129421615
 30
0.0
 10
427.1719589874273
 20
268.2044076420614
 30
0.0
 10
427.9510662954272
 20
268.8790590179613
 30
0.0
 10
428.8293460178265
 20
269.4597739220615
 30
0.0
 10
430.0869103641271
 20
270.0810229775614
 30
0.0
 10
431.1119831625265
 20
270.3682151460615
 30
0.0
 10
431.8003837808273
 20
270.4614367162615
 30
0.0
  0
ELLIPSE
  5
11EE9
330
1F
100
AcDbEntity
  8
0
100
AcDbEllipse
 10
440.0924251934266
 20
239.3756487755616
 30
0.0
 11
0.2924104248
 21
1.499412346399998
 31
0.0
210
0.0
220
0.0
230
1.0
 40
0.143577346
 41
0.9279926640999999
 42
1.6598929916
  0
ELLIPSE
  5
11EEA
330
1F
100
AcDbEntity
  8
0
100
AcDbEllipse
 10
444.4738256471271
 20
253.5538658397616
 30
0.0
 11
0.2924104248
 21
1.499412346399998
 31
0.0
210
0.0
220
0.0
230
1.0
 40
0.143577346
 41
0.0284544141
 42
0.9279926640999999
  0
ENDSEC
  0
SECTION
  2
OBJECTS
  0
DICTIONARY
  5
C
330
0
100
AcDbDictionary
281
     1
  3
ACAD_COLOR
350
4FFE
  3
ACAD_GROUP
350
D
  3
ACAD_LAYOUT
350
1A
  3
ACAD_MATERIAL
350
4FE5
  3
ACAD_MLEADERSTYLE
350
5022
  3
ACAD_MLINESTYLE
350
17
  3
ACAD_PLOTSETTINGS
350
19
  3
ACAD_PLOTSTYLENAME
350
E
  3
ACAD_RENDER_PLOT_SETTINGS
350
6537
  3
ACAD_SCALELIST
350
5000
  3
ACAD_TABLESTYLE
350
4FE3
  3
ACAD_VISUALSTYLE
350
2A
  3
ACDB_RECOMPOSE_DATA
350
50EC
  3
AcDbVariableDictionary
350
5108
  3
ASE_INDEX_DICTIONARY
350
11F2A
  3
DWGPROPS
350
1253B
  0
DICTIONARY
  5
50EE
330
8
100
AcDbDictionary
280
     1
281
     1
  0
DICTIONARY
  5
50B8
330
2
100
AcDbDictionary
280
     1
281
     1
  3
ACAD_LAYERFILTERS
360
120EB
  3
ACAD_LAYERSTATES
360
50B9
  3
ACLYDICTIONARY
360
120EA
  0
DICTIONARY
  5
50D0
330
10
100
AcDbDictionary
280
     1
281
     1
  3
ADSK_XREC_LAYER_RECONCILED
360
50D1
  0
DICTIONARY
  5
50D2
330
3B
100
AcDbDictionary
280
     1
281
     1
  3
ADSK_XREC_LAYER_RECONCILED
360
50D3
  0
DICTIONARY
  5
50AF
330
50AE
100
AcDbDictionary
280
     1
281
     1
  3
ADSK_XREC_LAYER_RECONCILED
360
50D4
  0
DICTIONARY
  5
67C0
330
1F
100
AcDbDictionary
280
     1
281
     1
  3
ACAD_SORTENTS
360
67C1
  0
DICTIONARY
  5
12512
330
10FE8
100
AcDbDictionary
280
     1
281
     1
  0
DICTIONARY
  5
12523
330
1247D
100
AcDbDictionary
280
     1
281
     1
  3
ACAD_MTEXT_2008_RT
360
12524
  3
ACAD_MTEXT_RT
360
1255D
  0
DICTIONARY
  5
12525
330
124C1
100
AcDbDictionary
280
     1
281
     1
  3
ACAD_MTEXT_2008_RT
360
12526
  3
ACAD_MTEXT_RT
360
1255E
  0
DICTIONARY
  5
12527
330
124C2
100
AcDbDictionary
280
     1
281
     1
  3
ACAD_MTEXT_2008_RT
360
12528
  3
ACAD_MTEXT_RT
360
1255F
  0
DICTIONARY
  5
12529
330
124E7
100
AcDbDictionary
280
     1
281
     1
  3
ACAD_MTEXT_2008_RT
360
1252A
  3
ACAD_MTEXT_RT
360
12560
  0
DICTIONARY
  5
1252B
330
124EA
100
AcDbDictionary
280
     1
281
     1
  3
ACAD_MTEXT_2008_RT
360
1252C
  3
ACAD_MTEXT_RT
360
12561
  0
DICTIONARY
  5
1252D
330
124EB
100
AcDbDictionary
280
     1
281
     1
  3
ACAD_MTEXT_2008_RT
360
1252E
  3
ACAD_MTEXT_RT
360
12562
  0
DICTIONARY
  5
1252F
330
124F5
100
AcDbDictionary
280
     1
281
     1
  3
ACAD_MTEXT_2008_RT
360
12530
  3
ACAD_MTEXT_RT
360
12563
  0
DICTIONARY
  5
12531
330
124F6
100
AcDbDictionary
280
     1
281
     1
  3
ACAD_MTEXT_2008_RT
360
12532
  3
ACAD_MTEXT_RT
360
12564
  0
DICTIONARY
  5
12533
330
124F7
100
AcDbDictionary
280
     1
281
     1
  3
ACAD_MTEXT_2008_RT
360
12534
  3
ACAD_MTEXT_RT
360
12565
  0
DICTIONARY
  5
12535
330
12505
100
AcDbDictionary
280
     1
281
     1
  3
ACAD_MTEXT_2008_RT
360
12536
  3
ACAD_MTEXT_RT
360
12566
  0
DICTIONARY
  5
12537
330
12506
100
AcDbDictionary
280
     1
281
     1
  3
ACAD_MTEXT_2008_RT
360
12538
  3
ACAD_MTEXT_RT
360
12567
  0
DICTIONARY
  5
12539
330
12507
100
AcDbDictionary
280
     1
281
     1
  3
ACAD_MTEXT_2008_RT
360
1253A
  3
ACAD_MTEXT_RT
360
12568
  0
DICTIONARY
  5
1251F
330
6E00
100
AcDbDictionary
280
     1
281
     1
  3
ACAD_MTEXT_2008_RT
360
12520
  3
ACAD_MTEXT_RT
360
12543
  0
DICTIONARY
  5
12521
330
7228
100
AcDbDictionary
280
     1
281
     1
  3
ACAD_MTEXT_2008_RT
360
12522
  3
ACAD_MTEXT_RT
360
12544
  0
DICTIONARY
  5
4FFE
102
{ACAD_REACTORS
330
C
102
}
330
C
100
AcDbDictionary
281
     1
  0
DICTIONARY
  5
D
102
{ACAD_REACTORS
330
C
102
}
330
C
100
AcDbDictionary
281
     1
  0
DICTIONARY
  5
1A
102
{ACAD_REACTORS
330
C
102
}
330
C
100
AcDbDictionary
281
     1
  3
Layout1
350
1E
  3
Layout2
350
26
  3
Model
350
22
  0
DICTIONARY
  5
4FE5
102
{ACAD_REACTORS
330
C
102
}
330
C
100
AcDbDictionary
281
     1
  3
ByBlock
350
4FEE
  3
ByLayer
350
4FE6
  3
Global
350
4FF6
  0
DICTIONARY
  5
5022
102
{ACAD_REACTORS
330
C
102
}
330
C
100
AcDbDictionary
281
     1
  3
Standard
350
5023
  0
DICTIONARY
  5
17
102
{ACAD_REACTORS
330
C
102
}
330
C
100
AcDbDictionary
281
     1
  3
Standard
350
18
  0
DICTIONARY
  5
19
102
{ACAD_REACTORS
330
C
102
}
330
C
100
AcDbDictionary
281
     1
  0
ACDBDICTIONARYWDFLT
  5
E
102
{ACAD_REACTORS
330
C
102
}
330
C
100
AcDbDictionary
281
     1
  3
Normal
350
F
100
AcDbDictionaryWithDefault
340
F
  0
DICTIONARY
  5
6537
102
{ACAD_REACTORS
330
C
102
}
330
C
100
AcDbDictionary
281
     1
  3
{1DC63513-1B1A-422F-9880-65CFD2B8D533}
350
6538
  0
DICTIONARY
  5
5000
102
{ACAD_REACTORS
330
C
102
}
330
C
100
AcDbDictionary
281
     1
  3
A0
350
5001
  3
A1
350
5002
  3
A2
350
5003
  3
A3
350
5004
  3
A4
350
5005
  3
A5
350
5006
  3
A6
350
5007
  3
A7
350
5008
  3
A8
350
5009
  3
A9
350
500A
  3
B0
350
500B
  3
B1
350
500C
  3
B2
350
500D
  3
B3
350
500E
  3
B4
350
500F
  3
B5
350
5010
  3
B6
350
5011
  3
B7
350
5012
  3
B8
350
5013
  3
B9
350
5014
  3
C0
350
5015
  3
C1
350
5016
  3
C2
350
5017
  3
C3
350
5018
  3
C4
350
5019
  3
C5
350
501A
  3
C6
350
501B
  3
C7
350
501C
  3
C8
350
501D
  3
C9
350
501E
  3
D0
350
501F
  3
D1
350
5020
  3
D2
350
5021
  0
DICTIONARY
  5
4FE3
102
{ACAD_REACTORS
330
C
102
}
330
C
100
AcDbDictionary
281
     1
  3
Standard
350
4FFF
  0
DICTIONARY
  5
2A
102
{ACAD_REACTORS
330
C
102
}
330
C
100
AcDbDictionary
281
     1
  3
2dWireframe
350
2F
  3
3D Hidden
350
31
  3
3dWireframe
350
30
  3
Basic
350
32
  3
Brighten
350
36
  3
ColorChange
350
3A
  3
Conceptual
350
34
  3
Dim
350
35
  3
Facepattern
350
39
  3
Flat
350
2B
  3
FlatWithEdges
350
2C
  3
Gouraud
350
2D
  3
GouraudWithEdges
350
2E
  3
Linepattern
350
38
  3
Realistic
350
33
  3
Thicken
350
37
  0
XRECORD
  5
50EC
102
{ACAD_REACTORS
330
C
102
}
330
C
100
AcDbXrecord
280
     1
 90
        1
330
4FFF
330
6E00
330
7228
330
1247D
330
124C1
330
124C2
330
124E7
330
124EA
330
124EB
330
124F5
330
124F6
330
124F7
330
12505
330
12506
330
12507
  0
DICTIONARY
  5
5108
102
{ACAD_REACTORS
330
C
102
}
330
C
100
AcDbDictionary
281
     1
  3
CANNOSCALE
350
510B
  3
CMLEADERSTYLE
350
510A
  3
CTABLESTYLE
350
5109
  3
DIMASSOC
350
510E
  3
INDEXCTL
350
510D
  3
SORTENTS
350
510C
  0
DICTIONARY
  5
11F2A
102
{ACAD_REACTORS
330
C
102
}
330
C
100
AcDbDictionary
281
     1
  3
ASEBlockHierarchyIndexRecord
350
11F2B
1001
DCO15
1040
1901167174.859
  0
XRECORD
  5
1253B
102
{ACAD_REACTORS
330
C
102
}
330
C
100
AcDbXrecord
280
     1
  1
DWGPROPS COOKIE
  2

  3

  4

  6

  7

  8
yl.gao
  9

300
=
301
=
302
=
303
=
304
=
305
=
306
=
307
=
308
=
309
=
 40
0.9381765972222222
 41
2456524.383632987
 42
2460316.70508845
  1

 90
        0
  0
DICTIONARY
  5
120EB
102
{ACAD_REACTORS
330
50B8
102
}
330
50B8
100
AcDbDictionary
281
     1
  0
DICTIONARY
  5
50B9
102
{ACAD_REACTORS
330
50B8
102
}
330
50B8
100
AcDbDictionary
281
     1
  0
DICTIONARY
  5
120EA
102
{ACAD_REACTORS
330
50B8
102
}
330
50B8
100
AcDbDictionary
281
     1
1001
ACAD
1000
<All
  0
XRECORD
  5
50D1
102
{ACAD_REACTORS
330
50D0
102
}
330
50D0
100
AcDbXrecord
280
     1
290
     1
  0
XRECORD
  5
50D3
102
{ACAD_REACTORS
330
50D2
102
}
330
50D2
100
AcDbXrecord
280
     1
290
     1
  0
XRECORD
  5
50D4
102
{ACAD_REACTORS
330
50AF
102
}
330
50AF
100
AcDbXrecord
280
     1
290
     1
  0
SORTENTSTABLE
  5
67C1
102
{ACAD_REACTORS
330
67C0
102
}
330
67C0
100
AcDbSortentsTable
330
1F
331
3895
  5
3943
331
35C8
  5
35D8
331
65A0
  5
65A1
331
2FDE
  5
35C8
331
3943
  5
4842
331
3807
  5
3895
331
28AE
  5
2A38
331
2F93
  5
2FDE
331
7228
  5
99F4
331
65A3
  5
65A4
331
2C65
  5
2EE7
331
4842
  5
4E94
331
65A1
  5
65A2
331
2EE7
  5
2F93
331
65B2
  5
65B3
331
35D8
  5
3807
331
6E00
  5
99F3
331
65A4
  5
65A5
  0
XRECORD
  5
12524
102
{ACAD_REACTORS
330
12523
102
}
330
12523
100
AcDbXrecord
280
     1
 40
1527.0
  1
\pxqc;BQ LUO
  0
XRECORD
  5
1255D
102
{ACAD_REACTORS
330
12523
102
}
330
12523
100
AcDbXrecord
280
     1
 40
1527.0
  1
\pxqc;BQ LUO
  0
XRECORD
  5
12526
102
{ACAD_REACTORS
330
12525
102
}
330
12525
100
AcDbXrecord
280
     1
 40
1262561.0
  1
\pxqc;档案员{\H0.7x;\P\Fromans|c134;Filing Clerk\fFangSong_GB2312|b0|i0|c134|p49; }
  0
XRECORD
  5
1255E
102
{ACAD_REACTORS
330
12525
102
}
330
12525
100
AcDbXrecord
280
     1
 40
448513.0
  1
\pxqc;档案员{\H0.7x;\P\Fromans|c134;Filing Clerk\fFangSong_GB2312|b0|i0|c134|p49; }
  0
XRECORD
  5
12528
102
{ACAD_REACTORS
330
12527
102
}
330
12527
100
AcDbXrecord
280
     1
 40
650528.0
  1
\pxqc;日期{\Fromans|c134;/Date}
  0
XRECORD
  5
1255F
102
{ACAD_REACTORS
330
12527
102
}
330
12527
100
AcDbXrecord
280
     1
 40
58584.0
  1
\pxqc;日期{\Fromans|c134;/Date}
  0
XRECORD
  5
1252A
102
{ACAD_REACTORS
330
12529
102
}
330
12529
100
AcDbXrecord
280
     1
 40
2318748.0
  1
\pxsm0.7;{\f仿宋_GB2312|b0|i0|c134|p49;标准化}\PStand.
  0
XRECORD
  5
12560
102
{ACAD_REACTORS
330
12529
102
}
330
12529
100
AcDbXrecord
280
     1
 40
55334.0
  1
\pxsm0.7;{\f仿宋_GB2312|b0|i0|c134|p49;标准化}\PStand.
  0
XRECORD
  5
1252C
102
{ACAD_REACTORS
330
1252B
102
}
330
1252B
100
AcDbXrecord
280
     1
 40
118135.0
  1
\pxsm0.7;签名\P{\Fromans|c134;Signature} 
  0
XRECORD
  5
12561
102
{ACAD_REACTORS
330
1252B
102
}
330
1252B
100
AcDbXrecord
280
     1
 40
48353.0
  1
\pxsm0.7;签名\P{\Fromans|c134;Signature} 
  0
XRECORD
  5
1252E
102
{ACAD_REACTORS
330
1252D
102
}
330
1252D
100
AcDbXrecord
280
     1
 40
108939.0
  1
\pxsm0.7,qc;处数\P{\Fromans|c134;Number }
  0
XRECORD
  5
12562
102
{ACAD_REACTORS
330
1252D
102
}
330
1252D
100
AcDbXrecord
280
     1
 40
38427.0
  1
\pxsm0.7,qc;处数\P{\Fromans|c134;Number }
  0
XRECORD
  5
12530
102
{ACAD_REACTORS
330
1252F
102
}
330
1252F
100
AcDbXrecord
280
     1
 40
125762.0
  1
\pxsm0.7;标记\P{\Fromans|c134;Mark}
  0
XRECORD
  5
12563
102
{ACAD_REACTORS
330
1252F
102
}
330
1252F
100
AcDbXrecord
280
     1
 40
31190.0
  1
\pxsm0.7;标记\P{\Fromans|c134;Mark}
  0
XRECORD
  5
12532
102
{ACAD_REACTORS
330
12531
102
}
330
12531
100
AcDbXrecord
280
     1
 40
111973.0
  1
\pxsm0.7;审核\P{\Fromans|c134;Checked}
  0
XRECORD
  5
12564
102
{ACAD_REACTORS
330
12531
102
}
330
12531
100
AcDbXrecord
280
     1
 40
39355.0
  1
\pxsm0.7;审核\P{\Fromans|c134;Checked}
  0
XRECORD
  5
12534
102
{ACAD_REACTORS
330
12533
102
}
330
12533
100
AcDbXrecord
280
     1
 40
137968.0
  1
\pxsm0.7;绘图\P{\Fromans|c134;Drawn\Ftxt|c134; }
  0
XRECORD
  5
12565
102
{ACAD_REACTORS
330
12533
102
}
330
12533
100
AcDbXrecord
280
     1
 40
66730.0
  1
\pxsm0.7;绘图\P{\Fromans|c134;Drawn\Ftxt|c134; }
  0
XRECORD
  5
12536
102
{ACAD_REACTORS
330
12535
102
}
330
12535
100
AcDbXrecord
280
     1
 40
106320.0
  1
\pxsm0.7;批准\P{\Fromans|c134;Approved}
  0
XRECORD
  5
12566
102
{ACAD_REACTORS
330
12535
102
}
330
12535
100
AcDbXrecord
280
     1
 40
43787.0
  1
\pxsm0.7;批准\P{\Fromans|c134;Approved}
  0
XRECORD
  5
12538
102
{ACAD_REACTORS
330
12537
102
}
330
12537
100
AcDbXrecord
280
     1
 40
127283.0
  1
\pxsm0.7;工艺\P{\Fromans|c134;Process}
  0
XRECORD
  5
12567
102
{ACAD_REACTORS
330
12537
102
}
330
12537
100
AcDbXrecord
280
     1
 40
40691.0
  1
\pxsm0.7;工艺\P{\Fromans|c134;Process}
  0
XRECORD
  5
1253A
102
{ACAD_REACTORS
330
12539
102
}
330
12539
100
AcDbXrecord
280
     1
 40
106220.0
  1
\pxsm0.7;日期\P{\Fromans|c134;Date}
  0
XRECORD
  5
12568
102
{ACAD_REACTORS
330
12539
102
}
330
12539
100
AcDbXrecord
280
     1
 40
30977.0
  1
\pxsm0.7;日期\P{\Fromans|c134;Date}
  0
XRECORD
  5
12520
102
{ACAD_REACTORS
330
1251F
102
}
330
1251F
100
AcDbXrecord
280
     1
 40
3097516850.0
  1
\A1;\pxql;{\f仿宋_GB2312|b0|i0|c134|p49;技术参数}:\P{\f仿宋_GB2312|b0|i0|c134|p49;插芯：}\P- {\f仿宋_GB2312|b0|i0|c134|p49;插针数}: 2\P- {\f仿宋_GB2312|b0|i0|c134|p49;额定电流}: 70A\P- {\f仿宋_GB2312|b0|i0|c134|p49;额定电压}: 1000V\P- {\f仿宋_GB2312|b0|i0|c134|p49;额定脉冲电压}: 8kV\P-
  1
 {\f仿宋_GB2312|b0|i0|c134|p49;污染等级}: 3\P- {\f仿宋_GB2312|b0|i0|c134|p49;绝缘阻抗}: {\f仿宋_GB2312|b0|i0|c134|p49;≥}10{\H0.7x;\S10^ ;}Ω\P- {\f仿宋_GB2312|b0|i0|c134|p49;材料}: {\f仿宋_GB2312|b0|i0|c134|p49;聚碳酸酯}\P- {\f仿宋_GB2312|b0|i0|c134|p49;颜色}: RAL 7032{\f仿宋_GB231
  1
2|b0|i0|c134|p49;（浅灰色）}\P- {\f仿宋_GB2312|b0|i0|c134|p49;温度范围}: -40{\f仿宋_GB2312|b0|i0|c134|p49;℃} - +125{\f仿宋_GB2312|b0|i0|c134|p49;℃}\P- {\f仿宋_GB2312|b0|i0|c134|p49;依据}UL 94{\f仿宋_GB2312|b0|i0|c134|p49;的阻燃等级}: V0\P\pq*;- {\f仿宋_GB2312|b0|i0|c134|p49;可插拔
  1
次数}: {\f仿宋_GB2312|b0|i0|c134|p49;≥}500\P\pql;{\f仿宋_GB2312|b0|i0|c134|p49;插针：}\P- {\f仿宋_GB2312|b0|i0|c134|p49;接线方式}: {\f仿宋_GB2312|b0|i0|c134|p49;冷压连接}\P- {\f仿宋_GB2312|b0|i0|c134|p49;材料}: {\f仿宋_GB2312|b0|i0|c134|p49;铜合金}\P- {\f仿宋_GB2312|b0|i0|c134|p49;
  1
表面处理}: {\f仿宋_GB2312|b0|i0|c134|p49;镀银}\P- {\f仿宋_GB2312|b0|i0|c134|p49;接触电阻}: ≤0.5mΩ\P- {\f仿宋_GB2312|b0|i0|c134|p49;线径范围}: 10-25mm{\H0.7x;\S2^ ;}\P- {\f仿宋_GB2312|b0|i0|c134|p49;最大电缆直径}: 11mm\P- {\f仿宋_GB2312|b0|i0|c134|p49;剥线长度}: 15.5mm\P- {\f仿宋_GB2312|
  1
b0|i0|c134|p49;工具：冷压钳}-TL05
  0
XRECORD
  5
12543
102
{ACAD_REACTORS
330
1251F
102
}
330
1251F
100
AcDbXrecord
280
     1
 40
46690120.0
  1
\A1;\pxql;{\f仿宋_GB2312|b0|i0|c134|p49;技术参数}:\P{\f仿宋_GB2312|b0|i0|c134|p49;插芯：}\P- {\f仿宋_GB2312|b0|i0|c134|p49;插针数}: 2\P- {\f仿宋_GB2312|b0|i0|c134|p49;额定电流}: 70A\P- {\f仿宋_GB2312|b0|i0|c134|p49;额定电压}: 1000V\P- {\f仿宋_GB2312|b0|i0|c134|p49;额定脉冲电压}: 8kV\P-
  1
 {\f仿宋_GB2312|b0|i0|c134|p49;污染等级}: 3\P- {\f仿宋_GB2312|b0|i0|c134|p49;绝缘阻抗}: {\f仿宋_GB2312|b0|i0|c134|p49;≥}10{\H0.7x;\S10^ ;}Ω\P- {\f仿宋_GB2312|b0|i0|c134|p49;材料}: {\f仿宋_GB2312|b0|i0|c134|p49;聚碳酸酯}\P- {\f仿宋_GB2312|b0|i0|c134|p49;颜色}: RAL 7032{\f仿宋_GB231
  1
2|b0|i0|c134|p49;（浅灰色）}\P- {\f仿宋_GB2312|b0|i0|c134|p49;温度范围}: -40{\f仿宋_GB2312|b0|i0|c134|p49;℃} - +125{\f仿宋_GB2312|b0|i0|c134|p49;℃}\P- {\f仿宋_GB2312|b0|i0|c134|p49;依据}UL 94{\f仿宋_GB2312|b0|i0|c134|p49;的阻燃等级}: V0\P\pq*;- {\f仿宋_GB2312|b0|i0|c134|p49;可插拔
  1
次数}: {\f仿宋_GB2312|b0|i0|c134|p49;≥}500\P\pql;{\f仿宋_GB2312|b0|i0|c134|p49;插针：}\P- {\f仿宋_GB2312|b0|i0|c134|p49;接线方式}: {\f仿宋_GB2312|b0|i0|c134|p49;冷压连接}\P- {\f仿宋_GB2312|b0|i0|c134|p49;材料}: {\f仿宋_GB2312|b0|i0|c134|p49;铜合金}\P- {\f仿宋_GB2312|b0|i0|c134|p49;
  1
表面处理}: {\f仿宋_GB2312|b0|i0|c134|p49;镀银}\P- {\f仿宋_GB2312|b0|i0|c134|p49;接触电阻}: ≤0.5mΩ\P- {\f仿宋_GB2312|b0|i0|c134|p49;线径范围}: 10-25mm{\H0.7x;\S2^ ;}\P- {\f仿宋_GB2312|b0|i0|c134|p49;最大电缆直径}: 11mm\P- {\f仿宋_GB2312|b0|i0|c134|p49;剥线长度}: 15.5mm\P- {\f仿宋_GB2312|
  1
b0|i0|c134|p49;工具：冷压钳}-TL05
  0
XRECORD
  5
12522
102
{ACAD_REACTORS
330
12521
102
}
330
12521
100
AcDbXrecord
280
     1
 40
41674832.0
  1
\A1;\pxql;Technical specification:\PInsters:\P- No. of contact: 2\P- Rated current: 70A\P- Rated voltage: 1000V\P- Rated impulse voltage: 8kV\P- Pollution degree: 3\P- Insulation resistance: {\fFangSong_GB2312|b0|i0|c134|p49;≥}10{\H0.7x;\S10^ ;}Ω\P- M
  1
aterial: polycarbonate\P- Colour: RAL 7032(light grey) \P- Temperature range: -40{\fArial|b0|i0|c0|p34;℃} - +125{\fArial|b0|i0|c0|p34;℃}\P- Flammability acc.to UL 94: V0\P- Mating cycles: {\fFangSong_GB2312|b0|i0|c134|p49;≥}500\PContacts:\P- Terminal
  1
: crimp terminal\P- Material: copper alloy\P- Surface: hard-silver plated\P- Contact resistance: {\fFangSong_GB2312|b0|i0|c134|p49;≤}0.5mΩ\P- Wire gauge: 10-25mm{\H0.7x;\S2^ ;}\P- Max. insulation diameter: 11mm\P- Stripping length: 15.5mm\P- Tools: Cr
  1
imp contact tool-TL05
  0
XRECORD
  5
12544
102
{ACAD_REACTORS
330
12521
102
}
330
12521
100
AcDbXrecord
280
     1
 40
25129884.0
  1
\A1;\pxql;Technical specification:\PInsters:\P- No. of contact: 2\P- Rated current: 70A\P- Rated voltage: 1000V\P- Rated impulse voltage: 8kV\P- Pollution degree: 3\P- Insulation resistance: {\fFangSong_GB2312|b0|i0|c134|p49;≥}10{\H0.7x;\S10^ ;}Ω\P- M
  1
aterial: polycarbonate\P- Colour: RAL 7032(light grey) \P- Temperature range: -40{\fArial|b0|i0|c0|p34;℃} - +125{\fArial|b0|i0|c0|p34;℃}\P- Flammability acc.to UL 94: V0\P- Mating cycles: {\fFangSong_GB2312|b0|i0|c134|p49;≥}500\PContacts:\P- Terminal
  1
: crimp terminal\P- Material: copper alloy\P- Surface: hard-silver plated\P- Contact resistance: {\fFangSong_GB2312|b0|i0|c134|p49;≤}0.5mΩ\P- Wire gauge: 10-25mm{\H0.7x;\S2^ ;}\P- Max. insulation diameter: 11mm\P- Stripping length: 15.5mm\P- Tools: Cr
  1
imp contact tool-TL05
  0
LAYOUT
  5
1E
102
{ACAD_XDICTIONARY
360
1253C
102
}
102
{ACAD_REACTORS
330
1A
102
}
330
1A
100
AcDbPlotSettings
  1

  2
none_device
  4

  6

 40
0.0
 41
0.0
 42
0.0
 43
0.0
 44
0.0
 45
0.0
 46
0.0
 47
0.0
 48
0.0
 49
0.0
140
0.0
141
0.0
142
1.0
143
1.0
 70
   688
 72
     0
 73
     0
 74
     5
  7

 75
    16
147
1.0
148
0.0
149
0.0
100
AcDbLayout
  1
Layout1
 70
     1
 71
     1
 10
0.0
 20
0.0
 11
12.0
 21
9.0
 12
0.0
 22
0.0
 32
0.0
 14
1.000000000000000E+20
 24
1.000000000000000E+20
 34
1.000000000000000E+20
 15
-1.000000000000000E+20
 25
-1.000000000000000E+20
 35
-1.000000000000000E+20
146
0.0
 13
0.0
 23
0.0
 33
0.0
 16
1.0
 26
0.0
 36
0.0
 17
0.0
 27
1.0
 37
0.0
 76
     0
330
1B
  0
LAYOUT
  5
26
102
{ACAD_XDICTIONARY
360
12540
102
}
102
{ACAD_REACTORS
330
1A
102
}
330
1A
100
AcDbPlotSettings
  1

  2
none_device
  4

  6

 40
0.0
 41
0.0
 42
0.0
 43
0.0
 44
0.0
 45
0.0
 46
0.0
 47
0.0
 48
0.0
 49
0.0
140
0.0
141
0.0
142
1.0
143
1.0
 70
   688
 72
     0
 73
     0
 74
     5
  7

 75
    16
147
1.0
148
0.0
149
0.0
100
AcDbLayout
  1
Layout2
 70
     1
 71
     2
 10
0.0
 20
0.0
 11
0.0
 21
0.0
 12
0.0
 22
0.0
 32
0.0
 14
0.0
 24
0.0
 34
0.0
 15
0.0
 25
0.0
 35
0.0
146
0.0
 13
0.0
 23
0.0
 33
0.0
 16
1.0
 26
0.0
 36
0.0
 17
0.0
 27
1.0
 37
0.0
 76
     0
330
23
  0
LAYOUT
  5
22
102
{ACAD_XDICTIONARY
360
1253E
102
}
102
{ACAD_REACTORS
330
1A
102
}
330
1A
100
AcDbPlotSettings
  1

  2
Adobe PDF Converter.pc3
  4
A4
  6

 40
3.174999952316281
 41
3.174999952316281
 42
3.17498779296875
 43
3.175003051757812
 44
297.0318298339844
 45
209.9733276367186
 46
0.0000000000000076
 47
1.630241740247063
 48
246.9897427644609
 49
39.36804549891383
140
544.952097801264
141
244.7492402188181
142
1.0
143
1.025046328645055
 70
  3764
 72
     1
 73
     0
 74
     4
  7
monochrome.ctb
 75
     0
147
0.9755656618192436
148
-246.9897427644609
149
-39.36804549891383
100
AcDbLayout
  1
Model
 70
     1
 71
     0
 10
0.0
 20
0.0
 11
12.0
 21
9.0
 12
0.0
 22
0.0
 32
0.0
 14
1.000000000000000E+20
 24
1.000000000000000E+20
 34
1.000000000000000E+20
 15
-1.000000000000000E+20
 25
-1.000000000000000E+20
 35
-1.000000000000000E+20
146
0.0
 13
0.0
 23
0.0
 33
0.0
 16
1.0
 26
0.0
 36
0.0
 17
0.0
 27
1.0
 37
0.0
 76
     0
330
1F
331
29
1001
ACAD_PSEXT
1000
Adobe PDF Converter.pc3
1000
Adobe PDF Converter
1000
桌面\*.pdf
1000

1070
     0
  0
MATERIAL
  5
4FEE
102
{ACAD_XDICTIONARY
360
4FEF
102
}
102
{ACAD_REACTORS
330
4FE5
102
}
330
4FE5
100
AcDbMaterial
  1
ByBlock
 72
     0
 43
0.0208333333333333
 43
0.0
 43
0.0
 43
0.0
 43
0.0
 43
0.0208333333333333
 43
0.0
 43
0.0
 43
0.0
 43
0.0
 43
1.0
 43
0.0
 43
0.0
 43
0.0
 43
0.0
 43
1.0
 77
     0
 47
0.0208333333333333
 47
0.0
 47
0.0
 47
0.0
 47
0.0
 47
0.0208333333333333
 47
0.0
 47
0.0
 47
0.0
 47
0.0
 47
1.0
 47
0.0
 47
0.0
 47
0.0
 47
0.0
 47
1.0
171
     0
 49
0.0208333333333333
 49
0.0
 49
0.0
 49
0.0
 49
0.0
 49
0.0208333333333333
 49
0.0
 49
0.0
 49
0.0
 49
0.0
 49
1.0
 49
0.0
 49
0.0
 49
0.0
 49
0.0
 49
1.0
175
     0
142
0.0208333333333333
142
0.0
142
0.0
142
0.0
142
0.0
142
0.0208333333333333
142
0.0
142
0.0
142
0.0
142
0.0
142
1.0
142
0.0
142
0.0
142
0.0
142
0.0
142
1.0
179
     0
144
0.0208333333333333
144
0.0
144
0.0
144
0.0
144
0.0
144
0.0208333333333333
144
0.0
144
0.0
144
0.0
144
0.0
144
1.0
144
0.0
144
0.0
144
0.0
144
0.0
144
1.0
147
0.0208333333333333
147
0.0
147
0.0
147
0.0
147
0.0
147
0.0208333333333333
147
0.0
147
0.0
147
0.0
147
0.0
147
1.0
147
0.0
147
0.0
147
0.0
147
0.0
147
1.0
  0
MATERIAL
  5
4FE6
102
{ACAD_XDICTIONARY
360
4FE7
102
}
102
{ACAD_REACTORS
330
4FE5
102
}
330
4FE5
100
AcDbMaterial
  1
ByLayer
 72
     0
 43
0.0208333333333333
 43
0.0
 43
0.0
 43
0.0
 43
0.0
 43
0.0208333333333333
 43
0.0
 43
0.0
 43
0.0
 43
0.0
 43
1.0
 43
0.0
 43
0.0
 43
0.0
 43
0.0
 43
1.0
 77
     0
 47
0.0208333333333333
 47
0.0
 47
0.0
 47
0.0
 47
0.0
 47
0.0208333333333333
 47
0.0
 47
0.0
 47
0.0
 47
0.0
 47
1.0
 47
0.0
 47
0.0
 47
0.0
 47
0.0
 47
1.0
171
     0
 49
0.0208333333333333
 49
0.0
 49
0.0
 49
0.0
 49
0.0
 49
0.0208333333333333
 49
0.0
 49
0.0
 49
0.0
 49
0.0
 49
1.0
 49
0.0
 49
0.0
 49
0.0
 49
0.0
 49
1.0
175
     0
142
0.0208333333333333
142
0.0
142
0.0
142
0.0
142
0.0
142
0.0208333333333333
142
0.0
142
0.0
142
0.0
142
0.0
142
1.0
142
0.0
142
0.0
142
0.0
142
0.0
142
1.0
179
     0
144
0.0208333333333333
144
0.0
144
0.0
144
0.0
144
0.0
144
0.0208333333333333
144
0.0
144
0.0
144
0.0
144
0.0
144
1.0
144
0.0
144
0.0
144
0.0
144
0.0
144
1.0
147
0.0208333333333333
147
0.0
147
0.0
147
0.0
147
0.0
147
0.0208333333333333
147
0.0
147
0.0
147
0.0
147
0.0
147
1.0
147
0.0
147
0.0
147
0.0
147
0.0
147
1.0
  0
MATERIAL
  5
4FF6
102
{ACAD_XDICTIONARY
360
4FF7
102
}
102
{ACAD_REACTORS
330
4FE5
102
}
330
4FE5
100
AcDbMaterial
  1
Global
 72
     0
 43
0.0208333333333333
 43
0.0
 43
0.0
 43
0.0
 43
0.0
 43
0.0208333333333333
 43
0.0
 43
0.0
 43
0.0
 43
0.0
 43
1.0
 43
0.0
 43
0.0
 43
0.0
 43
0.0
 43
1.0
 77
     0
 47
0.0208333333333333
 47
0.0
 47
0.0
 47
0.0
 47
0.0
 47
0.0208333333333333
 47
0.0
 47
0.0
 47
0.0
 47
0.0
 47
1.0
 47
0.0
 47
0.0
 47
0.0
 47
0.0
 47
1.0
171
     0
 49
0.0208333333333333
 49
0.0
 49
0.0
 49
0.0
 49
0.0
 49
0.0208333333333333
 49
0.0
 49
0.0
 49
0.0
 49
0.0
 49
1.0
 49
0.0
 49
0.0
 49
0.0
 49
0.0
 49
1.0
175
     0
142
0.0208333333333333
142
0.0
142
0.0
142
0.0
142
0.0
142
0.0208333333333333
142
0.0
142
0.0
142
0.0
142
0.0
142
1.0
142
0.0
142
0.0
142
0.0
142
0.0
142
1.0
179
     0
144
0.0208333333333333
144
0.0
144
0.0
144
0.0
144
0.0
144
0.0208333333333333
144
0.0
144
0.0
144
0.0
144
0.0
144
1.0
144
0.0
144
0.0
144
0.0
144
0.0
144
1.0
147
0.0208333333333333
147
0.0
147
0.0
147
0.0
147
0.0
147
0.0208333333333333
147
0.0
147
0.0
147
0.0
147
0.0
147
1.0
147
0.0
147
0.0
147
0.0
147
0.0
147
1.0
  0
MLEADERSTYLE
  5
5023
102
{ACAD_REACTORS
330
5022
102
}
330
5022
100
AcDbMLeaderStyle
170
     2
171
     1
172
     0
 90
        2
 40
0.0
 41
0.0
173
     1
 91
-1056964608
340
14
 92
       -2
290
     1
 42
0.09
291
     1
 43
0.36
  3
Standard
 44
0.18
300

342
11
174
     1
178
     6
175
     1
176
     0
 93
-1056964608
 45
0.18
292
     0
297
     0
 46
0.18
 94
-1056964608
 47
1.0
 49
1.0
140
1.0
293
     1
141
0.0
294
     1
177
     0
142
1.0
295
     0
296
     0
143
0.125
1001
ACAD_MLEADERVER
1070
     2
  0
MLINESTYLE
  5
18
102
{ACAD_REACTORS
330
17
102
}
330
17
100
AcDbMlineStyle
  2
STANDARD
 70
     0
  3

 62
   256
 51
90.0
 52
90.0
 71
     2
 49
0.5
 62
   256
  6
BYLAYER
 49
-0.5
 62
   256
  6
BYLAYER
  0
ACDBPLACEHOLDER
  5
F
102
{ACAD_REACTORS
330
E
102
}
330
E
  0
MENTALRAYRENDERSETTINGS
  5
6538
102
{ACAD_REACTORS
330
6537
102
}
330
6537
100
AcDbRenderSettings
 90
        2
  1
中
290
     1
290
     1
290
     1
290
     1
  1

  1
渲染质量好于“低级”。包括纹理过滤并且强制双面处于激活状态。处理中等级反锯齿和 5 反射/折射的光线跟踪深度。
 90
        0
100
AcDbMentalRayRenderSettings
 90
        2
 90
        0
 90
        1
 70
     2
 40
3.0
 40
3.0
 40
0.0500000007450581
 40
0.0500000007450581
 40
0.0500000007450581
 40
0.0500000007450581
 70
     0
290
     0
290
     1
 90
        5
 90
        5
 90
        5
290
     0
 90
      500
290
     0
 40
1.0
 90
    10000
 90
        5
 90
        5
 90
        5
290
     0
 90
      200
290
     0
290
     0
290
     0
 40
0.1
 40
1.0
 40
1500.0
 70
     0
 70
     0
 40
10.0
 70
     0
 70
     0
290
     0
  1

 90
       32
 70
     0
 90
     1048
290
     0
 40
1.0
  0
SCALE
  5
5001
102
{ACAD_REACTORS
330
5000
102
}
330
5000
100
AcDbScale
 70
     0
300
1:1
140
1.0
141
1.0
290
     1
  0
SCALE
  5
5002
102
{ACAD_REACTORS
330
5000
102
}
330
5000
100
AcDbScale
 70
     0
300
1:2
140
1.0
141
2.0
290
     0
  0
SCALE
  5
5003
102
{ACAD_REACTORS
330
5000
102
}
330
5000
100
AcDbScale
 70
     0
300
1:4
140
1.0
141
4.0
290
     0
  0
SCALE
  5
5004
102
{ACAD_REACTORS
330
5000
102
}
330
5000
100
AcDbScale
 70
     0
300
1:5
140
1.0
141
5.0
290
     0
  0
SCALE
  5
5005
102
{ACAD_REACTORS
330
5000
102
}
330
5000
100
AcDbScale
 70
     0
300
1:8
140
1.0
141
8.0
290
     0
  0
SCALE
  5
5006
102
{ACAD_REACTORS
330
5000
102
}
330
5000
100
AcDbScale
 70
     0
300
1:10
140
1.0
141
10.0
290
     0
  0
SCALE
  5
5007
102
{ACAD_REACTORS
330
5000
102
}
330
5000
100
AcDbScale
 70
     0
300
1:16
140
1.0
141
16.0
290
     0
  0
SCALE
  5
5008
102
{ACAD_REACTORS
330
5000
102
}
330
5000
100
AcDbScale
 70
     0
300
1:20
140
1.0
141
20.0
290
     0
  0
SCALE
  5
5009
102
{ACAD_REACTORS
330
5000
102
}
330
5000
100
AcDbScale
 70
     0
300
1:30
140
1.0
141
30.0
290
     0
  0
SCALE
  5
500A
102
{ACAD_REACTORS
330
5000
102
}
330
5000
100
AcDbScale
 70
     0
300
1:40
140
1.0
141
40.0
290
     0
  0
SCALE
  5
500B
102
{ACAD_REACTORS
330
5000
102
}
330
5000
100
AcDbScale
 70
     0
300
1:50
140
1.0
141
50.0
290
     0
  0
SCALE
  5
500C
102
{ACAD_REACTORS
330
5000
102
}
330
5000
100
AcDbScale
 70
     0
300
1:100
140
1.0
141
100.0
290
     0
  0
SCALE
  5
500D
102
{ACAD_REACTORS
330
5000
102
}
330
5000
100
AcDbScale
 70
     0
300
2:1
140
2.0
141
1.0
290
     0
  0
SCALE
  5
500E
102
{ACAD_REACTORS
330
5000
102
}
330
5000
100
AcDbScale
 70
     0
300
4:1
140
4.0
141
1.0
290
     0
  0
SCALE
  5
500F
102
{ACAD_REACTORS
330
5000
102
}
330
5000
100
AcDbScale
 70
     0
300
8:1
140
8.0
141
1.0
290
     0
  0
SCALE
  5
5010
102
{ACAD_REACTORS
330
5000
102
}
330
5000
100
AcDbScale
 70
     0
300
10:1
140
10.0
141
1.0
290
     0
  0
SCALE
  5
5011
102
{ACAD_REACTORS
330
5000
102
}
330
5000
100
AcDbScale
 70
     0
300
100:1
140
100.0
141
1.0
290
     0
  0
SCALE
  5
5012
102
{ACAD_REACTORS
330
5000
102
}
330
5000
100
AcDbScale
 70
     0
300
1/128" = 1'-0"
140
0.0078125
141
12.0
290
     0
  0
SCALE
  5
5013
102
{ACAD_REACTORS
330
5000
102
}
330
5000
100
AcDbScale
 70
     0
300
1/64" = 1'-0"
140
0.015625
141
12.0
290
     0
  0
SCALE
  5
5014
102
{ACAD_REACTORS
330
5000
102
}
330
5000
100
AcDbScale
 70
     0
300
1/32" = 1'-0"
140
0.03125
141
12.0
290
     0
  0
SCALE
  5
5015
102
{ACAD_REACTORS
330
5000
102
}
330
5000
100
AcDbScale
 70
     0
300
1/16" = 1'-0"
140
0.0625
141
12.0
290
     0
  0
SCALE
  5
5016
102
{ACAD_REACTORS
330
5000
102
}
330
5000
100
AcDbScale
 70
     0
300
3/32" = 1'-0"
140
0.09375
141
12.0
290
     0
  0
SCALE
  5
5017
102
{ACAD_REACTORS
330
5000
102
}
330
5000
100
AcDbScale
 70
     0
300
1/8" = 1'-0"
140
0.125
141
12.0
290
     0
  0
SCALE
  5
5018
102
{ACAD_REACTORS
330
5000
102
}
330
5000
100
AcDbScale
 70
     0
300
3/16" = 1'-0"
140
0.1875
141
12.0
290
     0
  0
SCALE
  5
5019
102
{ACAD_REACTORS
330
5000
102
}
330
5000
100
AcDbScale
 70
     0
300
1/4" = 1'-0"
140
0.25
141
12.0
290
     0
  0
SCALE
  5
501A
102
{ACAD_REACTORS
330
5000
102
}
330
5000
100
AcDbScale
 70
     0
300
3/8" = 1'-0"
140
0.375
141
12.0
290
     0
  0
SCALE
  5
501B
102
{ACAD_REACTORS
330
5000
102
}
330
5000
100
AcDbScale
 70
     0
300
1/2" = 1'-0"
140
0.5
141
12.0
290
     0
  0
SCALE
  5
501C
102
{ACAD_REACTORS
330
5000
102
}
330
5000
100
AcDbScale
 70
     0
300
3/4" = 1'-0"
140
0.75
141
12.0
290
     0
  0
SCALE
  5
501D
102
{ACAD_REACTORS
330
5000
102
}
330
5000
100
AcDbScale
 70
     0
300
1" = 1'-0"
140
1.0
141
12.0
290
     0
  0
SCALE
  5
501E
102
{ACAD_REACTORS
330
5000
102
}
330
5000
100
AcDbScale
 70
     0
300
1-1/2" = 1'-0"
140
1.5
141
12.0
290
     0
  0
SCALE
  5
501F
102
{ACAD_REACTORS
330
5000
102
}
330
5000
100
AcDbScale
 70
     0
300
3" = 1'-0"
140
3.0
141
12.0
290
     0
  0
SCALE
  5
5020
102
{ACAD_REACTORS
330
5000
102
}
330
5000
100
AcDbScale
 70
     0
300
6" = 1'-0"
140
6.0
141
12.0
290
     0
  0
SCALE
  5
5021
102
{ACAD_REACTORS
330
5000
102
}
330
5000
100
AcDbScale
 70
     0
300
1'-0" = 1'-0"
140
12.0
141
12.0
290
     0
  0
TABLESTYLE
  5
4FFF
102
{ACAD_XDICTIONARY
360
50D6
102
}
102
{ACAD_REACTORS
330
4FE3
102
}
330
4FE3
100
AcDbTableStyle
  3
Standard
 70
     0
 71
     0
 40
0.06
 41
0.06
280
     0
281
     0
  7
Standard
140
0.18
170
     2
 62
     0
 63
     7
283
     0
274
    -2
284
     1
 64
     0
275
    -2
285
     1
 65
     0
276
    -2
286
     1
 66
     0
277
    -2
287
     1
 67
     0
278
    -2
288
     1
 68
     0
279
    -2
289
     1
 69
     0
  7
Standard
140
0.25
170
     5
 62
     0
 63
     7
283
     0
274
    -2
284
     1
 64
     0
275
    -2
285
     1
 65
     0
276
    -2
286
     1
 66
     0
277
    -2
287
     1
 67
     0
278
    -2
288
     1
 68
     0
279
    -2
289
     1
 69
     0
  7
Standard
140
0.18
170
     5
 62
     0
 63
     7
283
     0
274
    -2
284
     1
 64
     0
275
    -2
285
     1
 65
     0
276
    -2
286
     1
 66
     0
277
    -2
287
     1
 67
     0
278
    -2
288
     1
 68
     0
279
    -2
289
     1
 69
     0
  0
VISUALSTYLE
  5
2F
102
{ACAD_REACTORS
330
2A
102
}
330
2A
100
AcDbVisualStyle
  2
2dWireframe
 70
     4
 71
     0
 72
     2
 73
     0
 90
        0
 40
-0.6
 41
-30.0
 62
     5
 63
     7
 74
     1
 91
        4
 64
     7
 65
   257
 75
     1
175
     1
 42
1.0
 92
        0
 66
   257
 43
1.0
 76
     1
 77
     6
 78
     2
 67
     7
 79
     5
170
     0
171
     0
290
     0
174
     0
 93
        1
 44
0.0
173
     0
291
     0
 45
0.0
1001
ACAD
1000
AcDbSavedByObjectVersion
1070
     0
1000
AcDbSavedByObjectVersion
1070
     0
1000
AcDbSavedByObjectVersion
1070
     0
1000
AcDbSavedByObjectVersion
1070
     0
1000
AcDbSavedByObjectVersion
1070
     0
1000
AcDbSavedByObjectVersion
1070
     0
1000
AcDbSavedByObjectVersion
1070
     0
1000
AcDbSavedByObjectVersion
1070
     0
1000
AcDbSavedByObjectVersion
1070
     0
1000
AcDbSavedByObjectVersion
1070
     0
1000
AcDbSavedByObjectVersion
1070
     0
1000
AcDbSavedByObjectVersion
1070
     0
1000
AcDbSavedByObjectVersion
1070
     0
1000
AcDbSavedByObjectVersion
1070
     0
1000
AcDbSavedByObjectVersion
1070
     0
1000
AcDbSavedByObjectVersion
1070
     0
1000
AcDbSavedByObjectVersion
1070
     0
1000
AcDbSavedByObjectVersion
1070
     0
1000
AcDbSavedByObjectVersion
1070
     0
1000
AcDbSavedByObjectVersion
1070
     0
1000
AcDbSavedByObjectVersion
1070
     0
1000
AcDbSavedByObjectVersion
1070
     0
1000
AcDbSavedByObjectVersion
1070
     0
1000
AcDbSavedByObjectVersion
1070
     0
1000
AcDbSavedByObjectVersion
1070
     0
1000
AcDbSavedByObjectVersion
1070
     0
1000
AcDbSavedByObjectVersion
1070
     0
1000
AcDbSavedByObjectVersion
1070
     0
1000
AcDbSavedByObjectVersion
1070
     0
1000
AcDbSavedByObjectVersion
1070
     0
1000
AcDbSavedByObjectVersion
1070
     0
1000
AcDbSavedByObjectVersion
1070
     0
1000
AcDbSavedByObjectVersion
1070
     0
1000
AcDbSavedByObjectVersion
1070
     0
1000
AcDbSavedByObjectVersion
1070
     0
1000
AcDbSavedByObjectVersion
1070
     0
1000
AcDbSavedByObjectVersion
1070
     0
1000
AcDbSavedByObjectVersion
1070
     0
  0
VISUALSTYLE
  5
31
102
{ACAD_REACTORS
330
2A
102
}
330
2A
100
AcDbVisualStyle
  2
3D Hidden
 70
     6
 71
     1
 72
     2
 73
     2
 90
        0
 40
-0.6
 41
-30.0
 62
     5
 63
     7
 74
     2
 91
        2
 64
     7
 65
   257
 75
     2
175
     1
 42
40.0
 92
        0
 66
   257
 43
1.0
 76
     1
 77
     6
 78
     2
 67
     7
 79
     3
170
     0
171
     0
290
     0
174
     0
 93
        1
 44
0.0
173
     0
291
     0
 45
0.0
1001
ACAD
1000
AcDbSavedByObjectVersion
1070
     0
1000
AcDbSavedByObjectVersion
1070
     0
1000
AcDbSavedByObjectVersion
1070
     0
1000
AcDbSavedByObjectVersion
1070
     0
1000
AcDbSavedByObjectVersion
1070
     0
1000
AcDbSavedByObjectVersion
1070
     0
1000
AcDbSavedByObjectVersion
1070
     0
1000
AcDbSavedByObjectVersion
1070
     0
1000
AcDbSavedByObjectVersion
1070
     0
1000
AcDbSavedByObjectVersion
1070
     0
1000
AcDbSavedByObjectVersion
1070
     0
1000
AcDbSavedByObjectVersion
1070
     0
1000
AcDbSavedByObjectVersion
1070
     0
1000
AcDbSavedByObjectVersion
1070
     0
1000
AcDbSavedByObjectVersion
1070
     0
1000
AcDbSavedByObjectVersion
1070
     0
1000
AcDbSavedByObjectVersion
1070
     0
1000
AcDbSavedByObjectVersion
1070
     0
1000
AcDbSavedByObjectVersion
1070
     0
1000
AcDbSavedByObjectVersion
1070
     0
1000
AcDbSavedByObjectVersion
1070
     0
1000
AcDbSavedByObjectVersion
1070
     0
1000
AcDbSavedByObjectVersion
1070
     0
1000
AcDbSavedByObjectVersion
1070
     0
1000
AcDbSavedByObjectVersion
1070
     0
1000
AcDbSavedByObjectVersion
1070
     0
1000
AcDbSavedByObjectVersion
1070
     0
1000
AcDbSavedByObjectVersion
1070
     0
1000
AcDbSavedByObjectVersion
1070
     0
1000
AcDbSavedByObjectVersion
1070
     0
1000
AcDbSavedByObjectVersion
1070
     0
1000
AcDbSavedByObjectVersion
1070
     0
1000
AcDbSavedByObjectVersion
1070
     0
1000
AcDbSavedByObjectVersion
1070
     0
1000
AcDbSavedByObjectVersion
1070
     0
1000
AcDbSavedByObjectVersion
1070
     0
1000
AcDbSavedByObjectVersion
1070
     0
1000
AcDbSavedByObjectVersion
1070
     0
  0
VISUALSTYLE
  5
30
102
{ACAD_REACTORS
330
2A
102
}
330
2A
100
AcDbVisualStyle
  2
3dWireframe
 70
     5
 71
     0
 72
     2
 73
     0
 90
        0
 40
-0.6
 41
-30.0
 62
     5
 63
     7
 74
     1
 91
        4
 64
     7
 65
   257
 75
     1
175
     1
 42
1.0
 92
        0
 66
   257
 43
1.0
 76
     1
 77
     6
 78
     2
 67
     7
 79
     5
170
     0
171
     0
290
     0
174
     0
 93
        1
 44
0.0
173
     0
291
     0
 45
0.0
1001
ACAD
1000
AcDbSavedByObjectVersion
1070
     0
1000
AcDbSavedByObjectVersion
1070
     0
1000
AcDbSavedByObjectVersion
1070
     0
1000
AcDbSavedByObjectVersion
1070
     0
1000
AcDbSavedByObjectVersion
1070
     0
1000
AcDbSavedByObjectVersion
1070
     0
1000
AcDbSavedByObjectVersion
1070
     0
1000
AcDbSavedByObjectVersion
1070
     0
1000
AcDbSavedByObjectVersion
1070
     0
1000
AcDbSavedByObjectVersion
1070
     0
1000
AcDbSavedByObjectVersion
1070
     0
1000
AcDbSavedByObjectVersion
1070
     0
1000
AcDbSavedByObjectVersion
1070
     0
1000
AcDbSavedByObjectVersion
1070
     0
1000
AcDbSavedByObjectVersion
1070
     0
1000
AcDbSavedByObjectVersion
1070
     0
1000
AcDbSavedByObjectVersion
1070
     0
1000
AcDbSavedByObjectVersion
1070
     0
1000
AcDbSavedByObjectVersion
1070
     0
1000
AcDbSavedByObjectVersion
1070
     0
1000
AcDbSavedByObjectVersion
1070
     0
1000
AcDbSavedByObjectVersion
1070
     0
1000
AcDbSavedByObjectVersion
1070
     0
1000
AcDbSavedByObjectVersion
1070
     0
1000
AcDbSavedByObjectVersion
1070
     0
1000
AcDbSavedByObjectVersion
1070
     0
1000
AcDbSavedByObjectVersion
1070
     0
1000
AcDbSavedByObjectVersion
1070
     0
1000
AcDbSavedByObjectVersion
1070
     0
1000
AcDbSavedByObjectVersion
1070
     0
1000
AcDbSavedByObjectVersion
1070
     0
1000
AcDbSavedByObjectVersion
1070
     0
1000
AcDbSavedByObjectVersion
1070
     0
1000
AcDbSavedByObjectVersion
1070
     0
1000
AcDbSavedByObjectVersion
1070
     0
1000
AcDbSavedByObjectVersion
1070
     0
1000
AcDbSavedByObjectVersion
1070
     0
1000
AcDbSavedByObjectVersion
1070
     0
  0
VISUALSTYLE
  5
32
102
{ACAD_REACTORS
330
2A
102
}
330
2A
100
AcDbVisualStyle
  2
Basic
 70
     7
 71
     1
 72
     0
 73
     1
 90
        0
 40
-0.6
 41
-30.0
 62
     5
 63
     7
 74
     0
 91
        4
 64
     7
 65
   257
 75
     1
175
     1
 42
1.0
 92
        8
 66
     7
 43
1.0
 76
     1
 77
     6
 78
     2
 67
     7
 79
     5
170
     0
171
     0
290
     0
174
     0
 93
        1
 44
0.0
173
     0
291
     1
 45
0.0
1001
ACAD
1000
AcDbSavedByObjectVersion
1070
     0
1000
AcDbSavedByObjectVersion
1070
     0
1000
AcDbSavedByObjectVersion
1070
     0
1000
AcDbSavedByObjectVersion
1070
     0
1000
AcDbSavedByObjectVersion
1070
     0
1000
AcDbSavedByObjectVersion
1070
     0
1000
AcDbSavedByObjectVersion
1070
     0
1000
AcDbSavedByObjectVersion
1070
     0
1000
AcDbSavedByObjectVersion
1070
     0
1000
AcDbSavedByObjectVersion
1070
     0
1000
AcDbSavedByObjectVersion
1070
     0
1000
AcDbSavedByObjectVersion
1070
     0
1000
AcDbSavedByObjectVersion
1070
     0
1000
AcDbSavedByObjectVersion
1070
     0
1000
AcDbSavedByObjectVersion
1070
     0
1000
AcDbSavedByObjectVersion
1070
     0
1000
AcDbSavedByObjectVersion
1070
     0
1000
AcDbSavedByObjectVersion
1070
     0
1000
AcDbSavedByObjectVersion
1070
     0
1000
AcDbSavedByObjectVersion
1070
     0
1000
AcDbSavedByObjectVersion
1070
     0
1000
AcDbSavedByObjectVersion
1070
     0
1000
AcDbSavedByObjectVersion
1070
     0
1000
AcDbSavedByObjectVersion
1070
     0
1000
AcDbSavedByObjectVersion
1070
     0
1000
AcDbSavedByObjectVersion
1070
     0
1000
AcDbSavedByObjectVersion
1070
     0
1000
AcDbSavedByObjectVersion
1070
     0
1000
AcDbSavedByObjectVersion
1070
     0
1000
AcDbSavedByObjectVersion
1070
     0
1000
AcDbSavedByObjectVersion
1070
     0
1000
AcDbSavedByObjectVersion
1070
     0
1000
AcDbSavedByObjectVersion
1070
     0
1000
AcDbSavedByObjectVersion
1070
     0
1000
AcDbSavedByObjectVersion
1070
     0
1000
AcDbSavedByObjectVersion
1070
     0
1000
AcDbSavedByObjectVersion
1070
     0
1000
AcDbSavedByObjectVersion
1070
     0
  0
VISUALSTYLE
  5
36
102
{ACAD_REACTORS
330
2A
102
}
330
2A
100
AcDbVisualStyle
  2
Brighten
 70
    12
 71
     2
 72
     2
 73
     0
 90
        0
 40
-0.6
 41
-30.0
 62
     5
 63
     7
 74
     1
 91
        4
 64
     7
 65
   257
 75
     1
175
     1
 42
1.0
 92
        8
 66
     7
 43
1.0
 76
     1
 77
     6
 78
     2
 67
     7
 79
     5
170
     0
171
     0
290
     0
174
     0
 93
        1
 44
50.0
173
     0
291
     1
 45
0.0
1001
ACAD
1000
AcDbSavedByObjectVersion
1070
     0
1000
AcDbSavedByObjectVersion
1070
     0
1000
AcDbSavedByObjectVersion
1070
     0
1000
AcDbSavedByObjectVersion
1070
     0
1000
AcDbSavedByObjectVersion
1070
     0
1000
AcDbSavedByObjectVersion
1070
     0
1000
AcDbSavedByObjectVersion
1070
     0
1000
AcDbSavedByObjectVersion
1070
     0
1000
AcDbSavedByObjectVersion
1070
     0
1000
AcDbSavedByObjectVersion
1070
     0
1000
AcDbSavedByObjectVersion
1070
     0
1000
AcDbSavedByObjectVersion
1070
     0
1000
AcDbSavedByObjectVersion
1070
     0
1000
AcDbSavedByObjectVersion
1070
     0
1000
AcDbSavedByObjectVersion
1070
     0
1000
AcDbSavedByObjectVersion
1070
     0
1000
AcDbSavedByObjectVersion
1070
     0
1000
AcDbSavedByObjectVersion
1070
     0
1000
AcDbSavedByObjectVersion
1070
     0
1000
AcDbSavedByObjectVersion
1070
     0
1000
AcDbSavedByObjectVersion
1070
     0
1000
AcDbSavedByObjectVersion
1070
     0
1000
AcDbSavedByObjectVersion
1070
     0
1000
AcDbSavedByObjectVersion
1070
     0
1000
AcDbSavedByObjectVersion
1070
     0
1000
AcDbSavedByObjectVersion
1070
     0
1000
AcDbSavedByObjectVersion
1070
     0
1000
AcDbSavedByObjectVersion
1070
     0
1000
AcDbSavedByObjectVersion
1070
     0
1000
AcDbSavedByObjectVersion
1070
     0
1000
AcDbSavedByObjectVersion
1070
     0
1000
AcDbSavedByObjectVersion
1070
     0
1000
AcDbSavedByObjectVersion
1070
     0
1000
AcDbSavedByObjectVersion
1070
     0
1000
AcDbSavedByObjectVersion
1070
     0
1000
AcDbSavedByObjectVersion
1070
     0
1000
AcDbSavedByObjectVersion
1070
     0
1000
AcDbSavedByObjectVersion
1070
     0
  0
VISUALSTYLE
  5
3A
102
{ACAD_REACTORS
330
2A
102
}
330
2A
100
AcDbVisualStyle
  2
ColorChange
 70
    16
 71
     2
 72
     2
 73
     3
 90
        0
 40
-0.6
 41
-30.0
 62
     5
 63
     8
 74
     1
 91
        4
 64
     7
 65
   257
 75
     1
175
     1
 42
1.0
 92
        8
 66
     8
 43
1.0
 76
     1
 77
     6
 78
     2
 67
     7
 79
     5
170
     0
171
     0
290
     0
174
     0
 93
        1
 44
0.0
173
     0
291
     1
 45
0.0
1001
ACAD
1000
AcDbSavedByObjectVersion
1070
     0
1000
AcDbSavedByObjectVersion
1070
     0
1000
AcDbSavedByObjectVersion
1070
     0
1000
AcDbSavedByObjectVersion
1070
     0
1000
AcDbSavedByObjectVersion
1070
     0
1000
AcDbSavedByObjectVersion
1070
     0
1000
AcDbSavedByObjectVersion
1070
     0
1000
AcDbSavedByObjectVersion
1070
     0
1000
AcDbSavedByObjectVersion
1070
     0
1000
AcDbSavedByObjectVersion
1070
     0
1000
AcDbSavedByObjectVersion
1070
     0
1000
AcDbSavedByObjectVersion
1070
     0
1000
AcDbSavedByObjectVersion
1070
     0
1000
AcDbSavedByObjectVersion
1070
     0
1000
AcDbSavedByObjectVersion
1070
     0
1000
AcDbSavedByObjectVersion
1070
     0
1000
AcDbSavedByObjectVersion
1070
     0
1000
AcDbSavedByObjectVersion
1070
     0
1000
AcDbSavedByObjectVersion
1070
     0
1000
AcDbSavedByObjectVersion
1070
     0
1000
AcDbSavedByObjectVersion
1070
     0
1000
AcDbSavedByObjectVersion
1070
     0
1000
AcDbSavedByObjectVersion
1070
     0
1000
AcDbSavedByObjectVersion
1070
     0
1000
AcDbSavedByObjectVersion
1070
     0
1000
AcDbSavedByObjectVersion
1070
     0
1000
AcDbSavedByObjectVersion
1070
     0
1000
AcDbSavedByObjectVersion
1070
     0
1000
AcDbSavedByObjectVersion
1070
     0
1000
AcDbSavedByObjectVersion
1070
     0
1000
AcDbSavedByObjectVersion
1070
     0
1000
AcDbSavedByObjectVersion
1070
     0
1000
AcDbSavedByObjectVersion
1070
     0
1000
AcDbSavedByObjectVersion
1070
     0
1000
AcDbSavedByObjectVersion
1070
     0
1000
AcDbSavedByObjectVersion
1070
     0
1000
AcDbSavedByObjectVersion
1070
     0
1000
AcDbSavedByObjectVersion
1070
     0
  0
VISUALSTYLE
  5
34
102
{ACAD_REACTORS
330
2A
102
}
330
2A
100
AcDbVisualStyle
  2
Conceptual
 70
     9
 71
     3
 72
     2
 73
     0
 90
        0
 40
-0.6
 41
-30.0
 62
     5
 63
     7
 74
     2
 91
        2
 64
     7
 65
   257
 75
     1
175
     1
 42
40.0
 92
        8
 66
     7
 43
1.0
 76
     1
 77
     6
 78
     2
 67
     7
 79
     3
170
     0
171
     0
290
     0
174
     0
 93
        1
 44
0.0
173
     0
291
     0
 45
0.0
1001
ACAD
1000
AcDbSavedByObjectVersion
1070
     0
1000
AcDbSavedByObjectVersion
1070
     0
1000
AcDbSavedByObjectVersion
1070
     0
1000
AcDbSavedByObjectVersion
1070
     0
1000
AcDbSavedByObjectVersion
1070
     0
1000
AcDbSavedByObjectVersion
1070
     0
1000
AcDbSavedByObjectVersion
1070
     0
1000
AcDbSavedByObjectVersion
1070
     0
1000
AcDbSavedByObjectVersion
1070
     0
1000
AcDbSavedByObjectVersion
1070
     0
1000
AcDbSavedByObjectVersion
1070
     0
1000
AcDbSavedByObjectVersion
1070
     0
1000
AcDbSavedByObjectVersion
1070
     0
1000
AcDbSavedByObjectVersion
1070
     0
1000
AcDbSavedByObjectVersion
1070
     0
1000
AcDbSavedByObjectVersion
1070
     0
1000
AcDbSavedByObjectVersion
1070
     0
1000
AcDbSavedByObjectVersion
1070
     0
1000
AcDbSavedByObjectVersion
1070
     0
1000
AcDbSavedByObjectVersion
1070
     0
1000
AcDbSavedByObjectVersion
1070
     0
1000
AcDbSavedByObjectVersion
1070
     0
1000
AcDbSavedByObjectVersion
1070
     0
1000
AcDbSavedByObjectVersion
1070
     0
1000
AcDbSavedByObjectVersion
1070
     0
1000
AcDbSavedByObjectVersion
1070
     0
1000
AcDbSavedByObjectVersion
1070
     0
1000
AcDbSavedByObjectVersion
1070
     0
1000
AcDbSavedByObjectVersion
1070
     0
1000
AcDbSavedByObjectVersion
1070
     0
1000
AcDbSavedByObjectVersion
1070
     0
1000
AcDbSavedByObjectVersion
1070
     0
1000
AcDbSavedByObjectVersion
1070
     0
1000
AcDbSavedByObjectVersion
1070
     0
1000
AcDbSavedByObjectVersion
1070
     0
1000
AcDbSavedByObjectVersion
1070
     0
1000
AcDbSavedByObjectVersion
1070
     0
1000
AcDbSavedByObjectVersion
1070
     0
  0
VISUALSTYLE
  5
35
102
{ACAD_REACTORS
330
2A
102
}
330
2A
100
AcDbVisualStyle
  2
Dim
 70
    11
 71
     2
 72
     2
 73
     0
 90
        0
 40
-0.6
 41
-30.0
 62
     5
 63
     7
 74
     1
 91
        4
 64
     7
 65
   257
 75
     1
175
     1
 42
1.0
 92
        8
 66
     7
 43
1.0
 76
     1
 77
     6
 78
     2
 67
     7
 79
     5
170
     0
171
     0
290
     0
174
     0
 93
        1
 44
-50.0
173
     0
291
     1
 45
0.0
1001
ACAD
1000
AcDbSavedByObjectVersion
1070
     0
1000
AcDbSavedByObjectVersion
1070
     0
1000
AcDbSavedByObjectVersion
1070
     0
1000
AcDbSavedByObjectVersion
1070
     0
1000
AcDbSavedByObjectVersion
1070
     0
1000
AcDbSavedByObjectVersion
1070
     0
1000
AcDbSavedByObjectVersion
1070
     0
1000
AcDbSavedByObjectVersion
1070
     0
1000
AcDbSavedByObjectVersion
1070
     0
1000
AcDbSavedByObjectVersion
1070
     0
1000
AcDbSavedByObjectVersion
1070
     0
1000
AcDbSavedByObjectVersion
1070
     0
1000
AcDbSavedByObjectVersion
1070
     0
1000
AcDbSavedByObjectVersion
1070
     0
1000
AcDbSavedByObjectVersion
1070
     0
1000
AcDbSavedByObjectVersion
1070
     0
1000
AcDbSavedByObjectVersion
1070
     0
1000
AcDbSavedByObjectVersion
1070
     0
1000
AcDbSavedByObjectVersion
1070
     0
1000
AcDbSavedByObjectVersion
1070
     0
1000
AcDbSavedByObjectVersion
1070
     0
1000
AcDbSavedByObjectVersion
1070
     0
1000
AcDbSavedByObjectVersion
1070
     0
1000
AcDbSavedByObjectVersion
1070
     0
1000
AcDbSavedByObjectVersion
1070
     0
1000
AcDbSavedByObjectVersion
1070
     0
1000
AcDbSavedByObjectVersion
1070
     0
1000
AcDbSavedByObjectVersion
1070
     0
1000
AcDbSavedByObjectVersion
1070
     0
1000
AcDbSavedByObjectVersion
1070
     0
1000
AcDbSavedByObjectVersion
1070
     0
1000
AcDbSavedByObjectVersion
1070
     0
1000
AcDbSavedByObjectVersion
1070
     0
1000
AcDbSavedByObjectVersion
1070
     0
1000
AcDbSavedByObjectVersion
1070
     0
1000
AcDbSavedByObjectVersion
1070
     0
1000
AcDbSavedByObjectVersion
1070
     0
1000
AcDbSavedByObjectVersion
1070
     0
  0
VISUALSTYLE
  5
39
102
{ACAD_REACTORS
330
2A
102
}
330
2A
100
AcDbVisualStyle
  2
Facepattern
 70
    15
 71
     2
 72
     2
 73
     0
 90
        0
 40
-0.6
 41
-30.0
 62
     5
 63
     7
 74
     1
 91
        4
 64
     7
 65
   257
 75
     1
175
     1
 42
1.0
 92
        8
 66
     7
 43
1.0
 76
     1
 77
     6
 78
     2
 67
     7
 79
     5
170
     0
171
     0
290
     0
174
     0
 93
        1
 44
0.0
173
     0
291
     1
 45
0.0
1001
ACAD
1000
AcDbSavedByObjectVersion
1070
     0
1000
AcDbSavedByObjectVersion
1070
     0
1000
AcDbSavedByObjectVersion
1070
     0
1000
AcDbSavedByObjectVersion
1070
     0
1000
AcDbSavedByObjectVersion
1070
     0
1000
AcDbSavedByObjectVersion
1070
     0
1000
AcDbSavedByObjectVersion
1070
     0
1000
AcDbSavedByObjectVersion
1070
     0
1000
AcDbSavedByObjectVersion
1070
     0
1000
AcDbSavedByObjectVersion
1070
     0
1000
AcDbSavedByObjectVersion
1070
     0
1000
AcDbSavedByObjectVersion
1070
     0
1000
AcDbSavedByObjectVersion
1070
     0
1000
AcDbSavedByObjectVersion
1070
     0
1000
AcDbSavedByObjectVersion
1070
     0
1000
AcDbSavedByObjectVersion
1070
     0
1000
AcDbSavedByObjectVersion
1070
     0
1000
AcDbSavedByObjectVersion
1070
     0
1000
AcDbSavedByObjectVersion
1070
     0
1000
AcDbSavedByObjectVersion
1070
     0
1000
AcDbSavedByObjectVersion
1070
     0
1000
AcDbSavedByObjectVersion
1070
     0
1000
AcDbSavedByObjectVersion
1070
     0
1000
AcDbSavedByObjectVersion
1070
     0
1000
AcDbSavedByObjectVersion
1070
     0
1000
AcDbSavedByObjectVersion
1070
     0
1000
AcDbSavedByObjectVersion
1070
     0
1000
AcDbSavedByObjectVersion
1070
     0
1000
AcDbSavedByObjectVersion
1070
     0
1000
AcDbSavedByObjectVersion
1070
     0
1000
AcDbSavedByObjectVersion
1070
     0
1000
AcDbSavedByObjectVersion
1070
     0
1000
AcDbSavedByObjectVersion
1070
     0
1000
AcDbSavedByObjectVersion
1070
     0
1000
AcDbSavedByObjectVersion
1070
     0
1000
AcDbSavedByObjectVersion
1070
     0
1000
AcDbSavedByObjectVersion
1070
     0
1000
AcDbSavedByObjectVersion
1070
     0
  0
VISUALSTYLE
  5
2B
102
{ACAD_REACTORS
330
2A
102
}
330
2A
100
AcDbVisualStyle
  2
Flat
 70
     0
 71
     2
 72
     1
 73
     1
 90
        2
 40
-0.6
 41
30.0
 62
     5
 63
     7
 74
     0
 91
        4
 64
     7
 65
   257
 75
     1
175
     1
 42
1.0
 92
        8
 66
     7
 43
1.0
 76
     1
 77
     6
 78
     2
 67
     7
 79
     5
170
     0
171
     0
290
     0
174
     0
 93
       13
 44
0.0
173
     0
291
     1
 45
0.0
1001
ACAD
1000
AcDbSavedByObjectVersion
1070
     0
1000
AcDbSavedByObjectVersion
1070
     0
1000
AcDbSavedByObjectVersion
1070
     0
1000
AcDbSavedByObjectVersion
1070
     0
1000
AcDbSavedByObjectVersion
1070
     0
1000
AcDbSavedByObjectVersion
1070
     0
1000
AcDbSavedByObjectVersion
1070
     0
1000
AcDbSavedByObjectVersion
1070
     0
1000
AcDbSavedByObjectVersion
1070
     0
1000
AcDbSavedByObjectVersion
1070
     0
1000
AcDbSavedByObjectVersion
1070
     0
1000
AcDbSavedByObjectVersion
1070
     0
1000
AcDbSavedByObjectVersion
1070
     0
1000
AcDbSavedByObjectVersion
1070
     0
1000
AcDbSavedByObjectVersion
1070
     0
1000
AcDbSavedByObjectVersion
1070
     0
1000
AcDbSavedByObjectVersion
1070
     0
1000
AcDbSavedByObjectVersion
1070
     0
1000
AcDbSavedByObjectVersion
1070
     0
1000
AcDbSavedByObjectVersion
1070
     0
1000
AcDbSavedByObjectVersion
1070
     0
1000
AcDbSavedByObjectVersion
1070
     0
1000
AcDbSavedByObjectVersion
1070
     0
1000
AcDbSavedByObjectVersion
1070
     0
1000
AcDbSavedByObjectVersion
1070
     0
1000
AcDbSavedByObjectVersion
1070
     0
1000
AcDbSavedByObjectVersion
1070
     0
1000
AcDbSavedByObjectVersion
1070
     0
1000
AcDbSavedByObjectVersion
1070
     0
1000
AcDbSavedByObjectVersion
1070
     0
1000
AcDbSavedByObjectVersion
1070
     0
1000
AcDbSavedByObjectVersion
1070
     0
1000
AcDbSavedByObjectVersion
1070
     0
1000
AcDbSavedByObjectVersion
1070
     0
1000
AcDbSavedByObjectVersion
1070
     0
1000
AcDbSavedByObjectVersion
1070
     0
1000
AcDbSavedByObjectVersion
1070
     0
1000
AcDbSavedByObjectVersion
1070
     0
  0
VISUALSTYLE
  5
2C
102
{ACAD_REACTORS
330
2A
102
}
330
2A
100
AcDbVisualStyle
  2
FlatWithEdges
 70
     1
 71
     2
 72
     1
 73
     1
 90
        2
 40
-0.6
 41
30.0
 62
     5
 63
     7
 74
     1
 91
        4
 64
     7
 65
   257
 75
     1
175
     1
 42
1.0
 92
        0
 66
   257
 43
1.0
 76
     1
 77
     6
 78
     2
 67
     7
 79
     5
170
     0
171
     0
290
     0
174
     0
 93
       13
 44
0.0
173
     0
291
     1
 45
0.0
1001
ACAD
1000
AcDbSavedByObjectVersion
1070
     0
1000
AcDbSavedByObjectVersion
1070
     0
1000
AcDbSavedByObjectVersion
1070
     0
1000
AcDbSavedByObjectVersion
1070
     0
1000
AcDbSavedByObjectVersion
1070
     0
1000
AcDbSavedByObjectVersion
1070
     0
1000
AcDbSavedByObjectVersion
1070
     0
1000
AcDbSavedByObjectVersion
1070
     0
1000
AcDbSavedByObjectVersion
1070
     0
1000
AcDbSavedByObjectVersion
1070
     0
1000
AcDbSavedByObjectVersion
1070
     0
1000
AcDbSavedByObjectVersion
1070
     0
1000
AcDbSavedByObjectVersion
1070
     0
1000
AcDbSavedByObjectVersion
1070
     0
1000
AcDbSavedByObjectVersion
1070
     0
1000
AcDbSavedByObjectVersion
1070
     0
1000
AcDbSavedByObjectVersion
1070
     0
1000
AcDbSavedByObjectVersion
1070
     0
1000
AcDbSavedByObjectVersion
1070
     0
1000
AcDbSavedByObjectVersion
1070
     0
1000
AcDbSavedByObjectVersion
1070
     0
1000
AcDbSavedByObjectVersion
1070
     0
1000
AcDbSavedByObjectVersion
1070
     0
1000
AcDbSavedByObjectVersion
1070
     0
1000
AcDbSavedByObjectVersion
1070
     0
1000
AcDbSavedByObjectVersion
1070
     0
1000
AcDbSavedByObjectVersion
1070
     0
1000
AcDbSavedByObjectVersion
1070
     0
1000
AcDbSavedByObjectVersion
1070
     0
1000
AcDbSavedByObjectVersion
1070
     0
1000
AcDbSavedByObjectVersion
1070
     0
1000
AcDbSavedByObjectVersion
1070
     0
1000
AcDbSavedByObjectVersion
1070
     0
1000
AcDbSavedByObjectVersion
1070
     0
1000
AcDbSavedByObjectVersion
1070
     0
1000
AcDbSavedByObjectVersion
1070
     0
1000
AcDbSavedByObjectVersion
1070
     0
1000
AcDbSavedByObjectVersion
1070
     0
  0
VISUALSTYLE
  5
2D
102
{ACAD_REACTORS
330
2A
102
}
330
2A
100
AcDbVisualStyle
  2
Gouraud
 70
     2
 71
     2
 72
     2
 73
     1
 90
        2
 40
-0.6
 41
30.0
 62
     5
 63
     7
 74
     0
 91
        4
 64
     7
 65
   257
 75
     1
175
     1
 42
1.0
 92
        0
 66
     7
 43
1.0
 76
     1
 77
     6
 78
     2
 67
     7
 79
     5
170
     0
171
     0
290
     0
174
     0
 93
       13
 44
0.0
173
     0
291
     1
 45
0.0
1001
ACAD
1000
AcDbSavedByObjectVersion
1070
     0
1000
AcDbSavedByObjectVersion
1070
     0
1000
AcDbSavedByObjectVersion
1070
     0
1000
AcDbSavedByObjectVersion
1070
     0
1000
AcDbSavedByObjectVersion
1070
     0
1000
AcDbSavedByObjectVersion
1070
     0
1000
AcDbSavedByObjectVersion
1070
     0
1000
AcDbSavedByObjectVersion
1070
     0
1000
AcDbSavedByObjectVersion
1070
     0
1000
AcDbSavedByObjectVersion
1070
     0
1000
AcDbSavedByObjectVersion
1070
     0
1000
AcDbSavedByObjectVersion
1070
     0
1000
AcDbSavedByObjectVersion
1070
     0
1000
AcDbSavedByObjectVersion
1070
     0
1000
AcDbSavedByObjectVersion
1070
     0
1000
AcDbSavedByObjectVersion
1070
     0
1000
AcDbSavedByObjectVersion
1070
     0
1000
AcDbSavedByObjectVersion
1070
     0
1000
AcDbSavedByObjectVersion
1070
     0
1000
AcDbSavedByObjectVersion
1070
     0
1000
AcDbSavedByObjectVersion
1070
     0
1000
AcDbSavedByObjectVersion
1070
     0
1000
AcDbSavedByObjectVersion
1070
     0
1000
AcDbSavedByObjectVersion
1070
     0
1000
AcDbSavedByObjectVersion
1070
     0
1000
AcDbSavedByObjectVersion
1070
     0
1000
AcDbSavedByObjectVersion
1070
     0
1000
AcDbSavedByObjectVersion
1070
     0
1000
AcDbSavedByObjectVersion
1070
     0
1000
AcDbSavedByObjectVersion
1070
     0
1000
AcDbSavedByObjectVersion
1070
     0
1000
AcDbSavedByObjectVersion
1070
     0
1000
AcDbSavedByObjectVersion
1070
     0
1000
AcDbSavedByObjectVersion
1070
     0
1000
AcDbSavedByObjectVersion
1070
     0
1000
AcDbSavedByObjectVersion
1070
     0
1000
AcDbSavedByObjectVersion
1070
     0
1000
AcDbSavedByObjectVersion
1070
     0
  0
VISUALSTYLE
  5
2E
102
{ACAD_REACTORS
330
2A
102
}
330
2A
100
AcDbVisualStyle
  2
GouraudWithEdges
 70
     3
 71
     2
 72
     2
 73
     1
 90
        2
 40
-0.6
 41
30.0
 62
     5
 63
     7
 74
     1
 91
        4
 64
     7
 65
   257
 75
     1
175
     1
 42
1.0
 92
        0
 66
   257
 43
1.0
 76
     1
 77
     6
 78
     2
 67
     7
 79
     5
170
     0
171
     0
290
     0
174
     0
 93
       13
 44
0.0
173
     0
291
     1
 45
0.0
1001
ACAD
1000
AcDbSavedByObjectVersion
1070
     0
1000
AcDbSavedByObjectVersion
1070
     0
1000
AcDbSavedByObjectVersion
1070
     0
1000
AcDbSavedByObjectVersion
1070
     0
1000
AcDbSavedByObjectVersion
1070
     0
1000
AcDbSavedByObjectVersion
1070
     0
1000
AcDbSavedByObjectVersion
1070
     0
1000
AcDbSavedByObjectVersion
1070
     0
1000
AcDbSavedByObjectVersion
1070
     0
1000
AcDbSavedByObjectVersion
1070
     0
1000
AcDbSavedByObjectVersion
1070
     0
1000
AcDbSavedByObjectVersion
1070
     0
1000
AcDbSavedByObjectVersion
1070
     0
1000
AcDbSavedByObjectVersion
1070
     0
1000
AcDbSavedByObjectVersion
1070
     0
1000
AcDbSavedByObjectVersion
1070
     0
1000
AcDbSavedByObjectVersion
1070
     0
1000
AcDbSavedByObjectVersion
1070
     0
1000
AcDbSavedByObjectVersion
1070
     0
1000
AcDbSavedByObjectVersion
1070
     0
1000
AcDbSavedByObjectVersion
1070
     0
1000
AcDbSavedByObjectVersion
1070
     0
1000
AcDbSavedByObjectVersion
1070
     0
1000
AcDbSavedByObjectVersion
1070
     0
1000
AcDbSavedByObjectVersion
1070
     0
1000
AcDbSavedByObjectVersion
1070
     0
1000
AcDbSavedByObjectVersion
1070
     0
1000
AcDbSavedByObjectVersion
1070
     0
1000
AcDbSavedByObjectVersion
1070
     0
1000
AcDbSavedByObjectVersion
1070
     0
1000
AcDbSavedByObjectVersion
1070
     0
1000
AcDbSavedByObjectVersion
1070
     0
1000
AcDbSavedByObjectVersion
1070
     0
1000
AcDbSavedByObjectVersion
1070
     0
1000
AcDbSavedByObjectVersion
1070
     0
1000
AcDbSavedByObjectVersion
1070
     0
1000
AcDbSavedByObjectVersion
1070
     0
1000
AcDbSavedByObjectVersion
1070
     0
  0
VISUALSTYLE
  5
38
102
{ACAD_REACTORS
330
2A
102
}
330
2A
100
AcDbVisualStyle
  2
Linepattern
 70
    14
 71
     2
 72
     2
 73
     0
 90
        0
 40
-0.6
 41
-30.0
 62
     5
 63
     7
 74
     1
 91
        4
 64
     7
 65
   257
 75
     7
175
     7
 42
1.0
 92
        8
 66
     7
 43
1.0
 76
     1
 77
     6
 78
     2
 67
     7
 79
     5
170
     0
171
     0
290
     0
174
     0
 93
        1
 44
0.0
173
     0
291
     1
 45
0.0
1001
ACAD
1000
AcDbSavedByObjectVersion
1070
     0
1000
AcDbSavedByObjectVersion
1070
     0
1000
AcDbSavedByObjectVersion
1070
     0
1000
AcDbSavedByObjectVersion
1070
     0
1000
AcDbSavedByObjectVersion
1070
     0
1000
AcDbSavedByObjectVersion
1070
     0
1000
AcDbSavedByObjectVersion
1070
     0
1000
AcDbSavedByObjectVersion
1070
     0
1000
AcDbSavedByObjectVersion
1070
     0
1000
AcDbSavedByObjectVersion
1070
     0
1000
AcDbSavedByObjectVersion
1070
     0
1000
AcDbSavedByObjectVersion
1070
     0
1000
AcDbSavedByObjectVersion
1070
     0
1000
AcDbSavedByObjectVersion
1070
     0
1000
AcDbSavedByObjectVersion
1070
     0
1000
AcDbSavedByObjectVersion
1070
     0
1000
AcDbSavedByObjectVersion
1070
     0
1000
AcDbSavedByObjectVersion
1070
     0
1000
AcDbSavedByObjectVersion
1070
     0
1000
AcDbSavedByObjectVersion
1070
     0
1000
AcDbSavedByObjectVersion
1070
     0
1000
AcDbSavedByObjectVersion
1070
     0
1000
AcDbSavedByObjectVersion
1070
     0
1000
AcDbSavedByObjectVersion
1070
     0
1000
AcDbSavedByObjectVersion
1070
     0
1000
AcDbSavedByObjectVersion
1070
     0
1000
AcDbSavedByObjectVersion
1070
     0
1000
AcDbSavedByObjectVersion
1070
     0
1000
AcDbSavedByObjectVersion
1070
     0
1000
AcDbSavedByObjectVersion
1070
     0
1000
AcDbSavedByObjectVersion
1070
     0
1000
AcDbSavedByObjectVersion
1070
     0
1000
AcDbSavedByObjectVersion
1070
     0
1000
AcDbSavedByObjectVersion
1070
     0
1000
AcDbSavedByObjectVersion
1070
     0
1000
AcDbSavedByObjectVersion
1070
     0
1000
AcDbSavedByObjectVersion
1070
     0
1000
AcDbSavedByObjectVersion
1070
     0
  0
VISUALSTYLE
  5
33
102
{ACAD_REACTORS
330
2A
102
}
330
2A
100
AcDbVisualStyle
  2
Realistic
 70
     8
 71
     2
 72
     2
 73
     0
 90
        0
 40
-0.6
 41
-30.0
 62
     5
 63
     7
 74
     1
 91
        0
 64
     7
 65
   257
 75
     1
175
     1
 42
1.0
 92
        8
 66
     8
 43
1.0
 76
     1
 77
     6
 78
     2
 67
     7
 79
     5
170
     0
171
     0
290
     0
174
     0
 93
       13
 44
0.0
173
     0
291
     0
 45
0.0
1001
ACAD
1000
AcDbSavedByObjectVersion
1070
     0
1000
AcDbSavedByObjectVersion
1070
     0
1000
AcDbSavedByObjectVersion
1070
     0
1000
AcDbSavedByObjectVersion
1070
     0
1000
AcDbSavedByObjectVersion
1070
     0
1000
AcDbSavedByObjectVersion
1070
     0
1000
AcDbSavedByObjectVersion
1070
     0
1000
AcDbSavedByObjectVersion
1070
     0
1000
AcDbSavedByObjectVersion
1070
     0
1000
AcDbSavedByObjectVersion
1070
     0
1000
AcDbSavedByObjectVersion
1070
     0
1000
AcDbSavedByObjectVersion
1070
     0
1000
AcDbSavedByObjectVersion
1070
     0
1000
AcDbSavedByObjectVersion
1070
     0
1000
AcDbSavedByObjectVersion
1070
     0
1000
AcDbSavedByObjectVersion
1070
     0
1000
AcDbSavedByObjectVersion
1070
     0
1000
AcDbSavedByObjectVersion
1070
     0
1000
AcDbSavedByObjectVersion
1070
     0
1000
AcDbSavedByObjectVersion
1070
     0
1000
AcDbSavedByObjectVersion
1070
     0
1000
AcDbSavedByObjectVersion
1070
     0
1000
AcDbSavedByObjectVersion
1070
     0
1000
AcDbSavedByObjectVersion
1070
     0
1000
AcDbSavedByObjectVersion
1070
     0
1000
AcDbSavedByObjectVersion
1070
     0
1000
AcDbSavedByObjectVersion
1070
     0
1000
AcDbSavedByObjectVersion
1070
     0
1000
AcDbSavedByObjectVersion
1070
     0
1000
AcDbSavedByObjectVersion
1070
     0
1000
AcDbSavedByObjectVersion
1070
     0
1000
AcDbSavedByObjectVersion
1070
     0
1000
AcDbSavedByObjectVersion
1070
     0
1000
AcDbSavedByObjectVersion
1070
     0
1000
AcDbSavedByObjectVersion
1070
     0
1000
AcDbSavedByObjectVersion
1070
     0
1000
AcDbSavedByObjectVersion
1070
     0
1000
AcDbSavedByObjectVersion
1070
     0
  0
VISUALSTYLE
  5
37
102
{ACAD_REACTORS
330
2A
102
}
330
2A
100
AcDbVisualStyle
  2
Thicken
 70
    13
 71
     2
 72
     2
 73
     0
 90
        0
 40
-0.6
 41
-30.0
 62
     5
 63
     7
 74
     1
 91
        4
 64
     7
 65
   257
 75
     1
175
     1
 42
1.0
 92
       12
 66
     7
 43
1.0
 76
     1
 77
     6
 78
     2
 67
     7
 79
     5
170
     0
171
     0
290
     0
174
     0
 93
        1
 44
0.0
173
     0
291
     1
 45
0.0
1001
ACAD
1000
AcDbSavedByObjectVersion
1070
     0
1000
AcDbSavedByObjectVersion
1070
     0
1000
AcDbSavedByObjectVersion
1070
     0
1000
AcDbSavedByObjectVersion
1070
     0
1000
AcDbSavedByObjectVersion
1070
     0
1000
AcDbSavedByObjectVersion
1070
     0
1000
AcDbSavedByObjectVersion
1070
     0
1000
AcDbSavedByObjectVersion
1070
     0
1000
AcDbSavedByObjectVersion
1070
     0
1000
AcDbSavedByObjectVersion
1070
     0
1000
AcDbSavedByObjectVersion
1070
     0
1000
AcDbSavedByObjectVersion
1070
     0
1000
AcDbSavedByObjectVersion
1070
     0
1000
AcDbSavedByObjectVersion
1070
     0
1000
AcDbSavedByObjectVersion
1070
     0
1000
AcDbSavedByObjectVersion
1070
     0
1000
AcDbSavedByObjectVersion
1070
     0
1000
AcDbSavedByObjectVersion
1070
     0
1000
AcDbSavedByObjectVersion
1070
     0
1000
AcDbSavedByObjectVersion
1070
     0
1000
AcDbSavedByObjectVersion
1070
     0
1000
AcDbSavedByObjectVersion
1070
     0
1000
AcDbSavedByObjectVersion
1070
     0
1000
AcDbSavedByObjectVersion
1070
     0
1000
AcDbSavedByObjectVersion
1070
     0
1000
AcDbSavedByObjectVersion
1070
     0
1000
AcDbSavedByObjectVersion
1070
     0
1000
AcDbSavedByObjectVersion
1070
     0
1000
AcDbSavedByObjectVersion
1070
     0
1000
AcDbSavedByObjectVersion
1070
     0
1000
AcDbSavedByObjectVersion
1070
     0
1000
AcDbSavedByObjectVersion
1070
     0
1000
AcDbSavedByObjectVersion
1070
     0
1000
AcDbSavedByObjectVersion
1070
     0
1000
AcDbSavedByObjectVersion
1070
     0
1000
AcDbSavedByObjectVersion
1070
     0
1000
AcDbSavedByObjectVersion
1070
     0
1000
AcDbSavedByObjectVersion
1070
     0
  0
DICTIONARYVAR
  5
510B
102
{ACAD_REACTORS
330
5108
102
}
330
5108
100
DictionaryVariables
280
     0
  1
1:1
  0
DICTIONARYVAR
  5
510A
102
{ACAD_REACTORS
330
5108
102
}
330
5108
100
DictionaryVariables
280
     0
  1
STANDARD
  0
DICTIONARYVAR
  5
5109
102
{ACAD_REACTORS
330
5108
102
}
330
5108
100
DictionaryVariables
280
     0
  1
STANDARD
  0
DICTIONARYVAR
  5
510E
102
{ACAD_REACTORS
330
5108
102
}
330
5108
100
DictionaryVariables
280
     0
  1
1
  0
DICTIONARYVAR
  5
510D
102
{ACAD_REACTORS
330
5108
102
}
330
5108
100
DictionaryVariables
280
     0
  1
0
  0
DICTIONARYVAR
  5
510C
102
{ACAD_REACTORS
330
5108
102
}
330
5108
100
DictionaryVariables
280
     0
  1
127
  0
XRECORD
  5
11F2B
102
{ACAD_REACTORS
330
11F2A
102
}
330
11F2A
100
AcDbXrecord
280
     1
330
11089
  0
DICTIONARY
  5
1253C
330
1E
100
AcDbDictionary
280
     1
281
     1
  3
ACAD_XREC_ROUNDTRIP
360
1253D
  0
DICTIONARY
  5
12540
330
26
100
AcDbDictionary
280
     1
281
     1
  3
ACAD_XREC_ROUNDTRIP
360
12541
  0
DICTIONARY
  5
1253E
330
22
100
AcDbDictionary
280
     1
281
     1
  3
ACAD_XREC_ROUNDTRIP
360
1253F
  0
DICTIONARY
  5
4FEF
330
4FEE
100
AcDbDictionary
280
     1
281
     1
  3
ACAD_XREC_ROUNDTRIP
360
7C2C
  3
BUMPTILE
360
4FF1
  3
DIFFUSETILE
360
4FF0
  3
OPACITYTILE
360
4FF4
  3
REFLECTIONTILE
360
4FF3
  3
REFRACTIONTILE
360
4FF5
  3
SPECULARTILE
360
4FF2
  0
DICTIONARY
  5
4FE7
330
4FE6
100
AcDbDictionary
280
     1
281
     1
  3
ACAD_XREC_ROUNDTRIP
360
7C2B
  3
BUMPTILE
360
4FE9
  3
DIFFUSETILE
360
4FE8
  3
OPACITYTILE
360
4FEC
  3
REFLECTIONTILE
360
4FEB
  3
REFRACTIONTILE
360
4FED
  3
SPECULARTILE
360
4FEA
  0
DICTIONARY
  5
4FF7
330
4FF6
100
AcDbDictionary
280
     1
281
     1
  3
ACAD_XREC_ROUNDTRIP
360
7C2D
  3
BUMPTILE
360
4FF9
  3
DIFFUSETILE
360
4FF8
  3
OPACITYTILE
360
4FFC
  3
REFLECTIONTILE
360
4FFB
  3
REFRACTIONTILE
360
4FFD
  3
SPECULARTILE
360
4FFA
  0
DICTIONARY
  5
50D6
330
4FFF
100
AcDbDictionary
280
     1
281
     1
  3
ACAD_ROUNDTRIP_2008_TABLESTYLE_CELLSTYLEMAP
360
1251E
  3
ACAD_XREC_ROUNDTRIP
360
12542
  0
XRECORD
  5
1253D
102
{ACAD_REACTORS
330
1253C
102
}
330
1253C
100
AcDbXrecord
280
     1
102
SHADEPLOT
 70
     0
102
SHADEPLOTRESLEVEL
 70
     2
102
SHADEPLOTCUSTOMDPI
 70
   300
  0
XRECORD
  5
12541
102
{ACAD_REACTORS
330
12540
102
}
330
12540
100
AcDbXrecord
280
     1
102
SHADEPLOT
 70
     0
102
SHADEPLOTRESLEVEL
 70
     2
102
SHADEPLOTCUSTOMDPI
 70
   300
  0
XRECORD
  5
1253F
102
{ACAD_REACTORS
330
1253E
102
}
330
1253E
100
AcDbXrecord
280
     1
102
SHADEPLOT
 70
     1
102
SHADEPLOTRESLEVEL
 70
     2
102
SHADEPLOTCUSTOMDPI
 70
   300
  0
XRECORD
  5
7C2C
102
{ACAD_REACTORS
330
4FEF
102
}
330
4FEF
100
AcDbXrecord
280
     1
102
MATERIAL
148
0.0
149
0.0
149
0.0
 93
        0
 94
      127
282
     0
 72
     0
 77
     0
171
     0
175
     0
179
     0
273
     0
  0
XRECORD
  5
4FF1
102
{ACAD_REACTORS
330
4FEF
102
}
330
4FEF
100
AcDbXrecord
280
     1
270
     1
271
     1
  0
XRECORD
  5
4FF0
102
{ACAD_REACTORS
330
4FEF
102
}
330
4FEF
100
AcDbXrecord
280
     1
270
     1
271
     1
  0
XRECORD
  5
4FF4
102
{ACAD_REACTORS
330
4FEF
102
}
330
4FEF
100
AcDbXrecord
280
     1
270
     1
271
     1
  0
XRECORD
  5
4FF3
102
{ACAD_REACTORS
330
4FEF
102
}
330
4FEF
100
AcDbXrecord
280
     1
270
     1
271
     1
  0
XRECORD
  5
4FF5
102
{ACAD_REACTORS
330
4FEF
102
}
330
4FEF
100
AcDbXrecord
280
     1
270
     1
271
     1
  0
XRECORD
  5
4FF2
102
{ACAD_REACTORS
330
4FEF
102
}
330
4FEF
100
AcDbXrecord
280
     1
270
     1
271
     1
  0
XRECORD
  5
7C2B
102
{ACAD_REACTORS
330
4FE7
102
}
330
4FE7
100
AcDbXrecord
280
     1
102
MATERIAL
148
0.0
149
0.0
149
0.0
 93
        0
 94
      127
282
     0
 72
     0
 77
     0
171
     0
175
     0
179
     0
273
     0
  0
XRECORD
  5
4FE9
102
{ACAD_REACTORS
330
4FE7
102
}
330
4FE7
100
AcDbXrecord
280
     1
270
     1
271
     1
  0
XRECORD
  5
4FE8
102
{ACAD_REACTORS
330
4FE7
102
}
330
4FE7
100
AcDbXrecord
280
     1
270
     1
271
     1
  0
XRECORD
  5
4FEC
102
{ACAD_REACTORS
330
4FE7
102
}
330
4FE7
100
AcDbXrecord
280
     1
270
     1
271
     1
  0
XRECORD
  5
4FEB
102
{ACAD_REACTORS
330
4FE7
102
}
330
4FE7
100
AcDbXrecord
280
     1
270
     1
271
     1
  0
XRECORD
  5
4FED
102
{ACAD_REACTORS
330
4FE7
102
}
330
4FE7
100
AcDbXrecord
280
     1
270
     1
271
     1
  0
XRECORD
  5
4FEA
102
{ACAD_REACTORS
330
4FE7
102
}
330
4FE7
100
AcDbXrecord
280
     1
270
     1
271
     1
  0
XRECORD
  5
7C2D
102
{ACAD_REACTORS
330
4FF7
102
}
330
4FF7
100
AcDbXrecord
280
     1
102
MATERIAL
148
0.0
149
0.0
149
0.0
 93
        0
 94
      127
282
     0
 72
     0
 77
     0
171
     0
175
     0
179
     0
273
     0
  0
XRECORD
  5
4FF9
102
{ACAD_REACTORS
330
4FF7
102
}
330
4FF7
100
AcDbXrecord
280
     1
270
     1
271
     1
  0
XRECORD
  5
4FF8
102
{ACAD_REACTORS
330
4FF7
102
}
330
4FF7
100
AcDbXrecord
280
     1
270
     1
271
     1
  0
XRECORD
  5
4FFC
102
{ACAD_REACTORS
330
4FF7
102
}
330
4FF7
100
AcDbXrecord
280
     1
270
     1
271
     1
  0
XRECORD
  5
4FFB
102
{ACAD_REACTORS
330
4FF7
102
}
330
4FF7
100
AcDbXrecord
280
     1
270
     1
271
     1
  0
XRECORD
  5
4FFD
102
{ACAD_REACTORS
330
4FF7
102
}
330
4FF7
100
AcDbXrecord
280
     1
270
     1
271
     1
  0
XRECORD
  5
4FFA
102
{ACAD_REACTORS
330
4FF7
102
}
330
4FF7
100
AcDbXrecord
280
     1
270
     1
271
     1
  0
CELLSTYLEMAP
  5
1251E
102
{ACAD_REACTORS
330
50D6
102
}
330
50D6
100
AcDbCellStyleMap
 90
        3
300
CELLSTYLE
  1
TABLEFORMAT_BEGIN
 90
        5
170
     1
 91
        0
 92
    32768
 62
   257
 93
        1
300
CONTENTFORMAT
  1
CONTENTFORMAT_BEGIN
 90
        0
 91
        0
 92
      512
 93
        0
300

 40
0.0
140
1.0
 94
        5
 62
     0
340
11
144
0.25
309
CONTENTFORMAT_END
171
     1
301
MARGIN
  1
CELLMARGIN_BEGIN
 40
0.06
 40
0.06
 40
0.06
 40
0.06
 40
0.18
 40
0.18
309
CELLMARGIN_END
 94
        6
 95
        1
302
GRIDFORMAT
  1
GRIDFORMAT_BEGIN
 90
        0
 91
        1
 62
     0
 92
       -2
340
0
 93
        0
 40
0.045
309
GRIDFORMAT_END
 95
        2
302
GRIDFORMAT
  1
GRIDFORMAT_BEGIN
 90
        0
 91
        1
 62
     0
 92
       -2
340
0
 93
        0
 40
0.045
309
GRIDFORMAT_END
 95
        4
302
GRIDFORMAT
  1
GRIDFORMAT_BEGIN
 90
        0
 91
        1
 62
     0
 92
       -2
340
0
 93
        0
 40
0.045
309
GRIDFORMAT_END
 95
        8
302
GRIDFORMAT
  1
GRIDFORMAT_BEGIN
 90
        0
 91
        1
 62
     0
 92
       -2
340
0
 93
        0
 40
0.045
309
GRIDFORMAT_END
 95
       16
302
GRIDFORMAT
  1
GRIDFORMAT_BEGIN
 90
        0
 91
        1
 62
     0
 92
       -2
340
0
 93
        0
 40
0.045
309
GRIDFORMAT_END
 95
       32
302
GRIDFORMAT
  1
GRIDFORMAT_BEGIN
 90
        0
 91
        1
 62
     0
 92
       -2
340
0
 93
        0
 40
0.045
309
GRIDFORMAT_END
309
TABLEFORMAT_END
  1
CELLSTYLE_BEGIN
 90
        1
 91
        1
300
_TITLE
309
CELLSTYLE_END
300
CELLSTYLE
  1
TABLEFORMAT_BEGIN
 90
        5
170
     1
 91
        0
 92
        0
 62
   257
 93
        1
300
CONTENTFORMAT
  1
CONTENTFORMAT_BEGIN
 90
        0
 91
        0
 92
      512
 93
        0
300

 40
0.0
140
1.0
 94
        5
 62
     0
340
11
144
0.18
309
CONTENTFORMAT_END
171
     1
301
MARGIN
  1
CELLMARGIN_BEGIN
 40
0.06
 40
0.06
 40
0.06
 40
0.06
 40
0.18
 40
0.18
309
CELLMARGIN_END
 94
        6
 95
        1
302
GRIDFORMAT
  1
GRIDFORMAT_BEGIN
 90
        0
 91
        1
 62
     0
 92
       -2
340
0
 93
        0
 40
0.045
309
GRIDFORMAT_END
 95
        2
302
GRIDFORMAT
  1
GRIDFORMAT_BEGIN
 90
        0
 91
        1
 62
     0
 92
       -2
340
0
 93
        0
 40
0.045
309
GRIDFORMAT_END
 95
        4
302
GRIDFORMAT
  1
GRIDFORMAT_BEGIN
 90
        0
 91
        1
 62
     0
 92
       -2
340
0
 93
        0
 40
0.045
309
GRIDFORMAT_END
 95
        8
302
GRIDFORMAT
  1
GRIDFORMAT_BEGIN
 90
        0
 91
        1
 62
     0
 92
       -2
340
0
 93
        0
 40
0.045
309
GRIDFORMAT_END
 95
       16
302
GRIDFORMAT
  1
GRIDFORMAT_BEGIN
 90
        0
 91
        1
 62
     0
 92
       -2
340
0
 93
        0
 40
0.045
309
GRIDFORMAT_END
 95
       32
302
GRIDFORMAT
  1
GRIDFORMAT_BEGIN
 90
        0
 91
        1
 62
     0
 92
       -2
340
0
 93
        0
 40
0.045
309
GRIDFORMAT_END
309
TABLEFORMAT_END
  1
CELLSTYLE_BEGIN
 90
        2
 91
        1
300
_HEADER
309
CELLSTYLE_END
300
CELLSTYLE
  1
TABLEFORMAT_BEGIN
 90
        5
170
     1
 91
        0
 92
        0
 62
   257
 93
        1
300
CONTENTFORMAT
  1
CONTENTFORMAT_BEGIN
 90
        0
 91
        0
 92
      512
 93
        0
300

 40
0.0
140
1.0
 94
        2
 62
     0
340
11
144
0.18
309
CONTENTFORMAT_END
171
     1
301
MARGIN
  1
CELLMARGIN_BEGIN
 40
0.06
 40
0.06
 40
0.06
 40
0.06
 40
0.18
 40
0.18
309
CELLMARGIN_END
 94
        6
 95
        1
302
GRIDFORMAT
  1
GRIDFORMAT_BEGIN
 90
        0
 91
        1
 62
     0
 92
       -2
340
0
 93
        0
 40
0.045
309
GRIDFORMAT_END
 95
        2
302
GRIDFORMAT
  1
GRIDFORMAT_BEGIN
 90
        0
 91
        1
 62
     0
 92
       -2
340
0
 93
        0
 40
0.045
309
GRIDFORMAT_END
 95
        4
302
GRIDFORMAT
  1
GRIDFORMAT_BEGIN
 90
        0
 91
        1
 62
     0
 92
       -2
340
0
 93
        0
 40
0.045
309
GRIDFORMAT_END
 95
        8
302
GRIDFORMAT
  1
GRIDFORMAT_BEGIN
 90
        0
 91
        1
 62
     0
 92
       -2
340
0
 93
        0
 40
0.045
309
GRIDFORMAT_END
 95
       16
302
GRIDFORMAT
  1
GRIDFORMAT_BEGIN
 90
        0
 91
        1
 62
     0
 92
       -2
340
0
 93
        0
 40
0.045
309
GRIDFORMAT_END
 95
       32
302
GRIDFORMAT
  1
GRIDFORMAT_BEGIN
 90
        0
 91
        1
 62
     0
 92
       -2
340
0
 93
        0
 40
0.045
309
GRIDFORMAT_END
309
TABLEFORMAT_END
  1
CELLSTYLE_BEGIN
 90
        3
 91
        2
300
_DATA
309
CELLSTYLE_END
  0
XRECORD
  5
12542
102
{ACAD_REACTORS
330
50D6
102
}
330
50D6
100
AcDbXrecord
280
     1
102
ACAD_ROUNDTRIP_PRE2007_TABLESTYLE
 90
      512
 91
        0
  1

 92
      512
 93
        0
  2

 94
      512
 95
        0
  3

  0
ENDSEC
  0
EOF
