  0
SECTION
  2
HEADER
  9
$ACADVER
  1
AC1015
  9
$ACADMAINTVER
 70
    20
  9
$DWGCODEPAGE
  3
ANSI_936
  9
$INSBASE
 10
0.0
 20
0.0
 30
0.0
  9
$EXTMIN
 10
375.5562134814872
 20
184.529655967694
 30
-0.0015258207003583
  9
$EXTMAX
 10
672.6652799046124
 20
394.5792560126008
 30
0.0000000349246037
  9
$LIMMIN
 10
0.0
 20
0.0
  9
$LIMMAX
 10
12.0
 20
9.0
  9
$ORTHOMODE
 70
     0
  9
$REGENMODE
 70
     1
  9
$FILLMODE
 70
     1
  9
$QTEXTMODE
 70
     0
  9
$MIRRTEXT
 70
     1
  9
$LTSCALE
 40
1.0
  9
$ATTMODE
 70
     1
  9
$TEXTSIZE
 40
0.2
  9
$TRACEWID
 40
0.05
  9
$TEXTSTYLE
  7
Standard
  9
$CLAYER
  8
DIM
  9
$CELTYPE
  6
ByLayer
  9
$CECOLOR
 62
   256
  9
$CELTSCALE
 40
1.0
  9
$DISPSILH
 70
     0
  9
$DIMSCALE
 40
1.0
  9
$DIMASZ
 40
3.0
  9
$DIMEXO
 40
0.2
  9
$DIMDLI
 40
0.2
  9
$DIMRND
 40
0.0
  9
$DIMDLE
 40
0.0
  9
$DIMEXE
 40
1.199999999999999
  9
$DIMTP
 40
0.0
  9
$DIMTM
 40
0.0
  9
$DIMTXT
 40
3.5
  9
$DIMCEN
 40
0.0
  9
$DIMTSZ
 40
0.0
  9
$DIMTOL
 70
     0
  9
$DIMLIM
 70
     0
  9
$DIMTIH
 70
     0
  9
$DIMTOH
 70
     0
  9
$DIMSE1
 70
     0
  9
$DIMSE2
 70
     0
  9
$DIMTAD
 70
     1
  9
$DIMZIN
 70
     8
  9
$DIMBLK
  1

  9
$DIMASO
 70
     1
  9
$DIMSHO
 70
     1
  9
$DIMPOST
  1

  9
$DIMAPOST
  1

  9
$DIMALT
 70
     0
  9
$DIMALTD
 70
     2
  9
$DIMALTF
 40
25.4
  9
$DIMLFAC
 40
1.0
  9
$DIMTOFL
 70
     0
  9
$DIMTVP
 40
0.0
  9
$DIMTIX
 70
     0
  9
$DIMSOXD
 70
     0
  9
$DIMSAH
 70
     0
  9
$DIMBLK1
  1

  9
$DIMBLK2
  1

  9
$DIMSTYLE
  2
01
  9
$DIMCLRD
 70
     1
  9
$DIMCLRE
 70
     6
  9
$DIMCLRT
 70
     4
  9
$DIMTFAC
 40
1.0
  9
$DIMGAP
 40
0.8
  9
$DIMJUST
 70
     0
  9
$DIMSD1
 70
     0
  9
$DIMSD2
 70
     0
  9
$DIMTOLJ
 70
     1
  9
$DIMTZIN
 70
     0
  9
$DIMALTZ
 70
     0
  9
$DIMALTTZ
 70
     0
  9
$DIMUPT
 70
     0
  9
$DIMDEC
 70
     1
  9
$DIMTDEC
 70
     1
  9
$DIMALTU
 70
     2
  9
$DIMALTTD
 70
     2
  9
$DIMTXSTY
  7
Romans字体
  9
$DIMAUNIT
 70
     0
  9
$DIMADEC
 70
     2
  9
$DIMALTRND
 40
0.0
  9
$DIMAZIN
 70
     2
  9
$DIMDSEP
 70
    46
  9
$DIMATFIT
 70
     3
  9
$DIMFRAC
 70
     0
  9
$DIMLDRBLK
  1

  9
$DIMLUNIT
 70
     2
  9
$DIMLWD
 70
    -2
  9
$DIMLWE
 70
    -2
  9
$DIMTMOVE
 70
     0
  9
$LUNITS
 70
     2
  9
$LUPREC
 70
     4
  9
$SKETCHINC
 40
0.1
  9
$FILLETRAD
 40
0.5
  9
$AUNITS
 70
     0
  9
$AUPREC
 70
     0
  9
$MENU
  1
.
  9
$ELEVATION
 40
0.0
  9
$PELEVATION
 40
0.0
  9
$THICKNESS
 40
0.0
  9
$LIMCHECK
 70
     0
  9
$CHAMFERA
 40
0.5
  9
$CHAMFERB
 40
0.5
  9
$CHAMFERC
 40
1.0
  9
$CHAMFERD
 40
0.0
  9
$SKPOLY
 70
     0
  9
$TDCREATE
 40
2456524.383632987
  9
$TDUCREATE
 40
2456524.050299653
  9
$TDUPDATE
 40
2460309.610262396
  9
$TDUUPDATE
 40
2460309.276929062
  9
$TDINDWG
 40
0.8962696065
  9
$TDUSRTIMER
 40
0.8962511806
  9
$USRTIMER
 70
     1
  9
$ANGBASE
 50
0.0
  9
$ANGDIR
 70
     0
  9
$PDMODE
 70
     0
  9
$PDSIZE
 40
0.0
  9
$PLINEWID
 40
0.0
  9
$SPLFRAME
 70
     0
  9
$SPLINETYPE
 70
     6
  9
$SPLINESEGS
 70
     8
  9
$HANDSEED
  5
14824
  9
$SURFTAB1
 70
     6
  9
$SURFTAB2
 70
     6
  9
$SURFTYPE
 70
     6
  9
$SURFU
 70
     6
  9
$SURFV
 70
     6
  9
$UCSBASE
  2

  9
$UCSNAME
  2

  9
$UCSORG
 10
0.0
 20
0.0
 30
0.0
  9
$UCSXDIR
 10
1.0
 20
0.0
 30
0.0
  9
$UCSYDIR
 10
0.0
 20
1.0
 30
0.0
  9
$UCSORTHOREF
  2

  9
$UCSORTHOVIEW
 70
     0
  9
$UCSORGTOP
 10
0.0
 20
0.0
 30
0.0
  9
$UCSORGBOTTOM
 10
0.0
 20
0.0
 30
0.0
  9
$UCSORGLEFT
 10
0.0
 20
0.0
 30
0.0
  9
$UCSORGRIGHT
 10
0.0
 20
0.0
 30
0.0
  9
$UCSORGFRONT
 10
0.0
 20
0.0
 30
0.0
  9
$UCSORGBACK
 10
0.0
 20
0.0
 30
0.0
  9
$PUCSBASE
  2

  9
$PUCSNAME
  2

  9
$PUCSORG
 10
0.0
 20
0.0
 30
0.0
  9
$PUCSXDIR
 10
1.0
 20
0.0
 30
0.0
  9
$PUCSYDIR
 10
0.0
 20
1.0
 30
0.0
  9
$PUCSORTHOREF
  2

  9
$PUCSORTHOVIEW
 70
     0
  9
$PUCSORGTOP
 10
0.0
 20
0.0
 30
0.0
  9
$PUCSORGBOTTOM
 10
0.0
 20
0.0
 30
0.0
  9
$PUCSORGLEFT
 10
0.0
 20
0.0
 30
0.0
  9
$PUCSORGRIGHT
 10
0.0
 20
0.0
 30
0.0
  9
$PUCSORGFRONT
 10
0.0
 20
0.0
 30
0.0
  9
$PUCSORGBACK
 10
0.0
 20
0.0
 30
0.0
  9
$USERI1
 70
     0
  9
$USERI2
 70
     0
  9
$USERI3
 70
     0
  9
$USERI4
 70
     0
  9
$USERI5
 70
     0
  9
$USERR1
 40
0.0
  9
$USERR2
 40
0.0
  9
$USERR3
 40
0.0
  9
$USERR4
 40
0.0
  9
$USERR5
 40
0.0
  9
$WORLDVIEW
 70
     1
  9
$SHADEDGE
 70
     3
  9
$SHADEDIF
 70
    70
  9
$TILEMODE
 70
     1
  9
$MAXACTVP
 70
    64
  9
$PINSBASE
 10
0.0
 20
0.0
 30
0.0
  9
$PLIMCHECK
 70
     0
  9
$PEXTMIN
 10
1.000000000000000E+20
 20
1.000000000000000E+20
 30
1.000000000000000E+20
  9
$PEXTMAX
 10
-1.000000000000000E+20
 20
-1.000000000000000E+20
 30
-1.000000000000000E+20
  9
$PLIMMIN
 10
0.0
 20
0.0
  9
$PLIMMAX
 10
12.0
 20
9.0
  9
$UNITMODE
 70
     0
  9
$VISRETAIN
 70
     1
  9
$PLINEGEN
 70
     0
  9
$PSLTSCALE
 70
     1
  9
$TREEDEPTH
 70
  3020
  9
$CMLSTYLE
  2
Standard
  9
$CMLJUST
 70
     0
  9
$CMLSCALE
 40
1.0
  9
$PROXYGRAPHICS
 70
     1
  9
$MEASUREMENT
 70
     0
  9
$CELWEIGHT
370
    -1
  9
$ENDCAPS
280
     0
  9
$JOINSTYLE
280
     0
  9
$LWDISPLAY
290
     0
  9
$INSUNITS
 70
     4
  9
$HYPERLINKBASE
  1

  9
$STYLESHEET
  1
monochrome.ctb
  9
$XEDIT
290
     1
  9
$CEPSNTYPE
380
     0
  9
$PSTYLEMODE
290
     1
  9
$FINGERPRINTGUID
  2
{4A02065B-8BB3-4A96-9036-502DC906C165}
  9
$VERSIONGUID
  2
{5F957880-B4AF-449D-ADA2-6D7BC8BC90D6}
  9
$EXTNAMES
290
     1
  9
$PSVPSCALE
 40
0.0
  9
$OLESTARTUP
290
     0
  0
ENDSEC
  0
SECTION
  2
CLASSES
  0
CLASS
  1
ACDBDICTIONARYWDFLT
  2
AcDbDictionaryWithDefault
  3
ObjectDBX Classes
 90
        0
280
     0
281
     0
  0
CLASS
  1
VISUALSTYLE
  2
AcDbVisualStyle
  3
ObjectDBX Classes
 90
     4095
280
     0
281
     0
  0
CLASS
  1
MATERIAL
  2
AcDbMaterial
  3
ObjectDBX Classes
 90
     1153
280
     0
281
     0
  0
CLASS
  1
TABLESTYLE
  2
AcDbTableStyle
  3
ObjectDBX Classes
 90
     4095
280
     0
281
     0
  0
CLASS
  1
SCALE
  2
AcDbScale
  3
ObjectDBX Classes
 90
     1153
280
     0
281
     0
  0
CLASS
  1
MLEADERSTYLE
  2
AcDbMLeaderStyle
  3
ACDB_MLEADERSTYLE_CLASS
 90
     4095
280
     0
281
     0
  0
CLASS
  1
CELLSTYLEMAP
  2
AcDbCellStyleMap
  3
ObjectDBX Classes
 90
     1152
280
     0
281
     0
  0
CLASS
  1
DICTIONARYVAR
  2
AcDbDictionaryVar
  3
ObjectDBX Classes
 90
        0
280
     0
281
     0
  0
CLASS
  1
SORTENTSTABLE
  2
AcDbSortentsTable
  3
ObjectDBX Classes
 90
        0
280
     0
281
     0
  0
CLASS
  1
ACAD_EVALUATION_GRAPH
  2
AcDbEvalGraph
  3
ObjectDBX Classes
 90
     1153
280
     0
281
     0
  0
CLASS
  1
ACAECUSTOBJ
  2
AcAeEditorObj
  3
AcAeEditorObj
 90
     1024
280
     0
281
     0
  0
CLASS
  1
ACDB_DYNAMICBLOCKPURGEPREVENTER_VERSION
  2
AcDbDynamicBlockPurgePreventer
  3
ObjectDBX Classes
 90
     1153
280
     0
281
     0
  0
CLASS
  1
MENTALRAYRENDERSETTINGS
  2
AcDbMentalRayRenderSettings
  3
SCENEOE
 90
     1024
280
     0
281
     0
  0
CLASS
  1
ACDB_BLOCKREPRESENTATION_DATA
  2
AcDbBlockRepresentationData
  3
ObjectDBX Classes
 90
    33921
280
     0
281
     0
  0
CLASS
  1
DIMASSOC
  2
AcDbDimAssoc
  3
"AcDbDimAssoc|Product Desc:     AcDim ARX App For Dimension|Company:          Autodesk, Inc.|WEB Address:      www.autodesk.com"
 90
    32768
280
     0
281
     0
  0
CLASS
  1
ACDBPLACEHOLDER
  2
AcDbPlaceHolder
  3
ObjectDBX Classes
 90
        0
280
     0
281
     0
  0
CLASS
  1
LAYOUT
  2
AcDbLayout
  3
ObjectDBX Classes
 90
        0
280
     0
281
     0
  0
ENDSEC
  0
SECTION
  2
TABLES
  0
TABLE
  2
VPORT
  5
8
102
{ACAD_XDICTIONARY
360
50EE
102
}
330
0
100
AcDbSymbolTable
 70
     1
  0
VPORT
  5
29
330
8
100
AcDbSymbolTableRecord
100
AcDbViewportTableRecord
  2
*Active
 70
     0
 10
0.0
 20
0.0
 11
1.0
 21
1.0
 12
373.5913851912265
 22
153.8515632788121
 13
0.0
 23
0.0
 14
0.5
 24
0.5
 15
0.5
 25
0.5
 16
0.0
 26
0.0
 36
1.0
 17
104.9654968719086
 27
148.5022307685978
 37
0.0
 40
421.340351322172
 41
2.087847730600292
 42
50.0
 43
0.0
 44
0.0
 50
0.0
 51
0.0
 71
     0
 72
   100
 73
     1
 74
     3
 75
     0
 76
     0
 77
     0
 78
     0
281
     0
 65
     1
110
0.0
120
0.0
130
0.0
111
1.0
121
0.0
131
0.0
112
0.0
122
1.0
132
0.0
 79
     0
146
0.0
  0
ENDTAB
  0
TABLE
  2
LTYPE
  5
5
330
0
100
AcDbSymbolTable
 70
     1
  0
LTYPE
  5
14
330
5
100
AcDbSymbolTableRecord
100
AcDbLinetypeTableRecord
  2
ByBlock
 70
     0
  3

 72
    65
 73
     0
 40
0.0
  0
LTYPE
  5
15
330
5
100
AcDbSymbolTableRecord
100
AcDbLinetypeTableRecord
  2
ByLayer
 70
     0
  3

 72
    65
 73
     0
 40
0.0
  0
LTYPE
  5
16
330
5
100
AcDbSymbolTableRecord
100
AcDbLinetypeTableRecord
  2
Continuous
 70
     0
  3
Solid line
 72
    65
 73
     0
 40
0.0
  0
ENDTAB
  0
TABLE
  2
LAYER
  5
2
102
{ACAD_XDICTIONARY
360
50B8
102
}
330
0
100
AcDbSymbolTable
 70
     6
  0
LAYER
  5
10
102
{ACAD_XDICTIONARY
360
50D0
102
}
330
2
100
AcDbSymbolTableRecord
100
AcDbLayerTableRecord
  2
0
 70
     0
 62
     7
  6
Continuous
370
    30
390
F
  0
LAYER
  5
3B
102
{ACAD_XDICTIONARY
360
50D2
102
}
330
2
100
AcDbSymbolTableRecord
100
AcDbLayerTableRecord
  2
图层 1
 70
     0
 62
     7
  6
Continuous
370
    -3
390
F
  0
LAYER
  5
50AE
102
{ACAD_XDICTIONARY
360
50AF
102
}
330
2
100
AcDbSymbolTableRecord
100
AcDbLayerTableRecord
  2
图框
 70
     0
 62
     7
  6
Continuous
370
    20
390
F
  0
LAYER
  5
5141
330
2
100
AcDbSymbolTableRecord
100
AcDbLayerTableRecord
  2
Defpoints
 70
     0
 62
     7
  6
Continuous
290
     0
370
    -3
390
F
  0
LAYER
  5
5144
330
2
100
AcDbSymbolTableRecord
100
AcDbLayerTableRecord
  2
DIM
 70
     0
 62
     3
  6
Continuous
370
    15
390
F
1001
AcAecLayerStandard
1000

1000

  0
LAYER
  5
52F3
330
2
100
AcDbSymbolTableRecord
100
AcDbLayerTableRecord
  2
打标文字
 70
     0
 62
     3
  6
Continuous
370
    20
390
F
  0
ENDTAB
  0
TABLE
  2
STYLE
  5
3
330
0
100
AcDbSymbolTable
 70
     5
  0
STYLE
  5
11
330
3
100
AcDbSymbolTableRecord
100
AcDbTextStyleTableRecord
  2
Standard
 70
     0
 40
0.0
 41
0.75
 50
0.0
 71
     0
 42
0.2
  3

  4

1001
ACAD
1000
仿宋_GB2312
1071
    34353
  0
STYLE
  5
FD48
330
3
100
AcDbSymbolTableRecord
100
AcDbTextStyleTableRecord
  2
Romans字体
 70
     0
 40
0.0
 41
0.75
 50
0.0
 71
     0
 42
0.2
  3
romans.shx
  4

  0
STYLE
  5
11080
330
3
100
AcDbSymbolTableRecord
100
AcDbTextStyleTableRecord
  2
工程字
 70
     0
 40
0.0
 41
1.0
 50
0.0
 71
     0
 42
3.5
  3
gbenor.shx
  4
gbcbig.shx
  0
STYLE
  5
11081
330
3
100
AcDbSymbolTableRecord
100
AcDbTextStyleTableRecord
  2
Chinese
 70
     0
 40
0.0
 41
1.0
 50
0.0
 71
     0
 42
2.5
  3
PMingLiU.ttf
  4

1001
ACAD
1000
PMingLiU
1071
    34834
  0
ENDTAB
  0
TABLE
  2
VIEW
  5
6
330
0
100
AcDbSymbolTable
 70
     0
  0
ENDTAB
  0
TABLE
  2
UCS
  5
7
330
0
100
AcDbSymbolTable
 70
     0
  0
ENDTAB
  0
TABLE
  2
APPID
  5
9
330
0
100
AcDbSymbolTable
 70
    17
  0
APPID
  5
12
330
9
100
AcDbSymbolTableRecord
100
AcDbRegAppTableRecord
  2
ACAD
 70
     0
  0
APPID
  5
5024
330
9
100
AcDbSymbolTableRecord
100
AcDbRegAppTableRecord
  2
ACAD_MLEADERVER
 70
     0
  0
APPID
  5
50B5
330
9
100
AcDbSymbolTableRecord
100
AcDbRegAppTableRecord
  2
AcDbDynamicBlockGUID
 70
     0
  0
APPID
  5
50B6
330
9
100
AcDbSymbolTableRecord
100
AcDbRegAppTableRecord
  2
AcDbBlockRepETag
 70
     0
  0
APPID
  5
50B7
330
9
100
AcDbSymbolTableRecord
100
AcDbRegAppTableRecord
  2
ACAD_PSEXT
 70
     0
  0
APPID
  5
50CF
330
9
100
AcDbSymbolTableRecord
100
AcDbRegAppTableRecord
  2
AcadAnnoPO
 70
     0
  0
APPID
  5
5146
330
9
100
AcDbSymbolTableRecord
100
AcDbRegAppTableRecord
  2
AcAecLayerStandard
 70
     0
  0
APPID
  5
5147
330
9
100
AcDbSymbolTableRecord
100
AcDbRegAppTableRecord
  2
ACAD_DSTYLE_DIMJAG
 70
     0
  0
APPID
  5
5148
330
9
100
AcDbSymbolTableRecord
100
AcDbRegAppTableRecord
  2
ACAD_DSTYLE_DIMTALN
 70
     0
  0
APPID
  5
52AD
330
9
100
AcDbSymbolTableRecord
100
AcDbRegAppTableRecord
  2
ACAUTHENVIRON
 70
     0
  0
APPID
  5
52B0
330
9
100
AcDbSymbolTableRecord
100
AcDbRegAppTableRecord
  2
AcDbDynamicBlockTrueName
 70
     0
  0
APPID
  5
67C6
330
9
100
AcDbSymbolTableRecord
100
AcDbRegAppTableRecord
  2
ACAD_EXEMPT_FROM_CAD_STANDARDS
 70
     0
  0
APPID
  5
6838
330
9
100
AcDbSymbolTableRecord
100
AcDbRegAppTableRecord
  2
ACAD_NAV_VCDISPLAY
 70
     0
  0
APPID
  5
70A9
330
9
100
AcDbSymbolTableRecord
100
AcDbRegAppTableRecord
  2
DCO15
 70
     0
  0
APPID
  5
8725
330
9
100
AcDbSymbolTableRecord
100
AcDbRegAppTableRecord
  2
AcDbBlockRepBTag
 70
     0
  0
APPID
  5
FE64
330
9
100
AcDbSymbolTableRecord
100
AcDbRegAppTableRecord
  2
ACAD_DSTYLE_DIMRADIAL_EXTENSION
 70
     0
  0
APPID
  5
FF93
330
9
100
AcDbSymbolTableRecord
100
AcDbRegAppTableRecord
  2
ACAD_DSTYLE_DIMBREAK
 70
     0
  0
ENDTAB
  0
TABLE
  2
DIMSTYLE
  5
A
330
0
100
AcDbSymbolTable
 70
     3
100
AcDbDimStyleTable
 71
     2
340
5145
340
27
  0
DIMSTYLE
105
27
330
A
100
AcDbSymbolTableRecord
100
AcDbDimStyleTableRecord
  2
Standard
 70
     0
340
11
  0
DIMSTYLE
105
5145
102
{ACAD_REACTORS
330
1458C
330
1458D
330
1458E
330
1458F
330
14590
102
}
330
A
100
AcDbSymbolTableRecord
100
AcDbDimStyleTableRecord
  2
01
 70
     0
 41
3.0
 42
0.2
 43
0.2
 44
1.199999999999999
 73
     0
 74
     0
 77
     1
 78
     8
 79
     2
140
3.5
141
0.0
147
0.8
176
     1
177
     6
178
     4
179
     2
271
     1
272
     1
340
FD48
1001
ACAD_DSTYLE_DIMJAG
1070
   388
1040
1.5
1001
ACAD_DSTYLE_DIMTALN
1070
   392
1070
     0
  0
ENDTAB
  0
TABLE
  2
BLOCK_RECORD
  5
1
330
0
100
AcDbSymbolTable
 70
     9
  0
BLOCK_RECORD
  5
1F
102
{ACAD_XDICTIONARY
360
67C0
102
}
330
1
100
AcDbSymbolTableRecord
100
AcDbBlockTableRecord
  2
*Model_Space
340
22
  0
BLOCK_RECORD
  5
1B
330
1
100
AcDbSymbolTableRecord
100
AcDbBlockTableRecord
  2
*Paper_Space
340
1E
  0
BLOCK_RECORD
  5
23
330
1
100
AcDbSymbolTableRecord
100
AcDbBlockTableRecord
  2
*Paper_Space0
340
26
  0
BLOCK_RECORD
  5
10FE8
102
{ACAD_XDICTIONARY
360
147CD
102
}
330
1
100
AcDbSymbolTableRecord
100
AcDbBlockTableRecord
  2
A4图框-NEW
340
0
310
2800000020000000200000000100080000000000000400000000000000000000000000000000000000000000000080000080000000808000800000008000800080800000C0C0C000C0DCC000F0CAA6000020400000206000002080000020A0000020C0000020E00000400000004020000040400000406000004080000040A0
310
000040C0000040E00000600000006020000060400000606000006080000060A0000060C0000060E00000800000008020000080400000806000008080000080A0000080C0000080E00000A0000000A0200000A0400000A0600000A0800000A0A00000A0C00000A0E00000C0000000C0200000C0400000C0600000C0800000C0
310
A00000C0C00000C0E00000E0000000E0200000E0400000E0600000E0800000E0A00000E0C00000E0E00040000000400020004000400040006000400080004000A0004000C0004000E00040200000402020004020400040206000402080004020A0004020C0004020E000404000004040200040404000404060004040800040
310
40A0004040C0004040E00040600000406020004060400040606000406080004060A0004060C0004060E00040800000408020004080400040806000408080004080A0004080C0004080E00040A0000040A0200040A0400040A0600040A0800040A0A00040A0C00040A0E00040C0000040C0200040C0400040C0600040C08000
310
40C0A00040C0C00040C0E00040E0000040E0200040E0400040E0600040E0800040E0A00040E0C00040E0E00080000000800020008000400080006000800080008000A0008000C0008000E00080200000802020008020400080206000802080008020A0008020C0008020E00080400000804020008040400080406000804080
310
008040A0008040C0008040E00080600000806020008060400080606000806080008060A0008060C0008060E00080800000808020008080400080806000808080008080A0008080C0008080E00080A0000080A0200080A0400080A0600080A0800080A0A00080A0C00080A0E00080C0000080C0200080C0400080C0600080C0
310
800080C0A00080C0C00080C0E00080E0000080E0200080E0400080E0600080E0800080E0A00080E0C00080E0E000C0000000C0002000C0004000C0006000C0008000C000A000C000C000C000E000C0200000C0202000C0204000C0206000C0208000C020A000C020C000C020E000C0400000C0402000C0404000C0406000C0
310
408000C040A000C040C000C040E000C0600000C0602000C0604000C0606000C0608000C060A000C060C000C060E000C0800000C0802000C0804000C0806000C0808000C080A000C080C000C080E000C0A00000C0A02000C0A04000C0A06000C0A08000C0A0A000C0A0C000C0A0E000C0C00000C0C02000C0C04000C0C06000
310
C0C08000C0C0A000F0FBFF00A4A0A000808080000000FF0000FF000000FFFF00FF000000FF00FF00FFFF0000FFFFFF0000000000000000000000000000000000000000000000000000000000000000000000000000000000000000000000000000000000000000000000000000000000000000000000000000000000000000
310
000000000000000000000000000000000000000000000000000000000000000000000000000000000000000000000000000000000000000000000000000000000000000000000000000000000000000000000000000000000000000000000000000000000000000000000000000000000000F9F9F9F9F9F9F9F9F9F9F9F9F9
310
F9F9F9F9F9F9F9F9F9F9F9F9F9F9FF00000000F9FF000000000000000000FFFFFFFFFFFFFFFFFFFFFFFFF9FAFAFAFF00000000F9FF000000000000000000FFFFFFFFFFFFFFFFFFFFFFFFFFFFFFFFFF00000000F9FD000000000000000000FFFFFFFFFFFFFFFFFFFFFFFFFFFFFFFFFF00000000F9FF000000000000000000FF
310
FFFFFFFFFFFFFFFFFFFFFFFFFFFFFFFF00000000F9FD000000000000000000FFFFFFFFFFFFFFFFFFFFFFFFFFFFFFFFFF00000000F9FF00000000000000000000000000000000000000000000000000FF00000000F9FD00000000000000000000000000000000000000000000000000FF00000000F9FF000000000000000000
310
00000000000000000000000000000000FF00000000F9FD00000000000000000000000000000000000000000000000000FF00000000F9FF00000000000000000000000000000000000000000000000000FF00000000F9FD00000000000000000000000000000000000000000000000000FF00000000F9FD0000000000000000
310
0000000000000000000000000000000000FF00000000F9FF00000000000000000000000000000000000000000000000000FF00000000F9FD00000000000000000000000000000000000000000000000000FF00000000F9FF00000000000000000000000000000000000000000000000000FF00000000F9FD00000000000000
310
000000000000000000000000000000000000FF00000000F9FF00000000000000000000000000000000000000000000000000FF00000000F9FFFFFFFFFFFFFFFFFFFFFFFFFFFFFFFFFFFFFFFFFFFFFFFFFFFFFF00000000F9FFFFFFF9F9F9F9F9F9F9F9F9F9F9F9F9F9F9F9F9F9F9F9F9F9F9F9000000000000000000000000
310
00000000000000000000000000000000000000000000000000000000000000000000000000000000000000000000000000000000000000000000000000000000000000000000000000000000000000000000000000000000000000000000000000000000000000000000000000000000000000000000000000000000000000
310
0000000000000000000000000000000000000000000000000000000000000000000000000000000000000000000000000000000000000000
102
{BLKREFS
331
11089
102
}
1001
AcDbDynamicBlockGUID
1000
{B730977E-9EB2-4295-8C98-5DCD037B7B65}
1001
AcDbBlockRepETag
1070
     1
1071
      149
1001
ACAD
1000
DesignCenter Data
1002
{
1070
     1
1070
     4
1002
}
  0
BLOCK_RECORD
  5
14591
330
1
100
AcDbSymbolTableRecord
100
AcDbBlockTableRecord
  2
*D2
340
0
  0
BLOCK_RECORD
  5
1459D
330
1
100
AcDbSymbolTableRecord
100
AcDbBlockTableRecord
  2
*D3
340
0
  0
BLOCK_RECORD
  5
145A9
330
1
100
AcDbSymbolTableRecord
100
AcDbBlockTableRecord
  2
*D4
340
0
  0
BLOCK_RECORD
  5
145B5
330
1
100
AcDbSymbolTableRecord
100
AcDbBlockTableRecord
  2
*D5
340
0
  0
BLOCK_RECORD
  5
145C1
330
1
100
AcDbSymbolTableRecord
100
AcDbBlockTableRecord
  2
*D6
340
0
  0
ENDTAB
  0
ENDSEC
  0
SECTION
  2
BLOCKS
  0
BLOCK
  5
20
330
1F
100
AcDbEntity
  8
0
100
AcDbBlockBegin
  2
*Model_Space
 70
     0
 10
0.0
 20
0.0
 30
0.0
  3
*Model_Space
  1

  0
ENDBLK
  5
21
330
1F
100
AcDbEntity
  8
0
100
AcDbBlockEnd
  0
BLOCK
  5
1C
330
1B
100
AcDbEntity
 67
     1
  8
0
100
AcDbBlockBegin
  2
*Paper_Space
 70
     0
 10
0.0
 20
0.0
 30
0.0
  3
*Paper_Space
  1

  0
ENDBLK
  5
1D
330
1B
100
AcDbEntity
 67
     1
  8
0
100
AcDbBlockEnd
  0
BLOCK
  5
24
330
23
100
AcDbEntity
 67
     1
  8
0
100
AcDbBlockBegin
  2
*Paper_Space0
 70
     0
 10
0.0
 20
0.0
 30
0.0
  3
*Paper_Space0
  1

  0
ENDBLK
  5
25
330
23
100
AcDbEntity
 67
     1
  8
0
100
AcDbBlockEnd
  0
BLOCK
  5
10FEA
330
10FE8
100
AcDbEntity
  8
0
100
AcDbBlockBegin
  2
A4图框-NEW
 70
     0
 10
0.0
 20
0.0
 30
0.0
  3
A4图框-NEW
  1

  0
MTEXT
  5
14738
102
{ACAD_XDICTIONARY
360
147DE
102
}
330
10FE8
100
AcDbEntity
  8
图框
 62
     3
100
AcDbMText
 10
967.6594956750133
 20
499.7664151964293
 30
0.0
 40
2.985513575034151
 41
15.50176341157864
 71
     5
 72
     5
  1
BQ LUO
  7
Romans字体
 73
     1
 44
1.0
1001
AcDbBlockRepETag
1070
     1
1071
        0
1005
14738
1001
ACAD
1000
MTEXTBEGIN
1070
    73
1070
     1
1070
    44
1040
1.0
1070
    74
1070
     0
1000
MTEXTEND
1000
ACAD_MTEXT_DEFINED_HEIGHT_BEGIN
1070
    46
1040
6.292658374511018
1000
ACAD_MTEXT_DEFINED_HEIGHT_END
  0
MTEXT
  5
14739
330
10FE8
100
AcDbEntity
  8
图框
 62
     3
100
AcDbMText
 10
983.041569333247
 20
499.7664151964293
 30
0.0
 40
2.487927979195124
 41
15.26238390489051
 71
     5
 72
     5
  1
{\W0.7;18.10.2010}
  7
Romans字体
 73
     1
 44
1.0
1001
AcDbBlockRepETag
1070
     1
1071
        1
1005
14739
1001
ACAD
1000
MTEXTBEGIN
1070
    73
1070
     1
1070
    44
1040
1.0
1070
    74
1070
     0
1000
MTEXTEND
1000
ACAD_MTEXT_DEFINED_HEIGHT_BEGIN
1070
    46
1040
6.292658374511042
1000
ACAD_MTEXT_DEFINED_HEIGHT_END
  0
MTEXT
  5
1473A
330
10FE8
100
AcDbEntity
  8
图框
 62
     3
100
AcDbMText
 10
1012.477254728976
 20
487.1810984474071
 30
0.0
 40
2.985513575034151
 41
17.64876416884615
 71
     5
 72
     5
  1
YY LIN
  7
Romans字体
 73
     1
 44
1.0
1001
AcDbBlockRepETag
1070
     1
1071
        2
1005
1473A
1001
ACAD
1000
MTEXTBEGIN
1070
    73
1070
     1
1070
    44
1040
1.0
1070
    74
1070
     0
1000
MTEXTEND
1000
ACAD_MTEXT_DEFINED_HEIGHT_BEGIN
1070
    46
1040
6.292658374511455
1000
ACAD_MTEXT_DEFINED_HEIGHT_END
  0
MTEXT
  5
1473B
330
10FE8
100
AcDbEntity
  8
图框
 62
     3
100
AcDbMText
 10
1028.977802139886
 20
487.1810984474071
 30
0.0
 40
2.487927979195124
 41
15.35233065297276
 71
     5
 72
     5
  1
{\W0.7;18.10.2010}
  7
Romans字体
 73
     1
 44
1.0
1001
AcDbBlockRepETag
1070
     1
1071
        3
1005
1473B
1001
ACAD
1000
MTEXTBEGIN
1070
    73
1070
     1
1070
    44
1040
1.0
1070
    74
1070
     0
1000
MTEXTEND
1000
ACAD_MTEXT_DEFINED_HEIGHT_BEGIN
1070
    46
1040
6.292658374511495
1000
ACAD_MTEXT_DEFINED_HEIGHT_END
  0
MTEXT
  5
1473C
330
10FE8
100
AcDbEntity
  8
图框
 62
     3
100
AcDbMText
 10
1063.722665487208
 20
525.4145966538831
 30
0.0
 40
2.985513575034151
 41
32.4973914334545
 71
     5
 72
     5
  1
-
  7
Romans字体
 73
     1
 44
1.0
1001
AcDbBlockRepETag
1070
     1
1071
        4
1005
1473C
1001
ACAD
1000
MTEXTBEGIN
1070
    73
1070
     1
1070
    44
1040
1.0
1070
    74
1070
     0
1000
MTEXTEND
1000
ACAD_MTEXT_DEFINED_HEIGHT_BEGIN
1070
    46
1040
11.82914190181707
1000
ACAD_MTEXT_DEFINED_HEIGHT_END
  0
MTEXT
  5
1473D
330
10FE8
100
AcDbEntity
  8
图框
 62
     3
100
AcDbMText
 10
1063.727338552349
 20
513.5854547520641
 30
0.0
 40
2.985513575034151
 41
32.48804530317308
 71
     5
 72
     5
  1
-
  7
Romans字体
 73
     1
 44
1.0
1001
AcDbBlockRepETag
1070
     1
1071
        5
1005
1473D
1001
ACAD
1000
MTEXTBEGIN
1070
    73
1070
     1
1070
    44
1040
1.0
1070
    74
1070
     0
1000
MTEXTEND
1000
ACAD_MTEXT_DEFINED_HEIGHT_BEGIN
1070
    46
1040
11.82914190182139
1000
ACAD_MTEXT_DEFINED_HEIGHT_END
  0
MTEXT
  5
1473E
330
10FE8
100
AcDbEntity
  8
图框
 62
     3
100
AcDbMText
 10
1110.122306614152
 20
526.8006839312707
 30
0.0
 40
2.985513575034151
 41
33.61239199242139
 71
     5
 72
     5
  1
-
  7
Romans字体
 73
     1
 44
1.0
1001
AcDbBlockRepETag
1070
     1
1071
        6
1005
1473E
1001
ACAD
1000
MTEXTBEGIN
1070
    73
1070
     1
1070
    44
1040
1.0
1070
    74
1070
     0
1000
MTEXTEND
1000
ACAD_MTEXT_DEFINED_HEIGHT_BEGIN
1070
    46
1040
9.05696734704178
1000
ACAD_MTEXT_DEFINED_HEIGHT_END
  0
MTEXT
  5
1473F
330
10FE8
100
AcDbEntity
  8
图框
 62
     3
100
AcDbMText
 10
1110.122306614152
 20
500.2775205517162
 30
0.0
 40
2.985513575034151
 41
33.61239199242139
 71
     5
 72
     5
  1
-
  7
Romans字体
 73
     1
 44
1.0
1001
AcDbBlockRepETag
1070
     1
1071
        7
1005
1473F
1001
ACAD
1000
MTEXTBEGIN
1070
    73
1070
     1
1070
    44
1040
1.0
1070
    74
1070
     0
1000
MTEXTEND
1000
ACAD_MTEXT_DEFINED_HEIGHT_BEGIN
1070
    46
1040
8.871557304763419
1000
ACAD_MTEXT_DEFINED_HEIGHT_END
  0
MTEXT
  5
14740
330
10FE8
100
AcDbEntity
  8
图框
 62
     3
100
AcDbMText
 10
967.6594956750133
 20
493.4737568219182
 30
0.0
 40
2.985513575034151
 41
15.50176341157864
 71
     5
 72
     5
  1
P RAO
  7
Romans字体
 73
     1
 44
1.0
1001
AcDbBlockRepETag
1070
     1
1071
        8
1005
14740
1001
ACAD
1000
MTEXTBEGIN
1070
    73
1070
     1
1070
    44
1040
1.0
1070
    74
1070
     0
1000
MTEXTEND
1000
ACAD_MTEXT_DEFINED_HEIGHT_BEGIN
1070
    46
1040
6.292658374510335
1000
ACAD_MTEXT_DEFINED_HEIGHT_END
  0
MTEXT
  5
14741
330
10FE8
100
AcDbEntity
  8
图框
 62
     3
100
AcDbMText
 10
983.041569333247
 20
493.2441970450405
 30
0.0
 40
2.487927979195124
 41
15.26238390489051
 71
     5
 72
     5
  1
{\W0.7;18.10.2010}
  7
Romans字体
 73
     1
 44
1.0
1001
AcDbBlockRepETag
1070
     1
1071
        9
1005
14741
1001
ACAD
1000
MTEXTBEGIN
1070
    73
1070
     1
1070
    44
1040
1.0
1070
    74
1070
     0
1000
MTEXTEND
1000
ACAD_MTEXT_DEFINED_HEIGHT_BEGIN
1070
    46
1040
6.751777928266487
1000
ACAD_MTEXT_DEFINED_HEIGHT_END
  0
MTEXT
  5
14742
330
10FE8
100
AcDbEntity
  8
图框
 62
     3
100
AcDbMText
 10
1012.477254728976
 20
499.7664151964291
 30
0.0
 40
2.985513575034151
 41
17.64876416884615
 71
     5
 72
     5
  1
-
  7
Romans字体
 73
     1
 44
1.0
1001
AcDbBlockRepETag
1070
     1
1071
       10
1005
14742
1001
ACAD
1000
MTEXTBEGIN
1070
    73
1070
     1
1070
    44
1040
1.0
1070
    74
1070
     0
1000
MTEXTEND
1000
ACAD_MTEXT_DEFINED_HEIGHT_BEGIN
1070
    46
1040
6.292658374511397
1000
ACAD_MTEXT_DEFINED_HEIGHT_END
  0
MTEXT
  5
14743
330
10FE8
100
AcDbEntity
  8
图框
 62
     3
100
AcDbMText
 10
1028.977802139886
 20
499.7664151964289
 30
0.0
 40
2.487927979195124
 41
15.35233065297265
 71
     5
 72
     5
  1
-
  7
Romans字体
 73
     1
 44
1.0
1001
AcDbBlockRepETag
1070
     1
1071
       11
1005
14743
1001
ACAD
1000
MTEXTBEGIN
1070
    73
1070
     1
1070
    44
1040
1.0
1070
    74
1070
     0
1000
MTEXTEND
1000
ACAD_MTEXT_DEFINED_HEIGHT_BEGIN
1070
    46
1040
6.292658374511382
1000
ACAD_MTEXT_DEFINED_HEIGHT_END
  0
MTEXT
  5
14744
330
10FE8
100
AcDbEntity
  8
图框
 62
     3
100
AcDbMText
 10
967.6594956750133
 20
487.1810984474071
 30
0.0
 40
2.985513575034151
 41
15.50176341157863
 71
     5
 72
     5
  1
-
  7
Romans字体
 73
     1
 44
1.0
1001
AcDbBlockRepETag
1070
     1
1071
       12
1005
14744
1001
ACAD
1000
MTEXTBEGIN
1070
    73
1070
     1
1070
    44
1040
1.0
1070
    74
1070
     0
1000
MTEXTEND
1000
ACAD_MTEXT_DEFINED_HEIGHT_BEGIN
1070
    46
1040
6.292658374511478
1000
ACAD_MTEXT_DEFINED_HEIGHT_END
  0
MTEXT
  5
14745
330
10FE8
100
AcDbEntity
  8
图框
 62
     3
100
AcDbMText
 10
983.041569333247
 20
487.1810984474071
 30
0.0
 40
2.487927979195124
 41
15.26238390489062
 71
     5
 72
     5
  1
-
  7
Romans字体
 73
     1
 44
1.0
1001
AcDbBlockRepETag
1070
     1
1071
       13
1005
14745
1001
ACAD
1000
MTEXTBEGIN
1070
    73
1070
     1
1070
    44
1040
1.0
1070
    74
1070
     0
1000
MTEXTEND
1000
ACAD_MTEXT_DEFINED_HEIGHT_BEGIN
1070
    46
1040
6.292658374511495
1000
ACAD_MTEXT_DEFINED_HEIGHT_END
  0
MTEXT
  5
14746
330
10FE8
100
AcDbEntity
  8
图框
 62
     3
100
AcDbMText
 10
1074.556686986741
 20
495.8417418993361
 30
0.0
 40
2.985513575034151
 41
10.82934843438978
 71
     5
 72
     5
  1
-
  7
Romans字体
 73
     1
 44
1.0
1001
AcDbBlockRepETag
1070
     1
1071
       14
1005
14746
1001
ACAD
1000
MTEXTBEGIN
1070
    73
1070
     1
1070
    44
1040
1.0
1070
    74
1070
     0
1000
MTEXTEND
1000
ACAD_MTEXT_DEFINED_HEIGHT_BEGIN
1070
    46
1040
7.886094601210427
1000
ACAD_MTEXT_DEFINED_HEIGHT_END
  0
LINE
  5
14747
330
10FE8
100
AcDbEntity
  8
图框
370
    -3
100
AcDbLine
 10
1036.653967466372
 20
499.7847891999413
 30
0.0
 11
1079.971361203936
 21
499.7847891999413
 31
0.0
1001
AcDbBlockRepETag
1070
     1
1071
       15
1005
14747
  0
MTEXT
  5
14748
330
10FE8
100
AcDbEntity
  8
图框
 62
     1
370
    20
100
AcDbMText
 10
1108.26336443907
 20
491.5162596080882
 30
0.0
 40
2.699054613030988
 41
82.30831305643079
 71
     5
 72
     5
  1
{\fSimHei|b0|i0|c134|p2;厦门唯恩电气有限公司}
 73
     1
 44
1.0
1001
AcDbBlockRepETag
1070
     1
1071
       16
1005
14748
1001
ACAD
1000
MTEXTBEGIN
1070
    73
1070
     1
1070
    44
1040
1.0
1070
    74
1070
     0
1000
MTEXTEND
  0
MTEXT
  5
14749
330
10FE8
100
AcDbEntity
  8
图框
 62
     3
370
    20
100
AcDbMText
 10
1108.435451459908
 20
487.298967726064
 30
0.0
 40
1.652482416141417
 41
68.08558693693567
 71
     5
 72
     5
  1
{\fArial Narrow|b0|i0|c0|p34;XIAMEN WAIN ELECTRICAL CO.LTD}
  7
工程字
 73
     1
 44
1.0
1001
AcDbBlockRepETag
1070
     1
1071
       17
1005
14749
1001
ACAD
1000
MTEXTBEGIN
1070
    73
1070
     1
1070
    44
1040
1.0
1070
    74
1070
     0
1000
MTEXTEND
  0
MTEXT
  5
1474A
330
10FE8
100
AcDbEntity
  8
图框
 62
     1
370
    20
100
AcDbMText
 10
1085.711816899387
 20
491.0944802995856
 30
0.0
 40
2.005930044038334
 41
5.047240019334847
 71
     1
 72
     5
  1
{\fArial|b0|i0|c0|p34;A}
  7
Chinese
 73
     1
 44
1.0
1001
AcDbBlockRepETag
1070
     1
1071
       18
1005
1474A
1001
ACAD
1000
MTEXTBEGIN
1070
    73
1070
     1
1070
    44
1040
1.0
1070
    74
1070
     0
1000
MTEXTEND
  0
MTEXT
  5
1474B
330
10FE8
100
AcDbEntity
  8
图框
 62
     1
370
    20
100
AcDbMText
 10
1088.213485935716
 20
491.0944802995856
 30
0.0
 40
2.005930044038334
 41
5.047240019334847
 71
     1
 72
     5
  1
{\fArial|b0|i0|c0|p34;I}
  7
Chinese
 73
     1
 44
1.0
1001
AcDbBlockRepETag
1070
     1
1071
       19
1005
1474B
1001
ACAD
1000
MTEXTBEGIN
1070
    73
1070
     1
1070
    44
1040
1.0
1070
    74
1070
     0
1000
MTEXTEND
  0
MTEXT
  5
1474C
330
10FE8
100
AcDbEntity
  8
图框
 62
     1
370
    20
100
AcDbMText
 10
1089.142375222864
 20
491.0822866326808
 30
0.0
 40
2.005930044038334
 41
5.047240019334847
 71
     1
 72
     5
  1
{\fArial|b0|i0|c0|p34;N}
  7
Chinese
 73
     1
 44
1.0
1001
AcDbBlockRepETag
1070
     1
1071
       20
1005
1474C
1001
ACAD
1000
MTEXTBEGIN
1070
    73
1070
     1
1070
    44
1040
1.0
1070
    74
1070
     0
1000
MTEXTEND
  0
MTEXT
  5
1474D
330
10FE8
100
AcDbEntity
  8
图框
100
AcDbMText
 10
1069.142012769545
 20
487.9667319294409
 30
0.0
 40
2.252848170144607
 41
21.65869686878327
 71
     5
 72
     5
  1
{\W0.5;\C1;All Dimensions in mm\POriginal Size DIN A 4}
  7
Romans字体
 73
     1
 44
1.0
1001
AcDbBlockRepETag
1070
     1
1071
       21
1005
1474D
1001
ACAD
1000
MTEXTBEGIN
1070
    73
1070
     1
1070
    44
1040
1.0
1070
    74
1070
     0
1000
MTEXTEND
1000
ACAD_MTEXT_DEFINED_HEIGHT_BEGIN
1070
    46
1040
7.863925338579296
1000
ACAD_MTEXT_DEFINED_HEIGHT_END
  0
MTEXT
  5
1474E
330
10FE8
100
AcDbEntity
  8
图框
  6
ByBlock
 62
     6
370
    18
100
AcDbMText
 10
1127.40434942308
 20
508.7896535755975
 30
0.0
 40
2.651776162684904
 41
2.557913877927211
 71
     1
 72
     5
  1
A
  7
Romans字体
 11
0.0000000000000001
 21
1.0
 31
0.0
 73
     1
 44
1.0
1001
AcDbBlockRepETag
1070
     1
1071
       22
1005
1474E
1001
ACAD
1000
MTEXTBEGIN
1070
    73
1070
     1
1070
    44
1040
1.0
1070
    74
1070
     0
1000
MTEXTEND
  0
MTEXT
  5
1474F
330
10FE8
100
AcDbEntity
  8
图框
 62
     6
100
AcDbMText
 10
1127.40434942308
 20
556.3746573232886
 30
0.0
 40
2.651776162684904
 41
2.557913877927211
 71
     1
 72
     5
  1
B
  7
Romans字体
 11
0.0000000000000001
 21
1.0
 31
0.0
 73
     1
 44
1.0
1001
AcDbBlockRepETag
1070
     1
1071
       23
1005
1474F
1001
ACAD
1000
MTEXTBEGIN
1070
    73
1070
     1
1070
    44
1040
1.0
1070
    74
1070
     0
1000
MTEXTEND
  0
MTEXT
  5
14750
330
10FE8
100
AcDbEntity
  8
图框
 62
     6
100
AcDbMText
 10
1127.40434942308
 20
607.5539372630998
 30
0.0
 40
2.651776162684904
 41
2.557913877927211
 71
     1
 72
     5
  1
C
  7
Romans字体
 11
0.0000000000000001
 21
1.0
 31
0.0
 73
     1
 44
1.0
1001
AcDbBlockRepETag
1070
     1
1071
       24
1005
14750
1001
ACAD
1000
MTEXTBEGIN
1070
    73
1070
     1
1070
    44
1040
1.0
1070
    74
1070
     0
1000
MTEXTEND
  0
MTEXT
  5
14751
330
10FE8
100
AcDbEntity
  8
图框
 62
     6
100
AcDbMText
 10
1127.40434942308
 20
658.7332172029115
 30
0.0
 40
2.651776162684904
 41
2.557913877927211
 71
     1
 72
     5
  1
D
  7
Romans字体
 11
0.0000000000000001
 21
1.0
 31
0.0
 73
     1
 44
1.0
1001
AcDbBlockRepETag
1070
     1
1071
       25
1005
14751
1001
ACAD
1000
MTEXTBEGIN
1070
    73
1070
     1
1070
    44
1040
1.0
1070
    74
1070
     0
1000
MTEXTEND
  0
LINE
  5
14752
330
10FE8
100
AcDbEntity
  8
图框
 62
     6
100
AcDbLine
 10
1130.411601781241
 20
634.0726090796082
 30
0.0
 11
1126.928502610363
 21
634.0726090796082
 31
0.0
1001
AcDbBlockRepETag
1070
     1
1071
       26
1005
14752
  0
LINE
  5
14753
330
10FE8
100
AcDbEntity
  8
图框
 62
     6
100
AcDbLine
 10
1130.411601781241
 20
582.89332913979
 30
0.0
 11
1126.928502610363
 21
582.89332913979
 31
0.0
1001
AcDbBlockRepETag
1070
     1
1071
       27
1005
14753
  0
MTEXT
  5
14754
330
10FE8
100
AcDbEntity
  8
图框
 62
     6
100
AcDbMText
 10
1105.329704038389
 20
483.6164543011163
 30
0.0
 40
2.651776162684904
 41
2.557913877927211
 71
     1
 72
     5
  1
6
  7
Romans字体
 73
     1
 44
1.0
1001
AcDbBlockRepETag
1070
     1
1071
       28
1005
14754
1001
ACAD
1000
MTEXTBEGIN
1070
    73
1070
     1
1070
    44
1040
1.0
1070
    74
1070
     0
1000
MTEXTEND
  0
LINE
  5
14755
330
10FE8
100
AcDbEntity
  8
图框
 62
     6
100
AcDbLine
 10
1081.088565155284
 20
484.0347692601515
 30
0.0
 11
1081.088565155284
 21
480.5347692601475
 31
0.0
1001
AcDbBlockRepETag
1070
     1
1071
       29
1005
14755
  0
MTEXT
  5
14756
330
10FE8
100
AcDbEntity
  8
图框
 62
     6
100
AcDbMText
 10
1055.900596365941
 20
483.520053108993
 30
0.0
 40
2.651776162684904
 41
2.557913877927211
 71
     1
 72
     5
  1
5
  7
Romans字体
 73
     1
 44
1.0
1001
AcDbBlockRepETag
1070
     1
1071
       30
1005
14756
1001
ACAD
1000
MTEXTBEGIN
1070
    73
1070
     1
1070
    44
1040
1.0
1070
    74
1070
     0
1000
MTEXTEND
  0
LINE
  5
14757
330
10FE8
100
AcDbEntity
  8
图框
 62
     6
100
AcDbLine
 10
1031.553386436349
 20
484.0347692601515
 30
0.0
 11
1031.553386436349
 21
480.5347692601475
 31
0.0
1001
AcDbBlockRepETag
1070
     1
1071
       31
1005
14757
  0
MTEXT
  5
14758
330
10FE8
100
AcDbEntity
  8
图框
 62
     6
100
AcDbMText
 10
1006.383180575197
 20
483.5687958215896
 30
0.0
 40
2.651776162684904
 41
2.557913877927211
 71
     1
 72
     5
  1
4
  7
Romans字体
 73
     1
 44
1.0
1001
AcDbBlockRepETag
1070
     1
1071
       32
1005
14758
1001
ACAD
1000
MTEXTBEGIN
1070
    73
1070
     1
1070
    44
1040
1.0
1070
    74
1070
     0
1000
MTEXTEND
  0
LINE
  5
14759
330
10FE8
100
AcDbEntity
  8
图框
 62
     6
100
AcDbLine
 10
982.0182077173887
 20
484.0347692601515
 30
0.0
 11
982.0182077173887
 21
480.5347692601475
 31
0.0
1001
AcDbBlockRepETag
1070
     1
1071
       33
1005
14759
  0
MTEXT
  5
1475A
330
10FE8
100
AcDbEntity
  8
图框
 62
     6
100
AcDbMText
 10
956.8302389280352
 20
483.5989680297948
 30
0.0
 40
2.651776162684904
 41
2.557913877927211
 71
     1
 72
     5
  1
3
  7
Romans字体
 73
     1
 44
1.0
1001
AcDbBlockRepETag
1070
     1
1071
       34
1005
1475A
1001
ACAD
1000
MTEXTBEGIN
1070
    73
1070
     1
1070
    44
1040
1.0
1070
    74
1070
     0
1000
MTEXTEND
  0
LINE
  5
1475B
330
10FE8
100
AcDbEntity
  8
图框
 62
     6
100
AcDbLine
 10
932.4830289984245
 20
484.0347692601515
 30
0.0
 11
932.4830289984245
 21
480.5347692601475
 31
0.0
1001
AcDbBlockRepETag
1070
     1
1071
       35
1005
1475B
  0
MTEXT
  5
1475C
330
10FE8
100
AcDbEntity
  8
图框
 62
     6
100
AcDbMText
 10
906.0252349826365
 20
483.6475250013156
 30
0.0
 40
2.651776162684904
 41
2.557913877927211
 71
     1
 72
     5
  1
2
  7
Romans字体
 73
     1
 44
1.0
1001
AcDbBlockRepETag
1070
     1
1071
       36
1005
1475C
1001
ACAD
1000
MTEXTBEGIN
1070
    73
1070
     1
1070
    44
1040
1.0
1070
    74
1070
     0
1000
MTEXTEND
  0
LINE
  5
1475D
330
10FE8
100
AcDbEntity
  8
图框
 62
     6
100
AcDbLine
 10
882.9478502794648
 20
484.0347692601515
 30
0.0
 11
882.9478502794648
 21
480.5347692601475
 31
0.0
1001
AcDbBlockRepETag
1070
     1
1071
       37
1005
1475D
  0
MTEXT
  5
1475E
330
10FE8
100
AcDbEntity
  8
图框
 62
     6
100
AcDbMText
 10
857.7598814901191
 20
483.651829494754
 30
0.0
 40
2.651776162684904
 41
2.557913877927211
 71
     1
 72
     5
  1
1
  7
Romans字体
 73
     1
 44
1.0
1001
AcDbBlockRepETag
1070
     1
1071
       38
1005
1475E
1001
ACAD
1000
MTEXTBEGIN
1070
    73
1070
     1
1070
    44
1040
1.0
1070
    74
1070
     0
1000
MTEXTEND
  0
LINE
  5
1475F
330
10FE8
100
AcDbEntity
  8
图框
370
    50
100
AcDbLine
 10
836.8548209370597
 20
484.0347692601515
 30
0.0
 11
1126.928502610363
 21
484.0347692601515
 31
0.0
1001
AcDbBlockRepETag
1070
     1
1071
       39
1005
1475F
  0
LINE
  5
14760
330
10FE8
100
AcDbEntity
  8
图框
370
    50
100
AcDbLine
 10
836.9128518455362
 20
484.0178684310246
 30
0.0
 11
836.9128518455394
 21
675.0207195125422
 31
0.0
1001
AcDbBlockRepETag
1070
     1
1071
       40
1005
14760
  0
MTEXT
  5
14761
330
10FE8
100
AcDbEntity
  8
图框
 62
     6
100
AcDbMText
 10
833.8475685789031
 20
658.7332172029115
 30
0.0
 40
2.651776162684904
 41
2.557913877927211
 71
     1
 72
     5
  1
D
  7
Romans字体
 11
0.0000000000000001
 21
1.0
 31
0.0
 73
     1
 44
1.0
1001
AcDbBlockRepETag
1070
     1
1071
       41
1005
14761
1001
ACAD
1000
MTEXTBEGIN
1070
    73
1070
     1
1070
    44
1040
1.0
1070
    74
1070
     0
1000
MTEXTEND
  0
LINE
  5
14762
330
10FE8
100
AcDbEntity
  8
图框
 62
     6
100
AcDbLine
 10
836.9128518455386
 20
634.0726090796082
 30
0.0
 11
833.4128518455365
 21
634.0726090796082
 31
0.0
1001
AcDbBlockRepETag
1070
     1
1071
       42
1005
14762
  0
MTEXT
  5
14763
330
10FE8
100
AcDbEntity
  8
图框
 62
     6
100
AcDbMText
 10
833.9039177480142
 20
607.5539372630998
 30
0.0
 40
2.651776162684904
 41
2.557913877927211
 71
     1
 72
     5
  1
C
  7
Romans字体
 11
0.0000000000000001
 21
1.0
 31
0.0
 73
     1
 44
1.0
1001
AcDbBlockRepETag
1070
     1
1071
       43
1005
14763
1001
ACAD
1000
MTEXTBEGIN
1070
    73
1070
     1
1070
    44
1040
1.0
1070
    74
1070
     0
1000
MTEXTEND
  0
LINE
  5
14764
330
10FE8
100
AcDbEntity
  8
图框
 62
     6
100
AcDbLine
 10
836.9128518455378
 20
582.89332913979
 30
0.0
 11
833.4128518455365
 21
582.89332913979
 31
0.0
1001
AcDbBlockRepETag
1070
     1
1071
       44
1005
14764
  0
MTEXT
  5
14765
330
10FE8
100
AcDbEntity
  8
图框
 62
     6
100
AcDbMText
 10
833.9039177480142
 20
556.3746573232886
 30
0.0
 40
2.651776162684904
 41
2.557913877927211
 71
     1
 72
     5
  1
B
  7
Romans字体
 11
0.0000000000000001
 21
1.0
 31
0.0
 73
     1
 44
1.0
1001
AcDbBlockRepETag
1070
     1
1071
       45
1005
14765
1001
ACAD
1000
MTEXTBEGIN
1070
    73
1070
     1
1070
    44
1040
1.0
1070
    74
1070
     0
1000
MTEXTEND
  0
LINE
  5
14766
330
10FE8
100
AcDbEntity
  8
图框
 62
     6
100
AcDbLine
 10
836.9128518455367
 20
531.714049199969
 30
0.0
 11
833.4128518455365
 21
531.714049199969
 31
0.0
1001
AcDbBlockRepETag
1070
     1
1071
       46
1005
14766
  0
MTEXT
  5
14767
330
10FE8
100
AcDbEntity
  8
图框
 62
     6
100
AcDbMText
 10
833.9039177480142
 20
508.7896535755975
 30
0.0
 40
2.651776162684904
 41
2.557913877927211
 71
     1
 72
     5
  1
A
  7
Romans字体
 11
0.0000000000000001
 21
1.0
 31
0.0
 73
     1
 44
1.0
1001
AcDbBlockRepETag
1070
     1
1071
       47
1005
14767
1001
ACAD
1000
MTEXTBEGIN
1070
    73
1070
     1
1070
    44
1040
1.0
1070
    74
1070
     0
1000
MTEXTEND
  0
LINE
  5
14768
330
10FE8
100
AcDbEntity
  8
图框
370
    -3
100
AcDbLine
 10
836.9128518455394
 20
675.0207195125422
 30
0.0
 11
836.9128518455394
 21
684.5021384922564
 31
0.0
1001
AcDbBlockRepETag
1070
     1
1071
       48
1005
14768
  0
LINE
  5
14769
330
10FE8
100
AcDbEntity
  8
图框
370
    -3
100
AcDbLine
 10
842.6237321475781
 20
675.5347692601515
 30
0.0
 11
842.6237321475781
 21
685.0161882398658
 31
0.0
1001
AcDbBlockRepETag
1070
     1
1071
       49
1005
14769
  0
LINE
  5
1476A
330
10FE8
100
AcDbEntity
  8
图框
370
    -3
100
AcDbLine
 10
848.3346124496179
 20
675.5347692601515
 30
0.0
 11
848.3346124496179
 21
685.0161882398658
 31
0.0
1001
AcDbBlockRepETag
1070
     1
1071
       50
1005
1476A
  0
LINE
  5
1476B
330
10FE8
100
AcDbEntity
  8
图框
370
    -3
100
AcDbLine
 10
854.0454927516588
 20
675.5347692601515
 30
0.0
 11
854.0454927516588
 21
685.0161882398658
 31
0.0
1001
AcDbBlockRepETag
1070
     1
1071
       51
1005
1476B
  0
LINE
  5
1476C
330
10FE8
100
AcDbEntity
  8
图框
370
    -3
100
AcDbLine
 10
861.5351874539182
 20
675.5347692601515
 30
0.0
 11
861.5351874539182
 21
686.7901958362482
 31
0.0
1001
AcDbBlockRepETag
1070
     1
1071
       52
1005
1476C
  0
MTEXT
  5
1476D
330
10FE8
100
AcDbEntity
  8
图框
 62
     6
100
AcDbMText
 10
1105.329704038389
 20
678.859919059449
 30
0.0
 40
2.651776162684904
 41
2.557913877927211
 71
     1
 72
     5
  1
6
  7
Romans字体
 73
     1
 44
1.0
1001
AcDbBlockRepETag
1070
     1
1071
       53
1005
1476D
1001
ACAD
1000
MTEXTBEGIN
1070
    73
1070
     1
1070
    44
1040
1.0
1070
    74
1070
     0
1000
MTEXTEND
  0
LINE
  5
1476E
330
10FE8
100
AcDbEntity
  8
图框
 62
     6
100
AcDbLine
 10
1081.088565155284
 20
679.0347692601516
 30
0.0
 11
1081.088565155284
 21
675.5347692601515
 31
0.0
1001
AcDbBlockRepETag
1070
     1
1071
       54
1005
1476E
  0
MTEXT
  5
1476F
330
10FE8
100
AcDbEntity
  8
图框
 62
     6
100
AcDbMText
 10
1055.900596365941
 20
678.859919059449
 30
0.0
 40
2.651776162684904
 41
2.557913877927211
 71
     1
 72
     5
  1
5
  7
Romans字体
 73
     1
 44
1.0
1001
AcDbBlockRepETag
1070
     1
1071
       55
1005
1476F
1001
ACAD
1000
MTEXTBEGIN
1070
    73
1070
     1
1070
    44
1040
1.0
1070
    74
1070
     0
1000
MTEXTEND
  0
LINE
  5
14770
330
10FE8
100
AcDbEntity
  8
图框
 62
     6
100
AcDbLine
 10
1031.553386436349
 20
679.0347692601516
 30
0.0
 11
1031.553386436349
 21
675.5347692601515
 31
0.0
1001
AcDbBlockRepETag
1070
     1
1071
       56
1005
14770
  0
MTEXT
  5
14771
330
10FE8
100
AcDbEntity
  8
图框
 62
     6
100
AcDbMText
 10
1006.36541764698
 20
678.7312083656147
 30
0.0
 40
2.651776162684904
 41
2.557913877927211
 71
     1
 72
     5
  1
4
  7
Romans字体
 73
     1
 44
1.0
1001
AcDbBlockRepETag
1070
     1
1071
       57
1005
14771
1001
ACAD
1000
MTEXTBEGIN
1070
    73
1070
     1
1070
    44
1040
1.0
1070
    74
1070
     0
1000
MTEXTEND
  0
LINE
  5
14772
330
10FE8
100
AcDbEntity
  8
图框
 62
     6
100
AcDbLine
 10
982.0182077173887
 20
679.0347692601516
 30
0.0
 11
982.0182077173887
 21
675.5347692601515
 31
0.0
1001
AcDbBlockRepETag
1070
     1
1071
       58
1005
14772
  0
MTEXT
  5
14773
330
10FE8
100
AcDbEntity
  8
图框
 62
     6
100
AcDbMText
 10
956.8302389280352
 20
678.859919059449
 30
0.0
 40
2.651776162684904
 41
2.557913877927211
 71
     1
 72
     5
  1
3
  7
Romans字体
 73
     1
 44
1.0
1001
AcDbBlockRepETag
1070
     1
1071
       59
1005
14773
1001
ACAD
1000
MTEXTBEGIN
1070
    73
1070
     1
1070
    44
1040
1.0
1070
    74
1070
     0
1000
MTEXTEND
  0
LINE
  5
14774
330
10FE8
100
AcDbEntity
  8
图框
 62
     6
100
AcDbLine
 10
932.4830289984245
 20
679.0347692601516
 30
0.0
 11
932.4830289984245
 21
675.5347692601515
 31
0.0
1001
AcDbBlockRepETag
1070
     1
1071
       60
1005
14774
  0
MTEXT
  5
14775
330
10FE8
100
AcDbEntity
  8
图框
 62
     6
100
AcDbMText
 10
907.295060209082
 20
678.859919059449
 30
0.0
 40
2.651776162684904
 41
2.557913877927211
 71
     1
 72
     5
  1
2
  7
Romans字体
 73
     1
 44
1.0
1001
AcDbBlockRepETag
1070
     1
1071
       61
1005
14775
1001
ACAD
1000
MTEXTBEGIN
1070
    73
1070
     1
1070
    44
1040
1.0
1070
    74
1070
     0
1000
MTEXTEND
  0
LINE
  5
14776
330
10FE8
100
AcDbEntity
  8
图框
 62
     6
100
AcDbLine
 10
882.9478502794648
 20
678.7962435131815
 30
0.0
 11
882.9478502794648
 21
675.5347692601515
 31
0.0
1001
AcDbBlockRepETag
1070
     1
1071
       62
1005
14776
  0
MTEXT
  5
14777
330
10FE8
100
AcDbEntity
  8
图框
 62
     6
100
AcDbMText
 10
862.6286629643733
 20
678.859919059449
 30
0.0
 40
2.651776162684904
 41
2.557913877927211
 71
     1
 72
     5
  1
1
  7
Romans字体
 73
     1
 44
1.0
1001
AcDbBlockRepETag
1070
     1
1071
       63
1005
14777
1001
ACAD
1000
MTEXTBEGIN
1070
    73
1070
     1
1070
    44
1040
1.0
1070
    74
1070
     0
1000
MTEXTEND
  0
LINE
  5
14778
330
10FE8
100
AcDbEntity
  8
图框
370
    -3
100
AcDbLine
 10
836.9128518455394
 20
675.0207195125422
 30
0.0
 11
836.9128518455394
 21
686.7901958362482
 31
0.0
1001
AcDbBlockRepETag
1070
     1
1071
       64
1005
14778
  0
LINE
  5
14779
330
10FE8
100
AcDbEntity
  8
图框
370
    50
100
AcDbLine
 10
836.9128518455394
 20
675.5347692601515
 30
0.0
 11
1126.928502610363
 21
675.5347692601515
 31
0.0
1001
AcDbBlockRepETag
1070
     1
1071
       65
1005
14779
  0
LINE
  5
1477A
330
10FE8
100
AcDbEntity
  8
图框
370
    -3
100
AcDbLine
 10
842.6237321475781
 20
675.5347692601515
 30
0.0
 11
842.6237321475781
 21
686.7901958362482
 31
0.0
1001
AcDbBlockRepETag
1070
     1
1071
       66
1005
1477A
  0
LINE
  5
1477B
330
10FE8
100
AcDbEntity
  8
图框
370
    -3
100
AcDbLine
 10
848.3346124496179
 20
675.5347692601515
 30
0.0
 11
848.3346124496179
 21
686.7901958362482
 31
0.0
1001
AcDbBlockRepETag
1070
     1
1071
       67
1005
1477B
  0
MTEXT
  5
1477C
102
{ACAD_XDICTIONARY
360
147E0
102
}
330
10FE8
100
AcDbEntity
  8
图框
100
AcDbMText
 10
857.7903401027889
 20
686.7901958362482
 30
0.0
 40
1.958998408821398
 41
11.25542657609672
 71
     4
 72
     5
  1
{\W2.08073; }档案员{\H0.7x;\P\Fromans|c134;\W1.0325; \W0.75;Filing Clerk\fFangSong_GB2312|b0|i0|c134|p49; }
 11
-0.0000000000000002
 21
-1.0
 31
0.0
 73
     1
 44
1.0
1001
AcDbBlockRepETag
1070
     1
1071
       68
1005
1477C
1001
ACAD
1000
MTEXTBEGIN
1070
    73
1070
     1
1070
    44
1040
1.0
1070
    74
1070
     0
1000
MTEXTEND
1000
ACAD_MTEXT_DEFINED_HEIGHT_BEGIN
1070
    46
1040
7.489694702258906
1000
ACAD_MTEXT_DEFINED_HEIGHT_END
  0
MTEXT
  5
1477D
102
{ACAD_XDICTIONARY
360
147E2
102
}
330
10FE8
100
AcDbEntity
  8
图框
100
AcDbMText
 10
845.479172298598
 20
686.7901958362482
 30
0.0
 40
1.958998408821398
 41
11.25542657609672
 71
     4
 72
     5
  1
{\W0.524929; }日期{\Fromans|c134;/Date}
 11
-0.0000000000000002
 21
-1.0
 31
0.0
 73
     1
 44
1.0
1001
AcDbBlockRepETag
1070
     1
1071
       69
1005
1477D
1001
ACAD
1000
MTEXTBEGIN
1070
    73
1070
     1
1070
    44
1040
1.0
1070
    74
1070
     0
1000
MTEXTEND
1000
ACAD_MTEXT_DEFINED_HEIGHT_BEGIN
1070
    46
1040
5.710880302039671
1000
ACAD_MTEXT_DEFINED_HEIGHT_END
  0
LINE
  5
1477E
330
10FE8
100
AcDbEntity
  8
图框
370
    -3
100
AcDbLine
 10
854.0454927516588
 20
675.5347692601515
 30
0.0
 11
854.0454927516588
 21
686.7901958362482
 31
0.0
1001
AcDbBlockRepETag
1070
     1
1071
       70
1005
1477E
  0
LINE
  5
1477F
330
10FE8
100
AcDbEntity
  8
图框
370
    -3
100
AcDbLine
 10
1036.653967466372
 20
531.3291676047914
 30
0.0
 11
1036.653967466372
 21
484.0126019753161
 31
0.0
1001
AcDbBlockRepETag
1070
     1
1071
       71
1005
1477F
  0
LINE
  5
14780
330
10FE8
100
AcDbEntity
  8
图框
370
    -3
100
AcDbLine
 10
1047.483315900763
 20
507.6708838011533
 30
0.0
 11
1047.483315900763
 21
491.8986945987308
 31
0.0
1001
AcDbBlockRepETag
1070
     1
1071
       72
1005
14780
  0
LINE
  5
14781
330
10FE8
100
AcDbEntity
  8
图框
370
    -3
100
AcDbLine
 10
1058.312664335153
 20
507.6708838011533
 30
0.0
 11
1058.312664335153
 21
484.0347692601515
 31
0.0
1001
AcDbBlockRepETag
1070
     1
1071
       73
1005
14781
  0
LINE
  5
14782
330
10FE8
100
AcDbEntity
  8
图框
370
    25
100
AcDbLine
 10
1048.474135214456
 20
488.1095628329926
 30
0.0
 11
1054.946420288459
 21
488.1095628329926
 31
0.0
1001
AcDbBlockRepETag
1070
     1
1071
       74
1005
14782
  0
LINE
  5
14783
330
10FE8
100
AcDbEntity
  8
图框
370
    25
100
AcDbLine
 10
1054.232527365989
 20
487.0761716842634
 30
0.0
 11
1049.156490914508
 21
486.4576273751
 31
0.0
1001
AcDbBlockRepETag
1070
     1
1071
       75
1005
14783
  0
LINE
  5
14784
330
10FE8
100
AcDbEntity
  8
图框
370
    25
100
AcDbLine
 10
1054.232527365989
 20
489.1429539817209
 30
0.0
 11
1049.156490914508
 21
489.7614982908846
 31
0.0
1001
AcDbBlockRepETag
1070
     1
1071
       76
1005
14784
  0
LINE
  5
14785
330
10FE8
100
AcDbEntity
  8
图框
370
    25
100
AcDbLine
 10
1049.156490914508
 20
489.7614982908846
 30
0.0
 11
1049.156490914508
 21
486.4576273751
 31
0.0
1001
AcDbBlockRepETag
1070
     1
1071
       77
1005
14785
  0
LINE
  5
14786
330
10FE8
100
AcDbEntity
  8
图框
370
    25
100
AcDbLine
 10
1054.232527365989
 20
489.1429539817209
 30
0.0
 11
1054.232527365989
 21
487.0761716842634
 31
0.0
1001
AcDbBlockRepETag
1070
     1
1071
       78
1005
14786
  0
CIRCLE
  5
14787
330
10FE8
100
AcDbEntity
  8
图框
370
    25
100
AcDbCircle
 10
1042.502700458579
 20
488.1095628329926
 30
0.0
 40
1.651935457891863
1001
AcDbBlockRepETag
1070
     1
1071
       79
1005
14787
  0
CIRCLE
  5
14788
330
10FE8
100
AcDbEntity
  8
图框
370
    25
100
AcDbCircle
 10
1042.502700458579
 20
488.1095628329926
 30
0.0
 40
1.033391148728775
1001
AcDbBlockRepETag
1070
     1
1071
       80
1005
14788
  0
LINE
  5
14789
330
10FE8
100
AcDbEntity
  8
图框
370
    25
100
AcDbLine
 10
1040.136872078216
 20
488.1095628329926
 30
0.0
 11
1044.868528838943
 21
488.1095628329926
 31
0.0
1001
AcDbBlockRepETag
1070
     1
1071
       81
1005
14789
  0
LINE
  5
1478A
330
10FE8
100
AcDbEntity
  8
图框
370
    25
100
AcDbLine
 10
1042.502700458579
 20
490.475391213355
 30
0.0
 11
1042.502700458579
 21
485.743734452629
 31
0.0
1001
AcDbBlockRepETag
1070
     1
1071
       82
1005
1478A
  0
LINE
  5
1478B
330
10FE8
100
AcDbEntity
  8
图框
370
    -3
100
AcDbLine
 10
1069.142012769546
 20
507.6708838011533
 30
0.0
 11
1069.142012769546
 21
491.8986945987308
 31
0.0
1001
AcDbBlockRepETag
1070
     1
1071
       83
1005
1478B
  0
MTEXT
  5
1478C
330
10FE8
100
AcDbEntity
  8
图框
100
AcDbMText
 10
1086.643735910939
 20
526.8006839312707
 30
0.0
 40
2.154898249703542
 41
13.34474941400573
 71
     5
 72
     5
  1
图号{\Ftxt|c134;\P\Fromans|c134;\W0.65;Drawing No.}
 73
     1
 44
1.0
1001
AcDbBlockRepETag
1070
     1
1071
       84
1005
1478C
1001
ACAD
1000
MTEXTBEGIN
1070
    73
1070
     1
1070
    44
1040
1.0
1070
    74
1070
     0
1000
MTEXTEND
1000
ACAD_MTEXT_DEFINED_HEIGHT_BEGIN
1070
    46
1040
9.056967347041775
1000
ACAD_MTEXT_DEFINED_HEIGHT_END
  0
LINE
  5
1478D
330
10FE8
100
AcDbEntity
  8
图框
370
    -3
100
AcDbLine
 10
1093.316110617942
 20
531.3291676047914
 30
0.0
 11
1093.316110617942
 21
495.8417418993347
 31
0.0
1001
AcDbBlockRepETag
1070
     1
1071
       85
1005
1478D
  0
LINE
  5
1478E
330
10FE8
100
AcDbEntity
  8
图框
370
    -3
100
AcDbLine
 10
1047.473969770481
 20
531.3291676047914
 30
0.0
 11
1047.473969770481
 21
507.6708838011533
 31
0.0
1001
AcDbBlockRepETag
1070
     1
1071
       86
1005
1478E
  0
MTEXT
  5
1478F
330
10FE8
100
AcDbEntity
  8
图框
100
AcDbMText
 10
1063.72733855235
 20
503.7278365005473
 30
0.0
 40
2.252848170144607
 41
10.82934843439208
 71
     5
 72
     5
  1
重量\P{\Fromans|c134;Weight}
 73
     1
 44
1.0
1001
AcDbBlockRepETag
1070
     1
1071
       87
1005
1478F
1001
ACAD
1000
MTEXTBEGIN
1070
    73
1070
     1
1070
    44
1040
1.0
1070
    74
1070
     0
1000
MTEXTEND
1000
ACAD_MTEXT_DEFINED_HEIGHT_BEGIN
1070
    46
1040
7.886094601212128
1000
ACAD_MTEXT_DEFINED_HEIGHT_END
  0
LINE
  5
14790
330
10FE8
100
AcDbEntity
  8
图框
370
    -3
100
AcDbLine
 10
1036.653967466372
 20
519.5000257029746
 30
0.0
 11
1079.971361203936
 21
519.5000257029746
 31
0.0
1001
AcDbBlockRepETag
1070
     1
1071
       88
1005
14790
  0
MTEXT
  5
14791
330
10FE8
100
AcDbEntity
  8
图框
100
AcDbMText
 10
1074.556686986741
 20
503.7278365005473
 30
0.0
 40
2.252848170144607
 41
10.82934843438984
 71
     5
 72
     5
  1
数量\P{\Fromans|c134;Qty.}
 73
     1
 44
1.0
1001
AcDbBlockRepETag
1070
     1
1071
       89
1005
14791
1001
ACAD
1000
MTEXTBEGIN
1070
    73
1070
     1
1070
    44
1040
1.0
1070
    74
1070
     0
1000
MTEXTEND
1000
ACAD_MTEXT_DEFINED_HEIGHT_BEGIN
1070
    46
1040
7.886094601212141
1000
ACAD_MTEXT_DEFINED_HEIGHT_END
  0
LINE
  5
14792
330
10FE8
100
AcDbEntity
  8
图框
370
    -3
100
AcDbLine
 10
1079.971361203936
 20
495.8417418993347
 30
0.0
 11
1126.928502610363
 21
495.8417418993342
 31
0.0
1001
AcDbBlockRepETag
1070
     1
1071
       90
1005
14792
  0
LINE
  5
14793
330
10FE8
100
AcDbEntity
  8
图框
370
    -3
100
AcDbLine
 10
1079.971361203936
 20
504.7132992040975
 30
0.0
 11
1126.928502610363
 21
504.7132992040975
 31
0.0
1001
AcDbBlockRepETag
1070
     1
1071
       91
1005
14793
  0
MTEXT
  5
14794
330
10FE8
100
AcDbEntity
  8
图框
100
AcDbMText
 10
1052.893317052817
 20
503.7278365005473
 30
0.0
 40
2.252848170144607
 41
10.83869456467139
 71
     5
 72
     5
  1
版本\P{\Fromans|c134;REV.}
 73
     1
 44
1.0
1001
AcDbBlockRepETag
1070
     1
1071
       92
1005
14794
1001
ACAD
1000
MTEXTBEGIN
1070
    73
1070
     1
1070
    44
1040
1.0
1070
    74
1070
     0
1000
MTEXTEND
1000
ACAD_MTEXT_DEFINED_HEIGHT_BEGIN
1070
    46
1040
7.886094601212101
1000
ACAD_MTEXT_DEFINED_HEIGHT_END
  0
MTEXT
  5
14795
330
10FE8
100
AcDbEntity
  8
图框
100
AcDbMText
 10
1042.068641683568
 20
503.7278365005473
 30
0.0
 40
2.252848170144607
 41
10.8293484343908
 71
     5
 72
     5
  1
比例\P{\Fromans|c134;Scale}
 73
     1
 44
1.0
1001
AcDbBlockRepETag
1070
     1
1071
       93
1005
14795
1001
ACAD
1000
MTEXTBEGIN
1070
    73
1070
     1
1070
    44
1040
1.0
1070
    74
1070
     0
1000
MTEXTEND
1000
ACAD_MTEXT_DEFINED_HEIGHT_BEGIN
1070
    46
1040
7.886094601212136
1000
ACAD_MTEXT_DEFINED_HEIGHT_END
  0
LINE
  5
14796
330
10FE8
100
AcDbEntity
  8
图框
370
    -3
100
AcDbLine
 10
1036.653967466372
 20
507.6708838011533
 30
0.0
 11
1079.971361203936
 21
507.6708838011533
 31
0.0
1001
AcDbBlockRepETag
1070
     1
1071
       94
1005
14796
  0
LINE
  5
14797
330
10FE8
100
AcDbEntity
  8
图框
370
    -3
100
AcDbLine
 10
1036.653967466372
 20
491.8986945987308
 30
0.0
 11
1079.971361203936
 21
491.8986945987308
 31
0.0
1001
AcDbBlockRepETag
1070
     1
1071
       95
1005
14797
  0
LINE
  5
14798
330
10FE8
100
AcDbEntity
  8
图框
370
    -3
100
AcDbLine
 10
1079.971361203936
 20
531.3291676047914
 30
0.0
 11
1079.971361203936
 21
484.0125999975168
 31
0.0
1001
AcDbBlockRepETag
1070
     1
1071
       96
1005
14798
  0
MTEXT
  5
14799
330
10FE8
100
AcDbEntity
  8
图框
100
AcDbMText
 10
1042.063968618426
 20
525.4145966538832
 30
0.0
 40
2.252848170144607
 41
10.82000230410933
 71
     5
 72
     5
  1
表面处理\P{\Fromans|c134;Finish}
 73
     1
 44
1.0
1001
AcDbBlockRepETag
1070
     1
1071
       97
1005
14799
1001
ACAD
1000
MTEXTBEGIN
1070
    73
1070
     1
1070
    44
1040
1.0
1070
    74
1070
     0
1000
MTEXTEND
1000
ACAD_MTEXT_DEFINED_HEIGHT_BEGIN
1070
    46
1040
11.82914190181708
1000
ACAD_MTEXT_DEFINED_HEIGHT_END
  0
MTEXT
  5
1479A
330
10FE8
100
AcDbEntity
  8
图框
100
AcDbMText
 10
1042.063968618426
 20
513.5854547520639
 30
0.0
 40
2.252848170144607
 41
10.82000230410933
 71
     5
 72
     5
  1
材料\P{\Fromans|c134;Material}
 73
     1
 44
1.0
1001
AcDbBlockRepETag
1070
     1
1071
       98
1005
1479A
1001
ACAD
1000
MTEXTBEGIN
1070
    73
1070
     1
1070
    44
1040
1.0
1070
    74
1070
     0
1000
MTEXTEND
1000
ACAD_MTEXT_DEFINED_HEIGHT_BEGIN
1070
    46
1040
11.8291419018212
1000
ACAD_MTEXT_DEFINED_HEIGHT_END
  0
LINE
  5
1479B
330
10FE8
100
AcDbEntity
  8
图框
370
    -3
100
AcDbLine
 10
1079.971361203936
 20
522.27220025775
 30
0.0
 11
1126.928502610363
 21
522.27220025775
 31
0.0
1001
AcDbBlockRepETag
1070
     1
1071
       99
1005
1479B
  0
LINE
  5
1479C
330
10FE8
100
AcDbEntity
  8
图框
370
    -3
100
AcDbLine
 10
1079.971361203936
 20
513.5854547520641
 30
0.0
 11
1126.928502610363
 21
513.5854547520639
 31
0.0
1001
AcDbBlockRepETag
1070
     1
1071
      100
1005
1479C
  0
MTEXT
  5
1479D
330
10FE8
100
AcDbEntity
  8
图框
100
AcDbMText
 10
1086.643735910939
 20
517.9288275049072
 30
0.0
 40
1.958998408821398
 41
13.34474941400573
 71
     5
 72
     5
  1
产品代号\P{\Fromans|c134;Part Code}
 73
     1
 44
1.0
1001
AcDbBlockRepETag
1070
     1
1071
      101
1005
1479D
1001
ACAD
1000
MTEXTBEGIN
1070
    73
1070
     1
1070
    44
1040
1.0
1070
    74
1070
     0
1000
MTEXTEND
1000
ACAD_MTEXT_DEFINED_HEIGHT_BEGIN
1070
    46
1040
8.686745505685811
1000
ACAD_MTEXT_DEFINED_HEIGHT_END
  0
LINE
  5
1479E
330
10FE8
100
AcDbEntity
  8
图框
370
    -3
100
AcDbLine
 10
946.9285026103634
 20
525.7982263931411
 30
0.0
 11
1036.653967466372
 21
525.7982263931411
 31
0.0
1001
AcDbBlockRepETag
1070
     1
1071
      102
1005
1479E
  0
LINE
  5
1479F
330
10FE8
100
AcDbEntity
  8
图框
370
    -3
100
AcDbLine
 10
946.9285026103634
 20
520.2672851814959
 30
0.0
 11
1036.653967466372
 21
520.2672851814959
 31
0.0
1001
AcDbBlockRepETag
1070
     1
1071
      103
1005
1479F
  0
LINE
  5
147A0
330
10FE8
100
AcDbEntity
  8
图框
370
    35
100
AcDbLine
 10
946.9285026103634
 20
531.3291676047914
 30
0.0
 11
1126.928502610363
 21
531.3291676047914
 31
0.0
1001
AcDbBlockRepETag
1070
     1
1071
      104
1005
147A0
  0
LINE
  5
147A1
330
10FE8
100
AcDbEntity
  8
图框
370
    -3
100
AcDbLine
 10
990.6727612856927
 20
509.2054027581959
 30
0.0
 11
990.6727612856927
 21
484.0347692601515
 31
0.0
1001
AcDbBlockRepETag
1070
     1
1071
      105
1005
147A1
  0
MTEXT
  5
147A2
102
{ACAD_XDICTIONARY
360
147E4
102
}
330
10FE8
100
AcDbEntity
  8
图框
100
AcDbMText
 10
997.1628169651232
 20
499.816589978722
 30
0.0
 40
2.252848170144607
 41
12.98011135886052
 71
     5
 72
     5
  1
{\f仿宋_GB2312|b0|i0|c134|p49;标准化}\PStand.
  7
Romans字体
 73
     1
 44
1.0
1001
AcDbBlockRepETag
1070
     1
1071
      106
1005
147A2
1001
ACAD
1000
MTEXTBEGIN
1070
    73
1070
     1
1070
    44
1040
1.0
1070
    74
1070
     0
1000
MTEXTEND
1000
ACAD_MTEXT_DEFINED_HEIGHT_BEGIN
1070
    46
1040
6.19230880992475
1000
ACAD_MTEXT_DEFINED_HEIGHT_END
  0
LINE
  5
147A3
330
10FE8
100
AcDbEntity
  8
图框
370
    -3
100
AcDbLine
 10
975.4103773808022
 20
509.2054027581959
 30
0.0
 11
975.4103773808022
 21
484.0347692601515
 31
0.0
1001
AcDbBlockRepETag
1070
     1
1071
      107
1005
147A3
  0
MTEXT
  5
147A4
330
10FE8
100
AcDbEntity
  8
图框
100
AcDbMText
 10
984.5089229802068
 20
511.9708733640202
 30
0.0
 40
2.448748011026752
 41
38.287899328693
 71
     5
 72
     5
  1
  变更描述{\Fromans|c134;/Description}
 73
     1
 44
1.0
1001
AcDbBlockRepETag
1070
     1
1071
      108
1005
147A4
1001
ACAD
1000
MTEXTBEGIN
1070
    73
1070
     1
1070
    44
1040
1.0
1070
    74
1070
     0
1000
MTEXTEND
1000
ACAD_MTEXT_DEFINED_HEIGHT_BEGIN
1070
    46
1040
5.530941211648832
1000
ACAD_MTEXT_DEFINED_HEIGHT_END
  0
MTEXT
  5
147A5
102
{ACAD_XDICTIONARY
360
147E6
102
}
330
10FE8
100
AcDbEntity
  8
图框
100
AcDbMText
 10
1012.466086049227
 20
511.9708733640202
 30
0.0
 40
1.958998408821398
 41
17.6264268093469
 71
     5
 72
     5
  1
签名\P{\Fromans|c134;Signature} 
 73
     1
 44
1.0
1001
AcDbBlockRepETag
1070
     1
1071
      109
1005
147A5
1001
ACAD
1000
MTEXTBEGIN
1070
    73
1070
     1
1070
    44
1040
1.0
1070
    74
1070
     0
1000
MTEXTEND
1000
ACAD_MTEXT_DEFINED_HEIGHT_BEGIN
1070
    46
1040
5.530941211648825
1000
ACAD_MTEXT_DEFINED_HEIGHT_END
  0
MTEXT
  5
147A6
102
{ACAD_XDICTIONARY
360
147E8
102
}
330
10FE8
100
AcDbEntity
  8
图框
100
AcDbMText
 10
960.7558556394856
 20
511.9708733640202
 30
0.0
 40
1.958998408821398
 41
9.218235352749283
 71
     5
 72
     5
  1
处数\P{\Fromans|c134;Number }
 73
     1
 44
1.0
1001
AcDbBlockRepETag
1070
     1
1071
      110
1005
147A6
1001
ACAD
1000
MTEXTBEGIN
1070
    73
1070
     1
1070
    44
1040
1.0
1070
    74
1070
     0
1000
MTEXTEND
1000
ACAD_MTEXT_DEFINED_HEIGHT_BEGIN
1070
    46
1040
5.530941211648841
1000
ACAD_MTEXT_DEFINED_HEIGHT_END
  0
LINE
  5
147A7
330
10FE8
100
AcDbEntity
  8
图框
370
    -3
100
AcDbLine
 10
946.9285026103634
 20
514.7363439698449
 30
0.0
 11
1036.653967466372
 21
514.7363439698449
 31
0.0
1001
AcDbBlockRepETag
1070
     1
1071
      111
1005
147A7
  0
LINE
  5
147A8
330
10FE8
100
AcDbEntity
  8
图框
370
    -3
100
AcDbLine
 10
946.9285026103634
 20
509.2054027581959
 30
0.0
 11
1036.653967466372
 21
509.2054027581959
 31
0.0
1001
AcDbBlockRepETag
1070
     1
1071
      112
1005
147A8
  0
LINE
  5
147A9
330
10FE8
100
AcDbEntity
  8
图框
370
    -3
100
AcDbLine
 10
946.9285026103634
 20
502.9127443836848
 30
0.0
 11
1036.653967466372
 21
502.9127443836848
 31
0.0
1001
AcDbBlockRepETag
1070
     1
1071
      113
1005
147A9
  0
LINE
  5
147AA
330
10FE8
100
AcDbEntity
  8
图框
370
    -3
100
AcDbLine
 10
946.9285026103634
 20
496.620086009173
 30
0.0
 11
1036.653967466372
 21
496.620086009173
 31
0.0
1001
AcDbBlockRepETag
1070
     1
1071
      114
1005
147AA
  0
LINE
  5
147AB
330
10FE8
100
AcDbEntity
  8
图框
370
    35
380
     1
100
AcDbLine
 10
946.9285026103634
 20
531.3291676047914
 30
0.0
 11
946.9285026103634
 21
484.0347692601515
 31
0.0
1001
AcDbBlockRepETag
1070
     1
1071
      115
1005
147AB
  0
LINE
  5
147AC
330
10FE8
100
AcDbEntity
  8
图框
370
    -3
100
AcDbLine
 10
1021.301636813399
 20
531.3291676047914
 30
0.0
 11
1021.301636813399
 21
484.0347692601515
 31
0.0
1001
AcDbBlockRepETag
1070
     1
1071
      116
1005
147AC
  0
LINE
  5
147AD
330
10FE8
100
AcDbEntity
  8
图框
370
    -3
100
AcDbLine
 10
1003.652872644553
 20
531.3291676047914
 30
0.0
 11
1003.652872644553
 21
484.0347692601515
 31
0.0
1001
AcDbBlockRepETag
1070
     1
1071
      117
1005
147AD
  0
LINE
  5
147AE
330
10FE8
100
AcDbEntity
  8
图框
370
    -3
100
AcDbLine
 10
965.3649733158603
 20
531.3291676047914
 30
0.0
 11
965.3649733158603
 21
509.2054027581959
 31
0.0
1001
AcDbBlockRepETag
1070
     1
1071
      118
1005
147AE
  0
LINE
  5
147AF
330
10FE8
100
AcDbEntity
  8
图框
370
    -3
100
AcDbLine
 10
956.1467379631109
 20
531.3291676047914
 30
0.0
 11
956.1467379631109
 21
509.2054027581959
 31
0.0
1001
AcDbBlockRepETag
1070
     1
1071
      119
1005
147AF
  0
MTEXT
  5
147B0
102
{ACAD_XDICTIONARY
360
147EA
102
}
330
10FE8
100
AcDbEntity
  8
图框
100
AcDbMText
 10
951.537620286737
 20
511.9708733640202
 30
0.0
 40
1.958998408821398
 41
9.218235352747692
 71
     5
 72
     5
  1
标记\P{\Fromans|c134;Mark}
 73
     1
 44
1.0
1001
AcDbBlockRepETag
1070
     1
1071
      120
1005
147B0
1001
ACAD
1000
MTEXTBEGIN
1070
    73
1070
     1
1070
    44
1040
1.0
1070
    74
1070
     0
1000
MTEXTEND
1000
ACAD_MTEXT_DEFINED_HEIGHT_BEGIN
1070
    46
1040
5.530941211648832
1000
ACAD_MTEXT_DEFINED_HEIGHT_END
  0
MTEXT
  5
147B1
102
{ACAD_XDICTIONARY
360
147EC
102
}
330
10FE8
100
AcDbEntity
  8
图框
100
AcDbMText
 10
953.4185582897936
 20
493.4737568219182
 30
0.0
 40
2.252848170144607
 41
12.98011135886041
 71
     5
 72
     5
  1
审核\P{\Fromans|c134;Checked}
 73
     1
 44
1.0
1001
AcDbBlockRepETag
1070
     1
1071
      121
1005
147B1
1001
ACAD
1000
MTEXTBEGIN
1070
    73
1070
     1
1070
    44
1040
1.0
1070
    74
1070
     0
1000
MTEXTEND
1000
ACAD_MTEXT_DEFINED_HEIGHT_BEGIN
1070
    46
1040
6.292658374510382
1000
ACAD_MTEXT_DEFINED_HEIGHT_END
  0
MTEXT
  5
147B2
102
{ACAD_XDICTIONARY
360
147EE
102
}
330
10FE8
100
AcDbEntity
  8
图框
100
AcDbMText
 10
953.4185582897936
 20
499.8775635376777
 30
0.0
 40
2.252848170144607
 41
12.98011135886041
 71
     5
 72
     5
  1
绘图\P{\Fromans|c134;Drawn\Ftxt|c134; }
 73
     1
 44
1.0
1001
AcDbBlockRepETag
1070
     1
1071
      122
1005
147B2
1001
ACAD
1000
MTEXTBEGIN
1070
    73
1070
     1
1070
    44
1040
1.0
1070
    74
1070
     0
1000
MTEXTEND
1000
ACAD_MTEXT_DEFINED_HEIGHT_BEGIN
1070
    46
1040
6.070361692014189
1000
ACAD_MTEXT_DEFINED_HEIGHT_END
  0
ARC
  5
147B3
330
10FE8
100
AcDbEntity
  8
图框
 62
     4
370
    35
100
AcDbCircle
 10
1086.900627017421
 20
490.0179944151195
 30
0.0
 40
4.063310408393665
100
AcDbArc
 50
18.95237904564806
 51
161.0476209543519
1001
AcDbBlockRepETag
1070
     1
1071
      123
1005
147B3
  0
ARC
  5
147B4
330
10FE8
100
AcDbEntity
  8
图框
 62
     4
370
    35
100
AcDbCircle
 10
1086.900627017421
 20
490.0179944151195
 30
0.0
 40
4.063310408393665
100
AcDbArc
 50
198.952379045648
 51
341.0476209543519
1001
AcDbBlockRepETag
1070
     1
1071
      124
1005
147B4
  0
LINE
  5
147B5
330
10FE8
100
AcDbEntity
  8
图框
 62
     4
370
    35
100
AcDbLine
 10
1083.057593369548
 20
488.6983035966752
 30
0.0
 11
1090.74366066529
 21
488.6983035966752
 31
0.0
1001
AcDbBlockRepETag
1070
     1
1071
      125
1005
147B5
  0
LINE
  5
147B6
330
10FE8
100
AcDbEntity
  8
图框
 62
     4
370
    35
100
AcDbLine
 10
1083.057593369548
 20
491.3376852335652
 30
0.0
 11
1090.74366066529
 21
491.3376852335652
 31
0.0
1001
AcDbBlockRepETag
1070
     1
1071
      126
1005
147B6
  0
MTEXT
  5
147B7
330
10FE8
100
AcDbEntity
  8
图框
 62
     1
370
    20
100
AcDbMText
 10
1083.034582879669
 20
491.0506288081688
 30
0.0
 40
2.005930044038334
 41
5.047240019334847
 71
     1
 72
     5
  1
{\fArial|b0|i0|c0|p34;W}
  7
Chinese
 73
     1
 44
1.0
1001
AcDbBlockRepETag
1070
     1
1071
      127
1005
147B7
1001
ACAD
1000
MTEXTBEGIN
1070
    73
1070
     1
1070
    44
1040
1.0
1070
    74
1070
     0
1000
MTEXTEND
  0
LINE
  5
147B8
330
10FE8
100
AcDbEntity
  8
图框
370
    -3
100
AcDbLine
 10
946.9285026103634
 20
490.327427634663
 30
0.0
 11
1036.653967466372
 21
490.327427634663
 31
0.0
1001
AcDbBlockRepETag
1070
     1
1071
      128
1005
147B8
  0
LINE
  5
147B9
330
10FE8
100
AcDbEntity
  8
图框
370
    -3
100
AcDbLine
 10
959.9086139692238
 20
509.2054027581959
 30
0.0
 11
959.9086139692238
 21
484.0347692601515
 31
0.0
1001
AcDbBlockRepETag
1070
     1
1071
      129
1005
147B9
  0
MTEXT
  5
147BA
330
10FE8
100
AcDbEntity
  8
图框
100
AcDbMText
 10
967.6594956750129
 20
506.0590735709403
 30
0.0
 40
2.252848170144607
 41
15.50176341157869
 71
     5
 72
     5
  1
姓名{\Fromans|c134;/Name\Ftxt|c134; }
 73
     1
 44
1.0
1001
AcDbBlockRepETag
1070
     1
1071
      130
1005
147BA
1001
ACAD
1000
MTEXTBEGIN
1070
    73
1070
     1
1070
    44
1040
1.0
1070
    74
1070
     0
1000
MTEXTEND
1000
ACAD_MTEXT_DEFINED_HEIGHT_BEGIN
1070
    46
1040
6.292658374511246
1000
ACAD_MTEXT_DEFINED_HEIGHT_END
  0
MTEXT
  5
147BB
330
10FE8
100
AcDbEntity
  8
图框
100
AcDbMText
 10
983.0415693332477
 20
506.0590735709403
 30
0.0
 40
2.252848170144607
 41
15.26238390489042
 71
     5
 72
     5
  1
日期{\Fromans|c134;/Date}
 73
     1
 44
1.0
1001
AcDbBlockRepETag
1070
     1
1071
      131
1005
147BB
1001
ACAD
1000
MTEXTBEGIN
1070
    73
1070
     1
1070
    44
1040
1.0
1070
    74
1070
     0
1000
MTEXTEND
1000
ACAD_MTEXT_DEFINED_HEIGHT_BEGIN
1070
    46
1040
6.2926583745112
1000
ACAD_MTEXT_DEFINED_HEIGHT_END
  0
LINE
  5
147BC
330
10FE8
100
AcDbEntity
  8
图框
370
    -3
100
AcDbLine
 10
946.9285026103634
 20
509.2054027581959
 30
0.0
 11
959.9086139692238
 21
502.9127443836848
 31
0.0
1001
AcDbBlockRepETag
1070
     1
1071
      132
1005
147BC
  0
MTEXT
  5
147BD
330
10FE8
100
AcDbEntity
  8
图框
100
AcDbMText
 10
1012.931405110086
 20
506.0185715840725
 30
0.0
 40
2.252848170144607
 41
16.93492221063566
 71
     5
 72
     5
  1
姓名{\Fromans|c134;/Name}
 73
     1
 44
1.0
1001
AcDbBlockRepETag
1070
     1
1071
      133
1005
147BD
1001
ACAD
1000
MTEXTBEGIN
1070
    73
1070
     1
1070
    44
1040
1.0
1070
    74
1070
     0
1000
MTEXTEND
  0
MTEXT
  5
147BE
330
10FE8
100
AcDbEntity
  8
图框
100
AcDbMText
 10
1028.977802139886
 20
506.0590735709403
 30
0.0
 40
2.252848170144607
 41
15.35233065297283
 71
     5
 72
     5
  1
日期{\Fromans|c134;/Date}
 73
     1
 44
1.0
1001
AcDbBlockRepETag
1070
     1
1071
      134
1005
147BE
1001
ACAD
1000
MTEXTBEGIN
1070
    73
1070
     1
1070
    44
1040
1.0
1070
    74
1070
     0
1000
MTEXTEND
1000
ACAD_MTEXT_DEFINED_HEIGHT_BEGIN
1070
    46
1040
6.292658374511256
1000
ACAD_MTEXT_DEFINED_HEIGHT_END
  0
LINE
  5
147BF
330
10FE8
100
AcDbEntity
  8
图框
370
    -3
100
AcDbLine
 10
1003.652872644553
 20
502.9127443836848
 30
0.0
 11
990.6727612856927
 21
509.2054027581959
 31
0.0
1001
AcDbBlockRepETag
1070
     1
1071
      135
1005
147BF
  0
MTEXT
  5
147C0
102
{ACAD_XDICTIONARY
360
147F0
102
}
330
10FE8
100
AcDbEntity
  8
图框
100
AcDbMText
 10
997.1628169651232
 20
487.1810984474071
 30
0.0
 40
2.252848170144607
 41
12.98011135886052
 71
     5
 72
     5
  1
批准\P{\Fromans|c134;Approved}
 73
     1
 44
1.0
1001
AcDbBlockRepETag
1070
     1
1071
      136
1005
147C0
1001
ACAD
1000
MTEXTBEGIN
1070
    73
1070
     1
1070
    44
1040
1.0
1070
    74
1070
     0
1000
MTEXTEND
1000
ACAD_MTEXT_DEFINED_HEIGHT_BEGIN
1070
    46
1040
6.292658374511517
1000
ACAD_MTEXT_DEFINED_HEIGHT_END
  0
MTEXT
  5
147C1
102
{ACAD_XDICTIONARY
360
147F2
102
}
330
10FE8
100
AcDbEntity
  8
图框
100
AcDbMText
 10
953.4185582897936
 20
487.1810984474071
 30
0.0
 40
2.252848170144607
 41
12.98011135886041
 71
     5
 72
     5
  1
工艺\P{\Fromans|c134;Process}
 73
     1
 44
1.0
1001
AcDbBlockRepETag
1070
     1
1071
      137
1005
147C1
1001
ACAD
1000
MTEXTBEGIN
1070
    73
1070
     1
1070
    44
1040
1.0
1070
    74
1070
     0
1000
MTEXTEND
1000
ACAD_MTEXT_DEFINED_HEIGHT_BEGIN
1070
    46
1040
6.292658374511495
1000
ACAD_MTEXT_DEFINED_HEIGHT_END
  0
MTEXT
  5
147C2
102
{ACAD_XDICTIONARY
360
147F4
102
}
330
10FE8
100
AcDbEntity
  8
图框
100
AcDbMText
 10
1028.977802139886
 20
511.8287965307664
 30
0.0
 40
1.958998408821398
 41
15.3523306529728
 71
     5
 72
     5
  1
日期\P{\Fromans|c134;Date}
 73
     1
 44
1.0
1001
AcDbBlockRepETag
1070
     1
1071
      138
1005
147C2
1001
ACAD
1000
MTEXTBEGIN
1070
    73
1070
     1
1070
    44
1040
1.0
1070
    74
1070
     0
1000
MTEXTEND
1000
ACAD_MTEXT_DEFINED_HEIGHT_BEGIN
1070
    46
1040
5.246787545140668
1000
ACAD_MTEXT_DEFINED_HEIGHT_END
  0
MTEXT
  5
147C3
330
10FE8
100
AcDbEntity
  8
图框
100
AcDbMText
 10
1086.643735910939
 20
509.1493769780809
 30
0.0
 40
2.154898249703542
 41
13.34474941400573
 71
     5
 72
     5
  1
产品料号\P{\Fromans|c134;Part No.}
 73
     1
 44
1.0
1001
AcDbBlockRepETag
1070
     1
1071
      139
1005
147C3
1001
ACAD
1000
MTEXTBEGIN
1070
    73
1070
     1
1070
    44
1040
1.0
1070
    74
1070
     0
1000
MTEXTEND
1000
ACAD_MTEXT_DEFINED_HEIGHT_BEGIN
1070
    46
1040
8.87215554796615
1000
ACAD_MTEXT_DEFINED_HEIGHT_END
  0
MTEXT
  5
147C4
330
10FE8
100
AcDbEntity
  8
图框
100
AcDbMText
 10
1086.643735910939
 20
500.2775205517163
 30
0.0
 40
1.958998408821398
 41
13.34474941400573
 71
     5
 72
     5
  1
产品名称\P{\Fromans|c134;Part Name}
 73
     1
 44
1.0
1001
AcDbBlockRepETag
1070
     1
1071
      140
1005
147C4
1001
ACAD
1000
MTEXTBEGIN
1070
    73
1070
     1
1070
    44
1040
1.0
1070
    74
1070
     0
1000
MTEXTEND
1000
ACAD_MTEXT_DEFINED_HEIGHT_BEGIN
1070
    46
1040
8.871557304763321
1000
ACAD_MTEXT_DEFINED_HEIGHT_END
  0
LINE
  5
147C5
330
10FE8
100
AcDbEntity
  8
图框
 62
     1
370
    18
100
AcDbLine
 10
833.4128518455365
 20
690.5347692601515
 30
0.0
 11
833.4128518455365
 21
480.5347692601515
 31
0.0
1001
AcDbBlockRepETag
1070
     1
1071
      141
1005
147C5
  0
LINE
  5
147C6
330
10FE8
100
AcDbEntity
  8
图框
 62
     1
370
    18
100
AcDbLine
 10
833.4128518455365
 20
480.5347692601515
 30
0.0
 11
1130.411601781236
 21
480.5347692601515
 31
0.0
1001
AcDbBlockRepETag
1070
     1
1071
      142
1005
147C6
  0
LINE
  5
147C7
330
10FE8
100
AcDbEntity
  8
图框
 62
     1
370
    18
100
AcDbLine
 10
833.4128518455365
 20
690.5347692601515
 30
0.0
 11
1130.411601781236
 21
690.5347692601515
 31
0.0
1001
AcDbBlockRepETag
1070
     1
1071
      143
1005
147C7
  0
LINE
  5
147C8
330
10FE8
100
AcDbEntity
  8
图框
 62
     1
370
    18
100
AcDbLine
 10
1130.411601781236
 20
480.5347692601515
 30
0.0
 11
1130.411601781236
 21
690.5347692601515
 31
0.0
1001
AcDbBlockRepETag
1070
     1
1071
      144
1005
147C8
  0
LINE
  5
147C9
330
10FE8
100
AcDbEntity
  8
图框
370
    18
100
AcDbLine
 10
836.9128518455394
 20
686.7901958362482
 30
0.0
 11
861.5351874539182
 21
686.7901958362482
 31
0.0
1001
AcDbBlockRepETag
1070
     1
1071
      145
1005
147C9
  0
LINE
  5
147CA
330
10FE8
100
AcDbEntity
  8
图框
370
    50
100
AcDbLine
 10
1126.928502610363
 20
484.3410054693078
 30
0.0
 11
1126.928502610363
 21
675.5347692601515
 31
0.0
1001
AcDbBlockRepETag
1070
     1
1071
      146
1005
147CA
  0
MTEXT
  5
147CB
330
10FE8
100
AcDbEntity
  8
图框
 62
     3
100
AcDbMText
 10
1052.897990117958
 20
495.8417418993364
 30
0.0
 40
2.985513575034151
 41
10.82934843439114
 71
     5
 72
     5
  1
V1.0
  7
Romans字体
 73
     1
 44
1.0
1001
AcDbBlockRepETag
1070
     1
1071
      147
1005
147CB
1001
ACAD
1000
MTEXTBEGIN
1070
    73
1070
     1
1070
    44
1040
1.0
1070
    74
1070
     0
1000
MTEXTEND
1000
ACAD_MTEXT_DEFINED_HEIGHT_BEGIN
1070
    46
1040
7.886094601211307
1000
ACAD_MTEXT_DEFINED_HEIGHT_END
  0
LINE
  5
147CC
330
10FE8
100
AcDbEntity
  8
图框
 62
     6
100
AcDbLine
 10
1126.911601781235
 20
531.714049199969
 30
0.0
 11
1130.411601781236
 21
531.714049199969
 31
0.0
1001
AcDbBlockRepETag
1070
     1
1071
      148
1005
147CC
  0
ENDBLK
  5
1107F
330
10FE8
100
AcDbEntity
  8
0
100
AcDbBlockEnd
  0
BLOCK
  5
14592
330
14591
100
AcDbEntity
  8
0
100
AcDbBlockBegin
  2
*D2
 70
     1
 10
0.0
 20
0.0
 30
0.0
  3
*D2
  1

  0
LINE
  5
146AE
330
14591
100
AcDbEntity
  8
DIM
 62
     6
370
    -2
100
AcDbLine
 10
472.2958012277849
 20
311.8761163637221
 30
0.0
 11
488.5422470453427
 21
311.8761163637221
 31
0.0
  0
LINE
  5
146AF
330
14591
100
AcDbEntity
  8
DIM
 62
     6
370
    -2
100
AcDbLine
 10
473.6249821555601
 20
264.7261163641423
 30
0.0
 11
488.5422470453427
 21
264.7261163641423
 31
0.0
  0
LINE
  5
146B0
330
14591
100
AcDbEntity
  8
DIM
 62
     1
370
    -2
100
AcDbLine
 10
487.5422470453427
 20
308.8761163637221
 30
0.0
 11
487.5422470453427
 21
267.7261163641424
 31
0.0
  0
SOLID
  5
146B1
330
14591
100
AcDbEntity
  8
DIM
 62
     1
100
AcDbTrace
 10
487.0422470453426
 20
308.8761163637221
 30
0.0
 11
488.0422470453427
 21
308.8761163637221
 31
0.0
 12
487.5422470453427
 22
311.8761163637221
 32
0.0
 13
487.5422470453427
 23
311.8761163637221
 33
0.0
  0
SOLID
  5
146B2
330
14591
100
AcDbEntity
  8
DIM
 62
     1
100
AcDbTrace
 10
487.0422470453426
 20
267.7261163641424
 30
0.0
 11
488.0422470453427
 21
267.7261163641424
 31
0.0
 12
487.5422470453427
 22
264.7261163641423
 32
0.0
 13
487.5422470453427
 23
264.7261163641423
 33
0.0
  0
MTEXT
  5
146B3
330
14591
100
AcDbEntity
  8
DIM
 62
     4
100
AcDbMText
 10
484.9922470453426
 20
288.3011163639323
 30
0.0
 40
3.5
 41
0.0
 71
     5
 72
     1
  1
\A1;47.2
  7
Romans字体
 11
0.0000000000000001
 21
1.0
 31
0.0
 73
     1
 44
1.0
1001
ACAD
1000
MTEXTBEGIN
1070
    73
1070
     1
1070
    44
1040
1.0
1070
    74
1070
     0
1000
MTEXTEND
  0
POINT
  5
146B4
330
14591
100
AcDbEntity
  8
Defpoints
 62
     0
100
AcDbPoint
 10
472.0958012277848
 20
311.8761163637221
 30
0.0
  0
POINT
  5
146B5
330
14591
100
AcDbEntity
  8
Defpoints
 62
     0
100
AcDbPoint
 10
473.4249821555601
 20
264.7261163641423
 30
0.0
  0
POINT
  5
146B6
330
14591
100
AcDbEntity
  8
Defpoints
 62
     0
100
AcDbPoint
 10
487.5422470453427
 20
264.7261163641423
 30
0.0
  0
ENDBLK
  5
14593
330
14591
100
AcDbEntity
  8
0
100
AcDbBlockEnd
  0
BLOCK
  5
1459E
330
1459D
100
AcDbEntity
  8
0
100
AcDbBlockBegin
  2
*D3
 70
     1
 10
0.0
 20
0.0
 30
0.0
  3
*D3
  1

  0
LINE
  5
146B7
330
1459D
100
AcDbEntity
  8
DIM
 62
     6
370
    -2
100
AcDbLine
 10
478.3958012274051
 20
294.5761163638424
 30
0.0
 11
482.9586516748911
 21
294.5761163638424
 31
0.0
  0
LINE
  5
146B8
330
1459D
100
AcDbEntity
  8
DIM
 62
     6
370
    -2
100
AcDbLine
 10
479.6538620000236
 20
311.8761163637221
 30
0.0
 11
482.9586516748911
 21
311.8761163637221
 31
0.0
  0
LINE
  5
146B9
330
1459D
100
AcDbEntity
  8
DIM
 62
     1
370
    -2
100
AcDbLine
 10
481.9586516748911
 20
297.5761163638424
 30
0.0
 11
481.9586516748911
 21
308.8761163637221
 31
0.0
  0
SOLID
  5
146BA
330
1459D
100
AcDbEntity
  8
DIM
 62
     1
100
AcDbTrace
 10
481.4586516748911
 20
297.5761163638424
 30
0.0
 11
482.4586516748911
 21
297.5761163638424
 31
0.0
 12
481.9586516748911
 22
294.5761163638424
 32
0.0
 13
481.9586516748911
 23
294.5761163638424
 33
0.0
  0
SOLID
  5
146BB
330
1459D
100
AcDbEntity
  8
DIM
 62
     1
100
AcDbTrace
 10
481.4586516748911
 20
308.8761163637221
 30
0.0
 11
482.4586516748911
 21
308.8761163637221
 31
0.0
 12
481.9586516748911
 22
311.8761163637221
 32
0.0
 13
481.9586516748911
 23
311.8761163637221
 33
0.0
  0
MTEXT
  5
146BC
330
1459D
100
AcDbEntity
  8
DIM
 62
     4
100
AcDbMText
 10
479.4086516748911
 20
303.2261163637823
 30
0.0
 40
3.5
 41
0.0
 71
     5
 72
     1
  1
\A1;17.3
  7
Romans字体
 11
0.0000000000000001
 21
1.0
 31
0.0
 73
     1
 44
1.0
1001
ACAD
1000
MTEXTBEGIN
1070
    73
1070
     1
1070
    44
1040
1.0
1070
    74
1070
     0
1000
MTEXTEND
  0
POINT
  5
146BD
330
1459D
100
AcDbEntity
  8
Defpoints
 62
     0
100
AcDbPoint
 10
478.195801227405
 20
294.5761163638424
 30
0.0
  0
POINT
  5
146BE
330
1459D
100
AcDbEntity
  8
Defpoints
 62
     0
100
AcDbPoint
 10
479.4538620000237
 20
311.8761163637221
 30
0.0
  0
POINT
  5
146BF
330
1459D
100
AcDbEntity
  8
Defpoints
 62
     0
100
AcDbPoint
 10
481.9586516748911
 20
311.8761163637221
 30
0.0
  0
ENDBLK
  5
1459F
330
1459D
100
AcDbEntity
  8
0
100
AcDbBlockEnd
  0
BLOCK
  5
145AA
330
145A9
100
AcDbEntity
  8
0
100
AcDbBlockBegin
  2
*D4
 70
     1
 10
0.0
 20
0.0
 30
0.0
  3
*D4
  1

  0
LINE
  5
146C0
330
145A9
100
AcDbEntity
  8
DIM
 62
     6
370
    -2
100
AcDbLine
 10
511.6418028493651
 20
312.0761163637221
 30
0.0
 11
511.6418028493651
 21
319.6403166751905
 31
0.0
  0
LINE
  5
146C1
330
145A9
100
AcDbEntity
  8
DIM
 62
     6
370
    -2
100
AcDbLine
 10
526.2918028482651
 20
312.0761163637221
 30
0.0
 11
526.2918028482651
 21
319.6403166751905
 31
0.0
  0
LINE
  5
146C2
330
145A9
100
AcDbEntity
  8
DIM
 62
     1
370
    -2
100
AcDbLine
 10
514.6418028493651
 20
318.6403166751905
 30
0.0
 11
523.2918028482652
 21
318.6403166751905
 31
0.0
  0
SOLID
  5
146C3
330
145A9
100
AcDbEntity
  8
DIM
 62
     1
100
AcDbTrace
 10
514.6418028493651
 20
319.1403166751905
 30
0.0
 11
514.6418028493651
 21
318.1403166751905
 31
0.0
 12
511.6418028493651
 22
318.6403166751905
 32
0.0
 13
511.6418028493651
 23
318.6403166751905
 33
0.0
  0
SOLID
  5
146C4
330
145A9
100
AcDbEntity
  8
DIM
 62
     1
100
AcDbTrace
 10
523.2918028482652
 20
319.1403166751905
 30
0.0
 11
523.2918028482652
 21
318.1403166751905
 31
0.0
 12
526.2918028482651
 22
318.6403166751905
 32
0.0
 13
526.2918028482651
 23
318.6403166751905
 33
0.0
  0
MTEXT
  5
146C5
330
145A9
100
AcDbEntity
  8
DIM
 62
     4
100
AcDbMText
 10
518.9668028488151
 20
321.1903166751905
 30
0.0
 40
3.5
 41
0.0
 71
     5
 72
     1
  1
\A1;14.6
  7
Romans字体
 73
     1
 44
1.0
1001
ACAD
1000
MTEXTBEGIN
1070
    73
1070
     1
1070
    44
1040
1.0
1070
    74
1070
     0
1000
MTEXTEND
  0
POINT
  5
146C6
330
145A9
100
AcDbEntity
  8
Defpoints
 62
     0
100
AcDbPoint
 10
511.6418028493651
 20
311.8761163637221
 30
0.0
  0
POINT
  5
146C7
330
145A9
100
AcDbEntity
  8
Defpoints
 62
     0
100
AcDbPoint
 10
526.2918028482651
 20
311.8761163637221
 30
0.0
  0
POINT
  5
146C8
330
145A9
100
AcDbEntity
  8
Defpoints
 62
     0
100
AcDbPoint
 10
526.2918028482651
 20
318.6403166751905
 30
0.0
  0
ENDBLK
  5
145AB
330
145A9
100
AcDbEntity
  8
0
100
AcDbBlockEnd
  0
BLOCK
  5
145B6
330
145B5
100
AcDbEntity
  8
0
100
AcDbBlockBegin
  2
*D5
 70
     1
 10
0.0
 20
0.0
 30
0.0
  3
*D5
  1

  0
LINE
  5
146C9
330
145B5
100
AcDbEntity
  8
DIM
 62
     6
370
    -2
100
AcDbLine
 10
445.9458012266448
 20
342.3657438478177
 30
0.0
 11
445.9458012266448
 21
334.0134175162473
 31
0.0
  0
LINE
  5
146CA
330
145B5
100
AcDbEntity
  8
DIM
 62
     6
370
    -2
100
AcDbLine
 10
476.2458012259647
 20
342.3657438478177
 30
0.0
 11
476.2458012259647
 21
334.0134175162473
 31
0.0
  0
LINE
  5
146CB
330
145B5
100
AcDbEntity
  8
DIM
 62
     1
370
    -2
100
AcDbLine
 10
448.9458012266448
 20
335.0134175162474
 30
0.0
 11
473.2458012259646
 21
335.0134175162474
 31
0.0
  0
SOLID
  5
146CC
330
145B5
100
AcDbEntity
  8
DIM
 62
     1
100
AcDbTrace
 10
448.9458012266448
 20
335.5134175162473
 30
0.0
 11
448.9458012266448
 21
334.5134175162473
 31
0.0
 12
445.9458012266448
 22
335.0134175162474
 32
0.0
 13
445.9458012266448
 23
335.0134175162474
 33
0.0
  0
SOLID
  5
146CD
330
145B5
100
AcDbEntity
  8
DIM
 62
     1
100
AcDbTrace
 10
473.2458012259646
 20
335.5134175162473
 30
0.0
 11
473.2458012259646
 21
334.5134175162473
 31
0.0
 12
476.2458012259647
 22
335.0134175162474
 32
0.0
 13
476.2458012259647
 23
335.0134175162474
 33
0.0
  0
MTEXT
  5
146CE
330
145B5
100
AcDbEntity
  8
DIM
 62
     4
100
AcDbMText
 10
461.0958012263047
 20
337.5634175162474
 30
0.0
 40
3.5
 41
0.0
 71
     5
 72
     1
  1
\A1;30.3
  7
Romans字体
 73
     1
 44
1.0
1001
ACAD
1000
MTEXTBEGIN
1070
    73
1070
     1
1070
    44
1040
1.0
1070
    74
1070
     0
1000
MTEXTEND
  0
POINT
  5
146CF
330
145B5
100
AcDbEntity
  8
Defpoints
 62
     0
100
AcDbPoint
 10
445.9458012266448
 20
342.5657438478177
 30
0.0
  0
POINT
  5
146D0
330
145B5
100
AcDbEntity
  8
Defpoints
 62
     0
100
AcDbPoint
 10
476.2458012259647
 20
342.5657438478177
 30
0.0
  0
POINT
  5
146D1
330
145B5
100
AcDbEntity
  8
Defpoints
 62
     0
100
AcDbPoint
 10
476.2458012259647
 20
335.0134175162474
 30
0.0
  0
ENDBLK
  5
145B7
330
145B5
100
AcDbEntity
  8
0
100
AcDbBlockEnd
  0
BLOCK
  5
145C2
330
145C1
100
AcDbEntity
  8
0
100
AcDbBlockBegin
  2
*D6
 70
     1
 10
0.0
 20
0.0
 30
0.0
  3
*D6
  1

  0
LINE
  5
146D2
330
145C1
100
AcDbEntity
  8
DIM
 62
     6
370
    -2
100
AcDbLine
 10
443.9958012252051
 20
346.1907438482977
 30
0.0
 11
443.9958012252051
 21
328.7994850763123
 31
0.0
  0
LINE
  5
146D3
330
145C1
100
AcDbEntity
  8
DIM
 62
     6
370
    -2
100
AcDbLine
 10
478.195801227405
 20
346.1907438482977
 30
0.0
 11
478.195801227405
 21
328.7994850763123
 31
0.0
  0
LINE
  5
146D4
330
145C1
100
AcDbEntity
  8
DIM
 62
     1
370
    -2
100
AcDbLine
 10
446.9958012252051
 20
329.7994850763124
 30
0.0
 11
475.1958012274051
 21
329.7994850763124
 31
0.0
  0
SOLID
  5
146D5
330
145C1
100
AcDbEntity
  8
DIM
 62
     1
100
AcDbTrace
 10
446.9958012252051
 20
330.2994850763123
 30
0.0
 11
446.9958012252051
 21
329.2994850763124
 31
0.0
 12
443.9958012252051
 22
329.7994850763124
 32
0.0
 13
443.9958012252051
 23
329.7994850763124
 33
0.0
  0
SOLID
  5
146D6
330
145C1
100
AcDbEntity
  8
DIM
 62
     1
100
AcDbTrace
 10
475.1958012274051
 20
330.2994850763123
 30
0.0
 11
475.1958012274051
 21
329.2994850763124
 31
0.0
 12
478.195801227405
 22
329.7994850763124
 32
0.0
 13
478.195801227405
 23
329.7994850763124
 33
0.0
  0
MTEXT
  5
146D7
330
145C1
100
AcDbEntity
  8
DIM
 62
     4
100
AcDbMText
 10
461.0958012263052
 20
332.3494850763124
 30
0.0
 40
3.5
 41
0.0
 71
     5
 72
     1
  1
\A1;34.2
  7
Romans字体
 73
     1
 44
1.0
1001
ACAD
1000
MTEXTBEGIN
1070
    73
1070
     1
1070
    44
1040
1.0
1070
    74
1070
     0
1000
MTEXTEND
  0
POINT
  5
146D8
330
145C1
100
AcDbEntity
  8
Defpoints
 62
     0
100
AcDbPoint
 10
443.9958012252051
 20
346.3907438482976
 30
0.0
  0
POINT
  5
146D9
330
145C1
100
AcDbEntity
  8
Defpoints
 62
     0
100
AcDbPoint
 10
478.195801227405
 20
346.3907438482976
 30
0.0
  0
POINT
  5
146DA
330
145C1
100
AcDbEntity
  8
Defpoints
 62
     0
100
AcDbPoint
 10
478.195801227405
 20
329.7994850763124
 30
0.0
  0
ENDBLK
  5
145C3
330
145C1
100
AcDbEntity
  8
0
100
AcDbBlockEnd
  0
ENDSEC
  0
SECTION
  2
ENTITIES
  0
HATCH
  5
28AE
330
1F
100
AcDbEntity
  8
图层 1
 62
     7
100
AcDbHatch
 10
0.0
 20
0.0
 30
0.0
210
0.0
220
0.0
230
1.0
  2
SOLID
 70
     1
 71
     0
 91
        1
 92
        1
 93
        2
 72
     4
 94
        3
 73
     0
 74
     0
 95
       17
 96
       13
 40
0.0
 40
0.0
 40
0.0
 40
0.0
 40
0.3527780104152769
 40
0.3527780104152769
 40
0.3527780104152769
 40
0.7055560208305538
 40
0.7055560208305538
 40
0.7055560208305538
 40
1.058334031245828
 40
1.058334031245828
 40
1.058334031245828
 40
1.411112041661104
 40
1.411112041661104
 40
1.411112041661104
 40
1.411112041661104
 10
11.07013262565829
 20
29.50312817963231
 10
11.07013262565829
 20
29.50312817963231
 10
10.9431807732774
 20
29.50312817963231
 10
10.9431807732774
 20
29.50312817963231
 10
10.9431807732774
 20
29.50312817963231
 10
10.85843136843155
 20
29.22786486877117
 10
10.85843136843155
 20
29.22786486877117
 10
10.85843136843155
 20
29.22786486877117
 10
10.90080607085448
 20
29.2068497724476
 10
10.90080607085448
 20
29.2068497724476
 10
10.94455881238059
 20
29.31571486159919
 10
11.00346998404173
 20
29.40907701083995
 10
11.07013262565829
 20
29.50312817963231
 72
     1
 10
11.07013262565829
 20
29.50312817963231
 11
11.07013262565829
 21
29.50312817963231
 97
        0
 75
     0
 76
     1
 98
        0
  0
HATCH
  5
2C65
330
1F
100
AcDbEntity
  8
图层 1
 62
     7
100
AcDbHatch
 10
0.0
 20
0.0
 30
0.0
210
0.0
220
0.0
230
1.0
  2
SOLID
 70
     1
 71
     0
 91
        1
 92
        1
 93
        2
 72
     4
 94
        3
 73
     0
 74
     0
 95
       47
 96
       43
 40
0.0
 40
0.0
 40
0.0
 40
0.0
 40
0.3527780104152769
 40
0.3527780104152769
 40
0.3527780104152769
 40
0.7055560208305538
 40
0.7055560208305538
 40
0.7055560208305538
 40
1.058334031245828
 40
1.058334031245828
 40
1.058334031245828
 40
1.411112041661104
 40
1.411112041661104
 40
1.411112041661104
 40
1.763890052076384
 40
1.763890052076384
 40
1.763890052076384
 40
2.116668062491659
 40
2.116668062491659
 40
2.116668062491659
 40
2.469446072906936
 40
2.469446072906936
 40
2.469446072906936
 40
2.822224083322215
 40
2.822224083322215
 40
2.822224083322215
 40
3.175002093737492
 40
3.175002093737492
 40
3.175002093737492
 40
3.527780104152768
 40
3.527780104152768
 40
3.527780104152768
 40
3.880558114568044
 40
3.880558114568044
 40
3.880558114568044
 40
4.233336124983321
 40
4.233336124983321
 40
4.233336124983321
 40
4.586114135398599
 40
4.586114135398599
 40
4.586114135398599
 40
4.938892145813873
 40
4.938892145813873
 40
4.938892145813873
 40
4.938892145813873
 10
162.8986914070121
 20
257.4895347631509
 10
162.8986914070121
 20
257.4895347631509
 10
162.9200510131114
 20
257.4471600607279
 10
162.9200510131114
 20
257.4471600607279
 10
162.9200510131114
 20
257.4471600607279
 10
162.9200510131114
 20
257.404785358305
 10
162.9200510131114
 20
257.404785358305
 10
162.9200510131114
 20
257.404785358305
 10
162.8986914070121
 20
257.36258291077
 10
162.8986914070121
 20
257.36258291077
 10
162.8986914070121
 20
257.36258291077
 10
162.8986914070121
 20
257.320208208347
 10
162.8986914070121
 20
257.320208208347
 10
162.8986914070121
 20
257.320208208347
 10
162.8563167045891
 20
257.2990208571356
 10
162.8563167045891
 20
257.2990208571356
 10
162.8563167045891
 20
257.2990208571356
 10
162.8139420021662
 20
257.2563016449369
 10
162.8139420021662
 20
257.2563016449369
 10
162.8139420021662
 20
257.2563016449369
 10
162.7295371070961
 20
257.2563016449369
 10
162.7295371070961
 20
257.2563016449369
 10
162.7295371070961
 20
257.2563016449369
 10
162.6658027985738
 20
257.2778335059241
 10
162.6658027985738
 20
257.2778335059241
 10
162.6658027985738
 20
257.2778335059241
 10
162.6237726059267
 20
257.2990208571356
 10
162.6237726059267
 20
257.2990208571356
 10
162.6237726059267
 20
257.2990208571356
 10
162.5813979035038
 20
257.3413955595585
 10
162.5813979035038
 20
257.3413955595585
 10
162.5813979035038
 20
257.3413955595585
 10
162.5813979035038
 20
257.4895347631509
 10
162.5813979035038
 20
257.4895347631509
 10
162.5813979035038
 20
257.4895347631509
 10
162.6447877022503
 20
257.5525800521216
 10
162.6447877022503
 20
257.5525800521216
 10
162.6447877022503
 20
257.5525800521216
 10
162.7081775009967
 20
257.5525800521216
 10
162.7081775009967
 20
257.5525800521216
 10
162.8749202324821
 20
257.5424170137356
 10
162.7918933765152
 20
257.5939212252171
 10
162.8986914070121
 20
257.4895347631509
 72
     1
 10
162.8986914070121
 20
257.4895347631509
 11
162.8986914070121
 21
257.4895347631509
 97
        0
 75
     0
 76
     1
 98
        0
  0
HATCH
  5
2EE7
330
1F
100
AcDbEntity
  8
图层 1
 62
     7
100
AcDbHatch
 10
0.0
 20
0.0
 30
0.0
210
0.0
220
0.0
230
1.0
  2
SOLID
 70
     1
 71
     0
 91
        1
 92
        1
 93
        2
 72
     4
 94
        3
 73
     0
 74
     0
 95
       56
 96
       52
 40
0.0
 40
0.0
 40
0.0
 40
0.0
 40
0.3527780104152769
 40
0.3527780104152769
 40
0.3527780104152769
 40
0.7055560208305538
 40
0.7055560208305538
 40
0.7055560208305538
 40
1.058334031245828
 40
1.058334031245828
 40
1.058334031245828
 40
1.411112041661104
 40
1.411112041661104
 40
1.411112041661104
 40
1.763890052076384
 40
1.763890052076384
 40
1.763890052076384
 40
2.116668062491659
 40
2.116668062491659
 40
2.116668062491659
 40
2.469446072906936
 40
2.469446072906936
 40
2.469446072906936
 40
2.822224083322215
 40
2.822224083322215
 40
2.822224083322215
 40
3.175002093737492
 40
3.175002093737492
 40
3.175002093737492
 40
3.527780104152768
 40
3.527780104152768
 40
3.527780104152768
 40
3.880558114568044
 40
3.880558114568044
 40
3.880558114568044
 40
4.233336124983321
 40
4.233336124983321
 40
4.233336124983321
 40
4.586114135398599
 40
4.586114135398599
 40
4.586114135398599
 40
4.938892145813873
 40
4.938892145813873
 40
4.938892145813873
 40
5.291670156229153
 40
5.291670156229153
 40
5.291670156229153
 40
5.64444816664443
 40
5.64444816664443
 40
5.64444816664443
 40
5.997226177059705
 40
5.997226177059705
 40
5.997226177059705
 40
5.997226177059705
 10
185.4837187788815
 20
241.4451977396596
 10
185.4837187788815
 20
241.4451977396596
 10
185.4837187788815
 20
241.4028230372367
 10
185.4837187788815
 20
241.4028230372367
 10
185.4837187788815
 20
241.4028230372367
 10
185.5047338752051
 20
241.3604483348137
 10
185.5047338752051
 20
241.3604483348137
 10
185.4520238795082
 20
241.2782827532863
 10
185.4671823096433
 20
241.1897437409066
 10
185.335579575289
 20
241.2119646214456
 10
185.335579575289
 20
241.2119646214456
 10
185.2932048728662
 20
241.2119646214456
 10
185.2932048728662
 20
241.2119646214456
 10
185.2932048728662
 20
241.2119646214456
 10
185.2294705643439
 20
241.2334964824328
 10
185.2294705643439
 20
241.2334964824328
 10
185.2294705643439
 20
241.2334964824328
 10
185.1660807655974
 20
241.2543393238685
 10
185.1660807655974
 20
241.2543393238685
 10
185.1660807655974
 20
241.2543393238685
 10
185.1450656692739
 20
241.2758711848558
 10
185.1450656692739
 20
241.2758711848558
 10
185.1450656692739
 20
241.2758711848558
 10
185.1450656692739
 20
241.2967140262914
 10
185.1450656692739
 20
241.2967140262914
 10
185.1450656692739
 20
241.2967140262914
 10
185.1237060631745
 20
241.3604483348137
 10
185.1237060631745
 20
241.3604483348137
 10
185.1237060631745
 20
241.3604483348137
 10
185.1237060631745
 20
241.4028230372367
 10
185.1237060631745
 20
241.4028230372367
 10
185.1237060631745
 20
241.4028230372367
 10
185.1660807655974
 20
241.4875724420825
 10
185.1660807655974
 20
241.4875724420825
 10
185.1660807655974
 20
241.4875724420825
 10
185.2084554680203
 20
241.5085875384061
 10
185.2084554680203
 20
241.5085875384061
 10
185.2084554680203
 20
241.5085875384061
 10
185.2718452667668
 20
241.5297748896175
 10
185.2718452667668
 20
241.5297748896175
 10
185.2718452667668
 20
241.5297748896175
 10
185.3565946716127
 20
241.5297748896175
 10
185.3565946716127
 20
241.5297748896175
 10
185.3565946716127
 20
241.5297748896175
 10
185.4199844703592
 20
241.5085875384061
 10
185.4199844703592
 20
241.5085875384061
 10
185.4199844703592
 20
241.5085875384061
 10
185.4623591727821
 20
241.4875724420825
 10
185.4623591727821
 20
241.4875724420825
 10
185.4623591727821
 20
241.4875724420825
 10
185.4837187788815
 20
241.4451977396596
 10
185.4837187788815
 20
241.4451977396596
 72
     1
 10
185.4837187788815
 20
241.4451977396596
 11
185.4837187788815
 21
241.4451977396596
 97
        0
 75
     0
 76
     1
 98
        0
  0
HATCH
  5
2F93
330
1F
100
AcDbEntity
  8
图层 1
 62
     7
100
AcDbHatch
 10
0.0
 20
0.0
 30
0.0
210
0.0
220
0.0
230
1.0
  2
SOLID
 70
     1
 71
     0
 91
        1
 92
        1
 93
        2
 72
     4
 94
        3
 73
     0
 74
     0
 95
       38
 96
       34
 40
0.0
 40
0.0
 40
0.0
 40
0.0
 40
0.3527780104152769
 40
0.3527780104152769
 40
0.3527780104152769
 40
0.7055560208305538
 40
0.7055560208305538
 40
0.7055560208305538
 40
1.058334031245828
 40
1.058334031245828
 40
1.058334031245828
 40
1.411112041661104
 40
1.411112041661104
 40
1.411112041661104
 40
1.763890052076384
 40
1.763890052076384
 40
1.763890052076384
 40
2.116668062491659
 40
2.116668062491659
 40
2.116668062491659
 40
2.469446072906936
 40
2.469446072906936
 40
2.469446072906936
 40
2.822224083322215
 40
2.822224083322215
 40
2.822224083322215
 40
3.175002093737492
 40
3.175002093737492
 40
3.175002093737492
 40
3.527780104152768
 40
3.527780104152768
 40
3.527780104152768
 40
3.880558114568044
 40
3.880558114568044
 40
3.880558114568044
 40
3.880558114568044
 10
185.907121293335
 20
220.1937677098971
 10
185.9005756075949
 20
220.0449394867532
 10
185.9329595265197
 20
220.1136691870245
 10
185.864746590912
 20
219.9817219428946
 10
185.864746590912
 20
219.9817219428946
 10
185.822371888489
 20
219.9605345916831
 10
185.822371888489
 20
219.9605345916831
 10
185.822371888489
 20
219.9605345916831
 10
185.6528730787974
 20
219.9605345916831
 10
185.6528730787974
 20
219.9605345916831
 10
185.6528730787974
 20
219.9605345916831
 10
185.5894832800509
 20
220.002909294106
 10
185.5894832800509
 20
220.002909294106
 10
185.5894832800509
 20
220.002909294106
 10
185.5681236739515
 20
220.0240966453175
 10
185.5681236739515
 20
220.0240966453175
 10
185.5681236739515
 20
220.0240966453175
 10
185.5681236739515
 20
220.045283996529
 10
185.5681236739515
 20
220.045283996529
 10
185.5681236739515
 20
220.045283996529
 10
185.547108577628
 20
220.0876586989519
 10
185.547108577628
 20
220.0876586989519
 10
185.547108577628
 20
220.0876586989519
 10
185.547108577628
 20
220.1513930074742
 10
185.547108577628
 20
220.1513930074742
 10
185.547108577628
 20
220.1513930074742
 10
185.5894832800509
 20
220.23614241232
 10
185.5894832800509
 20
220.23614241232
 10
185.5894832800509
 20
220.23614241232
 10
185.6318579824738
 20
220.2573297635315
 10
185.6318579824738
 20
220.2573297635315
 10
185.7055830744942
 20
220.2566407439799
 10
185.8416644359337
 20
220.3310548555519
 10
185.907121293335
 20
220.1937677098971
 72
     1
 10
185.907121293335
 20
220.1937677098971
 11
185.907121293335
 21
220.1937677098971
 97
        0
 75
     0
 76
     1
 98
        0
  0
HATCH
  5
2FDE
330
1F
100
AcDbEntity
  8
图层 1
 62
     7
100
AcDbHatch
 10
0.0
 20
0.0
 30
0.0
210
0.0
220
0.0
230
1.0
  2
SOLID
 70
     1
 71
     0
 91
        1
 92
        1
 93
        2
 72
     4
 94
        3
 73
     0
 74
     0
 95
       50
 96
       46
 40
0.0
 40
0.0
 40
0.0
 40
0.0
 40
0.3527780104152769
 40
0.3527780104152769
 40
0.3527780104152769
 40
0.7055560208305538
 40
0.7055560208305538
 40
0.7055560208305538
 40
1.058334031245828
 40
1.058334031245828
 40
1.058334031245828
 40
1.411112041661104
 40
1.411112041661104
 40
1.411112041661104
 40
1.763890052076384
 40
1.763890052076384
 40
1.763890052076384
 40
2.116668062491659
 40
2.116668062491659
 40
2.116668062491659
 40
2.469446072906936
 40
2.469446072906936
 40
2.469446072906936
 40
2.822224083322215
 40
2.822224083322215
 40
2.822224083322215
 40
3.175002093737492
 40
3.175002093737492
 40
3.175002093737492
 40
3.527780104152768
 40
3.527780104152768
 40
3.527780104152768
 40
3.880558114568044
 40
3.880558114568044
 40
3.880558114568044
 40
4.233336124983321
 40
4.233336124983321
 40
4.233336124983321
 40
4.586114135398599
 40
4.586114135398599
 40
4.586114135398599
 40
4.938892145813873
 40
4.938892145813873
 40
4.938892145813873
 40
5.291670156229153
 40
5.291670156229153
 40
5.291670156229153
 40
5.291670156229153
 10
180.9117295442905
 20
208.9327766684477
 10
180.9117295442905
 20
208.9327766684477
 10
180.9117295442905
 20
208.7637946234197
 10
180.9117295442905
 20
208.7637946234197
 10
181.2273004989198
 20
208.6749111012643
 10
181.3833634273555
 20
208.6776671794706
 10
181.6948002646751
 20
208.5097186637701
 10
181.9542161258496
 20
208.4294478860095
 10
182.1388733656765
 20
208.2134402565853
 10
182.3297317814676
 20
208.02292635057
 10
182.3297317814676
 20
208.02292635057
 10
182.435496282637
 20
208.065301052993
 10
182.435496282637
 20
208.065301052993
 10
182.288390608372
 20
208.2733849575739
 10
182.3752070718726
 20
208.2134402565853
 10
182.1605774815516
 20
208.3824223016133
 10
182.1605774815516
 20
208.3824223016133
 10
182.1182027791287
 20
208.4247970040363
 10
182.1182027791287
 20
208.4247970040363
 10
182.1182027791287
 20
208.4247970040363
 10
182.0968431730294
 20
208.467516216235
 10
182.0968431730294
 20
208.467516216235
 10
182.0968431730294
 20
208.467516216235
 10
182.0544684706064
 20
208.4883590576707
 10
182.0544684706064
 20
208.4883590576707
 10
182.0544684706064
 20
208.4883590576707
 10
181.9910786718599
 20
208.5305615052057
 10
181.9910786718599
 20
208.5305615052057
 10
181.9910786718599
 20
208.5305615052057
 10
181.948703969437
 20
208.552093366193
 10
181.948703969437
 20
208.552093366193
 10
181.948703969437
 20
208.552093366193
 10
181.9063292670141
 20
208.5729362076286
 10
181.9063292670141
 20
208.5729362076286
 10
181.9063292670141
 20
208.5729362076286
 10
181.8639545645911
 20
208.6156554198274
 10
181.8639545645911
 20
208.6156554198274
 10
181.8639545645911
 20
208.6156554198274
 10
181.821924371944
 20
208.6368427710388
 10
181.821924371944
 20
208.6368427710388
 10
181.6637943848536
 20
208.6742220817127
 10
181.5452830219797
 20
208.8092699138248
 10
181.3771622513911
 20
208.8061693258427
 10
181.2803550043924
 20
208.8573290275484
 10
181.0126709085988
 20
208.8971199066528
 10
180.9117295442905
 20
208.9327766684477
 72
     1
 10
180.9117295442905
 20
208.9327766684477
 11
180.9117295442905
 21
208.9327766684477
 97
        0
 75
     0
 76
     1
 98
        0
  0
HATCH
  5
35C8
330
1F
100
AcDbEntity
  8
图层 1
 62
     7
100
AcDbHatch
 10
0.0
 20
0.0
 30
0.0
210
0.0
220
0.0
230
1.0
  2
SOLID
 70
     1
 71
     0
 91
        1
 92
        1
 93
        2
 72
     4
 94
        3
 73
     0
 74
     0
 95
       38
 96
       34
 40
0.0
 40
0.0
 40
0.0
 40
0.0
 40
0.3527780104152769
 40
0.3527780104152769
 40
0.3527780104152769
 40
0.7055560208305538
 40
0.7055560208305538
 40
0.7055560208305538
 40
1.058334031245828
 40
1.058334031245828
 40
1.058334031245828
 40
1.411112041661104
 40
1.411112041661104
 40
1.411112041661104
 40
1.763890052076384
 40
1.763890052076384
 40
1.763890052076384
 40
2.116668062491659
 40
2.116668062491659
 40
2.116668062491659
 40
2.469446072906936
 40
2.469446072906936
 40
2.469446072906936
 40
2.822224083322215
 40
2.822224083322215
 40
2.822224083322215
 40
3.175002093737492
 40
3.175002093737492
 40
3.175002093737492
 40
3.527780104152768
 40
3.527780104152768
 40
3.527780104152768
 40
3.880558114568044
 40
3.880558114568044
 40
3.880558114568044
 40
3.880558114568044
 10
189.145513185819
 20
166.8326485368285
 10
189.207869455238
 20
166.740492171803
 10
189.1317327947871
 20
166.6833035490209
 10
189.103138483396
 20
166.6209472796017
 10
189.103138483396
 20
166.6209472796017
 10
189.0607637809731
 20
166.5997599283903
 10
189.0607637809731
 20
166.5997599283903
 10
189.0607637809731
 20
166.5997599283903
 10
188.9973739822266
 20
166.5785725771788
 10
188.9973739822266
 20
166.5785725771788
 10
188.9973739822266
 20
166.5785725771788
 10
188.9549992798037
 20
166.5997599283903
 10
188.9549992798037
 20
166.5997599283903
 10
188.9549992798037
 20
166.5997599283903
 10
188.8916094810572
 20
166.5997599283903
 10
188.8916094810572
 20
166.5997599283903
 10
188.8916094810572
 20
166.5997599283903
 10
188.8492347786343
 20
166.6209472796017
 10
188.8492347786343
 20
166.6209472796017
 10
188.8492347786343
 20
166.6209472796017
 10
188.8278751725349
 20
166.6633219820247
 10
188.8278751725349
 20
166.6633219820247
 10
188.8278751725349
 20
166.6633219820247
 10
188.8068600762114
 20
166.6845093332361
 10
188.8068600762114
 20
166.6845093332361
 10
188.8068600762114
 20
166.6845093332361
 10
188.8068600762114
 20
166.8326485368285
 10
188.8068600762114
 20
166.8326485368285
 10
188.8068600762114
 20
166.8326485368285
 10
188.8702498749578
 20
166.896038335575
 10
188.8702498749578
 20
166.896038335575
 10
189.0228677056355
 20
166.8819134347673
 10
189.0686875058164
 20
166.9411691162043
 10
189.145513185819
 20
166.8326485368285
 72
     1
 10
189.145513185819
 20
166.8326485368285
 11
189.145513185819
 21
166.8326485368285
 97
        0
 75
     0
 76
     1
 98
        0
  0
HATCH
  5
35D8
330
1F
100
AcDbEntity
  8
图层 1
 62
     7
100
AcDbHatch
 10
0.0
 20
0.0
 30
0.0
210
0.0
220
0.0
230
1.0
  2
SOLID
 70
     1
 71
     0
 91
        1
 92
        1
 93
        2
 72
     4
 94
        3
 73
     0
 74
     0
 95
       68
 96
       64
 40
0.0
 40
0.0
 40
0.0
 40
0.0
 40
0.3527780104152769
 40
0.3527780104152769
 40
0.3527780104152769
 40
0.7055560208305538
 40
0.7055560208305538
 40
0.7055560208305538
 40
1.058334031245828
 40
1.058334031245828
 40
1.058334031245828
 40
1.411112041661104
 40
1.411112041661104
 40
1.411112041661104
 40
1.763890052076384
 40
1.763890052076384
 40
1.763890052076384
 40
2.116668062491659
 40
2.116668062491659
 40
2.116668062491659
 40
2.469446072906936
 40
2.469446072906936
 40
2.469446072906936
 40
2.822224083322215
 40
2.822224083322215
 40
2.822224083322215
 40
3.175002093737492
 40
3.175002093737492
 40
3.175002093737492
 40
3.527780104152768
 40
3.527780104152768
 40
3.527780104152768
 40
3.880558114568044
 40
3.880558114568044
 40
3.880558114568044
 40
4.233336124983321
 40
4.233336124983321
 40
4.233336124983321
 40
4.586114135398599
 40
4.586114135398599
 40
4.586114135398599
 40
4.938892145813873
 40
4.938892145813873
 40
4.938892145813873
 40
5.291670156229153
 40
5.291670156229153
 40
5.291670156229153
 40
5.64444816664443
 40
5.64444816664443
 40
5.64444816664443
 40
5.997226177059705
 40
5.997226177059705
 40
5.997226177059705
 40
6.350004187474984
 40
6.350004187474984
 40
6.350004187474984
 40
6.702782197890257
 40
6.702782197890257
 40
6.702782197890257
 40
7.055560208305537
 40
7.055560208305537
 40
7.055560208305537
 40
7.408338218720808
 40
7.408338218720808
 40
7.408338218720808
 40
7.408338218720808
 10
174.7732543591544
 20
135.4846705078077
 10
174.7732543591544
 20
135.4846705078077
 10
174.7732543591544
 20
135.3789060066383
 10
174.7732543591544
 20
135.3789060066383
 10
174.7732543591544
 20
135.3789060066383
 10
174.8156290615773
 20
135.3789060066383
 10
174.8156290615773
 20
135.3789060066383
 10
174.8156290615773
 20
135.3789060066383
 10
174.8580037640001
 20
135.3578909103147
 10
174.8580037640001
 20
135.3578909103147
 10
174.8580037640001
 20
135.3578909103147
 10
174.9213935627468
 20
135.3578909103147
 10
174.9213935627468
 20
135.3578909103147
 10
174.9213935627468
 20
135.3578909103147
 10
174.9637682651697
 20
135.3365313042154
 10
174.9637682651697
 20
135.3365313042154
 10
174.9637682651697
 20
135.3365313042154
 10
174.9847833614933
 20
135.3365313042154
 10
174.9847833614933
 20
135.3365313042154
 10
174.9847833614933
 20
135.3365313042154
 10
175.0271580639162
 20
135.3155162078918
 10
175.0271580639162
 20
135.3155162078918
 10
175.0271580639162
 20
135.3155162078918
 10
175.0485176700155
 20
135.2941566017924
 10
175.0485176700155
 20
135.2941566017924
 10
175.0485176700155
 20
135.2941566017924
 10
175.0695327663391
 20
135.2941566017924
 10
175.0695327663391
 20
135.2941566017924
 10
175.0695327663391
 20
135.2941566017924
 10
175.0908923724385
 20
135.2731415054689
 10
175.0908923724385
 20
135.2731415054689
 10
175.0908923724385
 20
135.2731415054689
 10
175.1332670748614
 20
135.2731415054689
 10
175.1332670748614
 20
135.2731415054689
 10
175.1332670748614
 20
135.2731415054689
 10
175.154282171185
 20
135.2517818993695
 10
175.154282171185
 20
135.2517818993695
 10
175.154282171185
 20
135.2517818993695
 10
175.154282171185
 20
135.3578909103147
 10
175.154282171185
 20
135.3578909103147
 10
175.154282171185
 20
135.3578909103147
 10
175.1332670748614
 20
135.3789060066383
 10
175.1332670748614
 20
135.3789060066383
 10
175.1332670748614
 20
135.3789060066383
 10
175.0908923724385
 20
135.3789060066383
 10
175.0908923724385
 20
135.3789060066383
 10
175.0908923724385
 20
135.3789060066383
 10
175.0908923724385
 20
135.3999211029619
 10
175.0908923724385
 20
135.3999211029619
 10
175.0908923724385
 20
135.3999211029619
 10
175.0695327663391
 20
135.3999211029619
 10
175.0695327663391
 20
135.3999211029619
 10
175.0695327663391
 20
135.3999211029619
 10
175.0271580639162
 20
135.4212807090612
 10
175.0271580639162
 20
135.4212807090612
 10
175.0271580639162
 20
135.4212807090612
 10
175.0061429675926
 20
135.4212807090612
 10
175.0061429675926
 20
135.4212807090612
 10
175.0061429675926
 20
135.4212807090612
 10
174.9637682651697
 20
135.4422958053848
 10
174.9637682651697
 20
135.4422958053848
 10
174.8996894468716
 20
135.4498750204523
 10
174.8394002361073
 20
135.4860485469109
 10
174.7732543591544
 20
135.4846705078077
 72
     1
 10
174.7732543591544
 20
135.4846705078077
 11
174.7732543591544
 21
135.4846705078077
 97
        0
 75
     0
 76
     1
 98
        0
  0
HATCH
  5
3807
330
1F
100
AcDbEntity
  8
图层 1
 62
     7
100
AcDbHatch
 10
0.0
 20
0.0
 30
0.0
210
0.0
220
0.0
230
1.0
  2
SOLID
 70
     1
 71
     0
 91
        1
 92
        1
 93
        2
 72
     4
 94
        3
 73
     0
 74
     0
 95
       29
 96
       25
 40
0.0
 40
0.0
 40
0.0
 40
0.0
 40
0.3527780104152769
 40
0.3527780104152769
 40
0.3527780104152769
 40
0.7055560208305538
 40
0.7055560208305538
 40
0.7055560208305538
 40
1.058334031245828
 40
1.058334031245828
 40
1.058334031245828
 40
1.411112041661104
 40
1.411112041661104
 40
1.411112041661104
 40
1.763890052076384
 40
1.763890052076384
 40
1.763890052076384
 40
2.116668062491659
 40
2.116668062491659
 40
2.116668062491659
 40
2.469446072906936
 40
2.469446072906936
 40
2.469446072906936
 40
2.822224083322215
 40
2.822224083322215
 40
2.822224083322215
 40
2.822224083322215
 10
175.4929352807925
 20
164.0174869039101
 10
175.4929352807925
 20
164.0174869039101
 10
175.5139503771161
 20
163.9751122014871
 10
175.5139503771161
 20
163.9751122014871
 10
175.5139503771161
 20
163.9751122014871
 10
175.5139503771161
 20
163.9327374990642
 10
175.5139503771161
 20
163.9327374990642
 10
175.5139503771161
 20
163.9327374990642
 10
175.4929352807925
 20
163.8903627966413
 10
175.4929352807925
 20
163.8903627966413
 10
175.4929352807925
 20
163.8903627966413
 10
175.471920184469
 20
163.8691754454296
 10
175.471920184469
 20
163.8691754454296
 10
175.471920184469
 20
163.8691754454296
 10
175.4505605783696
 20
163.8269729978948
 10
175.4505605783696
 20
163.8269729978948
 10
175.3571984291289
 20
163.7715069239916
 10
175.272449024283
 20
163.8195660377152
 10
175.1966568736079
 20
163.8691754454296
 10
175.208370205985
 20
163.9930267098286
 10
175.1563492298397
 20
164.0216210212197
 10
175.2600466723544
 20
164.0596893514451
 10
175.3330827448232
 20
164.1094710140476
 10
175.4357466580104
 20
164.0753645462439
 10
175.4929352807925
 20
164.0174869039101
 72
     1
 10
175.4929352807925
 20
164.0174869039101
 11
175.4929352807925
 21
164.0174869039101
 97
        0
 75
     0
 76
     1
 98
        0
  0
HATCH
  5
3895
330
1F
100
AcDbEntity
  8
图层 1
 62
     7
100
AcDbHatch
 10
0.0
 20
0.0
 30
0.0
210
0.0
220
0.0
230
1.0
  2
SOLID
 70
     1
 71
     0
 91
        1
 92
        1
 93
        2
 72
     4
 94
        3
 73
     0
 74
     0
 95
       11
 96
        7
 40
0.0
 40
0.0
 40
0.0
 40
0.0
 40
0.3527780104152769
 40
0.3527780104152769
 40
0.3527780104152769
 40
0.7055560208305538
 40
0.7055560208305538
 40
0.7055560208305538
 40
0.7055560208305538
 10
174.9213935627468
 20
174.5369206529582
 10
174.9213935627468
 20
174.5369206529582
 10
174.9213935627468
 20
174.3043765542958
 10
174.9213935627468
 20
174.3043765542958
 10
174.9213935627468
 20
174.3043765542958
 10
174.9213935627468
 20
174.5369206529582
 10
174.9213935627468
 20
174.5369206529582
 72
     1
 10
174.9213935627468
 20
174.5369206529582
 11
174.9213935627468
 21
174.5369206529582
 97
        0
 75
     0
 76
     1
 98
        0
  0
HATCH
  5
3943
330
1F
100
AcDbEntity
  8
图层 1
 62
     7
100
AcDbHatch
 10
0.0
 20
0.0
 30
0.0
210
0.0
220
0.0
230
1.0
  2
SOLID
 70
     1
 71
     0
 91
        1
 92
        1
 93
        2
 72
     4
 94
        3
 73
     0
 74
     0
 95
      131
 96
      127
 40
0.0
 40
0.0
 40
0.0
 40
0.0
 40
0.3527780104152769
 40
0.3527780104152769
 40
0.3527780104152769
 40
0.7055560208305538
 40
0.7055560208305538
 40
0.7055560208305538
 40
1.058334031245828
 40
1.058334031245828
 40
1.058334031245828
 40
1.411112041661104
 40
1.411112041661104
 40
1.411112041661104
 40
1.763890052076384
 40
1.763890052076384
 40
1.763890052076384
 40
2.116668062491659
 40
2.116668062491659
 40
2.116668062491659
 40
2.469446072906936
 40
2.469446072906936
 40
2.469446072906936
 40
2.822224083322215
 40
2.822224083322215
 40
2.822224083322215
 40
3.175002093737492
 40
3.175002093737492
 40
3.175002093737492
 40
3.527780104152768
 40
3.527780104152768
 40
3.527780104152768
 40
3.880558114568044
 40
3.880558114568044
 40
3.880558114568044
 40
4.233336124983321
 40
4.233336124983321
 40
4.233336124983321
 40
4.586114135398599
 40
4.586114135398599
 40
4.586114135398599
 40
4.938892145813873
 40
4.938892145813873
 40
4.938892145813873
 40
5.291670156229153
 40
5.291670156229153
 40
5.291670156229153
 40
5.64444816664443
 40
5.64444816664443
 40
5.64444816664443
 40
5.997226177059705
 40
5.997226177059705
 40
5.997226177059705
 40
6.350004187474984
 40
6.350004187474984
 40
6.350004187474984
 40
6.702782197890257
 40
6.702782197890257
 40
6.702782197890257
 40
7.055560208305537
 40
7.055560208305537
 40
7.055560208305537
 40
7.408338218720808
 40
7.408338218720808
 40
7.408338218720808
 40
7.76111622913609
 40
7.76111622913609
 40
7.76111622913609
 40
8.113894239551369
 40
8.113894239551369
 40
8.113894239551369
 40
8.466672249966642
 40
8.466672249966642
 40
8.466672249966642
 40
8.819450260381922
 40
8.819450260381922
 40
8.819450260381922
 40
9.172228270797198
 40
9.172228270797198
 40
9.172228270797198
 40
9.525006281212476
 40
9.525006281212476
 40
9.525006281212476
 40
9.877784291627751
 40
9.877784291627751
 40
9.877784291627751
 40
10.23056230204303
 40
10.23056230204303
 40
10.23056230204303
 40
10.58334031245831
 40
10.58334031245831
 40
10.58334031245831
 40
10.93611832287358
 40
10.93611832287358
 40
10.93611832287358
 40
11.28889633328886
 40
11.28889633328886
 40
11.28889633328886
 40
11.64167434370414
 40
11.64167434370414
 40
11.64167434370414
 40
11.99445235411941
 40
11.99445235411941
 40
11.99445235411941
 40
12.34723036453469
 40
12.34723036453469
 40
12.34723036453469
 40
12.70000837494997
 40
12.70000837494997
 40
12.70000837494997
 40
13.05278638536524
 40
13.05278638536524
 40
13.05278638536524
 40
13.40556439578052
 40
13.40556439578052
 40
13.40556439578052
 40
13.7583424061958
 40
13.7583424061958
 40
13.7583424061958
 40
14.11112041661107
 40
14.11112041661107
 40
14.11112041661107
 40
14.46389842702635
 40
14.46389842702635
 40
14.46389842702635
 40
14.81667643744163
 40
14.81667643744163
 40
14.81667643744163
 40
14.81667643744163
 10
173.3972823146245
 20
126.8274843518258
 10
173.3972823146245
 20
126.8274843518258
 10
173.3972823146245
 20
126.7217198506564
 10
173.3972823146245
 20
126.7217198506564
 10
173.3972823146245
 20
126.7217198506564
 10
173.4186419207238
 20
126.7217198506564
 10
173.4186419207238
 20
126.7217198506564
 10
173.4186419207238
 20
126.7217198506564
 10
173.4820317194703
 20
126.7007047543328
 10
173.4820317194703
 20
126.7007047543328
 10
173.4820317194703
 20
126.7007047543328
 10
173.5244064218933
 20
126.6793451482334
 10
173.5244064218933
 20
126.6793451482334
 10
173.5244064218933
 20
126.6793451482334
 10
173.5877962206398
 20
126.6793451482334
 10
173.5877962206398
 20
126.6793451482334
 10
173.5877962206398
 20
126.6793451482334
 10
173.6301709230627
 20
126.6583300519099
 10
173.6301709230627
 20
126.6583300519099
 10
173.7955356154449
 20
126.5911506456296
 10
173.759706598762
 20
126.6380039751379
 10
173.9478089363468
 20
126.5525655507404
 10
173.9478089363468
 20
126.5525655507404
 10
173.9688240326703
 20
126.4464565397952
 10
173.9688240326703
 20
126.4464565397952
 10
173.9688240326703
 20
126.4464565397952
 10
174.0325583411926
 20
126.5101908483175
 10
174.0325583411926
 20
126.5101908483175
 10
174.0325583411926
 20
126.5101908483175
 10
174.0749330436156
 20
126.5101908483175
 10
174.0749330436156
 20
126.5101908483175
 10
174.0749330436156
 20
126.5101908483175
 10
174.1593379386856
 20
126.4678161458946
 10
174.1593379386856
 20
126.4678161458946
 10
174.1593379386856
 20
126.4678161458946
 10
174.180697544785
 20
126.4464565397952
 10
174.180697544785
 20
126.4464565397952
 10
174.2464989119621
 20
126.3982251711837
 10
174.3298702777047
 20
126.3716979184474
 10
174.3922265471239
 20
126.3196769423022
 10
174.608234176548
 20
126.2059887162895
 10
174.7749769080334
 20
126.0278771622029
 10
174.9637682651697
 20
125.8749148217494
 10
174.9637682651697
 20
125.8749148217494
 10
175.0061429675926
 20
125.9172895241723
 10
175.0061429675926
 20
125.9172895241723
 10
174.961356696739
 20
125.9631093243532
 10
174.782211613325
 20
126.1246844092016
 10
174.7308796567315
 20
126.1501781326105
 10
174.7308796567315
 20
126.1501781326105
 10
174.6885049543085
 20
126.1925528350335
 10
174.6885049543085
 20
126.1925528350335
 10
174.6885049543085
 20
126.1925528350335
 10
174.667489857985
 20
126.2349275374564
 10
174.667489857985
 20
126.2349275374564
 10
174.667489857985
 20
126.2349275374564
 10
174.625115155562
 20
126.2559426337799
 10
174.625115155562
 20
126.2559426337799
 10
174.625115155562
 20
126.2559426337799
 10
174.5827404531391
 20
126.2983173362029
 10
174.5827404531391
 20
126.2983173362029
 10
174.5827404531391
 20
126.2983173362029
 10
174.5403657507162
 20
126.3196769423022
 10
174.5403657507162
 20
126.3196769423022
 10
174.5403657507162
 20
126.3196769423022
 10
174.4979910482932
 20
126.3620516447252
 10
174.4979910482932
 20
126.3620516447252
 10
174.4735308542117
 20
126.3875453681341
 10
174.3247026310678
 20
126.4695386947736
 10
174.2864620459544
 20
126.4888312422181
 10
174.2864620459544
 20
126.4888312422181
 10
174.2654469496308
 20
126.5101908483175
 10
174.2654469496308
 20
126.5101908483175
 10
174.2654469496308
 20
126.5101908483175
 10
174.2230722472079
 20
126.5312059446411
 10
174.2230722472079
 20
126.5312059446411
 10
174.2230722472079
 20
126.5312059446411
 10
174.2017126411085
 20
126.5525655507404
 10
174.2017126411085
 20
126.5525655507404
 10
174.2017126411085
 20
126.5525655507404
 10
174.1383228423621
 20
126.573580647064
 10
174.1383228423621
 20
126.573580647064
 10
174.1383228423621
 20
126.573580647064
 10
174.1169632362627
 20
126.5945957433876
 10
174.1169632362627
 20
126.5945957433876
 10
174.1169632362627
 20
126.5945957433876
 10
174.0959481399391
 20
126.7007047543328
 10
174.0959481399391
 20
126.7007047543328
 10
174.0959481399391
 20
126.7007047543328
 10
174.0325583411926
 20
126.6369704458105
 10
174.0325583411926
 20
126.6369704458105
 10
174.0325583411926
 20
126.6369704458105
 10
173.9901836387697
 20
126.6369704458105
 10
173.9901836387697
 20
126.6369704458105
 10
173.9901836387697
 20
126.6369704458105
 10
173.9054342339239
 20
126.6793451482334
 10
173.9054342339239
 20
126.6793451482334
 10
173.9054342339239
 20
126.6793451482334
 10
173.8420444351773
 20
126.7007047543328
 10
173.8420444351773
 20
126.7007047543328
 10
173.8420444351773
 20
126.7007047543328
 10
173.7996697327544
 20
126.7217198506564
 10
173.7996697327544
 20
126.7217198506564
 10
173.7996697327544
 20
126.7217198506564
 10
173.7572950303315
 20
126.7217198506564
 10
173.7572950303315
 20
126.7217198506564
 10
173.7572950303315
 20
126.7217198506564
 10
173.6725456254856
 20
126.7640945530793
 10
173.6725456254856
 20
126.7640945530793
 10
173.6725456254856
 20
126.7640945530793
 10
173.6515305291621
 20
126.7640945530793
 10
173.6515305291621
 20
126.7640945530793
 10
173.6515305291621
 20
126.7640945530793
 10
173.5667811243162
 20
126.7851096494029
 10
173.5667811243162
 20
126.7851096494029
 10
173.5667811243162
 20
126.7851096494029
 10
173.5033913255697
 20
126.8064692555022
 10
173.5033913255697
 20
126.8064692555022
 10
173.5033913255697
 20
126.8064692555022
 10
173.4396570170474
 20
126.8064692555022
 10
173.4396570170474
 20
126.8064692555022
 10
173.4396570170474
 20
126.8064692555022
 10
173.4186419207238
 20
126.8274843518258
 10
173.4186419207238
 20
126.8274843518258
 10
173.4186419207238
 20
126.8274843518258
 10
173.3972823146245
 20
126.8274843518258
 10
173.3972823146245
 20
126.8274843518258
 72
     1
 10
173.3972823146245
 20
126.8274843518258
 11
173.3972823146245
 21
126.8274843518258
 97
        0
 75
     0
 76
     1
 98
        0
  0
HATCH
  5
4842
330
1F
100
AcDbEntity
  8
图层 1
 62
     7
100
AcDbHatch
 10
0.0
 20
0.0
 30
0.0
210
0.0
220
0.0
230
1.0
  2
SOLID
 70
     1
 71
     0
 91
        1
 92
        1
 93
        2
 72
     4
 94
        3
 73
     0
 74
     0
 95
       47
 96
       43
 40
0.0
 40
0.0
 40
0.0
 40
0.0
 40
0.3527780104152769
 40
0.3527780104152769
 40
0.3527780104152769
 40
0.7055560208305538
 40
0.7055560208305538
 40
0.7055560208305538
 40
1.058334031245828
 40
1.058334031245828
 40
1.058334031245828
 40
1.411112041661104
 40
1.411112041661104
 40
1.411112041661104
 40
1.763890052076384
 40
1.763890052076384
 40
1.763890052076384
 40
2.116668062491659
 40
2.116668062491659
 40
2.116668062491659
 40
2.469446072906936
 40
2.469446072906936
 40
2.469446072906936
 40
2.822224083322215
 40
2.822224083322215
 40
2.822224083322215
 40
3.175002093737492
 40
3.175002093737492
 40
3.175002093737492
 40
3.527780104152768
 40
3.527780104152768
 40
3.527780104152768
 40
3.880558114568044
 40
3.880558114568044
 40
3.880558114568044
 40
4.233336124983321
 40
4.233336124983321
 40
4.233336124983321
 40
4.586114135398599
 40
4.586114135398599
 40
4.586114135398599
 40
4.938892145813873
 40
4.938892145813873
 40
4.938892145813873
 40
4.938892145813873
 10
180.1920486226523
 20
255.6479577566324
 10
180.1920486226523
 20
255.6479577566324
 10
180.2130637189759
 20
255.6055830542095
 10
180.2130637189759
 20
255.6055830542095
 10
180.2130637189759
 20
255.6055830542095
 10
180.2130637189759
 20
255.5210059042515
 10
180.2130637189759
 20
255.5210059042515
 10
180.2130637189759
 20
255.5210059042515
 10
180.1920486226523
 20
255.4786312018286
 10
180.1920486226523
 20
255.4786312018286
 10
180.1920486226523
 20
255.4786312018286
 10
180.1496739202294
 20
255.4359119896299
 10
180.1496739202294
 20
255.4359119896299
 10
180.1496739202294
 20
255.4359119896299
 10
180.1283143141301
 20
255.4147246384184
 10
180.1283143141301
 20
255.4147246384184
 10
180.1283143141301
 20
255.4147246384184
 10
180.0225498129606
 20
255.4147246384184
 10
180.0225498129606
 20
255.4147246384184
 10
180.0225498129606
 20
255.4147246384184
 10
179.9591600142141
 20
255.4359119896299
 10
179.9591600142141
 20
255.4359119896299
 10
179.9591600142141
 20
255.4359119896299
 10
179.9167853117912
 20
255.4570993408414
 10
179.9167853117912
 20
255.4570993408414
 10
179.9167853117912
 20
255.4570993408414
 10
179.8957702154676
 20
255.4786312018286
 10
179.8957702154676
 20
255.4786312018286
 10
179.8957702154676
 20
255.4786312018286
 10
179.8744106093683
 20
255.4994740432643
 10
179.8744106093683
 20
255.4994740432643
 10
179.8744106093683
 20
255.4994740432643
 10
179.8744106093683
 20
255.6479577566324
 10
179.8744106093683
 20
255.6479577566324
 10
179.9608825630931
 20
255.7323626517025
 10
180.045631967939
 20
255.7085914771726
 10
180.1496739202294
 20
255.7115198102668
 10
180.1496739202294
 20
255.7115198102668
 10
180.170689016553
 20
255.6688005980681
 10
180.170689016553
 20
255.6688005980681
 10
180.170689016553
 20
255.6688005980681
 10
180.1920486226523
 20
255.6479577566324
 10
180.1920486226523
 20
255.6479577566324
 72
     1
 10
180.1920486226523
 20
255.6479577566324
 11
180.1920486226523
 21
255.6479577566324
 97
        0
 75
     0
 76
     1
 98
        0
  0
MTEXT
  5
65A0
330
1F
100
AcDbEntity
  8
图框
 62
     3
100
AcDbMText
 10
652.3064215351515
 20
221.9674786344378
 30
0.0
 40
2.985513575034151
 41
33.61239199242137
 71
     5
 72
     5
  1
HMK-001-FC
  7
Romans字体
 73
     1
 44
1.0
1001
ACAD
1000
MTEXTBEGIN
1070
    73
1070
     1
1070
    44
1040
1.0
1070
    74
1070
     0
1000
MTEXTEND
1000
ACAD_MTEXT_DEFINED_HEIGHT_BEGIN
1070
    46
1040
8.686745505685866
1000
ACAD_MTEXT_DEFINED_HEIGHT_END
  0
MTEXT
  5
65A1
330
1F
100
AcDbEntity
  8
图框
 62
     3
100
AcDbMText
 10
652.3064215351515
 20
213.1880281076118
 30
0.0
 40
2.985513575034151
 41
33.61239199242137
 71
     5
 72
     5
  1
1290010200001
  7
Romans字体
 73
     1
 44
1.0
1001
ACAD
1000
MTEXTBEGIN
1070
    73
1070
     1
1070
    44
1040
1.0
1070
    74
1070
     0
1000
MTEXTEND
1000
ACAD_MTEXT_DEFINED_HEIGHT_BEGIN
1070
    46
1040
8.872155547966105
1000
ACAD_MTEXT_DEFINED_HEIGHT_END
  0
MTEXT
  5
65A3
330
1F
100
AcDbEntity
  8
图框
 62
     3
100
AcDbMText
 10
584.2527566045665
 20
199.8803930288668
 30
0.0
 40
2.985513575034151
 41
10.82934843439047
 71
     5
 72
     5
  1
1:1 
  7
Romans字体
 73
     1
 44
1.0
1001
ACAD
1000
MTEXTBEGIN
1070
    73
1070
     1
1070
    44
1040
1.0
1070
    74
1070
     0
1000
MTEXTEND
1000
ACAD_MTEXT_DEFINED_HEIGHT_BEGIN
1070
    46
1040
7.886094601210496
1000
ACAD_MTEXT_DEFINED_HEIGHT_END
  0
MTEXT
  5
65A4
330
1F
100
AcDbEntity
  8
图框
 62
     3
100
AcDbMText
 10
595.0821050389572
 20
199.8803930288669
 30
0.0
 40
2.985513575034151
 41
10.82934843439126
 71
     5
 72
     5
  1
V1.0 
  7
Romans字体
 73
     1
 44
1.0
1001
ACAD
1000
MTEXTBEGIN
1070
    73
1070
     1
1070
    44
1040
1.0
1070
    74
1070
     0
1000
MTEXTEND
1000
ACAD_MTEXT_DEFINED_HEIGHT_BEGIN
1070
    46
1040
7.886094601210459
1000
ACAD_MTEXT_DEFINED_HEIGHT_END
  0
MTEXT
  5
65B2
330
1F
100
AcDbEntity
  8
图框
 62
     3
100
AcDbMText
 10
605.9114534733492
 20
199.8803930288669
 30
0.0
 40
2.985513575034151
 41
10.82934843439217
 71
     5
 72
     5
  1
8g
  7
Romans字体
 73
     1
 44
1.0
1001
ACAD
1000
MTEXTBEGIN
1070
    73
1070
     1
1070
    44
1040
1.0
1070
    74
1070
     0
1000
MTEXTEND
1000
ACAD_MTEXT_DEFINED_HEIGHT_BEGIN
1070
    46
1040
7.886094601210402
1000
ACAD_MTEXT_DEFINED_HEIGHT_END
  0
MTEXT
  5
6E00
102
{ACAD_XDICTIONARY
360
147DA
102
}
330
1F
100
AcDbEntity
  8
打标文字
 62
     3
100
AcDbMText
 10
568.2719259674098
 20
320.278154587968
 30
0.0
 40
1.912985285738283
 41
55.18345123699972
 71
     1
 72
     5
  3
\A1;{\f仿宋_GB2312|b0|i0|c134|p49;技术参数}:\P{\f仿宋_GB2312|b0|i0|c134|p49;插芯：}\P- {\f仿宋_GB2312|b0|i0|c134|p49;插针数}: 1\P- {\f仿宋_GB2312|b0|i0|c134|p49;额定电流}: 100A\P- {\f仿宋_GB2312|b0|i0|c134|p49;额定电压}: 830V\P- {\f仿宋_GB2312|b0|i0|c134|p49;额定脉冲电压}: 8kV\P- {\f仿宋
  3
_GB2312|b0|i0|c134|p49;污染等级}: 3\P- {\f仿宋_GB2312|b0|i0|c134|p49;绝缘阻抗}: {\f仿宋_GB2312|b0|i0|c134|p49;≥}10{\H0.7x;\S10^ ;}\U+03A9\P- {\f仿宋_GB2312|b0|i0|c134|p49;材料}: {\f仿宋_GB2312|b0|i0|c134|p49;聚碳酸酯}\P- {\f仿宋_GB2312|b0|i0|c134|p49;颜色}: RAL 7032{\f仿宋_GB231
  3
2|b0|i0|c134|p49;（浅灰色）}\P- {\f仿宋_GB2312|b0|i0|c134|p49;温度范围}: -40{\f仿宋_GB2312|b0|i0|c134|p49;℃} - +125{\f仿宋_GB2312|b0|i0|c134|p49;℃}\P- {\f仿宋_GB2312|b0|i0|c134|p49;依据}UL 94{\f仿宋_GB2312|b0|i0|c134|p49;的阻燃等级}: V0\P- {\f仿宋_GB2312|b0|i0|c134|p49;可插拔次数}: 
  3
{\f仿宋_GB2312|b0|i0|c134|p49;≥}500\P- {\f仿宋_GB2312|b0|i0|c134|p49;最大绝缘直径}: 13mm\P{\f仿宋_GB2312|b0|i0|c134|p49;插针：}\P- {\f仿宋_GB2312|b0|i0|c134|p49;接线方式}: {\f仿宋_GB2312|b0|i0|c134|p49;冷压连接}\P- {\f仿宋_GB2312|b0|i0|c134|p49;材料}: {\f仿宋_GB2312|b0|i0|c134|p49;铜
  3
合金}\P- {\f仿宋_GB2312|b0|i0|c134|p49;表面处理}: {\f仿宋_GB2312|b0|i0|c134|p49;镀银}\P- {\f仿宋_GB2312|b0|i0|c134|p49;接触电阻}: \U+22640.3m\U+03A9\P- {\f仿宋_GB2312|b0|i0|c134|p49;线径范围}: 10-35mm{\H0.7x;\S2^ ;}\P- {\f仿宋_GB2312|b0|i0|c134|p49;工具：}\P   {\f仿宋_GB2312|b0|i0|
  1
c134|p49;·} {\f仿宋_GB2312|b0|i0|c134|p49;冷压钳}: TL05\P   {\f仿宋_GB2312|b0|i0|c134|p49;·} {\f仿宋_GB2312|b0|i0|c134|p49;退针器}: TL11
  7
Romans字体
 73
     1
 44
1.0
1001
ACAD
1000
MTEXTBEGIN
1070
    73
1070
     1
1070
    44
1040
1.0
1070
    74
1070
     0
1000
MTEXTEND
1000
ACAD_MTEXT_DEFINED_HEIGHT_BEGIN
1070
    46
1040
8.294818561909686
1000
ACAD_MTEXT_DEFINED_HEIGHT_END
  0
MTEXT
  5
7228
102
{ACAD_XDICTIONARY
360
147DC
102
}
330
1F
100
AcDbEntity
  8
打标文字
 62
     3
100
AcDbMText
 10
615.4785658800781
 20
320.4531397437885
 30
0.0
 40
1.912985285738283
 41
67.09538717665188
 71
     1
 72
     5
  3
\A1;Technical specification:\PInsters:\P- No. of contact: 1\P- Rated current: 100A\P- Rated voltage: 830V\P- Rated impulse voltage: 8kV\P- Pollution degree: 3\P- Insulation resistance: {\fSimSun|b0|i0|c134|p2;≥}10{\H0.7x;\S10^ ;}\U+03A9\P- Material: p
  3
olycarbonate\P- Colour: RAL 7032(light grey) \P- Temperature range: -40{\fSimSun|b0|i0|c0|p2;\U+2103} - +125{\fSimSun|b0|i0|c0|p2;\U+2103}\P- Flammability acc.to UL 94: V0\P- Mating cycles: {\fSimSun|b0|i0|c134|p2;≥}500\P- Max. insulation diameter: 1
  3
3mm\PContacts:\P- Terminal: crimp terminal\P- Material: copper alloy\P- Surface: hard-silver plated\P- Contact resistance: {\fFangSong_GB2312|b0|i0|c134|p49;≤}0.3m\U+03A9\P- Wire gauge: 10-35mm{\H0.7x;\S2^ ;\fFangSong_GB2312|b0|i0|c134|p49;\H1.4286x;\
  1
P}- Tools:\P   {\fISOCPEUR|b0|i0|c0|p34;\U+00B7} Crimp contact tool: TL05\P   {\fISOCPEUR|b0|i0|c0|p34;\U+00B7} Contact removal tool: TL11
  7
Romans字体
 73
     1
 44
1.0
1001
ACAD
1000
MTEXTBEGIN
1070
    73
1070
     1
1070
    44
1040
1.0
1070
    74
1070
     0
1000
MTEXTEND
1000
ACAD_MTEXT_DEFINED_HEIGHT_BEGIN
1070
    46
1040
8.294818561909686
1000
ACAD_MTEXT_DEFINED_HEIGHT_END
  0
INSERT
  5
11089
330
1F
100
AcDbEntity
  8
DIM
100
AcDbBlockReference
  2
A4图框-NEW
 10
-457.8158850790006
 20
-295.9613488704692
 30
0.0
  0
LINE
  5
143EF
330
1F
100
AcDbEntity
  8
0
100
AcDbLine
 10
445.9458012266448
 20
357.2157438492575
 30
0.0
 11
445.9458012266448
 21
342.5657438478177
 31
0.0
  0
LINE
  5
143F0
330
1F
100
AcDbEntity
  8
0
100
AcDbLine
 10
450.0958012273646
 20
351.9907438496978
 30
0.0
 11
450.0958012273646
 21
347.7907438499177
 31
0.0
  0
LINE
  5
143F1
330
1F
100
AcDbEntity
  8
0
100
AcDbLine
 10
451.5958012271046
 20
351.9907438496978
 30
0.0
 11
451.5958012271046
 21
347.7907438499177
 31
0.0
  0
LINE
  5
143F2
330
1F
100
AcDbEntity
  8
0
100
AcDbLine
 10
452.0958012278648
 20
351.8907338490578
 30
0.0
 11
452.0958012278648
 21
347.8907538480178
 31
0.0
  0
LINE
  5
143F3
330
1F
100
AcDbEntity
  8
0
100
AcDbLine
 10
445.9458012266448
 20
342.5657438478177
 30
0.0
 11
476.2458012259647
 21
342.5657438478177
 31
0.0
  0
LINE
  5
143F4
330
1F
100
AcDbEntity
  8
0
100
AcDbLine
 10
463.4281819844452
 20
343.2907438481578
 30
0.0
 11
458.7634204681651
 21
343.2907438481578
 31
0.0
  0
LINE
  5
143F5
330
1F
100
AcDbEntity
  8
0
100
AcDbLine
 10
452.4958012279646
 20
345.3907438493177
 30
0.0
 11
453.8846986762251
 21
345.3907438493177
 31
0.0
  0
LINE
  5
143F6
330
1F
100
AcDbEntity
  8
0
100
AcDbLine
 10
468.3069037789244
 20
345.3907438493177
 30
0.0
 11
469.6958012271849
 21
345.3907438493177
 31
0.0
  0
LINE
  5
143F7
330
1F
100
AcDbEntity
  8
0
100
AcDbLine
 10
476.2458012259647
 20
346.3907438482976
 30
0.0
 11
478.195801227405
 21
346.3907438482976
 31
0.0
  0
LINE
  5
143F8
330
1F
100
AcDbEntity
  8
0
100
AcDbLine
 10
452.4958012279646
 20
346.8907438490576
 30
0.0
 11
455.3295199293248
 21
346.8907438490576
 31
0.0
  0
LINE
  5
143F9
330
1F
100
AcDbEntity
  8
0
100
AcDbLine
 10
466.8620825232843
 20
346.8907438490576
 30
0.0
 11
469.6958012271849
 21
346.8907438490576
 31
0.0
  0
LINE
  5
143FA
330
1F
100
AcDbEntity
  8
0
100
AcDbLine
 10
451.5958012271046
 20
347.7907438499177
 30
0.0
 11
456.0124952156445
 21
347.7907438499177
 31
0.0
  0
LINE
  5
143FB
330
1F
100
AcDbEntity
  8
0
100
AcDbLine
 10
466.1791072369648
 20
347.7907438499177
 30
0.0
 11
470.5958012255048
 21
347.7907438499177
 31
0.0
  0
LINE
  5
143FC
330
1F
100
AcDbEntity
  8
0
100
AcDbLine
 10
451.5958012271046
 20
347.8907538480178
 30
0.0
 11
455.9723310313053
 21
347.8907538480178
 31
0.0
  0
LINE
  5
143FD
330
1F
100
AcDbEntity
  8
0
100
AcDbLine
 10
466.2192714238451
 20
347.8907538480178
 30
0.0
 11
470.5958012255048
 21
347.8907538480178
 31
0.0
  0
LINE
  5
143FE
330
1F
100
AcDbEntity
  8
0
100
AcDbLine
 10
451.5958012271046
 20
351.8907338490578
 30
0.0
 11
455.9723209246446
 21
351.8907338490578
 31
0.0
  0
LINE
  5
143FF
330
1F
100
AcDbEntity
  8
0
100
AcDbLine
 10
466.219281530505
 20
351.8907338490578
 30
0.0
 11
470.5958012255048
 21
351.8907338490578
 31
0.0
  0
LINE
  5
14400
330
1F
100
AcDbEntity
  8
0
100
AcDbLine
 10
451.5958012271046
 20
351.9907438496978
 30
0.0
 11
456.0124952156445
 21
351.9907438496978
 31
0.0
  0
LINE
  5
14401
330
1F
100
AcDbEntity
  8
0
100
AcDbLine
 10
466.1791072369648
 20
351.9907438496978
 30
0.0
 11
470.5958012255048
 21
351.9907438496978
 31
0.0
  0
LINE
  5
14402
330
1F
100
AcDbEntity
  8
0
100
AcDbLine
 10
452.4958012279646
 20
352.8907438480177
 30
0.0
 11
455.3295199293248
 21
352.8907438480177
 31
0.0
  0
LINE
  5
14403
330
1F
100
AcDbEntity
  8
0
100
AcDbLine
 10
466.8620825232843
 20
352.8907438480177
 30
0.0
 11
469.6958012271849
 21
352.8907438480177
 31
0.0
  0
LINE
  5
14404
330
1F
100
AcDbEntity
  8
0
100
AcDbLine
 10
476.2458012259647
 20
353.3907438487779
 30
0.0
 11
478.195801227405
 21
353.3907438487779
 31
0.0
  0
LINE
  5
14405
330
1F
100
AcDbEntity
  8
0
100
AcDbLine
 10
469.6958012271849
 20
354.3907438502977
 30
0.0
 11
468.3069037789244
 21
354.3907438502977
 31
0.0
  0
LINE
  5
14406
330
1F
100
AcDbEntity
  8
0
100
AcDbLine
 10
453.8846986762251
 20
354.3907438502977
 30
0.0
 11
452.4958012279646
 21
354.3907438502977
 31
0.0
  0
LINE
  5
14407
330
1F
100
AcDbEntity
  8
0
100
AcDbLine
 10
458.7634204681651
 20
356.4907438489179
 30
0.0
 11
463.4281819844452
 21
356.4907438489179
 31
0.0
  0
LINE
  5
14408
330
1F
100
AcDbEntity
  8
0
100
AcDbLine
 10
445.9458012266448
 20
357.2157438492575
 30
0.0
 11
476.2458012259647
 21
357.2157438492575
 31
0.0
  0
LINE
  5
14409
330
1F
100
AcDbEntity
  8
0
100
AcDbLine
 10
470.0958012272847
 20
351.8907338490578
 30
0.0
 11
470.0958012272847
 21
347.8907538480178
 31
0.0
  0
LINE
  5
1440A
330
1F
100
AcDbEntity
  8
0
100
AcDbLine
 10
470.5958012255048
 20
347.7907438499177
 30
0.0
 11
470.5958012255048
 21
351.9907438496978
 31
0.0
  0
LINE
  5
1440B
330
1F
100
AcDbEntity
  8
0
100
AcDbLine
 10
472.0958012277848
 20
347.7907438499177
 30
0.0
 11
472.0958012277848
 21
351.9907438496978
 31
0.0
  0
LINE
  5
1440C
330
1F
100
AcDbEntity
  8
0
100
AcDbLine
 10
476.2458012259647
 20
342.5657438478177
 30
0.0
 11
476.2458012259647
 21
357.2157438492575
 31
0.0
  0
LINE
  5
1440D
330
1F
100
AcDbEntity
  8
0
100
AcDbLine
 10
478.195801227405
 20
346.3907438482976
 30
0.0
 11
478.195801227405
 21
353.3907438487779
 31
0.0
  0
LINE
  5
1440E
330
1F
100
AcDbEntity
  8
0
100
AcDbLine
 10
466.1457640651448
 20
261.2261163639023
 30
0.0
 11
456.0457990606443
 21
261.2261163639023
 31
0.0
  0
LINE
  5
1440F
330
1F
100
AcDbEntity
  8
0
100
AcDbLine
 10
466.1791072369648
 20
261.6761074095625
 30
0.0
 11
466.5958012270445
 21
261.6761301781226
 31
0.0
  0
LINE
  5
14410
330
1F
100
AcDbEntity
  8
0
100
AcDbLine
 10
455.5958012255648
 20
261.6761032007826
 30
0.0
 11
456.0124952156445
 21
261.6761089589622
 31
0.0
  0
LINE
  5
14411
330
1F
100
AcDbEntity
  8
0
100
AcDbLine
 10
455.7429982235251
 20
261.9261061247025
 30
0.0
 11
466.4486042316245
 21
261.9261163634424
 31
0.0
  0
LINE
  5
14412
330
1F
100
AcDbEntity
  8
0
100
AcDbLine
 10
448.3458012272446
 20
264.7261163641424
 30
0.0
 11
447.8458012264852
 21
265.2261163649023
 31
0.0
  0
LINE
  5
14413
330
1F
100
AcDbEntity
  8
0
100
AcDbLine
 10
473.845801227905
 20
264.7261163641424
 30
0.0
 11
462.7728522105249
 21
264.7261163641424
 31
0.0
  0
LINE
  5
14414
330
1F
100
AcDbEntity
  8
0
100
AcDbLine
 10
459.4187502446245
 20
264.7261163641424
 30
0.0
 11
448.3458012272446
 21
264.7261163641424
 31
0.0
  0
LINE
  5
14415
330
1F
100
AcDbEntity
  8
0
100
AcDbLine
 10
450.5958012255848
 20
264.7261163641424
 30
0.0
 11
450.0958012273646
 21
265.2261163649023
 31
0.0
  0
LINE
  5
14416
330
1F
100
AcDbEntity
  8
0
100
AcDbLine
 10
473.845801227905
 20
265.0261163635823
 30
0.0
 11
471.8958012264645
 21
265.0261163635823
 31
0.0
  0
LINE
  5
14417
330
1F
100
AcDbEntity
  8
0
100
AcDbLine
 10
450.2958012261449
 20
265.0261163635823
 30
0.0
 11
448.3458012272446
 21
265.0261163635823
 31
0.0
  0
LINE
  5
14418
330
1F
100
AcDbEntity
  8
0
100
AcDbLine
 10
455.1164617981647
 20
265.7261163631224
 30
0.0
 11
467.0751406544447
 21
265.7261163631224
 31
0.0
  0
LINE
  5
14419
330
1F
100
AcDbEntity
  8
0
100
AcDbLine
 10
456.0457926319046
 20
261.2261163639023
 30
0.0
 11
455.5958012255648
 21
261.6761032007826
 31
0.0
  0
LINE
  5
1441A
330
1F
100
AcDbEntity
  8
0
100
AcDbLine
 10
443.9958012277445
 20
290.8761163648222
 30
0.0
 11
443.9958012277445
 21
294.5761163638425
 31
0.0
  0
LINE
  5
1441B
330
1F
100
AcDbEntity
  8
0
100
AcDbLine
 10
445.9458012266448
 20
276.1261163652624
 30
0.0
 11
445.9458012266448
 21
297.0761163651021
 31
0.0
  0
LINE
  5
1441C
330
1F
100
AcDbEntity
  8
0
100
AcDbLine
 10
447.4458012263847
 20
277.6261163650023
 30
0.0
 11
447.4458012263847
 21
295.5761063653825
 31
0.0
  0
LINE
  5
1441D
330
1F
100
AcDbEntity
  8
0
100
AcDbLine
 10
447.8458012264852
 20
276.1261163652624
 30
0.0
 11
447.8458012264852
 21
265.2261163649023
 31
0.0
  0
LINE
  5
1441E
330
1F
100
AcDbEntity
  8
0
100
AcDbLine
 10
448.3458012272446
 20
276.1261163652624
 30
0.0
 11
448.3458012272446
 21
265.0261163635823
 31
0.0
  0
LINE
  5
1441F
330
1F
100
AcDbEntity
  8
0
100
AcDbLine
 10
450.0958012273646
 20
311.8761163637221
 30
0.0
 11
450.0958012273646
 21
297.0761163651021
 31
0.0
  0
LINE
  5
14420
330
1F
100
AcDbEntity
  8
0
100
AcDbLine
 10
450.0958017912449
 20
295.5761063653825
 30
0.0
 11
450.0958017912449
 21
277.6261163650023
 31
0.0
  0
LINE
  5
14421
330
1F
100
AcDbEntity
  8
0
100
AcDbLine
 10
450.0958012273646
 20
276.1261163652624
 30
0.0
 11
450.0958012273646
 21
265.2261163649023
 31
0.0
  0
LINE
  5
14422
330
1F
100
AcDbEntity
  8
0
100
AcDbLine
 10
450.6223020387249
 20
277.6261163650023
 30
0.0
 11
450.6223020387249
 21
280.9261163639224
 31
0.0
  0
LINE
  5
14423
330
1F
100
AcDbEntity
  8
0
100
AcDbLine
 10
450.9958012256844
 20
276.1261163652624
 30
0.0
 11
450.9958012256844
 21
264.7261163641424
 31
0.0
  0
LINE
  5
14424
330
1F
100
AcDbEntity
  8
0
100
AcDbLine
 10
452.4958012279646
 20
311.8761163637221
 30
0.0
 11
452.4958012279646
 21
297.0761163651021
 31
0.0
  0
LINE
  5
14425
330
1F
100
AcDbEntity
  8
0
100
AcDbLine
 10
452.4958012279646
 20
295.5761063653825
 30
0.0
 11
452.4958012279646
 21
280.9261163639224
 31
0.0
  0
LINE
  5
14426
330
1F
100
AcDbEntity
  8
0
100
AcDbLine
 10
445.9458012266448
 20
276.1261163652624
 30
0.0
 11
457.5522331089849
 21
276.1261163652624
 31
0.0
  0
LINE
  5
14427
330
1F
100
AcDbEntity
  8
0
100
AcDbLine
 10
464.6393693436245
 20
276.1261163652624
 30
0.0
 11
476.2458012259647
 21
276.1261163652624
 31
0.0
  0
LINE
  5
14428
330
1F
100
AcDbEntity
  8
0
100
AcDbLine
 10
464.3071093706046
 20
276.3011163632425
 30
0.0
 11
457.8844930820047
 21
276.3011163632425
 31
0.0
  0
LINE
  5
14429
330
1F
100
AcDbEntity
  8
0
100
AcDbLine
 10
445.9458012266448
 20
277.1261163642424
 30
0.0
 11
476.2458012259647
 21
277.1261163642424
 31
0.0
  0
LINE
  5
1442A
330
1F
100
AcDbEntity
  8
0
100
AcDbLine
 10
453.8846986762251
 20
311.8761163637221
 30
0.0
 11
453.8846986762251
 21
297.0761163651021
 31
0.0
  0
LINE
  5
1442B
330
1F
100
AcDbEntity
  8
0
100
AcDbLine
 10
453.9515712272647
 20
280.9261163639224
 30
0.0
 11
453.9515712272647
 21
277.6261163650023
 31
0.0
  0
LINE
  5
1442C
330
1F
100
AcDbEntity
  8
0
100
AcDbLine
 10
454.4814212267445
 20
295.5761063653825
 30
0.0
 11
454.4814212267445
 21
280.9261163639224
 31
0.0
  0
LINE
  5
1442D
330
1F
100
AcDbEntity
  8
0
100
AcDbLine
 10
457.8795312275648
 20
277.6261163650023
 30
0.0
 11
447.4458012263847
 21
277.6261163650023
 31
0.0
  0
LINE
  5
1442E
330
1F
100
AcDbEntity
  8
0
100
AcDbLine
 10
464.3120712275846
 20
277.6261163650023
 30
0.0
 11
474.7458012262248
 21
277.6261163650023
 31
0.0
  0
LINE
  5
1442F
330
1F
100
AcDbEntity
  8
0
100
AcDbLine
 10
455.1164617981647
 20
276.1261163652624
 30
0.0
 11
455.1164617981647
 21
265.7261163631224
 31
0.0
  0
LINE
  5
14430
330
1F
100
AcDbEntity
  8
0
100
AcDbLine
 10
455.5958012255648
 20
261.6761032007826
 30
0.0
 11
455.5958012255648
 21
264.7261163641424
 31
0.0
  0
LINE
  5
14431
330
1F
100
AcDbEntity
  8
0
100
AcDbLine
 10
455.7429982235251
 20
264.7261163641424
 30
0.0
 11
455.7429982235251
 21
261.9261163634424
 31
0.0
  0
LINE
  5
14432
330
1F
100
AcDbEntity
  8
0
100
AcDbLine
 10
456.7836816793648
 20
311.8761163637221
 30
0.0
 11
456.7836816793648
 21
297.0761163651021
 31
0.0
  0
LINE
  5
14433
330
1F
100
AcDbEntity
  8
0
100
AcDbLine
 10
471.5693004138844
 20
280.9261163639224
 30
0.0
 11
467.710181225865
 21
280.9261163639224
 31
0.0
  0
LINE
  5
14434
330
1F
100
AcDbEntity
  8
0
100
AcDbLine
 10
450.6223020387249
 20
280.9261163639224
 30
0.0
 11
454.4814212267445
 21
280.9261163639224
 31
0.0
  0
LINE
  5
14435
330
1F
100
AcDbEntity
  8
0
100
AcDbLine
 10
457.8795312275648
 20
277.6261163650023
 30
0.0
 11
457.8795312275648
 21
295.5761063653825
 31
0.0
  0
LINE
  5
14436
330
1F
100
AcDbEntity
  8
0
100
AcDbLine
 10
457.8844930820047
 20
265.7261163631224
 30
0.0
 11
457.8844930820047
 21
276.3011163632425
 31
0.0
  0
LINE
  5
14437
330
1F
100
AcDbEntity
  8
0
100
AcDbLine
 10
464.3071093706046
 20
265.7261163631224
 30
0.0
 11
464.3071093706046
 21
276.3011163632425
 31
0.0
  0
LINE
  5
14438
330
1F
100
AcDbEntity
  8
0
100
AcDbLine
 10
464.3120712275846
 20
295.5761063653825
 30
0.0
 11
464.3120712275846
 21
277.6261163650023
 31
0.0
  0
LINE
  5
14439
330
1F
100
AcDbEntity
  8
0
100
AcDbLine
 10
465.4079207757846
 20
297.0761163651021
 30
0.0
 11
465.4079207757846
 21
311.8761163637221
 31
0.0
  0
LINE
  5
1443A
330
1F
100
AcDbEntity
  8
0
100
AcDbLine
 10
466.4486042316245
 20
264.7261163641424
 30
0.0
 11
466.4486042316245
 21
261.9261163634424
 31
0.0
  0
LINE
  5
1443B
330
1F
100
AcDbEntity
  8
0
100
AcDbLine
 10
466.5958012270445
 20
261.6761301552624
 30
0.0
 11
466.5958012270445
 21
264.7261163641424
 31
0.0
  0
LINE
  5
1443C
330
1F
100
AcDbEntity
  8
0
100
AcDbLine
 10
467.0751406544447
 20
276.1261163652624
 30
0.0
 11
467.0751406544447
 21
265.7261163631224
 31
0.0
  0
LINE
  5
1443D
330
1F
100
AcDbEntity
  8
0
100
AcDbLine
 10
467.710181225865
 20
295.5761063653825
 30
0.0
 11
467.710181225865
 21
280.9261163639224
 31
0.0
  0
LINE
  5
1443E
330
1F
100
AcDbEntity
  8
0
100
AcDbLine
 10
445.9458012266448
 20
290.8761163648222
 30
0.0
 11
443.9958012277445
 21
290.8761163648222
 31
0.0
  0
LINE
  5
1443F
330
1F
100
AcDbEntity
  8
0
100
AcDbLine
 10
476.2458012259647
 20
290.8761163648222
 30
0.0
 11
478.195801227405
 21
290.8761163648222
 31
0.0
  0
LINE
  5
14440
330
1F
100
AcDbEntity
  8
0
100
AcDbLine
 10
445.9458012266448
 20
291.8761163638022
 30
0.0
 11
443.9958012277445
 21
291.8761163638022
 31
0.0
  0
LINE
  5
14441
330
1F
100
AcDbEntity
  8
0
100
AcDbLine
 10
476.2458012259647
 20
291.8761163638022
 30
0.0
 11
478.195801227405
 21
291.8761163638022
 31
0.0
  0
LINE
  5
14442
330
1F
100
AcDbEntity
  8
0
100
AcDbLine
 10
468.2400312278848
 20
280.9261163639224
 30
0.0
 11
468.2400312278848
 21
277.6261163650023
 31
0.0
  0
LINE
  5
14443
330
1F
100
AcDbEntity
  8
0
100
AcDbLine
 10
468.3069037789244
 20
297.0761163651021
 30
0.0
 11
468.3069037789244
 21
311.8761163637221
 31
0.0
  0
LINE
  5
14444
330
1F
100
AcDbEntity
  8
0
100
AcDbLine
 10
469.6958012271849
 20
295.5761063653825
 30
0.0
 11
469.6958012271849
 21
280.9261163639224
 31
0.0
  0
LINE
  5
14445
330
1F
100
AcDbEntity
  8
0
100
AcDbLine
 10
469.6958012271849
 20
297.0761163651021
 30
0.0
 11
469.6958012271849
 21
311.8761163637221
 31
0.0
  0
LINE
  5
14446
330
1F
100
AcDbEntity
  8
0
100
AcDbLine
 10
471.1958012269247
 20
276.1261163652624
 30
0.0
 11
471.1958012269247
 21
264.7261163641424
 31
0.0
  0
LINE
  5
14447
330
1F
100
AcDbEntity
  8
0
100
AcDbLine
 10
471.5693004138844
 20
277.6261163650023
 30
0.0
 11
471.5693004138844
 21
280.9261163639224
 31
0.0
  0
LINE
  5
14448
330
1F
100
AcDbEntity
  8
0
100
AcDbLine
 10
472.0958006639046
 20
295.5761063653825
 30
0.0
 11
472.0958006639046
 21
277.6261163650023
 31
0.0
  0
LINE
  5
14449
330
1F
100
AcDbEntity
  8
0
100
AcDbLine
 10
472.0958012277848
 20
276.1261163652624
 30
0.0
 11
472.0958012277848
 21
265.2261163649023
 31
0.0
  0
LINE
  5
1444A
330
1F
100
AcDbEntity
  8
0
100
AcDbLine
 10
472.0958012277848
 20
297.0761163651021
 30
0.0
 11
472.0958012277848
 21
311.8761163637221
 31
0.0
  0
LINE
  5
1444B
330
1F
100
AcDbEntity
  8
0
100
AcDbLine
 10
445.9458012266448
 20
294.5761163638425
 30
0.0
 11
443.9958012277445
 21
294.5761163638425
 31
0.0
  0
LINE
  5
1444C
330
1F
100
AcDbEntity
  8
0
100
AcDbLine
 10
476.2458012259647
 20
294.5761163638425
 30
0.0
 11
478.195801227405
 21
294.5761163638425
 31
0.0
  0
LINE
  5
1444D
330
1F
100
AcDbEntity
  8
0
100
AcDbLine
 10
457.8795312275648
 20
295.5761063653825
 30
0.0
 11
447.4458012263847
 21
295.5761063653825
 31
0.0
  0
LINE
  5
1444E
330
1F
100
AcDbEntity
  8
0
100
AcDbLine
 10
464.3120712275846
 20
295.5761063653825
 30
0.0
 11
474.7458012262248
 21
295.5761063653825
 31
0.0
  0
LINE
  5
1444F
330
1F
100
AcDbEntity
  8
0
100
AcDbLine
 10
473.845801227905
 20
265.0261163635823
 30
0.0
 11
473.845801227905
 21
276.1261163652624
 31
0.0
  0
LINE
  5
14450
330
1F
100
AcDbEntity
  8
0
100
AcDbLine
 10
456.7836816793648
 20
297.0761163651021
 30
0.0
 11
445.9458012266448
 21
297.0761163651026
 31
0.0
  0
LINE
  5
14451
330
1F
100
AcDbEntity
  8
0
100
AcDbLine
 10
465.4079207757846
 20
297.0761163651021
 30
0.0
 11
476.2458012259647
 21
297.0761163651026
 31
0.0
  0
LINE
  5
14452
330
1F
100
AcDbEntity
  8
0
100
AcDbLine
 10
474.3458012261251
 20
265.2261163649023
 30
0.0
 11
474.3458012261251
 21
276.1261163652624
 31
0.0
  0
LINE
  5
14453
330
1F
100
AcDbEntity
  8
0
100
AcDbLine
 10
474.7458012262248
 20
277.6261163650023
 30
0.0
 11
474.7458012262248
 21
295.5761063653825
 31
0.0
  0
LINE
  5
14454
330
1F
100
AcDbEntity
  8
0
100
AcDbLine
 10
476.2458012259647
 20
276.1261163652624
 30
0.0
 11
476.2458012259647
 21
297.0761163651021
 31
0.0
  0
LINE
  5
14455
330
1F
100
AcDbEntity
  8
0
100
AcDbLine
 10
478.195801227405
 20
290.8761163648222
 30
0.0
 11
478.195801227405
 21
294.5761163638425
 31
0.0
  0
LINE
  5
14456
330
1F
100
AcDbEntity
  8
0
100
AcDbLine
 10
466.1457828560648
 20
261.2261163639023
 30
0.0
 11
466.5958012168846
 21
261.6761301552624
 31
0.0
  0
LINE
  5
14457
330
1F
100
AcDbEntity
  8
0
100
AcDbLine
 10
472.0958012277848
 20
265.2261163649023
 30
0.0
 11
471.5958012270245
 21
264.7261163641424
 31
0.0
  0
LINE
  5
14458
330
1F
100
AcDbEntity
  8
0
100
AcDbLine
 10
473.845801227905
 20
264.7261163641424
 30
0.0
 11
474.3458012261251
 21
265.2261163649023
 31
0.0
  0
LINE
  5
14459
330
1F
100
AcDbEntity
  8
0
100
AcDbLine
 10
450.0958012273646
 20
311.8761163637221
 30
0.0
 11
472.0958012277848
 21
311.8761163637221
 31
0.0
  0
LINE
  5
1445A
330
1F
100
AcDbEntity
  8
0
100
AcDbLine
 10
524.7167637987047
 20
261.9261163634424
 30
0.0
 11
524.7168028486647
 21
261.9261166326824
 31
0.0
  0
LINE
  5
1445B
330
1F
100
AcDbEntity
  8
0
100
AcDbLine
 10
513.9168310780648
 20
261.2261163639023
 30
0.0
 11
524.0167546704049
 21
261.2261163639023
 31
0.0
  0
LINE
  5
1445C
330
1F
100
AcDbEntity
  8
0
100
AcDbLine
 10
513.2168028489648
 20
261.9261265539222
 30
0.0
 11
516.8668028489244
 21
261.9261163634424
 31
0.0
  0
LINE
  5
1445D
330
1F
100
AcDbEntity
  8
0
100
AcDbLine
 10
521.066802848705
 20
261.9261163634424
 30
0.0
 11
524.7167637987047
 21
261.9261163634424
 31
0.0
  0
LINE
  5
1445E
330
1F
100
AcDbEntity
  8
0
100
AcDbLine
 10
521.066802848705
 20
261.6761075035424
 30
0.0
 11
516.8668028489244
 21
261.6761074095625
 31
0.0
  0
LINE
  5
1445F
330
1F
100
AcDbEntity
  8
0
100
AcDbLine
 10
513.4668028493448
 20
264.7261163641424
 30
0.0
 11
524.4668028482845
 21
264.7261163641424
 31
0.0
  0
LINE
  5
14460
330
1F
100
AcDbEntity
  8
0
100
AcDbLine
 10
519.7168028486847
 20
265.2261163649023
 30
0.0
 11
518.2168028489448
 21
265.2261163649023
 31
0.0
  0
LINE
  5
14461
330
1F
100
AcDbEntity
  8
0
100
AcDbLine
 10
517.7168028481843
 20
265.2261163649023
 30
0.0
 11
515.7668028492849
 21
265.2261163649023
 31
0.0
  0
LINE
  5
14462
330
1F
100
AcDbEntity
  8
0
100
AcDbLine
 10
520.2168028494448
 20
265.2261163649023
 30
0.0
 11
522.1668028483451
 21
265.2261163649023
 31
0.0
  0
LINE
  5
14463
330
1F
100
AcDbEntity
  8
0
100
AcDbLine
 10
512.4668028478252
 20
265.7261163631224
 30
0.0
 11
514.8668028484251
 21
265.7261163631224
 31
0.0
  0
LINE
  5
14464
330
1F
100
AcDbEntity
  8
0
100
AcDbLine
 10
523.0668028492051
 20
265.7261163631224
 30
0.0
 11
525.4668028472648
 21
265.7261163631224
 31
0.0
  0
LINE
  5
14465
330
1F
100
AcDbEntity
  8
0
100
AcDbLine
 10
513.9168201433647
 20
261.2261163639023
 30
0.0
 11
513.2168028997646
 21
261.9261265005826
 31
0.0
  0
LINE
  5
14466
330
1F
100
AcDbEntity
  8
0
100
AcDbLine
 10
513.4668028493448
 20
264.7261163641424
 30
0.0
 11
512.4668028478252
 21
265.7261163631224
 31
0.0
  0
LINE
  5
14467
330
1F
100
AcDbEntity
  8
0
100
AcDbLine
 10
518.0168028476251
 20
264.7261163641424
 30
0.0
 11
517.7168028481843
 21
265.0261163635823
 31
0.0
  0
LINE
  5
14468
330
1F
100
AcDbEntity
  8
0
100
AcDbLine
 10
511.6418028493651
 20
277.1261163642424
 30
0.0
 11
512.6418028483446
 21
276.1261163652624
 31
0.0
  0
LINE
  5
14469
330
1F
100
AcDbEntity
  8
0
100
AcDbLine
 10
525.2918028492846
 20
276.1261163652624
 30
0.0
 11
512.6418028483446
 21
276.1261163652624
 31
0.0
  0
LINE
  5
1446A
330
1F
100
AcDbEntity
  8
0
100
AcDbLine
 10
511.6418028493651
 20
277.1261163642424
 30
0.0
 11
511.6418028493651
 21
311.8761163637221
 31
0.0
  0
LINE
  5
1446B
330
1F
100
AcDbEntity
  8
0
100
AcDbLine
 10
512.4668028478252
 20
265.7261163631224
 30
0.0
 11
512.4668028478252
 21
276.3011163632425
 31
0.0
  0
LINE
  5
1446C
330
1F
100
AcDbEntity
  8
0
100
AcDbLine
 10
513.2168028489648
 20
264.9761163543622
 30
0.0
 11
513.2168028489648
 21
261.9261265005826
 31
0.0
  0
LINE
  5
1446D
330
1F
100
AcDbEntity
  8
0
100
AcDbLine
 10
514.4668028483245
 20
297.0761163651021
 30
0.0
 11
514.4668028483245
 21
311.8761163637221
 31
0.0
  0
LINE
  5
1446E
330
1F
100
AcDbEntity
  8
0
100
AcDbLine
 10
514.8668028484251
 20
276.1261163652624
 30
0.0
 11
514.8668028484251
 21
264.7261163641424
 31
0.0
  0
LINE
  5
1446F
330
1F
100
AcDbEntity
  8
0
100
AcDbLine
 10
515.4668028473048
 20
291.8761163638022
 30
0.0
 11
515.4668028473048
 21
294.5761163638425
 31
0.0
  0
LINE
  5
14470
330
1F
100
AcDbEntity
  8
0
100
AcDbLine
 10
515.7668028492849
 20
276.1261163652624
 30
0.0
 11
515.7668028492849
 21
265.2261163649023
 31
0.0
  0
LINE
  5
14471
330
1F
100
AcDbEntity
  8
0
100
AcDbLine
 10
516.8668028489244
 20
261.6761074095625
 30
0.0
 11
516.8668028489244
 21
264.7261163641424
 31
0.0
  0
LINE
  5
14472
330
1F
100
AcDbEntity
  8
0
100
AcDbLine
 10
516.8668028489244
 20
297.0761163651021
 30
0.0
 11
516.8668028489244
 21
311.8761163637221
 31
0.0
  0
LINE
  5
14473
330
1F
100
AcDbEntity
  8
0
100
AcDbLine
 10
521.4668028488047
 20
290.8761163648222
 30
0.0
 11
522.466802847785
 21
291.8761163638022
 31
0.0
  0
LINE
  5
14474
330
1F
100
AcDbEntity
  8
0
100
AcDbLine
 10
517.7168028481843
 20
265.0261163635823
 30
0.0
 11
517.7168028481843
 21
276.1261163652624
 31
0.0
  0
LINE
  5
14475
330
1F
100
AcDbEntity
  8
0
100
AcDbLine
 10
518.2168028489448
 20
265.2261163649023
 30
0.0
 11
518.2168028489448
 21
276.1261163652624
 31
0.0
  0
LINE
  5
14476
330
1F
100
AcDbEntity
  8
0
100
AcDbLine
 10
519.7168028486847
 20
276.1261163652624
 30
0.0
 11
519.7168028486847
 21
265.2261163649023
 31
0.0
  0
LINE
  5
14477
330
1F
100
AcDbEntity
  8
0
100
AcDbLine
 10
520.2168028494448
 20
276.1261163652624
 30
0.0
 11
520.2168028494448
 21
265.0261163635823
 31
0.0
  0
LINE
  5
14478
330
1F
100
AcDbEntity
  8
0
100
AcDbLine
 10
521.066802848705
 20
264.7261163641424
 30
0.0
 11
521.066802848705
 21
261.6761075035424
 31
0.0
  0
LINE
  5
14479
330
1F
100
AcDbEntity
  8
0
100
AcDbLine
 10
521.066802848705
 20
297.0761163651021
 30
0.0
 11
521.066802848705
 21
311.8761163637221
 31
0.0
  0
LINE
  5
1447A
330
1F
100
AcDbEntity
  8
0
100
AcDbLine
 10
515.4668028473048
 20
291.8761163638022
 30
0.0
 11
516.4668028488247
 21
290.8761163648222
 31
0.0
  0
LINE
  5
1447B
330
1F
100
AcDbEntity
  8
0
100
AcDbLine
 10
522.1668028483451
 20
265.2261163649023
 30
0.0
 11
522.1668028483451
 21
276.1261163652624
 31
0.0
  0
LINE
  5
1447C
330
1F
100
AcDbEntity
  8
0
100
AcDbLine
 10
522.466802847785
 20
294.5761163638425
 30
0.0
 11
522.466802847785
 21
291.8761163638022
 31
0.0
  0
LINE
  5
1447D
330
1F
100
AcDbEntity
  8
0
100
AcDbLine
 10
523.0668028492051
 20
264.7261163641424
 30
0.0
 11
523.0668028492051
 21
276.1261163652624
 31
0.0
  0
LINE
  5
1447E
330
1F
100
AcDbEntity
  8
0
100
AcDbLine
 10
523.4668028493049
 20
297.0761163651021
 30
0.0
 11
523.4668028493049
 21
311.8761163637221
 31
0.0
  0
LINE
  5
1447F
330
1F
100
AcDbEntity
  8
0
100
AcDbLine
 10
524.7168028486647
 20
264.9761163543622
 30
0.0
 11
524.7168028486647
 21
261.9261165260023
 31
0.0
  0
LINE
  5
14480
330
1F
100
AcDbEntity
  8
0
100
AcDbLine
 10
521.4668028488047
 20
290.8761163648222
 30
0.0
 11
516.4668028488247
 21
290.8761163648222
 31
0.0
  0
LINE
  5
14481
330
1F
100
AcDbEntity
  8
0
100
AcDbLine
 10
525.4668028472648
 20
265.7261163631224
 30
0.0
 11
525.4668028472648
 21
276.3011163632425
 31
0.0
  0
LINE
  5
14482
330
1F
100
AcDbEntity
  8
0
100
AcDbLine
 10
526.2918028482651
 20
311.8761163637221
 30
0.0
 11
526.2918028482651
 21
277.1261163642424
 31
0.0
  0
LINE
  5
14483
330
1F
100
AcDbEntity
  8
0
100
AcDbLine
 10
515.4668028473048
 20
294.5761163638425
 30
0.0
 11
522.466802847785
 21
294.5761163638425
 31
0.0
  0
LINE
  5
14484
330
1F
100
AcDbEntity
  8
0
100
AcDbLine
 10
519.8668028484052
 20
294.5761163638425
 30
0.0
 11
522.466802847785
 21
294.5761163638425
 31
0.0
  0
LINE
  5
14485
330
1F
100
AcDbEntity
  8
0
100
AcDbLine
 10
525.2918028492846
 20
276.1261163652624
 30
0.0
 11
526.2918028482651
 21
277.1261163642424
 31
0.0
  0
LINE
  5
14486
330
1F
100
AcDbEntity
  8
0
100
AcDbLine
 10
511.6418028493651
 20
297.0761163651021
 30
0.0
 11
526.2918028482651
 21
297.0761163651021
 31
0.0
  0
LINE
  5
14487
330
1F
100
AcDbEntity
  8
0
100
AcDbLine
 10
520.2168028494448
 20
265.0261163635823
 30
0.0
 11
519.9168028474648
 21
264.7261163641424
 31
0.0
  0
LINE
  5
14488
330
1F
100
AcDbEntity
  8
0
100
AcDbLine
 10
524.4668028482845
 20
264.7261163641424
 30
0.0
 11
525.4668028472648
 21
265.7261163631224
 31
0.0
  0
LINE
  5
14489
330
1F
100
AcDbEntity
  8
0
100
AcDbLine
 10
524.0168133901248
 20
261.2261193839621
 30
0.0
 11
524.7168240805247
 21
261.9261229674421
 31
0.0
  0
LINE
  5
1448A
330
1F
100
AcDbEntity
  8
0
100
AcDbLine
 10
511.6418028493651
 20
311.8761163637221
 30
0.0
 11
526.2918028482651
 21
311.8761163637221
 31
0.0
  0
ARC
  5
1448B
330
1F
100
AcDbEntity
  8
0
100
AcDbCircle
 10
452.4958012279646
 20
347.7907438499177
 30
0.0
 40
2.400000000599999
100
AcDbArc
 50
180.0
 51
270.0
  0
ARC
  5
1448C
330
1F
100
AcDbEntity
  8
0
100
AcDbCircle
 10
452.4958012279646
 20
347.7907438499177
 30
0.0
 40
0.9000000008599997
100
AcDbArc
 50
180.0
 51
270.0
  0
ARC
  5
1448D
330
1F
100
AcDbEntity
  8
0
100
AcDbCircle
 10
461.0958001290253
 20
349.890744541958
 30
0.0
 40
6.499999987019998
100
AcDbArc
 50
198.8491130815147
 51
341.1508869184852
  0
ARC
  5
1448E
330
1F
100
AcDbEntity
  8
0
100
AcDbCircle
 10
461.0957866060649
 20
349.8907484738777
 30
0.0
 40
5.939325205399999
100
AcDbArc
 50
340.3218572580014
 51
19.67805252041689
  0
ARC
  5
1448F
330
1F
100
AcDbEntity
  8
0
100
AcDbCircle
 10
461.0958001290253
 20
349.890744541958
 30
0.0
 40
5.750000559919998
100
AcDbArc
 50
201.4209723646953
 51
338.5790356198985
  0
ARC
  5
14490
330
1F
100
AcDbEntity
  8
0
100
AcDbCircle
 10
461.0957866060649
 20
349.8907484738777
 30
0.0
 40
5.49998538304
100
AcDbArc
 50
338.6763752437005
 51
21.32346736519491
  0
ARC
  5
14491
330
1F
100
AcDbEntity
  8
0
100
AcDbCircle
 10
452.4958012279646
 20
351.9907438496978
 30
0.0
 40
2.400000000599999
100
AcDbArc
 50
90.0
 51
180.0
  0
ARC
  5
14492
330
1F
100
AcDbEntity
  8
0
100
AcDbCircle
 10
452.4958012279646
 20
351.9907438496978
 30
0.0
 40
0.9000000008599997
100
AcDbArc
 50
90.0
 51
180.0
  0
ARC
  5
14493
330
1F
100
AcDbEntity
  8
0
100
AcDbCircle
 10
461.0958023235849
 20
349.8907431551177
 30
0.0
 40
6.499999987019998
100
AcDbArc
 50
18.8491130815147
 51
161.1508869184853
  0
ARC
  5
14494
330
1F
100
AcDbEntity
  8
0
100
AcDbCircle
 10
461.0958023235849
 20
349.8907431551177
 30
0.0
 40
5.750000559919998
100
AcDbArc
 50
21.42097236469535
 51
158.5790356198985
  0
ARC
  5
14495
330
1F
100
AcDbEntity
  8
0
100
AcDbCircle
 10
469.6958012271849
 20
347.7907438499177
 30
0.0
 40
2.400000000599999
100
AcDbArc
 50
270.0
 51
0.0
  0
ARC
  5
14496
330
1F
100
AcDbEntity
  8
0
100
AcDbCircle
 10
469.6958012271849
 20
347.7907438499177
 30
0.0
 40
0.9000000008599997
100
AcDbArc
 50
270.0
 51
0.0
  0
ARC
  5
14497
330
1F
100
AcDbEntity
  8
0
100
AcDbCircle
 10
461.0958012263052
 20
349.8907438485379
 30
0.0
 40
8.600000000879999
100
AcDbArc
 50
346.5523414565891
 51
13.44765854341073
  0
ARC
  5
14498
330
1F
100
AcDbEntity
  8
0
100
AcDbCircle
 10
461.0958012263052
 20
349.8907438485379
 30
0.0
 40
8.600000000879999
100
AcDbArc
 50
166.5523414565893
 51
193.4476585434106
  0
ARC
  5
14499
330
1F
100
AcDbEntity
  8
0
100
AcDbCircle
 10
461.0958012263052
 20
349.8907438485379
 30
0.0
 40
8.50000000022
100
AcDbArc
 50
120.4846948651094
 51
148.0342812492078
  0
ARC
  5
1449A
330
1F
100
AcDbEntity
  8
0
100
AcDbCircle
 10
461.0958012263052
 20
349.8907438485379
 30
0.0
 40
8.50000000022
100
AcDbArc
 50
31.96571875079214
 51
59.51530513489059
  0
ARC
  5
1449B
330
1F
100
AcDbEntity
  8
0
100
AcDbCircle
 10
461.0958012263052
 20
349.8907438485379
 30
0.0
 40
8.50000000022
100
AcDbArc
 50
300.4846948651094
 51
328.0342812492077
  0
ARC
  5
1449C
330
1F
100
AcDbEntity
  8
0
100
AcDbCircle
 10
461.0958012263052
 20
349.8907438485379
 30
0.0
 40
8.50000000022
100
AcDbArc
 50
211.9657187507921
 51
239.5153051348906
  0
ARC
  5
1449D
330
1F
100
AcDbEntity
  8
0
100
AcDbCircle
 10
461.0958012263052
 20
349.8907438485379
 30
0.0
 40
7.00000000048
100
AcDbArc
 50
205.3769335252026
 51
250.5370490536765
  0
ARC
  5
1449E
330
1F
100
AcDbEntity
  8
0
100
AcDbCircle
 10
461.0958012263052
 20
349.8907438485379
 30
0.0
 40
7.00000000048
100
AcDbArc
 50
289.4629509463235
 51
334.6230664747973
  0
ARC
  5
1449F
330
1F
100
AcDbEntity
  8
0
100
AcDbCircle
 10
461.0958012263052
 20
349.8907438485379
 30
0.0
 40
7.00000000048
100
AcDbArc
 50
25.37693352520267
 51
70.53704905367652
  0
ARC
  5
144A0
330
1F
100
AcDbEntity
  8
0
100
AcDbCircle
 10
461.0958012263052
 20
349.8907438485379
 30
0.0
 40
7.00000000048
100
AcDbArc
 50
109.4629509463234
 51
154.6230664747973
  0
ARC
  5
144A1
330
1F
100
AcDbEntity
  8
0
100
AcDbCircle
 10
461.0958012263052
 20
349.8907438485379
 30
0.0
 40
6.600000000379998
100
AcDbArc
 50
27.03569178940682
 51
152.9643082105931
  0
ARC
  5
144A2
330
1F
100
AcDbEntity
  8
0
100
AcDbCircle
 10
461.0958012263052
 20
349.8907438485379
 30
0.0
 40
6.600000000379998
100
AcDbArc
 50
342.3603897007129
 51
17.63961029928709
  0
ARC
  5
144A3
330
1F
100
AcDbEntity
  8
0
100
AcDbCircle
 10
461.0958012263052
 20
349.8907438485379
 30
0.0
 40
6.600000000379998
100
AcDbArc
 50
162.3603897007129
 51
197.6396102992871
  0
ARC
  5
144A4
330
1F
100
AcDbEntity
  8
0
100
AcDbCircle
 10
461.0958012263052
 20
349.8907438485379
 30
0.0
 40
6.600000000379998
100
AcDbArc
 50
207.0356917894068
 51
332.9643082105932
  0
ARC
  5
144A5
330
1F
100
AcDbEntity
  8
0
100
AcDbCircle
 10
461.0958158465453
 20
349.8907484738777
 30
0.0
 40
5.939325205399999
100
AcDbArc
 50
160.3219474795831
 51
199.6781427419984
  0
ARC
  5
144A6
330
1F
100
AcDbEntity
  8
0
100
AcDbCircle
 10
461.0958012263052
 20
349.8907438485379
 30
0.0
 40
5.500000000739999
100
AcDbArc
 50
337.5536494184981
 51
338.685927750298
  0
ARC
  5
144A7
330
1F
100
AcDbEntity
  8
0
100
AcDbCircle
 10
461.0958012263052
 20
349.8907438485379
 30
0.0
 40
5.500000000739999
100
AcDbArc
 50
21.31402264960891
 51
22.44635058140808
  0
ARC
  5
144A8
330
1F
100
AcDbEntity
  8
0
100
AcDbCircle
 10
461.0958158465453
 20
349.8907484738777
 30
0.0
 40
5.49998538304
100
AcDbArc
 50
157.5536494185919
 51
202.4463505815019
  0
CIRCLE
  5
144A9
330
1F
100
AcDbEntity
  8
0
100
AcDbCircle
 10
461.0958012263052
 20
349.8907438485379
 30
0.0
 40
4.249999998839998
  0
ARC
  5
144AA
330
1F
100
AcDbEntity
  8
0
100
AcDbCircle
 10
469.6958012271849
 20
351.9907438496978
 30
0.0
 40
2.400000000599999
100
AcDbArc
 50
0.0
 51
90.0
  0
ARC
  5
144AB
330
1F
100
AcDbEntity
  8
0
100
AcDbCircle
 10
469.6958012271849
 20
351.9907438496978
 30
0.0
 40
0.9000000008599997
100
AcDbArc
 50
0.0
 51
90.0
  0
ARC
  5
144AC
330
1F
100
AcDbEntity
  8
0
100
AcDbCircle
 10
396.736806896545
 20
336.8016469219623
 30
0.0
 40
102.30385996642
100
AcDbArc
 50
312.7487522070036
 51
312.9546310542076
  0
ARC
  5
144AD
330
1F
100
AcDbEntity
  8
0
100
AcDbCircle
 10
525.454397609185
 20
336.8016841990025
 30
0.0
 40
102.30361607816
100
AcDbArc
 50
227.0455462912706
 51
227.2514250382051
  0
ARC
  5
144AE
330
1F
100
AcDbEntity
  8
0
100
AcDbCircle
 10
411.2571941244448
 20
278.0730738027624
 30
0.0
 40
54.46779659377999
100
AcDbArc
 50
345.8156194960158
 51
346.8980990081983
  0
ARC
  5
144AF
330
1F
100
AcDbEntity
  8
0
100
AcDbCircle
 10
510.9335104254649
 20
278.0728558606024
 30
0.0
 40
54.46687266115999
100
AcDbArc
 50
193.1018918103956
 51
194.1843896854007
  0
ARC
  5
144B0
330
1F
100
AcDbEntity
  8
0
100
AcDbCircle
 10
461.0831757905449
 20
269.8269398399423
 30
0.0
 40
7.221255618419998
100
AcDbArc
 50
116.2924984254054
 51
119.2717545727226
  0
ARC
  5
144B1
330
1F
100
AcDbEntity
  8
0
100
AcDbCircle
 10
461.1230344154243
 20
269.8546668711022
 30
0.0
 40
7.189926590399999
100
AcDbArc
 50
60.72175312338597
 51
63.71399387861408
  0
ARC
  5
144B2
330
1F
100
AcDbEntity
  8
0
100
AcDbCircle
 10
461.0958012034449
 20
259.2261610420024
 30
0.0
 40
5.749955322519998
100
AcDbArc
 50
73.04250734189749
 51
106.9574926581024
  0
SPLINE
  5
144B3
330
1F
100
AcDbEntity
  8
0
100
AcDbSpline
210
0.0
220
0.0
230
1.0
 70
     8
 71
     3
 72
     8
 73
     4
 74
     0
 42
0.0000000001
 43
0.0000000001
 40
0.0
 40
0.0
 40
0.0
 40
0.0
 40
1.0
 40
1.0
 40
1.0
 40
1.0
 10
467.0751406544447
 20
265.7261163631224
 30
0.0
 10
466.6610807281847
 20
265.3846063705023
 30
0.0
 10
466.2415190349245
 20
265.0494692074021
 30
0.0
 10
465.8131294472048
 20
264.7261163641424
 30
0.0
  0
SPLINE
  5
144B4
330
1F
100
AcDbEntity
  8
0
100
AcDbSpline
210
0.0
220
0.0
230
1.0
 70
     8
 71
     3
 72
     8
 73
     4
 74
     0
 42
0.0000000001
 43
0.0000000001
 40
0.0
 40
0.0
 40
0.0
 40
0.0
 40
1.0
 40
1.0
 40
1.0
 40
1.0
 10
456.3784730231851
 20
264.7261163641424
 30
0.0
 10
455.9500834354646
 20
265.0494692124821
 30
0.0
 10
455.5305217295051
 20
265.3846063679625
 30
0.0
 10
455.1164617981647
 20
265.7261163631224
 30
0.0
  0
ELLIPSE
  5
144B5
330
1F
100
AcDbEntity
  8
0
100
AcDbEllipse
 10
448.3458012272446
 20
264.5261163653622
 30
0.0
 11
0.3535533914868443
 21
0.3535533914868442
 31
0.0
210
0.0
220
0.0
230
1.0
 40
0.9999999999999083
 41
0.7853981640748402
 42
1.284039775274981
  0
ELLIPSE
  5
144B6
330
1F
100
AcDbEntity
  8
0
100
AcDbEllipse
 10
473.845801227905
 20
264.5261163653622
 30
0.0
 11
-0.353553391012925
 21
0.353553391012925
 31
0.0
210
0.0
220
0.0
230
1.0
 40
0.9999999999999735
 41
-1.284039774074976
 42
-0.7853981628749568
  0
ELLIPSE
  5
144B7
330
1F
100
AcDbEntity
  8
0
100
AcDbEllipse
 10
515.7668028492849
 20
264.3261163640423
 30
0.0
 11
0.6363961036760287
 21
0.6363961036760287
 31
0.0
210
0.0
220
0.0
230
1.0
 40
0.9999999999999758
 41
0.7853981633974603
 42
1.895640498497453
  0
ELLIPSE
  5
144B8
330
1F
100
AcDbEntity
  8
0
100
AcDbEllipse
 10
519.7168028486847
 20
264.7261163641424
 30
0.0
 11
-0.3535533911306942
 21
0.3535533911306943
 31
0.0
210
0.0
220
0.0
230
1.0
 40
0.9999999999998808
 41
4.425632428187255
 42
5.497787143787079
  0
ELLIPSE
  5
144B9
330
1F
100
AcDbEntity
  8
0
100
AcDbEllipse
 10
518.2168028489448
 20
264.7261163641424
 30
0.0
 11
-0.3535533909494377
 21
0.3535533909494377
 31
0.0
210
0.0
220
0.0
230
1.0
 40
0.999999999999895
 41
-0.7853981627299317
 42
0.2867565528702061
  0
ELLIPSE
  5
144BA
330
1F
100
AcDbEntity
  8
0
100
AcDbEllipse
 10
522.1668028483451
 20
264.3261163640423
 30
0.0
 11
-0.6363961036760284
 21
0.6363961036760284
 31
0.0
210
0.0
220
0.0
230
1.0
 40
0.999999999999976
 41
4.387544808682132
 42
5.497787143782124
  0
LINE
  5
144BB
330
1F
100
AcDbEntity
  8
0
100
AcDbLine
 10
407.394655679281
 20
209.9968239665417
 30
0.0
 11
406.9157642723159
 21
210.0581467217216
 31
0.0
  0
LINE
  5
144BC
330
1F
100
AcDbEntity
  8
0
100
AcDbLine
 10
408.3480893197786
 20
211.2993062129816
 30
0.0
 11
408.8269807267399
 21
211.2379834578014
 31
0.0
  0
LINE
  5
144BD
330
1F
100
AcDbEntity
  8
0
100
AcDbLine
 10
410.3984407334186
 20
204.8468525113616
 30
0.0
 11
408.6292379243544
 21
206.3998342644217
 31
0.0
  0
LINE
  5
144BE
330
1F
100
AcDbEntity
  8
0
100
AcDbLine
 10
414.1435275434607
 20
202.6845679916413
 30
0.0
 11
411.0434486763163
 21
205.4057743348415
 31
0.0
  0
LINE
  5
144BF
330
1F
100
AcDbEntity
  8
0
100
AcDbLine
 10
407.4213039190992
 20
208.5852428958814
 30
0.0
 11
401.0710845545376
 21
214.1593776099216
 31
0.0
  0
LINE
  5
144C0
330
1F
100
AcDbEntity
  8
0
100
AcDbLine
 10
407.394655679281
 20
209.9968239665417
 30
0.0
 11
409.1638584908771
 21
208.4438422134816
 31
0.0
  0
LINE
  5
144C1
330
1F
100
AcDbEntity
  8
0
100
AcDbLine
 10
400.2394553618152
 20
215.2484117107414
 30
0.0
 11
401.0710845545376
 21
214.1593776099216
 31
0.0
  0
LINE
  5
144C2
330
1F
100
AcDbEntity
  8
0
100
AcDbLine
 10
398.4872802885742
 20
221.6873632016213
 30
0.0
 11
398.0083888816165
 21
221.7486859568015
 31
0.0
  0
LINE
  5
144C3
330
1F
100
AcDbEntity
  8
0
100
AcDbLine
 10
393.5775851016382
 20
224.4841914967014
 30
0.0
 11
398.5751566355551
 21
220.0973923353417
 31
0.0
  0
LINE
  5
144C4
330
1F
100
AcDbEntity
  8
0
100
AcDbLine
 10
393.5534294146213
 20
224.5300730584816
 30
0.0
 11
398.5630342569542
 21
220.1327112283815
 31
0.0
  0
LINE
  5
144C5
330
1F
100
AcDbEntity
  8
0
100
AcDbLine
 10
408.8269807267399
 20
211.2379834578014
 30
0.0
 11
410.5961835383363
 21
209.6850017047413
 31
0.0
  0
LINE
  5
144C6
330
1F
100
AcDbEntity
  8
0
100
AcDbLine
 10
393.3770605217373
 20
225.0439287287617
 30
0.0
 11
398.3866653640811
 21
220.6465668986615
 31
0.0
  0
LINE
  5
144C7
330
1F
100
AcDbEntity
  8
0
100
AcDbLine
 10
393.5250868500165
 20
225.7341382754415
 30
0.0
 11
398.0332135817783
 21
221.7769669924413
 31
0.0
  0
LINE
  5
144C8
330
1F
100
AcDbEntity
  8
0
100
AcDbLine
 10
398.4872802885742
 20
221.6873632016213
 30
0.0
 11
411.5597232774974
 21
210.2125535808013
 31
0.0
  0
LINE
  5
144C9
330
1F
100
AcDbEntity
  8
0
100
AcDbLine
 10
392.4836837588385
 20
227.6704602524214
 30
0.0
 11
398.6231063491554
 21
222.2813600298813
 31
0.0
  0
LINE
  5
144CA
330
1F
100
AcDbEntity
  8
0
100
AcDbLine
 10
392.4599422848563
 20
227.7159782233615
 30
0.0
 11
398.637253994218
 21
222.2936194567214
 31
0.0
  0
LINE
  5
144CB
330
1F
100
AcDbEntity
  8
0
100
AcDbLine
 10
392.2835733919758
 20
228.2298338936415
 30
0.0
 11
398.8430885304782
 21
222.4719822470615
 31
0.0
  0
LINE
  5
144CC
330
1F
100
AcDbEntity
  8
0
100
AcDbLine
 10
426.1477403015573
 20
199.2221546929612
 30
0.0
 11
416.4498878583339
 21
207.7347954146616
 31
0.0
  0
LINE
  5
144CD
330
1F
100
AcDbEntity
  8
0
100
AcDbLine
 10
392.235021629794
 20
229.0925969661816
 30
0.0
 11
399.3132686315161
 21
222.8794096643614
 31
0.0
  0
LINE
  5
144CE
330
1F
100
AcDbEntity
  8
0
100
AcDbLine
 10
399.9166989359594
 20
222.3545120578214
 30
0.0
 11
411.6786147719989
 21
212.0300650435614
 31
0.0
  0
LINE
  5
144CF
330
1F
100
AcDbEntity
  8
0
100
AcDbLine
 10
416.2702815932183
 20
208.0109058708216
 30
0.0
 11
425.9681340364379
 21
199.4982651491213
 31
0.0
  0
LINE
  5
144D0
330
1F
100
AcDbEntity
  8
0
100
AcDbLine
 10
407.7976087316394
 20
207.4888683627013
 30
0.0
 11
408.6292379243544
 21
206.3998342644217
 31
0.0
  0
LINE
  5
144D1
330
1F
100
AcDbEntity
  8
0
100
AcDbLine
 10
393.5534294146213
 20
224.5300730584816
 30
0.0
 11
393.3770605217373
 21
225.0439287287617
 31
0.0
  0
LINE
  5
144D2
330
1F
100
AcDbEntity
  8
0
100
AcDbLine
 10
392.4599422848563
 20
227.7159782233615
 30
0.0
 11
392.2835733919758
 21
228.2298338936415
 31
0.0
  0
LINE
  5
144D3
330
1F
100
AcDbEntity
  8
0
100
AcDbLine
 10
400.2394553618152
 20
215.2484117107414
 30
0.0
 11
398.0083888816165
 21
221.7486859568015
 31
0.0
  0
LINE
  5
144D4
330
1F
100
AcDbEntity
  8
0
100
AcDbLine
 10
396.2418196182165
 20
234.8887837761216
 30
0.0
 11
396.2005738764759
 21
234.5856937320613
 31
0.0
  0
LINE
  5
144D5
330
1F
100
AcDbEntity
  8
0
100
AcDbLine
 10
393.3202930584351
 20
225.5856760679216
 30
0.0
 11
393.381419425897
 21
225.7525351017415
 31
0.0
  0
LINE
  5
144D6
330
1F
100
AcDbEntity
  8
0
100
AcDbLine
 10
399.1727684095944
 20
236.0377555853614
 30
0.0
 11
400.1214704237948
 21
236.8598388916616
 31
0.0
  0
LINE
  5
144D7
330
1F
100
AcDbEntity
  8
0
100
AcDbLine
 10
402.5851444016964
 20
238.9946981169813
 30
0.0
 11
403.5338464311364
 21
239.8167814359816
 31
0.0
  0
LINE
  5
144D8
330
1F
100
AcDbEntity
  8
0
100
AcDbLine
 10
404.1909870726571
 20
239.9099178435617
 30
0.0
 11
399.4734105692963
 21
235.8219736547216
 31
0.0
  0
LINE
  5
144D9
330
1F
100
AcDbEntity
  8
0
100
AcDbLine
 10
412.3232043362562
 20
212.5886243303015
 30
0.0
 11
402.9787251918762
 21
220.7910788575413
 31
0.0
  0
LINE
  5
144DA
330
1F
100
AcDbEntity
  8
0
100
AcDbLine
 10
415.5295322492178
 20
210.1690996900615
 30
0.0
 11
425.2273846898946
 21
201.6564589709013
 31
0.0
  0
LINE
  5
144DB
330
1F
100
AcDbEntity
  8
0
100
AcDbLine
 10
412.5496229944158
 20
212.7848239760014
 30
0.0
 11
402.7847196058004
 21
221.3563210874817
 31
0.0
  0
LINE
  5
144DC
330
1F
100
AcDbEntity
  8
0
100
AcDbLine
 10
402.9068945430566
 20
222.4622168589216
 30
0.0
 11
405.0692535355749
 21
220.5641280490617
 31
0.0
  0
LINE
  5
144DD
330
1F
100
AcDbEntity
  8
0
100
AcDbLine
 10
426.6622154371991
 20
201.6408691824217
 30
0.0
 11
427.8897276354594
 21
200.5633759576816
 31
0.0
  0
LINE
  5
144DE
330
1F
100
AcDbEntity
  8
0
100
AcDbLine
 10
414.8064866975959
 20
214.7404749008614
 30
0.0
 11
406.2866547558344
 21
222.2190655240414
 31
0.0
  0
LINE
  5
144DF
330
1F
100
AcDbEntity
  8
0
100
AcDbLine
 10
416.8691085032564
 20
212.9299342141016
 30
0.0
 11
426.5669609464761
 21
204.4172934949414
 31
0.0
  0
LINE
  5
144E0
330
1F
100
AcDbEntity
  8
0
100
AcDbLine
 10
410.9654260942383
 20
245.3231441621214
 30
0.0
 11
405.1495049270172
 21
240.2834461059014
 31
0.0
  0
LINE
  5
144E1
330
1F
100
AcDbEntity
  8
0
100
AcDbLine
 10
398.1352252116352
 20
234.2053286685613
 30
0.0
 11
392.235021629794
 21
229.0925969661816
 31
0.0
  0
LINE
  5
144E2
330
1F
100
AcDbEntity
  8
0
100
AcDbLine
 10
393.381419425897
 20
225.7525351017415
 30
0.0
 11
394.029181635576
 21
226.3138435930413
 31
0.0
  0
LINE
  5
144E3
330
1F
100
AcDbEntity
  8
0
100
AcDbLine
 10
393.5250868500165
 20
225.7341382754415
 30
0.0
 11
394.1110986980579
 21
226.2419379304014
 31
0.0
  0
LINE
  5
144E4
330
1F
100
AcDbEntity
  8
0
100
AcDbLine
 10
429.561100152497
 20
202.0116783976213
 30
0.0
 11
427.2678795776568
 21
204.0246356975817
 31
0.0
  0
LINE
  5
144E5
330
1F
100
AcDbEntity
  8
0
100
AcDbLine
 10
407.1707040850172
 20
222.9851250282417
 30
0.0
 11
405.3523282094587
 21
224.5812702179613
 31
0.0
  0
LINE
  5
144E6
330
1F
100
AcDbEntity
  8
0
100
AcDbLine
 10
417.8892893280183
 20
213.8139563957615
 30
0.0
 11
427.5871417686988
 21
205.3013156740616
 31
0.0
  0
LINE
  5
144E7
330
1F
100
AcDbEntity
  8
0
100
AcDbLine
 10
416.2649755484538
 20
216.0043062390813
 30
0.0
 11
407.7451436066962
 21
223.4828968622613
 31
0.0
  0
LINE
  5
144E8
330
1F
100
AcDbEntity
  8
0
100
AcDbLine
 10
404.2864925915795
 20
227.1888812689216
 30
0.0
 11
397.8635058896992
 21
232.8268901452815
 31
0.0
  0
LINE
  5
144E9
330
1F
100
AcDbEntity
  8
0
100
AcDbLine
 10
397.2567836004758
 20
233.4441284459817
 30
0.0
 11
396.1864616186953
 21
234.3836422768813
 31
0.0
  0
LINE
  5
144EA
330
1F
100
AcDbEntity
  8
0
100
AcDbLine
 10
430.3435265657983
 20
205.1472936554614
 30
0.0
 11
433.1283828401149
 21
202.7027853390013
 31
0.0
  0
LINE
  5
144EB
330
1F
100
AcDbEntity
  8
0
100
AcDbLine
 10
402.7847196058004
 20
221.3563210874817
 30
0.0
 11
402.9787251918762
 21
220.7910788575413
 31
0.0
  0
LINE
  5
144EC
330
1F
100
AcDbEntity
  8
0
100
AcDbLine
 10
407.7976087316394
 20
207.4888683627013
 30
0.0
 11
406.9157642723159
 21
210.0581467217216
 31
0.0
  0
LINE
  5
144ED
330
1F
100
AcDbEntity
  8
0
100
AcDbLine
 10
410.3984407334186
 20
204.8468525113616
 30
0.0
 11
409.1638584908771
 21
208.4438422134816
 31
0.0
  0
LINE
  5
144EE
330
1F
100
AcDbEntity
  8
0
100
AcDbLine
 10
419.5204246255538
 20
217.1107782933413
 30
0.0
 11
429.2182770687771
 21
208.5981375716414
 31
0.0
  0
LINE
  5
144EF
330
1F
100
AcDbEntity
  8
0
100
AcDbLine
 10
399.4734105692963
 20
235.8219736547216
 30
0.0
 11
406.8614704540571
 21
229.3368368891814
 31
0.0
  0
LINE
  5
144F0
330
1F
100
AcDbEntity
  8
0
100
AcDbLine
 10
419.3424572420966
 20
218.6710512078415
 30
0.0
 11
407.5805414060572
 21
228.9954982221015
 31
0.0
  0
LINE
  5
144F1
330
1F
100
AcDbEntity
  8
0
100
AcDbLine
 10
436.5547698963941
 20
205.6718689436215
 30
0.0
 11
433.7699136220774
 21
208.1163772600816
 31
0.0
  0
LINE
  5
144F2
330
1F
100
AcDbEntity
  8
0
100
AcDbLine
 10
410.5961835383363
 20
209.6850017047413
 30
0.0
 11
411.8307657808776
 21
206.0880120026217
 31
0.0
  0
LINE
  5
144F3
330
1F
100
AcDbEntity
  8
0
100
AcDbLine
 10
411.5597232774974
 20
210.2125535808013
 30
0.0
 11
414.1435275434607
 21
202.6845679916413
 31
0.0
  0
LINE
  5
144F4
330
1F
100
AcDbEntity
  8
0
100
AcDbLine
 10
420.2645165384394
 20
241.0343949773814
 30
0.0
 11
411.7392944372779
 21
233.6469933895013
 31
0.0
  0
LINE
  5
144F5
330
1F
100
AcDbEntity
  8
0
100
AcDbLine
 10
406.5336109802349
 20
229.1360875421414
 30
0.0
 11
398.0083888816165
 21
221.7486859568015
 31
0.0
  0
LINE
  5
144F6
330
1F
100
AcDbEntity
  8
0
100
AcDbLine
 10
406.8614704540571
 20
229.3368368891814
 30
0.0
 11
411.579046957418
 21
233.4247810780215
 31
0.0
  0
LINE
  5
144F7
330
1F
100
AcDbEntity
  8
0
100
AcDbLine
 10
420.7434079479402
 20
240.9730722196613
 30
0.0
 11
398.4872802885742
 21
221.6873632016213
 31
0.0
  0
LINE
  5
144F8
330
1F
100
AcDbEntity
  8
0
100
AcDbLine
 10
407.5805414060572
 20
228.9954982221015
 30
0.0
 11
399.9166989359594
 21
222.3545120578214
 31
0.0
  0
LINE
  5
144F9
330
1F
100
AcDbEntity
  8
0
100
AcDbLine
 10
412.3054071302988
 20
233.0897587737217
 30
0.0
 11
419.9692496003966
 21
239.7307449380013
 31
0.0
  0
LINE
  5
144FA
330
1F
100
AcDbEntity
  8
0
100
AcDbLine
 10
432.0365420265964
 20
231.8261747248215
 30
0.0
 11
432.5154334335541
 21
231.7648519696417
 31
0.0
  0
LINE
  5
144FB
330
1F
100
AcDbEntity
  8
0
100
AcDbLine
 10
427.0699225338988
 20
200.4530032193215
 30
0.0
 11
427.1372390337541
 21
200.3494969086813
 31
0.0
  0
LINE
  5
144FC
330
1F
100
AcDbEntity
  8
0
100
AcDbLine
 10
416.2702815932183
 20
208.0109058708216
 30
0.0
 11
415.5295322492178
 21
210.1690996900615
 31
0.0
  0
LINE
  5
144FD
330
1F
100
AcDbEntity
  8
0
100
AcDbLine
 10
405.3523282094587
 20
224.5812702179613
 30
0.0
 11
402.9068945430566
 21
222.4622168589216
 31
0.0
  0
LINE
  5
144FE
330
1F
100
AcDbEntity
  8
0
100
AcDbLine
 10
415.8475687962758
 20
233.6757613685417
 30
0.0
 11
418.2930024601386
 21
235.7948147301216
 31
0.0
  0
LINE
  5
144FF
330
1F
100
AcDbEntity
  8
0
100
AcDbLine
 10
402.9787251918762
 20
220.7910788575413
 30
0.0
 11
402.3341356276152
 21
220.2325195733414
 31
0.0
  0
LINE
  5
14500
330
1F
100
AcDbEntity
  8
0
100
AcDbLine
 10
419.432616083873
 20
235.0489478322214
 30
0.0
 11
421.0847828404961
 21
236.4806078137016
 31
0.0
  0
LINE
  5
14501
330
1F
100
AcDbEntity
  8
0
100
AcDbLine
 10
418.9204961987972
 20
233.1667287290014
 30
0.0
 11
417.4620073479394
 21
231.9028973907816
 31
0.0
  0
LINE
  5
14502
330
1F
100
AcDbEntity
  8
0
100
AcDbLine
 10
406.2866547558344
 20
222.2190655240414
 30
0.0
 11
407.7451436066962
 21
223.4828968622613
 31
0.0
  0
LINE
  5
14503
330
1F
100
AcDbEntity
  8
0
100
AcDbLine
 10
404.1909870726571
 20
239.9099178435617
 30
0.0
 11
411.579046957418
 21
233.4247810780215
 31
0.0
  0
LINE
  5
14504
330
1F
100
AcDbEntity
  8
0
100
AcDbLine
 10
435.4777993604779
 20
212.4535810215215
 30
0.0
 11
435.0218971480728
 21
212.8537656770812
 31
0.0
  0
LINE
  5
14505
330
1F
100
AcDbEntity
  8
0
100
AcDbLine
 10
412.3054071302988
 20
233.0897587737217
 30
0.0
 11
424.0673229663383
 21
222.7653117594613
 31
0.0
  0
LINE
  5
14506
330
1F
100
AcDbEntity
  8
0
100
AcDbLine
 10
438.8521965613774
 20
210.0627367201613
 30
0.0
 11
436.0673402946753
 21
212.5072450290017
 31
0.0
  0
LINE
  5
14507
330
1F
100
AcDbEntity
  8
0
100
AcDbLine
 10
405.1035313715194
 20
240.2729035996816
 30
0.0
 11
404.0500039941993
 21
241.1976753569414
 31
0.0
  0
LINE
  5
14508
330
1F
100
AcDbEntity
  8
0
100
AcDbLine
 10
435.5530020294767
 20
214.0873971671416
 30
0.0
 11
425.8551495862533
 21
222.6000378888415
 31
0.0
  0
LINE
  5
14509
330
1F
100
AcDbEntity
  8
0
100
AcDbLine
 10
413.0704491358931
 20
234.8004852532016
 30
0.0
 11
406.6474624340201
 21
240.4384941295615
 31
0.0
  0
LINE
  5
1450A
330
1F
100
AcDbEntity
  8
0
100
AcDbLine
 10
440.5235690784186
 20
211.5110391626417
 30
0.0
 11
438.2303485035785
 21
213.5239964600613
 31
0.0
  0
LINE
  5
1450B
330
1F
100
AcDbEntity
  8
0
100
AcDbLine
 10
425.9818392897007
 20
224.4243067701413
 30
0.0
 11
417.4620073479394
 21
231.9028973907816
 31
0.0
  0
LINE
  5
1450C
330
1F
100
AcDbEntity
  8
0
100
AcDbLine
 10
417.665944671838
 20
232.0796161788216
 30
0.0
 11
415.8475687962758
 21
233.6757613685417
 31
0.0
  0
LINE
  5
1450D
330
1F
100
AcDbEntity
  8
0
100
AcDbLine
 10
401.7424149060583
 20
241.1705623530014
 30
0.0
 11
402.4384714514575
 21
241.3302129506414
 31
0.0
  0
LINE
  5
1450E
330
1F
100
AcDbEntity
  8
0
100
AcDbLine
 10
404.4429651437543
 20
240.1214247027414
 30
0.0
 11
405.4373385652155
 21
240.3494511783614
 31
0.0
  0
LINE
  5
1450F
330
1F
100
AcDbEntity
  8
0
100
AcDbLine
 10
420.2645165384394
 20
241.0343949773814
 30
0.0
 11
420.7434079479402
 21
240.9730722196613
 31
0.0
  0
LINE
  5
14510
330
1F
100
AcDbEntity
  8
0
100
AcDbLine
 10
438.1806215672161
 20
214.4809345207813
 30
0.0
 11
428.4827691239963
 21
222.9935752399414
 31
0.0
  0
LINE
  5
14511
330
1F
100
AcDbEntity
  8
0
100
AcDbLine
 10
439.0766726859559
 20
214.2573658137416
 30
0.0
 11
441.0259101743188
 21
212.5463521085216
 31
0.0
  0
LINE
  5
14512
330
1F
100
AcDbEntity
  8
0
100
AcDbLine
 10
439.200802389439
 20
215.3649566999014
 30
0.0
 11
429.5029499487584
 21
223.8775974216014
 31
0.0
  0
LINE
  5
14513
330
1F
100
AcDbEntity
  8
0
100
AcDbLine
 10
427.4403281405588
 20
225.6881381083617
 30
0.0
 11
418.9204961987972
 21
233.1667287290014
 31
0.0
  0
LINE
  5
14514
330
1F
100
AcDbEntity
  8
0
100
AcDbLine
 10
440.2851608303183
 20
214.7045459303016
 30
0.0
 11
440.1088337763188
 21
214.8593233779215
 31
0.0
  0
LINE
  5
14515
330
1F
100
AcDbEntity
  8
0
100
AcDbLine
 10
418.2930024601386
 20
235.7948147301216
 30
0.0
 11
420.455361452657
 21
233.8967259202613
 31
0.0
  0
LINE
  5
14516
330
1F
100
AcDbEntity
  8
0
100
AcDbLine
 10
441.2073430626526
 20
215.9353944566614
 30
0.0
 11
431.5094906194366
 21
224.4480351783613
 31
0.0
  0
LINE
  5
14517
330
1F
100
AcDbEntity
  8
0
100
AcDbLine
 10
418.7646774095967
 20
235.6352551610015
 30
0.0
 11
428.7770952307995
 21
226.8464933024415
 31
0.0
  0
LINE
  5
14518
330
1F
100
AcDbEntity
  8
0
100
AcDbLine
 10
425.2273846898946
 20
201.6564589709013
 30
0.0
 11
425.9681340364379
 21
199.4982651491213
 31
0.0
  0
LINE
  5
14519
330
1F
100
AcDbEntity
  8
0
100
AcDbLine
 10
426.3291731898982
 20
202.6111970411015
 30
0.0
 11
427.0699225338988
 21
200.4530032193215
 31
0.0
  0
LINE
  5
1451A
330
1F
100
AcDbEntity
  8
0
100
AcDbLine
 10
410.9654260942383
 20
245.3231441621214
 30
0.0
 11
418.0436730959566
 21
239.1099568603017
 31
0.0
  0
LINE
  5
1451B
330
1F
100
AcDbEntity
  8
0
100
AcDbLine
 10
430.4292619874188
 20
228.2781532839216
 30
0.0
 11
421.0847828404961
 21
236.4806078137016
 31
0.0
  0
LINE
  5
1451C
330
1F
100
AcDbEntity
  8
0
100
AcDbLine
 10
411.6978232654558
 20
245.1660375980013
 30
0.0
 11
418.3221663057933
 21
239.3512809141015
 31
0.0
  0
LINE
  5
1451D
330
1F
100
AcDbEntity
  8
0
100
AcDbLine
 10
419.9692496003966
 20
239.7307449380013
 30
0.0
 11
431.7311654338968
 21
229.4062979237414
 31
0.0
  0
LINE
  5
1451E
330
1F
100
AcDbEntity
  8
0
100
AcDbLine
 10
408.3480893197786
 20
211.2993062129816
 30
0.0
 11
406.9157642723159
 21
210.0581467217216
 31
0.0
  0
LINE
  5
1451F
330
1F
100
AcDbEntity
  8
0
100
AcDbLine
 10
431.597368619959
 20
231.4456156866016
 30
0.0
 11
432.0365420265964
 21
231.8261747248215
 31
0.0
  0
LINE
  5
14520
330
1F
100
AcDbEntity
  8
0
100
AcDbLine
 10
408.8269807267399
 20
211.2379834578014
 30
0.0
 11
407.394655679281
 21
209.9968239665417
 31
0.0
  0
LINE
  5
14521
330
1F
100
AcDbEntity
  8
0
100
AcDbLine
 10
431.8704254906563
 20
231.2059301436215
 30
0.0
 11
432.5154334335541
 21
231.7648519696417
 31
0.0
  0
LINE
  5
14522
330
1F
100
AcDbEntity
  8
0
100
AcDbLine
 10
419.3424572420966
 20
218.6710512078415
 30
0.0
 11
411.6786147719989
 21
212.0300650435614
 31
0.0
  0
LINE
  5
14523
330
1F
100
AcDbEntity
  8
0
100
AcDbLine
 10
424.0673229663383
 20
222.7653117594613
 30
0.0
 11
431.7311654338968
 21
229.4062979237414
 31
0.0
  0
LINE
  5
14524
330
1F
100
AcDbEntity
  8
0
100
AcDbLine
 10
433.8158509368597
 20
229.4982626013815
 30
0.0
 11
420.7434079479402
 21
240.9730722196613
 31
0.0
  0
LINE
  5
14525
330
1F
100
AcDbEntity
  8
0
100
AcDbLine
 10
434.2846362451576
 20
230.2118702165816
 30
0.0
 11
432.5154334335541
 21
231.7648519696417
 31
0.0
  0
LINE
  5
14526
330
1F
100
AcDbEntity
  8
0
100
AcDbLine
 10
421.0847828404961
 20
236.4806078137016
 30
0.0
 11
419.9692496003966
 21
239.7307449380013
 31
0.0
  0
LINE
  5
14527
330
1F
100
AcDbEntity
  8
0
100
AcDbLine
 10
410.5961835383363
 20
209.6850017047413
 30
0.0
 11
409.1638584908771
 21
208.4438422134816
 31
0.0
  0
LINE
  5
14528
330
1F
100
AcDbEntity
  8
0
100
AcDbLine
 10
433.6396283022561
 20
229.6529483905614
 30
0.0
 11
434.2846362451576
 21
230.2118702165816
 31
0.0
  0
LINE
  5
14529
330
1F
100
AcDbEntity
  8
0
100
AcDbLine
 10
419.5204246255538
 20
217.1107782933413
 30
0.0
 11
411.5597232774974
 21
210.2125535808013
 31
0.0
  0
LINE
  5
1452A
330
1F
100
AcDbEntity
  8
0
100
AcDbLine
 10
425.8551495862533
 20
222.6000378888415
 30
0.0
 11
433.8158509368597
 21
229.4982626013815
 31
0.0
  0
LINE
  5
1452B
330
1F
100
AcDbEntity
  8
0
100
AcDbLine
 10
416.8691085032564
 20
212.9299342141016
 30
0.0
 11
417.8892893280183
 21
213.8139563957615
 31
0.0
  0
LINE
  5
1452C
330
1F
100
AcDbEntity
  8
0
100
AcDbLine
 10
428.4827691239963
 20
222.9935752399414
 30
0.0
 11
429.5029499487584
 21
223.8775974216014
 31
0.0
  0
LINE
  5
1452D
330
1F
100
AcDbEntity
  8
0
100
AcDbLine
 10
440.2178443304558
 20
214.8080522409413
 30
0.0
 11
440.2851608303183
 21
214.7045459303016
 31
0.0
  0
LINE
  5
1452E
330
1F
100
AcDbEntity
  8
0
100
AcDbLine
 10
435.5192184876989
 20
226.6148805144616
 30
0.0
 11
434.9691147288771
 21
226.1381964665615
 31
0.0
  0
LINE
  5
1452F
330
1F
100
AcDbEntity
  8
0
100
AcDbLine
 10
411.8307657808776
 20
206.0880120026217
 30
0.0
 11
410.3984407334186
 21
204.8468525113616
 31
0.0
  0
LINE
  5
14530
330
1F
100
AcDbEntity
  8
0
100
AcDbLine
 10
436.399655202816
 20
221.9702770096814
 30
0.0
 11
433.8158509368597
 21
229.4982626013815
 31
0.0
  0
LINE
  5
14531
330
1F
100
AcDbEntity
  8
0
100
AcDbLine
 10
434.2846362451576
 20
230.2118702165816
 30
0.0
 11
435.5192184876989
 21
226.6148805144616
 31
0.0
  0
LINE
  5
14532
330
1F
100
AcDbEntity
  8
0
100
AcDbLine
 10
436.399655202816
 20
221.9702770096814
 30
0.0
 11
435.3592729020796
 21
221.0687495468013
 31
0.0
  0
LINE
  5
14533
330
1F
100
AcDbEntity
  8
0
100
AcDbLine
 10
418.1993858172948
 20
206.1991103072213
 30
0.0
 11
414.1435275434607
 21
202.6845679916413
 31
0.0
  0
LINE
  5
14534
330
1F
100
AcDbEntity
  8
0
100
AcDbLine
 10
441.0259101743188
 20
212.5463521085216
 30
0.0
 11
440.2851608303183
 21
214.7045459303016
 31
0.0
  0
LINE
  5
14535
330
1F
100
AcDbEntity
  8
0
100
AcDbLine
 10
442.1276986743153
 20
213.5010901787213
 30
0.0
 11
441.3869493277756
 21
215.6592840005013
 31
0.0
  0
LINE
  5
14536
330
1F
100
AcDbEntity
  8
0
100
AcDbLine
 10
429.2182770687771
 20
208.5981375716414
 30
0.0
 11
435.5530020294767
 21
214.0873971671416
 31
0.0
  0
LINE
  5
14537
330
1F
100
AcDbEntity
  8
0
100
AcDbLine
 10
430.8003134678195
 20
209.4856802060016
 30
0.0
 11
434.2267005240985
 21
212.4547638106214
 31
0.0
  0
LINE
  5
14538
330
1F
100
AcDbEntity
  8
0
100
AcDbLine
 10
439.200802389439
 20
215.3649566999014
 30
0.0
 11
438.1806215672161
 21
214.4809345207813
 31
0.0
  0
LINE
  5
14539
330
1F
100
AcDbEntity
  8
0
100
AcDbLine
 10
427.5871417686988
 20
205.3013156740616
 30
0.0
 11
426.5669609464761
 21
204.4172934949414
 31
0.0
  0
LINE
  5
1453A
330
1F
100
AcDbEntity
  8
0
100
AcDbLine
 10
428.5028868028359
 20
205.0948124294613
 30
0.0
 11
426.8315142857947
 21
203.6465099869814
 31
0.0
  0
LINE
  5
1453B
330
1F
100
AcDbEntity
  8
0
100
AcDbLine
 10
437.7939832117166
 20
213.1458707520013
 30
0.0
 11
439.4653557287576
 21
214.5941731919414
 31
0.0
  0
LINE
  5
1453C
330
1F
100
AcDbEntity
  8
0
100
AcDbLine
 10
440.5235690784186
 20
211.5110391626417
 30
0.0
 11
438.8521965613774
 21
210.0627367201613
 31
0.0
  0
LINE
  5
1453D
330
1F
100
AcDbEntity
  8
0
100
AcDbLine
 10
427.8897276354594
 20
200.5633759576816
 30
0.0
 11
429.561100152497
 21
202.0116783976213
 31
0.0
  0
LINE
  5
1453E
330
1F
100
AcDbEntity
  8
0
100
AcDbLine
 10
428.1542809747783
 20
199.7925924497216
 30
0.0
 11
429.1744617969974
 21
200.6766146288414
 31
0.0
  0
LINE
  5
1453F
330
1F
100
AcDbEntity
  8
0
100
AcDbLine
 10
439.7679415955183
 20
209.8562334755615
 30
0.0
 11
440.7881224177375
 21
210.7402556546817
 31
0.0
  0
LINE
  5
14540
330
1F
100
AcDbEntity
  8
0
100
AcDbLine
 10
436.5547698963941
 20
205.6718689436215
 30
0.0
 11
433.1283828401149
 21
202.7027853390013
 31
0.0
  0
LINE
  5
14541
330
1F
100
AcDbEntity
  8
0
100
AcDbLine
 10
438.13680629544
 20
206.5594115779812
 30
0.0
 11
431.8020813347368
 21
201.0701519824815
 31
0.0
  0
ARC
  5
14542
330
1F
100
AcDbEntity
  8
0
100
AcDbCircle
 10
444.5881517163154
 20
115.6343772257213
 30
0.0
 40
97.24688552362
100
AcDbArc
 50
95.02672538591044
 51
95.37550685878947
  0
ARC
  5
14543
330
1F
100
AcDbEntity
  8
0
100
AcDbCircle
 10
470.6107771538166
 20
226.4831527794417
 30
0.0
 40
74.8424777595
100
AcDbArc
 50
173.5514501360993
 51
173.9404780021884
  0
ARC
  5
14544
330
1F
100
AcDbEntity
  8
0
100
AcDbCircle
 10
409.7558830167593
 20
198.2926873240615
 30
0.0
 40
41.98764036034
100
AcDbArc
 50
97.61619308598421
 51
98.52194536031646
  0
ARC
  5
14545
330
1F
100
AcDbEntity
  8
0
100
AcDbCircle
 10
395.1710551277987
 20
248.0629605900216
 30
0.0
 40
22.07563179988
100
AcDbArc
 50
300.9782995369924
 51
301.9758644846829
  0
ARC
  5
14546
330
1F
100
AcDbEntity
  8
0
100
AcDbCircle
 10
405.2375778496728
 20
238.1660073461216
 30
0.0
 40
7.9179199909
100
AcDbArc
 50
323.2162166233012
 51
325.1981667828026
  0
ARC
  5
14547
330
1F
100
AcDbEntity
  8
0
100
AcDbCircle
 10
407.3584690257169
 20
233.1166719304614
 30
0.0
 40
7.495407391679998
100
AcDbArc
 50
112.5320038477026
 51
114.9981943078835
  0
ARC
  5
14548
330
1F
100
AcDbEntity
  8
0
100
AcDbCircle
 10
405.4789525231365
 20
235.6277768726813
 30
0.0
 40
4.611526471619999
100
AcDbArc
 50
102.9808923991994
 51
106.6733903017852
  0
ARC
  5
14549
330
1F
100
AcDbEntity
  8
0
100
AcDbCircle
 10
427.3673968208361
 20
209.4213284525617
 30
0.0
 40
4.585407694799997
100
AcDbArc
 50
282.0726308550805
 51
284.582438958806
  0
ARC
  5
1454A
330
1F
100
AcDbEntity
  8
0
100
AcDbCircle
 10
399.7260459517542
 20
234.2480222103017
 30
0.0
 40
3.541578662319998
100
AcDbArc
 50
174.52854936111
 51
176.2720164373085
  0
LINE
  5
1454B
330
1F
100
AcDbEntity
  8
0
100
AcDbLine
 10
396.1870085797576
 20
234.3792439189014
 30
0.0
 11
396.1868116713389
 21
234.3734338975013
 31
0.0
  0
SPLINE
  5
1454C
330
1F
100
AcDbEntity
  8
0
100
AcDbSpline
210
0.0
220
0.0
230
1.0
 70
     8
 71
     3
 72
    11
 73
     7
 74
     0
 42
0.0000000001
 43
0.0000000001
 40
0.0
 40
0.0
 40
0.0
 40
0.0
 40
0.2843832228
 40
0.5413812826
 40
0.7768785940999999
 40
1.0
 40
1.0
 40
1.0
 40
1.0
 10
396.1868116713389
 20
234.3734338975013
 30
0.0
 10
396.1819382927182
 20
234.2256630424216
 30
0.0
 10
396.192105323434
 20
233.9429820152012
 30
0.0
 10
396.2787664886977
 20
233.5458322176814
 30
0.0
 10
396.4362918759556
 20
233.2050624140815
 30
0.0
 10
396.5902837574589
 20
233.0186715625813
 30
0.0
 10
396.6757248692752
 20
232.9402109270217
 30
0.0
  0
SPLINE
  5
1454D
330
1F
100
AcDbEntity
  8
0
100
AcDbSpline
210
0.0
220
0.0
230
1.0
 70
     8
 71
     3
 72
    15
 73
    11
 74
     0
 42
0.0000000001
 43
0.0000000001
 40
0.0
 40
0.0
 40
0.0
 40
0.0
 40
0.105774482
 40
0.2273158585
 40
0.3605654095
 40
0.5000040216000002
 40
0.6394420984
 40
0.7726898349
 40
0.8942283790999997
 40
1.0
 40
1.0
 40
1.0
 40
1.0
 10
396.2297782097389
 20
234.8905120099015
 30
0.0
 10
396.2592004394368
 20
235.1976514591214
 30
0.0
 10
396.4091467105367
 20
235.8496139067815
 30
0.0
 10
396.8204215369564
 20
236.8213858875414
 30
0.0
 10
397.4129780074194
 20
237.8108947060813
 30
0.0
 10
398.1535724190375
 20
238.7613867294016
 30
0.0
 10
399.0000639899603
 20
239.6189154232815
 30
0.0
 10
399.9044259810775
 20
240.3346981903414
 30
0.0
 10
400.8146881153383
 20
240.8684274353017
 30
0.0
 10
401.4417099194554
 20
241.1015786123816
 30
0.0
 10
401.7424383858172
 20
241.1705536077815
 30
0.0
  0
SPLINE
  5
1454E
330
1F
100
AcDbEntity
  8
0
100
AcDbSpline
210
0.0
220
0.0
230
1.0
 70
     8
 71
     3
 72
    14
 73
    10
 74
     0
 42
0.0000000001
 43
0.0000000001
 40
0.0
 40
0.0
 40
0.0
 40
0.0
 40
0.085970299
 40
0.1785606322
 40
0.2825429285
 40
0.4003426014000002
 40
0.5324331266
 40
0.6778389072
 40
1.0
 40
1.0
 40
1.0
 40
1.0
 10
426.1476498242166
 20
199.2222312409415
 30
0.0
 10
426.195837789813
 20
199.1799189913016
 30
0.0
 10
426.3118366611973
 20
199.1088809799615
 30
0.0
 10
426.5193376355759
 20
199.0590032692015
 30
0.0
 10
426.7557037643176
 20
199.0621004715416
 30
0.0
 10
427.0153028463368
 20
199.1163432231014
 30
0.0
 10
427.2924624469571
 20
199.2196367173014
 30
0.0
 10
427.6900717126967
 20
199.4262247242412
 30
0.0
 10
427.9726691307343
 20
199.6352194675413
 30
0.0
 10
428.1542809747783
 20
199.7925924497216
 30
0.0
  0
SPLINE
  5
1454F
330
1F
100
AcDbEntity
  8
0
100
AcDbSpline
210
0.0
220
0.0
230
1.0
 70
     8
 71
     3
 72
    10
 73
     6
 74
     0
 42
0.0000000001
 43
0.0000000001
 40
0.0
 40
0.0
 40
0.0
 40
0.0
 40
0.52305649
 40
0.7684725907
 40
1.0
 40
1.0
 40
1.0
 40
1.0
 10
438.13680629544
 20
206.5594115779812
 30
0.0
 10
438.4954403305139
 20
207.0933489429216
 30
0.0
 10
438.9771217166575
 20
207.9106834093412
 30
0.0
 10
439.4843623125356
 20
209.0317751219413
 30
0.0
 10
439.6837549287351
 20
209.5842563410815
 30
0.0
 10
439.7679415955183
 20
209.8562334755615
 30
0.0
  0
SPLINE
  5
14550
330
1F
100
AcDbEntity
  8
0
100
AcDbSpline
210
0.0
220
0.0
230
1.0
 70
     8
 71
     3
 72
    10
 73
     6
 74
     0
 42
0.0000000001
 43
0.0000000001
 40
0.0
 40
0.0
 40
0.0
 40
0.0
 40
0.4542315432
 40
0.7155377838
 40
1.0
 40
1.0
 40
1.0
 40
1.0
 10
429.1744617969974
 20
200.6766146288414
 30
0.0
 10
429.5742209619177
 20
200.6031418547813
 30
0.0
 10
430.2294124125195
 20
200.6209022307416
 30
0.0
 10
431.1026215931973
 20
200.8160736844415
 30
0.0
 10
431.5656140047771
 20
200.9759452112816
 30
0.0
 10
431.8020813347368
 20
201.0701519824815
 30
0.0
  0
SPLINE
  5
14551
330
1F
100
AcDbEntity
  8
0
100
AcDbSpline
210
0.0
220
0.0
230
1.0
 70
     8
 71
     3
 72
     9
 73
     5
 74
     0
 42
0.0000000001
 43
0.0000000001
 40
0.0
 40
0.0
 40
0.0
 40
0.0
 40
0.5133055930000002
 40
1.0
 40
1.0
 40
1.0
 40
1.0
 10
441.3869493277756
 20
215.6592840005013
 30
0.0
 10
441.3685015719396
 20
215.7130320515015
 30
0.0
 10
441.3208741005195
 20
215.8143478280416
 30
0.0
 10
441.2479206294569
 20
215.8997675403615
 30
0.0
 10
441.2074335399968
 20
215.9353179086815
 30
0.0
  0
SPLINE
  5
14552
330
1F
100
AcDbEntity
  8
0
100
AcDbSpline
210
0.0
220
0.0
230
1.0
 70
     8
 71
     3
 72
    15
 73
    11
 74
     0
 42
0.0000000001
 43
0.0000000001
 40
0.0
 40
0.0
 40
0.0
 40
0.0
 40
0.1451090836
 40
0.2919277673
 40
0.4361107757
 40
0.5736053873
 40
0.700777786
 40
0.8148515418999997
 40
0.9144029378
 40
1.0
 40
1.0
 40
1.0
 40
1.0
 10
440.7881224177375
 20
210.7402556546817
 30
0.0
 10
440.9052599736544
 20
210.8417594242414
 30
0.0
 10
441.1305647630809
 20
211.0581879398214
 30
0.0
 10
441.4346949091971
 20
211.4119105699414
 30
0.0
 10
441.6988512541369
 20
211.7866011896216
 30
0.0
 10
441.9131703378163
 20
212.1680813893216
 30
0.0
 10
442.0697314851944
 20
212.5422318983214
 30
0.0
 10
442.1628362748573
 20
212.8957228575813
 30
0.0
 10
442.1889908351999
 20
213.2161638626216
 30
0.0
 10
442.1573802405559
 20
213.4146121068215
 30
0.0
 10
442.1276986743153
 20
213.5010901787213
 30
0.0
  0
SPLINE
  5
14553
330
1F
100
AcDbEntity
  8
0
100
AcDbSpline
210
0.0
220
0.0
230
1.0
 70
     8
 71
     3
 72
    13
 73
     9
 74
     0
 42
0.0000000001
 43
0.0000000001
 40
0.0
 40
0.0
 40
0.0
 40
0.0
 40
0.3223361956
 40
0.5994237002000001
 40
0.7173032192000001
 40
0.8213419346999998
 40
0.9139685606
 40
1.0
 40
1.0
 40
1.0
 40
1.0
 10
439.4653557287576
 20
214.5941731919414
 30
0.0
 10
439.5334609951363
 20
214.6531887762216
 30
0.0
 10
439.6689364290371
 20
214.7532331964016
 30
0.0
 10
439.852644974498
 20
214.8393348657013
 30
0.0
 10
439.9898157948967
 20
214.8681289280015
 30
0.0
 10
440.0784605299754
 20
214.8692630253016
 30
0.0
 10
440.1562703591165
 20
214.8505639745617
 30
0.0
 10
440.1997785347388
 20
214.8239312236614
 30
0.0
 10
440.2178471777964
 20
214.8080554819816
 30
0.0
  0
SPLINE
  5
14554
330
1F
100
AcDbEntity
  8
0
100
AcDbSpline
210
0.0
220
0.0
230
1.0
 70
     8
 71
     3
 72
    13
 73
     9
 74
     0
 42
0.0000000001
 43
0.0000000001
 40
0.0
 40
0.0
 40
0.0
 40
0.0
 40
0.3023211842
 40
0.5693165642000002
 40
0.6891688903000001
 40
0.8002145554
 40
0.9033696185
 40
1.0
 40
1.0
 40
1.0
 40
1.0
 10
434.2267005240985
 20
212.4547638106214
 30
0.0
 10
434.5544592386553
 20
212.6418717066616
 30
0.0
 10
435.1938266670562
 20
212.9576547733412
 30
0.0
 10
436.0203166574587
 20
213.2152463638216
 30
0.0
 10
436.6369382436182
 20
213.3028565823014
 30
0.0
 10
437.0551325659773
 20
213.3106438540016
 30
0.0
 10
437.44158658098
 20
213.2624980803416
 30
0.0
 10
437.6821310859208
 20
213.1910436309217
 30
0.0
 10
437.7939832117166
 20
213.1458707520013
 30
0.0
  0
SPLINE
  5
14555
330
1F
100
AcDbEntity
  8
0
100
AcDbSpline
210
0.0
220
0.0
230
1.0
 70
     8
 71
     3
 72
    11
 73
     7
 74
     0
 42
0.0000000001
 43
0.0000000001
 40
0.0
 40
0.0
 40
0.0
 40
0.0
 40
0.2208333563
 40
0.4651620737
 40
0.7272571272000002
 40
1.0
 40
1.0
 40
1.0
 40
1.0
 10
428.5028868028359
 20
205.0948124294613
 30
0.0
 10
428.5787972682348
 20
205.4547456288214
 30
0.0
 10
428.8060748299407
 20
206.1991779347217
 30
0.0
 10
429.3103170472581
 20
207.3035317255016
 30
0.0
 10
429.9786555708791
 20
208.4188960733813
 30
0.0
 10
430.5118880223175
 20
209.1346585102814
 30
0.0
 10
430.8003134678195
 20
209.4856802060016
 30
0.0
  0
SPLINE
  5
14556
330
1F
100
AcDbEntity
  8
0
100
AcDbSpline
210
0.0
220
0.0
230
1.0
 70
     8
 71
     3
 72
    12
 73
     8
 74
     0
 42
0.0000000001
 43
0.0000000001
 40
0.0
 40
0.0
 40
0.0
 40
0.0
 40
0.2922073886
 40
0.5740855995000002
 40
0.7015280011
 40
0.8158279722999999
 40
1.0
 40
1.0
 40
1.0
 40
1.0
 10
426.8315142857947
 20
203.6465099869814
 30
0.0
 10
426.7432439162343
 20
203.5700206428813
 30
0.0
 10
426.5848002529395
 20
203.4018614719616
 30
0.0
 10
426.4319835456165
 20
203.1644511619214
 30
0.0
 10
426.3508691053552
 20
202.9705437011215
 30
0.0
 10
426.3075146251333
 20
202.8064330133415
 30
0.0
 10
426.3052745127763
 20
202.6808264954415
 30
0.0
 10
426.3291731898982
 20
202.6111970411015
 30
0.0
  0
SPLINE
  5
14557
330
1F
100
AcDbEntity
  8
0
100
AcDbSpline
210
0.0
220
0.0
230
1.0
 70
     8
 71
     3
 72
     9
 73
     5
 74
     0
 42
0.0000000001
 43
0.0000000001
 40
0.0
 40
0.0
 40
0.0
 40
0.0
 40
0.4860442843000001
 40
1.0
 40
1.0
 40
1.0
 40
1.0
 10
398.1352252116352
 20
234.2053286685613
 30
0.0
 10
398.270956710557
 20
234.5187988950614
 30
0.0
 10
398.588244996475
 20
235.1476186000813
 30
0.0
 10
398.965704884174
 20
235.7417864338417
 30
0.0
 10
399.1727684095944
 20
236.0377555853614
 30
0.0
  0
SPLINE
  5
14558
330
1F
100
AcDbEntity
  8
0
100
AcDbSpline
210
0.0
220
0.0
230
1.0
 70
     8
 71
     3
 72
     9
 73
     5
 74
     0
 42
0.0000000001
 43
0.0000000001
 40
0.0
 40
0.0
 40
0.0
 40
0.0
 40
0.2584218349
 40
1.0
 40
1.0
 40
1.0
 40
1.0
 10
403.5338464311364
 20
239.8167814359816
 30
0.0
 10
403.5862494581573
 20
239.8394641592216
 30
0.0
 10
403.7901843461963
 20
239.9245209741215
 30
0.0
 10
403.9988440990576
 20
239.9984607983014
 30
0.0
 10
404.1558334066151
 20
240.0454156320015
 30
0.0
  0
SPLINE
  5
14559
330
1F
100
AcDbEntity
  8
0
100
AcDbSpline
210
0.0
220
0.0
230
1.0
 70
     8
 71
     3
 72
    11
 73
     7
 74
     0
 42
0.0000000001
 43
0.0000000001
 40
0.0
 40
0.0
 40
0.0
 40
0.0
 40
0.2017107603
 40
0.4385210327000002
 40
0.7071394140000002
 40
1.0
 40
1.0
 40
1.0
 40
1.0
 10
420.455361452657
 20
233.8967259202613
 30
0.0
 10
420.3390299962168
 20
233.8973733230813
 30
0.0
 10
420.0858567052576
 20
233.8572118514616
 30
0.0
 10
419.7039201615383
 20
233.7090351932815
 30
0.0
 10
419.3049653917563
 20
233.4760539726816
 30
0.0
 10
419.0481422071546
 20
233.2773384366614
 30
0.0
 10
418.9204961987972
 20
233.1667287290014
 30
0.0
  0
SPLINE
  5
1455A
330
1F
100
AcDbEntity
  8
0
100
AcDbSpline
210
0.0
220
0.0
230
1.0
 70
     8
 71
     3
 72
     9
 73
     5
 74
     0
 42
0.0000000001
 43
0.0000000001
 40
0.0
 40
0.0
 40
0.0
 40
0.0
 40
0.2312853091
 40
1.0
 40
1.0
 40
1.0
 40
1.0
 10
406.6474624340201
 20
240.4384941295615
 30
0.0
 10
406.5542561967571
 20
240.4491053072215
 30
0.0
 10
406.1488091869771
 20
240.4735567899415
 30
0.0
 10
405.7412415311931
 20
240.4191538736017
 30
0.0
 10
405.4373425961943
 20
240.3494633017817
 30
0.0
  0
SPLINE
  5
1455B
330
1F
100
AcDbEntity
  8
0
100
AcDbSpline
210
0.0
220
0.0
230
1.0
 70
     8
 71
     3
 72
    11
 73
     7
 74
     0
 42
0.0000000001
 43
0.0000000001
 40
0.0
 40
0.0
 40
0.0
 40
0.0
 40
0.2342388848
 40
0.4851412767000002
 40
0.7436408325000002
 40
1.0
 40
1.0
 40
1.0
 40
1.0
 10
405.0692535355749
 20
220.5641280490617
 30
0.0
 10
405.1296152715997
 20
220.7141749854411
 30
0.0
 10
405.2784260179153
 20
221.0156147000616
 30
0.0
 10
405.5603616973797
 20
221.4459808649817
 30
0.0
 10
405.89764240712
 20
221.8544644549214
 30
0.0
 10
406.1528842131203
 20
222.1031486921214
 30
0.0
 10
406.2866547558344
 20
222.2190655240414
 30
0.0
  0
SPLINE
  5
1455C
330
1F
100
AcDbEntity
  8
0
100
AcDbSpline
210
0.0
220
0.0
230
1.0
 70
     8
 71
     3
 72
    11
 73
     7
 74
     0
 42
0.0000000001
 43
0.0000000001
 40
0.0
 40
0.0
 40
0.0
 40
0.0
 40
0.2196581133
 40
0.4560583586
 40
0.7150067831999999
 40
1.0
 40
1.0
 40
1.0
 40
1.0
 10
404.049997283518
 20
241.1976812472016
 30
0.0
 10
403.9448524569792
 20
241.2574694207414
 30
0.0
 10
403.7100622001138
 20
241.3540408303415
 30
0.0
 10
403.3195388790566
 20
241.4210394974615
 30
0.0
 10
402.8879055665542
 20
241.4149122935613
 30
0.0
 10
402.5914288061953
 20
241.3652733174016
 30
0.0
 10
402.4384670267767
 20
241.3301989171413
 30
0.0
  0
SPLINE
  5
1455D
330
1F
100
AcDbEntity
  8
0
100
AcDbSpline
210
0.0
220
0.0
230
1.0
 70
     8
 71
     3
 72
    14
 73
    10
 74
     0
 42
0.0000000001
 43
0.0000000001
 40
0.0
 40
0.0
 40
0.0
 40
0.0
 40
0.3221610928
 40
0.4675668734000002
 40
0.5996573986
 40
0.7174570715000002
 40
0.8214393678
 40
0.9140297010000001
 40
1.0
 40
1.0
 40
1.0
 40
1.0
 10
429.5029499487584
 20
223.8775974216014
 30
0.0
 10
429.6845617902594
 20
224.0349704012414
 30
0.0
 10
429.9671592083007
 20
224.2439651470817
 30
0.0
 10
430.3647684740366
 20
224.4505531540216
 30
0.0
 10
430.6419280746571
 20
224.5538466456814
 30
0.0
 10
430.9015271566762
 20
224.6080893972416
 30
0.0
 10
431.137893285418
 20
224.6111865995817
 30
0.0
 10
431.3453942623395
 20
224.5613088888216
 30
0.0
 10
431.4613931337166
 20
224.4902708800213
 30
0.0
 10
431.5095810967807
 20
224.4479586278416
 30
0.0
  0
SPLINE
  5
1455E
330
1F
100
AcDbEntity
  8
0
100
AcDbSpline
210
0.0
220
0.0
230
1.0
 70
     8
 71
     3
 72
    10
 73
     6
 74
     0
 42
0.0000000001
 43
0.0000000001
 40
0.0
 40
0.0
 40
0.0
 40
0.0
 40
0.2844622162
 40
0.5457684568
 40
1.0
 40
1.0
 40
1.0
 40
1.0
 10
425.8551495862533
 20
222.6000378888415
 30
0.0
 10
426.0916169162168
 20
222.6942446600414
 30
0.0
 10
426.5546093303395
 20
222.8541161868815
 30
0.0
 10
427.427818508478
 20
223.0492876405814
 30
0.0
 10
428.0830099590761
 20
223.0670480165417
 30
0.0
 10
428.4827691239963
 20
222.9935752399414
 30
0.0
  0
SPLINE
  5
1455F
330
1F
100
AcDbEntity
  8
0
100
AcDbSpline
210
0.0
220
0.0
230
1.0
 70
     8
 71
     3
 72
     9
 73
     5
 74
     0
 42
0.0000000001
 43
0.0000000001
 40
0.0
 40
0.0
 40
0.0
 40
0.0
 40
0.2380887111
 40
1.0
 40
1.0
 40
1.0
 40
1.0
 10
405.4373425961943
 20
240.3494633017817
 30
0.0
 10
405.359918869913
 20
240.3317083741216
 30
0.0
 10
405.0365492067807
 20
240.2492488387615
 30
0.0
 10
404.7210420831592
 20
240.1372898526214
 30
0.0
 10
404.486233213179
 20
240.0399221352413
 30
0.0
  0
SPLINE
  5
14560
330
1F
100
AcDbEntity
  8
0
100
AcDbSpline
210
0.0
220
0.0
230
1.0
 70
     8
 71
     3
 72
    11
 73
     7
 74
     0
 42
0.0000000001
 43
0.0000000001
 40
0.0
 40
0.0
 40
0.0
 40
0.0
 40
0.2727427715
 40
0.5348379913
 40
0.7791666648000001
 40
1.0
 40
1.0
 40
1.0
 40
1.0
 10
433.7699136220774
 20
208.1163772600816
 30
0.0
 10
434.0583389583528
 20
208.4673988237213
 30
0.0
 10
434.5915707951184
 20
209.1831617737015
 30
0.0
 10
435.2599111703942
 20
210.2985251259014
 30
0.0
 10
435.764151546214
 20
211.4028799555416
 30
0.0
 10
435.9914298292762
 20
212.1473118702815
 30
0.0
 10
436.0673402870573
 20
212.5072450366214
 30
0.0
  0
SPLINE
  5
14561
330
1F
100
AcDbEntity
  8
0
100
AcDbSpline
210
0.0
220
0.0
230
1.0
 70
     8
 71
     3
 72
    13
 73
     9
 74
     0
 42
0.0000000001
 43
0.0000000001
 40
0.0
 40
0.0
 40
0.0
 40
0.0
 40
0.1068382895
 40
0.2219094038
 40
0.3439176278
 40
0.471405329
 40
0.7356505798999999
 40
1.0
 40
1.0
 40
1.0
 40
1.0
 10
435.4777993604779
 20
212.4535810215215
 30
0.0
 10
435.4221125681154
 20
212.2182649313216
 30
0.0
 10
435.2775282598753
 20
211.7361058600813
 30
0.0
 10
434.9832138040558
 20
211.0144573389415
 30
0.0
 10
434.6079982578169
 20
210.2785143836017
 30
0.0
 10
434.0020807117191
 20
209.2849903940213
 30
0.0
 10
433.0956928191384
 20
208.1027438329415
 30
0.0
 10
432.2467913012964
 20
207.2537324829613
 30
0.0
 10
431.7946159724755
 20
206.8619068277016
 30
0.0
  0
SPLINE
  5
14562
330
1F
100
AcDbEntity
  8
0
100
AcDbSpline
210
0.0
220
0.0
230
1.0
 70
     8
 71
     3
 72
     9
 73
     5
 74
     0
 42
0.0000000001
 43
0.0000000001
 40
0.0
 40
0.0
 40
0.0
 40
0.0
 40
0.5133055930000002
 40
1.0
 40
1.0
 40
1.0
 40
1.0
 10
425.9681340364379
 20
199.4982651491213
 30
0.0
 10
425.986581792274
 20
199.4445170981214
 30
0.0
 10
426.0342092636976
 20
199.3432013215814
 30
0.0
 10
426.1071627347567
 20
199.2577816092615
 30
0.0
 10
426.1476498242166
 20
199.2222312409415
 30
0.0
  0
SPLINE
  5
14563
330
1F
100
AcDbEntity
  8
0
100
AcDbSpline
210
0.0
220
0.0
230
1.0
 70
     8
 71
     3
 72
    15
 73
    11
 74
     0
 42
0.0000000001
 43
0.0000000001
 40
0.0
 40
0.0
 40
0.0
 40
0.0
 40
0.1451090836
 40
0.2919277673
 40
0.4361107757
 40
0.5736053873
 40
0.700777786
 40
0.8148515418999997
 40
0.9144029378
 40
1.0
 40
1.0
 40
1.0
 40
1.0
 10
426.5669609464761
 20
204.4172934949414
 30
0.0
 10
426.4498233905591
 20
204.3157897253813
 30
0.0
 10
426.2245186011399
 20
204.0993612098013
 30
0.0
 10
425.9203884550201
 20
203.7456385796817
 30
0.0
 10
425.6562321100767
 20
203.3709479600015
 30
0.0
 10
425.4419130263971
 20
202.9894677603014
 30
0.0
 10
425.2853518790154
 20
202.6153172513013
 30
0.0
 10
425.1922470893563
 20
202.2618262920413
 30
0.0
 10
425.1660925290174
 20
201.9413852870015
 30
0.0
 10
425.1977031236576
 20
201.7429370428016
 30
0.0
 10
425.2273846898946
 20
201.6564589709013
 30
0.0
  0
SPLINE
  5
14564
330
1F
100
AcDbEntity
  8
0
100
AcDbSpline
210
0.0
220
0.0
230
1.0
 70
     8
 71
     3
 72
    10
 73
     6
 74
     0
 42
0.0000000001
 43
0.0000000001
 40
0.0
 40
0.0
 40
0.0
 40
0.0
 40
0.52305649
 40
0.7684725907
 40
1.0
 40
1.0
 40
1.0
 40
1.0
 10
429.2182770687771
 20
208.5981375716414
 30
0.0
 10
428.8596430336959
 20
208.0642002067015
 30
0.0
 10
428.3779616475562
 20
207.2468657402814
 30
0.0
 10
427.8707210516743
 20
206.1257740276814
 30
0.0
 10
427.6713284354748
 20
205.5732928085416
 30
0.0
 10
427.5871417686988
 20
205.3013156740616
 30
0.0
  0
SPLINE
  5
14565
330
1F
100
AcDbEntity
  8
0
100
AcDbSpline
210
0.0
220
0.0
230
1.0
 70
     8
 71
     3
 72
    10
 73
     6
 74
     0
 42
0.0000000001
 43
0.0000000001
 40
0.0
 40
0.0
 40
0.0
 40
0.0
 40
0.4542315432
 40
0.7155377838
 40
1.0
 40
1.0
 40
1.0
 40
1.0
 10
438.1806215672161
 20
214.4809345207813
 30
0.0
 10
437.7808624022994
 20
214.5544072948414
 30
0.0
 10
437.1256709516941
 20
214.5366469188815
 30
0.0
 10
436.2524617710199
 20
214.3414754651816
 30
0.0
 10
435.7894693594364
 20
214.1816039383415
 30
0.0
 10
435.5530020294767
 20
214.0873971671416
 30
0.0
  0
SPLINE
  5
14566
330
1F
100
AcDbEntity
  8
0
100
AcDbSpline
210
0.0
220
0.0
230
1.0
 70
     8
 71
     3
 72
    11
 73
     7
 74
     0
 42
0.0000000001
 43
0.0000000001
 40
0.0
 40
0.0
 40
0.0
 40
0.0
 40
0.2775010496
 40
0.5395709032
 40
0.7815028502
 40
1.0
 40
1.0
 40
1.0
 40
1.0
 10
431.7946159724755
 20
206.8619068277016
 30
0.0
 10
431.528780179536
 20
206.6315508622014
 30
0.0
 10
430.9925598651329
 20
206.2052637569413
 30
0.0
 10
430.1610376470538
 20
205.6637746494215
 30
0.0
 10
429.3425328400748
 20
205.2487573412813
 30
0.0
 10
428.7899316948363
 20
205.0533178617015
 30
0.0
 10
428.5218775065381
 20
204.9836333198413
 30
0.0
  0
SPLINE
  5
14567
330
1F
100
AcDbEntity
  8
0
100
AcDbSpline
210
0.0
220
0.0
230
1.0
 70
     8
 71
     3
 72
    12
 73
     8
 74
     0
 42
0.0000000001
 43
0.0000000001
 40
0.0
 40
0.0
 40
0.0
 40
0.0
 40
0.1841720277
 40
0.2984719989
 40
0.4259144005
 40
0.7077926114000001
 40
1.0
 40
1.0
 40
1.0
 40
1.0
 10
441.0259101743188
 20
212.5463521085216
 30
0.0
 10
441.0498088514372
 20
212.4767226541816
 30
0.0
 10
441.0475687390766
 20
212.3511161362816
 30
0.0
 10
441.0042142588585
 20
212.1870054485015
 30
0.0
 10
440.9230998185933
 20
211.9930979877016
 30
0.0
 10
440.7702831112741
 20
211.7556876776615
 30
0.0
 10
440.6118394479756
 20
211.5875285067413
 30
0.0
 10
440.5235690784186
 20
211.5110391626417
 30
0.0
  0
SPLINE
  5
14568
330
1F
100
AcDbEntity
  8
0
100
AcDbSpline
210
0.0
220
0.0
230
1.0
 70
     8
 71
     3
 72
     9
 73
     5
 74
     0
 42
0.0000000001
 43
0.0000000001
 40
0.0
 40
0.0
 40
0.0
 40
0.0
 40
0.4938105720000002
 40
1.0
 40
1.0
 40
1.0
 40
1.0
 10
430.3435265657983
 20
205.1472936554614
 30
0.0
 10
430.5396691046746
 20
205.4619684363214
 30
0.0
 10
430.9785192302781
 20
206.0746575309817
 30
0.0
 10
431.507363963797
 20
206.6129929668813
 30
0.0
 10
431.7946159724755
 20
206.8619068277016
 30
0.0
  0
SPLINE
  5
14569
330
1F
100
AcDbEntity
  8
0
100
AcDbSpline
210
0.0
220
0.0
230
1.0
 70
     8
 71
     3
 72
    11
 73
     7
 74
     0
 42
0.0000000001
 43
0.0000000001
 40
0.0
 40
0.0
 40
0.0
 40
0.0
 40
0.2135853929
 40
0.4516212925
 40
0.7143097966
 40
1.0
 40
1.0
 40
1.0
 40
1.0
 10
427.5931253279789
 20
204.2980014145013
 30
0.0
 10
427.8002440094982
 20
204.2928702106414
 30
0.0
 10
428.2397510273561
 20
204.3280019717216
 30
0.0
 10
428.9150600526567
 20
204.4921960273813
 30
0.0
 10
429.6287348787966
 20
204.7665295579613
 30
0.0
 10
430.1028565518365
 20
205.0099021598616
 30
0.0
 10
430.3435265657983
 20
205.1472936554614
 30
0.0
  0
SPLINE
  5
1456A
330
1F
100
AcDbEntity
  8
0
100
AcDbSpline
210
0.0
220
0.0
230
1.0
 70
     8
 71
     3
 72
    13
 73
     9
 74
     0
 42
0.0000000001
 43
0.0000000001
 40
0.0
 40
0.0
 40
0.0
 40
0.0
 40
0.3023211842
 40
0.5693165642000002
 40
0.6891688903000001
 40
0.8002145554
 40
0.9033696185
 40
1.0
 40
1.0
 40
1.0
 40
1.0
 10
433.1283828401149
 20
202.7027853390013
 30
0.0
 10
432.8006241255546
 20
202.5156774429615
 30
0.0
 10
432.1612566971573
 20
202.1998943762814
 30
0.0
 10
431.3347667067587
 20
201.9423027858014
 30
0.0
 10
430.7181451205955
 20
201.8546925673217
 30
0.0
 10
430.2999507982361
 20
201.8469052956215
 30
0.0
 10
429.9134967832408
 20
201.8950510692815
 30
0.0
 10
429.6729522783
 20
201.9665055187014
 30
0.0
 10
429.561100152497
 20
202.0116783976213
 30
0.0
  0
SPLINE
  5
1456B
330
1F
100
AcDbEntity
  8
0
100
AcDbSpline
210
0.0
220
0.0
230
1.0
 70
     8
 71
     3
 72
    11
 73
     7
 74
     0
 42
0.0000000001
 43
0.0000000001
 40
0.0
 40
0.0
 40
0.0
 40
0.0
 40
0.2208333563
 40
0.4651620737
 40
0.7272571272000002
 40
1.0
 40
1.0
 40
1.0
 40
1.0
 10
438.8521965613774
 20
210.0627367201613
 30
0.0
 10
438.776286095975
 20
209.7028035208013
 30
0.0
 10
438.5490085342802
 20
208.9583712149014
 30
0.0
 10
438.0447663169555
 20
207.8540174241215
 30
0.0
 10
437.3764277933381
 20
206.7386530762414
 30
0.0
 10
436.8431953418961
 20
206.0228906393417
 30
0.0
 10
436.5547698963941
 20
205.6718689436215
 30
0.0
  0
SPLINE
  5
1456C
330
1F
100
AcDbEntity
  8
0
100
AcDbSpline
210
0.0
220
0.0
230
1.0
 70
     8
 71
     3
 72
    14
 73
    10
 74
     0
 42
0.0000000001
 43
0.0000000001
 40
0.0
 40
0.0
 40
0.0
 40
0.0
 40
0.085970299
 40
0.1785606322
 40
0.2825429285
 40
0.4003426014000002
 40
0.5324331266
 40
0.6778389072
 40
1.0
 40
1.0
 40
1.0
 40
1.0
 10
441.2074335399968
 20
215.9353179086815
 30
0.0
 10
441.1592455743969
 20
215.9776301583214
 30
0.0
 10
441.0432467030163
 20
216.0486681696615
 30
0.0
 10
440.8357457286378
 20
216.0985458804216
 30
0.0
 10
440.5993795998996
 20
216.0954486780815
 30
0.0
 10
440.3397805178731
 20
216.0412059265217
 30
0.0
 10
440.0626209172563
 20
215.9379124323212
 30
0.0
 10
439.6650116515168
 20
215.7313244253813
 30
0.0
 10
439.3824142334755
 20
215.5223296820813
 30
0.0
 10
439.200802389439
 20
215.3649566999014
 30
0.0
  0
SPLINE
  5
1456D
330
1F
100
AcDbEntity
  8
0
100
AcDbSpline
210
0.0
220
0.0
230
1.0
 70
     8
 71
     3
 72
     9
 73
     5
 74
     0
 42
0.0000000001
 43
0.0000000001
 40
0.0
 40
0.0
 40
0.0
 40
0.0
 40
0.4866944070000001
 40
1.0
 40
1.0
 40
1.0
 40
1.0
 10
416.449797380997
 20
207.7348719626415
 30
0.0
 10
416.4093102915369
 20
207.7704223309615
 30
0.0
 10
416.3363568230173
 20
207.8558420432814
 30
0.0
 10
416.2887293515971
 20
207.9571578198215
 30
0.0
 10
416.2702815932183
 20
208.0109058708216
 30
0.0
  0
SPLINE
  5
1456E
330
1F
100
AcDbEntity
  8
0
100
AcDbSpline
210
0.0
220
0.0
230
1.0
 70
     8
 71
     3
 72
    10
 73
     6
 74
     0
 42
0.0000000001
 43
0.0000000001
 40
0.0
 40
0.0
 40
0.0
 40
0.0
 40
0.2315274093
 40
0.47694351
 40
1.0
 40
1.0
 40
1.0
 40
1.0
 10
417.8892893280183
 20
213.8139563957615
 30
0.0
 10
417.9734759922588
 20
214.0859335302415
 30
0.0
 10
418.1728686084583
 20
214.6384147493813
 30
0.0
 10
418.6801092043364
 20
215.7595064619813
 30
0.0
 10
419.1617905904726
 20
216.5768409284014
 30
0.0
 10
419.5204246255538
 20
217.1107782933413
 30
0.0
  0
SPLINE
  5
1456F
330
1F
100
AcDbEntity
  8
0
100
AcDbSpline
210
0.0
220
0.0
230
1.0
 70
     8
 71
     3
 72
    15
 73
    11
 74
     0
 42
0.0000000001
 43
0.0000000001
 40
0.0
 40
0.0
 40
0.0
 40
0.0
 40
0.0855970622
 40
0.1851484581
 40
0.299222214
 40
0.4263946127000002
 40
0.5638892243
 40
0.7080722327000001
 40
0.8548909164000001
 40
1.0
 40
1.0
 40
1.0
 40
1.0
 10
415.5295322492178
 20
210.1690996900615
 30
0.0
 10
415.4998506804379
 20
210.2555777645015
 30
0.0
 10
415.4682400857939
 20
210.4540260087014
 30
0.0
 10
415.4943946461364
 20
210.7744670112015
 30
0.0
 10
415.5874994357994
 20
211.1279579730016
 30
0.0
 10
415.7440605857166
 20
211.5021084820013
 30
0.0
 10
415.9583796668606
 20
211.8835886817013
 30
0.0
 10
416.2225360143358
 20
212.2582793013816
 30
0.0
 10
416.5266661579165
 20
212.6120019315016
 30
0.0
 10
416.751970949875
 20
212.8284304470816
 30
0.0
 10
416.8691085032564
 20
212.9299342141016
 30
0.0
  0
SPLINE
  5
14570
330
1F
100
AcDbEntity
  8
0
100
AcDbSpline
210
0.0
220
0.0
230
1.0
 70
     8
 71
     3
 72
    10
 73
     6
 74
     0
 42
0.0000000001
 43
0.0000000001
 40
0.0
 40
0.0
 40
0.0
 40
0.0
 40
0.5255910635000001
 40
0.766458926
 40
1.0
 40
1.0
 40
1.0
 40
1.0
 10
418.2930024601386
 20
235.7948147301216
 30
0.0
 10
418.3819317539576
 20
235.7943198212815
 30
0.0
 10
418.5135124407546
 20
235.7766653404614
 30
0.0
 10
418.6691246060338
 20
235.7080324652815
 30
0.0
 10
418.7351621269966
 20
235.6612044766415
 30
0.0
 10
418.7648471298573
 20
235.6351224739414
 30
0.0
  0
SPLINE
  5
14571
330
1F
100
AcDbEntity
  8
0
100
AcDbSpline
210
0.0
220
0.0
230
1.0
 70
     8
 71
     3
 72
    11
 73
     7
 74
     0
 42
0.0000000001
 43
0.0000000001
 40
0.0
 40
0.0
 40
0.0
 40
0.0
 40
0.2941919962
 40
0.5594409012
 40
0.7940340425
 40
1.0
 40
1.0
 40
1.0
 40
1.0
 10
402.9068945430566
 20
222.4622168589216
 30
0.0
 10
402.8654168256555
 20
222.3591117336613
 30
0.0
 10
402.7967915603198
 20
222.1586216444215
 30
0.0
 10
402.7375310184337
 20
221.8634618562814
 30
0.0
 10
402.728813370138
 20
221.5955899637815
 30
0.0
 10
402.7594607510556
 20
221.4299136733415
 30
0.0
 10
402.7847196058004
 20
221.3563210874817
 30
0.0
  0
SPLINE
  5
14572
330
1F
100
AcDbEntity
  8
0
100
AcDbSpline
210
0.0
220
0.0
230
1.0
 70
     8
 71
     3
 72
    10
 73
     6
 74
     0
 42
0.0000000001
 43
0.0000000001
 40
0.0
 40
0.0
 40
0.0
 40
0.0
 40
0.5215583232
 40
0.7675632641
 40
1.0
 40
1.0
 40
1.0
 40
1.0
 10
399.4734105692963
 20
235.8219736547216
 30
0.0
 10
399.1246955644141
 20
235.3423867906817
 30
0.0
 10
398.6537974714169
 20
234.6034102447615
 30
0.0
 10
398.1508148019941
 20
233.5829751152013
 30
0.0
 10
397.9495578308755
 20
233.0767459117614
 30
0.0
 10
397.8635058896992
 20
232.8268901452815
 30
0.0
  0
SPLINE
  5
14573
330
1F
100
AcDbEntity
  8
0
100
AcDbSpline
210
0.0
220
0.0
230
1.0
 70
     8
 71
     3
 72
     9
 73
     5
 74
     0
 42
0.0000000001
 43
0.0000000001
 40
0.0
 40
0.0
 40
0.0
 40
0.0
 40
0.2494254206
 40
1.0
 40
1.0
 40
1.0
 40
1.0
 10
397.8635058896992
 20
232.8268901452815
 30
0.0
 10
397.8836098195146
 20
232.9419640578816
 30
0.0
 10
397.966301315298
 20
233.4029443602016
 30
0.0
 10
398.0583554085582
 20
233.8623094257213
 30
0.0
 10
398.1352252116352
 20
234.2053286685613
 30
0.0
  0
SPLINE
  5
14574
330
1F
100
AcDbEntity
  8
0
100
AcDbSpline
210
0.0
220
0.0
230
1.0
 70
     8
 71
     3
 72
    10
 73
     6
 74
     0
 42
0.0000000001
 43
0.0000000001
 40
0.0
 40
0.0
 40
0.0
 40
0.0
 40
0.5244803535
 40
0.773200722
 40
1.0
 40
1.0
 40
1.0
 40
1.0
 10
400.1214753336147
 20
236.8598431461613
 30
0.0
 10
400.5888439950188
 20
237.1877494347213
 30
0.0
 10
401.2561395286004
 20
237.7039434569414
 30
0.0
 10
402.0598656910164
 20
238.4387152792414
 30
0.0
 10
402.4201642871569
 20
238.8110240926616
 30
0.0
 10
402.5851395274343
 20
238.9946938929615
 30
0.0
  0
LINE
  5
14575
330
1F
100
AcDbEntity
  8
0
100
AcDbLine
 10
399.1728051583172
 20
236.0377874293416
 30
0.0
 11
399.4734105692963
 21
235.8219736547216
 31
0.0
  0
SPLINE
  5
14576
330
1F
100
AcDbEntity
  8
0
100
AcDbSpline
210
0.0
220
0.0
230
1.0
 70
     8
 71
     3
 72
    12
 73
     8
 74
     0
 42
0.0000000001
 43
0.0000000001
 40
0.0
 40
0.0
 40
0.0
 40
0.0
 40
0.2973522185
 40
0.5624442292000002
 40
0.6828255557
 40
0.7954238475
 40
1.0
 40
1.0
 40
1.0
 40
1.0
 10
412.3054071302988
 20
233.0897587737217
 30
0.0
 10
412.6306997690202
 20
233.2543620183014
 30
0.0
 10
413.2646687017381
 20
233.5310404362416
 30
0.0
 10
414.0768713419941
 20
233.7511172147814
 30
0.0
 10
414.6845371573958
 20
233.8229892681415
 30
0.0
 10
415.2213967923357
 20
233.8277018342814
 30
0.0
 10
415.6110812047384
 20
233.7593329540013
 30
0.0
 10
415.8475687962758
 20
233.6757613685417
 30
0.0
  0
SPLINE
  5
14577
330
1F
100
AcDbEntity
  8
0
100
AcDbSpline
210
0.0
220
0.0
230
1.0
 70
     8
 71
     3
 72
    11
 73
     7
 74
     0
 42
0.0000000001
 43
0.0000000001
 40
0.0
 40
0.0
 40
0.0
 40
0.0
 40
0.2235042561
 40
0.4677372264
 40
0.7283534558
 40
1.0
 40
1.0
 40
1.0
 40
1.0
 10
405.3523282094587
 20
224.5812702179613
 30
0.0
 10
405.4361910262353
 20
224.9424924927215
 30
0.0
 10
405.6685058956148
 20
225.6857016387616
 30
0.0
 10
406.1612126953161
 20
226.7914400343415
 30
0.0
 10
406.8012666907973
 20
227.9117210703816
 30
0.0
 10
407.3073327703581
 20
228.6370400159816
 30
0.0
 10
407.5805414060572
 20
228.9954982221015
 30
0.0
  0
SPLINE
  5
14578
330
1F
100
AcDbEntity
  8
0
100
AcDbSpline
210
0.0
220
0.0
230
1.0
 70
     8
 71
     3
 72
    13
 73
     9
 74
     0
 42
0.0000000001
 43
0.0000000001
 40
0.0
 40
0.0
 40
0.0
 40
0.0
 40
0.0860314394
 40
0.1786580653
 40
0.2826967808
 40
0.4005762998
 40
0.6776638044
 40
1.0
 40
1.0
 40
1.0
 40
1.0
 10
427.1372361864171
 20
200.3494936676415
 30
0.0
 10
427.1553048294784
 20
200.3336179259617
 30
0.0
 10
427.1988130050971
 20
200.3069851750614
 30
0.0
 10
427.2766228342383
 20
200.2882861243215
 30
0.0
 10
427.3652675693169
 20
200.2894202216216
 30
0.0
 10
427.5024383897191
 20
200.3182142839213
 30
0.0
 10
427.6861469351763
 20
200.4043159532215
 30
0.0
 10
427.8216223690736
 20
200.5043603734015
 30
0.0
 10
427.8897276354594
 20
200.5633759576816
 30
0.0
  0
SPLINE
  5
14579
330
1F
100
AcDbEntity
  8
0
100
AcDbSpline
210
0.0
220
0.0
230
1.0
 70
     8
 71
     3
 72
     9
 73
     5
 74
     0
 42
0.0000000001
 43
0.0000000001
 40
0.0
 40
0.0
 40
0.0
 40
0.0
 40
0.5032934984000002
 40
1.0
 40
1.0
 40
1.0
 40
1.0
 10
433.7699136220774
 20
208.1163772600816
 30
0.0
 10
433.4133357652584
 20
207.9499077378013
 30
0.0
 10
432.7218001887171
 20
207.5804180780014
 30
0.0
 10
432.0881236480976
 20
207.1162414396817
 30
0.0
 10
431.7946159724755
 20
206.8619068277016
 30
0.0
  0
SPLINE
  5
1457A
330
1F
100
AcDbEntity
  8
0
100
AcDbSpline
210
0.0
220
0.0
230
1.0
 70
     8
 71
     3
 72
     9
 73
     5
 74
     0
 42
0.0000000001
 43
0.0000000001
 40
0.0
 40
0.0
 40
0.0
 40
0.0
 40
0.2393912494
 40
1.0
 40
1.0
 40
1.0
 40
1.0
 10
402.4384670267767
 20
241.3301989171413
 30
0.0
 10
402.3842000867965
 20
241.3177554114212
 30
0.0
 10
402.1586321101944
 20
241.2609247249815
 30
0.0
 10
401.9378582362781
 20
241.1857477912616
 30
0.0
 10
401.7733192892531
 20
241.1207954192613
 30
0.0
  0
SPLINE
  5
1457B
330
1F
100
AcDbEntity
  8
0
100
AcDbSpline
210
0.0
220
0.0
230
1.0
 70
     8
 71
     3
 72
    15
 73
    11
 74
     0
 42
0.0000000001
 43
0.0000000001
 40
0.0
 40
0.0
 40
0.0
 40
0.0
 40
0.1115569722
 40
0.2343142984
 40
0.3650685409
 40
0.4999747785000002
 40
0.6348833927000001
 40
0.7656452152
 40
0.8884101551
 40
1.0
 40
1.0
 40
1.0
 40
1.0
 10
401.7733192892531
 20
241.1207954192613
 30
0.0
 10
401.4768148047964
 20
241.0037491509414
 30
0.0
 10
400.8747349624766
 20
240.7043522491016
 30
0.0
 10
400.0062949746983
 20
240.1225252110816
 30
0.0
 10
399.1562615058587
 20
239.4055983924613
 30
0.0
 10
398.3587179193358
 20
238.5820186705613
 30
0.0
 10
397.6453491555778
 20
237.6845134272215
 30
0.0
 10
397.0445246066569
 20
236.7487467135415
 30
0.0
 10
396.579966554314
 20
235.8121654701216
 30
0.0
 10
396.361025059255
 20
235.1762726347214
 30
0.0
 10
396.2833287477964
 20
234.8670188310816
 30
0.0
  0
SPLINE
  5
1457C
330
1F
100
AcDbEntity
  8
0
100
AcDbSpline
210
0.0
220
0.0
230
1.0
 70
     8
 71
     3
 72
     9
 73
     5
 74
     0
 42
0.0000000001
 43
0.0000000001
 40
0.0
 40
0.0
 40
0.0
 40
0.0
 40
0.2573821588
 40
1.0
 40
1.0
 40
1.0
 40
1.0
 10
396.2833287477964
 20
234.8670188310816
 30
0.0
 10
396.2730204346566
 20
234.8259887607413
 30
0.0
 10
396.2348137724378
 20
234.6661232359215
 30
0.0
 10
396.2041453679352
 20
234.5044165032013
 30
0.0
 10
396.1864616186953
 20
234.3836422768813
 30
0.0
  0
ELLIPSE
  5
1457D
330
1F
100
AcDbEntity
  8
0
100
AcDbEllipse
 10
393.5930620963349
 20
225.1359082958815
 30
0.0
 11
0.00210266788
 21
0.6580639416800002
 31
0.0
210
0.0
220
0.0
230
1.0
 40
0.1468828222
 41
-3.5422217848
 42
-3.269660631999998
  0
ELLIPSE
  5
1457E
330
1F
100
AcDbEntity
  8
0
100
AcDbEllipse
 10
392.4995749665809
 20
228.3218134607613
 30
0.0
 11
0.00210266788
 21
0.6580639416800002
 31
0.0
210
0.0
220
0.0
230
1.0
 40
0.1468828222
 41
-3.5422217848
 42
-3.2697113523
  0
ELLIPSE
  5
1457F
330
1F
100
AcDbEntity
  8
0
100
AcDbEllipse
 10
411.053610540673
 20
245.0662163269816
 30
0.0
 11
0.7004656094800003
 21
-0.00223814894
 31
0.0
210
0.0
220
0.0
230
1.0
 40
0.3693838556999998
 41
0.3999703217
 42
1.698205495699999
  0
ELLIPSE
  5
14580
330
1F
100
AcDbEntity
  8
0
100
AcDbEllipse
 10
392.3232060762397
 20
228.8356691310413
 30
0.0
 11
0.00210266788
 21
0.6580639416800002
 31
0.0
210
0.0
220
0.0
230
1.0
 40
0.1468828222
 41
1.170167195499999
 42
2.7409635223
  0
ELLIPSE
  5
14581
330
1F
100
AcDbEntity
  8
0
100
AcDbEllipse
 10
393.4166932059974
 20
225.6497639661615
 30
0.0
 11
0.00210266788
 21
0.6580639416800002
 31
0.0
210
0.0
220
0.0
230
1.0
 40
0.1468828222
 41
-4.614376500499998
 42
-3.5422217848
  0
ELLIPSE
  5
14582
330
1F
100
AcDbEntity
  8
0
100
AcDbEllipse
 10
393.2856411465376
 20
225.7647996517616
 30
0.0
 11
0.4281222171600003
 21
0.28696746518
 31
0.0
210
0.0
220
0.0
230
1.0
 40
0.3292567779
 41
-1.708893064999999
 42
-1.210251453799999
  0
LINE
  5
14583
330
1F
100
AcDbEntity
  8
0
100
AcDbLine
 10
476.2458012259647
 20
343.6907438482579
 30
0.0
 11
476.2458012259647
 21
346.3907438482976
 31
0.0
  0
LINE
  5
14584
330
1F
100
AcDbEntity
  8
0
100
AcDbLine
 10
476.2458012259647
 20
346.3907438482976
 30
0.0
 11
476.2458012259647
 21
353.3907438487775
 31
0.0
  0
LINE
  5
14585
330
1F
100
AcDbEntity
  8
0
100
AcDbLine
 10
478.195801227405
 20
352.390743849798
 30
0.0
 11
476.2458012259647
 21
352.390743849798
 31
0.0
  0
LINE
  5
14586
330
1F
100
AcDbEntity
  8
0
100
AcDbLine
 10
478.195801227405
 20
347.390743849818
 30
0.0
 11
476.2458012259647
 21
347.390743849818
 31
0.0
  0
LINE
  5
14587
330
1F
100
AcDbEntity
  8
0
100
AcDbLine
 10
445.9458012266448
 20
346.3907438482976
 30
0.0
 11
443.9958012252051
 21
346.3907438482976
 31
0.0
  0
LINE
  5
14588
330
1F
100
AcDbEntity
  8
0
100
AcDbLine
 10
445.9458012266448
 20
353.3907438487779
 30
0.0
 11
443.9958012252051
 21
353.3907438487779
 31
0.0
  0
LINE
  5
14589
330
1F
100
AcDbEntity
  8
0
100
AcDbLine
 10
443.9958012252051
 20
346.3907438482976
 30
0.0
 11
443.9958012252051
 21
353.3907438487779
 31
0.0
  0
LINE
  5
1458A
330
1F
100
AcDbEntity
  8
0
100
AcDbLine
 10
443.9958012252051
 20
352.390743849798
 30
0.0
 11
445.9458012266448
 21
352.390743849798
 31
0.0
  0
LINE
  5
1458B
330
1F
100
AcDbEntity
  8
0
100
AcDbLine
 10
443.9958012252051
 20
347.390743849818
 30
0.0
 11
445.9458012266448
 21
347.390743849818
 31
0.0
  0
DIMENSION
  5
1458C
330
1F
100
AcDbEntity
  8
DIM
100
AcDbDimension
  2
*D2
 10
487.5422470453427
 20
264.7261163641423
 30
0.0
 11
484.9922470453426
 21
288.3011163639323
 31
0.0
 70
    32
  1
47.2
 71
     5
 42
47.14999999957973
  3
01
100
AcDbAlignedDimension
 13
472.0958012277848
 23
311.8761163637221
 33
0.0
 14
473.4249821555601
 24
264.7261163641424
 34
0.0
 50
90.0
100
AcDbRotatedDimension
1001
ACAD
1000
DSTYLE
1002
{
1070
    44
1040
1.0
1070
   345
1005
15
1070
   346
1005
15
1070
   347
1005
15
1002
}
  0
DIMENSION
  5
1458D
330
1F
100
AcDbEntity
  8
DIM
100
AcDbDimension
  2
*D3
 10
481.9586516748911
 20
311.8761163637221
 30
0.0
 11
479.4086516748911
 21
303.2261163637823
 31
0.0
 70
    32
 71
     5
 42
17.29999999987967
  3
01
100
AcDbAlignedDimension
 13
478.195801227405
 23
294.5761163638425
 33
0.0
 14
479.4538620000237
 24
311.8761163637221
 34
0.0
 50
90.0
100
AcDbRotatedDimension
1001
ACAD
1000
DSTYLE
1002
{
1070
    44
1040
1.0
1070
   345
1005
15
1070
   346
1005
15
1070
   347
1005
15
1002
}
  0
DIMENSION
  5
1458E
330
1F
100
AcDbEntity
  8
DIM
100
AcDbDimension
  2
*D4
 10
526.2918028482651
 20
318.6403166751905
 30
0.0
 11
518.9668028488151
 21
321.1903166751905
 31
0.0
 70
    32
  1
14.6
 71
     5
 42
14.64999999890006
  3
01
100
AcDbAlignedDimension
 13
511.6418028493651
 23
311.8761163637221
 33
0.0
 14
526.2918028482651
 24
311.8761163637221
 34
0.0
100
AcDbRotatedDimension
1001
ACAD
1000
DSTYLE
1002
{
1070
    44
1040
1.0
1070
   345
1005
15
1070
   346
1005
15
1070
   347
1005
15
1002
}
  0
DIMENSION
  5
1458F
330
1F
100
AcDbEntity
  8
DIM
100
AcDbDimension
  2
*D5
 10
476.2458012259647
 20
335.0134175162474
 30
0.0
 11
461.0958012263047
 21
337.5634175162474
 31
0.0
 70
    32
 71
     5
 42
30.29999999931988
  3
01
100
AcDbAlignedDimension
 13
445.9458012266448
 23
342.5657438478177
 33
0.0
 14
476.2458012259647
 24
342.5657438478177
 34
0.0
100
AcDbRotatedDimension
1001
ACAD
1000
DSTYLE
1002
{
1070
    44
1040
1.0
1070
   345
1005
15
1070
   346
1005
15
1070
   347
1005
15
1002
}
  0
DIMENSION
  5
14590
330
1F
100
AcDbEntity
  8
DIM
100
AcDbDimension
  2
*D6
 10
478.195801227405
 20
329.7994850763124
 30
0.0
 11
461.0958012263052
 21
332.3494850763124
 31
0.0
 70
    32
 71
     5
 42
34.20000000219989
  3
01
100
AcDbAlignedDimension
 13
443.9958012252051
 23
346.3907438482976
 33
0.0
 14
478.195801227405
 24
346.3907438482976
 34
0.0
100
AcDbRotatedDimension
1001
ACAD
1000
DSTYLE
1002
{
1070
    44
1040
1.0
1070
   345
1005
15
1070
   346
1005
15
1070
   347
1005
15
1002
}
  0
ENDSEC
  0
SECTION
  2
OBJECTS
  0
DICTIONARY
  5
C
330
0
100
AcDbDictionary
281
     1
  3
ACAD_COLOR
350
4FFE
  3
ACAD_GROUP
350
D
  3
ACAD_LAYOUT
350
1A
  3
ACAD_MATERIAL
350
4FE5
  3
ACAD_MLEADERSTYLE
350
5022
  3
ACAD_MLINESTYLE
350
17
  3
ACAD_PLOTSETTINGS
350
19
  3
ACAD_PLOTSTYLENAME
350
E
  3
ACAD_RENDER_PLOT_SETTINGS
350
6537
  3
ACAD_SCALELIST
350
5000
  3
ACAD_TABLESTYLE
350
4FE3
  3
ACAD_VISUALSTYLE
350
2A
  3
ACDB_RECOMPOSE_DATA
350
50EC
  3
AcDbVariableDictionary
350
5108
  3
ASE_INDEX_DICTIONARY
350
11ACE
  3
DWGPROPS
350
147F6
  0
DICTIONARY
  5
50EE
330
8
100
AcDbDictionary
280
     1
281
     1
  0
DICTIONARY
  5
50B8
330
2
100
AcDbDictionary
280
     1
281
     1
  3
ACAD_LAYERFILTERS
360
128BA
  3
ACAD_LAYERSTATES
360
50B9
  3
ACLYDICTIONARY
360
128B9
  0
DICTIONARY
  5
50D0
330
10
100
AcDbDictionary
280
     1
281
     1
  3
ADSK_XREC_LAYER_RECONCILED
360
50D1
  0
DICTIONARY
  5
50D2
330
3B
100
AcDbDictionary
280
     1
281
     1
  3
ADSK_XREC_LAYER_RECONCILED
360
50D3
  0
DICTIONARY
  5
50AF
330
50AE
100
AcDbDictionary
280
     1
281
     1
  3
ADSK_XREC_LAYER_RECONCILED
360
50D4
  0
DICTIONARY
  5
67C0
330
1F
100
AcDbDictionary
280
     1
281
     1
  3
ACAD_SORTENTS
360
67C1
  0
DICTIONARY
  5
147CD
330
10FE8
100
AcDbDictionary
280
     1
281
     1
  0
DICTIONARY
  5
147DE
330
14738
100
AcDbDictionary
280
     1
281
     1
  3
ACAD_MTEXT_2008_RT
360
147DF
  3
ACAD_MTEXT_RT
360
14818
  0
DICTIONARY
  5
147E0
330
1477C
100
AcDbDictionary
280
     1
281
     1
  3
ACAD_MTEXT_2008_RT
360
147E1
  3
ACAD_MTEXT_RT
360
14819
  0
DICTIONARY
  5
147E2
330
1477D
100
AcDbDictionary
280
     1
281
     1
  3
ACAD_MTEXT_2008_RT
360
147E3
  3
ACAD_MTEXT_RT
360
1481A
  0
DICTIONARY
  5
147E4
330
147A2
100
AcDbDictionary
280
     1
281
     1
  3
ACAD_MTEXT_2008_RT
360
147E5
  3
ACAD_MTEXT_RT
360
1481B
  0
DICTIONARY
  5
147E6
330
147A5
100
AcDbDictionary
280
     1
281
     1
  3
ACAD_MTEXT_2008_RT
360
147E7
  3
ACAD_MTEXT_RT
360
1481C
  0
DICTIONARY
  5
147E8
330
147A6
100
AcDbDictionary
280
     1
281
     1
  3
ACAD_MTEXT_2008_RT
360
147E9
  3
ACAD_MTEXT_RT
360
1481D
  0
DICTIONARY
  5
147EA
330
147B0
100
AcDbDictionary
280
     1
281
     1
  3
ACAD_MTEXT_2008_RT
360
147EB
  3
ACAD_MTEXT_RT
360
1481E
  0
DICTIONARY
  5
147EC
330
147B1
100
AcDbDictionary
280
     1
281
     1
  3
ACAD_MTEXT_2008_RT
360
147ED
  3
ACAD_MTEXT_RT
360
1481F
  0
DICTIONARY
  5
147EE
330
147B2
100
AcDbDictionary
280
     1
281
     1
  3
ACAD_MTEXT_2008_RT
360
147EF
  3
ACAD_MTEXT_RT
360
14820
  0
DICTIONARY
  5
147F0
330
147C0
100
AcDbDictionary
280
     1
281
     1
  3
ACAD_MTEXT_2008_RT
360
147F1
  3
ACAD_MTEXT_RT
360
14821
  0
DICTIONARY
  5
147F2
330
147C1
100
AcDbDictionary
280
     1
281
     1
  3
ACAD_MTEXT_2008_RT
360
147F3
  3
ACAD_MTEXT_RT
360
14822
  0
DICTIONARY
  5
147F4
330
147C2
100
AcDbDictionary
280
     1
281
     1
  3
ACAD_MTEXT_2008_RT
360
147F5
  3
ACAD_MTEXT_RT
360
14823
  0
DICTIONARY
  5
147DA
330
6E00
100
AcDbDictionary
280
     1
281
     1
  3
ACAD_MTEXT_2008_RT
360
147DB
  3
ACAD_MTEXT_RT
360
147FE
  0
DICTIONARY
  5
147DC
330
7228
100
AcDbDictionary
280
     1
281
     1
  3
ACAD_MTEXT_2008_RT
360
147DD
  3
ACAD_MTEXT_RT
360
147FF
  0
DICTIONARY
  5
4FFE
102
{ACAD_REACTORS
330
C
102
}
330
C
100
AcDbDictionary
281
     1
  0
DICTIONARY
  5
D
102
{ACAD_REACTORS
330
C
102
}
330
C
100
AcDbDictionary
281
     1
  0
DICTIONARY
  5
1A
102
{ACAD_REACTORS
330
C
102
}
330
C
100
AcDbDictionary
281
     1
  3
Layout1
350
1E
  3
Layout2
350
26
  3
Model
350
22
  0
DICTIONARY
  5
4FE5
102
{ACAD_REACTORS
330
C
102
}
330
C
100
AcDbDictionary
281
     1
  3
ByBlock
350
4FEE
  3
ByLayer
350
4FE6
  3
Global
350
4FF6
  0
DICTIONARY
  5
5022
102
{ACAD_REACTORS
330
C
102
}
330
C
100
AcDbDictionary
281
     1
  3
Standard
350
5023
  0
DICTIONARY
  5
17
102
{ACAD_REACTORS
330
C
102
}
330
C
100
AcDbDictionary
281
     1
  3
Standard
350
18
  0
DICTIONARY
  5
19
102
{ACAD_REACTORS
330
C
102
}
330
C
100
AcDbDictionary
281
     1
  0
ACDBDICTIONARYWDFLT
  5
E
102
{ACAD_REACTORS
330
C
102
}
330
C
100
AcDbDictionary
281
     1
  3
Normal
350
F
100
AcDbDictionaryWithDefault
340
F
  0
DICTIONARY
  5
6537
102
{ACAD_REACTORS
330
C
102
}
330
C
100
AcDbDictionary
281
     1
  3
{1DC63513-1B1A-422F-9880-65CFD2B8D533}
350
6538
  0
DICTIONARY
  5
5000
102
{ACAD_REACTORS
330
C
102
}
330
C
100
AcDbDictionary
281
     1
  3
A0
350
5001
  3
A1
350
5002
  3
A2
350
5003
  3
A3
350
5004
  3
A4
350
5005
  3
A5
350
5006
  3
A6
350
5007
  3
A7
350
5008
  3
A8
350
5009
  3
A9
350
500A
  3
B0
350
500B
  3
B1
350
500C
  3
B2
350
500D
  3
B3
350
500E
  3
B4
350
500F
  3
B5
350
5010
  3
B6
350
5011
  3
B7
350
5012
  3
B8
350
5013
  3
B9
350
5014
  3
C0
350
5015
  3
C1
350
5016
  3
C2
350
5017
  3
C3
350
5018
  3
C4
350
5019
  3
C5
350
501A
  3
C6
350
501B
  3
C7
350
501C
  3
C8
350
501D
  3
C9
350
501E
  3
D0
350
501F
  3
D1
350
5020
  3
D2
350
5021
  0
DICTIONARY
  5
4FE3
102
{ACAD_REACTORS
330
C
102
}
330
C
100
AcDbDictionary
281
     1
  3
Standard
350
4FFF
  0
DICTIONARY
  5
2A
102
{ACAD_REACTORS
330
C
102
}
330
C
100
AcDbDictionary
281
     1
  3
2dWireframe
350
2F
  3
3D Hidden
350
31
  3
3dWireframe
350
30
  3
Basic
350
32
  3
Brighten
350
36
  3
ColorChange
350
3A
  3
Conceptual
350
34
  3
Dim
350
35
  3
Facepattern
350
39
  3
Flat
350
2B
  3
FlatWithEdges
350
2C
  3
Gouraud
350
2D
  3
GouraudWithEdges
350
2E
  3
Linepattern
350
38
  3
Realistic
350
33
  3
Thicken
350
37
  0
XRECORD
  5
50EC
102
{ACAD_REACTORS
330
C
102
}
330
C
100
AcDbXrecord
280
     1
 90
        1
330
4FFF
330
6E00
330
7228
330
14738
330
1477C
330
1477D
330
147A2
330
147A5
330
147A6
330
147B0
330
147B1
330
147B2
330
147C0
330
147C1
330
147C2
  0
DICTIONARY
  5
5108
102
{ACAD_REACTORS
330
C
102
}
330
C
100
AcDbDictionary
281
     1
  3
CANNOSCALE
350
510B
  3
CMLEADERSTYLE
350
510A
  3
CTABLESTYLE
350
5109
  3
DIMASSOC
350
510E
  3
INDEXCTL
350
510D
  3
SORTENTS
350
510C
  0
DICTIONARY
  5
11ACE
102
{ACAD_REACTORS
330
C
102
}
330
C
100
AcDbDictionary
281
     1
  3
ASEBlockHierarchyIndexRecord
350
11ACF
1001
DCO15
1040
1901610418.781
  0
XRECORD
  5
147F6
102
{ACAD_REACTORS
330
C
102
}
330
C
100
AcDbXrecord
280
     1
  1
DWGPROPS COOKIE
  2

  3

  4

  6

  7

  8
yl.gao
  9

300
=
301
=
302
=
303
=
304
=
305
=
306
=
307
=
308
=
309
=
 40
0.8962691203703702
 41
2456524.383632987
 42
2460309.610262396
  1

 90
        0
  0
DICTIONARY
  5
128BA
102
{ACAD_REACTORS
330
50B8
102
}
330
50B8
100
AcDbDictionary
281
     1
  0
DICTIONARY
  5
50B9
102
{ACAD_REACTORS
330
50B8
102
}
330
50B8
100
AcDbDictionary
281
     1
  0
DICTIONARY
  5
128B9
102
{ACAD_REACTORS
330
50B8
102
}
330
50B8
100
AcDbDictionary
281
     1
1001
ACAD
1000
<All
  0
XRECORD
  5
50D1
102
{ACAD_REACTORS
330
50D0
102
}
330
50D0
100
AcDbXrecord
280
     1
290
     1
  0
XRECORD
  5
50D3
102
{ACAD_REACTORS
330
50D2
102
}
330
50D2
100
AcDbXrecord
280
     1
290
     1
  0
XRECORD
  5
50D4
102
{ACAD_REACTORS
330
50AF
102
}
330
50AF
100
AcDbXrecord
280
     1
290
     1
  0
SORTENTSTABLE
  5
67C1
102
{ACAD_REACTORS
330
67C0
102
}
330
67C0
100
AcDbSortentsTable
330
1F
331
35D8
  5
3807
331
2FDE
  5
35C8
331
65A4
  5
65A5
331
6E00
  5
99F3
331
3895
  5
3943
331
28AE
  5
2A38
331
2F93
  5
2FDE
331
35C8
  5
35D8
331
2C65
  5
2EE7
331
65A0
  5
65A1
331
2EE7
  5
2F93
331
3807
  5
3895
331
3943
  5
4842
331
7228
  5
99F4
331
65A3
  5
65A4
331
4842
  5
4E94
331
65B2
  5
65B3
331
65A1
  5
65A2
  0
XRECORD
  5
147DF
102
{ACAD_REACTORS
330
147DE
102
}
330
147DE
100
AcDbXrecord
280
     1
 40
1527.0
  1
\pxqc;BQ LUO
  0
XRECORD
  5
14818
102
{ACAD_REACTORS
330
147DE
102
}
330
147DE
100
AcDbXrecord
280
     1
 40
1527.0
  1
\pxqc;BQ LUO
  0
XRECORD
  5
147E1
102
{ACAD_REACTORS
330
147E0
102
}
330
147E0
100
AcDbXrecord
280
     1
 40
1262561.0
  1
\pxqc;档案员{\H0.7x;\P\Fromans|c134;Filing Clerk\fFangSong_GB2312|b0|i0|c134|p49; }
  0
XRECORD
  5
14819
102
{ACAD_REACTORS
330
147E0
102
}
330
147E0
100
AcDbXrecord
280
     1
 40
448513.0
  1
\pxqc;档案员{\H0.7x;\P\Fromans|c134;Filing Clerk\fFangSong_GB2312|b0|i0|c134|p49; }
  0
XRECORD
  5
147E3
102
{ACAD_REACTORS
330
147E2
102
}
330
147E2
100
AcDbXrecord
280
     1
 40
650528.0
  1
\pxqc;日期{\Fromans|c134;/Date}
  0
XRECORD
  5
1481A
102
{ACAD_REACTORS
330
147E2
102
}
330
147E2
100
AcDbXrecord
280
     1
 40
58584.0
  1
\pxqc;日期{\Fromans|c134;/Date}
  0
XRECORD
  5
147E5
102
{ACAD_REACTORS
330
147E4
102
}
330
147E4
100
AcDbXrecord
280
     1
 40
2318748.0
  1
\pxsm0.7;{\f仿宋_GB2312|b0|i0|c134|p49;标准化}\PStand.
  0
XRECORD
  5
1481B
102
{ACAD_REACTORS
330
147E4
102
}
330
147E4
100
AcDbXrecord
280
     1
 40
55334.0
  1
\pxsm0.7;{\f仿宋_GB2312|b0|i0|c134|p49;标准化}\PStand.
  0
XRECORD
  5
147E7
102
{ACAD_REACTORS
330
147E6
102
}
330
147E6
100
AcDbXrecord
280
     1
 40
118135.0
  1
\pxsm0.7;签名\P{\Fromans|c134;Signature} 
  0
XRECORD
  5
1481C
102
{ACAD_REACTORS
330
147E6
102
}
330
147E6
100
AcDbXrecord
280
     1
 40
48353.0
  1
\pxsm0.7;签名\P{\Fromans|c134;Signature} 
  0
XRECORD
  5
147E9
102
{ACAD_REACTORS
330
147E8
102
}
330
147E8
100
AcDbXrecord
280
     1
 40
108939.0
  1
\pxsm0.7,qc;处数\P{\Fromans|c134;Number }
  0
XRECORD
  5
1481D
102
{ACAD_REACTORS
330
147E8
102
}
330
147E8
100
AcDbXrecord
280
     1
 40
38427.0
  1
\pxsm0.7,qc;处数\P{\Fromans|c134;Number }
  0
XRECORD
  5
147EB
102
{ACAD_REACTORS
330
147EA
102
}
330
147EA
100
AcDbXrecord
280
     1
 40
125762.0
  1
\pxsm0.7;标记\P{\Fromans|c134;Mark}
  0
XRECORD
  5
1481E
102
{ACAD_REACTORS
330
147EA
102
}
330
147EA
100
AcDbXrecord
280
     1
 40
31190.0
  1
\pxsm0.7;标记\P{\Fromans|c134;Mark}
  0
XRECORD
  5
147ED
102
{ACAD_REACTORS
330
147EC
102
}
330
147EC
100
AcDbXrecord
280
     1
 40
111973.0
  1
\pxsm0.7;审核\P{\Fromans|c134;Checked}
  0
XRECORD
  5
1481F
102
{ACAD_REACTORS
330
147EC
102
}
330
147EC
100
AcDbXrecord
280
     1
 40
39355.0
  1
\pxsm0.7;审核\P{\Fromans|c134;Checked}
  0
XRECORD
  5
147EF
102
{ACAD_REACTORS
330
147EE
102
}
330
147EE
100
AcDbXrecord
280
     1
 40
137968.0
  1
\pxsm0.7;绘图\P{\Fromans|c134;Drawn\Ftxt|c134; }
  0
XRECORD
  5
14820
102
{ACAD_REACTORS
330
147EE
102
}
330
147EE
100
AcDbXrecord
280
     1
 40
66730.0
  1
\pxsm0.7;绘图\P{\Fromans|c134;Drawn\Ftxt|c134; }
  0
XRECORD
  5
147F1
102
{ACAD_REACTORS
330
147F0
102
}
330
147F0
100
AcDbXrecord
280
     1
 40
106320.0
  1
\pxsm0.7;批准\P{\Fromans|c134;Approved}
  0
XRECORD
  5
14821
102
{ACAD_REACTORS
330
147F0
102
}
330
147F0
100
AcDbXrecord
280
     1
 40
43787.0
  1
\pxsm0.7;批准\P{\Fromans|c134;Approved}
  0
XRECORD
  5
147F3
102
{ACAD_REACTORS
330
147F2
102
}
330
147F2
100
AcDbXrecord
280
     1
 40
127283.0
  1
\pxsm0.7;工艺\P{\Fromans|c134;Process}
  0
XRECORD
  5
14822
102
{ACAD_REACTORS
330
147F2
102
}
330
147F2
100
AcDbXrecord
280
     1
 40
40691.0
  1
\pxsm0.7;工艺\P{\Fromans|c134;Process}
  0
XRECORD
  5
147F5
102
{ACAD_REACTORS
330
147F4
102
}
330
147F4
100
AcDbXrecord
280
     1
 40
106220.0
  1
\pxsm0.7;日期\P{\Fromans|c134;Date}
  0
XRECORD
  5
14823
102
{ACAD_REACTORS
330
147F4
102
}
330
147F4
100
AcDbXrecord
280
     1
 40
30977.0
  1
\pxsm0.7;日期\P{\Fromans|c134;Date}
  0
XRECORD
  5
147DB
102
{ACAD_REACTORS
330
147DA
102
}
330
147DA
100
AcDbXrecord
280
     1
 40
3251447953.0
  1
\A1;\pxql;{\f仿宋_GB2312|b0|i0|c134|p49;技术参数}:\P{\f仿宋_GB2312|b0|i0|c134|p49;插芯：}\P- {\f仿宋_GB2312|b0|i0|c134|p49;插针数}: 1\P- {\f仿宋_GB2312|b0|i0|c134|p49;额定电流}: 100A\P- {\f仿宋_GB2312|b0|i0|c134|p49;额定电压}: 830V\P- {\f仿宋_GB2312|b0|i0|c134|p49;额定脉冲电压}: 8kV\P-
  1
 {\f仿宋_GB2312|b0|i0|c134|p49;污染等级}: 3\P- {\f仿宋_GB2312|b0|i0|c134|p49;绝缘阻抗}: {\f仿宋_GB2312|b0|i0|c134|p49;≥}10{\H0.7x;\S10^ ;}Ω\P- {\f仿宋_GB2312|b0|i0|c134|p49;材料}: {\f仿宋_GB2312|b0|i0|c134|p49;聚碳酸酯}\P- {\f仿宋_GB2312|b0|i0|c134|p49;颜色}: RAL 7032{\f仿宋_GB231
  1
2|b0|i0|c134|p49;（浅灰色）}\P- {\f仿宋_GB2312|b0|i0|c134|p49;温度范围}: -40{\f仿宋_GB2312|b0|i0|c134|p49;℃} - +125{\f仿宋_GB2312|b0|i0|c134|p49;℃}\P- {\f仿宋_GB2312|b0|i0|c134|p49;依据}UL 94{\f仿宋_GB2312|b0|i0|c134|p49;的阻燃等级}: V0\P\pq*;- {\f仿宋_GB2312|b0|i0|c134|p49;可插拔
  1
次数}: {\f仿宋_GB2312|b0|i0|c134|p49;≥}500\P- {\f仿宋_GB2312|b0|i0|c134|p49;最大绝缘直径}: 13mm\P\pql;{\f仿宋_GB2312|b0|i0|c134|p49;插针：}\P- {\f仿宋_GB2312|b0|i0|c134|p49;接线方式}: {\f仿宋_GB2312|b0|i0|c134|p49;冷压连接}\P- {\f仿宋_GB2312|b0|i0|c134|p49;材料}: {\f仿宋_GB2312|b0|i0|
  1
c134|p49;铜合金}\P- {\f仿宋_GB2312|b0|i0|c134|p49;表面处理}: {\f仿宋_GB2312|b0|i0|c134|p49;镀银}\P- {\f仿宋_GB2312|b0|i0|c134|p49;接触电阻}: ≤0.3mΩ\P- {\f仿宋_GB2312|b0|i0|c134|p49;线径范围}: 10-35mm{\H0.7x;\S2^ ;}\P- {\f仿宋_GB2312|b0|i0|c134|p49;工具：}\P   {\f仿宋_GB2312|b0|i0|c1
  1
34|p49;·} {\f仿宋_GB2312|b0|i0|c134|p49;冷压钳}: TL05\P   {\f仿宋_GB2312|b0|i0|c134|p49;·} {\f仿宋_GB2312|b0|i0|c134|p49;退针器}: TL11
  0
XRECORD
  5
147FE
102
{ACAD_REACTORS
330
147DA
102
}
330
147DA
100
AcDbXrecord
280
     1
 40
55837775.0
  1
\A1;\pxql;{\f仿宋_GB2312|b0|i0|c134|p49;技术参数}:\P{\f仿宋_GB2312|b0|i0|c134|p49;插芯：}\P- {\f仿宋_GB2312|b0|i0|c134|p49;插针数}: 1\P- {\f仿宋_GB2312|b0|i0|c134|p49;额定电流}: 100A\P- {\f仿宋_GB2312|b0|i0|c134|p49;额定电压}: 830V\P- {\f仿宋_GB2312|b0|i0|c134|p49;额定脉冲电压}: 8kV\P-
  1
 {\f仿宋_GB2312|b0|i0|c134|p49;污染等级}: 3\P- {\f仿宋_GB2312|b0|i0|c134|p49;绝缘阻抗}: {\f仿宋_GB2312|b0|i0|c134|p49;≥}10{\H0.7x;\S10^ ;}Ω\P- {\f仿宋_GB2312|b0|i0|c134|p49;材料}: {\f仿宋_GB2312|b0|i0|c134|p49;聚碳酸酯}\P- {\f仿宋_GB2312|b0|i0|c134|p49;颜色}: RAL 7032{\f仿宋_GB231
  1
2|b0|i0|c134|p49;（浅灰色）}\P- {\f仿宋_GB2312|b0|i0|c134|p49;温度范围}: -40{\f仿宋_GB2312|b0|i0|c134|p49;℃} - +125{\f仿宋_GB2312|b0|i0|c134|p49;℃}\P- {\f仿宋_GB2312|b0|i0|c134|p49;依据}UL 94{\f仿宋_GB2312|b0|i0|c134|p49;的阻燃等级}: V0\P\pq*;- {\f仿宋_GB2312|b0|i0|c134|p49;可插拔
  1
次数}: {\f仿宋_GB2312|b0|i0|c134|p49;≥}500\P- {\f仿宋_GB2312|b0|i0|c134|p49;最大绝缘直径}: 13mm\P\pql;{\f仿宋_GB2312|b0|i0|c134|p49;插针：}\P- {\f仿宋_GB2312|b0|i0|c134|p49;接线方式}: {\f仿宋_GB2312|b0|i0|c134|p49;冷压连接}\P- {\f仿宋_GB2312|b0|i0|c134|p49;材料}: {\f仿宋_GB2312|b0|i0|
  1
c134|p49;铜合金}\P- {\f仿宋_GB2312|b0|i0|c134|p49;表面处理}: {\f仿宋_GB2312|b0|i0|c134|p49;镀银}\P- {\f仿宋_GB2312|b0|i0|c134|p49;接触电阻}: ≤0.3mΩ\P- {\f仿宋_GB2312|b0|i0|c134|p49;线径范围}: 10-35mm{\H0.7x;\S2^ ;}\P- {\f仿宋_GB2312|b0|i0|c134|p49;工具：}\P   {\f仿宋_GB2312|b0|i0|c1
  1
34|p49;·} {\f仿宋_GB2312|b0|i0|c134|p49;冷压钳}: TL05\P   {\f仿宋_GB2312|b0|i0|c134|p49;·} {\f仿宋_GB2312|b0|i0|c134|p49;退针器}: TL11
  0
XRECORD
  5
147DD
102
{ACAD_REACTORS
330
147DC
102
}
330
147DC
100
AcDbXrecord
280
     1
 40
49111523.0
  1
\A1;\pxql;Technical specification:\PInsters:\P- No. of contact: 1\P- Rated current: 100A\P- Rated voltage: 830V\P- Rated impulse voltage: 8kV\P- Pollution degree: 3\P- Insulation resistance: {\fFangSong_GB2312|b0|i0|c134|p49;≥}10{\H0.7x;\S10^ ;}Ω\P- M
  1
aterial: polycarbonate\P- Colour: RAL 7032(light grey) \P- Temperature range: -40{\fArial|b0|i0|c0|p34;℃} - +125{\fArial|b0|i0|c0|p34;℃}\P- Flammability acc.to UL 94: V0\P- Mating cycles: {\fFangSong_GB2312|b0|i0|c134|p49;≥}500\P- Max. insulation dia
  1
meter: 13mm\PContacts:\P- Terminal: crimp terminal\P- Material: copper alloy\P- Surface: hard-silver plated\P- Contact resistance: {\fFangSong_GB2312|b0|i0|c134|p49;≤}0.3mΩ\P- Wire gauge: 10-35mm{\H0.7x;\S2^ ;\fFangSong_GB2312|b0|i0|c134|p49;\H1.4286x
  1
;\P}- Tools:\P   {\fISOCPEUR|b0|i0|c0|p34;·} Crimp contact tool: TL05\P   {\fISOCPEUR|b0|i0|c0|p34;·} Contact removal tool: TL11
  0
XRECORD
  5
147FF
102
{ACAD_REACTORS
330
147DC
102
}
330
147DC
100
AcDbXrecord
280
     1
 40
32945000.0
  1
\A1;\pxql;Technical specification:\PInsters:\P- No. of contact: 1\P- Rated current: 100A\P- Rated voltage: 830V\P- Rated impulse voltage: 8kV\P- Pollution degree: 3\P- Insulation resistance: {\fFangSong_GB2312|b0|i0|c134|p49;≥}10{\H0.7x;\S10^ ;}Ω\P- M
  1
aterial: polycarbonate\P- Colour: RAL 7032(light grey) \P- Temperature range: -40{\fArial|b0|i0|c0|p34;℃} - +125{\fArial|b0|i0|c0|p34;℃}\P- Flammability acc.to UL 94: V0\P- Mating cycles: {\fFangSong_GB2312|b0|i0|c134|p49;≥}500\P- Max. insulation dia
  1
meter: 13mm\PContacts:\P- Terminal: crimp terminal\P- Material: copper alloy\P- Surface: hard-silver plated\P- Contact resistance: {\fFangSong_GB2312|b0|i0|c134|p49;≤}0.3mΩ\P- Wire gauge: 10-35mm{\H0.7x;\S2^ ;\fFangSong_GB2312|b0|i0|c134|p49;\H1.4286x
  1
;\P}- Tools:\P   {\fISOCPEUR|b0|i0|c0|p34;·} Crimp contact tool: TL05\P   {\fISOCPEUR|b0|i0|c0|p34;·} Contact removal tool: TL11
  0
LAYOUT
  5
1E
102
{ACAD_XDICTIONARY
360
147F7
102
}
102
{ACAD_REACTORS
330
1A
102
}
330
1A
100
AcDbPlotSettings
  1

  2
none_device
  4

  6

 40
0.0
 41
0.0
 42
0.0
 43
0.0
 44
0.0
 45
0.0
 46
0.0
 47
0.0
 48
0.0
 49
0.0
140
0.0
141
0.0
142
1.0
143
1.0
 70
   688
 72
     0
 73
     0
 74
     5
  7

 75
    16
147
1.0
148
0.0
149
0.0
100
AcDbLayout
  1
Layout1
 70
     1
 71
     1
 10
0.0
 20
0.0
 11
12.0
 21
9.0
 12
0.0
 22
0.0
 32
0.0
 14
1.000000000000000E+20
 24
1.000000000000000E+20
 34
1.000000000000000E+20
 15
-1.000000000000000E+20
 25
-1.000000000000000E+20
 35
-1.000000000000000E+20
146
0.0
 13
0.0
 23
0.0
 33
0.0
 16
1.0
 26
0.0
 36
0.0
 17
0.0
 27
1.0
 37
0.0
 76
     0
330
1B
  0
LAYOUT
  5
26
102
{ACAD_XDICTIONARY
360
147FB
102
}
102
{ACAD_REACTORS
330
1A
102
}
330
1A
100
AcDbPlotSettings
  1

  2
none_device
  4

  6

 40
0.0
 41
0.0
 42
0.0
 43
0.0
 44
0.0
 45
0.0
 46
0.0
 47
0.0
 48
0.0
 49
0.0
140
0.0
141
0.0
142
1.0
143
1.0
 70
   688
 72
     0
 73
     0
 74
     5
  7

 75
    16
147
1.0
148
0.0
149
0.0
100
AcDbLayout
  1
Layout2
 70
     1
 71
     2
 10
0.0
 20
0.0
 11
0.0
 21
0.0
 12
0.0
 22
0.0
 32
0.0
 14
0.0
 24
0.0
 34
0.0
 15
0.0
 25
0.0
 35
0.0
146
0.0
 13
0.0
 23
0.0
 33
0.0
 16
1.0
 26
0.0
 36
0.0
 17
0.0
 27
1.0
 37
0.0
 76
     0
330
23
  0
LAYOUT
  5
22
102
{ACAD_XDICTIONARY
360
147F9
102
}
102
{ACAD_REACTORS
330
1A
102
}
330
1A
100
AcDbPlotSettings
  1

  2
Adobe PDF Converter.pc3
  4
A4
  6

 40
3.174999952316281
 41
3.174999952316281
 42
3.17498779296875
 43
3.175003051757812
 44
297.0318298339844
 45
209.9733276367186
 46
0.0000000000000076
 47
1.630241740247063
 48
246.9897427644609
 49
39.36804549891383
140
544.952097801264
141
244.7492402188181
142
1.0
143
1.025046328645055
 70
  3764
 72
     1
 73
     0
 74
     4
  7
monochrome.ctb
 75
     0
147
0.9755656618192436
148
-246.9897427644609
149
-39.36804549891383
100
AcDbLayout
  1
Model
 70
     1
 71
     0
 10
0.0
 20
0.0
 11
12.0
 21
9.0
 12
0.0
 22
0.0
 32
0.0
 14
1.000000000000000E+20
 24
1.000000000000000E+20
 34
1.000000000000000E+20
 15
-1.000000000000000E+20
 25
-1.000000000000000E+20
 35
-1.000000000000000E+20
146
0.0
 13
0.0
 23
0.0
 33
0.0
 16
1.0
 26
0.0
 36
0.0
 17
0.0
 27
1.0
 37
0.0
 76
     0
330
1F
331
29
1001
ACAD_PSEXT
1000
Adobe PDF Converter.pc3
1000
Adobe PDF Converter
1000
桌面\*.pdf
1000

1070
     0
  0
MATERIAL
  5
4FEE
102
{ACAD_XDICTIONARY
360
4FEF
102
}
102
{ACAD_REACTORS
330
4FE5
102
}
330
4FE5
100
AcDbMaterial
  1
ByBlock
 72
     0
 43
0.0208333333333333
 43
0.0
 43
0.0
 43
0.0
 43
0.0
 43
0.0208333333333333
 43
0.0
 43
0.0
 43
0.0
 43
0.0
 43
1.0
 43
0.0
 43
0.0
 43
0.0
 43
0.0
 43
1.0
 77
     0
 47
0.0208333333333333
 47
0.0
 47
0.0
 47
0.0
 47
0.0
 47
0.0208333333333333
 47
0.0
 47
0.0
 47
0.0
 47
0.0
 47
1.0
 47
0.0
 47
0.0
 47
0.0
 47
0.0
 47
1.0
171
     0
 49
0.0208333333333333
 49
0.0
 49
0.0
 49
0.0
 49
0.0
 49
0.0208333333333333
 49
0.0
 49
0.0
 49
0.0
 49
0.0
 49
1.0
 49
0.0
 49
0.0
 49
0.0
 49
0.0
 49
1.0
175
     0
142
0.0208333333333333
142
0.0
142
0.0
142
0.0
142
0.0
142
0.0208333333333333
142
0.0
142
0.0
142
0.0
142
0.0
142
1.0
142
0.0
142
0.0
142
0.0
142
0.0
142
1.0
179
     0
144
0.0208333333333333
144
0.0
144
0.0
144
0.0
144
0.0
144
0.0208333333333333
144
0.0
144
0.0
144
0.0
144
0.0
144
1.0
144
0.0
144
0.0
144
0.0
144
0.0
144
1.0
147
0.0208333333333333
147
0.0
147
0.0
147
0.0
147
0.0
147
0.0208333333333333
147
0.0
147
0.0
147
0.0
147
0.0
147
1.0
147
0.0
147
0.0
147
0.0
147
0.0
147
1.0
  0
MATERIAL
  5
4FE6
102
{ACAD_XDICTIONARY
360
4FE7
102
}
102
{ACAD_REACTORS
330
4FE5
102
}
330
4FE5
100
AcDbMaterial
  1
ByLayer
 72
     0
 43
0.0208333333333333
 43
0.0
 43
0.0
 43
0.0
 43
0.0
 43
0.0208333333333333
 43
0.0
 43
0.0
 43
0.0
 43
0.0
 43
1.0
 43
0.0
 43
0.0
 43
0.0
 43
0.0
 43
1.0
 77
     0
 47
0.0208333333333333
 47
0.0
 47
0.0
 47
0.0
 47
0.0
 47
0.0208333333333333
 47
0.0
 47
0.0
 47
0.0
 47
0.0
 47
1.0
 47
0.0
 47
0.0
 47
0.0
 47
0.0
 47
1.0
171
     0
 49
0.0208333333333333
 49
0.0
 49
0.0
 49
0.0
 49
0.0
 49
0.0208333333333333
 49
0.0
 49
0.0
 49
0.0
 49
0.0
 49
1.0
 49
0.0
 49
0.0
 49
0.0
 49
0.0
 49
1.0
175
     0
142
0.0208333333333333
142
0.0
142
0.0
142
0.0
142
0.0
142
0.0208333333333333
142
0.0
142
0.0
142
0.0
142
0.0
142
1.0
142
0.0
142
0.0
142
0.0
142
0.0
142
1.0
179
     0
144
0.0208333333333333
144
0.0
144
0.0
144
0.0
144
0.0
144
0.0208333333333333
144
0.0
144
0.0
144
0.0
144
0.0
144
1.0
144
0.0
144
0.0
144
0.0
144
0.0
144
1.0
147
0.0208333333333333
147
0.0
147
0.0
147
0.0
147
0.0
147
0.0208333333333333
147
0.0
147
0.0
147
0.0
147
0.0
147
1.0
147
0.0
147
0.0
147
0.0
147
0.0
147
1.0
  0
MATERIAL
  5
4FF6
102
{ACAD_XDICTIONARY
360
4FF7
102
}
102
{ACAD_REACTORS
330
4FE5
102
}
330
4FE5
100
AcDbMaterial
  1
Global
 72
     0
 43
0.0208333333333333
 43
0.0
 43
0.0
 43
0.0
 43
0.0
 43
0.0208333333333333
 43
0.0
 43
0.0
 43
0.0
 43
0.0
 43
1.0
 43
0.0
 43
0.0
 43
0.0
 43
0.0
 43
1.0
 77
     0
 47
0.0208333333333333
 47
0.0
 47
0.0
 47
0.0
 47
0.0
 47
0.0208333333333333
 47
0.0
 47
0.0
 47
0.0
 47
0.0
 47
1.0
 47
0.0
 47
0.0
 47
0.0
 47
0.0
 47
1.0
171
     0
 49
0.0208333333333333
 49
0.0
 49
0.0
 49
0.0
 49
0.0
 49
0.0208333333333333
 49
0.0
 49
0.0
 49
0.0
 49
0.0
 49
1.0
 49
0.0
 49
0.0
 49
0.0
 49
0.0
 49
1.0
175
     0
142
0.0208333333333333
142
0.0
142
0.0
142
0.0
142
0.0
142
0.0208333333333333
142
0.0
142
0.0
142
0.0
142
0.0
142
1.0
142
0.0
142
0.0
142
0.0
142
0.0
142
1.0
179
     0
144
0.0208333333333333
144
0.0
144
0.0
144
0.0
144
0.0
144
0.0208333333333333
144
0.0
144
0.0
144
0.0
144
0.0
144
1.0
144
0.0
144
0.0
144
0.0
144
0.0
144
1.0
147
0.0208333333333333
147
0.0
147
0.0
147
0.0
147
0.0
147
0.0208333333333333
147
0.0
147
0.0
147
0.0
147
0.0
147
1.0
147
0.0
147
0.0
147
0.0
147
0.0
147
1.0
  0
MLEADERSTYLE
  5
5023
102
{ACAD_REACTORS
330
5022
102
}
330
5022
100
AcDbMLeaderStyle
170
     2
171
     1
172
     0
 90
        2
 40
0.0
 41
0.0
173
     1
 91
-1056964608
340
14
 92
       -2
290
     1
 42
0.09
291
     1
 43
0.36
  3
Standard
 44
0.18
300

342
11
174
     1
178
     6
175
     1
176
     0
 93
-1056964608
 45
0.18
292
     0
297
     0
 46
0.18
 94
-1056964608
 47
1.0
 49
1.0
140
1.0
293
     1
141
0.0
294
     1
177
     0
142
1.0
295
     0
296
     0
143
0.125
1001
ACAD_MLEADERVER
1070
     2
  0
MLINESTYLE
  5
18
102
{ACAD_REACTORS
330
17
102
}
330
17
100
AcDbMlineStyle
  2
STANDARD
 70
     0
  3

 62
   256
 51
90.0
 52
90.0
 71
     2
 49
0.5
 62
   256
  6
BYLAYER
 49
-0.5
 62
   256
  6
BYLAYER
  0
ACDBPLACEHOLDER
  5
F
102
{ACAD_REACTORS
330
E
102
}
330
E
  0
MENTALRAYRENDERSETTINGS
  5
6538
102
{ACAD_REACTORS
330
6537
102
}
330
6537
100
AcDbRenderSettings
 90
        2
  1
中
290
     1
290
     1
290
     1
290
     1
  1

  1
渲染质量好于“低级”。包括纹理过滤并且强制双面处于激活状态。处理中等级反锯齿和 5 反射/折射的光线跟踪深度。
 90
        0
100
AcDbMentalRayRenderSettings
 90
        2
 90
        0
 90
        1
 70
     2
 40
3.0
 40
3.0
 40
0.0500000007450581
 40
0.0500000007450581
 40
0.0500000007450581
 40
0.0500000007450581
 70
     0
290
     0
290
     1
 90
        5
 90
        5
 90
        5
290
     0
 90
      500
290
     0
 40
1.0
 90
    10000
 90
        5
 90
        5
 90
        5
290
     0
 90
      200
290
     0
290
     0
290
     0
 40
0.1
 40
1.0
 40
1500.0
 70
     0
 70
     0
 40
10.0
 70
     0
 70
     0
290
     0
  1

 90
       32
 70
     0
 90
     1048
290
     0
 40
1.0
  0
SCALE
  5
5001
102
{ACAD_REACTORS
330
5000
102
}
330
5000
100
AcDbScale
 70
     0
300
1:1
140
1.0
141
1.0
290
     1
  0
SCALE
  5
5002
102
{ACAD_REACTORS
330
5000
102
}
330
5000
100
AcDbScale
 70
     0
300
1:2
140
1.0
141
2.0
290
     0
  0
SCALE
  5
5003
102
{ACAD_REACTORS
330
5000
102
}
330
5000
100
AcDbScale
 70
     0
300
1:4
140
1.0
141
4.0
290
     0
  0
SCALE
  5
5004
102
{ACAD_REACTORS
330
5000
102
}
330
5000
100
AcDbScale
 70
     0
300
1:5
140
1.0
141
5.0
290
     0
  0
SCALE
  5
5005
102
{ACAD_REACTORS
330
5000
102
}
330
5000
100
AcDbScale
 70
     0
300
1:8
140
1.0
141
8.0
290
     0
  0
SCALE
  5
5006
102
{ACAD_REACTORS
330
5000
102
}
330
5000
100
AcDbScale
 70
     0
300
1:10
140
1.0
141
10.0
290
     0
  0
SCALE
  5
5007
102
{ACAD_REACTORS
330
5000
102
}
330
5000
100
AcDbScale
 70
     0
300
1:16
140
1.0
141
16.0
290
     0
  0
SCALE
  5
5008
102
{ACAD_REACTORS
330
5000
102
}
330
5000
100
AcDbScale
 70
     0
300
1:20
140
1.0
141
20.0
290
     0
  0
SCALE
  5
5009
102
{ACAD_REACTORS
330
5000
102
}
330
5000
100
AcDbScale
 70
     0
300
1:30
140
1.0
141
30.0
290
     0
  0
SCALE
  5
500A
102
{ACAD_REACTORS
330
5000
102
}
330
5000
100
AcDbScale
 70
     0
300
1:40
140
1.0
141
40.0
290
     0
  0
SCALE
  5
500B
102
{ACAD_REACTORS
330
5000
102
}
330
5000
100
AcDbScale
 70
     0
300
1:50
140
1.0
141
50.0
290
     0
  0
SCALE
  5
500C
102
{ACAD_REACTORS
330
5000
102
}
330
5000
100
AcDbScale
 70
     0
300
1:100
140
1.0
141
100.0
290
     0
  0
SCALE
  5
500D
102
{ACAD_REACTORS
330
5000
102
}
330
5000
100
AcDbScale
 70
     0
300
2:1
140
2.0
141
1.0
290
     0
  0
SCALE
  5
500E
102
{ACAD_REACTORS
330
5000
102
}
330
5000
100
AcDbScale
 70
     0
300
4:1
140
4.0
141
1.0
290
     0
  0
SCALE
  5
500F
102
{ACAD_REACTORS
330
5000
102
}
330
5000
100
AcDbScale
 70
     0
300
8:1
140
8.0
141
1.0
290
     0
  0
SCALE
  5
5010
102
{ACAD_REACTORS
330
5000
102
}
330
5000
100
AcDbScale
 70
     0
300
10:1
140
10.0
141
1.0
290
     0
  0
SCALE
  5
5011
102
{ACAD_REACTORS
330
5000
102
}
330
5000
100
AcDbScale
 70
     0
300
100:1
140
100.0
141
1.0
290
     0
  0
SCALE
  5
5012
102
{ACAD_REACTORS
330
5000
102
}
330
5000
100
AcDbScale
 70
     0
300
1/128" = 1'-0"
140
0.0078125
141
12.0
290
     0
  0
SCALE
  5
5013
102
{ACAD_REACTORS
330
5000
102
}
330
5000
100
AcDbScale
 70
     0
300
1/64" = 1'-0"
140
0.015625
141
12.0
290
     0
  0
SCALE
  5
5014
102
{ACAD_REACTORS
330
5000
102
}
330
5000
100
AcDbScale
 70
     0
300
1/32" = 1'-0"
140
0.03125
141
12.0
290
     0
  0
SCALE
  5
5015
102
{ACAD_REACTORS
330
5000
102
}
330
5000
100
AcDbScale
 70
     0
300
1/16" = 1'-0"
140
0.0625
141
12.0
290
     0
  0
SCALE
  5
5016
102
{ACAD_REACTORS
330
5000
102
}
330
5000
100
AcDbScale
 70
     0
300
3/32" = 1'-0"
140
0.09375
141
12.0
290
     0
  0
SCALE
  5
5017
102
{ACAD_REACTORS
330
5000
102
}
330
5000
100
AcDbScale
 70
     0
300
1/8" = 1'-0"
140
0.125
141
12.0
290
     0
  0
SCALE
  5
5018
102
{ACAD_REACTORS
330
5000
102
}
330
5000
100
AcDbScale
 70
     0
300
3/16" = 1'-0"
140
0.1875
141
12.0
290
     0
  0
SCALE
  5
5019
102
{ACAD_REACTORS
330
5000
102
}
330
5000
100
AcDbScale
 70
     0
300
1/4" = 1'-0"
140
0.25
141
12.0
290
     0
  0
SCALE
  5
501A
102
{ACAD_REACTORS
330
5000
102
}
330
5000
100
AcDbScale
 70
     0
300
3/8" = 1'-0"
140
0.375
141
12.0
290
     0
  0
SCALE
  5
501B
102
{ACAD_REACTORS
330
5000
102
}
330
5000
100
AcDbScale
 70
     0
300
1/2" = 1'-0"
140
0.5
141
12.0
290
     0
  0
SCALE
  5
501C
102
{ACAD_REACTORS
330
5000
102
}
330
5000
100
AcDbScale
 70
     0
300
3/4" = 1'-0"
140
0.75
141
12.0
290
     0
  0
SCALE
  5
501D
102
{ACAD_REACTORS
330
5000
102
}
330
5000
100
AcDbScale
 70
     0
300
1" = 1'-0"
140
1.0
141
12.0
290
     0
  0
SCALE
  5
501E
102
{ACAD_REACTORS
330
5000
102
}
330
5000
100
AcDbScale
 70
     0
300
1-1/2" = 1'-0"
140
1.5
141
12.0
290
     0
  0
SCALE
  5
501F
102
{ACAD_REACTORS
330
5000
102
}
330
5000
100
AcDbScale
 70
     0
300
3" = 1'-0"
140
3.0
141
12.0
290
     0
  0
SCALE
  5
5020
102
{ACAD_REACTORS
330
5000
102
}
330
5000
100
AcDbScale
 70
     0
300
6" = 1'-0"
140
6.0
141
12.0
290
     0
  0
SCALE
  5
5021
102
{ACAD_REACTORS
330
5000
102
}
330
5000
100
AcDbScale
 70
     0
300
1'-0" = 1'-0"
140
12.0
141
12.0
290
     0
  0
TABLESTYLE
  5
4FFF
102
{ACAD_XDICTIONARY
360
50D6
102
}
102
{ACAD_REACTORS
330
4FE3
102
}
330
4FE3
100
AcDbTableStyle
  3
Standard
 70
     0
 71
     0
 40
0.06
 41
0.06
280
     0
281
     0
  7
Standard
140
0.18
170
     2
 62
     0
 63
     7
283
     0
274
    -2
284
     1
 64
     0
275
    -2
285
     1
 65
     0
276
    -2
286
     1
 66
     0
277
    -2
287
     1
 67
     0
278
    -2
288
     1
 68
     0
279
    -2
289
     1
 69
     0
  7
Standard
140
0.25
170
     5
 62
     0
 63
     7
283
     0
274
    -2
284
     1
 64
     0
275
    -2
285
     1
 65
     0
276
    -2
286
     1
 66
     0
277
    -2
287
     1
 67
     0
278
    -2
288
     1
 68
     0
279
    -2
289
     1
 69
     0
  7
Standard
140
0.18
170
     5
 62
     0
 63
     7
283
     0
274
    -2
284
     1
 64
     0
275
    -2
285
     1
 65
     0
276
    -2
286
     1
 66
     0
277
    -2
287
     1
 67
     0
278
    -2
288
     1
 68
     0
279
    -2
289
     1
 69
     0
  0
VISUALSTYLE
  5
2F
102
{ACAD_REACTORS
330
2A
102
}
330
2A
100
AcDbVisualStyle
  2
2dWireframe
 70
     4
 71
     0
 72
     2
 73
     0
 90
        0
 40
-0.6
 41
-30.0
 62
     5
 63
     7
 74
     1
 91
        4
 64
     7
 65
   257
 75
     1
175
     1
 42
1.0
 92
        0
 66
   257
 43
1.0
 76
     1
 77
     6
 78
     2
 67
     7
 79
     5
170
     0
171
     0
290
     0
174
     0
 93
        1
 44
0.0
173
     0
291
     0
 45
0.0
1001
ACAD
1000
AcDbSavedByObjectVersion
1070
     0
1000
AcDbSavedByObjectVersion
1070
     0
1000
AcDbSavedByObjectVersion
1070
     0
1000
AcDbSavedByObjectVersion
1070
     0
1000
AcDbSavedByObjectVersion
1070
     0
1000
AcDbSavedByObjectVersion
1070
     0
1000
AcDbSavedByObjectVersion
1070
     0
1000
AcDbSavedByObjectVersion
1070
     0
1000
AcDbSavedByObjectVersion
1070
     0
1000
AcDbSavedByObjectVersion
1070
     0
1000
AcDbSavedByObjectVersion
1070
     0
1000
AcDbSavedByObjectVersion
1070
     0
1000
AcDbSavedByObjectVersion
1070
     0
1000
AcDbSavedByObjectVersion
1070
     0
1000
AcDbSavedByObjectVersion
1070
     0
1000
AcDbSavedByObjectVersion
1070
     0
1000
AcDbSavedByObjectVersion
1070
     0
1000
AcDbSavedByObjectVersion
1070
     0
1000
AcDbSavedByObjectVersion
1070
     0
1000
AcDbSavedByObjectVersion
1070
     0
1000
AcDbSavedByObjectVersion
1070
     0
1000
AcDbSavedByObjectVersion
1070
     0
1000
AcDbSavedByObjectVersion
1070
     0
1000
AcDbSavedByObjectVersion
1070
     0
1000
AcDbSavedByObjectVersion
1070
     0
1000
AcDbSavedByObjectVersion
1070
     0
1000
AcDbSavedByObjectVersion
1070
     0
1000
AcDbSavedByObjectVersion
1070
     0
1000
AcDbSavedByObjectVersion
1070
     0
1000
AcDbSavedByObjectVersion
1070
     0
1000
AcDbSavedByObjectVersion
1070
     0
1000
AcDbSavedByObjectVersion
1070
     0
1000
AcDbSavedByObjectVersion
1070
     0
1000
AcDbSavedByObjectVersion
1070
     0
1000
AcDbSavedByObjectVersion
1070
     0
1000
AcDbSavedByObjectVersion
1070
     0
1000
AcDbSavedByObjectVersion
1070
     0
1000
AcDbSavedByObjectVersion
1070
     0
1000
AcDbSavedByObjectVersion
1070
     0
1000
AcDbSavedByObjectVersion
1070
     0
1000
AcDbSavedByObjectVersion
1070
     0
1000
AcDbSavedByObjectVersion
1070
     0
1000
AcDbSavedByObjectVersion
1070
     0
  0
VISUALSTYLE
  5
31
102
{ACAD_REACTORS
330
2A
102
}
330
2A
100
AcDbVisualStyle
  2
3D Hidden
 70
     6
 71
     1
 72
     2
 73
     2
 90
        0
 40
-0.6
 41
-30.0
 62
     5
 63
     7
 74
     2
 91
        2
 64
     7
 65
   257
 75
     2
175
     1
 42
40.0
 92
        0
 66
   257
 43
1.0
 76
     1
 77
     6
 78
     2
 67
     7
 79
     3
170
     0
171
     0
290
     0
174
     0
 93
        1
 44
0.0
173
     0
291
     0
 45
0.0
1001
ACAD
1000
AcDbSavedByObjectVersion
1070
     0
1000
AcDbSavedByObjectVersion
1070
     0
1000
AcDbSavedByObjectVersion
1070
     0
1000
AcDbSavedByObjectVersion
1070
     0
1000
AcDbSavedByObjectVersion
1070
     0
1000
AcDbSavedByObjectVersion
1070
     0
1000
AcDbSavedByObjectVersion
1070
     0
1000
AcDbSavedByObjectVersion
1070
     0
1000
AcDbSavedByObjectVersion
1070
     0
1000
AcDbSavedByObjectVersion
1070
     0
1000
AcDbSavedByObjectVersion
1070
     0
1000
AcDbSavedByObjectVersion
1070
     0
1000
AcDbSavedByObjectVersion
1070
     0
1000
AcDbSavedByObjectVersion
1070
     0
1000
AcDbSavedByObjectVersion
1070
     0
1000
AcDbSavedByObjectVersion
1070
     0
1000
AcDbSavedByObjectVersion
1070
     0
1000
AcDbSavedByObjectVersion
1070
     0
1000
AcDbSavedByObjectVersion
1070
     0
1000
AcDbSavedByObjectVersion
1070
     0
1000
AcDbSavedByObjectVersion
1070
     0
1000
AcDbSavedByObjectVersion
1070
     0
1000
AcDbSavedByObjectVersion
1070
     0
1000
AcDbSavedByObjectVersion
1070
     0
1000
AcDbSavedByObjectVersion
1070
     0
1000
AcDbSavedByObjectVersion
1070
     0
1000
AcDbSavedByObjectVersion
1070
     0
1000
AcDbSavedByObjectVersion
1070
     0
1000
AcDbSavedByObjectVersion
1070
     0
1000
AcDbSavedByObjectVersion
1070
     0
1000
AcDbSavedByObjectVersion
1070
     0
1000
AcDbSavedByObjectVersion
1070
     0
1000
AcDbSavedByObjectVersion
1070
     0
1000
AcDbSavedByObjectVersion
1070
     0
1000
AcDbSavedByObjectVersion
1070
     0
1000
AcDbSavedByObjectVersion
1070
     0
1000
AcDbSavedByObjectVersion
1070
     0
1000
AcDbSavedByObjectVersion
1070
     0
1000
AcDbSavedByObjectVersion
1070
     0
1000
AcDbSavedByObjectVersion
1070
     0
1000
AcDbSavedByObjectVersion
1070
     0
1000
AcDbSavedByObjectVersion
1070
     0
1000
AcDbSavedByObjectVersion
1070
     0
  0
VISUALSTYLE
  5
30
102
{ACAD_REACTORS
330
2A
102
}
330
2A
100
AcDbVisualStyle
  2
3dWireframe
 70
     5
 71
     0
 72
     2
 73
     0
 90
        0
 40
-0.6
 41
-30.0
 62
     5
 63
     7
 74
     1
 91
        4
 64
     7
 65
   257
 75
     1
175
     1
 42
1.0
 92
        0
 66
   257
 43
1.0
 76
     1
 77
     6
 78
     2
 67
     7
 79
     5
170
     0
171
     0
290
     0
174
     0
 93
        1
 44
0.0
173
     0
291
     0
 45
0.0
1001
ACAD
1000
AcDbSavedByObjectVersion
1070
     0
1000
AcDbSavedByObjectVersion
1070
     0
1000
AcDbSavedByObjectVersion
1070
     0
1000
AcDbSavedByObjectVersion
1070
     0
1000
AcDbSavedByObjectVersion
1070
     0
1000
AcDbSavedByObjectVersion
1070
     0
1000
AcDbSavedByObjectVersion
1070
     0
1000
AcDbSavedByObjectVersion
1070
     0
1000
AcDbSavedByObjectVersion
1070
     0
1000
AcDbSavedByObjectVersion
1070
     0
1000
AcDbSavedByObjectVersion
1070
     0
1000
AcDbSavedByObjectVersion
1070
     0
1000
AcDbSavedByObjectVersion
1070
     0
1000
AcDbSavedByObjectVersion
1070
     0
1000
AcDbSavedByObjectVersion
1070
     0
1000
AcDbSavedByObjectVersion
1070
     0
1000
AcDbSavedByObjectVersion
1070
     0
1000
AcDbSavedByObjectVersion
1070
     0
1000
AcDbSavedByObjectVersion
1070
     0
1000
AcDbSavedByObjectVersion
1070
     0
1000
AcDbSavedByObjectVersion
1070
     0
1000
AcDbSavedByObjectVersion
1070
     0
1000
AcDbSavedByObjectVersion
1070
     0
1000
AcDbSavedByObjectVersion
1070
     0
1000
AcDbSavedByObjectVersion
1070
     0
1000
AcDbSavedByObjectVersion
1070
     0
1000
AcDbSavedByObjectVersion
1070
     0
1000
AcDbSavedByObjectVersion
1070
     0
1000
AcDbSavedByObjectVersion
1070
     0
1000
AcDbSavedByObjectVersion
1070
     0
1000
AcDbSavedByObjectVersion
1070
     0
1000
AcDbSavedByObjectVersion
1070
     0
1000
AcDbSavedByObjectVersion
1070
     0
1000
AcDbSavedByObjectVersion
1070
     0
1000
AcDbSavedByObjectVersion
1070
     0
1000
AcDbSavedByObjectVersion
1070
     0
1000
AcDbSavedByObjectVersion
1070
     0
1000
AcDbSavedByObjectVersion
1070
     0
1000
AcDbSavedByObjectVersion
1070
     0
1000
AcDbSavedByObjectVersion
1070
     0
1000
AcDbSavedByObjectVersion
1070
     0
1000
AcDbSavedByObjectVersion
1070
     0
1000
AcDbSavedByObjectVersion
1070
     0
  0
VISUALSTYLE
  5
32
102
{ACAD_REACTORS
330
2A
102
}
330
2A
100
AcDbVisualStyle
  2
Basic
 70
     7
 71
     1
 72
     0
 73
     1
 90
        0
 40
-0.6
 41
-30.0
 62
     5
 63
     7
 74
     0
 91
        4
 64
     7
 65
   257
 75
     1
175
     1
 42
1.0
 92
        8
 66
     7
 43
1.0
 76
     1
 77
     6
 78
     2
 67
     7
 79
     5
170
     0
171
     0
290
     0
174
     0
 93
        1
 44
0.0
173
     0
291
     1
 45
0.0
1001
ACAD
1000
AcDbSavedByObjectVersion
1070
     0
1000
AcDbSavedByObjectVersion
1070
     0
1000
AcDbSavedByObjectVersion
1070
     0
1000
AcDbSavedByObjectVersion
1070
     0
1000
AcDbSavedByObjectVersion
1070
     0
1000
AcDbSavedByObjectVersion
1070
     0
1000
AcDbSavedByObjectVersion
1070
     0
1000
AcDbSavedByObjectVersion
1070
     0
1000
AcDbSavedByObjectVersion
1070
     0
1000
AcDbSavedByObjectVersion
1070
     0
1000
AcDbSavedByObjectVersion
1070
     0
1000
AcDbSavedByObjectVersion
1070
     0
1000
AcDbSavedByObjectVersion
1070
     0
1000
AcDbSavedByObjectVersion
1070
     0
1000
AcDbSavedByObjectVersion
1070
     0
1000
AcDbSavedByObjectVersion
1070
     0
1000
AcDbSavedByObjectVersion
1070
     0
1000
AcDbSavedByObjectVersion
1070
     0
1000
AcDbSavedByObjectVersion
1070
     0
1000
AcDbSavedByObjectVersion
1070
     0
1000
AcDbSavedByObjectVersion
1070
     0
1000
AcDbSavedByObjectVersion
1070
     0
1000
AcDbSavedByObjectVersion
1070
     0
1000
AcDbSavedByObjectVersion
1070
     0
1000
AcDbSavedByObjectVersion
1070
     0
1000
AcDbSavedByObjectVersion
1070
     0
1000
AcDbSavedByObjectVersion
1070
     0
1000
AcDbSavedByObjectVersion
1070
     0
1000
AcDbSavedByObjectVersion
1070
     0
1000
AcDbSavedByObjectVersion
1070
     0
1000
AcDbSavedByObjectVersion
1070
     0
1000
AcDbSavedByObjectVersion
1070
     0
1000
AcDbSavedByObjectVersion
1070
     0
1000
AcDbSavedByObjectVersion
1070
     0
1000
AcDbSavedByObjectVersion
1070
     0
1000
AcDbSavedByObjectVersion
1070
     0
1000
AcDbSavedByObjectVersion
1070
     0
1000
AcDbSavedByObjectVersion
1070
     0
1000
AcDbSavedByObjectVersion
1070
     0
1000
AcDbSavedByObjectVersion
1070
     0
1000
AcDbSavedByObjectVersion
1070
     0
1000
AcDbSavedByObjectVersion
1070
     0
1000
AcDbSavedByObjectVersion
1070
     0
  0
VISUALSTYLE
  5
36
102
{ACAD_REACTORS
330
2A
102
}
330
2A
100
AcDbVisualStyle
  2
Brighten
 70
    12
 71
     2
 72
     2
 73
     0
 90
        0
 40
-0.6
 41
-30.0
 62
     5
 63
     7
 74
     1
 91
        4
 64
     7
 65
   257
 75
     1
175
     1
 42
1.0
 92
        8
 66
     7
 43
1.0
 76
     1
 77
     6
 78
     2
 67
     7
 79
     5
170
     0
171
     0
290
     0
174
     0
 93
        1
 44
50.0
173
     0
291
     1
 45
0.0
1001
ACAD
1000
AcDbSavedByObjectVersion
1070
     0
1000
AcDbSavedByObjectVersion
1070
     0
1000
AcDbSavedByObjectVersion
1070
     0
1000
AcDbSavedByObjectVersion
1070
     0
1000
AcDbSavedByObjectVersion
1070
     0
1000
AcDbSavedByObjectVersion
1070
     0
1000
AcDbSavedByObjectVersion
1070
     0
1000
AcDbSavedByObjectVersion
1070
     0
1000
AcDbSavedByObjectVersion
1070
     0
1000
AcDbSavedByObjectVersion
1070
     0
1000
AcDbSavedByObjectVersion
1070
     0
1000
AcDbSavedByObjectVersion
1070
     0
1000
AcDbSavedByObjectVersion
1070
     0
1000
AcDbSavedByObjectVersion
1070
     0
1000
AcDbSavedByObjectVersion
1070
     0
1000
AcDbSavedByObjectVersion
1070
     0
1000
AcDbSavedByObjectVersion
1070
     0
1000
AcDbSavedByObjectVersion
1070
     0
1000
AcDbSavedByObjectVersion
1070
     0
1000
AcDbSavedByObjectVersion
1070
     0
1000
AcDbSavedByObjectVersion
1070
     0
1000
AcDbSavedByObjectVersion
1070
     0
1000
AcDbSavedByObjectVersion
1070
     0
1000
AcDbSavedByObjectVersion
1070
     0
1000
AcDbSavedByObjectVersion
1070
     0
1000
AcDbSavedByObjectVersion
1070
     0
1000
AcDbSavedByObjectVersion
1070
     0
1000
AcDbSavedByObjectVersion
1070
     0
1000
AcDbSavedByObjectVersion
1070
     0
1000
AcDbSavedByObjectVersion
1070
     0
1000
AcDbSavedByObjectVersion
1070
     0
1000
AcDbSavedByObjectVersion
1070
     0
1000
AcDbSavedByObjectVersion
1070
     0
1000
AcDbSavedByObjectVersion
1070
     0
1000
AcDbSavedByObjectVersion
1070
     0
1000
AcDbSavedByObjectVersion
1070
     0
1000
AcDbSavedByObjectVersion
1070
     0
1000
AcDbSavedByObjectVersion
1070
     0
1000
AcDbSavedByObjectVersion
1070
     0
1000
AcDbSavedByObjectVersion
1070
     0
1000
AcDbSavedByObjectVersion
1070
     0
1000
AcDbSavedByObjectVersion
1070
     0
1000
AcDbSavedByObjectVersion
1070
     0
  0
VISUALSTYLE
  5
3A
102
{ACAD_REACTORS
330
2A
102
}
330
2A
100
AcDbVisualStyle
  2
ColorChange
 70
    16
 71
     2
 72
     2
 73
     3
 90
        0
 40
-0.6
 41
-30.0
 62
     5
 63
     8
 74
     1
 91
        4
 64
     7
 65
   257
 75
     1
175
     1
 42
1.0
 92
        8
 66
     8
 43
1.0
 76
     1
 77
     6
 78
     2
 67
     7
 79
     5
170
     0
171
     0
290
     0
174
     0
 93
        1
 44
0.0
173
     0
291
     1
 45
0.0
1001
ACAD
1000
AcDbSavedByObjectVersion
1070
     0
1000
AcDbSavedByObjectVersion
1070
     0
1000
AcDbSavedByObjectVersion
1070
     0
1000
AcDbSavedByObjectVersion
1070
     0
1000
AcDbSavedByObjectVersion
1070
     0
1000
AcDbSavedByObjectVersion
1070
     0
1000
AcDbSavedByObjectVersion
1070
     0
1000
AcDbSavedByObjectVersion
1070
     0
1000
AcDbSavedByObjectVersion
1070
     0
1000
AcDbSavedByObjectVersion
1070
     0
1000
AcDbSavedByObjectVersion
1070
     0
1000
AcDbSavedByObjectVersion
1070
     0
1000
AcDbSavedByObjectVersion
1070
     0
1000
AcDbSavedByObjectVersion
1070
     0
1000
AcDbSavedByObjectVersion
1070
     0
1000
AcDbSavedByObjectVersion
1070
     0
1000
AcDbSavedByObjectVersion
1070
     0
1000
AcDbSavedByObjectVersion
1070
     0
1000
AcDbSavedByObjectVersion
1070
     0
1000
AcDbSavedByObjectVersion
1070
     0
1000
AcDbSavedByObjectVersion
1070
     0
1000
AcDbSavedByObjectVersion
1070
     0
1000
AcDbSavedByObjectVersion
1070
     0
1000
AcDbSavedByObjectVersion
1070
     0
1000
AcDbSavedByObjectVersion
1070
     0
1000
AcDbSavedByObjectVersion
1070
     0
1000
AcDbSavedByObjectVersion
1070
     0
1000
AcDbSavedByObjectVersion
1070
     0
1000
AcDbSavedByObjectVersion
1070
     0
1000
AcDbSavedByObjectVersion
1070
     0
1000
AcDbSavedByObjectVersion
1070
     0
1000
AcDbSavedByObjectVersion
1070
     0
1000
AcDbSavedByObjectVersion
1070
     0
1000
AcDbSavedByObjectVersion
1070
     0
1000
AcDbSavedByObjectVersion
1070
     0
1000
AcDbSavedByObjectVersion
1070
     0
1000
AcDbSavedByObjectVersion
1070
     0
1000
AcDbSavedByObjectVersion
1070
     0
1000
AcDbSavedByObjectVersion
1070
     0
1000
AcDbSavedByObjectVersion
1070
     0
1000
AcDbSavedByObjectVersion
1070
     0
1000
AcDbSavedByObjectVersion
1070
     0
1000
AcDbSavedByObjectVersion
1070
     0
  0
VISUALSTYLE
  5
34
102
{ACAD_REACTORS
330
2A
102
}
330
2A
100
AcDbVisualStyle
  2
Conceptual
 70
     9
 71
     3
 72
     2
 73
     0
 90
        0
 40
-0.6
 41
-30.0
 62
     5
 63
     7
 74
     2
 91
        2
 64
     7
 65
   257
 75
     1
175
     1
 42
40.0
 92
        8
 66
     7
 43
1.0
 76
     1
 77
     6
 78
     2
 67
     7
 79
     3
170
     0
171
     0
290
     0
174
     0
 93
        1
 44
0.0
173
     0
291
     0
 45
0.0
1001
ACAD
1000
AcDbSavedByObjectVersion
1070
     0
1000
AcDbSavedByObjectVersion
1070
     0
1000
AcDbSavedByObjectVersion
1070
     0
1000
AcDbSavedByObjectVersion
1070
     0
1000
AcDbSavedByObjectVersion
1070
     0
1000
AcDbSavedByObjectVersion
1070
     0
1000
AcDbSavedByObjectVersion
1070
     0
1000
AcDbSavedByObjectVersion
1070
     0
1000
AcDbSavedByObjectVersion
1070
     0
1000
AcDbSavedByObjectVersion
1070
     0
1000
AcDbSavedByObjectVersion
1070
     0
1000
AcDbSavedByObjectVersion
1070
     0
1000
AcDbSavedByObjectVersion
1070
     0
1000
AcDbSavedByObjectVersion
1070
     0
1000
AcDbSavedByObjectVersion
1070
     0
1000
AcDbSavedByObjectVersion
1070
     0
1000
AcDbSavedByObjectVersion
1070
     0
1000
AcDbSavedByObjectVersion
1070
     0
1000
AcDbSavedByObjectVersion
1070
     0
1000
AcDbSavedByObjectVersion
1070
     0
1000
AcDbSavedByObjectVersion
1070
     0
1000
AcDbSavedByObjectVersion
1070
     0
1000
AcDbSavedByObjectVersion
1070
     0
1000
AcDbSavedByObjectVersion
1070
     0
1000
AcDbSavedByObjectVersion
1070
     0
1000
AcDbSavedByObjectVersion
1070
     0
1000
AcDbSavedByObjectVersion
1070
     0
1000
AcDbSavedByObjectVersion
1070
     0
1000
AcDbSavedByObjectVersion
1070
     0
1000
AcDbSavedByObjectVersion
1070
     0
1000
AcDbSavedByObjectVersion
1070
     0
1000
AcDbSavedByObjectVersion
1070
     0
1000
AcDbSavedByObjectVersion
1070
     0
1000
AcDbSavedByObjectVersion
1070
     0
1000
AcDbSavedByObjectVersion
1070
     0
1000
AcDbSavedByObjectVersion
1070
     0
1000
AcDbSavedByObjectVersion
1070
     0
1000
AcDbSavedByObjectVersion
1070
     0
1000
AcDbSavedByObjectVersion
1070
     0
1000
AcDbSavedByObjectVersion
1070
     0
1000
AcDbSavedByObjectVersion
1070
     0
1000
AcDbSavedByObjectVersion
1070
     0
1000
AcDbSavedByObjectVersion
1070
     0
  0
VISUALSTYLE
  5
35
102
{ACAD_REACTORS
330
2A
102
}
330
2A
100
AcDbVisualStyle
  2
Dim
 70
    11
 71
     2
 72
     2
 73
     0
 90
        0
 40
-0.6
 41
-30.0
 62
     5
 63
     7
 74
     1
 91
        4
 64
     7
 65
   257
 75
     1
175
     1
 42
1.0
 92
        8
 66
     7
 43
1.0
 76
     1
 77
     6
 78
     2
 67
     7
 79
     5
170
     0
171
     0
290
     0
174
     0
 93
        1
 44
-50.0
173
     0
291
     1
 45
0.0
1001
ACAD
1000
AcDbSavedByObjectVersion
1070
     0
1000
AcDbSavedByObjectVersion
1070
     0
1000
AcDbSavedByObjectVersion
1070
     0
1000
AcDbSavedByObjectVersion
1070
     0
1000
AcDbSavedByObjectVersion
1070
     0
1000
AcDbSavedByObjectVersion
1070
     0
1000
AcDbSavedByObjectVersion
1070
     0
1000
AcDbSavedByObjectVersion
1070
     0
1000
AcDbSavedByObjectVersion
1070
     0
1000
AcDbSavedByObjectVersion
1070
     0
1000
AcDbSavedByObjectVersion
1070
     0
1000
AcDbSavedByObjectVersion
1070
     0
1000
AcDbSavedByObjectVersion
1070
     0
1000
AcDbSavedByObjectVersion
1070
     0
1000
AcDbSavedByObjectVersion
1070
     0
1000
AcDbSavedByObjectVersion
1070
     0
1000
AcDbSavedByObjectVersion
1070
     0
1000
AcDbSavedByObjectVersion
1070
     0
1000
AcDbSavedByObjectVersion
1070
     0
1000
AcDbSavedByObjectVersion
1070
     0
1000
AcDbSavedByObjectVersion
1070
     0
1000
AcDbSavedByObjectVersion
1070
     0
1000
AcDbSavedByObjectVersion
1070
     0
1000
AcDbSavedByObjectVersion
1070
     0
1000
AcDbSavedByObjectVersion
1070
     0
1000
AcDbSavedByObjectVersion
1070
     0
1000
AcDbSavedByObjectVersion
1070
     0
1000
AcDbSavedByObjectVersion
1070
     0
1000
AcDbSavedByObjectVersion
1070
     0
1000
AcDbSavedByObjectVersion
1070
     0
1000
AcDbSavedByObjectVersion
1070
     0
1000
AcDbSavedByObjectVersion
1070
     0
1000
AcDbSavedByObjectVersion
1070
     0
1000
AcDbSavedByObjectVersion
1070
     0
1000
AcDbSavedByObjectVersion
1070
     0
1000
AcDbSavedByObjectVersion
1070
     0
1000
AcDbSavedByObjectVersion
1070
     0
1000
AcDbSavedByObjectVersion
1070
     0
1000
AcDbSavedByObjectVersion
1070
     0
1000
AcDbSavedByObjectVersion
1070
     0
1000
AcDbSavedByObjectVersion
1070
     0
1000
AcDbSavedByObjectVersion
1070
     0
1000
AcDbSavedByObjectVersion
1070
     0
  0
VISUALSTYLE
  5
39
102
{ACAD_REACTORS
330
2A
102
}
330
2A
100
AcDbVisualStyle
  2
Facepattern
 70
    15
 71
     2
 72
     2
 73
     0
 90
        0
 40
-0.6
 41
-30.0
 62
     5
 63
     7
 74
     1
 91
        4
 64
     7
 65
   257
 75
     1
175
     1
 42
1.0
 92
        8
 66
     7
 43
1.0
 76
     1
 77
     6
 78
     2
 67
     7
 79
     5
170
     0
171
     0
290
     0
174
     0
 93
        1
 44
0.0
173
     0
291
     1
 45
0.0
1001
ACAD
1000
AcDbSavedByObjectVersion
1070
     0
1000
AcDbSavedByObjectVersion
1070
     0
1000
AcDbSavedByObjectVersion
1070
     0
1000
AcDbSavedByObjectVersion
1070
     0
1000
AcDbSavedByObjectVersion
1070
     0
1000
AcDbSavedByObjectVersion
1070
     0
1000
AcDbSavedByObjectVersion
1070
     0
1000
AcDbSavedByObjectVersion
1070
     0
1000
AcDbSavedByObjectVersion
1070
     0
1000
AcDbSavedByObjectVersion
1070
     0
1000
AcDbSavedByObjectVersion
1070
     0
1000
AcDbSavedByObjectVersion
1070
     0
1000
AcDbSavedByObjectVersion
1070
     0
1000
AcDbSavedByObjectVersion
1070
     0
1000
AcDbSavedByObjectVersion
1070
     0
1000
AcDbSavedByObjectVersion
1070
     0
1000
AcDbSavedByObjectVersion
1070
     0
1000
AcDbSavedByObjectVersion
1070
     0
1000
AcDbSavedByObjectVersion
1070
     0
1000
AcDbSavedByObjectVersion
1070
     0
1000
AcDbSavedByObjectVersion
1070
     0
1000
AcDbSavedByObjectVersion
1070
     0
1000
AcDbSavedByObjectVersion
1070
     0
1000
AcDbSavedByObjectVersion
1070
     0
1000
AcDbSavedByObjectVersion
1070
     0
1000
AcDbSavedByObjectVersion
1070
     0
1000
AcDbSavedByObjectVersion
1070
     0
1000
AcDbSavedByObjectVersion
1070
     0
1000
AcDbSavedByObjectVersion
1070
     0
1000
AcDbSavedByObjectVersion
1070
     0
1000
AcDbSavedByObjectVersion
1070
     0
1000
AcDbSavedByObjectVersion
1070
     0
1000
AcDbSavedByObjectVersion
1070
     0
1000
AcDbSavedByObjectVersion
1070
     0
1000
AcDbSavedByObjectVersion
1070
     0
1000
AcDbSavedByObjectVersion
1070
     0
1000
AcDbSavedByObjectVersion
1070
     0
1000
AcDbSavedByObjectVersion
1070
     0
1000
AcDbSavedByObjectVersion
1070
     0
1000
AcDbSavedByObjectVersion
1070
     0
1000
AcDbSavedByObjectVersion
1070
     0
1000
AcDbSavedByObjectVersion
1070
     0
1000
AcDbSavedByObjectVersion
1070
     0
  0
VISUALSTYLE
  5
2B
102
{ACAD_REACTORS
330
2A
102
}
330
2A
100
AcDbVisualStyle
  2
Flat
 70
     0
 71
     2
 72
     1
 73
     1
 90
        2
 40
-0.6
 41
30.0
 62
     5
 63
     7
 74
     0
 91
        4
 64
     7
 65
   257
 75
     1
175
     1
 42
1.0
 92
        8
 66
     7
 43
1.0
 76
     1
 77
     6
 78
     2
 67
     7
 79
     5
170
     0
171
     0
290
     0
174
     0
 93
       13
 44
0.0
173
     0
291
     1
 45
0.0
1001
ACAD
1000
AcDbSavedByObjectVersion
1070
     0
1000
AcDbSavedByObjectVersion
1070
     0
1000
AcDbSavedByObjectVersion
1070
     0
1000
AcDbSavedByObjectVersion
1070
     0
1000
AcDbSavedByObjectVersion
1070
     0
1000
AcDbSavedByObjectVersion
1070
     0
1000
AcDbSavedByObjectVersion
1070
     0
1000
AcDbSavedByObjectVersion
1070
     0
1000
AcDbSavedByObjectVersion
1070
     0
1000
AcDbSavedByObjectVersion
1070
     0
1000
AcDbSavedByObjectVersion
1070
     0
1000
AcDbSavedByObjectVersion
1070
     0
1000
AcDbSavedByObjectVersion
1070
     0
1000
AcDbSavedByObjectVersion
1070
     0
1000
AcDbSavedByObjectVersion
1070
     0
1000
AcDbSavedByObjectVersion
1070
     0
1000
AcDbSavedByObjectVersion
1070
     0
1000
AcDbSavedByObjectVersion
1070
     0
1000
AcDbSavedByObjectVersion
1070
     0
1000
AcDbSavedByObjectVersion
1070
     0
1000
AcDbSavedByObjectVersion
1070
     0
1000
AcDbSavedByObjectVersion
1070
     0
1000
AcDbSavedByObjectVersion
1070
     0
1000
AcDbSavedByObjectVersion
1070
     0
1000
AcDbSavedByObjectVersion
1070
     0
1000
AcDbSavedByObjectVersion
1070
     0
1000
AcDbSavedByObjectVersion
1070
     0
1000
AcDbSavedByObjectVersion
1070
     0
1000
AcDbSavedByObjectVersion
1070
     0
1000
AcDbSavedByObjectVersion
1070
     0
1000
AcDbSavedByObjectVersion
1070
     0
1000
AcDbSavedByObjectVersion
1070
     0
1000
AcDbSavedByObjectVersion
1070
     0
1000
AcDbSavedByObjectVersion
1070
     0
1000
AcDbSavedByObjectVersion
1070
     0
1000
AcDbSavedByObjectVersion
1070
     0
1000
AcDbSavedByObjectVersion
1070
     0
1000
AcDbSavedByObjectVersion
1070
     0
1000
AcDbSavedByObjectVersion
1070
     0
1000
AcDbSavedByObjectVersion
1070
     0
1000
AcDbSavedByObjectVersion
1070
     0
1000
AcDbSavedByObjectVersion
1070
     0
1000
AcDbSavedByObjectVersion
1070
     0
  0
VISUALSTYLE
  5
2C
102
{ACAD_REACTORS
330
2A
102
}
330
2A
100
AcDbVisualStyle
  2
FlatWithEdges
 70
     1
 71
     2
 72
     1
 73
     1
 90
        2
 40
-0.6
 41
30.0
 62
     5
 63
     7
 74
     1
 91
        4
 64
     7
 65
   257
 75
     1
175
     1
 42
1.0
 92
        0
 66
   257
 43
1.0
 76
     1
 77
     6
 78
     2
 67
     7
 79
     5
170
     0
171
     0
290
     0
174
     0
 93
       13
 44
0.0
173
     0
291
     1
 45
0.0
1001
ACAD
1000
AcDbSavedByObjectVersion
1070
     0
1000
AcDbSavedByObjectVersion
1070
     0
1000
AcDbSavedByObjectVersion
1070
     0
1000
AcDbSavedByObjectVersion
1070
     0
1000
AcDbSavedByObjectVersion
1070
     0
1000
AcDbSavedByObjectVersion
1070
     0
1000
AcDbSavedByObjectVersion
1070
     0
1000
AcDbSavedByObjectVersion
1070
     0
1000
AcDbSavedByObjectVersion
1070
     0
1000
AcDbSavedByObjectVersion
1070
     0
1000
AcDbSavedByObjectVersion
1070
     0
1000
AcDbSavedByObjectVersion
1070
     0
1000
AcDbSavedByObjectVersion
1070
     0
1000
AcDbSavedByObjectVersion
1070
     0
1000
AcDbSavedByObjectVersion
1070
     0
1000
AcDbSavedByObjectVersion
1070
     0
1000
AcDbSavedByObjectVersion
1070
     0
1000
AcDbSavedByObjectVersion
1070
     0
1000
AcDbSavedByObjectVersion
1070
     0
1000
AcDbSavedByObjectVersion
1070
     0
1000
AcDbSavedByObjectVersion
1070
     0
1000
AcDbSavedByObjectVersion
1070
     0
1000
AcDbSavedByObjectVersion
1070
     0
1000
AcDbSavedByObjectVersion
1070
     0
1000
AcDbSavedByObjectVersion
1070
     0
1000
AcDbSavedByObjectVersion
1070
     0
1000
AcDbSavedByObjectVersion
1070
     0
1000
AcDbSavedByObjectVersion
1070
     0
1000
AcDbSavedByObjectVersion
1070
     0
1000
AcDbSavedByObjectVersion
1070
     0
1000
AcDbSavedByObjectVersion
1070
     0
1000
AcDbSavedByObjectVersion
1070
     0
1000
AcDbSavedByObjectVersion
1070
     0
1000
AcDbSavedByObjectVersion
1070
     0
1000
AcDbSavedByObjectVersion
1070
     0
1000
AcDbSavedByObjectVersion
1070
     0
1000
AcDbSavedByObjectVersion
1070
     0
1000
AcDbSavedByObjectVersion
1070
     0
1000
AcDbSavedByObjectVersion
1070
     0
1000
AcDbSavedByObjectVersion
1070
     0
1000
AcDbSavedByObjectVersion
1070
     0
1000
AcDbSavedByObjectVersion
1070
     0
1000
AcDbSavedByObjectVersion
1070
     0
  0
VISUALSTYLE
  5
2D
102
{ACAD_REACTORS
330
2A
102
}
330
2A
100
AcDbVisualStyle
  2
Gouraud
 70
     2
 71
     2
 72
     2
 73
     1
 90
        2
 40
-0.6
 41
30.0
 62
     5
 63
     7
 74
     0
 91
        4
 64
     7
 65
   257
 75
     1
175
     1
 42
1.0
 92
        0
 66
     7
 43
1.0
 76
     1
 77
     6
 78
     2
 67
     7
 79
     5
170
     0
171
     0
290
     0
174
     0
 93
       13
 44
0.0
173
     0
291
     1
 45
0.0
1001
ACAD
1000
AcDbSavedByObjectVersion
1070
     0
1000
AcDbSavedByObjectVersion
1070
     0
1000
AcDbSavedByObjectVersion
1070
     0
1000
AcDbSavedByObjectVersion
1070
     0
1000
AcDbSavedByObjectVersion
1070
     0
1000
AcDbSavedByObjectVersion
1070
     0
1000
AcDbSavedByObjectVersion
1070
     0
1000
AcDbSavedByObjectVersion
1070
     0
1000
AcDbSavedByObjectVersion
1070
     0
1000
AcDbSavedByObjectVersion
1070
     0
1000
AcDbSavedByObjectVersion
1070
     0
1000
AcDbSavedByObjectVersion
1070
     0
1000
AcDbSavedByObjectVersion
1070
     0
1000
AcDbSavedByObjectVersion
1070
     0
1000
AcDbSavedByObjectVersion
1070
     0
1000
AcDbSavedByObjectVersion
1070
     0
1000
AcDbSavedByObjectVersion
1070
     0
1000
AcDbSavedByObjectVersion
1070
     0
1000
AcDbSavedByObjectVersion
1070
     0
1000
AcDbSavedByObjectVersion
1070
     0
1000
AcDbSavedByObjectVersion
1070
     0
1000
AcDbSavedByObjectVersion
1070
     0
1000
AcDbSavedByObjectVersion
1070
     0
1000
AcDbSavedByObjectVersion
1070
     0
1000
AcDbSavedByObjectVersion
1070
     0
1000
AcDbSavedByObjectVersion
1070
     0
1000
AcDbSavedByObjectVersion
1070
     0
1000
AcDbSavedByObjectVersion
1070
     0
1000
AcDbSavedByObjectVersion
1070
     0
1000
AcDbSavedByObjectVersion
1070
     0
1000
AcDbSavedByObjectVersion
1070
     0
1000
AcDbSavedByObjectVersion
1070
     0
1000
AcDbSavedByObjectVersion
1070
     0
1000
AcDbSavedByObjectVersion
1070
     0
1000
AcDbSavedByObjectVersion
1070
     0
1000
AcDbSavedByObjectVersion
1070
     0
1000
AcDbSavedByObjectVersion
1070
     0
1000
AcDbSavedByObjectVersion
1070
     0
1000
AcDbSavedByObjectVersion
1070
     0
1000
AcDbSavedByObjectVersion
1070
     0
1000
AcDbSavedByObjectVersion
1070
     0
1000
AcDbSavedByObjectVersion
1070
     0
1000
AcDbSavedByObjectVersion
1070
     0
  0
VISUALSTYLE
  5
2E
102
{ACAD_REACTORS
330
2A
102
}
330
2A
100
AcDbVisualStyle
  2
GouraudWithEdges
 70
     3
 71
     2
 72
     2
 73
     1
 90
        2
 40
-0.6
 41
30.0
 62
     5
 63
     7
 74
     1
 91
        4
 64
     7
 65
   257
 75
     1
175
     1
 42
1.0
 92
        0
 66
   257
 43
1.0
 76
     1
 77
     6
 78
     2
 67
     7
 79
     5
170
     0
171
     0
290
     0
174
     0
 93
       13
 44
0.0
173
     0
291
     1
 45
0.0
1001
ACAD
1000
AcDbSavedByObjectVersion
1070
     0
1000
AcDbSavedByObjectVersion
1070
     0
1000
AcDbSavedByObjectVersion
1070
     0
1000
AcDbSavedByObjectVersion
1070
     0
1000
AcDbSavedByObjectVersion
1070
     0
1000
AcDbSavedByObjectVersion
1070
     0
1000
AcDbSavedByObjectVersion
1070
     0
1000
AcDbSavedByObjectVersion
1070
     0
1000
AcDbSavedByObjectVersion
1070
     0
1000
AcDbSavedByObjectVersion
1070
     0
1000
AcDbSavedByObjectVersion
1070
     0
1000
AcDbSavedByObjectVersion
1070
     0
1000
AcDbSavedByObjectVersion
1070
     0
1000
AcDbSavedByObjectVersion
1070
     0
1000
AcDbSavedByObjectVersion
1070
     0
1000
AcDbSavedByObjectVersion
1070
     0
1000
AcDbSavedByObjectVersion
1070
     0
1000
AcDbSavedByObjectVersion
1070
     0
1000
AcDbSavedByObjectVersion
1070
     0
1000
AcDbSavedByObjectVersion
1070
     0
1000
AcDbSavedByObjectVersion
1070
     0
1000
AcDbSavedByObjectVersion
1070
     0
1000
AcDbSavedByObjectVersion
1070
     0
1000
AcDbSavedByObjectVersion
1070
     0
1000
AcDbSavedByObjectVersion
1070
     0
1000
AcDbSavedByObjectVersion
1070
     0
1000
AcDbSavedByObjectVersion
1070
     0
1000
AcDbSavedByObjectVersion
1070
     0
1000
AcDbSavedByObjectVersion
1070
     0
1000
AcDbSavedByObjectVersion
1070
     0
1000
AcDbSavedByObjectVersion
1070
     0
1000
AcDbSavedByObjectVersion
1070
     0
1000
AcDbSavedByObjectVersion
1070
     0
1000
AcDbSavedByObjectVersion
1070
     0
1000
AcDbSavedByObjectVersion
1070
     0
1000
AcDbSavedByObjectVersion
1070
     0
1000
AcDbSavedByObjectVersion
1070
     0
1000
AcDbSavedByObjectVersion
1070
     0
1000
AcDbSavedByObjectVersion
1070
     0
1000
AcDbSavedByObjectVersion
1070
     0
1000
AcDbSavedByObjectVersion
1070
     0
1000
AcDbSavedByObjectVersion
1070
     0
1000
AcDbSavedByObjectVersion
1070
     0
  0
VISUALSTYLE
  5
38
102
{ACAD_REACTORS
330
2A
102
}
330
2A
100
AcDbVisualStyle
  2
Linepattern
 70
    14
 71
     2
 72
     2
 73
     0
 90
        0
 40
-0.6
 41
-30.0
 62
     5
 63
     7
 74
     1
 91
        4
 64
     7
 65
   257
 75
     7
175
     7
 42
1.0
 92
        8
 66
     7
 43
1.0
 76
     1
 77
     6
 78
     2
 67
     7
 79
     5
170
     0
171
     0
290
     0
174
     0
 93
        1
 44
0.0
173
     0
291
     1
 45
0.0
1001
ACAD
1000
AcDbSavedByObjectVersion
1070
     0
1000
AcDbSavedByObjectVersion
1070
     0
1000
AcDbSavedByObjectVersion
1070
     0
1000
AcDbSavedByObjectVersion
1070
     0
1000
AcDbSavedByObjectVersion
1070
     0
1000
AcDbSavedByObjectVersion
1070
     0
1000
AcDbSavedByObjectVersion
1070
     0
1000
AcDbSavedByObjectVersion
1070
     0
1000
AcDbSavedByObjectVersion
1070
     0
1000
AcDbSavedByObjectVersion
1070
     0
1000
AcDbSavedByObjectVersion
1070
     0
1000
AcDbSavedByObjectVersion
1070
     0
1000
AcDbSavedByObjectVersion
1070
     0
1000
AcDbSavedByObjectVersion
1070
     0
1000
AcDbSavedByObjectVersion
1070
     0
1000
AcDbSavedByObjectVersion
1070
     0
1000
AcDbSavedByObjectVersion
1070
     0
1000
AcDbSavedByObjectVersion
1070
     0
1000
AcDbSavedByObjectVersion
1070
     0
1000
AcDbSavedByObjectVersion
1070
     0
1000
AcDbSavedByObjectVersion
1070
     0
1000
AcDbSavedByObjectVersion
1070
     0
1000
AcDbSavedByObjectVersion
1070
     0
1000
AcDbSavedByObjectVersion
1070
     0
1000
AcDbSavedByObjectVersion
1070
     0
1000
AcDbSavedByObjectVersion
1070
     0
1000
AcDbSavedByObjectVersion
1070
     0
1000
AcDbSavedByObjectVersion
1070
     0
1000
AcDbSavedByObjectVersion
1070
     0
1000
AcDbSavedByObjectVersion
1070
     0
1000
AcDbSavedByObjectVersion
1070
     0
1000
AcDbSavedByObjectVersion
1070
     0
1000
AcDbSavedByObjectVersion
1070
     0
1000
AcDbSavedByObjectVersion
1070
     0
1000
AcDbSavedByObjectVersion
1070
     0
1000
AcDbSavedByObjectVersion
1070
     0
1000
AcDbSavedByObjectVersion
1070
     0
1000
AcDbSavedByObjectVersion
1070
     0
1000
AcDbSavedByObjectVersion
1070
     0
1000
AcDbSavedByObjectVersion
1070
     0
1000
AcDbSavedByObjectVersion
1070
     0
1000
AcDbSavedByObjectVersion
1070
     0
1000
AcDbSavedByObjectVersion
1070
     0
  0
VISUALSTYLE
  5
33
102
{ACAD_REACTORS
330
2A
102
}
330
2A
100
AcDbVisualStyle
  2
Realistic
 70
     8
 71
     2
 72
     2
 73
     0
 90
        0
 40
-0.6
 41
-30.0
 62
     5
 63
     7
 74
     1
 91
        0
 64
     7
 65
   257
 75
     1
175
     1
 42
1.0
 92
        8
 66
     8
 43
1.0
 76
     1
 77
     6
 78
     2
 67
     7
 79
     5
170
     0
171
     0
290
     0
174
     0
 93
       13
 44
0.0
173
     0
291
     0
 45
0.0
1001
ACAD
1000
AcDbSavedByObjectVersion
1070
     0
1000
AcDbSavedByObjectVersion
1070
     0
1000
AcDbSavedByObjectVersion
1070
     0
1000
AcDbSavedByObjectVersion
1070
     0
1000
AcDbSavedByObjectVersion
1070
     0
1000
AcDbSavedByObjectVersion
1070
     0
1000
AcDbSavedByObjectVersion
1070
     0
1000
AcDbSavedByObjectVersion
1070
     0
1000
AcDbSavedByObjectVersion
1070
     0
1000
AcDbSavedByObjectVersion
1070
     0
1000
AcDbSavedByObjectVersion
1070
     0
1000
AcDbSavedByObjectVersion
1070
     0
1000
AcDbSavedByObjectVersion
1070
     0
1000
AcDbSavedByObjectVersion
1070
     0
1000
AcDbSavedByObjectVersion
1070
     0
1000
AcDbSavedByObjectVersion
1070
     0
1000
AcDbSavedByObjectVersion
1070
     0
1000
AcDbSavedByObjectVersion
1070
     0
1000
AcDbSavedByObjectVersion
1070
     0
1000
AcDbSavedByObjectVersion
1070
     0
1000
AcDbSavedByObjectVersion
1070
     0
1000
AcDbSavedByObjectVersion
1070
     0
1000
AcDbSavedByObjectVersion
1070
     0
1000
AcDbSavedByObjectVersion
1070
     0
1000
AcDbSavedByObjectVersion
1070
     0
1000
AcDbSavedByObjectVersion
1070
     0
1000
AcDbSavedByObjectVersion
1070
     0
1000
AcDbSavedByObjectVersion
1070
     0
1000
AcDbSavedByObjectVersion
1070
     0
1000
AcDbSavedByObjectVersion
1070
     0
1000
AcDbSavedByObjectVersion
1070
     0
1000
AcDbSavedByObjectVersion
1070
     0
1000
AcDbSavedByObjectVersion
1070
     0
1000
AcDbSavedByObjectVersion
1070
     0
1000
AcDbSavedByObjectVersion
1070
     0
1000
AcDbSavedByObjectVersion
1070
     0
1000
AcDbSavedByObjectVersion
1070
     0
1000
AcDbSavedByObjectVersion
1070
     0
1000
AcDbSavedByObjectVersion
1070
     0
1000
AcDbSavedByObjectVersion
1070
     0
1000
AcDbSavedByObjectVersion
1070
     0
1000
AcDbSavedByObjectVersion
1070
     0
1000
AcDbSavedByObjectVersion
1070
     0
  0
VISUALSTYLE
  5
37
102
{ACAD_REACTORS
330
2A
102
}
330
2A
100
AcDbVisualStyle
  2
Thicken
 70
    13
 71
     2
 72
     2
 73
     0
 90
        0
 40
-0.6
 41
-30.0
 62
     5
 63
     7
 74
     1
 91
        4
 64
     7
 65
   257
 75
     1
175
     1
 42
1.0
 92
       12
 66
     7
 43
1.0
 76
     1
 77
     6
 78
     2
 67
     7
 79
     5
170
     0
171
     0
290
     0
174
     0
 93
        1
 44
0.0
173
     0
291
     1
 45
0.0
1001
ACAD
1000
AcDbSavedByObjectVersion
1070
     0
1000
AcDbSavedByObjectVersion
1070
     0
1000
AcDbSavedByObjectVersion
1070
     0
1000
AcDbSavedByObjectVersion
1070
     0
1000
AcDbSavedByObjectVersion
1070
     0
1000
AcDbSavedByObjectVersion
1070
     0
1000
AcDbSavedByObjectVersion
1070
     0
1000
AcDbSavedByObjectVersion
1070
     0
1000
AcDbSavedByObjectVersion
1070
     0
1000
AcDbSavedByObjectVersion
1070
     0
1000
AcDbSavedByObjectVersion
1070
     0
1000
AcDbSavedByObjectVersion
1070
     0
1000
AcDbSavedByObjectVersion
1070
     0
1000
AcDbSavedByObjectVersion
1070
     0
1000
AcDbSavedByObjectVersion
1070
     0
1000
AcDbSavedByObjectVersion
1070
     0
1000
AcDbSavedByObjectVersion
1070
     0
1000
AcDbSavedByObjectVersion
1070
     0
1000
AcDbSavedByObjectVersion
1070
     0
1000
AcDbSavedByObjectVersion
1070
     0
1000
AcDbSavedByObjectVersion
1070
     0
1000
AcDbSavedByObjectVersion
1070
     0
1000
AcDbSavedByObjectVersion
1070
     0
1000
AcDbSavedByObjectVersion
1070
     0
1000
AcDbSavedByObjectVersion
1070
     0
1000
AcDbSavedByObjectVersion
1070
     0
1000
AcDbSavedByObjectVersion
1070
     0
1000
AcDbSavedByObjectVersion
1070
     0
1000
AcDbSavedByObjectVersion
1070
     0
1000
AcDbSavedByObjectVersion
1070
     0
1000
AcDbSavedByObjectVersion
1070
     0
1000
AcDbSavedByObjectVersion
1070
     0
1000
AcDbSavedByObjectVersion
1070
     0
1000
AcDbSavedByObjectVersion
1070
     0
1000
AcDbSavedByObjectVersion
1070
     0
1000
AcDbSavedByObjectVersion
1070
     0
1000
AcDbSavedByObjectVersion
1070
     0
1000
AcDbSavedByObjectVersion
1070
     0
1000
AcDbSavedByObjectVersion
1070
     0
1000
AcDbSavedByObjectVersion
1070
     0
1000
AcDbSavedByObjectVersion
1070
     0
1000
AcDbSavedByObjectVersion
1070
     0
1000
AcDbSavedByObjectVersion
1070
     0
  0
DICTIONARYVAR
  5
510B
102
{ACAD_REACTORS
330
5108
102
}
330
5108
100
DictionaryVariables
280
     0
  1
1:1
  0
DICTIONARYVAR
  5
510A
102
{ACAD_REACTORS
330
5108
102
}
330
5108
100
DictionaryVariables
280
     0
  1
STANDARD
  0
DICTIONARYVAR
  5
5109
102
{ACAD_REACTORS
330
5108
102
}
330
5108
100
DictionaryVariables
280
     0
  1
STANDARD
  0
DICTIONARYVAR
  5
510E
102
{ACAD_REACTORS
330
5108
102
}
330
5108
100
DictionaryVariables
280
     0
  1
1
  0
DICTIONARYVAR
  5
510D
102
{ACAD_REACTORS
330
5108
102
}
330
5108
100
DictionaryVariables
280
     0
  1
0
  0
DICTIONARYVAR
  5
510C
102
{ACAD_REACTORS
330
5108
102
}
330
5108
100
DictionaryVariables
280
     0
  1
127
  0
XRECORD
  5
11ACF
102
{ACAD_REACTORS
330
11ACE
102
}
330
11ACE
100
AcDbXrecord
280
     1
330
11089
  0
DICTIONARY
  5
147F7
330
1E
100
AcDbDictionary
280
     1
281
     1
  3
ACAD_XREC_ROUNDTRIP
360
147F8
  0
DICTIONARY
  5
147FB
330
26
100
AcDbDictionary
280
     1
281
     1
  3
ACAD_XREC_ROUNDTRIP
360
147FC
  0
DICTIONARY
  5
147F9
330
22
100
AcDbDictionary
280
     1
281
     1
  3
ACAD_XREC_ROUNDTRIP
360
147FA
  0
DICTIONARY
  5
4FEF
330
4FEE
100
AcDbDictionary
280
     1
281
     1
  3
ACAD_XREC_ROUNDTRIP
360
7C2C
  3
BUMPTILE
360
4FF1
  3
DIFFUSETILE
360
4FF0
  3
OPACITYTILE
360
4FF4
  3
REFLECTIONTILE
360
4FF3
  3
REFRACTIONTILE
360
4FF5
  3
SPECULARTILE
360
4FF2
  0
DICTIONARY
  5
4FE7
330
4FE6
100
AcDbDictionary
280
     1
281
     1
  3
ACAD_XREC_ROUNDTRIP
360
7C2B
  3
BUMPTILE
360
4FE9
  3
DIFFUSETILE
360
4FE8
  3
OPACITYTILE
360
4FEC
  3
REFLECTIONTILE
360
4FEB
  3
REFRACTIONTILE
360
4FED
  3
SPECULARTILE
360
4FEA
  0
DICTIONARY
  5
4FF7
330
4FF6
100
AcDbDictionary
280
     1
281
     1
  3
ACAD_XREC_ROUNDTRIP
360
7C2D
  3
BUMPTILE
360
4FF9
  3
DIFFUSETILE
360
4FF8
  3
OPACITYTILE
360
4FFC
  3
REFLECTIONTILE
360
4FFB
  3
REFRACTIONTILE
360
4FFD
  3
SPECULARTILE
360
4FFA
  0
DICTIONARY
  5
50D6
330
4FFF
100
AcDbDictionary
280
     1
281
     1
  3
ACAD_ROUNDTRIP_2008_TABLESTYLE_CELLSTYLEMAP
360
147D9
  3
ACAD_XREC_ROUNDTRIP
360
147FD
  0
XRECORD
  5
147F8
102
{ACAD_REACTORS
330
147F7
102
}
330
147F7
100
AcDbXrecord
280
     1
102
SHADEPLOT
 70
     0
102
SHADEPLOTRESLEVEL
 70
     2
102
SHADEPLOTCUSTOMDPI
 70
   300
  0
XRECORD
  5
147FC
102
{ACAD_REACTORS
330
147FB
102
}
330
147FB
100
AcDbXrecord
280
     1
102
SHADEPLOT
 70
     0
102
SHADEPLOTRESLEVEL
 70
     2
102
SHADEPLOTCUSTOMDPI
 70
   300
  0
XRECORD
  5
147FA
102
{ACAD_REACTORS
330
147F9
102
}
330
147F9
100
AcDbXrecord
280
     1
102
SHADEPLOT
 70
     1
102
SHADEPLOTRESLEVEL
 70
     2
102
SHADEPLOTCUSTOMDPI
 70
   300
  0
XRECORD
  5
7C2C
102
{ACAD_REACTORS
330
4FEF
102
}
330
4FEF
100
AcDbXrecord
280
     1
102
MATERIAL
148
0.0
149
0.0
149
0.0
 93
        0
 94
      127
282
     0
 72
     0
 77
     0
171
     0
175
     0
179
     0
273
     0
  0
XRECORD
  5
4FF1
102
{ACAD_REACTORS
330
4FEF
102
}
330
4FEF
100
AcDbXrecord
280
     1
270
     1
271
     1
  0
XRECORD
  5
4FF0
102
{ACAD_REACTORS
330
4FEF
102
}
330
4FEF
100
AcDbXrecord
280
     1
270
     1
271
     1
  0
XRECORD
  5
4FF4
102
{ACAD_REACTORS
330
4FEF
102
}
330
4FEF
100
AcDbXrecord
280
     1
270
     1
271
     1
  0
XRECORD
  5
4FF3
102
{ACAD_REACTORS
330
4FEF
102
}
330
4FEF
100
AcDbXrecord
280
     1
270
     1
271
     1
  0
XRECORD
  5
4FF5
102
{ACAD_REACTORS
330
4FEF
102
}
330
4FEF
100
AcDbXrecord
280
     1
270
     1
271
     1
  0
XRECORD
  5
4FF2
102
{ACAD_REACTORS
330
4FEF
102
}
330
4FEF
100
AcDbXrecord
280
     1
270
     1
271
     1
  0
XRECORD
  5
7C2B
102
{ACAD_REACTORS
330
4FE7
102
}
330
4FE7
100
AcDbXrecord
280
     1
102
MATERIAL
148
0.0
149
0.0
149
0.0
 93
        0
 94
      127
282
     0
 72
     0
 77
     0
171
     0
175
     0
179
     0
273
     0
  0
XRECORD
  5
4FE9
102
{ACAD_REACTORS
330
4FE7
102
}
330
4FE7
100
AcDbXrecord
280
     1
270
     1
271
     1
  0
XRECORD
  5
4FE8
102
{ACAD_REACTORS
330
4FE7
102
}
330
4FE7
100
AcDbXrecord
280
     1
270
     1
271
     1
  0
XRECORD
  5
4FEC
102
{ACAD_REACTORS
330
4FE7
102
}
330
4FE7
100
AcDbXrecord
280
     1
270
     1
271
     1
  0
XRECORD
  5
4FEB
102
{ACAD_REACTORS
330
4FE7
102
}
330
4FE7
100
AcDbXrecord
280
     1
270
     1
271
     1
  0
XRECORD
  5
4FED
102
{ACAD_REACTORS
330
4FE7
102
}
330
4FE7
100
AcDbXrecord
280
     1
270
     1
271
     1
  0
XRECORD
  5
4FEA
102
{ACAD_REACTORS
330
4FE7
102
}
330
4FE7
100
AcDbXrecord
280
     1
270
     1
271
     1
  0
XRECORD
  5
7C2D
102
{ACAD_REACTORS
330
4FF7
102
}
330
4FF7
100
AcDbXrecord
280
     1
102
MATERIAL
148
0.0
149
0.0
149
0.0
 93
        0
 94
      127
282
     0
 72
     0
 77
     0
171
     0
175
     0
179
     0
273
     0
  0
XRECORD
  5
4FF9
102
{ACAD_REACTORS
330
4FF7
102
}
330
4FF7
100
AcDbXrecord
280
     1
270
     1
271
     1
  0
XRECORD
  5
4FF8
102
{ACAD_REACTORS
330
4FF7
102
}
330
4FF7
100
AcDbXrecord
280
     1
270
     1
271
     1
  0
XRECORD
  5
4FFC
102
{ACAD_REACTORS
330
4FF7
102
}
330
4FF7
100
AcDbXrecord
280
     1
270
     1
271
     1
  0
XRECORD
  5
4FFB
102
{ACAD_REACTORS
330
4FF7
102
}
330
4FF7
100
AcDbXrecord
280
     1
270
     1
271
     1
  0
XRECORD
  5
4FFD
102
{ACAD_REACTORS
330
4FF7
102
}
330
4FF7
100
AcDbXrecord
280
     1
270
     1
271
     1
  0
XRECORD
  5
4FFA
102
{ACAD_REACTORS
330
4FF7
102
}
330
4FF7
100
AcDbXrecord
280
     1
270
     1
271
     1
  0
CELLSTYLEMAP
  5
147D9
102
{ACAD_REACTORS
330
50D6
102
}
330
50D6
100
AcDbCellStyleMap
 90
        3
300
CELLSTYLE
  1
TABLEFORMAT_BEGIN
 90
        5
170
     1
 91
        0
 92
    32768
 62
   257
 93
        1
300
CONTENTFORMAT
  1
CONTENTFORMAT_BEGIN
 90
        0
 91
        0
 92
      512
 93
        0
300

 40
0.0
140
1.0
 94
        5
 62
     0
340
11
144
0.25
309
CONTENTFORMAT_END
171
     1
301
MARGIN
  1
CELLMARGIN_BEGIN
 40
0.06
 40
0.06
 40
0.06
 40
0.06
 40
0.18
 40
0.18
309
CELLMARGIN_END
 94
        6
 95
        1
302
GRIDFORMAT
  1
GRIDFORMAT_BEGIN
 90
        0
 91
        1
 62
     0
 92
       -2
340
0
 93
        0
 40
0.045
309
GRIDFORMAT_END
 95
        2
302
GRIDFORMAT
  1
GRIDFORMAT_BEGIN
 90
        0
 91
        1
 62
     0
 92
       -2
340
0
 93
        0
 40
0.045
309
GRIDFORMAT_END
 95
        4
302
GRIDFORMAT
  1
GRIDFORMAT_BEGIN
 90
        0
 91
        1
 62
     0
 92
       -2
340
0
 93
        0
 40
0.045
309
GRIDFORMAT_END
 95
        8
302
GRIDFORMAT
  1
GRIDFORMAT_BEGIN
 90
        0
 91
        1
 62
     0
 92
       -2
340
0
 93
        0
 40
0.045
309
GRIDFORMAT_END
 95
       16
302
GRIDFORMAT
  1
GRIDFORMAT_BEGIN
 90
        0
 91
        1
 62
     0
 92
       -2
340
0
 93
        0
 40
0.045
309
GRIDFORMAT_END
 95
       32
302
GRIDFORMAT
  1
GRIDFORMAT_BEGIN
 90
        0
 91
        1
 62
     0
 92
       -2
340
0
 93
        0
 40
0.045
309
GRIDFORMAT_END
309
TABLEFORMAT_END
  1
CELLSTYLE_BEGIN
 90
        1
 91
        1
300
_TITLE
309
CELLSTYLE_END
300
CELLSTYLE
  1
TABLEFORMAT_BEGIN
 90
        5
170
     1
 91
        0
 92
        0
 62
   257
 93
        1
300
CONTENTFORMAT
  1
CONTENTFORMAT_BEGIN
 90
        0
 91
        0
 92
      512
 93
        0
300

 40
0.0
140
1.0
 94
        5
 62
     0
340
11
144
0.18
309
CONTENTFORMAT_END
171
     1
301
MARGIN
  1
CELLMARGIN_BEGIN
 40
0.06
 40
0.06
 40
0.06
 40
0.06
 40
0.18
 40
0.18
309
CELLMARGIN_END
 94
        6
 95
        1
302
GRIDFORMAT
  1
GRIDFORMAT_BEGIN
 90
        0
 91
        1
 62
     0
 92
       -2
340
0
 93
        0
 40
0.045
309
GRIDFORMAT_END
 95
        2
302
GRIDFORMAT
  1
GRIDFORMAT_BEGIN
 90
        0
 91
        1
 62
     0
 92
       -2
340
0
 93
        0
 40
0.045
309
GRIDFORMAT_END
 95
        4
302
GRIDFORMAT
  1
GRIDFORMAT_BEGIN
 90
        0
 91
        1
 62
     0
 92
       -2
340
0
 93
        0
 40
0.045
309
GRIDFORMAT_END
 95
        8
302
GRIDFORMAT
  1
GRIDFORMAT_BEGIN
 90
        0
 91
        1
 62
     0
 92
       -2
340
0
 93
        0
 40
0.045
309
GRIDFORMAT_END
 95
       16
302
GRIDFORMAT
  1
GRIDFORMAT_BEGIN
 90
        0
 91
        1
 62
     0
 92
       -2
340
0
 93
        0
 40
0.045
309
GRIDFORMAT_END
 95
       32
302
GRIDFORMAT
  1
GRIDFORMAT_BEGIN
 90
        0
 91
        1
 62
     0
 92
       -2
340
0
 93
        0
 40
0.045
309
GRIDFORMAT_END
309
TABLEFORMAT_END
  1
CELLSTYLE_BEGIN
 90
        2
 91
        1
300
_HEADER
309
CELLSTYLE_END
300
CELLSTYLE
  1
TABLEFORMAT_BEGIN
 90
        5
170
     1
 91
        0
 92
        0
 62
   257
 93
        1
300
CONTENTFORMAT
  1
CONTENTFORMAT_BEGIN
 90
        0
 91
        0
 92
      512
 93
        0
300

 40
0.0
140
1.0
 94
        2
 62
     0
340
11
144
0.18
309
CONTENTFORMAT_END
171
     1
301
MARGIN
  1
CELLMARGIN_BEGIN
 40
0.06
 40
0.06
 40
0.06
 40
0.06
 40
0.18
 40
0.18
309
CELLMARGIN_END
 94
        6
 95
        1
302
GRIDFORMAT
  1
GRIDFORMAT_BEGIN
 90
        0
 91
        1
 62
     0
 92
       -2
340
0
 93
        0
 40
0.045
309
GRIDFORMAT_END
 95
        2
302
GRIDFORMAT
  1
GRIDFORMAT_BEGIN
 90
        0
 91
        1
 62
     0
 92
       -2
340
0
 93
        0
 40
0.045
309
GRIDFORMAT_END
 95
        4
302
GRIDFORMAT
  1
GRIDFORMAT_BEGIN
 90
        0
 91
        1
 62
     0
 92
       -2
340
0
 93
        0
 40
0.045
309
GRIDFORMAT_END
 95
        8
302
GRIDFORMAT
  1
GRIDFORMAT_BEGIN
 90
        0
 91
        1
 62
     0
 92
       -2
340
0
 93
        0
 40
0.045
309
GRIDFORMAT_END
 95
       16
302
GRIDFORMAT
  1
GRIDFORMAT_BEGIN
 90
        0
 91
        1
 62
     0
 92
       -2
340
0
 93
        0
 40
0.045
309
GRIDFORMAT_END
 95
       32
302
GRIDFORMAT
  1
GRIDFORMAT_BEGIN
 90
        0
 91
        1
 62
     0
 92
       -2
340
0
 93
        0
 40
0.045
309
GRIDFORMAT_END
309
TABLEFORMAT_END
  1
CELLSTYLE_BEGIN
 90
        3
 91
        2
300
_DATA
309
CELLSTYLE_END
  0
XRECORD
  5
147FD
102
{ACAD_REACTORS
330
50D6
102
}
330
50D6
100
AcDbXrecord
280
     1
102
ACAD_ROUNDTRIP_PRE2007_TABLESTYLE
 90
      512
 91
        0
  1

 92
      512
 93
        0
  2

 94
      512
 95
        0
  3

  0
ENDSEC
  0
EOF
