  0
SECTION
  2
HEADER
  9
$ACADVER
  1
AC1018
  9
$ACADMAINTVER
 70
   104
  9
$DWGCODEPAGE
  3
ANSI_936
  9
$LASTSAVEDBY
  1
13843
  9
$INSBASE
 10
0.0
 20
0.0
 30
0.0
  9
$EXTMIN
 10
3952.65631670131
 20
-1686.739250673383
 30
0.0
  9
$EXTMAX
 10
4398.154441604866
 20
-1371.739250673378
 30
0.0
  9
$LIMMIN
 10
0.0
 20
0.0
  9
$LIMMAX
 10
1189.0
 20
841.0
  9
$ORTHOMODE
 70
     0
  9
$REGENMODE
 70
     1
  9
$FILLMODE
 70
     1
  9
$QTEXTMODE
 70
     0
  9
$MIRRTEXT
 70
     1
  9
$LTSCALE
 40
65.395
  9
$ATTMODE
 70
     1
  9
$TEXTSIZE
 40
0.2
  9
$TRACEWID
 40
0.05
  9
$TEXTSTYLE
  7
STANDARD
  9
$CLAYER
  8
Dim
  9
$CELTYPE
  6
ByLayer
  9
$CECOLOR
 62
   256
  9
$CELTSCALE
 40
1.0
  9
$DISPSILH
 70
     0
  9
$DIMSCALE
 40
1.0
  9
$DIMASZ
 40
3.5
  9
$DIMEXO
 40
0.2
  9
$DIMDLI
 40
0.2
  9
$DIMRND
 40
0.0
  9
$DIMDLE
 40
0.0
  9
$DIMEXE
 40
1.199999999999999
  9
$DIMTP
 40
0.0
  9
$DIMTM
 40
0.0
  9
$DIMTXT
 40
4.0
  9
$DIMCEN
 40
0.0
  9
$DIMTSZ
 40
0.0
  9
$DIMTOL
 70
     0
  9
$DIMLIM
 70
     0
  9
$DIMTIH
 70
     0
  9
$DIMTOH
 70
     0
  9
$DIMSE1
 70
     0
  9
$DIMSE2
 70
     0
  9
$DIMTAD
 70
     1
  9
$DIMZIN
 70
     8
  9
$DIMBLK
  1

  9
$DIMASO
 70
     1
  9
$DIMSHO
 70
     1
  9
$DIMPOST
  1

  9
$DIMAPOST
  1

  9
$DIMALT
 70
     0
  9
$DIMALTD
 70
     2
  9
$DIMALTF
 40
25.4
  9
$DIMLFAC
 40
1.0
  9
$DIMTOFL
 70
     0
  9
$DIMTVP
 40
0.0
  9
$DIMTIX
 70
     0
  9
$DIMSOXD
 70
     0
  9
$DIMSAH
 70
     0
  9
$DIMBLK1
  1

  9
$DIMBLK2
  1

  9
$DIMSTYLE
  2
01
  9
$DIMCLRD
 70
     1
  9
$DIMCLRE
 70
     6
  9
$DIMCLRT
 70
     4
  9
$DIMTFAC
 40
1.0
  9
$DIMGAP
 40
0.5
  9
$DIMJUST
 70
     0
  9
$DIMSD1
 70
     0
  9
$DIMSD2
 70
     0
  9
$DIMTOLJ
 70
     1
  9
$DIMTZIN
 70
     0
  9
$DIMALTZ
 70
     0
  9
$DIMALTTZ
 70
     0
  9
$DIMUPT
 70
     0
  9
$DIMDEC
 70
     2
  9
$DIMTDEC
 70
     2
  9
$DIMALTU
 70
     2
  9
$DIMALTTD
 70
     2
  9
$DIMTXSTY
  7
Romans字体
  9
$DIMAUNIT
 70
     0
  9
$DIMADEC
 70
     2
  9
$DIMALTRND
 40
0.0
  9
$DIMAZIN
 70
     2
  9
$DIMDSEP
 70
    46
  9
$DIMATFIT
 70
     3
  9
$DIMFRAC
 70
     0
  9
$DIMLDRBLK
  1

  9
$DIMLUNIT
 70
     2
  9
$DIMLWD
 70
    -2
  9
$DIMLWE
 70
    -2
  9
$DIMTMOVE
 70
     0
  9
$LUNITS
 70
     2
  9
$LUPREC
 70
     4
  9
$SKETCHINC
 40
0.1
  9
$FILLETRAD
 40
0.0
  9
$AUNITS
 70
     0
  9
$AUPREC
 70
     0
  9
$MENU
  1
acad
  9
$ELEVATION
 40
0.0
  9
$PELEVATION
 40
0.0
  9
$THICKNESS
 40
0.0
  9
$LIMCHECK
 70
     0
  9
$CHAMFERA
 40
0.0
  9
$CHAMFERB
 40
0.0
  9
$CHAMFERC
 40
0.0
  9
$CHAMFERD
 40
0.0
  9
$SKPOLY
 70
     0
  9
$TDCREATE
 40
2454351.702036852
  9
$TDUCREATE
 40
2454351.368703519
  9
$TDUPDATE
 40
2460388.709571412
  9
$TDUUPDATE
 40
2460388.376238079
  9
$TDINDWG
 40
1.1746832986
  9
$TDUSRTIMER
 40
1.1746805324
  9
$USRTIMER
 70
     1
  9
$ANGBASE
 50
0.0
  9
$ANGDIR
 70
     0
  9
$PDMODE
 70
     3
  9
$PDSIZE
 40
8.0
  9
$PLINEWID
 40
0.0
  9
$SPLFRAME
 70
     0
  9
$SPLINETYPE
 70
     6
  9
$SPLINESEGS
 70
     8
  9
$HANDSEED
  5
685
  9
$SURFTAB1
 70
     6
  9
$SURFTAB2
 70
     6
  9
$SURFTYPE
 70
     6
  9
$SURFU
 70
     6
  9
$SURFV
 70
     6
  9
$UCSBASE
  2

  9
$UCSNAME
  2

  9
$UCSORG
 10
0.0
 20
0.0
 30
0.0
  9
$UCSXDIR
 10
1.0
 20
0.0
 30
0.0
  9
$UCSYDIR
 10
0.0
 20
1.0
 30
0.0
  9
$UCSORTHOREF
  2

  9
$UCSORTHOVIEW
 70
     0
  9
$UCSORGTOP
 10
0.0
 20
0.0
 30
0.0
  9
$UCSORGBOTTOM
 10
0.0
 20
0.0
 30
0.0
  9
$UCSORGLEFT
 10
0.0
 20
0.0
 30
0.0
  9
$UCSORGRIGHT
 10
0.0
 20
0.0
 30
0.0
  9
$UCSORGFRONT
 10
0.0
 20
0.0
 30
0.0
  9
$UCSORGBACK
 10
0.0
 20
0.0
 30
0.0
  9
$PUCSBASE
  2

  9
$PUCSNAME
  2

  9
$PUCSORG
 10
0.0
 20
0.0
 30
0.0
  9
$PUCSXDIR
 10
1.0
 20
0.0
 30
0.0
  9
$PUCSYDIR
 10
0.0
 20
1.0
 30
0.0
  9
$PUCSORTHOREF
  2

  9
$PUCSORTHOVIEW
 70
     0
  9
$PUCSORGTOP
 10
0.0
 20
0.0
 30
0.0
  9
$PUCSORGBOTTOM
 10
0.0
 20
0.0
 30
0.0
  9
$PUCSORGLEFT
 10
0.0
 20
0.0
 30
0.0
  9
$PUCSORGRIGHT
 10
0.0
 20
0.0
 30
0.0
  9
$PUCSORGFRONT
 10
0.0
 20
0.0
 30
0.0
  9
$PUCSORGBACK
 10
0.0
 20
0.0
 30
0.0
  9
$USERI1
 70
     0
  9
$USERI2
 70
     0
  9
$USERI3
 70
     0
  9
$USERI4
 70
     0
  9
$USERI5
 70
     0
  9
$USERR1
 40
0.0
  9
$USERR2
 40
0.0
  9
$USERR3
 40
0.0
  9
$USERR4
 40
0.0
  9
$USERR5
 40
2.5
  9
$WORLDVIEW
 70
     1
  9
$SHADEDGE
 70
     3
  9
$SHADEDIF
 70
    70
  9
$TILEMODE
 70
     1
  9
$MAXACTVP
 70
    16
  9
$PINSBASE
 10
0.0
 20
0.0
 30
0.0
  9
$PLIMCHECK
 70
     0
  9
$PEXTMIN
 10
1.000000000000000E+20
 20
1.000000000000000E+20
 30
1.000000000000000E+20
  9
$PEXTMAX
 10
-1.000000000000000E+20
 20
-1.000000000000000E+20
 30
-1.000000000000000E+20
  9
$PLIMMIN
 10
0.0
 20
0.0
  9
$PLIMMAX
 10
12.0
 20
9.0
  9
$UNITMODE
 70
     0
  9
$VISRETAIN
 70
     0
  9
$PLINEGEN
 70
     1
  9
$PSLTSCALE
 70
     0
  9
$TREEDEPTH
 70
  3020
  9
$CMLSTYLE
  2
Standard
  9
$CMLJUST
 70
     0
  9
$CMLSCALE
 40
1.0
  9
$PROXYGRAPHICS
 70
     0
  9
$MEASUREMENT
 70
     1
  9
$CELWEIGHT
370
    -1
  9
$ENDCAPS
280
     0
  9
$JOINSTYLE
280
     0
  9
$LWDISPLAY
290
     0
  9
$INSUNITS
 70
     4
  9
$HYPERLINKBASE
  1

  9
$STYLESHEET
  1
monochrome.ctb
  9
$XEDIT
290
     1
  9
$CEPSNTYPE
380
     0
  9
$PSTYLEMODE
290
     1
  9
$FINGERPRINTGUID
  2
{F83FA3D1-6DB3-4AA6-BE7F-29A5410DF8A6}
  9
$VERSIONGUID
  2
{76BF6B4F-2377-49E4-98AB-7567E2D0D83A}
  9
$EXTNAMES
290
     1
  9
$PSVPSCALE
 40
0.0
  9
$OLESTARTUP
290
     0
  9
$SORTENTS
280
   127
  9
$INDEXCTL
280
     0
  9
$HIDETEXT
280
     1
  9
$XCLIPFRAME
290
     0
  9
$HALOGAP
280
     0
  9
$OBSCOLOR
 70
   257
  9
$OBSLTYPE
280
     0
  9
$INTERSECTIONDISPLAY
280
     0
  9
$INTERSECTIONCOLOR
 70
   257
  9
$DIMASSOC
280
     2
  9
$PROJECTNAME
  1

  0
ENDSEC
  0
SECTION
  2
CLASSES
  0
CLASS
  1
ACDBDICTIONARYWDFLT
  2
AcDbDictionaryWithDefault
  3
ObjectDBX Classes
 90
        0
 91
        1
280
     0
281
     0
  0
CLASS
  1
IMAGE
  2
AcDbRasterImage
  3
ISM
 90
     2175
 91
        0
280
     0
281
     1
  0
CLASS
  1
DICTIONARYVAR
  2
AcDbDictionaryVar
  3
ObjectDBX Classes
 90
        0
 91
        9
280
     0
281
     0
  0
CLASS
  1
RASTERVARIABLES
  2
AcDbRasterVariables
  3
ISM
 90
        0
 91
        0
280
     0
281
     0
  0
CLASS
  1
IMAGEDEF
  2
AcDbRasterImageDef
  3
ISM
 90
        0
 91
        0
280
     0
281
     0
  0
CLASS
  1
IMAGEDEF_REACTOR
  2
AcDbRasterImageDefReactor
  3
ISM
 90
        1
 91
        0
280
     0
281
     0
  0
CLASS
  1
IDBUFFER
  2
AcDbIdBuffer
  3
ObjectDBX Classes
 90
        0
 91
        0
280
     0
281
     0
  0
CLASS
  1
SPATIAL_FILTER
  2
AcDbSpatialFilter
  3
ObjectDBX Classes
 90
        0
 91
        0
280
     0
281
     0
  0
CLASS
  1
SORTENTSTABLE
  2
AcDbSortentsTable
  3
ObjectDBX Classes
 90
        0
 91
        1
280
     0
281
     0
  0
CLASS
  1
LAYER_INDEX
  2
AcDbLayerIndex
  3
ObjectDBX Classes
 90
        0
 91
        0
280
     0
281
     0
  0
CLASS
  1
SPATIAL_INDEX
  2
AcDbSpatialIndex
  3
ObjectDBX Classes
 90
        0
 91
        0
280
     0
281
     0
  0
CLASS
  1
OBJECT_PTR
  2
CAseDLPNTableRecord
  3
ASE-LPNTableRecord
 90
        1
 91
        0
280
     0
281
     0
  0
CLASS
  1
PLOTSETTINGS
  2
AcDbPlotSettings
  3
ObjectDBX Classes
 90
        0
 91
        0
280
     0
281
     0
  0
CLASS
  1
WIPEOUT
  2
AcDbWipeout
  3
"WipeOut|Product Desc: Object Enabler for WipeOut entity                        |Company: Autodesk, Inc.                        |WEB Address: www.autodesk.com"
 90
     2175
 91
        0
280
     0
281
     1
  0
CLASS
  1
WIPEOUTVARIABLES
  2
AcDbWipeoutVariables
  3
"WipeOut|Product Desc:     WipeOut Dbx Application|Company:          Autodesk, Inc.|WEB Address:      www.autodesk.com"
 90
        0
 91
        0
280
     0
281
     0
  0
CLASS
  1
RTEXT
  2
RText
  3
RText|AutoCAD Express Tool|expresstools@autodesk.com
 90
        0
 91
        0
280
     1
281
     1
  0
CLASS
  1
ARCALIGNEDTEXT
  2
AcDbArcAlignedText
  3
ATEXT|AutoCAD Express Tool|expresstools@autodesk.com
 90
        0
 91
        0
280
     1
281
     1
  0
CLASS
  1
VLO-VL
  2
vlo_VL
  3
VL|AutoLISP based application
 90
      129
 91
        0
280
     0
281
     0
  0
CLASS
  1
DIMASSOC
  2
AcDbDimAssoc
  3
"AcDbDimAssoc|Product Desc:     AcDim ARX App For Dimension|Company:          Autodesk, Inc.|WEB Address:      www.autodesk.com"
 90
        0
 91
        4
280
     0
281
     0
  0
CLASS
  1
ACAD_EVALUATION_GRAPH
  2
AcDbEvalGraph
  3
ObjectDBX Classes
 90
     1153
 91
        1
280
     0
281
     0
  0
CLASS
  1
ACDB_DYNAMICBLOCKPURGEPREVENTER_VERSION
  2
AcDbDynamicBlockPurgePreventer
  3
ObjectDBX Classes
 90
     1153
 91
        1
280
     0
281
     0
  0
CLASS
  1
MATERIAL
  2
AcDbMaterial
  3
ObjectDBX Classes
 90
     1153
 91
        3
280
     0
281
     0
  0
CLASS
  1
VISUALSTYLE
  2
AcDbVisualStyle
  3
ObjectDBX Classes
 90
     4095
 91
       16
280
     0
281
     0
  0
CLASS
  1
TABLESTYLE
  2
AcDbTableStyle
  3
ObjectDBX Classes
 90
     4095
 91
        1
280
     0
281
     0
  0
CLASS
  1
SCALE
  2
AcDbScale
  3
ObjectDBX Classes
 90
     1153
 91
       33
280
     0
281
     0
  0
CLASS
  1
MLEADERSTYLE
  2
AcDbMLeaderStyle
  3
ACDB_MLEADERSTYLE_CLASS
 90
     4095
 91
        1
280
     0
281
     0
  0
CLASS
  1
CELLSTYLEMAP
  2
AcDbCellStyleMap
  3
ObjectDBX Classes
 90
     1152
 91
        4
280
     0
281
     0
  0
CLASS
  1
ACAECUSTOBJ
  2
AcAeEditorObj
  3
AcAeEditorObj
 90
     1024
 91
        1
280
     1
281
     0
  0
CLASS
  1
ACDB_BLOCKREPRESENTATION_DATA
  2
AcDbBlockRepresentationData
  3
ObjectDBX Classes
 90
     1153
 91
        0
280
     0
281
     0
  0
CLASS
  1
TCH_DBCONFIG
  2
TDbConfig
  3
"TCH_KERNAL|缺乏解释器天正图形看不见, 请下载天正插件|网址: www.tangent.com.cn"
 90
        1
 91
        0
280
     0
281
     0
  0
CLASS
  1
SOLID_BACKGROUND
  2
AcDbSolidBackground
  3
SCENEOE
 90
     4095
 91
        0
280
     0
281
     0
  0
CLASS
  1
NPOCOLLECTION
  2
AcDbImpNonPersistentObjectsCollection
  3
ObjectDBX Classes
 90
     1153
 91
        0
280
     0
281
     0
  0
ENDSEC
  0
SECTION
  2
TABLES
  0
TABLE
  2
VPORT
  5
27
102
{ACAD_XDICTIONARY
360
2B
102
}
330
0
100
AcDbSymbolTable
 70
     1
  0
VPORT
  5
28
330
27
100
AcDbSymbolTableRecord
100
AcDbViewportTableRecord
  2
*Active
 70
     0
 10
0.0
 20
0.0
 11
1.0
 21
1.0
 12
4173.354730458465
 22
-1537.087575070619
 13
0.0
 23
0.0
 14
1.0
 24
1.0
 15
0.0
 25
0.0
 16
0.0
 26
0.0
 36
1.0
 17
0.0
 27
0.0
 37
0.0
 40
390.1360205138863
 41
2.331168831168831
 42
50.0
 43
0.0
 44
0.0
 50
0.0
 51
0.0
 71
     0
 72
   100
 73
     1
 74
     1
 75
     0
 76
     0
 77
     0
 78
     0
281
     0
 65
     0
110
0.0
120
0.0
130
0.0
111
1.0
121
0.0
131
0.0
112
0.0
122
1.0
132
0.0
 79
     0
146
0.0
  0
ENDTAB
  0
TABLE
  2
LTYPE
  5
22
330
0
100
AcDbSymbolTable
 70
     1
  0
LTYPE
  5
23
330
22
100
AcDbSymbolTableRecord
100
AcDbLinetypeTableRecord
  2
ByBlock
 70
     0
  3

 72
    65
 73
     0
 40
0.0
  0
LTYPE
  5
24
330
22
100
AcDbSymbolTableRecord
100
AcDbLinetypeTableRecord
  2
ByLayer
 70
     0
  3

 72
    65
 73
     0
 40
0.0
  0
LTYPE
  5
10
330
22
100
AcDbSymbolTableRecord
100
AcDbLinetypeTableRecord
  2
CONTINUOUS
 70
     0
  3
Solid line
 72
    65
 73
     0
 40
0.0
  0
ENDTAB
  0
TABLE
  2
LAYER
  5
19
102
{ACAD_XDICTIONARY
360
1A
102
}
330
0
100
AcDbSymbolTable
 70
     5
  0
LAYER
  5
6
102
{ACAD_XDICTIONARY
360
7
102
}
330
19
100
AcDbSymbolTableRecord
100
AcDbLayerTableRecord
  2
0
 70
     0
 62
     7
  6
CONTINUOUS
370
    30
390
9
  0
LAYER
  5
23A
330
19
100
AcDbSymbolTableRecord
100
AcDbLayerTableRecord
  2
Defpoints
 70
     0
 62
     7
  6
CONTINUOUS
290
     0
370
    -3
390
9
  0
LAYER
  5
75
102
{ACAD_XDICTIONARY
360
76
102
}
330
19
100
AcDbSymbolTableRecord
100
AcDbLayerTableRecord
  2
图框
 70
     0
 62
     7
  6
CONTINUOUS
370
    20
390
9
  0
LAYER
  5
3EC
330
19
100
AcDbSymbolTableRecord
100
AcDbLayerTableRecord
  2
打标文字
 70
     0
 62
     3
  6
CONTINUOUS
370
    20
390
9
  0
LAYER
  5
4C
102
{ACAD_XDICTIONARY
360
4D
102
}
330
19
100
AcDbSymbolTableRecord
100
AcDbLayerTableRecord
  2
Dim
 70
     0
 62
     3
  6
CONTINUOUS
370
    15
390
9
  0
ENDTAB
  0
TABLE
  2
STYLE
  5
1F
330
0
100
AcDbSymbolTable
 70
     5
  0
STYLE
  5
20
330
1F
100
AcDbSymbolTableRecord
100
AcDbTextStyleTableRecord
  2
STANDARD
 70
     0
 40
0.0
 41
0.75
 50
0.0
 71
     0
 42
0.2
  3
SIMFANG.TTF
  4

1001
ACAD
1000
FangSong_GB2312
1071
    34353
  0
STYLE
  5
2F
330
1F
100
AcDbSymbolTableRecord
100
AcDbTextStyleTableRecord
  2
Romans字体
 70
     0
 40
0.0
 41
0.75
 50
0.0
 71
     0
 42
0.2
  3
romans.shx
  4

  0
STYLE
  5
91
330
1F
100
AcDbSymbolTableRecord
100
AcDbTextStyleTableRecord
  2
工程字
 70
     0
 40
0.0
 41
1.0
 50
0.0
 71
     0
 42
3.5
  3
gbenor.shx
  4
gbcbig.shx
  0
STYLE
  5
93
330
1F
100
AcDbSymbolTableRecord
100
AcDbTextStyleTableRecord
  2
Chinese
 70
     0
 40
0.0
 41
1.0
 50
0.0
 71
     0
 42
2.5
  3
PMingLiU.ttf
  4

1001
ACAD
1000
PMingLiU
1071
    34834
  0
ENDTAB
  0
TABLE
  2
VIEW
  5
25
330
0
100
AcDbSymbolTable
 70
     0
  0
ENDTAB
  0
TABLE
  2
UCS
  5
26
330
0
100
AcDbSymbolTable
 70
     0
  0
ENDTAB
  0
TABLE
  2
APPID
  5
2C
330
0
100
AcDbSymbolTable
 70
     9
  0
APPID
  5
1E
330
2C
100
AcDbSymbolTableRecord
100
AcDbRegAppTableRecord
  2
ACAD
 70
     0
  0
APPID
  5
7F
330
2C
100
AcDbSymbolTableRecord
100
AcDbRegAppTableRecord
  2
AcDbBlockRepETag
 70
     0
  0
APPID
  5
117
330
2C
100
AcDbSymbolTableRecord
100
AcDbRegAppTableRecord
  2
AcDbDynamicBlockGUID
 70
     0
  0
APPID
  5
30
330
2C
100
AcDbSymbolTableRecord
100
AcDbRegAppTableRecord
  2
ACAD_DSTYLE_DIMJAG
 70
     0
  0
APPID
  5
31
330
2C
100
AcDbSymbolTableRecord
100
AcDbRegAppTableRecord
  2
ACAD_DSTYLE_DIMTALN
 70
     0
  0
APPID
  5
14
330
2C
100
AcDbSymbolTableRecord
100
AcDbRegAppTableRecord
  2
ACAD_PSEXT
 70
     0
  0
APPID
  5
429
330
2C
100
AcDbSymbolTableRecord
100
AcDbRegAppTableRecord
  2
ACAD_MLEADERVER
 70
     0
  0
APPID
  5
540
330
2C
100
AcDbSymbolTableRecord
100
AcDbRegAppTableRecord
  2
ACAUTHENVIRON
 70
     0
  0
APPID
  5
543
330
2C
100
AcDbSymbolTableRecord
100
AcDbRegAppTableRecord
  2
AcDbDynamicBlockTrueName
 70
     0
  0
ENDTAB
  0
TABLE
  2
DIMSTYLE
  5
2D
330
0
100
AcDbSymbolTable
 70
     3
100
AcDbDimStyleTable
 71
     2
340
2E
340
32
  0
DIMSTYLE
105
32
330
2D
100
AcDbSymbolTableRecord
100
AcDbDimStyleTableRecord
  2
STANDARD
 70
     0
 41
3.5
 47
0.01
 48
0.01
 71
     1
 73
     0
 74
     0
 77
     1
 78
     8
140
3.5
271
     2
272
     2
284
     8
340
20
  0
DIMSTYLE
105
2E
102
{ACAD_REACTORS
330
22E
330
23E
330
24D
330
25C
330
272
102
}
330
2D
100
AcDbSymbolTableRecord
100
AcDbDimStyleTableRecord
  2
01
 70
     0
 41
3.5
 42
0.2
 43
0.2
 44
1.199999999999999
 73
     0
 74
     0
 77
     1
 78
     8
 79
     2
140
4.0
141
0.0
147
0.5
176
     1
177
     6
178
     4
179
     2
271
     2
272
     2
340
2F
1001
ACAD_DSTYLE_DIMJAG
1070
   388
1040
1.5
1001
ACAD_DSTYLE_DIMTALN
1070
   392
1070
     0
  0
ENDTAB
  0
TABLE
  2
BLOCK_RECORD
  5
1
330
0
100
AcDbSymbolTable
 70
    13
  0
BLOCK_RECORD
  5
2
102
{ACAD_XDICTIONARY
360
3
102
}
330
1
100
AcDbSymbolTableRecord
100
AcDbBlockTableRecord
  2
*MODEL_SPACE
340
12
  0
BLOCK_RECORD
  5
15
330
1
100
AcDbSymbolTableRecord
100
AcDbBlockTableRecord
  2
*PAPER_SPACE
340
18
  0
BLOCK_RECORD
  5
7B
102
{ACAD_XDICTIONARY
360
53F
102
}
330
1
100
AcDbSymbolTableRecord
100
AcDbBlockTableRecord
  2
A4图框-NEW
340
0
310
2800000020000000200000000100080000000000000400000000000000000000000000000000000000000000000080000080000000808000800000008000800080800000C0C0C000C0DCC000F0CAA6000020400000206000002080000020A0000020C0000020E00000400000004020000040400000406000004080000040A0
310
000040C0000040E00000600000006020000060400000606000006080000060A0000060C0000060E00000800000008020000080400000806000008080000080A0000080C0000080E00000A0000000A0200000A0400000A0600000A0800000A0A00000A0C00000A0E00000C0000000C0200000C0400000C0600000C0800000C0
310
A00000C0C00000C0E00000E0000000E0200000E0400000E0600000E0800000E0A00000E0C00000E0E00040000000400020004000400040006000400080004000A0004000C0004000E00040200000402020004020400040206000402080004020A0004020C0004020E000404000004040200040404000404060004040800040
310
40A0004040C0004040E00040600000406020004060400040606000406080004060A0004060C0004060E00040800000408020004080400040806000408080004080A0004080C0004080E00040A0000040A0200040A0400040A0600040A0800040A0A00040A0C00040A0E00040C0000040C0200040C0400040C0600040C08000
310
40C0A00040C0C00040C0E00040E0000040E0200040E0400040E0600040E0800040E0A00040E0C00040E0E00080000000800020008000400080006000800080008000A0008000C0008000E00080200000802020008020400080206000802080008020A0008020C0008020E00080400000804020008040400080406000804080
310
008040A0008040C0008040E00080600000806020008060400080606000806080008060A0008060C0008060E00080800000808020008080400080806000808080008080A0008080C0008080E00080A0000080A0200080A0400080A0600080A0800080A0A00080A0C00080A0E00080C0000080C0200080C0400080C0600080C0
310
800080C0A00080C0C00080C0E00080E0000080E0200080E0400080E0600080E0800080E0A00080E0C00080E0E000C0000000C0002000C0004000C0006000C0008000C000A000C000C000C000E000C0200000C0202000C0204000C0206000C0208000C020A000C020C000C020E000C0400000C0402000C0404000C0406000C0
310
408000C040A000C040C000C040E000C0600000C0602000C0604000C0606000C0608000C060A000C060C000C060E000C0800000C0802000C0804000C0806000C0808000C080A000C080C000C080E000C0A00000C0A02000C0A04000C0A06000C0A08000C0A0A000C0A0C000C0A0E000C0C00000C0C02000C0C04000C0C06000
310
C0C08000C0C0A000F0FBFF00A4A0A000808080000000FF0000FF000000FFFF00FF000000FF00FF00FFFF0000FFFFFF0000000000000000000000000000000000000000000000000000000000000000000000000000000000000000000000000000000000000000000000000000000000000000000000000000000000000000
310
000000000000000000000000000000000000000000000000000000000000000000000000000000000000000000000000000000000000000000000000000000000000000000000000000000000000000000000000000000000000000000000000000000000000000000000000000000000000F9F9F9F9F9F9F9F9F9F9F9F9F9
310
F9F9F9F9F9F9F9F9F9F9F9F9F9F9FF00000000F9FF000000000000000000FFFFFFFFFFFFFFFFFFFFFFFFF9FAFAFAFF00000000F9FF000000000000000000FFFFFFFFFFFFFFFFFFFFFFFFFFFFFFFFFF00000000F9FD000000000000000000FFFFFFFFFFFFFFFFFFFFFFFFFFFFFFFFFF00000000F9FF000000000000000000FF
310
FFFFFFFFFFFFFFFFFFFFFFFFFFFFFFFF00000000F9FD000000000000000000FFFFFFFFFFFFFFFFFFFFFFFFFFFFFFFFFF00000000F9FF00000000000000000000000000000000000000000000000000FF00000000F9FD00000000000000000000000000000000000000000000000000FF00000000F9FF000000000000000000
310
00000000000000000000000000000000FF00000000F9FD00000000000000000000000000000000000000000000000000FF00000000F9FF00000000000000000000000000000000000000000000000000FF00000000F9FD00000000000000000000000000000000000000000000000000FF00000000F9FD0000000000000000
310
0000000000000000000000000000000000FF00000000F9FF00000000000000000000000000000000000000000000000000FF00000000F9FD00000000000000000000000000000000000000000000000000FF00000000F9FF00000000000000000000000000000000000000000000000000FF00000000F9FD00000000000000
310
000000000000000000000000000000000000FF00000000F9FF00000000000000000000000000000000000000000000000000FF00000000F9FFFFFFFFFFFFFFFFFFFFFFFFFFFFFFFFFFFFFFFFFFFFFFFFFFFFFF00000000F9FFFFFFF9F9F9F9F9F9F9F9F9F9F9F9F9F9F9F9F9F9F9F9F9F9F9F9000000000000000000000000
310
00000000000000000000000000000000000000000000000000000000000000000000000000000000000000000000000000000000000000000000000000000000000000000000000000000000000000000000000000000000000000000000000000000000000000000000000000000000000000000000000000000000000000
310
0000000000000000000000000000000000000000000000000000000000000000000000000000000000000000000000000000000000000000
102
{BLKREFS
331
79
102
}
1001
AcDbDynamicBlockGUID
1000
{97E1B4A3-3AFD-48FF-A288-B35D31A3CF5D}
1001
AcDbBlockRepETag
1070
     1
1071
      150
1001
ACAD
1000
DesignCenter Data
1002
{
1070
     1
1070
     4
1002
}
  0
BLOCK_RECORD
  5
25D
330
1
100
AcDbSymbolTableRecord
100
AcDbBlockTableRecord
  2
*D1
340
0
  0
BLOCK_RECORD
  5
231
330
1
100
AcDbSymbolTableRecord
100
AcDbBlockTableRecord
  2
*D2
340
0
  0
BLOCK_RECORD
  5
241
330
1
100
AcDbSymbolTableRecord
100
AcDbBlockTableRecord
  2
*D3
340
0
  0
BLOCK_RECORD
  5
250
330
1
100
AcDbSymbolTableRecord
100
AcDbBlockTableRecord
  2
*D4
340
0
  0
BLOCK_RECORD
  5
275
330
1
100
AcDbSymbolTableRecord
100
AcDbBlockTableRecord
  2
*D5
340
0
  0
BLOCK_RECORD
  5
545
330
1
100
AcDbSymbolTableRecord
100
AcDbBlockTableRecord
  2
*D7
340
0
  0
BLOCK_RECORD
  5
551
330
1
100
AcDbSymbolTableRecord
100
AcDbBlockTableRecord
  2
*D8
340
0
  0
BLOCK_RECORD
  5
55D
330
1
100
AcDbSymbolTableRecord
100
AcDbBlockTableRecord
  2
*D9
340
0
  0
BLOCK_RECORD
  5
569
330
1
100
AcDbSymbolTableRecord
100
AcDbBlockTableRecord
  2
*D10
340
0
  0
BLOCK_RECORD
  5
575
330
1
100
AcDbSymbolTableRecord
100
AcDbBlockTableRecord
  2
*D11
340
0
  0
ENDTAB
  0
ENDSEC
  0
SECTION
  2
BLOCKS
  0
BLOCK
  5
5
330
2
100
AcDbEntity
  8
0
100
AcDbBlockBegin
  2
*MODEL_SPACE
 70
     0
 10
0.0
 20
0.0
 30
0.0
  3
*MODEL_SPACE
  1

  0
ENDBLK
  5
11
330
2
100
AcDbEntity
  8
0
100
AcDbBlockEnd
  0
BLOCK
  5
16
330
15
100
AcDbEntity
 67
     1
  8
0
100
AcDbBlockBegin
  2
*PAPER_SPACE
 70
     0
 10
0.0
 20
0.0
 30
0.0
  3
*PAPER_SPACE
  1

  0
ENDBLK
  5
17
330
15
100
AcDbEntity
 67
     1
  8
0
100
AcDbBlockEnd
  0
BLOCK
  5
7D
330
7B
100
AcDbEntity
  8
0
100
AcDbBlockBegin
  2
A4图框-NEW
 70
     0
 10
0.0
 20
0.0
 30
0.0
  3
A4图框-NEW
  1

  0
MTEXT
  5
4AA
102
{ACAD_XDICTIONARY
360
647
102
}
330
7B
100
AcDbEntity
  8
图框
 62
     3
100
AcDbMText
 10
967.6594956750133
 20
499.7664151964293
 30
0.0
 40
2.985513575034151
 41
15.50176341157864
 71
     5
 72
     5
  1
SH YE
  7
Romans字体
 73
     1
 44
1.0
1001
AcDbBlockRepETag
1070
     1
1071
        0
1005
4AA
1001
ACAD
1000
ACAD_MTEXT_DEFINED_HEIGHT_BEGIN
1070
    46
1040
6.292658374511018
1000
ACAD_MTEXT_DEFINED_HEIGHT_END
  0
MTEXT
  5
4AB
330
7B
100
AcDbEntity
  8
图框
 62
     3
100
AcDbMText
 10
983.041569333247
 20
499.7664151964293
 30
0.0
 40
2.487927979195124
 41
15.26238390489062
 71
     5
 72
     5
  1
{\W0.7;22.02.2017}
  7
Romans字体
 73
     1
 44
1.0
1001
AcDbBlockRepETag
1070
     1
1071
        1
1005
4AB
1001
ACAD
1000
ACAD_MTEXT_DEFINED_HEIGHT_BEGIN
1070
    46
1040
6.292658374511042
1000
ACAD_MTEXT_DEFINED_HEIGHT_END
  0
MTEXT
  5
4AC
330
7B
100
AcDbEntity
  8
图框
 62
     3
100
AcDbMText
 10
1012.477254728976
 20
487.1810984474071
 30
0.0
 40
2.985513575034151
 41
17.64876416884615
 71
     5
 72
     5
  1
YY LIN
  7
Romans字体
 73
     1
 44
1.0
1001
AcDbBlockRepETag
1070
     1
1071
        2
1005
4AC
1001
ACAD
1000
ACAD_MTEXT_DEFINED_HEIGHT_BEGIN
1070
    46
1040
6.292658374511455
1000
ACAD_MTEXT_DEFINED_HEIGHT_END
  0
MTEXT
  5
4AD
330
7B
100
AcDbEntity
  8
图框
 62
     3
100
AcDbMText
 10
1028.977802139886
 20
487.1810984474071
 30
0.0
 40
2.487927979195124
 41
15.35233065297276
 71
     5
 72
     5
  1
{\W0.7;22.02.2017}
  7
Romans字体
 73
     1
 44
1.0
1001
AcDbBlockRepETag
1070
     1
1071
        3
1005
4AD
1001
ACAD
1000
ACAD_MTEXT_DEFINED_HEIGHT_BEGIN
1070
    46
1040
6.292658374511495
1000
ACAD_MTEXT_DEFINED_HEIGHT_END
  0
MTEXT
  5
4AE
330
7B
100
AcDbEntity
  8
图框
 62
     3
100
AcDbMText
 10
1063.722665487208
 20
525.4145966538831
 30
0.0
 40
2.985513575034151
 41
32.4973914334545
 71
     5
 72
     5
  1
-
  7
Romans字体
 73
     1
 44
1.0
1001
AcDbBlockRepETag
1070
     1
1071
        4
1005
4AE
1001
ACAD
1000
ACAD_MTEXT_DEFINED_HEIGHT_BEGIN
1070
    46
1040
11.82914190181707
1000
ACAD_MTEXT_DEFINED_HEIGHT_END
  0
MTEXT
  5
4AF
330
7B
100
AcDbEntity
  8
图框
 62
     3
100
AcDbMText
 10
1063.727338552349
 20
513.5854547520641
 30
0.0
 40
2.985513575034151
 41
32.48804530317308
 71
     5
 72
     5
  1
-
  7
Romans字体
 73
     1
 44
1.0
1001
AcDbBlockRepETag
1070
     1
1071
        5
1005
4AF
1001
ACAD
1000
ACAD_MTEXT_DEFINED_HEIGHT_BEGIN
1070
    46
1040
11.82914190182139
1000
ACAD_MTEXT_DEFINED_HEIGHT_END
  0
MTEXT
  5
4B0
330
7B
100
AcDbEntity
  8
图框
 62
     3
100
AcDbMText
 10
1110.122306614152
 20
526.8006839312707
 30
0.0
 40
2.985513575034151
 41
33.61239199242139
 71
     5
 72
     5
  1
-
  7
Romans字体
 73
     1
 44
1.0
1001
AcDbBlockRepETag
1070
     1
1071
        6
1005
4B0
1001
ACAD
1000
ACAD_MTEXT_DEFINED_HEIGHT_BEGIN
1070
    46
1040
9.05696734704178
1000
ACAD_MTEXT_DEFINED_HEIGHT_END
  0
MTEXT
  5
4B1
330
7B
100
AcDbEntity
  8
图框
 62
     3
100
AcDbMText
 10
1110.122306614152
 20
500.2775205517162
 30
0.0
 40
2.985513575034151
 41
33.61239199242139
 71
     5
 72
     5
  1
-
  7
Romans字体
 73
     1
 44
1.0
1001
AcDbBlockRepETag
1070
     1
1071
        7
1005
4B1
1001
ACAD
1000
ACAD_MTEXT_DEFINED_HEIGHT_BEGIN
1070
    46
1040
8.871557304763419
1000
ACAD_MTEXT_DEFINED_HEIGHT_END
  0
MTEXT
  5
4B2
330
7B
100
AcDbEntity
  8
图框
 62
     3
100
AcDbMText
 10
967.6594956750133
 20
493.4737568219182
 30
0.0
 40
2.985513575034151
 41
15.50176341157864
 71
     5
 72
     5
  1
P RAO
  7
Romans字体
 73
     1
 44
1.0
1001
AcDbBlockRepETag
1070
     1
1071
        8
1005
4B2
1001
ACAD
1000
ACAD_MTEXT_DEFINED_HEIGHT_BEGIN
1070
    46
1040
6.292658374510335
1000
ACAD_MTEXT_DEFINED_HEIGHT_END
  0
MTEXT
  5
4B3
330
7B
100
AcDbEntity
  8
图框
 62
     3
100
AcDbMText
 10
983.041569333247
 20
493.2441970450405
 30
0.0
 40
2.487927979195124
 41
15.26238390489051
 71
     5
 72
     5
  1
{\W0.7;22.02.2017}
  7
Romans字体
 73
     1
 44
1.0
1001
AcDbBlockRepETag
1070
     1
1071
        9
1005
4B3
1001
ACAD
1000
ACAD_MTEXT_DEFINED_HEIGHT_BEGIN
1070
    46
1040
6.751777928266487
1000
ACAD_MTEXT_DEFINED_HEIGHT_END
  0
MTEXT
  5
4B4
330
7B
100
AcDbEntity
  8
图框
 62
     3
100
AcDbMText
 10
1012.477254728976
 20
499.7664151964291
 30
0.0
 40
2.985513575034151
 41
17.64876416884615
 71
     5
 72
     5
  1
-
  7
Romans字体
 73
     1
 44
1.0
1001
AcDbBlockRepETag
1070
     1
1071
       10
1005
4B4
1001
ACAD
1000
ACAD_MTEXT_DEFINED_HEIGHT_BEGIN
1070
    46
1040
6.292658374511397
1000
ACAD_MTEXT_DEFINED_HEIGHT_END
  0
MTEXT
  5
4B5
330
7B
100
AcDbEntity
  8
图框
 62
     3
100
AcDbMText
 10
1028.977802139886
 20
499.7664151964289
 30
0.0
 40
2.487927979195124
 41
15.35233065297265
 71
     5
 72
     5
  1
-
  7
Romans字体
 73
     1
 44
1.0
1001
AcDbBlockRepETag
1070
     1
1071
       11
1005
4B5
1001
ACAD
1000
ACAD_MTEXT_DEFINED_HEIGHT_BEGIN
1070
    46
1040
6.292658374511382
1000
ACAD_MTEXT_DEFINED_HEIGHT_END
  0
MTEXT
  5
4B6
330
7B
100
AcDbEntity
  8
图框
 62
     3
100
AcDbMText
 10
967.6594956750133
 20
487.1810984474071
 30
0.0
 40
2.985513575034151
 41
15.50176341157863
 71
     5
 72
     5
  1
-
  7
Romans字体
 73
     1
 44
1.0
1001
AcDbBlockRepETag
1070
     1
1071
       12
1005
4B6
1001
ACAD
1000
ACAD_MTEXT_DEFINED_HEIGHT_BEGIN
1070
    46
1040
6.292658374511478
1000
ACAD_MTEXT_DEFINED_HEIGHT_END
  0
MTEXT
  5
4B7
330
7B
100
AcDbEntity
  8
图框
 62
     3
100
AcDbMText
 10
983.041569333247
 20
487.1810984474071
 30
0.0
 40
2.487927979195124
 41
15.26238390489062
 71
     5
 72
     5
  1
-
  7
Romans字体
 73
     1
 44
1.0
1001
AcDbBlockRepETag
1070
     1
1071
       13
1005
4B7
1001
ACAD
1000
ACAD_MTEXT_DEFINED_HEIGHT_BEGIN
1070
    46
1040
6.292658374511495
1000
ACAD_MTEXT_DEFINED_HEIGHT_END
  0
MTEXT
  5
4B8
330
7B
100
AcDbEntity
  8
图框
 62
     3
100
AcDbMText
 10
1074.556686986741
 20
495.8417418993361
 30
0.0
 40
2.985513575034151
 41
10.82934843438978
 71
     5
 72
     5
  1
-
  7
Romans字体
 73
     1
 44
1.0
1001
AcDbBlockRepETag
1070
     1
1071
       14
1005
4B8
1001
ACAD
1000
ACAD_MTEXT_DEFINED_HEIGHT_BEGIN
1070
    46
1040
7.886094601210427
1000
ACAD_MTEXT_DEFINED_HEIGHT_END
  0
LINE
  5
4B9
330
7B
100
AcDbEntity
  8
图框
370
    -3
100
AcDbLine
 10
1036.653967466372
 20
499.7847891999413
 30
0.0
 11
1079.971361203936
 21
499.7847891999413
 31
0.0
1001
AcDbBlockRepETag
1070
     1
1071
       15
1005
4B9
  0
MTEXT
  5
4BA
330
7B
100
AcDbEntity
  8
图框
 62
     1
370
    20
100
AcDbMText
 10
1108.26336443907
 20
491.5162596080882
 30
0.0
 40
2.699054613030988
 41
82.30831305643079
 71
     5
 72
     5
  1
{\fSimHei|b0|i0|c134|p2;厦门唯恩电气有限公司}
 73
     1
 44
1.0
1001
AcDbBlockRepETag
1070
     1
1071
       16
1005
4BA
  0
MTEXT
  5
4BB
330
7B
100
AcDbEntity
  8
图框
 62
     3
370
    20
100
AcDbMText
 10
1108.435451459908
 20
487.298967726064
 30
0.0
 40
1.652482416141417
 41
68.08558693693567
 71
     5
 72
     5
  1
{\fArial Narrow|b0|i0|c0|p34;XIAMEN WAIN ELECTRICAL CO.LTD}
  7
工程字
 73
     1
 44
1.0
1001
AcDbBlockRepETag
1070
     1
1071
       17
1005
4BB
  0
MTEXT
  5
4BC
330
7B
100
AcDbEntity
  8
图框
 62
     1
370
    20
100
AcDbMText
 10
1085.711816899387
 20
491.0944802995856
 30
0.0
 40
2.005930044038334
 41
5.047240019334847
 71
     1
 72
     5
  1
{\fArial|b0|i0|c0|p34;A}
  7
Chinese
 73
     1
 44
1.0
1001
AcDbBlockRepETag
1070
     1
1071
       18
1005
4BC
  0
MTEXT
  5
4BD
330
7B
100
AcDbEntity
  8
图框
 62
     1
370
    20
100
AcDbMText
 10
1088.213485935716
 20
491.0944802995856
 30
0.0
 40
2.005930044038334
 41
5.047240019334847
 71
     1
 72
     5
  1
{\fArial|b0|i0|c0|p34;I}
  7
Chinese
 73
     1
 44
1.0
1001
AcDbBlockRepETag
1070
     1
1071
       19
1005
4BD
  0
MTEXT
  5
4BE
330
7B
100
AcDbEntity
  8
图框
 62
     1
370
    20
100
AcDbMText
 10
1089.142375222864
 20
491.0822866326808
 30
0.0
 40
2.005930044038334
 41
5.047240019334847
 71
     1
 72
     5
  1
{\fArial|b0|i0|c0|p34;N}
  7
Chinese
 73
     1
 44
1.0
1001
AcDbBlockRepETag
1070
     1
1071
       20
1005
4BE
  0
MTEXT
  5
4BF
330
7B
100
AcDbEntity
  8
图框
100
AcDbMText
 10
1069.142012769545
 20
487.9667319294409
 30
0.0
 40
2.252848170144607
 41
21.65869686878327
 71
     5
 72
     5
  1
{\W0.5;\C1;All Dimensions in mm\POriginal Size DIN A 4}
  7
Romans字体
 73
     1
 44
1.0
1001
AcDbBlockRepETag
1070
     1
1071
       21
1005
4BF
1001
ACAD
1000
ACAD_MTEXT_DEFINED_HEIGHT_BEGIN
1070
    46
1040
7.863925338579296
1000
ACAD_MTEXT_DEFINED_HEIGHT_END
  0
MTEXT
  5
4C0
330
7B
100
AcDbEntity
  8
图框
  6
ByBlock
 62
     6
370
    18
100
AcDbMText
 10
1127.40434942308
 20
508.7896535755975
 30
0.0
 40
2.651776162684904
 41
2.557913877927211
 71
     1
 72
     5
  1
A
  7
Romans字体
 11
0.0000000000000001
 21
1.0
 31
0.0
 73
     1
 44
1.0
1001
AcDbBlockRepETag
1070
     1
1071
       22
1005
4C0
  0
MTEXT
  5
4C1
330
7B
100
AcDbEntity
  8
图框
 62
     6
100
AcDbMText
 10
1127.40434942308
 20
556.3746573232886
 30
0.0
 40
2.651776162684904
 41
2.557913877927211
 71
     1
 72
     5
  1
B
  7
Romans字体
 11
0.0000000000000001
 21
1.0
 31
0.0
 73
     1
 44
1.0
1001
AcDbBlockRepETag
1070
     1
1071
       23
1005
4C1
  0
MTEXT
  5
4C2
330
7B
100
AcDbEntity
  8
图框
 62
     6
100
AcDbMText
 10
1127.40434942308
 20
607.5539372630998
 30
0.0
 40
2.651776162684904
 41
2.557913877927211
 71
     1
 72
     5
  1
C
  7
Romans字体
 11
0.0000000000000001
 21
1.0
 31
0.0
 73
     1
 44
1.0
1001
AcDbBlockRepETag
1070
     1
1071
       24
1005
4C2
  0
MTEXT
  5
4C3
330
7B
100
AcDbEntity
  8
图框
 62
     6
100
AcDbMText
 10
1127.40434942308
 20
658.7332172029115
 30
0.0
 40
2.651776162684904
 41
2.557913877927211
 71
     1
 72
     5
  1
D
  7
Romans字体
 11
0.0000000000000001
 21
1.0
 31
0.0
 73
     1
 44
1.0
1001
AcDbBlockRepETag
1070
     1
1071
       25
1005
4C3
  0
LINE
  5
4C4
330
7B
100
AcDbEntity
  8
图框
 62
     6
100
AcDbLine
 10
1130.411601781241
 20
634.0726090796082
 30
0.0
 11
1126.928502610363
 21
634.0726090796082
 31
0.0
1001
AcDbBlockRepETag
1070
     1
1071
       26
1005
4C4
  0
LINE
  5
4C5
330
7B
100
AcDbEntity
  8
图框
 62
     6
100
AcDbLine
 10
1130.411601781241
 20
582.89332913979
 30
0.0
 11
1126.928502610363
 21
582.89332913979
 31
0.0
1001
AcDbBlockRepETag
1070
     1
1071
       27
1005
4C5
  0
MTEXT
  5
4C6
330
7B
100
AcDbEntity
  8
图框
 62
     6
100
AcDbMText
 10
1105.329704038389
 20
483.6164543011163
 30
0.0
 40
2.651776162684904
 41
2.557913877927211
 71
     1
 72
     5
  1
6
  7
Romans字体
 73
     1
 44
1.0
1001
AcDbBlockRepETag
1070
     1
1071
       28
1005
4C6
  0
LINE
  5
4C7
330
7B
100
AcDbEntity
  8
图框
 62
     6
100
AcDbLine
 10
1081.088565155284
 20
484.0347692601515
 30
0.0
 11
1081.088565155284
 21
480.5347692601476
 31
0.0
1001
AcDbBlockRepETag
1070
     1
1071
       29
1005
4C7
  0
MTEXT
  5
4C8
330
7B
100
AcDbEntity
  8
图框
 62
     6
100
AcDbMText
 10
1055.900596365941
 20
483.520053108993
 30
0.0
 40
2.651776162684904
 41
2.557913877927211
 71
     1
 72
     5
  1
5
  7
Romans字体
 73
     1
 44
1.0
1001
AcDbBlockRepETag
1070
     1
1071
       30
1005
4C8
  0
LINE
  5
4C9
330
7B
100
AcDbEntity
  8
图框
 62
     6
100
AcDbLine
 10
1031.553386436349
 20
484.0347692601515
 30
0.0
 11
1031.553386436349
 21
480.5347692601476
 31
0.0
1001
AcDbBlockRepETag
1070
     1
1071
       31
1005
4C9
  0
MTEXT
  5
4CA
330
7B
100
AcDbEntity
  8
图框
 62
     6
100
AcDbMText
 10
1006.383180575197
 20
483.5687958215896
 30
0.0
 40
2.651776162684904
 41
2.557913877927211
 71
     1
 72
     5
  1
4
  7
Romans字体
 73
     1
 44
1.0
1001
AcDbBlockRepETag
1070
     1
1071
       32
1005
4CA
  0
LINE
  5
4CB
330
7B
100
AcDbEntity
  8
图框
 62
     6
100
AcDbLine
 10
982.0182077173887
 20
484.0347692601515
 30
0.0
 11
982.0182077173887
 21
480.5347692601476
 31
0.0
1001
AcDbBlockRepETag
1070
     1
1071
       33
1005
4CB
  0
MTEXT
  5
4CC
330
7B
100
AcDbEntity
  8
图框
 62
     6
100
AcDbMText
 10
956.8302389280352
 20
483.5989680297948
 30
0.0
 40
2.651776162684904
 41
2.557913877927211
 71
     1
 72
     5
  1
3
  7
Romans字体
 73
     1
 44
1.0
1001
AcDbBlockRepETag
1070
     1
1071
       34
1005
4CC
  0
LINE
  5
4CD
330
7B
100
AcDbEntity
  8
图框
 62
     6
100
AcDbLine
 10
932.4830289984245
 20
484.0347692601515
 30
0.0
 11
932.4830289984245
 21
480.5347692601476
 31
0.0
1001
AcDbBlockRepETag
1070
     1
1071
       35
1005
4CD
  0
MTEXT
  5
4CE
330
7B
100
AcDbEntity
  8
图框
 62
     6
100
AcDbMText
 10
906.0252349826365
 20
483.6475250013156
 30
0.0
 40
2.651776162684904
 41
2.557913877927211
 71
     1
 72
     5
  1
2
  7
Romans字体
 73
     1
 44
1.0
1001
AcDbBlockRepETag
1070
     1
1071
       36
1005
4CE
  0
LINE
  5
4CF
330
7B
100
AcDbEntity
  8
图框
 62
     6
100
AcDbLine
 10
882.9478502794648
 20
484.0347692601515
 30
0.0
 11
882.9478502794648
 21
480.5347692601476
 31
0.0
1001
AcDbBlockRepETag
1070
     1
1071
       37
1005
4CF
  0
MTEXT
  5
4D0
330
7B
100
AcDbEntity
  8
图框
 62
     6
100
AcDbMText
 10
857.7598814901191
 20
483.651829494754
 30
0.0
 40
2.651776162684904
 41
2.557913877927211
 71
     1
 72
     5
  1
1
  7
Romans字体
 73
     1
 44
1.0
1001
AcDbBlockRepETag
1070
     1
1071
       38
1005
4D0
  0
LINE
  5
4D1
330
7B
100
AcDbEntity
  8
图框
370
    50
100
AcDbLine
 10
836.8548209370597
 20
484.0347692601515
 30
0.0
 11
1126.928502610363
 21
484.0347692601515
 31
0.0
1001
AcDbBlockRepETag
1070
     1
1071
       39
1005
4D1
  0
LINE
  5
4D2
330
7B
100
AcDbEntity
  8
图框
370
    50
100
AcDbLine
 10
836.9128518455362
 20
484.0178684310246
 30
0.0
 11
836.9128518455394
 21
675.0207195125422
 31
0.0
1001
AcDbBlockRepETag
1070
     1
1071
       40
1005
4D2
  0
MTEXT
  5
4D3
330
7B
100
AcDbEntity
  8
图框
 62
     6
100
AcDbMText
 10
833.8475685789031
 20
658.7332172029115
 30
0.0
 40
2.651776162684904
 41
2.557913877927211
 71
     1
 72
     5
  1
D
  7
Romans字体
 11
0.0000000000000001
 21
1.0
 31
0.0
 73
     1
 44
1.0
1001
AcDbBlockRepETag
1070
     1
1071
       41
1005
4D3
  0
LINE
  5
4D4
330
7B
100
AcDbEntity
  8
图框
 62
     6
100
AcDbLine
 10
836.9128518455386
 20
634.0726090796082
 30
0.0
 11
833.4128518455365
 21
634.0726090796082
 31
0.0
1001
AcDbBlockRepETag
1070
     1
1071
       42
1005
4D4
  0
MTEXT
  5
4D5
330
7B
100
AcDbEntity
  8
图框
 62
     6
100
AcDbMText
 10
833.9039177480142
 20
607.5539372630998
 30
0.0
 40
2.651776162684904
 41
2.557913877927211
 71
     1
 72
     5
  1
C
  7
Romans字体
 11
0.0000000000000001
 21
1.0
 31
0.0
 73
     1
 44
1.0
1001
AcDbBlockRepETag
1070
     1
1071
       43
1005
4D5
  0
LINE
  5
4D6
330
7B
100
AcDbEntity
  8
图框
 62
     6
100
AcDbLine
 10
836.9128518455378
 20
582.89332913979
 30
0.0
 11
833.4128518455365
 21
582.89332913979
 31
0.0
1001
AcDbBlockRepETag
1070
     1
1071
       44
1005
4D6
  0
MTEXT
  5
4D7
330
7B
100
AcDbEntity
  8
图框
 62
     6
100
AcDbMText
 10
833.9039177480142
 20
556.3746573232886
 30
0.0
 40
2.651776162684904
 41
2.557913877927211
 71
     1
 72
     5
  1
B
  7
Romans字体
 11
0.0000000000000001
 21
1.0
 31
0.0
 73
     1
 44
1.0
1001
AcDbBlockRepETag
1070
     1
1071
       45
1005
4D7
  0
LINE
  5
4D8
330
7B
100
AcDbEntity
  8
图框
 62
     6
100
AcDbLine
 10
836.9128518455367
 20
531.714049199969
 30
0.0
 11
833.4128518455365
 21
531.714049199969
 31
0.0
1001
AcDbBlockRepETag
1070
     1
1071
       46
1005
4D8
  0
MTEXT
  5
4D9
330
7B
100
AcDbEntity
  8
图框
 62
     6
100
AcDbMText
 10
833.9039177480142
 20
508.7896535755975
 30
0.0
 40
2.651776162684904
 41
2.557913877927211
 71
     1
 72
     5
  1
A
  7
Romans字体
 11
0.0000000000000001
 21
1.0
 31
0.0
 73
     1
 44
1.0
1001
AcDbBlockRepETag
1070
     1
1071
       47
1005
4D9
  0
LINE
  5
4DA
330
7B
100
AcDbEntity
  8
图框
370
    -3
100
AcDbLine
 10
836.9128518455394
 20
675.0207195125422
 30
0.0
 11
836.9128518455394
 21
684.5021384922564
 31
0.0
1001
AcDbBlockRepETag
1070
     1
1071
       48
1005
4DA
  0
LINE
  5
4DB
330
7B
100
AcDbEntity
  8
图框
370
    -3
100
AcDbLine
 10
842.6237321475781
 20
675.5347692601515
 30
0.0
 11
842.6237321475781
 21
685.0161882398658
 31
0.0
1001
AcDbBlockRepETag
1070
     1
1071
       49
1005
4DB
  0
LINE
  5
4DC
330
7B
100
AcDbEntity
  8
图框
370
    -3
100
AcDbLine
 10
848.3346124496179
 20
675.5347692601515
 30
0.0
 11
848.3346124496179
 21
685.0161882398658
 31
0.0
1001
AcDbBlockRepETag
1070
     1
1071
       50
1005
4DC
  0
LINE
  5
4DD
330
7B
100
AcDbEntity
  8
图框
370
    -3
100
AcDbLine
 10
854.0454927516588
 20
675.5347692601515
 30
0.0
 11
854.0454927516588
 21
685.0161882398658
 31
0.0
1001
AcDbBlockRepETag
1070
     1
1071
       51
1005
4DD
  0
LINE
  5
4DE
330
7B
100
AcDbEntity
  8
图框
370
    -3
100
AcDbLine
 10
861.5351874539182
 20
675.5347692601515
 30
0.0
 11
861.5351874539182
 21
686.7901958362482
 31
0.0
1001
AcDbBlockRepETag
1070
     1
1071
       52
1005
4DE
  0
MTEXT
  5
4DF
330
7B
100
AcDbEntity
  8
图框
 62
     6
100
AcDbMText
 10
1105.329704038389
 20
678.859919059449
 30
0.0
 40
2.651776162684904
 41
2.557913877927211
 71
     1
 72
     5
  1
6
  7
Romans字体
 73
     1
 44
1.0
1001
AcDbBlockRepETag
1070
     1
1071
       53
1005
4DF
  0
LINE
  5
4E0
330
7B
100
AcDbEntity
  8
图框
 62
     6
100
AcDbLine
 10
1081.088565155284
 20
679.0347692601516
 30
0.0
 11
1081.088565155284
 21
675.5347692601515
 31
0.0
1001
AcDbBlockRepETag
1070
     1
1071
       54
1005
4E0
  0
MTEXT
  5
4E1
330
7B
100
AcDbEntity
  8
图框
 62
     6
100
AcDbMText
 10
1055.900596365941
 20
678.859919059449
 30
0.0
 40
2.651776162684904
 41
2.557913877927211
 71
     1
 72
     5
  1
5
  7
Romans字体
 73
     1
 44
1.0
1001
AcDbBlockRepETag
1070
     1
1071
       55
1005
4E1
  0
LINE
  5
4E2
330
7B
100
AcDbEntity
  8
图框
 62
     6
100
AcDbLine
 10
1031.553386436349
 20
679.0347692601516
 30
0.0
 11
1031.553386436349
 21
675.5347692601515
 31
0.0
1001
AcDbBlockRepETag
1070
     1
1071
       56
1005
4E2
  0
MTEXT
  5
4E3
330
7B
100
AcDbEntity
  8
图框
 62
     6
100
AcDbMText
 10
1006.36541764698
 20
678.7312083656147
 30
0.0
 40
2.651776162684904
 41
2.557913877927211
 71
     1
 72
     5
  1
4
  7
Romans字体
 73
     1
 44
1.0
1001
AcDbBlockRepETag
1070
     1
1071
       57
1005
4E3
  0
LINE
  5
4E4
330
7B
100
AcDbEntity
  8
图框
 62
     6
100
AcDbLine
 10
982.0182077173887
 20
679.0347692601516
 30
0.0
 11
982.0182077173887
 21
675.5347692601515
 31
0.0
1001
AcDbBlockRepETag
1070
     1
1071
       58
1005
4E4
  0
MTEXT
  5
4E5
330
7B
100
AcDbEntity
  8
图框
 62
     6
100
AcDbMText
 10
956.8302389280352
 20
678.859919059449
 30
0.0
 40
2.651776162684904
 41
2.557913877927211
 71
     1
 72
     5
  1
3
  7
Romans字体
 73
     1
 44
1.0
1001
AcDbBlockRepETag
1070
     1
1071
       59
1005
4E5
  0
LINE
  5
4E6
330
7B
100
AcDbEntity
  8
图框
 62
     6
100
AcDbLine
 10
932.4830289984245
 20
679.0347692601516
 30
0.0
 11
932.4830289984245
 21
675.5347692601515
 31
0.0
1001
AcDbBlockRepETag
1070
     1
1071
       60
1005
4E6
  0
MTEXT
  5
4E7
330
7B
100
AcDbEntity
  8
图框
 62
     6
100
AcDbMText
 10
907.295060209082
 20
678.859919059449
 30
0.0
 40
2.651776162684904
 41
2.557913877927211
 71
     1
 72
     5
  1
2
  7
Romans字体
 73
     1
 44
1.0
1001
AcDbBlockRepETag
1070
     1
1071
       61
1005
4E7
  0
LINE
  5
4E8
330
7B
100
AcDbEntity
  8
图框
 62
     6
100
AcDbLine
 10
882.9478502794648
 20
678.7962435131815
 30
0.0
 11
882.9478502794648
 21
675.5347692601515
 31
0.0
1001
AcDbBlockRepETag
1070
     1
1071
       62
1005
4E8
  0
MTEXT
  5
4E9
330
7B
100
AcDbEntity
  8
图框
 62
     6
100
AcDbMText
 10
862.6286629643733
 20
678.859919059449
 30
0.0
 40
2.651776162684904
 41
2.557913877927211
 71
     1
 72
     5
  1
1
  7
Romans字体
 73
     1
 44
1.0
1001
AcDbBlockRepETag
1070
     1
1071
       63
1005
4E9
  0
LINE
  5
4EA
330
7B
100
AcDbEntity
  8
图框
370
    -3
100
AcDbLine
 10
836.9128518455394
 20
675.0207195125422
 30
0.0
 11
836.9128518455394
 21
686.7901958362482
 31
0.0
1001
AcDbBlockRepETag
1070
     1
1071
       64
1005
4EA
  0
LINE
  5
4EB
330
7B
100
AcDbEntity
  8
图框
370
    50
100
AcDbLine
 10
836.9128518455394
 20
675.5347692601515
 30
0.0
 11
1126.928502610363
 21
675.5347692601515
 31
0.0
1001
AcDbBlockRepETag
1070
     1
1071
       65
1005
4EB
  0
LINE
  5
4EC
330
7B
100
AcDbEntity
  8
图框
370
    -3
100
AcDbLine
 10
842.6237321475781
 20
675.5347692601515
 30
0.0
 11
842.6237321475781
 21
686.7901958362482
 31
0.0
1001
AcDbBlockRepETag
1070
     1
1071
       66
1005
4EC
  0
LINE
  5
4ED
330
7B
100
AcDbEntity
  8
图框
370
    -3
100
AcDbLine
 10
848.3346124496179
 20
675.5347692601515
 30
0.0
 11
848.3346124496179
 21
686.7901958362482
 31
0.0
1001
AcDbBlockRepETag
1070
     1
1071
       67
1005
4ED
  0
MTEXT
  5
4EE
102
{ACAD_XDICTIONARY
360
649
102
}
330
7B
100
AcDbEntity
  8
图框
100
AcDbMText
 10
857.7903401027889
 20
686.7901958362482
 30
0.0
 40
1.958998408821398
 41
11.25542657609672
 71
     4
 72
     5
  1
\pi2.6646;{\fSimSun|b0|i0|c134|p2;档案员\fFangSong_GB2312|b0|i0|c134|p49;\H0.7x;\P\pi1.4159;\Fromans|c134;Filing Clerk\fFangSong_GB2312|b0|i0|c134|p49; }
 11
-0.0000000000000002
 21
-1.0
 31
0.0
 73
     1
 44
1.0
1001
AcDbBlockRepETag
1070
     1
1071
       68
1005
4EE
1001
ACAD
1000
ACAD_MTEXT_DEFINED_HEIGHT_BEGIN
1070
    46
1040
7.489694702258906
1000
ACAD_MTEXT_DEFINED_HEIGHT_END
  0
MTEXT
  5
4EF
102
{ACAD_XDICTIONARY
360
64B
102
}
330
7B
100
AcDbEntity
  8
图框
100
AcDbMText
 10
845.479172298598
 20
686.7901958362482
 30
0.0
 40
1.958998408821398
 41
11.25542657609672
 71
     4
 72
     5
  1
\pi0.63465;{\fSimSun|b0|i0|c134|p2;日期\Fromans|c134;/Date}
 11
-0.0000000000000002
 21
-1.0
 31
0.0
 73
     1
 44
1.0
1001
AcDbBlockRepETag
1070
     1
1071
       69
1005
4EF
1001
ACAD
1000
ACAD_MTEXT_DEFINED_HEIGHT_BEGIN
1070
    46
1040
5.710880302039671
1000
ACAD_MTEXT_DEFINED_HEIGHT_END
  0
LINE
  5
4F0
330
7B
100
AcDbEntity
  8
图框
370
    -3
100
AcDbLine
 10
854.0454927516588
 20
675.5347692601515
 30
0.0
 11
854.0454927516588
 21
686.7901958362482
 31
0.0
1001
AcDbBlockRepETag
1070
     1
1071
       70
1005
4F0
  0
LINE
  5
4F1
330
7B
100
AcDbEntity
  8
图框
370
    -3
100
AcDbLine
 10
1036.653967466372
 20
531.3291676047914
 30
0.0
 11
1036.653967466372
 21
484.0126019753161
 31
0.0
1001
AcDbBlockRepETag
1070
     1
1071
       71
1005
4F1
  0
LINE
  5
4F2
330
7B
100
AcDbEntity
  8
图框
370
    -3
100
AcDbLine
 10
1047.483315900763
 20
507.6708838011533
 30
0.0
 11
1047.483315900763
 21
491.8986945987308
 31
0.0
1001
AcDbBlockRepETag
1070
     1
1071
       72
1005
4F2
  0
LINE
  5
4F3
330
7B
100
AcDbEntity
  8
图框
370
    -3
100
AcDbLine
 10
1058.312664335153
 20
507.6708838011533
 30
0.0
 11
1058.312664335153
 21
484.0347692601515
 31
0.0
1001
AcDbBlockRepETag
1070
     1
1071
       73
1005
4F3
  0
LINE
  5
4F4
330
7B
100
AcDbEntity
  8
图框
370
    25
100
AcDbLine
 10
1048.474135214456
 20
488.1095628329926
 30
0.0
 11
1054.946420288459
 21
488.1095628329926
 31
0.0
1001
AcDbBlockRepETag
1070
     1
1071
       74
1005
4F4
  0
LINE
  5
4F5
330
7B
100
AcDbEntity
  8
图框
370
    25
100
AcDbLine
 10
1054.232527365989
 20
487.0761716842634
 30
0.0
 11
1049.156490914508
 21
486.4576273751
 31
0.0
1001
AcDbBlockRepETag
1070
     1
1071
       75
1005
4F5
  0
LINE
  5
4F6
330
7B
100
AcDbEntity
  8
图框
370
    25
100
AcDbLine
 10
1054.232527365989
 20
489.1429539817209
 30
0.0
 11
1049.156490914508
 21
489.7614982908846
 31
0.0
1001
AcDbBlockRepETag
1070
     1
1071
       76
1005
4F6
  0
LINE
  5
4F7
330
7B
100
AcDbEntity
  8
图框
370
    25
100
AcDbLine
 10
1049.156490914508
 20
489.7614982908846
 30
0.0
 11
1049.156490914508
 21
486.4576273751
 31
0.0
1001
AcDbBlockRepETag
1070
     1
1071
       77
1005
4F7
  0
LINE
  5
4F8
330
7B
100
AcDbEntity
  8
图框
370
    25
100
AcDbLine
 10
1054.232527365989
 20
489.1429539817209
 30
0.0
 11
1054.232527365989
 21
487.0761716842634
 31
0.0
1001
AcDbBlockRepETag
1070
     1
1071
       78
1005
4F8
  0
CIRCLE
  5
4F9
330
7B
100
AcDbEntity
  8
图框
370
    25
100
AcDbCircle
 10
1042.502700458579
 20
488.1095628329926
 30
0.0
 40
1.651935457891863
1001
AcDbBlockRepETag
1070
     1
1071
       79
1005
4F9
  0
CIRCLE
  5
4FA
330
7B
100
AcDbEntity
  8
图框
370
    25
100
AcDbCircle
 10
1042.502700458579
 20
488.1095628329926
 30
0.0
 40
1.033391148728775
1001
AcDbBlockRepETag
1070
     1
1071
       80
1005
4FA
  0
LINE
  5
4FB
330
7B
100
AcDbEntity
  8
图框
370
    25
100
AcDbLine
 10
1040.136872078216
 20
488.1095628329926
 30
0.0
 11
1044.868528838943
 21
488.1095628329926
 31
0.0
1001
AcDbBlockRepETag
1070
     1
1071
       81
1005
4FB
  0
LINE
  5
4FC
330
7B
100
AcDbEntity
  8
图框
370
    25
100
AcDbLine
 10
1042.502700458579
 20
490.475391213355
 30
0.0
 11
1042.502700458579
 21
485.743734452629
 31
0.0
1001
AcDbBlockRepETag
1070
     1
1071
       82
1005
4FC
  0
LINE
  5
4FD
330
7B
100
AcDbEntity
  8
图框
370
    -3
100
AcDbLine
 10
1069.142012769546
 20
507.6708838011533
 30
0.0
 11
1069.142012769546
 21
491.8986945987308
 31
0.0
1001
AcDbBlockRepETag
1070
     1
1071
       83
1005
4FD
  0
MTEXT
  5
4FE
330
7B
100
AcDbEntity
  8
图框
100
AcDbMText
 10
1086.643735910939
 20
526.8006839312707
 30
0.0
 40
2.154898249703542
 41
13.34474941400573
 71
     5
 72
     5
  1
图号{\Ftxt|c134;\P\Fromans|c134;\W0.65;Drawing No.}
 73
     1
 44
1.0
1001
AcDbBlockRepETag
1070
     1
1071
       84
1005
4FE
1001
ACAD
1000
ACAD_MTEXT_DEFINED_HEIGHT_BEGIN
1070
    46
1040
9.056967347041775
1000
ACAD_MTEXT_DEFINED_HEIGHT_END
  0
LINE
  5
4FF
330
7B
100
AcDbEntity
  8
图框
370
    -3
100
AcDbLine
 10
1093.316110617942
 20
531.3291676047914
 30
0.0
 11
1093.316110617942
 21
495.8417418993347
 31
0.0
1001
AcDbBlockRepETag
1070
     1
1071
       85
1005
4FF
  0
LINE
  5
500
330
7B
100
AcDbEntity
  8
图框
370
    -3
100
AcDbLine
 10
1047.473969770481
 20
531.3291676047914
 30
0.0
 11
1047.473969770481
 21
507.6708838011533
 31
0.0
1001
AcDbBlockRepETag
1070
     1
1071
       86
1005
500
  0
MTEXT
  5
501
330
7B
100
AcDbEntity
  8
图框
100
AcDbMText
 10
1063.72733855235
 20
503.7278365005473
 30
0.0
 40
2.252848170144607
 41
10.82934843439208
 71
     5
 72
     5
  1
重量\P{\Fromans|c134;Weight}
 73
     1
 44
1.0
1001
AcDbBlockRepETag
1070
     1
1071
       87
1005
501
1001
ACAD
1000
ACAD_MTEXT_DEFINED_HEIGHT_BEGIN
1070
    46
1040
7.886094601212128
1000
ACAD_MTEXT_DEFINED_HEIGHT_END
  0
LINE
  5
502
330
7B
100
AcDbEntity
  8
图框
370
    -3
100
AcDbLine
 10
1036.653967466372
 20
519.5000257029746
 30
0.0
 11
1079.971361203936
 21
519.5000257029746
 31
0.0
1001
AcDbBlockRepETag
1070
     1
1071
       88
1005
502
  0
MTEXT
  5
503
330
7B
100
AcDbEntity
  8
图框
100
AcDbMText
 10
1074.556686986741
 20
503.7278365005473
 30
0.0
 40
2.252848170144607
 41
10.82934843438984
 71
     5
 72
     5
  1
数量\P{\Fromans|c134;Qty.}
 73
     1
 44
1.0
1001
AcDbBlockRepETag
1070
     1
1071
       89
1005
503
1001
ACAD
1000
ACAD_MTEXT_DEFINED_HEIGHT_BEGIN
1070
    46
1040
7.886094601212141
1000
ACAD_MTEXT_DEFINED_HEIGHT_END
  0
LINE
  5
504
330
7B
100
AcDbEntity
  8
图框
370
    -3
100
AcDbLine
 10
1079.971361203936
 20
495.8417418993347
 30
0.0
 11
1126.928502610363
 21
495.8417418993342
 31
0.0
1001
AcDbBlockRepETag
1070
     1
1071
       90
1005
504
  0
LINE
  5
505
330
7B
100
AcDbEntity
  8
图框
370
    -3
100
AcDbLine
 10
1079.971361203936
 20
504.7132992040975
 30
0.0
 11
1126.928502610363
 21
504.7132992040975
 31
0.0
1001
AcDbBlockRepETag
1070
     1
1071
       91
1005
505
  0
MTEXT
  5
506
330
7B
100
AcDbEntity
  8
图框
100
AcDbMText
 10
1052.893317052817
 20
503.7278365005473
 30
0.0
 40
2.252848170144607
 41
10.83869456467139
 71
     5
 72
     5
  1
版本\P{\Fromans|c134;REV.}
 73
     1
 44
1.0
1001
AcDbBlockRepETag
1070
     1
1071
       92
1005
506
1001
ACAD
1000
ACAD_MTEXT_DEFINED_HEIGHT_BEGIN
1070
    46
1040
7.886094601212101
1000
ACAD_MTEXT_DEFINED_HEIGHT_END
  0
MTEXT
  5
507
330
7B
100
AcDbEntity
  8
图框
100
AcDbMText
 10
1042.068641683568
 20
503.7278365005473
 30
0.0
 40
2.252848170144607
 41
10.8293484343908
 71
     5
 72
     5
  1
比例\P{\Fromans|c134;Scale}
 73
     1
 44
1.0
1001
AcDbBlockRepETag
1070
     1
1071
       93
1005
507
1001
ACAD
1000
ACAD_MTEXT_DEFINED_HEIGHT_BEGIN
1070
    46
1040
7.886094601212136
1000
ACAD_MTEXT_DEFINED_HEIGHT_END
  0
LINE
  5
508
330
7B
100
AcDbEntity
  8
图框
370
    -3
100
AcDbLine
 10
1036.653967466372
 20
507.6708838011533
 30
0.0
 11
1079.971361203936
 21
507.6708838011533
 31
0.0
1001
AcDbBlockRepETag
1070
     1
1071
       94
1005
508
  0
LINE
  5
509
330
7B
100
AcDbEntity
  8
图框
370
    -3
100
AcDbLine
 10
1036.653967466372
 20
491.8986945987308
 30
0.0
 11
1079.971361203936
 21
491.8986945987308
 31
0.0
1001
AcDbBlockRepETag
1070
     1
1071
       95
1005
509
  0
LINE
  5
50A
330
7B
100
AcDbEntity
  8
图框
370
    -3
100
AcDbLine
 10
1079.971361203936
 20
531.3291676047914
 30
0.0
 11
1079.971361203936
 21
484.0125999975168
 31
0.0
1001
AcDbBlockRepETag
1070
     1
1071
       96
1005
50A
  0
MTEXT
  5
50B
330
7B
100
AcDbEntity
  8
图框
100
AcDbMText
 10
1042.063968618426
 20
525.4145966538832
 30
0.0
 40
2.252848170144607
 41
10.82000230410933
 71
     5
 72
     5
  1
表面处理\P{\Fromans|c134;Finish}
 73
     1
 44
1.0
1001
AcDbBlockRepETag
1070
     1
1071
       97
1005
50B
1001
ACAD
1000
ACAD_MTEXT_DEFINED_HEIGHT_BEGIN
1070
    46
1040
11.82914190181708
1000
ACAD_MTEXT_DEFINED_HEIGHT_END
  0
MTEXT
  5
50C
330
7B
100
AcDbEntity
  8
图框
100
AcDbMText
 10
1042.063968618426
 20
513.5854547520639
 30
0.0
 40
2.252848170144607
 41
10.82000230410933
 71
     5
 72
     5
  1
材料\P{\Fromans|c134;Material}
 73
     1
 44
1.0
1001
AcDbBlockRepETag
1070
     1
1071
       98
1005
50C
1001
ACAD
1000
ACAD_MTEXT_DEFINED_HEIGHT_BEGIN
1070
    46
1040
11.8291419018212
1000
ACAD_MTEXT_DEFINED_HEIGHT_END
  0
LINE
  5
50D
330
7B
100
AcDbEntity
  8
图框
370
    -3
100
AcDbLine
 10
1079.971361203936
 20
522.27220025775
 30
0.0
 11
1126.928502610363
 21
522.27220025775
 31
0.0
1001
AcDbBlockRepETag
1070
     1
1071
       99
1005
50D
  0
LINE
  5
50E
330
7B
100
AcDbEntity
  8
图框
370
    -3
100
AcDbLine
 10
1079.971361203936
 20
513.5854547520641
 30
0.0
 11
1126.928502610363
 21
513.5854547520639
 31
0.0
1001
AcDbBlockRepETag
1070
     1
1071
      100
1005
50E
  0
MTEXT
  5
50F
330
7B
100
AcDbEntity
  8
图框
100
AcDbMText
 10
1086.643735910939
 20
517.9288275049072
 30
0.0
 40
1.958998408821398
 41
13.34474941400573
 71
     5
 72
     5
  1
产品代号\P{\Fromans|c134;Part Code}
 73
     1
 44
1.0
1001
AcDbBlockRepETag
1070
     1
1071
      101
1005
50F
1001
ACAD
1000
ACAD_MTEXT_DEFINED_HEIGHT_BEGIN
1070
    46
1040
8.686745505685811
1000
ACAD_MTEXT_DEFINED_HEIGHT_END
  0
LINE
  5
510
330
7B
100
AcDbEntity
  8
图框
370
    -3
100
AcDbLine
 10
946.9285026103634
 20
525.7982263931411
 30
0.0
 11
1036.653967466372
 21
525.7982263931411
 31
0.0
1001
AcDbBlockRepETag
1070
     1
1071
      102
1005
510
  0
LINE
  5
511
330
7B
100
AcDbEntity
  8
图框
370
    -3
100
AcDbLine
 10
946.9285026103634
 20
520.2672851814959
 30
0.0
 11
1036.653967466372
 21
520.2672851814959
 31
0.0
1001
AcDbBlockRepETag
1070
     1
1071
      103
1005
511
  0
LINE
  5
512
330
7B
100
AcDbEntity
  8
图框
370
    35
100
AcDbLine
 10
946.9285026103634
 20
531.3291676047914
 30
0.0
 11
1126.928502610363
 21
531.3291676047914
 31
0.0
1001
AcDbBlockRepETag
1070
     1
1071
      104
1005
512
  0
LINE
  5
513
330
7B
100
AcDbEntity
  8
图框
370
    -3
100
AcDbLine
 10
990.6727612856927
 20
509.2054027581959
 30
0.0
 11
990.6727612856927
 21
484.0347692601515
 31
0.0
1001
AcDbBlockRepETag
1070
     1
1071
      105
1005
513
  0
MTEXT
  5
514
102
{ACAD_XDICTIONARY
360
64D
102
}
330
7B
100
AcDbEntity
  8
图框
100
AcDbMText
 10
997.1628169651232
 20
499.816589978722
 30
0.0
 40
2.252848170144607
 41
12.98011135886052
 71
     5
 72
     5
  1
{\fSimSun|b0|i0|c134|p2;标准化}\PStand.
  7
Romans字体
 73
     1
 44
1.0
1001
AcDbBlockRepETag
1070
     1
1071
      106
1005
514
1001
ACAD
1000
ACAD_MTEXT_DEFINED_HEIGHT_BEGIN
1070
    46
1040
6.19230880992475
1000
ACAD_MTEXT_DEFINED_HEIGHT_END
  0
LINE
  5
515
330
7B
100
AcDbEntity
  8
图框
370
    -3
100
AcDbLine
 10
975.4103773808022
 20
509.2054027581959
 30
0.0
 11
975.4103773808022
 21
484.0347692601515
 31
0.0
1001
AcDbBlockRepETag
1070
     1
1071
      107
1005
515
  0
MTEXT
  5
516
330
7B
100
AcDbEntity
  8
图框
100
AcDbMText
 10
984.5089229802068
 20
511.9708733640202
 30
0.0
 40
2.448748011026752
 41
38.287899328693
 71
     5
 72
     5
  1
  变更描述{\Fromans|c134;/Description}
 73
     1
 44
1.0
1001
AcDbBlockRepETag
1070
     1
1071
      108
1005
516
1001
ACAD
1000
ACAD_MTEXT_DEFINED_HEIGHT_BEGIN
1070
    46
1040
5.530941211648832
1000
ACAD_MTEXT_DEFINED_HEIGHT_END
  0
MTEXT
  5
517
102
{ACAD_XDICTIONARY
360
64F
102
}
330
7B
100
AcDbEntity
  8
图框
100
AcDbMText
 10
1012.466086049227
 20
511.9708733640202
 30
0.0
 40
1.958998408821398
 41
17.6264268093469
 71
     5
 72
     5
  1
{\fSimSun|b0|i0|c134|p2;签名\P\Fromans|c134;Signature} 
 73
     1
 44
1.0
1001
AcDbBlockRepETag
1070
     1
1071
      109
1005
517
1001
ACAD
1000
ACAD_MTEXT_DEFINED_HEIGHT_BEGIN
1070
    46
1040
5.530941211648825
1000
ACAD_MTEXT_DEFINED_HEIGHT_END
  0
MTEXT
  5
518
102
{ACAD_XDICTIONARY
360
651
102
}
330
7B
100
AcDbEntity
  8
图框
100
AcDbMText
 10
960.7558556394856
 20
511.9708733640202
 30
0.0
 40
1.958998408821398
 41
9.218235352749283
 71
     5
 72
     5
  1
{\fSimSun|b0|i0|c134|p2;处数\P\Fromans|c134;Number }
 73
     1
 44
1.0
1001
AcDbBlockRepETag
1070
     1
1071
      110
1005
518
1001
ACAD
1000
ACAD_MTEXT_DEFINED_HEIGHT_BEGIN
1070
    46
1040
5.530941211648841
1000
ACAD_MTEXT_DEFINED_HEIGHT_END
  0
LINE
  5
519
330
7B
100
AcDbEntity
  8
图框
370
    -3
100
AcDbLine
 10
946.9285026103634
 20
514.7363439698449
 30
0.0
 11
1036.653967466372
 21
514.7363439698449
 31
0.0
1001
AcDbBlockRepETag
1070
     1
1071
      111
1005
519
  0
LINE
  5
51A
330
7B
100
AcDbEntity
  8
图框
370
    -3
100
AcDbLine
 10
946.9285026103634
 20
509.2054027581959
 30
0.0
 11
1036.653967466372
 21
509.2054027581959
 31
0.0
1001
AcDbBlockRepETag
1070
     1
1071
      112
1005
51A
  0
LINE
  5
51B
330
7B
100
AcDbEntity
  8
图框
370
    -3
100
AcDbLine
 10
946.9285026103634
 20
502.9127443836848
 30
0.0
 11
1036.653967466372
 21
502.9127443836848
 31
0.0
1001
AcDbBlockRepETag
1070
     1
1071
      113
1005
51B
  0
LINE
  5
51C
330
7B
100
AcDbEntity
  8
图框
370
    -3
100
AcDbLine
 10
946.9285026103634
 20
496.620086009173
 30
0.0
 11
1036.653967466372
 21
496.620086009173
 31
0.0
1001
AcDbBlockRepETag
1070
     1
1071
      114
1005
51C
  0
LINE
  5
51D
330
7B
100
AcDbEntity
  8
图框
370
    35
380
     1
100
AcDbLine
 10
946.9285026103634
 20
531.3291676047914
 30
0.0
 11
946.9285026103634
 21
484.0347692601515
 31
0.0
1001
AcDbBlockRepETag
1070
     1
1071
      115
1005
51D
  0
LINE
  5
51E
330
7B
100
AcDbEntity
  8
图框
370
    -3
100
AcDbLine
 10
1021.301636813399
 20
531.3291676047914
 30
0.0
 11
1021.301636813399
 21
484.0347692601515
 31
0.0
1001
AcDbBlockRepETag
1070
     1
1071
      116
1005
51E
  0
LINE
  5
51F
330
7B
100
AcDbEntity
  8
图框
370
    -3
100
AcDbLine
 10
1003.652872644553
 20
531.3291676047914
 30
0.0
 11
1003.652872644553
 21
484.0347692601515
 31
0.0
1001
AcDbBlockRepETag
1070
     1
1071
      117
1005
51F
  0
LINE
  5
520
330
7B
100
AcDbEntity
  8
图框
370
    -3
100
AcDbLine
 10
965.3649733158603
 20
531.3291676047914
 30
0.0
 11
965.3649733158603
 21
509.2054027581959
 31
0.0
1001
AcDbBlockRepETag
1070
     1
1071
      118
1005
520
  0
LINE
  5
521
330
7B
100
AcDbEntity
  8
图框
370
    -3
100
AcDbLine
 10
956.1467379631109
 20
531.3291676047914
 30
0.0
 11
956.1467379631109
 21
509.2054027581959
 31
0.0
1001
AcDbBlockRepETag
1070
     1
1071
      119
1005
521
  0
MTEXT
  5
522
102
{ACAD_XDICTIONARY
360
653
102
}
330
7B
100
AcDbEntity
  8
图框
100
AcDbMText
 10
951.537620286737
 20
511.9708733640202
 30
0.0
 40
1.958998408821398
 41
9.218235352747692
 71
     5
 72
     5
  1
{\fSimSun|b0|i0|c134|p2;标记\P\Fromans|c134;Mark}
 73
     1
 44
1.0
1001
AcDbBlockRepETag
1070
     1
1071
      120
1005
522
1001
ACAD
1000
ACAD_MTEXT_DEFINED_HEIGHT_BEGIN
1070
    46
1040
5.530941211648832
1000
ACAD_MTEXT_DEFINED_HEIGHT_END
  0
MTEXT
  5
523
102
{ACAD_XDICTIONARY
360
655
102
}
330
7B
100
AcDbEntity
  8
图框
100
AcDbMText
 10
953.4185582897936
 20
493.4737568219182
 30
0.0
 40
2.252848170144607
 41
12.98011135886041
 71
     5
 72
     5
  1
{\fSimSun|b0|i0|c134|p2;审核\P\Fromans|c134;Checked}
 73
     1
 44
1.0
1001
AcDbBlockRepETag
1070
     1
1071
      121
1005
523
1001
ACAD
1000
ACAD_MTEXT_DEFINED_HEIGHT_BEGIN
1070
    46
1040
6.292658374510382
1000
ACAD_MTEXT_DEFINED_HEIGHT_END
  0
MTEXT
  5
524
102
{ACAD_XDICTIONARY
360
657
102
}
330
7B
100
AcDbEntity
  8
图框
100
AcDbMText
 10
953.4185582897936
 20
499.8775635376777
 30
0.0
 40
2.252848170144607
 41
12.98011135886041
 71
     5
 72
     5
  1
{\fSimSun|b0|i0|c134|p2;绘图\P\Fromans|c134;Drawn\Ftxt|c134; }
 73
     1
 44
1.0
1001
AcDbBlockRepETag
1070
     1
1071
      122
1005
524
1001
ACAD
1000
ACAD_MTEXT_DEFINED_HEIGHT_BEGIN
1070
    46
1040
6.070361692014189
1000
ACAD_MTEXT_DEFINED_HEIGHT_END
  0
ARC
  5
525
330
7B
100
AcDbEntity
  8
图框
 62
     4
370
    35
100
AcDbCircle
 10
1086.900627017421
 20
490.0179944151195
 30
0.0
 40
4.063310408393665
100
AcDbArc
 50
18.95237904564806
 51
161.0476209543519
1001
AcDbBlockRepETag
1070
     1
1071
      123
1005
525
  0
ARC
  5
526
330
7B
100
AcDbEntity
  8
图框
 62
     4
370
    35
100
AcDbCircle
 10
1086.900627017421
 20
490.0179944151195
 30
0.0
 40
4.063310408393665
100
AcDbArc
 50
198.952379045648
 51
341.0476209543519
1001
AcDbBlockRepETag
1070
     1
1071
      124
1005
526
  0
LINE
  5
527
330
7B
100
AcDbEntity
  8
图框
 62
     4
370
    35
100
AcDbLine
 10
1083.057593369548
 20
488.6983035966752
 30
0.0
 11
1090.74366066529
 21
488.6983035966752
 31
0.0
1001
AcDbBlockRepETag
1070
     1
1071
      125
1005
527
  0
LINE
  5
528
330
7B
100
AcDbEntity
  8
图框
 62
     4
370
    35
100
AcDbLine
 10
1083.057593369548
 20
491.3376852335652
 30
0.0
 11
1090.74366066529
 21
491.3376852335652
 31
0.0
1001
AcDbBlockRepETag
1070
     1
1071
      126
1005
528
  0
MTEXT
  5
529
330
7B
100
AcDbEntity
  8
图框
 62
     1
370
    20
100
AcDbMText
 10
1083.034582879669
 20
491.0506288081688
 30
0.0
 40
2.005930044038334
 41
5.047240019334847
 71
     1
 72
     5
  1
{\fArial|b0|i0|c0|p34;W}
  7
Chinese
 73
     1
 44
1.0
1001
AcDbBlockRepETag
1070
     1
1071
      127
1005
529
  0
LINE
  5
52A
330
7B
100
AcDbEntity
  8
图框
370
    -3
100
AcDbLine
 10
946.9285026103634
 20
490.327427634663
 30
0.0
 11
1036.653967466372
 21
490.327427634663
 31
0.0
1001
AcDbBlockRepETag
1070
     1
1071
      128
1005
52A
  0
LINE
  5
52B
330
7B
100
AcDbEntity
  8
图框
370
    -3
100
AcDbLine
 10
959.9086139692238
 20
509.2054027581959
 30
0.0
 11
959.9086139692238
 21
484.0347692601515
 31
0.0
1001
AcDbBlockRepETag
1070
     1
1071
      129
1005
52B
  0
MTEXT
  5
52C
330
7B
100
AcDbEntity
  8
图框
100
AcDbMText
 10
967.6594956750129
 20
506.0590735709403
 30
0.0
 40
2.252848170144607
 41
15.50176341157869
 71
     5
 72
     5
  1
姓名{\Fromans|c134;/Name\Ftxt|c134; }
 73
     1
 44
1.0
1001
AcDbBlockRepETag
1070
     1
1071
      130
1005
52C
1001
ACAD
1000
ACAD_MTEXT_DEFINED_HEIGHT_BEGIN
1070
    46
1040
6.292658374511246
1000
ACAD_MTEXT_DEFINED_HEIGHT_END
  0
MTEXT
  5
52D
330
7B
100
AcDbEntity
  8
图框
100
AcDbMText
 10
983.0415693332477
 20
506.0590735709403
 30
0.0
 40
2.252848170144607
 41
15.26238390489042
 71
     5
 72
     5
  1
日期{\Fromans|c134;/Date}
 73
     1
 44
1.0
1001
AcDbBlockRepETag
1070
     1
1071
      131
1005
52D
1001
ACAD
1000
ACAD_MTEXT_DEFINED_HEIGHT_BEGIN
1070
    46
1040
6.2926583745112
1000
ACAD_MTEXT_DEFINED_HEIGHT_END
  0
LINE
  5
52E
330
7B
100
AcDbEntity
  8
图框
370
    -3
100
AcDbLine
 10
946.9285026103634
 20
509.2054027581959
 30
0.0
 11
959.9086139692238
 21
502.9127443836848
 31
0.0
1001
AcDbBlockRepETag
1070
     1
1071
      132
1005
52E
  0
MTEXT
  5
52F
330
7B
100
AcDbEntity
  8
图框
100
AcDbMText
 10
1012.931405110086
 20
506.0185715840725
 30
0.0
 40
2.252848170144607
 41
16.93492221063566
 71
     5
 72
     5
  1
姓名{\Fromans|c134;/Name}
 73
     1
 44
1.0
1001
AcDbBlockRepETag
1070
     1
1071
      133
1005
52F
  0
MTEXT
  5
530
330
7B
100
AcDbEntity
  8
图框
100
AcDbMText
 10
1028.977802139886
 20
506.0590735709403
 30
0.0
 40
2.252848170144607
 41
15.35233065297283
 71
     5
 72
     5
  1
日期{\Fromans|c134;/Date}
 73
     1
 44
1.0
1001
AcDbBlockRepETag
1070
     1
1071
      134
1005
530
1001
ACAD
1000
ACAD_MTEXT_DEFINED_HEIGHT_BEGIN
1070
    46
1040
6.292658374511256
1000
ACAD_MTEXT_DEFINED_HEIGHT_END
  0
LINE
  5
531
330
7B
100
AcDbEntity
  8
图框
370
    -3
100
AcDbLine
 10
1003.652872644553
 20
502.9127443836848
 30
0.0
 11
990.6727612856927
 21
509.2054027581959
 31
0.0
1001
AcDbBlockRepETag
1070
     1
1071
      135
1005
531
  0
MTEXT
  5
532
102
{ACAD_XDICTIONARY
360
659
102
}
330
7B
100
AcDbEntity
  8
图框
100
AcDbMText
 10
997.1628169651232
 20
487.1810984474071
 30
0.0
 40
2.252848170144607
 41
12.98011135886052
 71
     5
 72
     5
  1
{\fSimSun|b0|i0|c134|p2;批准\P\Fromans|c134;Approved}
 73
     1
 44
1.0
1001
AcDbBlockRepETag
1070
     1
1071
      136
1005
532
1001
ACAD
1000
ACAD_MTEXT_DEFINED_HEIGHT_BEGIN
1070
    46
1040
6.292658374511517
1000
ACAD_MTEXT_DEFINED_HEIGHT_END
  0
MTEXT
  5
533
102
{ACAD_XDICTIONARY
360
65B
102
}
330
7B
100
AcDbEntity
  8
图框
100
AcDbMText
 10
953.4185582897936
 20
487.1810984474071
 30
0.0
 40
2.252848170144607
 41
12.98011135886041
 71
     5
 72
     5
  1
{\fSimSun|b0|i0|c134|p2;工艺\P\Fromans|c134;Process}
 73
     1
 44
1.0
1001
AcDbBlockRepETag
1070
     1
1071
      137
1005
533
1001
ACAD
1000
ACAD_MTEXT_DEFINED_HEIGHT_BEGIN
1070
    46
1040
6.292658374511495
1000
ACAD_MTEXT_DEFINED_HEIGHT_END
  0
MTEXT
  5
534
102
{ACAD_XDICTIONARY
360
65D
102
}
330
7B
100
AcDbEntity
  8
图框
100
AcDbMText
 10
1028.977802139886
 20
511.8287965307664
 30
0.0
 40
1.958998408821398
 41
15.3523306529728
 71
     5
 72
     5
  1
{\fSimSun|b0|i0|c134|p2;日期\P\Fromans|c134;Date}
 73
     1
 44
1.0
1001
AcDbBlockRepETag
1070
     1
1071
      138
1005
534
1001
ACAD
1000
ACAD_MTEXT_DEFINED_HEIGHT_BEGIN
1070
    46
1040
5.246787545140668
1000
ACAD_MTEXT_DEFINED_HEIGHT_END
  0
MTEXT
  5
535
330
7B
100
AcDbEntity
  8
图框
100
AcDbMText
 10
1086.643735910939
 20
509.1493769780809
 30
0.0
 40
2.154898249703542
 41
13.34474941400573
 71
     5
 72
     5
  1
产品料号\P{\Fromans|c134;Part No.}
 73
     1
 44
1.0
1001
AcDbBlockRepETag
1070
     1
1071
      139
1005
535
1001
ACAD
1000
ACAD_MTEXT_DEFINED_HEIGHT_BEGIN
1070
    46
1040
8.87215554796615
1000
ACAD_MTEXT_DEFINED_HEIGHT_END
  0
MTEXT
  5
536
330
7B
100
AcDbEntity
  8
图框
100
AcDbMText
 10
1086.643735910939
 20
500.2775205517163
 30
0.0
 40
1.958998408821398
 41
13.34474941400573
 71
     5
 72
     5
  1
产品名称\P{\Fromans|c134;Part Name}
 73
     1
 44
1.0
1001
AcDbBlockRepETag
1070
     1
1071
      140
1005
536
1001
ACAD
1000
ACAD_MTEXT_DEFINED_HEIGHT_BEGIN
1070
    46
1040
8.871557304763321
1000
ACAD_MTEXT_DEFINED_HEIGHT_END
  0
LINE
  5
537
330
7B
100
AcDbEntity
  8
图框
 62
     1
370
    18
100
AcDbLine
 10
833.4128518455365
 20
690.5347692601515
 30
0.0
 11
833.4128518455365
 21
480.5347692601515
 31
0.0
1001
AcDbBlockRepETag
1070
     1
1071
      141
1005
537
  0
LINE
  5
538
330
7B
100
AcDbEntity
  8
图框
 62
     1
370
    18
100
AcDbLine
 10
833.4128518455365
 20
480.5347692601515
 30
0.0
 11
1130.411601781236
 21
480.5347692601515
 31
0.0
1001
AcDbBlockRepETag
1070
     1
1071
      142
1005
538
  0
LINE
  5
539
330
7B
100
AcDbEntity
  8
图框
 62
     1
370
    18
100
AcDbLine
 10
833.4128518455365
 20
690.5347692601515
 30
0.0
 11
1130.411601781236
 21
690.5347692601515
 31
0.0
1001
AcDbBlockRepETag
1070
     1
1071
      143
1005
539
  0
LINE
  5
53A
330
7B
100
AcDbEntity
  8
图框
 62
     1
370
    18
100
AcDbLine
 10
1130.411601781236
 20
480.5347692601515
 30
0.0
 11
1130.411601781236
 21
690.5347692601515
 31
0.0
1001
AcDbBlockRepETag
1070
     1
1071
      144
1005
53A
  0
LINE
  5
53B
330
7B
100
AcDbEntity
  8
图框
370
    18
100
AcDbLine
 10
836.9128518455394
 20
686.7901958362482
 30
0.0
 11
861.5351874539182
 21
686.7901958362482
 31
0.0
1001
AcDbBlockRepETag
1070
     1
1071
      145
1005
53B
  0
LINE
  5
53C
330
7B
100
AcDbEntity
  8
图框
370
    50
100
AcDbLine
 10
1126.928502610363
 20
484.3410054693078
 30
0.0
 11
1126.928502610363
 21
675.5347692601515
 31
0.0
1001
AcDbBlockRepETag
1070
     1
1071
      146
1005
53C
  0
MTEXT
  5
53D
330
7B
100
AcDbEntity
  8
图框
 62
     3
100
AcDbMText
 10
1052.897990117958
 20
495.8417418993364
 30
0.0
 40
2.985513575034151
 41
10.82934843439114
 71
     5
 72
     5
  1
V1.1
  7
Romans字体
 73
     1
 44
1.0
1001
AcDbBlockRepETag
1070
     1
1071
      147
1005
53D
1001
ACAD
1000
ACAD_MTEXT_DEFINED_HEIGHT_BEGIN
1070
    46
1040
7.886094601211307
1000
ACAD_MTEXT_DEFINED_HEIGHT_END
  0
MTEXT
  5
53E
330
7B
100
AcDbEntity
  8
图框
 62
     3
100
AcDbMText
 10
1063.727338552349
 20
495.8417418993361
 30
0.0
 40
2.985513575034151
 41
10.82934843438978
 71
     5
 72
     5
  1
421g
  7
Romans字体
 73
     1
 44
1.0
1001
AcDbBlockRepETag
1070
     1
1071
      148
1005
53E
1001
ACAD
1000
ACAD_MTEXT_DEFINED_HEIGHT_BEGIN
1070
    46
1040
7.886094601210427
1000
ACAD_MTEXT_DEFINED_HEIGHT_END
  0
ENDBLK
  5
116
330
7B
100
AcDbEntity
  8
0
100
AcDbBlockEnd
  0
BLOCK
  5
25E
330
25D
100
AcDbEntity
  8
0
100
AcDbBlockBegin
  2
*D1
 70
     1
 10
0.0
 20
0.0
 30
0.0
  3
*D1
  1

  0
LINE
  5
25F
330
25D
100
AcDbEntity
  8
Dim
 62
     6
370
    -2
100
AcDbLine
 10
4053.471949631248
 20
-1427.911778636788
 30
0.0
 11
4053.471949631248
 21
-1422.96392820118
 31
0.0
  0
LINE
  5
260
330
25D
100
AcDbEntity
  8
Dim
 62
     6
370
    -2
100
AcDbLine
 10
4105.871949631247
 20
-1427.911778636788
 30
0.0
 11
4105.871949631247
 21
-1422.96392820118
 31
0.0
  0
LINE
  5
261
330
25D
100
AcDbEntity
  8
Dim
 62
     1
370
    -2
100
AcDbLine
 10
4056.971949631248
 20
-1424.16392820118
 30
0.0
 11
4102.371949631248
 21
-1424.16392820118
 31
0.0
  0
SOLID
  5
262
330
25D
100
AcDbEntity
  8
Dim
 62
     1
100
AcDbTrace
 10
4056.971949631248
 20
-1423.580594867847
 30
0.0
 11
4056.971949631248
 21
-1424.747261534513
 31
0.0
 12
4053.471949631248
 22
-1424.16392820118
 32
0.0
 13
4053.471949631248
 23
-1424.16392820118
 33
0.0
  0
SOLID
  5
263
330
25D
100
AcDbEntity
  8
Dim
 62
     1
100
AcDbTrace
 10
4102.371949631248
 20
-1423.580594867847
 30
0.0
 11
4102.371949631248
 21
-1424.747261534513
 31
0.0
 12
4105.871949631247
 22
-1424.16392820118
 32
0.0
 13
4105.871949631247
 23
-1424.16392820118
 33
0.0
  0
MTEXT
  5
264
330
25D
100
AcDbEntity
  8
Dim
 62
     4
100
AcDbMText
 10
4079.671949631248
 20
-1421.66392820118
 30
0.0
 40
4.0
 41
0.0
 71
     5
 72
     1
  1
\A1;PG42
  7
Romans字体
 73
     1
 44
1.0
  0
POINT
  5
265
330
25D
100
AcDbEntity
  8
Defpoints
 62
     0
100
AcDbPoint
 10
4053.471949631248
 20
-1428.111778636788
 30
0.0
  0
POINT
  5
266
330
25D
100
AcDbEntity
  8
Defpoints
 62
     0
100
AcDbPoint
 10
4105.871949631247
 20
-1428.111778636788
 30
0.0
  0
POINT
  5
267
330
25D
100
AcDbEntity
  8
Defpoints
 62
     0
100
AcDbPoint
 10
4105.871949631247
 20
-1424.16392820118
 30
0.0
  0
ENDBLK
  5
268
330
25D
100
AcDbEntity
  8
0
100
AcDbBlockEnd
  0
BLOCK
  5
232
330
231
100
AcDbEntity
  8
0
100
AcDbBlockBegin
  2
*D2
 70
     1
 10
0.0
 20
0.0
 30
0.0
  3
*D2
  1

  0
LINE
  5
233
330
231
100
AcDbEntity
  8
Dim
 62
     6
370
    -2
100
AcDbLine
 10
4044.948964183851
 20
-1428.111778637019
 30
0.0
 11
4014.753994053704
 21
-1428.111778637019
 31
0.0
  0
LINE
  5
234
330
231
100
AcDbEntity
  8
Dim
 62
     6
370
    -2
100
AcDbLine
 10
4033.271980093348
 20
-1522.111778637428
 30
0.0
 11
4014.753994053704
 21
-1522.111778637428
 31
0.0
  0
LINE
  5
235
330
231
100
AcDbEntity
  8
Dim
 62
     1
370
    -2
100
AcDbLine
 10
4015.953994053705
 20
-1431.611778637019
 30
0.0
 11
4015.953994053705
 21
-1518.611778637428
 31
0.0
  0
SOLID
  5
236
330
231
100
AcDbEntity
  8
Dim
 62
     1
100
AcDbTrace
 10
4015.370660720371
 20
-1431.611778637019
 30
0.0
 11
4016.537327387037
 21
-1431.611778637019
 31
0.0
 12
4015.953994053705
 22
-1428.111778637019
 32
0.0
 13
4015.953994053705
 23
-1428.111778637019
 33
0.0
  0
SOLID
  5
237
330
231
100
AcDbEntity
  8
Dim
 62
     1
100
AcDbTrace
 10
4015.370660720371
 20
-1518.611778637428
 30
0.0
 11
4016.537327387037
 21
-1518.611778637428
 31
0.0
 12
4015.953994053705
 22
-1522.111778637428
 32
0.0
 13
4015.953994053705
 23
-1522.111778637428
 33
0.0
  0
MTEXT
  5
238
330
231
100
AcDbEntity
  8
Dim
 62
     4
100
AcDbMText
 10
4013.453994053706
 20
-1475.111778637223
 30
0.0
 40
4.0
 41
0.0
 71
     5
 72
     1
  1
\A1;94
  7
Romans字体
 11
0.0000000000000001
 21
1.0
 31
0.0
 73
     1
 44
1.0
  0
POINT
  5
239
330
231
100
AcDbEntity
  8
Defpoints
 62
     0
100
AcDbPoint
 10
4045.148964183851
 20
-1428.111778637019
 30
0.0
  0
POINT
  5
23B
330
231
100
AcDbEntity
  8
Defpoints
 62
     0
100
AcDbPoint
 10
4033.471980093348
 20
-1522.111778637428
 30
0.0
  0
POINT
  5
23C
330
231
100
AcDbEntity
  8
Defpoints
 62
     0
100
AcDbPoint
 10
4015.953994053705
 20
-1522.111778637428
 30
0.0
  0
ENDBLK
  5
23D
330
231
100
AcDbEntity
  8
0
100
AcDbBlockEnd
  0
BLOCK
  5
242
330
241
100
AcDbEntity
  8
0
100
AcDbBlockBegin
  2
*D3
 70
     1
 10
0.0
 20
0.0
 30
0.0
  3
*D3
  1

  0
LINE
  5
243
330
241
100
AcDbEntity
  8
Dim
 62
     6
370
    -2
100
AcDbLine
 10
4032.671949630928
 20
-1521.711772288548
 30
0.0
 11
4032.671949630928
 21
-1530.732469980276
 31
0.0
  0
LINE
  5
244
330
241
100
AcDbEntity
  8
Dim
 62
     6
370
    -2
100
AcDbLine
 10
4126.671909923471
 20
-1521.711759589151
 30
0.0
 11
4126.671909923471
 21
-1530.732469980276
 31
0.0
  0
LINE
  5
245
330
241
100
AcDbEntity
  8
Dim
 62
     1
370
    -2
100
AcDbLine
 10
4036.171949630928
 20
-1529.532469980276
 30
0.0
 11
4123.171909923471
 21
-1529.532469980276
 31
0.0
  0
SOLID
  5
246
330
241
100
AcDbEntity
  8
Dim
 62
     1
100
AcDbTrace
 10
4036.171949630928
 20
-1528.949136646942
 30
0.0
 11
4036.171949630928
 21
-1530.115803313609
 31
0.0
 12
4032.671949630928
 22
-1529.532469980276
 32
0.0
 13
4032.671949630928
 23
-1529.532469980276
 33
0.0
  0
SOLID
  5
247
330
241
100
AcDbEntity
  8
Dim
 62
     1
100
AcDbTrace
 10
4123.171909923471
 20
-1528.949136646942
 30
0.0
 11
4123.171909923471
 21
-1530.115803313609
 31
0.0
 12
4126.671909923471
 22
-1529.532469980276
 32
0.0
 13
4126.671909923471
 23
-1529.532469980276
 33
0.0
  0
MTEXT
  5
248
330
241
100
AcDbEntity
  8
Dim
 62
     4
100
AcDbMText
 10
4079.6719297772
 20
-1527.032469980276
 30
0.0
 40
4.0
 41
0.0
 71
     5
 72
     1
  1
\A1;94
  7
Romans字体
 73
     1
 44
1.0
  0
POINT
  5
249
330
241
100
AcDbEntity
  8
Defpoints
 62
     0
100
AcDbPoint
 10
4032.671949630928
 20
-1521.511772288548
 30
0.0
  0
POINT
  5
24A
330
241
100
AcDbEntity
  8
Defpoints
 62
     0
100
AcDbPoint
 10
4126.671909923471
 20
-1521.511759589151
 30
0.0
  0
POINT
  5
24B
330
241
100
AcDbEntity
  8
Defpoints
 62
     0
100
AcDbPoint
 10
4126.671909923471
 20
-1529.532469980276
 30
0.0
  0
ENDBLK
  5
24C
330
241
100
AcDbEntity
  8
0
100
AcDbBlockEnd
  0
BLOCK
  5
251
330
250
100
AcDbEntity
  8
0
100
AcDbBlockBegin
  2
*D4
 70
     1
 10
0.0
 20
0.0
 30
0.0
  3
*D4
  1

  0
LINE
  5
252
330
250
100
AcDbEntity
  8
Dim
 62
     6
370
    -2
100
AcDbLine
 10
4160.529719096486
 20
-1521.356139735908
 30
0.0
 11
4160.529719096486
 21
-1532.521819462381
 31
0.0
  0
LINE
  5
253
330
250
100
AcDbEntity
  8
Dim
 62
     6
370
    -2
100
AcDbLine
 10
4243.029719167188
 20
-1521.356141594408
 30
0.0
 11
4243.029719167188
 21
-1532.521819462381
 31
0.0
  0
LINE
  5
254
330
250
100
AcDbEntity
  8
Dim
 62
     1
370
    -2
100
AcDbLine
 10
4164.029719096486
 20
-1531.321819462381
 30
0.0
 11
4239.529719167188
 21
-1531.321819462381
 31
0.0
  0
SOLID
  5
255
330
250
100
AcDbEntity
  8
Dim
 62
     1
100
AcDbTrace
 10
4164.029719096486
 20
-1530.738486129048
 30
0.0
 11
4164.029719096486
 21
-1531.905152795714
 31
0.0
 12
4160.529719096486
 22
-1531.321819462381
 32
0.0
 13
4160.529719096486
 23
-1531.321819462381
 33
0.0
  0
SOLID
  5
256
330
250
100
AcDbEntity
  8
Dim
 62
     1
100
AcDbTrace
 10
4239.529719167188
 20
-1530.738486129048
 30
0.0
 11
4239.529719167188
 21
-1531.905152795714
 31
0.0
 12
4243.029719167188
 22
-1531.321819462381
 32
0.0
 13
4243.029719167188
 23
-1531.321819462381
 33
0.0
  0
MTEXT
  5
257
330
250
100
AcDbEntity
  8
Dim
 62
     4
100
AcDbMText
 10
4201.779719131837
 20
-1528.821819462381
 30
0.0
 40
4.0
 41
0.0
 71
     5
 72
     1
  1
\A1;82.5
  7
Romans字体
 73
     1
 44
1.0
  0
POINT
  5
258
330
250
100
AcDbEntity
  8
Defpoints
 62
     0
100
AcDbPoint
 10
4160.529719096486
 20
-1521.156139735908
 30
0.0
  0
POINT
  5
259
330
250
100
AcDbEntity
  8
Defpoints
 62
     0
100
AcDbPoint
 10
4243.029719167188
 20
-1521.156141594408
 30
0.0
  0
POINT
  5
25A
330
250
100
AcDbEntity
  8
Defpoints
 62
     0
100
AcDbPoint
 10
4243.029719167188
 20
-1531.321819462381
 30
0.0
  0
ENDBLK
  5
25B
330
250
100
AcDbEntity
  8
0
100
AcDbBlockEnd
  0
BLOCK
  5
276
330
275
100
AcDbEntity
  8
0
100
AcDbBlockBegin
  2
*D5
 70
     1
 10
0.0
 20
0.0
 30
0.0
  3
*D5
  1

  0
LINE
  5
277
330
275
100
AcDbEntity
  8
Dim
 62
     6
370
    -2
100
AcDbLine
 10
4152.529719167607
 20
-1520.511778637428
 30
0.0
 11
4152.529719167607
 21
-1540.661682586414
 31
0.0
  0
LINE
  5
278
330
275
100
AcDbEntity
  8
Dim
 62
     6
370
    -2
100
AcDbLine
 10
4251.029719166008
 20
-1520.511778637428
 30
0.0
 11
4251.029719166008
 21
-1540.661682586414
 31
0.0
  0
LINE
  5
279
330
275
100
AcDbEntity
  8
Dim
 62
     1
370
    -2
100
AcDbLine
 10
4156.029719167607
 20
-1539.461682586414
 30
0.0
 11
4247.529719166008
 21
-1539.461682586414
 31
0.0
  0
SOLID
  5
27A
330
275
100
AcDbEntity
  8
Dim
 62
     1
100
AcDbTrace
 10
4156.029719167607
 20
-1538.87834925308
 30
0.0
 11
4156.029719167607
 21
-1540.045015919747
 31
0.0
 12
4152.529719167607
 22
-1539.461682586414
 32
0.0
 13
4152.529719167607
 23
-1539.461682586414
 33
0.0
  0
SOLID
  5
27B
330
275
100
AcDbEntity
  8
Dim
 62
     1
100
AcDbTrace
 10
4247.529719166008
 20
-1538.87834925308
 30
0.0
 11
4247.529719166008
 21
-1540.045015919747
 31
0.0
 12
4251.029719166008
 22
-1539.461682586414
 32
0.0
 13
4251.029719166008
 23
-1539.461682586414
 33
0.0
  0
MTEXT
  5
27C
330
275
100
AcDbEntity
  8
Dim
 62
     4
100
AcDbMText
 10
4201.779719166808
 20
-1536.961682586414
 30
0.0
 40
4.0
 41
0.0
 71
     5
 72
     1
  1
\A1;98.5
  7
Romans字体
 73
     1
 44
1.0
  0
POINT
  5
27D
330
275
100
AcDbEntity
  8
Defpoints
 62
     0
100
AcDbPoint
 10
4152.529719167607
 20
-1520.311778637428
 30
0.0
  0
POINT
  5
27E
330
275
100
AcDbEntity
  8
Defpoints
 62
     0
100
AcDbPoint
 10
4251.029719166008
 20
-1520.311778637428
 30
0.0
  0
POINT
  5
27F
330
275
100
AcDbEntity
  8
Defpoints
 62
     0
100
AcDbPoint
 10
4251.029719166008
 20
-1539.461682586414
 30
0.0
  0
ENDBLK
  5
280
330
275
100
AcDbEntity
  8
0
100
AcDbBlockEnd
  0
BLOCK
  5
546
330
545
100
AcDbEntity
  8
0
100
AcDbBlockBegin
  2
*D7
 70
     1
 10
0.0
 20
0.0
 30
0.0
  3
*D7
  1

  0
LINE
  5
593
330
545
100
AcDbEntity
  8
Dim
 62
     6
370
    -2
100
AcDbLine
 10
4039.624630819839
 20
-1454.708827202649
 30
0.0
 11
4003.690542173725
 21
-1454.708827202649
 31
0.0
  0
LINE
  5
594
330
545
100
AcDbEntity
  8
Dim
 62
     6
370
    -2
100
AcDbLine
 10
4027.947646729336
 20
-1548.708827203058
 30
0.0
 11
4003.690542173725
 21
-1548.708827203058
 31
0.0
  0
LINE
  5
595
330
545
100
AcDbEntity
  8
Dim
 62
     1
370
    -2
100
AcDbLine
 10
4004.890542173725
 20
-1458.208827202649
 30
0.0
 11
4004.890542173725
 21
-1545.208827203058
 31
0.0
  0
SOLID
  5
596
330
545
100
AcDbEntity
  8
Dim
 62
     1
100
AcDbTrace
 10
4004.307208840391
 20
-1458.208827202649
 30
0.0
 11
4005.473875507059
 21
-1458.208827202649
 31
0.0
 12
4004.890542173725
 22
-1454.708827202649
 32
0.0
 13
4004.890542173725
 23
-1454.708827202649
 33
0.0
  0
SOLID
  5
597
330
545
100
AcDbEntity
  8
Dim
 62
     1
100
AcDbTrace
 10
4004.307208840391
 20
-1545.208827203058
 30
0.0
 11
4005.473875507059
 21
-1545.208827203058
 31
0.0
 12
4004.890542173725
 22
-1548.708827203058
 32
0.0
 13
4004.890542173725
 23
-1548.708827203058
 33
0.0
  0
MTEXT
  5
598
330
545
100
AcDbEntity
  8
Dim
 62
     4
100
AcDbMText
 10
4002.390542173725
 20
-1500.989917499274
 30
0.0
 40
4.0
 41
0.0
 71
     5
 72
     1
  1
\A1;94
  7
Romans字体
 11
0.0000000000000001
 21
1.0
 31
0.0
 73
     1
 44
1.0
  0
POINT
  5
599
330
545
100
AcDbEntity
  8
Defpoints
 62
     0
100
AcDbPoint
 10
4039.82463081984
 20
-1454.708827202649
 30
0.0
  0
POINT
  5
59A
330
545
100
AcDbEntity
  8
Defpoints
 62
     0
100
AcDbPoint
 10
4028.147646729336
 20
-1548.708827203058
 30
0.0
  0
POINT
  5
59B
330
545
100
AcDbEntity
  8
Defpoints
 62
     0
100
AcDbPoint
 10
4004.890542173725
 20
-1548.708827203058
 30
0.0
  0
ENDBLK
  5
547
330
545
100
AcDbEntity
  8
0
100
AcDbBlockEnd
  0
BLOCK
  5
552
330
551
100
AcDbEntity
  8
0
100
AcDbBlockBegin
  2
*D8
 70
     1
 10
0.0
 20
0.0
 30
0.0
  3
*D8
  1

  0
LINE
  5
59C
330
551
100
AcDbEntity
  8
Dim
 62
     6
370
    -2
100
AcDbLine
 10
4027.347616266917
 20
-1548.308820854178
 30
0.0
 11
4027.347616266917
 21
-1562.184051171158
 31
0.0
  0
LINE
  5
59D
330
551
100
AcDbEntity
  8
Dim
 62
     6
370
    -2
100
AcDbLine
 10
4121.34757655946
 20
-1548.308808154781
 30
0.0
 11
4121.34757655946
 21
-1562.184051171158
 31
0.0
  0
LINE
  5
59E
330
551
100
AcDbEntity
  8
Dim
 62
     1
370
    -2
100
AcDbLine
 10
4030.847616266917
 20
-1560.984051171158
 30
0.0
 11
4117.84757655946
 21
-1560.984051171158
 31
0.0
  0
SOLID
  5
59F
330
551
100
AcDbEntity
  8
Dim
 62
     1
100
AcDbTrace
 10
4030.847616266917
 20
-1560.400717837825
 30
0.0
 11
4030.847616266917
 21
-1561.567384504491
 31
0.0
 12
4027.347616266917
 22
-1560.984051171158
 32
0.0
 13
4027.347616266917
 23
-1560.984051171158
 33
0.0
  0
SOLID
  5
5A0
330
551
100
AcDbEntity
  8
Dim
 62
     1
100
AcDbTrace
 10
4117.84757655946
 20
-1560.400717837825
 30
0.0
 11
4117.84757655946
 21
-1561.567384504491
 31
0.0
 12
4121.34757655946
 22
-1560.984051171158
 32
0.0
 13
4121.34757655946
 23
-1560.984051171158
 33
0.0
  0
MTEXT
  5
5A1
330
551
100
AcDbEntity
  8
Dim
 62
     4
100
AcDbMText
 10
4075.05490290134
 20
-1558.484051171158
 30
0.0
 40
4.0
 41
0.0
 71
     5
 72
     1
  1
\A1;94
  7
Romans字体
 73
     1
 44
1.0
  0
POINT
  5
5A2
330
551
100
AcDbEntity
  8
Defpoints
 62
     0
100
AcDbPoint
 10
4027.347616266917
 20
-1548.108820854178
 30
0.0
  0
POINT
  5
5A3
330
551
100
AcDbEntity
  8
Defpoints
 62
     0
100
AcDbPoint
 10
4121.34757655946
 20
-1548.108808154781
 30
0.0
  0
POINT
  5
5A4
330
551
100
AcDbEntity
  8
Defpoints
 62
     0
100
AcDbPoint
 10
4121.34757655946
 20
-1560.984051171158
 30
0.0
  0
ENDBLK
  5
553
330
551
100
AcDbEntity
  8
0
100
AcDbBlockEnd
  0
BLOCK
  5
55E
330
55D
100
AcDbEntity
  8
0
100
AcDbBlockBegin
  2
*D9
 70
     1
 10
0.0
 20
0.0
 30
0.0
  3
*D9
  1

  0
LINE
  5
5AE
330
55D
100
AcDbEntity
  8
Dim
 62
     6
370
    -2
100
AcDbLine
 10
4155.205385732475
 20
-1547.953188301538
 30
0.0
 11
4155.205385732475
 21
-1561.372803182528
 31
0.0
  0
LINE
  5
5AF
330
55D
100
AcDbEntity
  8
Dim
 62
     6
370
    -2
100
AcDbLine
 10
4237.705385803177
 20
-1547.953190160038
 30
0.0
 11
4237.705385803177
 21
-1561.372803182528
 31
0.0
  0
LINE
  5
5B0
330
55D
100
AcDbEntity
  8
Dim
 62
     1
370
    -2
100
AcDbLine
 10
4158.705385732475
 20
-1560.172803182528
 30
0.0
 11
4234.205385803177
 21
-1560.172803182528
 31
0.0
  0
SOLID
  5
5B1
330
55D
100
AcDbEntity
  8
Dim
 62
     1
100
AcDbTrace
 10
4158.705385732475
 20
-1559.589469849194
 30
0.0
 11
4158.705385732475
 21
-1560.756136515861
 31
0.0
 12
4155.205385732475
 22
-1560.172803182528
 32
0.0
 13
4155.205385732475
 23
-1560.172803182528
 33
0.0
  0
SOLID
  5
5B2
330
55D
100
AcDbEntity
  8
Dim
 62
     1
100
AcDbTrace
 10
4234.205385803177
 20
-1559.589469849194
 30
0.0
 11
4234.205385803177
 21
-1560.756136515861
 31
0.0
 12
4237.705385803177
 22
-1560.172803182528
 32
0.0
 13
4237.705385803177
 23
-1560.172803182528
 33
0.0
  0
MTEXT
  5
5B3
330
55D
100
AcDbEntity
  8
Dim
 62
     4
100
AcDbMText
 10
4197.313702131824
 20
-1557.672803182527
 30
0.0
 40
4.0
 41
0.0
 71
     5
 72
     1
  1
\A1;82.5
  7
Romans字体
 73
     1
 44
1.0
  0
POINT
  5
5B4
330
55D
100
AcDbEntity
  8
Defpoints
 62
     0
100
AcDbPoint
 10
4155.205385732475
 20
-1547.753188301538
 30
0.0
  0
POINT
  5
5B5
330
55D
100
AcDbEntity
  8
Defpoints
 62
     0
100
AcDbPoint
 10
4237.705385803177
 20
-1547.753190160038
 30
0.0
  0
POINT
  5
5B6
330
55D
100
AcDbEntity
  8
Defpoints
 62
     0
100
AcDbPoint
 10
4237.705385803177
 20
-1560.172803182528
 30
0.0
  0
ENDBLK
  5
55F
330
55D
100
AcDbEntity
  8
0
100
AcDbBlockEnd
  0
BLOCK
  5
56A
330
569
100
AcDbEntity
  8
0
100
AcDbBlockBegin
  2
*D10
 70
     1
 10
0.0
 20
0.0
 30
0.0
  3
*D10
  1

  0
LINE
  5
58A
330
569
100
AcDbEntity
  8
Dim
 62
     6
370
    -2
100
AcDbLine
 10
4048.147616267237
 20
-1454.508827202418
 30
0.0
 11
4048.147616267237
 21
-1440.322352455116
 31
0.0
  0
LINE
  5
58B
330
569
100
AcDbEntity
  8
Dim
 62
     6
370
    -2
100
AcDbLine
 10
4100.547616267236
 20
-1454.508827202418
 30
0.0
 11
4100.547616267236
 21
-1440.322352455116
 31
0.0
  0
LINE
  5
58C
330
569
100
AcDbEntity
  8
Dim
 62
     1
370
    -2
100
AcDbLine
 10
4051.647616267237
 20
-1441.522352455115
 30
0.0
 11
4097.047616267235
 21
-1441.522352455115
 31
0.0
  0
SOLID
  5
58D
330
569
100
AcDbEntity
  8
Dim
 62
     1
100
AcDbTrace
 10
4051.647616267237
 20
-1440.939019121782
 30
0.0
 11
4051.647616267237
 21
-1442.105685788449
 31
0.0
 12
4048.147616267237
 22
-1441.522352455115
 32
0.0
 13
4048.147616267237
 23
-1441.522352455115
 33
0.0
  0
SOLID
  5
58E
330
569
100
AcDbEntity
  8
Dim
 62
     1
100
AcDbTrace
 10
4097.047616267235
 20
-1440.939019121782
 30
0.0
 11
4097.047616267235
 21
-1442.105685788449
 31
0.0
 12
4100.547616267236
 22
-1441.522352455115
 32
0.0
 13
4100.547616267236
 23
-1441.522352455115
 33
0.0
  0
MTEXT
  5
58F
330
569
100
AcDbEntity
  8
Dim
 62
     4
100
AcDbMText
 10
4074.601428635127
 20
-1439.022352455116
 30
0.0
 40
4.0
 41
0.0
 71
     5
 72
     1
  1
\A1;PG42
  7
Romans字体
 73
     1
 44
1.0
  0
POINT
  5
590
330
569
100
AcDbEntity
  8
Defpoints
 62
     0
100
AcDbPoint
 10
4048.147616267237
 20
-1454.708827202418
 30
0.0
  0
POINT
  5
591
330
569
100
AcDbEntity
  8
Defpoints
 62
     0
100
AcDbPoint
 10
4100.547616267236
 20
-1454.708827202418
 30
0.0
  0
POINT
  5
592
330
569
100
AcDbEntity
  8
Defpoints
 62
     0
100
AcDbPoint
 10
4100.547616267236
 20
-1441.522352455115
 30
0.0
  0
ENDBLK
  5
56B
330
569
100
AcDbEntity
  8
0
100
AcDbBlockEnd
  0
BLOCK
  5
576
330
575
100
AcDbEntity
  8
0
100
AcDbBlockBegin
  2
*D11
 70
     1
 10
0.0
 20
0.0
 30
0.0
  3
*D11
  1

  0
LINE
  5
5A5
330
575
100
AcDbEntity
  8
Dim
 62
     6
370
    -2
100
AcDbLine
 10
4147.205385803596
 20
-1547.108827203058
 30
0.0
 11
4147.205385803596
 21
-1571.842210549769
 31
0.0
  0
LINE
  5
5A6
330
575
100
AcDbEntity
  8
Dim
 62
     6
370
    -2
100
AcDbLine
 10
4245.705385801997
 20
-1547.108827203058
 30
0.0
 11
4245.705385801997
 21
-1571.842210549769
 31
0.0
  0
LINE
  5
5A7
330
575
100
AcDbEntity
  8
Dim
 62
     1
370
    -2
100
AcDbLine
 10
4150.705385803596
 20
-1570.642210549769
 30
0.0
 11
4242.205385801997
 21
-1570.642210549769
 31
0.0
  0
SOLID
  5
5A8
330
575
100
AcDbEntity
  8
Dim
 62
     1
100
AcDbTrace
 10
4150.705385803596
 20
-1570.058877216436
 30
0.0
 11
4150.705385803596
 21
-1571.225543883103
 31
0.0
 12
4147.205385803596
 22
-1570.642210549769
 32
0.0
 13
4147.205385803596
 23
-1570.642210549769
 33
0.0
  0
SOLID
  5
5A9
330
575
100
AcDbEntity
  8
Dim
 62
     1
100
AcDbTrace
 10
4242.205385801997
 20
-1570.058877216436
 30
0.0
 11
4242.205385801997
 21
-1571.225543883103
 31
0.0
 12
4245.705385801997
 22
-1570.642210549769
 32
0.0
 13
4245.705385801997
 23
-1570.642210549769
 33
0.0
  0
MTEXT
  5
5AA
330
575
100
AcDbEntity
  8
Dim
 62
     4
100
AcDbMText
 10
4196.070418044215
 20
-1568.142210549769
 30
0.0
 40
4.0
 41
0.0
 71
     5
 72
     1
  1
\A1;98.5
  7
Romans字体
 73
     1
 44
1.0
  0
POINT
  5
5AB
330
575
100
AcDbEntity
  8
Defpoints
 62
     0
100
AcDbPoint
 10
4147.205385803596
 20
-1546.908827203058
 30
0.0
  0
POINT
  5
5AC
330
575
100
AcDbEntity
  8
Defpoints
 62
     0
100
AcDbPoint
 10
4245.705385801997
 20
-1546.908827203058
 30
0.0
  0
POINT
  5
5AD
330
575
100
AcDbEntity
  8
Defpoints
 62
     0
100
AcDbPoint
 10
4245.705385801997
 20
-1570.642210549769
 30
0.0
  0
ENDBLK
  5
577
330
575
100
AcDbEntity
  8
0
100
AcDbBlockEnd
  0
ENDSEC
  0
SECTION
  2
ENTITIES
  0
MTEXT
  5
74
330
2
100
AcDbEntity
  8
图框
 62
     3
100
AcDbMText
 10
4367.720498854232
 20
-1630.648163306245
 30
0.0
 40
4.0
 41
50.41858798863206
 71
     5
 72
     5
  1
W32B-TE-4B-PG42
  7
Romans字体
 73
     1
 44
1.0
1001
ACAD
1000
ACAD_MTEXT_DEFINED_HEIGHT_BEGIN
1070
    46
1040
13.0301182585288
1000
ACAD_MTEXT_DEFINED_HEIGHT_END
  0
MTEXT
  5
78
330
2
100
AcDbEntity
  8
图框
 62
     3
100
AcDbMText
 10
4265.640001458357
 20
-1663.778791714602
 30
0.0
 40
4.478270362551226
 41
16.2440226515857
 71
     5
 72
     5
  1
2:3
  7
Romans字体
 73
     1
 44
1.0
1001
ACAD
1000
ACAD_MTEXT_DEFINED_HEIGHT_BEGIN
1070
    46
1040
11.82914190181574
1000
ACAD_MTEXT_DEFINED_HEIGHT_END
  0
INSERT
  5
79
102
{ACAD_XDICTIONARY
360
7A
102
}
330
2
100
AcDbEntity
  8
Dim
100
AcDbBlockReference
  2
A4图框-NEW
 10
2702.537038933005
 20
-2407.541404563605
 30
0.0
 41
1.5
 42
1.5
 43
1.5
  0
LINE
  5
118
330
2
100
AcDbEntity
  8
0
  6
Continuous
 62
     7
100
AcDbLine
 10
4027.347616266917
 20
-1520.145637692518
 30
0.0
 11
4027.347616266917
 21
-1535.858503536218
 31
0.0
  0
LINE
  5
119
330
2
100
AcDbEntity
  8
0
  6
Continuous
 62
     7
100
AcDbLine
 10
4027.347616266917
 20
-1544.358503536438
 30
0.0
 11
4027.347616266917
 21
-1548.108820854178
 31
0.0
  0
LINE
  5
11A
330
2
100
AcDbEntity
  8
0
  6
Continuous
 62
     7
100
AcDbLine
 10
4028.147646729336
 20
-1548.708827203058
 30
0.0
 11
4028.147646729336
 21
-1548.608827202398
 31
0.0
  0
LINE
  5
11B
330
2
100
AcDbEntity
  8
0
  6
Continuous
 62
     7
100
AcDbLine
 10
4028.442688757998
 20
-1548.708827203058
 30
0.0
 11
4028.442688757998
 21
-1548.313785173738
 31
0.0
  0
LINE
  5
11C
330
2
100
AcDbEntity
  8
0
  6
Continuous
 62
     7
100
AcDbLine
 10
4035.863709369316
 20
-1458.152003689178
 30
0.0
 11
4033.971331284635
 21
-1471.616973406378
 31
0.0
  0
LINE
  5
11D
330
2
100
AcDbEntity
  8
0
  6
Continuous
 62
     7
100
AcDbLine
 10
4029.448206157677
 20
-1503.800680999718
 30
0.0
 11
4027.542247480396
 21
-1517.362281659037
 31
0.0
  0
LINE
  5
11E
330
2
100
AcDbEntity
  8
0
  6
Continuous
 62
     7
100
AcDbLine
 10
4036.146558275297
 20
-1458.477384135698
 30
0.0
 11
4027.867627926917
 21
-1517.385034476118
 31
0.0
  0
LINE
  5
11F
102
{ACAD_REACTORS
330
230
102
}
330
2
100
AcDbEntity
  8
0
  6
Continuous
 62
     7
100
AcDbLine
 10
4028.147646729336
 20
-1548.708827203058
 30
0.0
 11
4120.547585802597
 21
-1548.708827203058
 31
0.0
  0
LINE
  5
120
330
2
100
AcDbEntity
  8
0
  6
Continuous
 62
     7
100
AcDbLine
 10
4120.847609919336
 20
-1548.608827202398
 30
0.0
 11
4120.547585802597
 21
-1548.608827202398
 31
0.0
  0
LINE
  5
121
330
2
100
AcDbEntity
  8
0
  6
Continuous
 62
     7
100
AcDbLine
 10
4028.147646729336
 20
-1548.608827202398
 30
0.0
 11
4027.847622617674
 21
-1548.608827202398
 31
0.0
  0
LINE
  5
122
330
2
100
AcDbEntity
  8
0
  6
Continuous
 62
     7
100
AcDbLine
 10
4034.968236834635
 20
-1548.253169262458
 30
0.0
 11
4113.726995699837
 21
-1548.253169262458
 31
0.0
  0
LINE
  5
123
330
2
100
AcDbEntity
  8
0
  6
Continuous
 62
     7
100
AcDbLine
 10
4034.968236834635
 20
-1547.753188301538
 30
0.0
 11
4113.726995699837
 21
-1547.753188301538
 31
0.0
  0
LINE
  5
124
330
2
100
AcDbEntity
  8
0
  6
Continuous
 62
     7
100
AcDbLine
 10
4034.968236834635
 20
-1547.753188301538
 30
0.0
 11
4034.968236834635
 21
-1548.253169262458
 31
0.0
  0
LINE
  5
125
330
2
100
AcDbEntity
  8
0
  6
Continuous
 62
     7
100
AcDbLine
 10
4035.142433641436
 20
-1548.708827203058
 30
0.0
 11
4035.142433641436
 21
-1548.255825401418
 31
0.0
  0
LINE
  5
126
330
2
100
AcDbEntity
  8
0
  6
Continuous
 62
     7
100
AcDbLine
 10
4028.398291069296
 20
-1517.459614316798
 30
0.0
 11
4030.250578649956
 21
-1504.279903345818
 31
0.0
  0
LINE
  5
127
330
2
100
AcDbEntity
  8
0
  6
Continuous
 62
     7
100
AcDbLine
 10
4032.160844743056
 20
-1503.132002621558
 30
0.0
 11
4030.113354768956
 21
-1517.700650799418
 31
0.0
  0
LINE
  5
128
330
2
100
AcDbEntity
  8
0
  6
Continuous
 62
     7
100
AcDbLine
 10
4040.107479726056
 20
-1459.034055341378
 30
0.0
 11
4034.071241745215
 21
-1501.984120297058
 31
0.0
  0
LINE
  5
129
330
2
100
AcDbEntity
  8
0
  6
Continuous
 62
     7
100
AcDbLine
 10
4040.107479726056
 20
-1459.034055341378
 30
0.0
 11
4040.107479726056
 21
-1455.034207648938
 31
0.0
  0
LINE
  5
12A
330
2
100
AcDbEntity
  8
0
  6
Continuous
 62
     7
100
AcDbLine
 10
4042.999456842776
 20
-1464.860894449677
 30
0.0
 11
4038.736987559756
 21
-1495.189939326138
 31
0.0
  0
LINE
  5
12B
330
2
100
AcDbEntity
  8
0
  6
Continuous
 62
     7
100
AcDbLine
 10
4044.505105637416
 20
-1466.592945257858
 30
0.0
 11
4040.647787507515
 21
-1494.039189885197
 31
0.0
  0
LINE
  5
12C
330
2
100
AcDbEntity
  8
0
  6
Continuous
 62
     7
100
AcDbLine
 10
4061.097616267416
 20
-1535.708827203618
 30
0.0
 11
4032.935811882476
 21
-1535.708827203618
 31
0.0
  0
LINE
  5
12D
330
2
100
AcDbEntity
  8
0
  6
Continuous
 62
     7
100
AcDbLine
 10
4087.597616267056
 20
-1535.708827203618
 30
0.0
 11
4115.759420649456
 21
-1535.708827203618
 31
0.0
  0
LINE
  5
12E
330
2
100
AcDbEntity
  8
0
  6
Continuous
 62
     7
100
AcDbLine
 10
4059.365565459237
 20
-1533.976776395438
 30
0.0
 11
4030.448913051356
 21
-1533.976776395438
 31
0.0
  0
LINE
  5
12F
330
2
100
AcDbEntity
  8
0
  6
Continuous
 62
     7
100
AcDbLine
 10
4089.329667075236
 20
-1533.976776395438
 30
0.0
 11
4118.246319483116
 21
-1533.976776395438
 31
0.0
  0
LINE
  5
130
330
2
100
AcDbEntity
  8
0
  6
Continuous
 62
     7
100
AcDbLine
 10
4061.097616267416
 20
-1535.708827203618
 30
0.0
 11
4059.365565459237
 21
-1533.976776395438
 31
0.0
  0
LINE
  5
131
330
2
100
AcDbEntity
  8
0
  6
Continuous
 62
     7
100
AcDbLine
 10
4060.115565457834
 20
-1533.226776394298
 30
0.0
 11
4061.847616266017
 21
-1534.958827202478
 31
0.0
  0
LINE
  5
132
330
2
100
AcDbEntity
  8
0
  6
Continuous
 62
     7
100
AcDbLine
 10
4038.736987559756
 20
-1495.189939326138
 30
0.0
 11
4040.647384561917
 21
-1494.042057001638
 31
0.0
  0
LINE
  5
133
330
2
100
AcDbEntity
  8
0
  6
Continuous
 62
     7
100
AcDbLine
 10
4042.268004376295
 20
-1496.739221305038
 30
0.0
 11
4040.357607371595
 21
-1497.887103632078
 31
0.0
  0
LINE
  5
134
330
2
100
AcDbEntity
  8
0
  6
Continuous
 62
     7
100
AcDbLine
 10
4118.581877765516
 20
-1517.700650799418
 30
0.0
 11
4120.827604605016
 21
-1517.385034476118
 31
0.0
  0
LINE
  5
135
330
2
100
AcDbEntity
  8
0
  6
Continuous
 62
     7
100
AcDbLine
 10
4121.022235821036
 20
-1520.168390509597
 30
0.0
 11
4121.347616267555
 21
-1520.145637692518
 31
0.0
  0
LINE
  5
136
330
2
100
AcDbEntity
  8
0
  6
Continuous
 62
     7
100
AcDbLine
 10
4027.347616266917
 20
-1520.145637692518
 30
0.0
 11
4027.672996713436
 21
-1520.168390509597
 31
0.0
  0
LINE
  5
137
330
2
100
AcDbEntity
  8
0
  6
Continuous
 62
     7
100
AcDbLine
 10
4027.867627926917
 20
-1517.385034476118
 30
0.0
 11
4030.113354768956
 21
-1517.700650799418
 31
0.0
  0
LINE
  5
138
330
2
100
AcDbEntity
  8
0
  6
Continuous
 62
     7
100
AcDbLine
 10
4060.115565457834
 20
-1513.831844523838
 30
0.0
 11
4060.115565457834
 21
-1533.226776394298
 31
0.0
  0
LINE
  5
139
330
2
100
AcDbEntity
  8
0
  6
Continuous
 62
     7
100
AcDbLine
 10
4121.152985051535
 20
-1517.362281659037
 30
0.0
 11
4120.827604605016
 21
-1517.385034476118
 31
0.0
  0
LINE
  5
13A
330
2
100
AcDbEntity
  8
0
  6
Continuous
 62
     7
100
AcDbLine
 10
4027.672996713436
 20
-1520.168390509597
 30
0.0
 11
4029.940766645757
 21
-1520.168390509597
 31
0.0
  0
LINE
  5
13B
330
2
100
AcDbEntity
  8
0
  6
Continuous
 62
     7
100
AcDbLine
 10
4118.754465886177
 20
-1520.168390509597
 30
0.0
 11
4121.022235821036
 21
-1520.168390509597
 31
0.0
  0
LINE
  5
13C
330
2
100
AcDbEntity
  8
0
  6
Continuous
 62
     7
100
AcDbLine
 10
4027.867627926917
 20
-1517.385034476118
 30
0.0
 11
4027.542247480396
 21
-1517.362281659037
 31
0.0
  0
LINE
  5
13D
330
2
100
AcDbEntity
  8
0
  6
Continuous
 62
     7
100
AcDbLine
 10
4032.160844743056
 20
-1503.132002621558
 30
0.0
 11
4059.622080567236
 21
-1513.127075057078
 31
0.0
  0
LINE
  5
13E
330
2
100
AcDbEntity
  8
0
  6
Continuous
 62
     7
100
AcDbLine
 10
4061.847616266017
 20
-1512.619049491978
 30
0.0
 11
4061.847616266017
 21
-1534.958827202478
 31
0.0
  0
LINE
  5
13F
330
2
100
AcDbEntity
  8
0
  6
Continuous
 62
     7
100
AcDbLine
 10
4061.433383360674
 20
-1505.558058754958
 30
0.0
 11
4061.738790649275
 21
-1503.826007946778
 31
0.0
  0
LINE
  5
140
330
2
100
AcDbEntity
  8
0
  6
Continuous
 62
     7
100
AcDbLine
 10
4062.593841006736
 20
-1503.976776395558
 30
0.0
 11
4062.288433718136
 21
-1505.708827203737
 31
0.0
  0
LINE
  5
141
330
2
100
AcDbEntity
  8
0
  6
Continuous
 62
     7
100
AcDbLine
 10
4034.071241745215
 20
-1501.984120297058
 30
0.0
 11
4061.354131372875
 21
-1511.914280025218
 31
0.0
  0
LINE
  5
142
330
2
100
AcDbEntity
  8
0
  6
Continuous
 62
     7
100
AcDbLine
 10
4108.587752808417
 20
-1455.034207648938
 30
0.0
 11
4108.870601714396
 21
-1454.708827202418
 31
0.0
  0
LINE
  5
143
330
2
100
AcDbEntity
  8
0
  6
Continuous
 62
     7
100
AcDbLine
 10
4040.357607371595
 20
-1497.887103632078
 30
0.0
 11
4061.433383360674
 21
-1505.558058754958
 31
0.0
  0
LINE
  5
144
330
2
100
AcDbEntity
  8
0
  6
Continuous
 62
     7
100
AcDbLine
 10
4042.270724762015
 20
-1496.740211445298
 30
0.0
 11
4061.738790649275
 21
-1503.826007946778
 31
0.0
  0
LINE
  5
145
330
2
100
AcDbEntity
  8
0
  6
Continuous
 62
     7
100
AcDbLine
 10
4054.148107905857
 20
-1454.710648242718
 30
0.0
 11
4054.147618150675
 21
-1454.708827202418
 31
0.0
  0
LINE
  5
146
330
2
100
AcDbEntity
  8
0
  6
Continuous
 62
     7
100
AcDbLine
 10
4101.714456722677
 20
-1464.440878010058
 30
0.0
 11
4103.220105519857
 21
-1462.708827201877
 31
0.0
  0
LINE
  5
147
330
2
100
AcDbEntity
  8
0
  6
Continuous
 62
     7
100
AcDbLine
 10
4105.695775691695
 20
-1464.860894449677
 30
0.0
 11
4104.190126894517
 21
-1466.592945257858
 31
0.0
  0
LINE
  5
148
330
2
100
AcDbEntity
  8
0
  6
Continuous
 62
     7
100
AcDbLine
 10
4112.831523162617
 20
-1458.152003689178
 30
0.0
 11
4112.548674256635
 21
-1458.477384135698
 31
0.0
  0
LINE
  5
149
102
{ACAD_REACTORS
330
240
102
}
330
2
100
AcDbEntity
  8
0
  6
Continuous
 62
     7
100
AcDbLine
 10
4027.347616266917
 20
-1548.108820854178
 30
0.0
 11
4027.644145361437
 21
-1547.812317146958
 31
0.0
  0
LINE
  5
14A
330
2
100
AcDbEntity
  8
0
  6
Continuous
 62
     7
100
AcDbLine
 10
4027.847622615136
 20
-1548.608827202398
 30
0.0
 11
4028.144126322356
 21
-1548.312298107878
 31
0.0
  0
LINE
  5
14B
330
2
100
AcDbEntity
  8
0
  6
Continuous
 62
     7
100
AcDbLine
 10
4028.147646729336
 20
-1548.608827202398
 30
0.0
 11
4028.442688757998
 21
-1548.313785173738
 31
0.0
  0
LINE
  5
14C
330
2
100
AcDbEntity
  8
0
  6
Continuous
 62
     7
100
AcDbLine
 10
4087.249999362597
 20
-1496.269917356678
 30
0.0
 11
4101.345388672394
 21
-1491.139615206838
 31
0.0
  0
LINE
  5
14D
330
2
100
AcDbEntity
  8
0
  6
Continuous
 62
     7
100
AcDbLine
 10
4101.687408816395
 20
-1492.079307825798
 30
0.0
 11
4101.171025546395
 21
-1492.267255966537
 31
0.0
  0
LINE
  5
14E
330
2
100
AcDbEntity
  8
0
  6
Continuous
 62
     7
100
AcDbLine
 10
4099.033656887436
 20
-1493.045194537658
 30
0.0
 11
4098.480835282897
 21
-1493.246405146158
 31
0.0
  0
LINE
  5
14F
330
2
100
AcDbEntity
  8
0
  6
Continuous
 62
     7
100
AcDbLine
 10
4097.537602937715
 20
-1493.589713644198
 30
0.0
 11
4096.998315570774
 21
-1493.785998194478
 31
0.0
  0
LINE
  5
150
330
2
100
AcDbEntity
  8
0
  6
Continuous
 62
     7
100
AcDbLine
 10
4094.812015432337
 20
-1494.581746366758
 30
0.0
 11
4094.231084254857
 21
-1494.793188024138
 31
0.0
  0
LINE
  5
151
330
2
100
AcDbEntity
  8
0
  6
Continuous
 62
     7
100
AcDbLine
 10
4092.824564499957
 20
-1495.305119349777
 30
0.0
 11
4092.283194942615
 21
-1495.502161754777
 31
0.0
  0
LINE
  5
152
330
2
100
AcDbEntity
  8
0
  6
Continuous
 62
     7
100
AcDbLine
 10
4090.542483595497
 20
-1496.135728869658
 30
0.0
 11
4089.892840124657
 21
-1496.372179755658
 31
0.0
  0
LINE
  5
153
330
2
100
AcDbEntity
  8
0
  6
Continuous
 62
     7
100
AcDbLine
 10
4088.143800015934
 20
-1497.008778294498
 30
0.0
 11
4087.592019504056
 21
-1497.209609975637
 31
0.0
  0
LINE
  5
154
330
2
100
AcDbEntity
  8
0
  6
Continuous
 62
     7
100
AcDbLine
 10
4029.449714069317
 20
-1503.800621439258
 30
0.0
 11
4029.448206157677
 21
-1503.800680999718
 31
0.0
  0
LINE
  5
155
330
2
100
AcDbEntity
  8
0
  6
Continuous
 62
     7
100
AcDbLine
 10
4062.288433718136
 20
-1505.708827203737
 30
0.0
 11
4086.406798813797
 21
-1505.708827203737
 31
0.0
  0
LINE
  5
156
330
2
100
AcDbEntity
  8
0
  6
Continuous
 62
     7
100
AcDbLine
 10
4062.593841006736
 20
-1503.976776395558
 30
0.0
 11
4086.101391525196
 21
-1503.976776395558
 31
0.0
  0
LINE
  5
157
330
2
100
AcDbEntity
  8
0
  6
Continuous
 62
     7
100
AcDbLine
 10
4088.579667074095
 20
-1513.831844523838
 30
0.0
 11
4086.847616265917
 21
-1512.619049491978
 31
0.0
  0
LINE
  5
158
330
2
100
AcDbEntity
  8
0
  6
Continuous
 62
     7
100
AcDbLine
 10
4087.341101159057
 20
-1511.914280025218
 30
0.0
 11
4089.073151967236
 21
-1513.127075057078
 31
0.0
  0
LINE
  5
159
330
2
100
AcDbEntity
  8
0
  6
Continuous
 62
     7
100
AcDbLine
 10
4120.252543776476
 20
-1548.313785173738
 30
0.0
 11
4120.547585802597
 21
-1548.608827202398
 31
0.0
  0
LINE
  5
15A
330
2
100
AcDbEntity
  8
0
  6
Continuous
 62
     7
100
AcDbLine
 10
4121.051087170496
 20
-1547.812317146958
 30
0.0
 11
4121.347616267555
 21
-1548.108820854178
 31
0.0
  0
LINE
  5
15B
330
2
100
AcDbEntity
  8
0
  6
Continuous
 62
     7
100
AcDbLine
 10
4120.551106209576
 20
-1548.312298107878
 30
0.0
 11
4120.847609916796
 21
-1548.608827202398
 31
0.0
  0
LINE
  5
15C
330
2
100
AcDbEntity
  8
0
  6
Continuous
 62
     7
100
AcDbLine
 10
4036.146558275297
 20
-1458.477384135698
 30
0.0
 11
4035.863709369316
 21
-1458.152003689178
 31
0.0
  0
LINE
  5
15D
330
2
100
AcDbEntity
  8
0
  6
Continuous
 62
     7
100
AcDbLine
 10
4044.505105637416
 20
-1466.592945257858
 30
0.0
 11
4042.999456842776
 21
-1464.860894449677
 31
0.0
  0
LINE
  5
15E
330
2
100
AcDbEntity
  8
0
  6
Continuous
 62
     7
100
AcDbLine
 10
4059.622080567236
 20
-1513.127075057078
 30
0.0
 11
4061.354131372875
 21
-1511.914280025218
 31
0.0
  0
LINE
  5
15F
330
2
100
AcDbEntity
  8
0
  6
Continuous
 62
     7
100
AcDbLine
 10
4061.847616266017
 20
-1512.619049491978
 30
0.0
 11
4060.115565457834
 21
-1513.831844523838
 31
0.0
  0
LINE
  5
160
330
2
100
AcDbEntity
  8
0
  6
Continuous
 62
     7
100
AcDbLine
 10
4095.927771176437
 20
-1496.370970545478
 30
0.0
 11
4094.548319899277
 21
-1496.873049749597
 31
0.0
  0
LINE
  5
161
330
2
100
AcDbEntity
  8
0
  6
Continuous
 62
     7
100
AcDbLine
 10
4094.522121407096
 20
-1497.283727698878
 30
0.0
 11
4096.223271134077
 21
-1496.664559833838
 31
0.0
  0
LINE
  5
162
330
2
100
AcDbEntity
  8
0
  6
Continuous
 62
     7
100
AcDbLine
 10
4089.868705837137
 20
-1500.105586124238
 30
0.0
 11
4090.418404156077
 21
-1499.905512297818
 31
0.0
  0
LINE
  5
163
330
2
100
AcDbEntity
  8
0
  6
Continuous
 62
     7
100
AcDbLine
 10
4092.386074279657
 20
-1499.189338942258
 30
0.0
 11
4092.905580835257
 21
-1499.000254016898
 31
0.0
  0
LINE
  5
164
330
2
100
AcDbEntity
  8
0
  6
Continuous
 62
     7
100
AcDbLine
 10
4093.865470706176
 20
-1498.650882676018
 30
0.0
 11
4094.437032026854
 21
-1498.442851369958
 31
0.0
  0
LINE
  5
165
330
2
100
AcDbEntity
  8
0
  6
Continuous
 62
     7
100
AcDbLine
 10
4097.060592192477
 20
-1497.487953561698
 30
0.0
 11
4097.673797326237
 21
-1497.264765145998
 31
0.0
  0
LINE
  5
166
330
2
100
AcDbEntity
  8
0
  6
Continuous
 62
     7
100
AcDbLine
 10
4098.195386072236
 20
-1497.074922365918
 30
0.0
 11
4098.734673439177
 21
-1496.878637818178
 31
0.0
  0
LINE
  5
167
330
2
100
AcDbEntity
  8
0
  6
Continuous
 62
     7
100
AcDbLine
 10
4099.677905784356
 20
-1496.535329320138
 30
0.0
 11
4100.194289054355
 21
-1496.347381179398
 31
0.0
  0
LINE
  5
168
330
2
100
AcDbEntity
  8
0
  6
Continuous
 62
     7
100
AcDbLine
 10
4102.331657713317
 20
-1495.569442608277
 30
0.0
 11
4102.884479317856
 21
-1495.368231999778
 31
0.0
  0
LINE
  5
169
330
2
100
AcDbEntity
  8
0
  6
Continuous
 62
     7
100
AcDbLine
 10
4103.226499461856
 20
-1496.307924621278
 30
0.0
 11
4089.131110149517
 21
-1501.438226771118
 31
0.0
  0
LINE
  5
16A
330
2
100
AcDbEntity
  8
0
  6
Continuous
 62
     7
100
AcDbLine
 10
4045.475127014617
 20
-1462.708827201877
 30
0.0
 11
4046.980775809256
 21
-1464.440878010058
 31
0.0
  0
LINE
  5
16B
330
2
100
AcDbEntity
  8
0
  6
Continuous
 62
     7
100
AcDbLine
 10
4039.824630817537
 20
-1454.708827202418
 30
0.0
 11
4040.107479726056
 21
-1455.034207648938
 31
0.0
  0
LINE
  5
16C
330
2
100
AcDbEntity
  8
0
  6
Continuous
 62
     7
100
AcDbLine
 10
4086.956441882657
 20
-1503.826007946778
 30
0.0
 11
4106.424507472737
 21
-1496.740211554518
 31
0.0
  0
LINE
  5
16D
330
2
100
AcDbEntity
  8
0
  6
Continuous
 62
     7
100
AcDbLine
 10
4087.261849173795
 20
-1505.558058754958
 30
0.0
 11
4108.337625160337
 21
-1497.887103632078
 31
0.0
  0
LINE
  5
16E
330
2
100
AcDbEntity
  8
0
  6
Continuous
 62
     7
100
AcDbLine
 10
4086.847616265917
 20
-1512.619049491978
 30
0.0
 11
4086.847616265917
 21
-1534.958827202478
 31
0.0
  0
LINE
  5
16F
330
2
100
AcDbEntity
  8
0
  6
Continuous
 62
     7
100
AcDbLine
 10
4088.579667074095
 20
-1513.831844523838
 30
0.0
 11
4088.579667074095
 21
-1533.226776394298
 31
0.0
  0
LINE
  5
170
330
2
100
AcDbEntity
  8
0
  6
Continuous
 62
     7
100
AcDbLine
 10
4114.623990786717
 20
-1501.984120297058
 30
0.0
 11
4087.341101159057
 21
-1511.914280025218
 31
0.0
  0
LINE
  5
171
330
2
100
AcDbEntity
  8
0
  6
Continuous
 62
     7
100
AcDbLine
 10
4087.592019504056
 20
-1497.209609975637
 30
0.0
 11
4089.868705837137
 21
-1500.105586124238
 31
0.0
  0
LINE
  5
172
330
2
100
AcDbEntity
  8
0
  6
Continuous
 62
     7
100
AcDbLine
 10
4087.849397386555
 20
-1500.840554293618
 30
0.0
 11
4086.652326885096
 21
-1497.551630119638
 31
0.0
  0
LINE
  5
173
330
2
100
AcDbEntity
  8
0
  6
Continuous
 62
     7
100
AcDbLine
 10
4086.406798813797
 20
-1505.708827203737
 30
0.0
 11
4086.101391525196
 21
-1503.976776395558
 31
0.0
  0
LINE
  5
174
330
2
100
AcDbEntity
  8
0
  6
Continuous
 62
     7
100
AcDbLine
 10
4086.956441882657
 20
-1503.826007946778
 30
0.0
 11
4087.261849173795
 21
-1505.558058754958
 31
0.0
  0
LINE
  5
175
330
2
100
AcDbEntity
  8
0
  6
Continuous
 62
     7
100
AcDbLine
 10
4092.905580835257
 20
-1499.000254016898
 30
0.0
 11
4092.824564499957
 21
-1495.305119349777
 31
0.0
  0
LINE
  5
176
330
2
100
AcDbEntity
  8
0
  6
Continuous
 62
     7
100
AcDbLine
 10
4089.892840124657
 20
-1496.372179755658
 30
0.0
 11
4089.926724192016
 21
-1498.875324739198
 31
0.0
  0
LINE
  5
177
330
2
100
AcDbEntity
  8
0
  6
Continuous
 62
     7
100
AcDbLine
 10
4094.437032026854
 20
-1498.442851369958
 30
0.0
 11
4094.522121407096
 21
-1497.283727698878
 31
0.0
  0
LINE
  5
178
330
2
100
AcDbEntity
  8
0
  6
Continuous
 62
     7
100
AcDbLine
 10
4094.548319899277
 20
-1496.873049749597
 30
0.0
 11
4094.643698860156
 21
-1495.745435781818
 31
0.0
  0
LINE
  5
179
330
2
100
AcDbEntity
  8
0
  6
Continuous
 62
     7
100
AcDbLine
 10
4094.231084254857
 20
-1494.793188024138
 30
0.0
 11
4093.865470706176
 21
-1498.650882676018
 31
0.0
  0
LINE
  5
17A
330
2
100
AcDbEntity
  8
0
  6
Continuous
 62
     7
100
AcDbLine
 10
4116.534387788877
 20
-1503.132002621558
 30
0.0
 11
4089.073151967236
 21
-1513.127075057078
 31
0.0
  0
LINE
  5
17B
330
2
100
AcDbEntity
  8
0
  6
Continuous
 62
     7
100
AcDbLine
 10
4033.971331284635
 20
-1471.616973406378
 30
0.0
 11
4033.972764304375
 21
-1471.617455091978
 31
0.0
  0
LINE
  5
17C
330
2
100
AcDbEntity
  8
0
  6
Continuous
 62
     7
100
AcDbLine
 10
4102.110859102337
 20
-1494.849427439218
 30
0.0
 11
4099.033656887436
 21
-1493.045194537658
 31
0.0
  0
LINE
  5
17D
330
2
100
AcDbEntity
  8
0
  6
Continuous
 62
     7
100
AcDbLine
 10
4099.253536795656
 20
-1493.762685591877
 30
0.0
 11
4102.331657713317
 21
-1495.569442608277
 31
0.0
  0
LINE
  5
17E
330
2
100
AcDbEntity
  8
0
  6
Continuous
 62
     7
100
AcDbLine
 10
4097.673797326237
 20
-1497.264765145998
 30
0.0
 11
4094.812015432337
 21
-1494.581746366758
 31
0.0
  0
LINE
  5
17F
330
2
100
AcDbEntity
  8
0
  6
Continuous
 62
     7
100
AcDbLine
 10
4096.223271134077
 20
-1496.664559833838
 30
0.0
 11
4097.060592192477
 21
-1497.487953561698
 31
0.0
  0
LINE
  5
180
330
2
100
AcDbEntity
  8
0
  6
Continuous
 62
     7
100
AcDbLine
 10
4108.337625160337
 20
-1497.887103632078
 30
0.0
 11
4106.427228158176
 21
-1496.739221305038
 31
0.0
  0
LINE
  5
181
330
2
100
AcDbEntity
  8
0
  6
Continuous
 62
     7
100
AcDbLine
 10
4108.047847972557
 20
-1494.042057001638
 30
0.0
 11
4109.958244974715
 21
-1495.189939326138
 31
0.0
  0
LINE
  5
182
330
2
100
AcDbEntity
  8
0
  6
Continuous
 62
     7
100
AcDbLine
 10
4096.998315570774
 20
-1493.785998194478
 30
0.0
 11
4098.195386072236
 21
-1497.074922365918
 31
0.0
  0
LINE
  5
183
330
2
100
AcDbEntity
  8
0
  6
Continuous
 62
     7
100
AcDbLine
 10
4098.734673439177
 20
-1496.878637818178
 30
0.0
 11
4097.537602937715
 21
-1493.589713644198
 31
0.0
  0
LINE
  5
184
330
2
100
AcDbEntity
  8
0
  6
Continuous
 62
     7
100
AcDbLine
 10
4098.480835282897
 20
-1493.246405146158
 30
0.0
 11
4099.677905784356
 21
-1496.535329320138
 31
0.0
  0
LINE
  5
185
330
2
100
AcDbEntity
  8
0
  6
Continuous
 62
     7
100
AcDbLine
 10
4100.194289054355
 20
-1496.347381179398
 30
0.0
 11
4099.253536795656
 21
-1493.762685591877
 31
0.0
  0
LINE
  5
186
330
2
100
AcDbEntity
  8
0
  6
Continuous
 62
     7
100
AcDbLine
 10
4101.171025546395
 20
-1492.267255966537
 30
0.0
 11
4102.110859102337
 21
-1494.849427439218
 31
0.0
  0
LINE
  5
187
330
2
100
AcDbEntity
  8
0
  6
Continuous
 62
     7
100
AcDbLine
 10
4102.884479317856
 20
-1495.368231999778
 30
0.0
 11
4101.687408816395
 21
-1492.079307825798
 31
0.0
  0
LINE
  5
188
330
2
100
AcDbEntity
  8
0
  6
Continuous
 62
     7
100
AcDbLine
 10
4102.627101437895
 20
-1491.737287684338
 30
0.0
 11
4103.824171939356
 21
-1495.026211855777
 31
0.0
  0
LINE
  5
189
330
2
100
AcDbEntity
  8
0
  6
Continuous
 62
     7
100
AcDbLine
 10
4108.587752808417
 20
-1455.034207648938
 30
0.0
 11
4108.587752808417
 21
-1459.034055341378
 31
0.0
  0
LINE
  5
18A
330
2
100
AcDbEntity
  8
0
  6
Continuous
 62
     7
100
AcDbLine
 10
4086.847616265917
 20
-1534.958827202478
 30
0.0
 11
4088.579667074095
 21
-1533.226776394298
 31
0.0
  0
LINE
  5
18B
330
2
100
AcDbEntity
  8
0
  6
Continuous
 62
     7
100
AcDbLine
 10
4089.329667075236
 20
-1533.976776395438
 30
0.0
 11
4087.597616267056
 21
-1535.708827203618
 31
0.0
  0
LINE
  5
18C
330
2
100
AcDbEntity
  8
0
  6
Continuous
 62
     7
100
AcDbLine
 10
4108.047445067596
 20
-1494.039190200157
 30
0.0
 11
4104.190126894517
 21
-1466.592945257858
 31
0.0
  0
LINE
  5
18D
330
2
100
AcDbEntity
  8
0
  6
Continuous
 62
     7
100
AcDbLine
 10
4113.552798890496
 20
-1548.708827203058
 30
0.0
 11
4113.552798890496
 21
-1548.255825401418
 31
0.0
  0
LINE
  5
18E
330
2
100
AcDbEntity
  8
0
  6
Continuous
 62
     7
100
AcDbLine
 10
4113.726995699837
 20
-1547.753188301538
 30
0.0
 11
4113.726995699837
 21
-1548.253169262458
 31
0.0
  0
LINE
  5
18F
330
2
100
AcDbEntity
  8
0
  6
Continuous
 62
     7
100
AcDbLine
 10
4112.548674256635
 20
-1458.477384135698
 30
0.0
 11
4108.587752808417
 21
-1459.034055341378
 31
0.0
  0
LINE
  5
190
330
2
100
AcDbEntity
  8
0
  6
Continuous
 62
     7
100
AcDbLine
 10
4101.714456722677
 20
-1464.440878010058
 30
0.0
 11
4046.980775809256
 21
-1464.440878010058
 31
0.0
  0
LINE
  5
191
330
2
100
AcDbEntity
  8
0
  6
Continuous
 62
     7
100
AcDbLine
 10
4103.220105519857
 20
-1462.708827201877
 30
0.0
 11
4045.475127014617
 21
-1462.708827201877
 31
0.0
  0
LINE
  5
192
330
2
100
AcDbEntity
  8
0
  6
Continuous
 62
     7
100
AcDbLine
 10
4040.107479726056
 20
-1459.034055341378
 30
0.0
 11
4036.146558275297
 21
-1458.477384135698
 31
0.0
  0
LINE
  5
193
330
2
100
AcDbEntity
  8
0
  6
Continuous
 62
     7
100
AcDbLine
 10
4109.958244974715
 20
-1495.189939326138
 30
0.0
 11
4105.695775691695
 21
-1464.860894449677
 31
0.0
  0
LINE
  5
194
330
2
100
AcDbEntity
  8
0
  6
Continuous
 62
     7
100
AcDbLine
 10
4114.623990786717
 20
-1501.984120297058
 30
0.0
 11
4108.587752808417
 21
-1459.034055341378
 31
0.0
  0
LINE
  5
195
330
2
100
AcDbEntity
  8
0
  6
Continuous
 62
     7
100
AcDbLine
 10
4040.107479726056
 20
-1459.034055341378
 30
0.0
 11
4108.587752808417
 21
-1459.034055341378
 31
0.0
  0
LINE
  5
196
330
2
100
AcDbEntity
  8
0
  6
Continuous
 62
     7
100
AcDbLine
 10
4118.581877765516
 20
-1517.700650799418
 30
0.0
 11
4116.534387788877
 21
-1503.132002621558
 31
0.0
  0
LINE
  5
197
330
2
100
AcDbEntity
  8
0
  6
Continuous
 62
     7
100
AcDbLine
 10
4118.444653881976
 20
-1504.279903345818
 30
0.0
 11
4120.296941465176
 21
-1517.459614316798
 31
0.0
  0
LINE
  5
198
330
2
100
AcDbEntity
  8
0
  6
Continuous
 62
     7
100
AcDbLine
 10
4120.827604605016
 20
-1517.385034476118
 30
0.0
 11
4112.548674256635
 21
-1458.477384135698
 31
0.0
  0
LINE
  5
199
330
2
100
AcDbEntity
  8
0
  6
Continuous
 62
     7
100
AcDbLine
 10
4121.152985051535
 20
-1517.362281659037
 30
0.0
 11
4112.831523162617
 21
-1458.152003689178
 31
0.0
  0
LINE
  5
19A
330
2
100
AcDbEntity
  8
0
  6
Continuous
 62
     7
100
AcDbLine
 10
4120.252543776476
 20
-1548.708827203058
 30
0.0
 11
4120.252543776476
 21
-1548.313785173738
 31
0.0
  0
LINE
  5
19B
330
2
100
AcDbEntity
  8
0
  6
Continuous
 62
     7
100
AcDbLine
 10
4120.547585802597
 20
-1548.708827203058
 30
0.0
 11
4120.547585802597
 21
-1548.608827202398
 31
0.0
  0
LINE
  5
19C
330
2
100
AcDbEntity
  8
0
  6
Continuous
 62
     7
100
AcDbLine
 10
4121.347616267555
 20
-1548.108820854178
 30
0.0
 11
4121.347616267555
 21
-1544.358503536438
 31
0.0
  0
LINE
  5
19D
330
2
100
AcDbEntity
  8
0
  6
Continuous
 62
     7
100
AcDbLine
 10
4121.347616267555
 20
-1535.858503536218
 30
0.0
 11
4121.347616267555
 21
-1520.145637692518
 31
0.0
  0
LINE
  5
19E
330
2
100
AcDbEntity
  8
0
  6
Continuous
 62
     7
100
AcDbLine
 10
4108.587752808417
 20
-1455.034207648938
 30
0.0
 11
4040.107479726056
 21
-1455.034207648938
 31
0.0
  0
LINE
  5
19F
330
2
100
AcDbEntity
  8
0
  6
Continuous
 62
     7
100
AcDbLine
 10
4108.870601714396
 20
-1454.708827202418
 30
0.0
 11
4039.824630817537
 21
-1454.708827202418
 31
0.0
  0
LINE
  5
1A0
330
2
100
AcDbEntity
  8
0
  6
Continuous
 62
     7
100
AcDbLine
 10
4196.455385802797
 20
-1548.608827202398
 30
0.0
 11
4237.209749069116
 21
-1548.253169262458
 31
0.0
  0
LINE
  5
1A1
330
2
100
AcDbEntity
  8
0
  6
Continuous
 62
     7
100
AcDbLine
 10
4196.455385802797
 20
-1548.108820854178
 30
0.0
 11
4230.434254542917
 21
-1547.812317146958
 31
0.0
  0
LINE
  5
1A2
330
2
100
AcDbEntity
  8
0
  6
Continuous
 62
     7
100
AcDbLine
 10
4156.005385801257
 20
-1548.708827203058
 30
0.0
 11
4236.905385801796
 21
-1548.708827203058
 31
0.0
  0
LINE
  5
1A3
330
2
100
AcDbEntity
  8
0
  6
Continuous
 62
     7
100
AcDbLine
 10
4155.701022533935
 20
-1548.253169262458
 30
0.0
 11
4196.455385802797
 21
-1548.608827202398
 31
0.0
  0
LINE
  5
1A4
330
2
100
AcDbEntity
  8
0
  6
Continuous
 62
     7
100
AcDbLine
 10
4162.476517062676
 20
-1547.812317146958
 30
0.0
 11
4196.455385802797
 21
-1548.108820854178
 31
0.0
  0
LINE
  5
1A5
330
2
100
AcDbEntity
  8
0
  6
Continuous
 62
     7
100
AcDbLine
 10
4155.205385803596
 20
-1459.034055341378
 30
0.0
 11
4155.205385803596
 21
-1547.753188301538
 31
0.0
  0
LINE
  5
1A6
330
2
100
AcDbEntity
  8
0
  6
Continuous
 62
     7
100
AcDbLine
 10
4156.005385801257
 20
-1548.708827203058
 30
0.0
 11
4156.005385801257
 21
-1548.255825401418
 31
0.0
  0
LINE
  5
1A7
330
2
100
AcDbEntity
  8
0
  6
Continuous
 62
     7
100
AcDbLine
 10
4156.205385802576
 20
-1533.976776395438
 30
0.0
 11
4156.205385802576
 21
-1503.132002621558
 31
0.0
  0
LINE
  5
1A8
330
2
100
AcDbEntity
  8
0
  6
Continuous
 62
     7
100
AcDbLine
 10
4157.205351613156
 20
-1520.168390509597
 30
0.0
 11
4157.205156851036
 21
-1504.279903345818
 31
0.0
  0
LINE
  5
1A9
330
2
100
AcDbEntity
  8
0
  6
Continuous
 62
     7
100
AcDbLine
 10
4159.170479661557
 20
-1517.385034476118
 30
0.0
 11
4159.170479661557
 21
-1458.477384135698
 31
0.0
  0
LINE
  5
1AA
330
2
100
AcDbEntity
  8
0
  6
Continuous
 62
     7
100
AcDbLine
 10
4156.205385802576
 20
-1513.831844523838
 30
0.0
 11
4155.205385803596
 21
-1512.619049491978
 31
0.0
  0
LINE
  5
1AB
330
2
100
AcDbEntity
  8
0
  6
Continuous
 62
     7
100
AcDbLine
 10
4155.205385803596
 20
-1511.914280025218
 30
0.0
 11
4156.205385802576
 21
-1513.127075057078
 31
0.0
  0
LINE
  5
1AC
330
2
100
AcDbEntity
  8
0
  6
Continuous
 62
     7
100
AcDbLine
 10
4162.646918014735
 20
-1548.708827203058
 30
0.0
 11
4162.646918014735
 21
-1548.313785173738
 31
0.0
  0
LINE
  5
1AD
330
2
100
AcDbEntity
  8
0
  6
Continuous
 62
     7
100
AcDbLine
 10
4155.205385803596
 20
-1534.958827202478
 30
0.0
 11
4156.205385802576
 21
-1533.226776394298
 31
0.0
  0
LINE
  5
1AE
330
2
100
AcDbEntity
  8
0
  6
Continuous
 62
     7
100
AcDbLine
 10
4156.904559156576
 20
-1532.765772622378
 30
0.0
 11
4155.205385803596
 21
-1535.708827203618
 31
0.0
  0
LINE
  5
1AF
330
2
100
AcDbEntity
  8
0
  6
Continuous
 62
     7
100
AcDbLine
 10
4156.205385802576
 20
-1520.168390509597
 30
0.0
 11
4196.455385802797
 21
-1520.145637692518
 31
0.0
  0
LINE
  5
1B0
330
2
100
AcDbEntity
  8
0
  6
Continuous
 62
     7
100
AcDbLine
 10
4196.455385802797
 20
-1520.145637692518
 30
0.0
 11
4236.705385803015
 21
-1520.168390509597
 31
0.0
  0
LINE
  5
1B1
330
2
100
AcDbEntity
  8
0
  6
Continuous
 62
     7
100
AcDbLine
 10
4196.455385802797
 20
-1517.362281659037
 30
0.0
 11
4159.170479661557
 21
-1517.385034476118
 31
0.0
  0
LINE
  5
1B2
330
2
100
AcDbEntity
  8
0
  6
Continuous
 62
     7
100
AcDbLine
 10
4233.740291944036
 20
-1517.385034476118
 30
0.0
 11
4196.455385802797
 21
-1517.362281659037
 31
0.0
  0
LINE
  5
1B3
330
2
100
AcDbEntity
  8
0
  6
Continuous
 62
     7
100
AcDbLine
 10
4196.455385802797
 20
-1458.152003689178
 30
0.0
 11
4196.455373601588
 21
-1517.362281666484
 31
0.0
  0
LINE
  5
1B4
330
2
100
AcDbEntity
  8
0
  6
Continuous
 62
     7
100
AcDbLine
 10
4196.455385802797
 20
-1520.145637692518
 30
0.0
 11
4196.455385802797
 21
-1548.708827203058
 31
0.0
  0
LINE
  5
1B5
330
2
100
AcDbEntity
  8
0
  6
Continuous
 62
     7
100
AcDbLine
 10
4237.705385801997
 20
-1535.708827203618
 30
0.0
 11
4236.006212443934
 21
-1532.765772617298
 31
0.0
  0
LINE
  5
1B6
330
2
100
AcDbEntity
  8
0
  6
Continuous
 62
     7
100
AcDbLine
 10
4236.705385803015
 20
-1533.226776394298
 30
0.0
 11
4237.705385801997
 21
-1534.958827202478
 31
0.0
  0
LINE
  5
1B7
330
2
100
AcDbEntity
  8
0
  6
Continuous
 62
     7
100
AcDbLine
 10
4230.263853590854
 20
-1548.708827203058
 30
0.0
 11
4230.263853590854
 21
-1548.313785173738
 31
0.0
  0
LINE
  5
1B8
330
2
100
AcDbEntity
  8
0
  6
Continuous
 62
     7
100
AcDbLine
 10
4233.740291944036
 20
-1458.477384135698
 30
0.0
 11
4233.740291944036
 21
-1517.385034476118
 31
0.0
  0
LINE
  5
1B9
330
2
100
AcDbEntity
  8
0
  6
Continuous
 62
     7
100
AcDbLine
 10
4235.705419992437
 20
-1520.168390509597
 30
0.0
 11
4235.705614754555
 21
-1504.279903345818
 31
0.0
  0
LINE
  5
1BA
330
2
100
AcDbEntity
  8
0
  6
Continuous
 62
     7
100
AcDbLine
 10
4236.705385803015
 20
-1503.132002621558
 30
0.0
 11
4236.705385803015
 21
-1533.976776395438
 31
0.0
  0
LINE
  5
1BB
330
2
100
AcDbEntity
  8
0
  6
Continuous
 62
     7
100
AcDbLine
 10
4236.905385801796
 20
-1548.708827203058
 30
0.0
 11
4236.905385801796
 21
-1548.255825401418
 31
0.0
  0
LINE
  5
1BC
330
2
100
AcDbEntity
  8
0
  6
Continuous
 62
     7
100
AcDbLine
 10
4237.705385801997
 20
-1547.753188301538
 30
0.0
 11
4237.705385801997
 21
-1459.034055341378
 31
0.0
  0
LINE
  5
1BD
330
2
100
AcDbEntity
  8
0
  6
Continuous
 62
     7
100
AcDbLine
 10
4236.705385803015
 20
-1513.127075057078
 30
0.0
 11
4237.705385801997
 21
-1511.914280025218
 31
0.0
  0
LINE
  5
1BE
330
2
100
AcDbEntity
  8
0
  6
Continuous
 62
     7
100
AcDbLine
 10
4237.705385801997
 20
-1512.619049491978
 30
0.0
 11
4236.705385803015
 21
-1513.831844523838
 31
0.0
  0
LINE
  5
1BF
330
2
100
AcDbEntity
  8
0
  6
Continuous
 62
     7
100
AcDbLine
 10
4196.455385802797
 20
-1458.152003689178
 30
0.0
 11
4159.170479661557
 21
-1458.477384135698
 31
0.0
  0
LINE
  5
1C0
330
2
100
AcDbEntity
  8
0
  6
Continuous
 62
     7
100
AcDbLine
 10
4233.740291944036
 20
-1458.477384135698
 30
0.0
 11
4196.455385802797
 21
-1458.152003689178
 31
0.0
  0
LINE
  5
1C1
330
2
100
AcDbEntity
  8
0
  6
Continuous
 62
     7
100
AcDbLine
 10
4159.170479661557
 20
-1455.034207648938
 30
0.0
 11
4196.455385802797
 21
-1454.708827202418
 31
0.0
  0
LINE
  5
1C2
330
2
100
AcDbEntity
  8
0
  6
Continuous
 62
     7
100
AcDbLine
 10
4196.455385802797
 20
-1454.708827202418
 30
0.0
 11
4233.740291944036
 21
-1455.034207648938
 31
0.0
  0
ARC
  5
1C3
330
2
100
AcDbEntity
  8
0
  6
Continuous
 62
     7
100
AcDbCircle
 10
3932.243908369557
 20
-1520.218738496277
 30
0.0
 40
186.5105373617199
100
AcDbArc
 50
355.7697074117076
 51
0.0154668321935082
  0
ARC
  5
1C4
330
2
100
AcDbEntity
  8
0
  6
Continuous
 62
     7
100
AcDbCircle
 10
4047.372701969776
 20
-1520.147445105717
 30
0.0
 40
20.02508861624
100
AcDbArc
 50
172.0051719427051
 51
179.9948280572991
  0
ARC
  5
1C5
330
2
100
AcDbEntity
  8
0
  6
Continuous
 62
     7
100
AcDbCircle
 10
4047.696866063636
 20
-1520.170112868358
 30
0.0
 40
20.02387168954
100
AcDbArc
 50
172.0049287677057
 51
179.995071232295
  0
ARC
  5
1C6
330
2
100
AcDbEntity
  8
0
  6
Continuous
 62
     7
100
AcDbCircle
 10
4047.695912098055
 20
-1520.170046160338
 30
0.0
 40
19.48714963878
100
AcDbArc
 50
172.0048679185984
 51
179.995132081398
  0
ARC
  5
1C7
330
2
100
AcDbEntity
  8
0
  6
Continuous
 62
     7
100
AcDbCircle
 10
4047.693804977554
 20
-1520.169898814937
 30
0.0
 40
17.75301144336
100
AcDbArc
 50
172.0048678870912
 51
179.9951321128986
  0
ARC
  5
1C8
330
2
100
AcDbEntity
  8
0
  6
Continuous
 62
     7
100
AcDbCircle
 10
4027.847803315816
 20
-1548.108640153498
 30
0.0
 40
0.50014737156
100
AcDbArc
 50
180.0192458497019
 51
269.980754150298
  0
ARC
  5
1C9
330
2
100
AcDbEntity
  8
0
  6
Continuous
 62
     7
100
AcDbCircle
 10
4028.144319669696
 20
-1547.812123799618
 30
0.0
 40
0.5001473385399999
100
AcDbArc
 50
180.0221481350988
 51
269.9778518650053
  0
ARC
  5
1CA
330
2
100
AcDbEntity
  8
0
  6
Continuous
 62
     7
100
AcDbCircle
 10
4040.107787556276
 20
-1459.034409460558
 30
0.0
 40
4.000201821779997
100
AcDbArc
 50
90.00440912390237
 51
171.9955908760925
  0
ARC
  5
1CB
102
{ACAD_REACTORS
330
230
102
}
330
2
100
AcDbEntity
  8
0
  6
Continuous
 62
     7
100
AcDbCircle
 10
4039.824587797556
 20
-1458.708625402957
 30
0.0
 40
3.999798200539997
100
AcDbArc
 50
89.99938372009836
 51
172.0006162799039
  0
ARC
  5
1CC
330
2
100
AcDbEntity
  8
0
  6
Continuous
 62
     7
100
AcDbCircle
 10
4216.451324777056
 20
-1520.218738473418
 30
0.0
 40
186.51053797386
100
AcDbArc
 50
179.9845331748023
 51
184.2302925813037
  0
ARC
  5
1CD
330
2
100
AcDbEntity
  8
0
  6
Continuous
 62
     7
100
AcDbCircle
 10
4101.322530564696
 20
-1520.147445105717
 30
0.0
 40
20.02508861624
100
AcDbArc
 50
0.0051719427008509
 51
7.994828057294895
  0
ARC
  5
1CE
330
2
100
AcDbEntity
  8
0
  6
Continuous
 62
     7
100
AcDbCircle
 10
4100.998366470835
 20
-1520.170112868358
 30
0.0
 40
20.02387168954
100
AcDbArc
 50
0.0049287677050047
 51
7.995071232294242
  0
ARC
  5
1CF
330
2
100
AcDbEntity
  8
0
  6
Continuous
 62
     7
100
AcDbCircle
 10
4100.999320433877
 20
-1520.170046160338
 30
0.0
 40
19.48714963878
100
AcDbArc
 50
0.0048679186931815
 51
7.995132081309241
  0
ARC
  5
1D0
330
2
100
AcDbEntity
  8
0
  6
Continuous
 62
     7
100
AcDbCircle
 10
4101.001427556917
 20
-1520.169898814937
 30
0.0
 40
17.75301144082
100
AcDbArc
 50
0.0048678866975138
 51
7.995132113290482
  0
ARC
  5
1D1
102
{ACAD_REACTORS
330
240
102
}
330
2
100
AcDbEntity
  8
0
  6
Continuous
 62
     7
100
AcDbCircle
 10
4120.847429216115
 20
-1548.108640153498
 30
0.0
 40
0.50014737156
100
AcDbArc
 50
270.019245856802
 51
359.980754143198
  0
ARC
  5
1D2
330
2
100
AcDbEntity
  8
0
  6
Continuous
 62
     7
100
AcDbCircle
 10
4120.550912839377
 20
-1547.812123774218
 30
0.0
 40
0.5001473639400002
100
AcDbArc
 50
270.0221510022027
 51
359.9778489977973
  0
ARC
  5
1D3
330
2
100
AcDbEntity
  8
0
  6
Continuous
 62
     7
100
AcDbCircle
 10
4108.587444978197
 20
-1459.034409460558
 30
0.0
 40
4.000201821779997
100
AcDbArc
 50
8.004409123907503
 51
89.99559087609762
  0
ARC
  5
1D4
330
2
100
AcDbEntity
  8
0
  6
Continuous
 62
     7
100
AcDbCircle
 10
4108.870644736916
 20
-1458.708625402957
 30
0.0
 40
3.999798200539997
100
AcDbArc
 50
7.99938372009628
 51
90.00061627990168
  0
ARC
  5
1D5
330
2
100
AcDbEntity
  8
0
  6
Continuous
 62
     7
100
AcDbCircle
 10
4102.884479317856
 20
-1495.368231999778
 30
0.0
 40
0.99999999898
100
AcDbArc
 50
290.0000000208962
 51
20.0000000026937
  0
ARC
  5
1D6
330
2
100
AcDbEntity
  8
0
  6
Continuous
 62
     7
100
AcDbCircle
 10
4101.687408816395
 20
-1492.079307825798
 30
0.0
 40
0.99999999898
100
AcDbArc
 50
20.0000000031083
 51
110.0000000202985
  0
ARC
  5
1D7
330
2
100
AcDbEntity
  8
0
  6
Continuous
 62
     7
100
AcDbCircle
 10
4087.592019504056
 20
-1497.209609975637
 30
0.0
 40
0.99999999898
100
AcDbArc
 50
109.9999999899954
 51
199.9999999994067
  0
ARC
  5
1D8
330
2
100
AcDbEntity
  8
0
  6
Continuous
 62
     7
100
AcDbCircle
 10
4088.789090005516
 20
-1500.498534149617
 30
0.0
 40
0.99999999898
100
AcDbArc
 50
200.000000001209
 51
289.9999999907
  0
ARC
  5
1D9
330
2
100
AcDbEntity
  8
0
  6
Continuous
 62
     7
100
AcDbCircle
 10
4159.205385802056
 20
-1459.034055341378
 30
0.0
 40
4.000000001
100
AcDbArc
 50
90.50000000000457
 51
180.0
  0
ARC
  5
1DA
330
2
100
AcDbEntity
  8
0
  6
Continuous
 62
     7
100
AcDbCircle
 10
4233.705385803536
 20
-1459.034055341378
 30
0.0
 40
4.000000001
100
AcDbArc
 50
0.0
 51
89.49999999999539
  0
ARC
  5
1DB
102
{ACAD_REACTORS
330
24F
102
}
330
2
100
AcDbEntity
  8
0
  6
Continuous
 62
     7
100
AcDbCircle
 10
4155.705385733237
 20
-1547.753188301538
 30
0.0
 40
0.5000000007600001
100
AcDbArc
 50
180.0000000696974
 51
269.5000079847949
  0
ARC
  5
1DC
330
2
100
AcDbEntity
  8
0
  6
Continuous
 62
     7
100
AcDbCircle
 10
4237.205385973957
 20
-1547.753188298998
 30
0.0
 40
0.5000000007600001
100
AcDbArc
 50
270.499980380103
 51
0.0
  0
SPLINE
  5
1DD
330
2
100
AcDbEntity
  8
0
  6
Continuous
 62
     7
100
AcDbSpline
210
0.0
220
0.0
230
1.0
 70
     8
 71
     3
 72
    51
 73
    47
 74
     0
 42
0.0000000001
 43
0.0000000001
 40
0.0
 40
0.0
 40
0.0
 40
0.0
 40
0.0002642015
 40
0.0008021315
 40
0.00162168
 40
0.0027251904
 40
0.0041139516
 40
0.0057889119
 40
0.010000556
 40
0.0153659288
 40
0.0218903616
 40
0.0295790197
 40
0.0384328442
 40
0.0484314256
 40
0.0595474982
 40
0.0850177909
 40
0.1145217914
 40
0.1476515368
 40
0.1840273794
 40
0.2232956226
 40
0.265135995
 40
0.3092383851
 40
0.4026801891
 40
0.5000520791
 40
0.5974184543
 40
0.690841913
 40
0.734935265
 40
0.7767720164
 40
0.8160428156
 40
0.8524250221999999
 40
0.8855578844
 40
0.9150575885
 40
0.9405167049999999
 40
0.9516251888999999
 40
0.9616154288999998
 40
0.9704606153
 40
0.9781407562
 40
0.9846571133000001
 40
0.9900151580999999
 40
0.9942205283999999
 40
0.9958928429
 40
0.9972793367999999
 40
0.9983809965
 40
0.9991991492
 40
0.9997361761
 40
1.0
 40
1.0
 40
1.0
 40
1.0
 10
4033.972805073916
 20
-1471.617165176378
 30
0.0
 10
4033.974527800974
 20
-1471.619451415138
 30
0.0
 10
4033.975260542717
 20
-1471.628725590138
 30
0.0
 10
4033.976262974035
 20
-1471.645818461718
 30
0.0
 10
4033.975496064218
 20
-1471.672724394698
 30
0.0
 10
4033.973826722877
 20
-1471.708467180717
 30
0.0
 10
4033.970777706875
 20
-1471.753557804278
 30
0.0
 10
4033.964576159717
 20
-1471.832124906478
 30
0.0
 10
4033.953306040014
 20
-1471.953535260558
 30
0.0
 10
4033.935523634634
 20
-1472.127082284558
 30
0.0
 10
4033.912476774457
 20
-1472.337963470618
 30
0.0
 10
4033.884132825557
 20
-1472.586282092598
 30
0.0
 10
4033.850469009215
 20
-1472.871879298898
 30
0.0
 10
4033.811541751535
 20
-1473.194247577198
 30
0.0
 10
4033.749878362036
 20
-1473.695217212797
 30
0.0
 10
4033.660306239936
 20
-1474.405686607198
 30
0.0
 10
4033.538375874194
 20
-1475.352479615817
 30
0.0
 10
4033.399141062496
 20
-1476.416179642338
 30
0.0
 10
4033.244213569457
 20
-1477.584522174838
 30
0.0
 10
4033.075110117976
 20
-1478.846189773418
 30
0.0
 10
4032.893249762877
 20
-1480.190612583678
 30
0.0
 10
4032.630613399657
 20
-1482.116426514618
 30
0.0
 10
4032.282885291456
 20
-1484.637890328678
 30
0.0
 10
4031.850929099236
 20
-1487.730313290378
 30
0.0
 10
4031.413787044896
 20
-1490.821806698438
 30
0.0
 10
4031.053081401057
 20
-1493.341086671298
 30
0.0
 10
4030.774761980556
 20
-1495.264357246898
 30
0.0
 10
4030.579017606996
 20
-1496.606718232478
 30
0.0
 10
4030.393796207056
 20
-1497.866178558358
 30
0.0
 10
4030.220660426837
 20
-1499.032093750018
 30
0.0
 10
4030.061293366855
 20
-1500.093021056658
 30
0.0
 10
4029.917543133656
 20
-1501.036612232718
 30
0.0
 10
4029.807845829557
 20
-1501.744000833178
 30
0.0
 10
4029.729074762816
 20
-1502.242269503897
 30
0.0
 10
4029.677675170415
 20
-1502.562616059037
 30
0.0
 10
4029.631353667934
 20
-1502.846155342098
 30
0.0
 10
4029.590194128717
 20
-1503.092396754618
 30
0.0
 10
4029.554260555676
 20
-1503.301205066998
 30
0.0
 10
4029.523554383916
 20
-1503.472698574658
 30
0.0
 10
4029.500950708015
 20
-1503.592338269338
 30
0.0
 10
4029.485276124177
 20
-1503.669451648258
 30
0.0
 10
4029.475790903116
 20
-1503.713563579337
 30
0.0
 10
4029.467554620377
 20
-1503.748323425998
 30
0.0
 10
4029.460883678677
 20
-1503.774353381558
 30
0.0
 10
4029.455216323996
 20
-1503.790481152198
 30
0.0
 10
4029.451958009455
 20
-1503.799178419538
 30
0.0
 10
4029.449675113337
 20
-1503.800898781858
 30
0.0
  0
SPLINE
  5
1DE
330
2
100
AcDbEntity
  8
0
  6
Continuous
 62
     7
100
AcDbSpline
210
0.0
220
0.0
230
1.0
 70
     8
 71
     3
 72
     8
 73
     4
 74
     0
 42
0.0000000001
 43
0.0000000001
 40
0.0
 40
0.0
 40
0.0
 40
0.0
 40
1.0
 40
1.0
 40
1.0
 40
1.0
 10
4092.414264482356
 20
-1497.847971556418
 30
0.0
 10
4092.428971884997
 20
-1498.147524896858
 30
0.0
 10
4092.447965042333
 20
-1498.410263548418
 30
0.0
 10
4092.471550189477
 20
-1498.637028881018
 30
0.0
  0
SPLINE
  5
1DF
330
2
100
AcDbEntity
  8
0
  6
Continuous
 62
     7
100
AcDbSpline
210
0.0
220
0.0
230
1.0
 70
     8
 71
     3
 72
    11
 73
     7
 74
     0
 42
0.0000000001
 43
0.0000000001
 40
0.0
 40
0.0
 40
0.0
 40
0.0
 40
0.2133325267
 40
0.4266650534
 40
0.7133325267
 40
1.0
 40
1.0
 40
1.0
 40
1.0
 10
4092.471550189477
 20
-1498.637028881018
 30
0.0
 10
4092.373282707575
 20
-1498.467459918658
 30
0.0
 10
4092.152654898897
 20
-1498.123920135838
 30
0.0
 10
4091.688800726276
 20
-1497.528634440458
 30
0.0
 10
4091.134454067637
 20
-1496.861533232118
 30
0.0
 10
4090.740658822716
 20
-1496.377874903018
 30
0.0
 10
4090.542483595497
 20
-1496.135728869658
 30
0.0
  0
LINE
  5
1E0
330
2
100
AcDbEntity
  8
0
  6
Continuous
 62
     7
100
AcDbLine
 10
4089.926724192016
 20
-1498.875324739198
 30
0.0
 11
4089.964592698954
 21
-1499.549486786858
 31
0.0
  0
SPLINE
  5
1E1
330
2
100
AcDbEntity
  8
0
  6
Continuous
 62
     7
100
AcDbSpline
210
0.0
220
0.0
230
1.0
 70
     8
 71
     3
 72
    10
 73
     6
 74
     0
 42
0.0000000001
 43
0.0000000001
 40
0.0
 40
0.0
 40
0.0
 40
0.0
 40
0.2398803403
 40
0.6199401701000001
 40
1.0
 40
1.0
 40
1.0
 40
1.0
 10
4089.964592698954
 20
-1499.549486786858
 30
0.0
 10
4089.835856418456
 20
-1499.344795184558
 30
0.0
 10
4089.467048230495
 20
-1498.820407881797
 30
0.0
 10
4088.843934617693
 20
-1497.973795597378
 30
0.0
 10
4088.377804081836
 20
-1497.330467254878
 30
0.0
 10
4088.143800015934
 20
-1497.008778294498
 30
0.0
  0
LINE
  5
1E2
330
2
100
AcDbEntity
  8
0
  6
Continuous
 62
     7
100
AcDbLine
 10
4090.418404156077
 20
-1499.905512297818
 30
0.0
 11
4090.369505942977
 21
-1497.085774635298
 31
0.0
  0
SPLINE
  5
1E3
330
2
100
AcDbEntity
  8
0
  6
Continuous
 62
     7
100
AcDbSpline
210
0.0
220
0.0
230
1.0
 70
     8
 71
     3
 72
     8
 73
     4
 74
     0
 42
0.0000000001
 43
0.0000000001
 40
0.0
 40
0.0
 40
0.0
 40
0.0
 40
1.0
 40
1.0
 40
1.0
 40
1.0
 10
4090.369505942977
 20
-1497.085774635298
 30
0.0
 10
4090.368093596295
 20
-1496.965278960618
 30
0.0
 10
4090.361107580296
 20
-1496.822991124798
 30
0.0
 10
4090.348670284875
 20
-1496.656008080558
 30
0.0
  0
SPLINE
  5
1E4
330
2
100
AcDbEntity
  8
0
  6
Continuous
 62
     7
100
AcDbSpline
210
0.0
220
0.0
230
1.0
 70
     8
 71
     3
 72
    15
 73
    11
 74
     0
 42
0.0000000001
 43
0.0000000001
 40
0.0
 40
0.0
 40
0.0
 40
0.0
 40
0.100414206
 40
0.1506213091
 40
0.2008284121
 40
0.3007248606
 40
0.4006213091000002
 40
0.6004142060000001
 40
0.8002071029999997
 40
1.0
 40
1.0
 40
1.0
 40
1.0
 10
4090.348670284875
 20
-1496.656008080558
 30
0.0
 10
4090.363644539915
 20
-1496.677713625157
 30
0.0
 10
4090.409193328674
 20
-1496.736615508878
 30
0.0
 10
4090.512740413936
 20
-1496.865907378817
 30
0.0
 10
4090.650173707777
 20
-1497.036388803158
 30
0.0
 10
4090.839634705536
 20
-1497.271354830558
 30
0.0
 10
4091.132461412237
 20
-1497.634540365298
 30
0.0
 10
4091.501926855676
 20
-1498.092769306598
 30
0.0
 10
4091.943806965057
 20
-1498.640814547818
 30
0.0
 10
4092.238675308516
 20
-1499.006526516418
 30
0.0
 10
4092.386074279657
 20
-1499.189338942258
 30
0.0
  0
LINE
  5
1E5
330
2
100
AcDbEntity
  8
0
  6
Continuous
 62
     7
100
AcDbLine
 10
4092.283194942615
 20
-1495.502161754777
 30
0.0
 11
4092.414264482356
 21
-1497.847971556418
 31
0.0
  0
SPLINE
  5
1E6
330
2
100
AcDbEntity
  8
0
  6
Continuous
 62
     7
100
AcDbSpline
210
0.0
220
0.0
230
1.0
 70
     8
 71
     3
 72
     8
 73
     4
 74
     0
 42
0.0000000001
 43
0.0000000001
 40
0.0
 40
0.0
 40
0.0
 40
0.0
 40
1.0
 40
1.0
 40
1.0
 40
1.0
 10
4094.643698860156
 20
-1495.745435781818
 30
0.0
 10
4094.662798621297
 20
-1495.503134412218
 30
0.0
 10
4094.659422913037
 20
-1495.267107779878
 30
0.0
 10
4094.634919063136
 20
-1495.037818327358
 30
0.0
  0
SPLINE
  5
1E7
330
2
100
AcDbEntity
  8
0
  6
Continuous
 62
     7
100
AcDbSpline
210
0.0
220
0.0
230
1.0
 70
     8
 71
     3
 72
    11
 73
     7
 74
     0
 42
0.0000000001
 43
0.0000000001
 40
0.0
 40
0.0
 40
0.0
 40
0.0
 40
0.2384157512
 40
0.4768315024
 40
0.7384157512
 40
1.0
 40
1.0
 40
1.0
 40
1.0
 10
4094.634919063136
 20
-1495.037818327358
 30
0.0
 10
4094.698459657417
 20
-1495.115215271878
 30
0.0
 10
4094.849894213575
 20
-1495.287138646598
 30
0.0
 10
4095.175579294997
 20
-1495.620293263498
 30
0.0
 10
4095.551622594217
 20
-1495.994225627138
 30
0.0
 10
4095.801701377776
 20
-1496.244869934078
 30
0.0
 10
4095.927771176437
 20
-1496.370970545478
 30
0.0
  0
SPLINE
  5
1E8
330
2
100
AcDbEntity
  8
0
  6
Continuous
 62
     7
100
AcDbSpline
210
0.0
220
0.0
230
1.0
 70
     8
 71
     3
 72
    25
 73
    21
 74
     0
 42
0.0000000001
 43
0.0000000001
 40
0.0
 40
0.0
 40
0.0
 40
0.0
 40
0.000557919
 40
0.0016965645
 40
0.0057412546
 40
0.0121211511
 40
0.0208186381
 40
0.0318251152
 40
0.0451326936
 40
0.0607360709
 40
0.0786288066
 40
0.1210450874
 40
0.1716823717
 40
0.2300765912
 40
0.2959014779
 40
0.3685233649000001
 40
0.4471827676000001
 40
0.6192836613
 40
0.8059573693999999
 40
1.0
 40
1.0
 40
1.0
 40
1.0
 10
4028.144126322356
 20
-1548.312298107878
 30
0.0
 10
4028.145022589296
 20
-1548.311399313638
 30
0.0
 10
4028.149068347015
 20
-1548.310532180497
 30
0.0
 10
4028.161588979838
 20
-1548.308100996637
 30
0.0
 10
4028.188158710796
 20
-1548.306036637038
 30
0.0
 10
4028.231377918235
 20
-1548.303125222998
 30
0.0
 10
4028.290743649137
 20
-1548.300444545098
 30
0.0
 10
4028.365763694676
 20
-1548.297641197898
 30
0.0
 10
4028.456548727734
 20
-1548.294897065718
 30
0.0
 10
4028.562991557776
 20
-1548.292168165918
 30
0.0
 10
4028.735657460855
 20
-1548.288381079258
 30
0.0
 10
4028.988028223576
 20
-1548.283938385578
 30
0.0
 10
4029.332547646297
 20
-1548.279053218817
 30
0.0
 10
4029.730330686136
 20
-1548.274453911278
 30
0.0
 10
4030.178136628216
 20
-1548.270214465858
 30
0.0
 10
4030.672052135177
 20
-1548.266367943198
 30
0.0
 10
4031.407752360497
 20
-1548.261685224598
 30
0.0
 10
4032.402932927914
 20
-1548.257141809758
 30
0.0
 10
4033.660623605316
 20
-1548.253905219838
 30
0.0
 10
4034.526777565154
 20
-1548.253169168478
 30
0.0
 10
4034.968236834635
 20
-1548.253169262458
 30
0.0
  0
SPLINE
  5
1E9
330
2
100
AcDbEntity
  8
0
  6
Continuous
 62
     7
100
AcDbSpline
210
0.0
220
0.0
230
1.0
 70
     8
 71
     3
 72
     9
 73
     5
 74
     0
 42
0.0000000001
 43
0.0000000001
 40
0.0
 40
0.0
 40
0.0
 40
0.0
 40
0.2505070057
 40
1.0
 40
1.0
 40
1.0
 40
1.0
 10
4113.726995699837
 20
-1547.753188301538
 30
0.0
 10
4113.909773421656
 20
-1546.749724428358
 30
0.0
 10
4114.636857047496
 20
-1542.743660436438
 30
0.0
 10
4115.322934814275
 20
-1538.729115498818
 30
0.0
 10
4115.759420649456
 20
-1535.708827203618
 30
0.0
  0
SPLINE
  5
1EA
330
2
100
AcDbEntity
  8
0
  6
Continuous
 62
     7
100
AcDbSpline
210
0.0
220
0.0
230
1.0
 70
     8
 71
     3
 72
    24
 73
    20
 74
     0
 42
0.0000000001
 43
0.0000000001
 40
0.0
 40
0.0
 40
0.0
 40
0.0
 40
0.0016482562
 40
0.0056788792
 40
0.0120568154
 40
0.0207603975
 40
0.0317774694
 40
0.0450974922
 40
0.0607134337
 40
0.0786174154
 40
0.1210532757
 40
0.1717130516
 40
0.2301279651
 40
0.2959608779
 40
0.3685803279
 40
0.4472330419
 40
0.6193142919
 40
0.8059682886
 40
1.0
 40
1.0
 40
1.0
 40
1.0
 10
4027.644145361437
 20
-1547.812317146958
 30
0.0
 10
4027.647700058415
 20
-1547.814203592258
 30
0.0
 10
4027.662384296255
 20
-1547.813188242497
 30
0.0
 10
4027.691086618836
 20
-1547.815872900578
 30
0.0
 10
4027.738124375915
 20
-1547.815805105438
 30
0.0
 10
4027.801678658256
 20
-1547.816844666477
 30
0.0
 10
4027.882408776195
 20
-1547.817176144098
 30
0.0
 10
4027.979932279396
 20
-1547.817535101978
 30
0.0
 10
4028.094300257417
 20
-1547.817612919958
 30
0.0
 10
4028.279744326454
 20
-1547.817408556638
 30
0.0
 10
4028.550752130897
 20
-1547.816426071938
 30
0.0
 10
4028.920661307256
 20
-1547.814397152958
 30
0.0
 10
4029.347691456496
 20
-1547.811491319298
 30
0.0
 10
4029.828331777917
 20
-1547.807794745538
 30
0.0
 10
4030.358378464835
 20
-1547.803321780138
 30
0.0
 10
4031.147818270254
 20
-1547.796135363217
 30
0.0
 10
4032.215654059394
 20
-1547.785373561018
 30
0.0
 10
4033.565157169377
 20
-1547.770118605497
 30
0.0
 10
4034.494543984717
 20
-1547.759239508638
 30
0.0
 10
4034.968236834635
 20
-1547.753188301538
 30
0.0
  0
SPLINE
  5
1EB
330
2
100
AcDbEntity
  8
0
  6
Continuous
 62
     7
100
AcDbSpline
210
0.0
220
0.0
230
1.0
 70
     8
 71
     3
 72
    12
 73
     8
 74
     0
 42
0.0000000001
 43
0.0000000001
 40
0.0
 40
0.0
 40
0.0
 40
0.0
 40
0.2499430116
 40
0.3749372435
 40
0.4999284508
 40
0.7499292546
 40
1.0
 40
1.0
 40
1.0
 40
1.0
 10
4028.840935584057
 20
-1532.765772622378
 30
0.0
 10
4028.737623395456
 20
-1531.719636896518
 30
0.0
 10
4028.606833857696
 20
-1530.147900034918
 30
0.0
 10
4028.466335258836
 20
-1528.049964794677
 30
0.0
 10
4028.344715502075
 20
-1525.950585630478
 30
0.0
 10
4028.239091103215
 20
-1523.323455850458
 30
0.0
 10
4028.212764749976
 20
-1521.220148200337
 30
0.0
 10
4028.209779574336
 20
-1520.168390509597
 30
0.0
  0
SPLINE
  5
1EC
330
2
100
AcDbEntity
  8
0
  6
Continuous
 62
     7
100
AcDbSpline
210
0.0
220
0.0
230
1.0
 70
     8
 71
     3
 72
    13
 73
     9
 74
     0
 42
0.0000000001
 43
0.0000000001
 40
0.0
 40
0.0
 40
0.0
 40
0.0
 40
0.1321764666
 40
0.2626554066
 40
0.3906964478999999
 40
0.5163599724
 40
0.7611622669
 40
1.0
 40
1.0
 40
1.0
 40
1.0
 10
4032.935811882476
 20
-1535.708827203618
 30
0.0
 10
4032.703646428597
 20
-1535.708827203618
 30
0.0
 10
4032.241007170997
 20
-1535.655421326178
 30
0.0
 10
4031.585382548796
 20
-1535.440849281358
 30
0.0
 10
4030.985541876495
 20
-1535.125961493557
 30
0.0
 10
4030.272007586017
 20
-1534.614632600038
 30
0.0
 10
4029.519988571894
 20
-1533.841237179598
 30
0.0
 10
4029.045394616335
 20
-1533.131683206278
 30
0.0
 10
4028.840208387136
 20
-1532.765772617298
 30
0.0
  0
SPLINE
  5
1ED
330
2
100
AcDbEntity
  8
0
  6
Continuous
 62
     7
100
AcDbSpline
210
0.0
220
0.0
230
1.0
 70
     8
 71
     3
 72
     8
 73
     4
 74
     0
 42
0.0000000001
 43
0.0000000001
 40
0.0
 40
0.0
 40
0.0
 40
0.0
 40
1.0
 40
1.0
 40
1.0
 40
1.0
 10
4121.022235821036
 20
-1520.168390509597
 30
0.0
 10
4121.022235821036
 20
-1529.383037739398
 30
0.0
 10
4121.036438439316
 20
-1538.597681557978
 30
0.0
 10
4121.051087170496
 20
-1547.812317146958
 30
0.0
  0
SPLINE
  5
1EE
330
2
100
AcDbEntity
  8
0
  6
Continuous
 62
     7
100
AcDbSpline
210
0.0
220
0.0
230
1.0
 70
     8
 71
     3
 72
    10
 73
     6
 74
     0
 42
0.0000000001
 43
0.0000000001
 40
0.0
 40
0.0
 40
0.0
 40
0.0
 40
0.2502676817
 40
0.5006092560000001
 40
1.0
 40
1.0
 40
1.0
 40
1.0
 10
4107.769338847076
 20
-1495.710177302678
 30
0.0
 10
4107.695284461277
 20
-1495.833424498398
 30
0.0
 10
4107.520138319316
 20
-1496.064756044878
 30
0.0
 10
4107.086900755517
 20
-1496.446456465118
 30
0.0
 10
4106.694115607637
 20
-1496.642082218138
 30
0.0
 10
4106.424507472737
 20
-1496.740211554518
 30
0.0
  0
SPLINE
  5
1EF
330
2
100
AcDbEntity
  8
0
  6
Continuous
 62
     7
100
AcDbSpline
210
0.0
220
0.0
230
1.0
 70
     8
 71
     3
 72
    10
 73
     6
 74
     0
 42
0.0000000001
 43
0.0000000001
 40
0.0
 40
0.0
 40
0.0
 40
0.0
 40
0.4994340384000001
 40
0.7497592275000004
 40
1.0
 40
1.0
 40
1.0
 40
1.0
 10
4108.047445067596
 20
-1494.039190200157
 30
0.0
 10
4108.087378828217
 20
-1494.323333673018
 30
0.0
 10
4108.099011380517
 20
-1494.761993806618
 30
0.0
 10
4107.965438533616
 20
-1495.323732774578
 30
0.0
 10
4107.843385287758
 20
-1495.586943332738
 30
0.0
 10
4107.769338847076
 20
-1495.710177302678
 30
0.0
  0
SPLINE
  5
1F0
330
2
100
AcDbEntity
  8
0
  6
Continuous
 62
     7
100
AcDbSpline
210
0.0
220
0.0
230
1.0
 70
     8
 71
     3
 72
    10
 73
     6
 74
     0
 42
0.0000000001
 43
0.0000000001
 40
0.0
 40
0.0
 40
0.0
 40
0.0
 40
0.2502676817
 40
0.5006092560000001
 40
1.0
 40
1.0
 40
1.0
 40
1.0
 10
4040.925893684856
 20
-1495.710177302678
 30
0.0
 10
4040.851839299054
 20
-1495.586930104418
 30
0.0
 10
4040.729811798636
 20
-1495.323681659618
 30
0.0
 10
4040.596183048875
 20
-1494.761958099298
 30
0.0
 10
4040.607857216537
 20
-1494.323308671798
 30
0.0
 10
4040.647787507515
 20
-1494.039189885197
 30
0.0
  0
SPLINE
  5
1F1
330
2
100
AcDbEntity
  8
0
  6
Continuous
 62
     7
100
AcDbSpline
210
0.0
220
0.0
230
1.0
 70
     8
 71
     3
 72
    10
 73
     6
 74
     0
 42
0.0000000001
 43
0.0000000001
 40
0.0
 40
0.0
 40
0.0
 40
0.0
 40
0.4994340384000001
 40
0.7497592275000004
 40
1.0
 40
1.0
 40
1.0
 40
1.0
 10
4042.270724762015
 20
-1496.740211445298
 30
0.0
 10
4042.001093203237
 20
-1496.642073584678
 30
0.0
 10
4041.608318141697
 20
-1496.446406058818
 30
0.0
 10
4041.175040722754
 20
-1496.064747764477
 30
0.0
 10
4040.999940122997
 20
-1495.833411270077
 30
0.0
 10
4040.925893684856
 20
-1495.710177302678
 30
0.0
  0
SPLINE
  5
1F2
330
2
100
AcDbEntity
  8
0
  6
Continuous
 62
     7
100
AcDbSpline
210
0.0
220
0.0
230
1.0
 70
     8
 71
     3
 72
    15
 73
    11
 74
     0
 42
0.0000000001
 43
0.0000000001
 40
0.0
 40
0.0
 40
0.0
 40
0.0
 40
0.1186310247
 40
0.2377883208
 40
0.3579103875
 40
0.4795687949000003
 40
0.6038643464
 40
0.7319056117000004
 40
0.8642681501
 40
1.0
 40
1.0
 40
1.0
 40
1.0
 10
4118.444784791036
 20
-1504.279884948598
 30
0.0
 10
4118.356422481094
 20
-1504.108757454937
 30
0.0
 10
4118.168642308017
 20
-1503.770985913058
 30
0.0
 10
4117.841612398197
 20
-1503.289552893198
 30
0.0
 10
4117.461565924354
 20
-1502.841903844377
 30
0.0
 10
4117.021123277176
 20
-1502.439668253118
 30
0.0
 10
4116.505117197176
 20
-1502.112302857556
 30
0.0
 10
4115.913630762675
 20
-1501.895558000217
 30
0.0
 10
4115.266933902655
 20
-1501.825168321338
 30
0.0
 10
4114.831058531076
 20
-1501.908753800598
 30
0.0
 10
4114.623990786717
 20
-1501.984120297058
 30
0.0
  0
SPLINE
  5
1F3
330
2
100
AcDbEntity
  8
0
  6
Continuous
 62
     7
100
AcDbSpline
210
0.0
220
0.0
230
1.0
 70
     8
 71
     3
 72
    11
 73
     7
 74
     0
 42
0.0000000001
 43
0.0000000001
 40
0.0
 40
0.0
 40
0.0
 40
0.0
 40
0.2623532162
 40
0.5155018739
 40
0.7604386348000001
 40
1.0
 40
1.0
 40
1.0
 40
1.0
 10
4118.246319483116
 20
-1533.976776395438
 30
0.0
 10
4118.429978122655
 20
-1533.976772923258
 30
0.0
 10
4118.793278836235
 20
-1533.886360571698
 30
0.0
 10
4119.236908995456
 20
-1533.580862935298
 30
0.0
 10
4119.587147990176
 20
-1533.197340143798
 30
0.0
 10
4119.772948309456
 20
-1532.912018885637
 30
0.0
 10
4119.855024147336
 20
-1532.765772614758
 30
0.0
  0
SPLINE
  5
1F4
330
2
100
AcDbEntity
  8
0
  6
Continuous
 62
     7
100
AcDbSpline
210
0.0
220
0.0
230
1.0
 70
     8
 71
     3
 72
    14
 73
    10
 74
     0
 42
0.0000000001
 43
0.0000000001
 40
0.0
 40
0.0
 40
0.0
 40
0.0
 40
0.1321318212
 40
0.2625640757
 40
0.3905554259
 40
0.5161921058
 40
0.6396548575
 40
0.7612564092000002
 40
1.0
 40
1.0
 40
1.0
 40
1.0
 10
4115.759420649456
 20
-1535.708827203618
 30
0.0
 10
4115.991587673057
 20
-1535.708827203618
 30
0.0
 10
4116.454220575577
 20
-1535.655317823718
 30
0.0
 10
4117.109786008156
 20
-1535.440575814798
 30
0.0
 10
4117.709518522177
 20
-1535.125516223938
 30
0.0
 10
4118.249702897736
 20
-1534.738878460258
 30
0.0
 10
4118.731937401896
 20
-1534.298879685698
 30
0.0
 10
4119.295793073777
 20
-1533.661263236778
 30
0.0
 10
4119.649848108616
 20
-1533.131665032578
 30
0.0
 10
4119.855024147336
 20
-1532.765772614758
 30
0.0
  0
SPLINE
  5
1F5
330
2
100
AcDbEntity
  8
0
  6
Continuous
 62
     7
100
AcDbSpline
210
0.0
220
0.0
230
1.0
 70
     8
 71
     3
 72
    24
 73
    20
 74
     0
 42
0.0000000001
 43
0.0000000001
 40
0.0
 40
0.0
 40
0.0
 40
0.0
 40
0.1940317387
 40
0.3806857699
 40
0.5527668215000002
 40
0.6314193128
 40
0.7040388777
 40
0.7698717399
 40
0.8282866666
 40
0.8789466814
 40
0.9213825708999999
 40
0.9392865412
 40
0.954902487
 40
0.9682225213999997
 40
0.9792396019999999
 40
0.9879431863
 40
0.9943211172999999
 40
0.9983517337
 40
1.0
 40
1.0
 40
1.0
 40
1.0
 10
4113.726995699837
 20
-1547.753188301538
 30
0.0
 10
4114.200688615795
 20
-1547.759239546738
 30
0.0
 10
4115.130075580997
 20
-1547.770118587717
 30
0.0
 10
4116.479578358236
 20
-1547.785373573718
 30
0.0
 10
4117.547413199956
 20
-1547.796135363217
 30
0.0
 10
4118.336852261156
 20
-1547.803321663298
 30
0.0
 10
4118.866898559455
 20
-1547.807794712518
 30
0.0
 10
4119.347539068836
 20
-1547.811491443758
 30
0.0
 10
4119.774569710837
 20
-1547.814397185978
 30
0.0
 10
4120.144479572997
 20
-1547.816425993198
 30
0.0
 10
4120.415488004815
 20
-1547.817408546478
 30
0.0
 10
4120.600932127197
 20
-1547.817612930117
 30
0.0
 10
4120.715300117916
 20
-1547.817535112138
 30
0.0
 10
4120.812823684617
 20
-1547.817176151718
 30
0.0
 10
4120.893553845735
 20
-1547.816844658858
 30
0.0
 10
4120.957108166177
 20
-1547.815805133378
 30
0.0
 10
4121.004145844516
 20
-1547.815872837078
 30
0.0
 10
4121.032848268697
 20
-1547.813188336478
 30
0.0
 10
4121.047532394777
 20
-1547.814203490658
 30
0.0
 10
4121.051087170496
 20
-1547.812317146958
 30
0.0
  0
SPLINE
  5
1F6
330
2
100
AcDbEntity
  8
0
  6
Continuous
 62
     7
100
AcDbSpline
210
0.0
220
0.0
230
1.0
 70
     8
 71
     3
 72
    12
 73
     8
 74
     0
 42
0.0000000001
 43
0.0000000001
 40
0.0
 40
0.0
 40
0.0
 40
0.0
 40
0.2500707454
 40
0.5000715491
 40
0.6250627565000002
 40
0.7500569884
 40
1.0
 40
1.0
 40
1.0
 40
1.0
 10
4120.485452960135
 20
-1520.168390509597
 30
0.0
 10
4120.482467858155
 20
-1521.220148200337
 30
0.0
 10
4120.456141456656
 20
-1523.323455850458
 30
0.0
 10
4120.350517001916
 20
-1525.950585630478
 30
0.0
 10
4120.228897288335
 20
-1528.049964794677
 30
0.0
 10
4120.088398707255
 20
-1530.147900037458
 30
0.0
 10
4119.957609139015
 20
-1531.719636896518
 30
0.0
 10
4119.854296950416
 20
-1532.765772622378
 30
0.0
  0
SPLINE
  5
1F7
330
2
100
AcDbEntity
  8
0
  6
Continuous
 62
     7
100
AcDbSpline
210
0.0
220
0.0
230
1.0
 70
     8
 71
     3
 72
    14
 73
    10
 74
     0
 42
0.0000000001
 43
0.0000000001
 40
0.0
 40
0.0
 40
0.0
 40
0.0
 40
0.2376546068
 40
0.3577868321
 40
0.4794567197000001
 40
0.6037229831000001
 40
0.7317664666
 40
0.8642068473
 40
1.0
 40
1.0
 40
1.0
 40
1.0
 10
4030.250447740896
 20
-1504.279884948598
 30
0.0
 10
4030.427484925556
 20
-1503.937024636098
 30
0.0
 10
4030.731375293135
 20
-1503.437303992158
 30
0.0
 10
4031.235179909097
 20
-1502.841928238538
 30
0.0
 10
4031.675267857976
 20
-1502.439251936958
 30
0.0
 10
4032.189635282374
 20
-1502.109419497818
 30
0.0
 10
4032.780941229557
 20
-1501.890941824538
 30
0.0
 10
4033.428548288417
 20
-1501.823101927198
 30
0.0
 10
4033.864056878916
 20
-1501.908711171778
 30
0.0
 10
4034.071241745215
 20
-1501.984120297058
 30
0.0
  0
SPLINE
  5
1F8
330
2
100
AcDbEntity
  8
0
  6
Continuous
 62
     7
100
AcDbSpline
210
0.0
220
0.0
230
1.0
 70
     8
 71
     3
 72
    13
 73
     9
 74
     0
 42
0.0000000001
 43
0.0000000001
 40
0.0
 40
0.0
 40
0.0
 40
0.0
 40
0.2496655265
 40
0.374854754
 40
0.4999996439000002
 40
0.6251444583
 40
0.750334293
 40
1.0
 40
1.0
 40
1.0
 40
1.0
 10
4038.737390462176
 20
-1495.187072527198
 30
0.0
 10
4038.697465568696
 20
-1495.471152908997
 30
0.0
 10
4038.685984240376
 20
-1495.909656738618
 30
0.0
 10
4038.819222576897
 20
-1496.471704773777
 30
0.0
 10
4039.002649377938
 20
-1496.865777650858
 30
0.0
 10
4039.264481752416
 20
-1497.212740477378
 30
0.0
 10
4039.698189274638
 20
-1497.594249589898
 30
0.0
 10
4040.090756170477
 20
-1497.789977737938
 30
0.0
 10
4040.360328057037
 20
-1497.888093879018
 30
0.0
  0
SPLINE
  5
1F9
330
2
100
AcDbEntity
  8
0
  6
Continuous
 62
     7
100
AcDbSpline
210
0.0
220
0.0
230
1.0
 70
     8
 71
     3
 72
     8
 73
     4
 74
     0
 42
0.0000000001
 43
0.0000000001
 40
0.0
 40
0.0
 40
0.0
 40
0.0
 40
1.0
 40
1.0
 40
1.0
 40
1.0
 10
4027.644145361437
 20
-1547.812317146958
 30
0.0
 10
4027.658794092616
 20
-1538.597681557978
 30
0.0
 10
4027.672996713436
 20
-1529.383037739398
 30
0.0
 10
4027.672996713436
 20
-1520.168390509597
 30
0.0
  0
SPLINE
  5
1FA
330
2
100
AcDbEntity
  8
0
  6
Continuous
 62
     7
100
AcDbSpline
210
0.0
220
0.0
230
1.0
 70
     8
 71
     3
 72
    13
 73
     9
 74
     0
 42
0.0000000001
 43
0.0000000001
 40
0.0
 40
0.0
 40
0.0
 40
0.0
 40
0.2496655265
 40
0.374854754
 40
0.4999996439000002
 40
0.6251444583
 40
0.750334293
 40
1.0
 40
1.0
 40
1.0
 40
1.0
 10
4108.334904774615
 20
-1497.888093769798
 30
0.0
 10
4108.604476465597
 20
-1497.789977699838
 30
0.0
 10
4108.997042523236
 20
-1497.594250029318
 30
0.0
 10
4109.430749875277
 20
-1497.212741993758
 30
0.0
 10
4109.692581904316
 20
-1496.865779731118
 30
0.0
 10
4109.876009045716
 20
-1496.471706285078
 30
0.0
 10
4110.009248248376
 20
-1495.909657594598
 30
0.0
 10
4109.997766950537
 20
-1495.471152799778
 30
0.0
 10
4109.957842026576
 20
-1495.187072212238
 30
0.0
  0
SPLINE
  5
1FB
330
2
100
AcDbEntity
  8
0
  6
Continuous
 62
     7
100
AcDbSpline
210
0.0
220
0.0
230
1.0
 70
     8
 71
     3
 72
     9
 73
     5
 74
     0
 42
0.0000000001
 43
0.0000000001
 40
0.0
 40
0.0
 40
0.0
 40
0.0
 40
0.2493585564
 40
1.0
 40
1.0
 40
1.0
 40
1.0
 10
4032.935811882476
 20
-1535.708827203618
 30
0.0
 10
4033.081034660357
 20
-1536.713704375978
 30
0.0
 10
4033.698073093535
 20
-1540.738600387638
 30
0.0
 10
4034.420535486557
 20
-1544.746265435538
 30
0.0
 10
4034.968236834635
 20
-1547.753188301538
 30
0.0
  0
SPLINE
  5
1FC
330
2
100
AcDbEntity
  8
0
  6
Continuous
 62
     7
100
AcDbSpline
210
0.0
220
0.0
230
1.0
 70
     8
 71
     3
 72
    11
 73
     7
 74
     0
 42
0.0000000001
 43
0.0000000001
 40
0.0
 40
0.0
 40
0.0
 40
0.0
 40
0.2395669322
 40
0.4844748363000001
 40
0.7376384496
 40
1.0
 40
1.0
 40
1.0
 40
1.0
 10
4028.840208387136
 20
-1532.765772617298
 30
0.0
 10
4028.922286168117
 20
-1532.912022350197
 30
0.0
 10
4029.108342524477
 20
-1533.197120827498
 30
0.0
 10
4029.458052312737
 20
-1533.581147044458
 30
0.0
 10
4029.902028176116
 20
-1533.886178273358
 30
0.0
 10
4030.265248496156
 20
-1533.976772923258
 30
0.0
 10
4030.448913051356
 20
-1533.976776395438
 30
0.0
  0
SPLINE
  5
1FD
330
2
100
AcDbEntity
  8
0
  6
Continuous
 62
     7
100
AcDbSpline
210
0.0
220
0.0
230
1.0
 70
     8
 71
     3
 72
    25
 73
    21
 74
     0
 42
0.0000000001
 43
0.0000000001
 40
0.0
 40
0.0
 40
0.0
 40
0.0
 40
0.0005594139
 40
0.0016962705
 40
0.005730021
 40
0.0120902936
 40
0.0207472164
 40
0.0316980983
 40
0.0449460372
 40
0.0604842187
 40
0.0782761522
 40
0.1204410146
 40
0.1708982467
 40
0.2290428573
 40
0.2945594869
 40
0.3669467523
 40
0.4454619845
 40
0.6174985532
 40
0.8046488245
 40
1.0
 40
1.0
 40
1.0
 40
1.0
 10
4028.442688757998
 20
-1548.313785173738
 30
0.0
 10
4028.443549289676
 20
-1548.312924644598
 30
0.0
 10
4028.447408405656
 20
-1548.312078324218
 30
0.0
 10
4028.459360959856
 20
-1548.309742773898
 30
0.0
 10
4028.484687289696
 20
-1548.307738840898
 30
0.0
 10
4028.525861878414
 20
-1548.304936375078
 30
0.0
 10
4028.582372753457
 20
-1548.302342595658
 30
0.0
 10
4028.653768536496
 20
-1548.299635905618
 30
0.0
 10
4028.740184647634
 20
-1548.296985870278
 30
0.0
 10
4028.841475133396
 20
-1548.294352238257
 30
0.0
 10
4029.005671256617
 20
-1548.290687163038
 30
0.0
 10
4029.245832406977
 20
-1548.286378563578
 30
0.0
 10
4029.573783960876
 20
-1548.281658865118
 30
0.0
 10
4029.952543104297
 20
-1548.277187809798
 30
0.0
 10
4030.379016213756
 20
-1548.273051734758
 30
0.0
 10
4030.849809455555
 20
-1548.269292486498
 30
0.0
 10
4031.552330968977
 20
-1548.264689788058
 30
0.0
 10
4032.504518157817
 20
-1548.260164668838
 30
0.0
 10
4033.710881485497
 20
-1548.256820967118
 30
0.0
 10
4034.542992622895
 20
-1548.255944197218
 30
0.0
 10
4034.967968491255
 20
-1548.255845657918
 30
0.0
  0
SPLINE
  5
1FE
330
2
100
AcDbEntity
  8
0
  6
Continuous
 62
     7
100
AcDbSpline
210
0.0
220
0.0
230
1.0
 70
     8
 71
     3
 72
    25
 73
    21
 74
     0
 42
0.0000000001
 43
0.0000000001
 40
0.0
 40
0.0
 40
0.0
 40
0.0
 40
0.1953512091
 40
0.3825014942
 40
0.5545380727
 40
0.6330533205
 40
0.7054405547
 40
0.7709571856000002
 40
0.8291017945999998
 40
0.8795590178999999
 40
0.9217238903
 40
0.9395158022
 40
0.9550539662
 40
0.9683019028
 40
0.9792527862999998
 40
0.9879097092
 40
0.9942699798999999
 40
0.9983037297
 40
0.9994405861
 40
1.0
 40
1.0
 40
1.0
 40
1.0
 10
4113.727264063537
 20
-1548.255845657918
 30
0.0
 10
4114.152240003018
 20
-1548.255944197218
 30
0.0
 10
4114.984351242017
 20
-1548.256820964578
 30
0.0
 10
4116.190714691614
 20
-1548.260164671378
 30
0.0
 10
4117.142901961736
 20
-1548.264689793137
 30
0.0
 10
4117.845423459915
 20
-1548.269292486498
 30
0.0
 10
4118.316216666157
 20
-1548.273051739837
 30
0.0
 10
4118.742689707037
 20
-1548.277187812337
 30
0.0
 10
4119.121448830137
 20
-1548.281658867658
 30
0.0
 10
4119.449400381496
 20
-1548.286378571197
 30
0.0
 10
4119.689561486135
 20
-1548.290687160498
 30
0.0
 10
4119.853757545857
 20
-1548.294352240798
 30
0.0
 10
4119.955047940177
 20
-1548.296985872818
 30
0.0
 10
4120.041464010674
 20
-1548.299635908158
 30
0.0
 10
4120.112859796257
 20
-1548.302342598198
 30
0.0
 10
4120.169370668754
 20
-1548.304936375078
 30
0.0
 10
4120.210545252397
 20
-1548.307738843438
 30
0.0
 10
4120.235871574617
 20
-1548.309742773898
 30
0.0
 10
4120.247824128816
 20
-1548.312078324218
 30
0.0
 10
4120.251683244794
 20
-1548.312924644598
 30
0.0
 10
4120.252543776476
 20
-1548.313785173738
 30
0.0
  0
SPLINE
  5
1FF
330
2
100
AcDbEntity
  8
0
  6
Continuous
 62
     7
100
AcDbSpline
210
0.0
220
0.0
230
1.0
 70
     8
 71
     3
 72
    25
 73
    21
 74
     0
 42
0.0000000001
 43
0.0000000001
 40
0.0
 40
0.0
 40
0.0
 40
0.0
 40
0.1940426588
 40
0.3807164034
 40
0.5528170889
 40
0.6314762828
 40
0.7040983112000001
 40
0.7699231426000001
 40
0.8283173539999999
 40
0.8789548712999998
 40
0.9213711813999999
 40
0.939263904
 40
0.9548672842
 40
0.9681748753
 40
0.9791813668999999
 40
0.9878788607
 40
0.9942587466
 40
0.998303418
 40
0.9994420651
 40
1.0
 40
1.0
 40
1.0
 40
1.0
 10
4113.726995699837
 20
-1548.253169262458
 30
0.0
 10
4114.168455032816
 20
-1548.253169165938
 30
0.0
 10
4115.034609139977
 20
-1548.253905222378
 30
0.0
 10
4116.292299487176
 20
-1548.257141807218
 30
0.0
 10
4117.287479188457
 20
-1548.261685216978
 30
0.0
 10
4118.023178786397
 20
-1548.266367958438
 30
0.0
 10
4118.517094013956
 20
-1548.270214417598
 30
0.0
 10
4118.964900131294
 20
-1548.274453847778
 30
0.0
 10
4119.362683557215
 20
-1548.279053208658
 30
0.0
 10
4119.707203556514
 20
-1548.283938372878
 30
0.0
 10
4119.959574888198
 20
-1548.288381071638
 30
0.0
 10
4120.132240831916
 20
-1548.292168163378
 30
0.0
 10
4120.238683667036
 20
-1548.294897063177
 30
0.0
 10
4120.329468766135
 20
-1548.297641197898
 30
0.0
 10
4120.404488898036
 20
-1548.300444540018
 30
0.0
 10
4120.463854634016
 20
-1548.303125225538
 30
0.0
 10
4120.507073836375
 20
-1548.306036611638
 30
0.0
 10
4120.533643417476
 20
-1548.308101027117
 30
0.0
 10
4120.546164136657
 20
-1548.310532170338
 30
0.0
 10
4120.550209861356
 20
-1548.311399344117
 30
0.0
 10
4120.551106209576
 20
-1548.312298107878
 30
0.0
  0
SPLINE
  5
200
330
2
100
AcDbEntity
  8
0
  6
Continuous
 62
     7
100
AcDbSpline
210
0.0
220
0.0
230
1.0
 70
     8
 71
     3
 72
    23
 73
    19
 74
     0
 42
0.0000000001
 43
0.0000000001
 40
0.0
 40
0.0
 40
0.0
 40
0.0
 40
0.2020366458
 40
0.3925959753
 40
0.5653533089
 40
0.6433645725
 40
0.7149516142
 40
0.7795135294
 40
0.8365582779999998
 40
0.8856221781999998
 40
0.9263055880999999
 40
0.9583082203
 40
0.9709634876999999
 40
0.9813489511
 40
0.9894518207
 40
0.9952614134999999
 40
0.9987703715
 40
1.0
 40
1.0
 40
1.0
 40
1.0
 10
4159.170479661557
 20
-1458.477384135698
 30
0.0
 10
4159.168703236357
 20
-1458.245480827598
 30
0.0
 10
4159.165555175596
 20
-1457.794845795418
 30
0.0
 10
4159.161980714876
 20
-1457.145908007698
 30
0.0
 10
4159.160056608996
 20
-1456.639327992158
 30
0.0
 10
4159.159276701998
 20
-1456.269308907458
 30
0.0
 10
4159.159075518755
 20
-1456.023483023697
 30
0.0
 10
4159.159238543575
 20
-1455.801722004178
 30
0.0
 10
4159.159763373614
 20
-1455.605820475738
 30
0.0
 10
4159.160629074196
 20
-1455.437313279098
 30
0.0
 10
4159.161857791576
 20
-1455.297600556238
 30
0.0
 10
4159.163164799377
 20
-1455.199569093678
 30
0.0
 10
4159.164543247216
 20
-1455.136523093278
 30
0.0
 10
4159.165415915015
 20
-1455.100529096178
 30
0.0
 10
4159.166761538435
 20
-1455.073328215858
 30
0.0
 10
4159.167168923956
 20
-1455.051833201698
 30
0.0
 10
4159.169423364455
 20
-1455.042474546298
 30
0.0
 10
4159.169068269917
 20
-1455.034219965398
 30
0.0
 10
4159.170479661557
 20
-1455.034207648938
 30
0.0
  0
SPLINE
  5
201
330
2
100
AcDbEntity
  8
0
  6
Continuous
 62
     7
100
AcDbSpline
210
0.0
220
0.0
230
1.0
 70
     8
 71
     3
 72
    23
 73
    19
 74
     0
 42
0.0000000001
 43
0.0000000001
 40
0.0
 40
0.0
 40
0.0
 40
0.0
 40
0.0012296285
 40
0.0047385865
 40
0.0105481793
 40
0.0186510489
 40
0.0290365123
 40
0.0416917797
 40
0.0736944119
 40
0.1143778218
 40
0.163441722
 40
0.2204864706
 40
0.2850483858
 40
0.3566354275
 40
0.4346466910000001
 40
0.6074040247000001
 40
0.7979633542000001
 40
1.0
 40
1.0
 40
1.0
 40
1.0
 10
4233.740291944036
 20
-1455.034207648938
 30
0.0
 10
4233.741703333136
 20
-1455.034219965398
 30
0.0
 10
4233.741348238594
 20
-1455.042474546298
 30
0.0
 10
4233.743602679097
 20
-1455.051833201698
 30
0.0
 10
4233.744010067154
 20
-1455.073328215858
 30
0.0
 10
4233.745355688035
 20
-1455.100529096178
 30
0.0
 10
4233.746228358376
 20
-1455.136523093278
 30
0.0
 10
4233.747606806217
 20
-1455.199569093678
 30
0.0
 10
4233.748913811476
 20
-1455.297600556238
 30
0.0
 10
4233.750142531396
 20
-1455.437313279098
 30
0.0
 10
4233.751008231975
 20
-1455.605820475738
 30
0.0
 10
4233.751533062016
 20
-1455.801722004178
 30
0.0
 10
4233.751696086836
 20
-1456.023483023697
 30
0.0
 10
4233.751494903596
 20
-1456.269308907458
 30
0.0
 10
4233.750714996596
 20
-1456.639327992158
 30
0.0
 10
4233.748790890717
 20
-1457.145908007698
 30
0.0
 10
4233.745216427457
 20
-1457.794845795418
 30
0.0
 10
4233.742068369236
 20
-1458.245480827598
 30
0.0
 10
4233.740291944036
 20
-1458.477384135698
 30
0.0
  0
SPLINE
  5
202
102
{ACAD_REACTORS
330
24F
102
}
330
2
100
AcDbEntity
  8
0
  6
Continuous
 62
     7
100
AcDbSpline
210
0.0
220
0.0
230
1.0
 70
     8
 71
     3
 72
    25
 73
    21
 74
     0
 42
0.0000000001
 43
0.0000000001
 40
0.0
 40
0.0
 40
0.0
 40
0.0
 40
0.1952283694
 40
0.3827614876
 40
0.5554015609000002
 40
0.6342216317
 40
0.7069061795999999
 40
0.7727172051000001
 40
0.8310246562000001
 40
0.8814612970999997
 40
0.9235751443999999
 40
0.9412818484
 40
0.9566688306999999
 40
0.9697301737
 40
0.9804624636999999
 40
0.9888575464
 40
0.9949060509999998
 40
0.9985972309999999
 40
0.9995635188000001
 40
1.0
 40
1.0
 40
1.0
 40
1.0
 10
4230.434254542917
 20
-1547.812317146958
 30
0.0
 10
4230.907588422255
 20
-1547.814505186778
 30
0.0
 10
4231.835606726234
 20
-1547.817054005658
 30
0.0
 10
4233.182200431316
 20
-1547.818146568878
 30
0.0
 10
4234.246556583017
 20
-1547.815710023078
 30
0.0
 10
4235.032449016816
 20
-1547.811821247518
 30
0.0
 10
4235.559327312817
 20
-1547.808193942097
 30
0.0
 10
4236.036464473857
 20
-1547.803803971198
 30
0.0
 10
4236.459649713337
 20
-1547.798674431038
 30
0.0
 10
4236.825366210755
 20
-1547.792841542018
 30
0.0
 10
4237.092629425275
 20
-1547.787208492578
 30
0.0
 10
4237.274908466356
 20
-1547.782157550178
 30
0.0
 10
4237.386741156075
 20
-1547.778438553298
 30
0.0
 10
4237.481691692614
 20
-1547.774599897018
 30
0.0
 10
4237.559550967937
 20
-1547.770741891017
 30
0.0
 10
4237.620697472514
 20
-1547.766765947738
 30
0.0
 10
4237.663977144657
 20
-1547.763026455598
 30
0.0
 10
4237.690619283397
 20
-1547.759214624258
 30
0.0
 10
4237.701702700395
 20
-1547.756388975858
 30
0.0
 10
4237.705387145655
 20
-1547.754246567137
 30
0.0
 10
4237.705385801997
 20
-1547.753188301538
 30
0.0
  0
SPLINE
  5
203
330
2
100
AcDbEntity
  8
0
  6
Continuous
 62
     7
100
AcDbSpline
210
0.0
220
0.0
230
1.0
 70
     8
 71
     3
 72
    13
 73
     9
 74
     0
 42
0.0000000001
 43
0.0000000001
 40
0.0
 40
0.0
 40
0.0
 40
0.0
 40
0.2494998631
 40
0.3744276445000001
 40
0.4994284983
 40
0.624494032
 40
0.7496227633000001
 40
1.0
 40
1.0
 40
1.0
 40
1.0
 10
4236.006286949756
 20
-1532.765772622378
 30
0.0
 10
4235.967585975596
 20
-1531.718463388578
 30
0.0
 10
4235.919235762415
 20
-1530.146405290638
 30
0.0
 10
4235.856837832854
 20
-1528.049487922378
 30
0.0
 10
4235.808455470896
 20
-1526.475067980038
 30
0.0
 10
4235.765086906375
 20
-1524.899650112338
 30
0.0
 10
4235.722958573056
 20
-1522.797397463918
 30
0.0
 10
4235.710247757737
 20
-1521.220087324158
 30
0.0
 10
4235.705092411175
 20
-1520.168390509597
 30
0.0
  0
SPLINE
  5
204
330
2
100
AcDbEntity
  8
0
  6
Continuous
 62
     7
100
AcDbSpline
210
0.0
220
0.0
230
1.0
 70
     8
 71
     3
 72
    20
 73
    16
 74
     0
 42
0.0000000001
 43
0.0000000001
 40
0.0
 40
0.0
 40
0.0
 40
0.0
 40
0.0370580421
 40
0.0637159589
 40
0.0853996774
 40
0.1106688986
 40
0.1443081381
 40
0.1873027116
 40
0.2394341504
 40
0.3001221749
 40
0.3685888532
 40
0.4440219169
 40
0.6125314075000004
 40
0.7994236861
 40
1.0
 40
1.0
 40
1.0
 40
1.0
 10
4155.205385803596
 20
-1501.984120297058
 30
0.0
 10
4155.205385803596
 20
-1501.962190536497
 30
0.0
 10
4155.208048958036
 20
-1501.924583469218
 30
0.0
 10
4155.226564138176
 20
-1501.875151464958
 30
0.0
 10
4155.266764883275
 20
-1501.850736537918
 30
0.0
 10
4155.316222968257
 20
-1501.857468538678
 30
0.0
 10
4155.371158647056
 20
-1501.882377742097
 30
0.0
 10
4155.434868705056
 20
-1501.924797748698
 30
0.0
 10
4155.506141991515
 20
-1501.983364850258
 30
0.0
 10
4155.584326981196
 20
-1502.056929427538
 30
0.0
 10
4155.668390414795
 20
-1502.144096299178
 30
0.0
 10
4155.791790792837
 20
-1502.281800974238
 30
0.0
 10
4155.953760164097
 20
-1502.478824275898
 30
0.0
 10
4156.153787955556
 20
-1502.740087992638
 30
0.0
 10
4156.288693890976
 20
-1502.925518449818
 30
0.0
 10
4156.357715970353
 20
-1503.022081213258
 30
0.0
  0
SPLINE
  5
205
330
2
100
AcDbEntity
  8
0
  6
Continuous
 62
     7
100
AcDbSpline
210
0.0
220
0.0
230
1.0
 70
     8
 71
     3
 72
     9
 73
     5
 74
     0
 42
0.0000000001
 43
0.0000000001
 40
0.0
 40
0.0
 40
0.0
 40
0.0
 40
0.2384116308
 40
1.0
 40
1.0
 40
1.0
 40
1.0
 10
4156.357715970353
 20
-1503.022081213258
 30
0.0
 10
4156.427814778595
 20
-1503.120150331318
 30
0.0
 10
4156.718178668276
 20
-1503.534111880838
 30
0.0
 10
4156.996778304114
 20
-1503.956208440758
 30
0.0
 10
4157.205385801557
 20
-1504.279884948598
 30
0.0
  0
SPLINE
  5
206
330
2
100
AcDbEntity
  8
0
  6
Continuous
 62
     7
100
AcDbSpline
210
0.0
220
0.0
230
1.0
 70
     8
 71
     3
 72
    25
 73
    21
 74
     0
 42
0.0000000001
 43
0.0000000001
 40
0.0
 40
0.0
 40
0.0
 40
0.0
 40
0.0004364849
 40
0.0014027848
 40
0.0050940087
 40
0.0111424615
 40
0.019537525
 40
0.0302705815
 40
0.0433331588
 40
0.0587201598
 40
0.0764248366
 40
0.1185402086
 40
0.1689800898
 40
0.2272826937
 40
0.2930986738
 40
0.365789766
 40
0.4446046166
 40
0.6172435931
 40
0.8047737641999999
 40
1.0
 40
1.0
 40
1.0
 40
1.0
 10
4155.205385803596
 20
-1547.753188301538
 30
0.0
 10
4155.205384477716
 20
-1547.754246574758
 30
0.0
 10
4155.209069006795
 20
-1547.756388935218
 30
0.0
 10
4155.220152540636
 20
-1547.759214583618
 30
0.0
 10
4155.246794714936
 20
-1547.763026381938
 30
0.0
 10
4155.290074265155
 20
-1547.766766343978
 30
0.0
 10
4155.351222446134
 20
-1547.770742757158
 30
0.0
 10
4155.429086572856
 20
-1547.774599757318
 30
0.0
 10
4155.524042021755
 20
-1547.778438146898
 30
0.0
 10
4155.635872803936
 20
-1547.782157923557
 30
0.0
 10
4155.818150587716
 20
-1547.787211870778
 30
0.0
 10
4156.085420507837
 20
-1547.792842547858
 30
0.0
 10
4156.451136845237
 20
-1547.798672386338
 30
0.0
 10
4156.874330197473
 20
-1547.803802053498
 30
0.0
 10
4157.351483457036
 20
-1547.808194790458
 30
0.0
 10
4157.878376965096
 20
-1547.811824046598
 30
0.0
 10
4158.664269952616
 20
-1547.815711793458
 30
0.0
 10
4159.728603653257
 20
-1547.818142281358
 30
0.0
 10
4161.075182372337
 20
-1547.817054754958
 30
0.0
 10
4162.003188357316
 20
-1547.814505191858
 30
0.0
 10
4162.476517062676
 20
-1547.812317146958
 30
0.0
  0
SPLINE
  5
207
330
2
100
AcDbEntity
  8
0
  6
Continuous
 62
     7
100
AcDbSpline
210
0.0
220
0.0
230
1.0
 70
     8
 71
     3
 72
    13
 73
     9
 74
     0
 42
0.0000000001
 43
0.0000000001
 40
0.0
 40
0.0
 40
0.0
 40
0.0
 40
0.2503772366
 40
0.3755059679
 40
0.5005715017
 40
0.6255723555000002
 40
0.7505001370000001
 40
1.0
 40
1.0
 40
1.0
 40
1.0
 10
4157.205679194416
 20
-1520.168390509597
 30
0.0
 10
4157.200523979937
 20
-1521.220087324158
 30
0.0
 10
4157.187813116355
 20
-1522.797397463918
 30
0.0
 10
4157.145684666196
 20
-1524.899650109798
 30
0.0
 10
4157.102316104217
 20
-1526.475067977498
 30
0.0
 10
4157.053933785436
 20
-1528.049487922378
 30
0.0
 10
4156.991535891437
 20
-1530.146405290638
 30
0.0
 10
4156.943185629996
 20
-1531.718463388578
 30
0.0
 10
4156.904484653296
 20
-1532.765772622378
 30
0.0
  0
LINE
  5
208
330
2
100
AcDbEntity
  8
0
  6
Continuous
 62
     7
100
AcDbLine
 10
4159.170739391797
 20
-1520.168390349578
 30
0.0
 11
4159.170739391797
 21
-1517.385034316098
 31
0.0
  0
SPLINE
  5
209
330
2
100
AcDbEntity
  8
0
  6
Continuous
 62
     7
100
AcDbSpline
210
0.0
220
0.0
230
1.0
 70
     8
 71
     3
 72
     9
 73
     5
 74
     0
 42
0.0000000001
 43
0.0000000001
 40
0.0
 40
0.0
 40
0.0
 40
0.0
 40
0.2608914117
 40
1.0
 40
1.0
 40
1.0
 40
1.0
 10
4233.740291944036
 20
-1517.385034476118
 30
0.0
 10
4233.911350001716
 20
-1517.385242232878
 30
0.0
 10
4234.566971222855
 20
-1517.391993817038
 30
0.0
 10
4235.222562159576
 20
-1517.420794328398
 30
0.0
 10
4235.705614754555
 20
-1517.459614316798
 30
0.0
  0
SPLINE
  5
20A
330
2
100
AcDbEntity
  8
0
  6
Continuous
 62
     7
100
AcDbSpline
210
0.0
220
0.0
230
1.0
 70
     8
 71
     3
 72
    17
 73
    13
 74
     0
 42
0.0000000001
 43
0.0000000001
 40
0.0
 40
0.0
 40
0.0
 40
0.0
 40
0.0324420281
 40
0.0589851335
 40
0.0934893302
 40
0.1360060049
 40
0.1863701095
 40
0.2442149607
 40
0.3090725512
 40
0.457530505
 40
0.6263670958
 40
1.0
 40
1.0
 40
1.0
 40
1.0
 10
4237.705385801997
 20
-1459.034055341378
 30
0.0
 10
4237.705385801997
 20
-1458.990033585378
 30
0.0
 10
4237.636123319237
 20
-1458.923207983698
 30
0.0
 10
4237.527114842816
 20
-1458.867351913038
 30
0.0
 10
4237.394237717158
 20
-1458.816370447818
 30
0.0
 10
4237.228533192078
 20
-1458.768715607898
 30
0.0
 10
4237.028977195456
 20
-1458.722729489558
 30
0.0
 10
4236.798129158294
 20
-1458.679653482238
 30
0.0
 10
4236.434357155334
 20
-1458.623897241198
 30
0.0
 10
4235.918814239257
 20
-1458.566288115878
 30
0.0
 10
4234.983680689157
 20
-1458.497374936458
 30
0.0
 10
4234.247287508657
 20
-1458.477999905358
 30
0.0
 10
4233.740291944036
 20
-1458.477384135698
 30
0.0
  0
SPLINE
  5
20B
330
2
100
AcDbEntity
  8
0
  6
Continuous
 62
     7
100
AcDbSpline
210
0.0
220
0.0
230
1.0
 70
     8
 71
     3
 72
     9
 73
     5
 74
     0
 42
0.0000000001
 43
0.0000000001
 40
0.0
 40
0.0
 40
0.0
 40
0.0
 40
0.2599648502
 40
1.0
 40
1.0
 40
1.0
 40
1.0
 10
4235.705385801497
 20
-1504.279884948598
 30
0.0
 10
4235.776631305436
 20
-1504.169340043958
 30
0.0
 10
4236.052404960137
 20
-1503.745235662298
 30
0.0
 10
4236.335795256956
 20
-1503.325947227318
 30
0.0
 10
4236.553525372676
 20
-1503.021392753877
 30
0.0
  0
SPLINE
  5
20C
330
2
100
AcDbEntity
  8
0
  6
Continuous
 62
     7
100
AcDbSpline
210
0.0
220
0.0
230
1.0
 70
     8
 71
     3
 72
    20
 73
    16
 74
     0
 42
0.0000000001
 43
0.0000000001
 40
0.0
 40
0.0
 40
0.0
 40
0.0
 40
0.2004804644
 40
0.3873113422999999
 40
0.5558485462000001
 40
0.6313409882
 40
0.6998788825
 40
0.7606380798000001
 40
0.8128002793
 40
0.8557465966999997
 40
0.8892825840999998
 40
0.9144631440999999
 40
0.9361423684
 40
0.9628869720999999
 40
1.0
 40
1.0
 40
1.0
 40
1.0
 10
4236.553525372676
 20
-1503.021392753877
 30
0.0
 10
4236.622535755357
 20
-1502.924863063777
 30
0.0
 10
4236.757436966376
 20
-1502.739489273998
 30
0.0
 10
4236.957472807095
 20
-1502.478248198818
 30
0.0
 10
4237.119463725178
 20
-1502.281160236378
 30
0.0
 10
4237.242902614696
 20
-1502.143316656338
 30
0.0
 10
4237.327016624777
 20
-1502.056000290457
 30
0.0
 10
4237.405246971237
 20
-1501.982304070058
 30
0.0
 10
4237.476527964056
 20
-1501.923666900058
 30
0.0
 10
4237.540202238537
 20
-1501.881289900737
 30
0.0
 10
4237.595074049037
 20
-1501.856533051598
 30
0.0
 10
4237.644493454896
 20
-1501.850097382478
 30
0.0
 10
4237.684476971576
 20
-1501.874877498017
 30
0.0
 10
4237.702727440536
 20
-1501.924465374458
 30
0.0
 10
4237.705385801997
 20
-1501.962153736978
 30
0.0
 10
4237.705385801997
 20
-1501.984120297058
 30
0.0
  0
LINE
  5
20D
330
2
100
AcDbEntity
  8
0
  6
Continuous
 62
     7
100
AcDbLine
 10
4233.740032213796
 20
-1517.385034316098
 30
0.0
 11
4233.740032213796
 21
-1520.168390349578
 31
0.0
  0
LINE
  5
20E
330
2
100
AcDbEntity
  8
0
  6
Continuous
 62
     7
100
AcDbLine
 10
4196.455061137456
 20
-1517.362281460918
 30
0.0
 11
4196.455061137456
 21
-1520.145637494398
 31
0.0
  0
SPLINE
  5
20F
330
2
100
AcDbEntity
  8
0
  6
Continuous
 62
     7
100
AcDbSpline
210
0.0
220
0.0
230
1.0
 70
     8
 71
     3
 72
     9
 73
     5
 74
     0
 42
0.0000000001
 43
0.0000000001
 40
0.0
 40
0.0
 40
0.0
 40
0.0
 40
0.5026794107
 40
1.0
 40
1.0
 40
1.0
 40
1.0
 10
4230.434254542917
 20
-1547.812317146958
 30
0.0
 10
4231.271138617176
 20
-1543.218202095938
 30
0.0
 10
4232.914545815495
 20
-1534.076207555478
 30
0.0
 10
4233.740291944036
 20
-1524.788327106637
 30
0.0
 10
4233.740291944036
 20
-1520.168390509597
 30
0.0
  0
SPLINE
  5
210
330
2
100
AcDbEntity
  8
0
  6
Continuous
 62
     7
100
AcDbSpline
210
0.0
220
0.0
230
1.0
 70
     8
 71
     3
 72
    17
 73
    13
 74
     0
 42
0.0000000001
 43
0.0000000001
 40
0.0
 40
0.0
 40
0.0
 40
0.0
 40
0.3735404588
 40
0.5423452124
 40
0.6908111396
 40
0.7556804947
 40
0.8135500833
 40
0.8639312759999999
 40
0.9064705613
 40
0.9409960462
 40
0.9675497365
 40
1.0
 40
1.0
 40
1.0
 40
1.0
 10
4159.170479661557
 20
-1458.477384135698
 30
0.0
 10
4158.663610436536
 20
-1458.477999750417
 30
0.0
 10
4157.927386905177
 20
-1458.497360389878
 30
0.0
 10
4156.992412440357
 20
-1458.566254430398
 30
0.0
 10
4156.476882996435
 20
-1458.623830637318
 30
0.0
 10
4156.113051763216
 20
-1458.679593246138
 30
0.0
 10
4155.882127269516
 20
-1458.722652918718
 30
0.0
 10
4155.682484323615
 20
-1458.768652547318
 30
0.0
 10
4155.516698998595
 20
-1458.816318702938
 30
0.0
 10
4155.383741809596
 20
-1458.867307612898
 30
0.0
 10
4155.274696393957
 20
-1458.923195050018
 30
0.0
 10
4155.205385803596
 20
-1458.990022488118
 30
0.0
 10
4155.205385803596
 20
-1459.034055341378
 30
0.0
  0
SPLINE
  5
211
330
2
100
AcDbEntity
  8
0
  6
Continuous
 62
     7
100
AcDbSpline
210
0.0
220
0.0
230
1.0
 70
     8
 71
     3
 72
     9
 73
     5
 74
     0
 42
0.0000000001
 43
0.0000000001
 40
0.0
 40
0.0
 40
0.0
 40
0.0
 40
0.4973205893000002
 40
1.0
 40
1.0
 40
1.0
 40
1.0
 10
4159.170479661557
 20
-1520.168390509597
 30
0.0
 10
4159.170479661557
 20
-1524.788327106637
 30
0.0
 10
4159.996225790097
 20
-1534.076207555478
 30
0.0
 10
4161.639632988417
 20
-1543.218202095938
 30
0.0
 10
4162.476517062676
 20
-1547.812317146958
 30
0.0
  0
LINE
  5
212
330
2
100
AcDbEntity
  8
0
  6
Continuous
 62
     7
100
AcDbLine
 10
4196.455385802797
 20
-1458.152003689178
 30
0.0
 11
4196.455385802797
 21
-1454.708827202418
 31
0.0
  0
SPLINE
  5
213
330
2
100
AcDbEntity
  8
0
  6
Continuous
 62
     7
100
AcDbSpline
210
0.0
220
0.0
230
1.0
 70
     8
 71
     3
 72
     9
 73
     5
 74
     0
 42
0.0000000001
 43
0.0000000001
 40
0.0
 40
0.0
 40
0.0
 40
0.0
 40
0.2350190988
 40
1.0
 40
1.0
 40
1.0
 40
1.0
 10
4157.205156851036
 20
-1517.459614316798
 30
0.0
 10
4157.358757696996
 20
-1517.447270353678
 30
0.0
 10
4158.012960203676
 20
-1517.402786337997
 30
0.0
 10
4158.668901490217
 20
-1517.385643664638
 30
0.0
 10
4159.170479661557
 20
-1517.385034476118
 30
0.0
  0
SPLINE
  5
214
330
2
100
AcDbEntity
  8
0
  6
Continuous
 62
     7
100
AcDbSpline
210
0.0
220
0.0
230
1.0
 70
     8
 71
     3
 72
    14
 73
    10
 74
     0
 42
0.0000000001
 43
0.0000000001
 40
0.0
 40
0.0
 40
0.0
 40
0.0
 40
0.0381090989
 40
0.0972489624
 40
0.1835662825
 40
0.2976711012
 40
0.4385929965999999
 40
0.6044609062
 40
1.0
 40
1.0
 40
1.0
 40
1.0
 10
4236.705385803015
 20
-1517.700650799418
 30
0.0
 10
4236.705385803015
 20
-1517.687271623737
 30
0.0
 10
4236.685415520376
 20
-1517.655087550438
 30
0.0
 10
4236.629528979874
 20
-1517.622674658698
 30
0.0
 10
4236.544444062416
 20
-1517.589126872097
 30
0.0
 10
4236.428607933916
 20
-1517.557956418817
 30
0.0
 10
4236.283758896717
 20
-1517.528417227198
 30
0.0
 10
4236.040053966297
 20
-1517.490529906478
 30
0.0
 10
4235.843803812697
 20
-1517.470718030938
 30
0.0
 10
4235.705385801497
 20
-1517.459595917038
 30
0.0
  0
LINE
  5
215
330
2
100
AcDbEntity
  8
0
  6
Continuous
 62
     7
100
AcDbLine
 10
4162.476517062676
 20
-1547.812317146958
 30
0.0
 11
4162.476517062676
 21
-1548.312298107878
 31
0.0
  0
LINE
  5
216
330
2
100
AcDbEntity
  8
0
  6
Continuous
 62
     7
100
AcDbLine
 10
4230.434254542917
 20
-1547.812317146958
 30
0.0
 11
4230.434254542917
 21
-1548.312298107878
 31
0.0
  0
SPLINE
  5
217
330
2
100
AcDbEntity
  8
0
  6
Continuous
 62
     7
100
AcDbSpline
210
0.0
220
0.0
230
1.0
 70
     8
 71
     3
 72
    14
 73
    10
 74
     0
 42
0.0000000001
 43
0.0000000001
 40
0.0
 40
0.0
 40
0.0
 40
0.0
 40
0.3955078904
 40
0.5613563261
 40
0.7022769199
 40
0.8163990314999999
 40
0.9027375937999998
 40
0.9618875171999999
 40
1.0
 40
1.0
 40
1.0
 40
1.0
 10
4157.205385801557
 20
-1517.459595917038
 30
0.0
 10
4157.066978933337
 20
-1517.470717134318
 30
0.0
 10
4156.870746750235
 20
-1517.490526652738
 30
0.0
 10
4156.627060003676
 20
-1517.528408687718
 30
0.0
 10
4156.482211644656
 20
-1517.557944940558
 30
0.0
 10
4156.366363075234
 20
-1517.589116440318
 30
0.0
 10
4156.281259237316
 20
-1517.622665583278
 30
0.0
 10
4156.225364530716
 20
-1517.655084690398
 30
0.0
 10
4156.205385802576
 20
-1517.687270457878
 30
0.0
 10
4156.205385802576
 20
-1517.700650799418
 30
0.0
  0
ELLIPSE
  5
218
330
2
100
AcDbEntity
  8
0
  6
Continuous
 62
     7
100
AcDbEllipse
 10
4089.847616265394
 20
-1514.194516452798
 30
0.0
 11
2.873982021899998
 21
-2.01238387718
 31
0.0
210
0.0
220
0.0
230
1.0
 40
0.4275350566
 41
2.8507201179
 42
3.4324651893
  0
ELLIPSE
  5
219
330
2
100
AcDbEntity
  8
0
  6
Continuous
 62
     7
100
AcDbEllipse
 10
4089.847616265394
 20
-1532.708827204138
 30
0.0
 11
2.806243041299998
 21
2.806243041299998
 31
0.0
210
0.0
220
0.0
230
1.0
 40
0.377964473
 41
2.7802255297
 42
3.5029597775
  0
ELLIPSE
  5
21A
330
2
100
AcDbEntity
  8
0
  6
Continuous
 62
     7
100
AcDbEllipse
 10
4027.347616266917
 20
-1540.108503537598
 30
0.0
 11
0.0
 21
4.249999998839998
 31
0.0
210
0.0
220
0.0
230
1.0
 40
0.0087268678
 41
-3.1415926536
 42
0.0
  0
ELLIPSE
  5
21B
330
2
100
AcDbEntity
  8
0
  6
Continuous
 62
     7
100
AcDbEllipse
 10
4057.115565458357
 20
-1515.407311484658
 30
0.0
 11
2.873982021899998
 21
2.01238387718
 31
0.0
210
0.0
220
0.0
230
1.0
 40
0.4275350566
 41
-0.2908725357
 42
0.2908725357
  0
ELLIPSE
  5
21C
330
2
100
AcDbEntity
  8
0
  6
Continuous
 62
     7
100
AcDbEllipse
 10
4121.347616267555
 20
-1540.108503537598
 30
0.0
 11
0.0
 21
4.249999998839998
 31
0.0
210
0.0
220
0.0
230
1.0
 40
0.0087268678
 41
0.0
 42
3.1415926536
  0
ELLIPSE
  5
21D
330
2
100
AcDbEntity
  8
0
  6
Continuous
 62
     7
100
AcDbEllipse
 10
4057.115565458357
 20
-1530.976776395958
 30
0.0
 11
2.806243041299998
 21
-2.806243041299998
 31
0.0
210
0.0
220
0.0
230
1.0
 40
0.377964473
 41
-0.3613671239
 42
0.3613671239
  0
ELLIPSE
  5
21E
330
2
100
AcDbEntity
  8
0
  6
Continuous
 62
     7
100
AcDbEllipse
 10
4053.500426343717
 20
-1474.440878010018
 30
0.0
 11
-8.211869072800002
 21
9.446674746440001
 31
0.0
210
0.0
220
0.0
230
1.0
 40
0.3994577988999999
 41
5.9489683933
 42
6.617402220999996
  0
ELLIPSE
  5
21F
330
2
100
AcDbEntity
  8
0
  6
Continuous
 62
     7
100
AcDbEllipse
 10
4095.194806190757
 20
-1474.440878010018
 30
0.0
 11
8.211869072800002
 21
9.446674746440001
 31
0.0
210
0.0
220
0.0
230
1.0
 40
0.3994577988999999
 41
5.9489683933
 42
6.617402220999996
  0
ELLIPSE
  5
220
330
2
100
AcDbEntity
  8
0
  6
Continuous
 62
     7
100
AcDbEllipse
 10
4084.778939168836
 20
-1493.976776395598
 30
0.0
 11
-1.75661109688
 21
9.962236582979999
 31
0.0
210
0.0
220
0.0
230
1.0
 40
0.4942704104000001
 41
3.054659106799998
 42
3.228526200299997
  0
ELLIPSE
  5
221
330
2
100
AcDbEntity
  8
0
  6
Continuous
 62
     7
100
AcDbEllipse
 10
4063.916293363096
 20
-1493.976776395598
 30
0.0
 11
1.75661109688
 21
9.962236582979999
 31
0.0
210
0.0
220
0.0
230
1.0
 40
0.4942704104000001
 41
3.054659106899998
 42
3.228526200099997
  0
ELLIPSE
  5
222
330
2
100
AcDbEntity
  8
0
  6
Continuous
 62
     7
100
AcDbEllipse
 10
4117.027268172176
 20
-1506.639028774878
 30
0.0
 11
-0.1551212798
 21
3.575041475759997
 31
0.0
210
0.0
220
0.0
230
1.0
 40
0.5531426924
 41
-0.8743694741
 42
0.1728280771
  0
ELLIPSE
  5
223
330
2
100
AcDbEntity
  8
0
  6
Continuous
 62
     7
100
AcDbEllipse
 10
4091.579667073577
 20
-1530.976776395958
 30
0.0
 11
2.806243041299998
 21
2.806243041299998
 31
0.0
210
0.0
220
0.0
230
1.0
 40
0.377964473
 41
-3.5029597775
 42
-2.7802255297
  0
ELLIPSE
  5
224
330
2
100
AcDbEntity
  8
0
  6
Continuous
 62
     7
100
AcDbEllipse
 10
4091.579667073577
 20
-1515.407311484658
 30
0.0
 11
2.873982021899998
 21
-2.01238387718
 31
0.0
210
0.0
220
0.0
230
1.0
 40
0.4275350566
 41
2.8507201179
 42
3.4324651893
  0
ELLIPSE
  5
225
330
2
100
AcDbEntity
  8
0
  6
Continuous
 62
     7
100
AcDbEllipse
 10
4063.610886074496
 20
-1495.708827203778
 30
0.0
 11
1.75661109688
 21
9.962236582979999
 31
0.0
210
0.0
220
0.0
230
1.0
 40
0.4942704104000001
 41
3.054659106899998
 42
3.228526200099997
  0
ELLIPSE
  5
226
330
2
100
AcDbEntity
  8
0
  6
Continuous
 62
     7
100
AcDbEllipse
 10
4085.084346459977
 20
-1495.708827203778
 30
0.0
 11
-1.75661109688
 21
9.962236582979999
 31
0.0
210
0.0
220
0.0
230
1.0
 40
0.4942704104000001
 41
3.054659106799998
 42
3.228526200299997
  0
ELLIPSE
  5
227
330
2
100
AcDbEntity
  8
0
  6
Continuous
 62
     7
100
AcDbEllipse
 10
4096.700454985397
 20
-1472.708827201838
 30
0.0
 11
-8.211869072800002
 21
-9.446674746440001
 31
0.0
210
0.0
220
0.0
230
1.0
 40
0.3994577988999999
 41
2.8073757398
 42
3.4758095674
  0
ELLIPSE
  5
228
330
2
100
AcDbEntity
  8
0
  6
Continuous
 62
     7
100
AcDbEllipse
 10
4051.994777546536
 20
-1472.708827201838
 30
0.0
 11
8.211869072800002
 21
-9.446674746440001
 31
0.0
210
0.0
220
0.0
230
1.0
 40
0.3994577988999999
 41
2.8073757398
 42
3.4758095674
  0
ELLIPSE
  5
229
330
2
100
AcDbEntity
  8
0
  6
Continuous
 62
     7
100
AcDbEllipse
 10
4031.667964359756
 20
-1506.639028774878
 30
0.0
 11
0.1551212798
 21
3.575041475759997
 31
0.0
210
0.0
220
0.0
230
1.0
 40
0.5531426924
 41
6.110357230099999
 42
7.1575547813
  0
ELLIPSE
  5
22A
330
2
100
AcDbEntity
  8
0
  6
Continuous
 62
     7
100
AcDbEllipse
 10
4058.847616266535
 20
-1532.708827204138
 30
0.0
 11
-2.806243041299998
 21
2.806243041299998
 31
0.0
210
0.0
220
0.0
230
1.0
 40
0.377964473
 41
2.7802255297
 42
3.5029597775
  0
ELLIPSE
  5
22B
330
2
100
AcDbEntity
  8
0
  6
Continuous
 62
     7
100
AcDbEllipse
 10
4058.847616266535
 20
-1514.194516452798
 30
0.0
 11
-2.873982021899998
 21
-2.01238387718
 31
0.0
210
0.0
220
0.0
230
1.0
 40
0.4275350566
 41
2.8507201179
 42
3.4324651893
  0
ELLIPSE
  5
22C
330
2
100
AcDbEntity
  8
0
  6
Continuous
 62
     7
100
AcDbEllipse
 10
4234.705385802516
 20
-1506.639028774878
 30
0.0
 11
1.977417619959999
 21
3.572220765119999
 31
0.0
210
0.0
220
0.0
230
1.0
 40
0.0838971389
 41
6.1327692034
 42
7.1799667546
  0
ELLIPSE
  5
22D
330
2
100
AcDbEntity
  8
0
  6
Continuous
 62
     7
100
AcDbEllipse
 10
4158.205385803077
 20
-1506.639028774878
 30
0.0
 11
-1.977417619959999
 21
3.572220765119999
 31
0.0
210
0.0
220
0.0
230
1.0
 40
0.0838971389
 41
5.3864038597
 42
6.4336014109
  0
DIMENSION
  5
22E
102
{ACAD_XDICTIONARY
360
22F
102
}
102
{ACAD_REACTORS
330
230
102
}
330
2
100
AcDbEntity
  8
Dim
100
AcDbDimension
  2
*D7
 10
4004.890542173725
 20
-1548.708827203058
 30
0.0
 11
4004.890542173725
 21
-1500.989917499274
 31
0.0
 70
   160
 71
     5
 42
94.00000000040881
  3
01
100
AcDbAlignedDimension
 13
4039.82463081984
 23
-1454.708827202649
 33
0.0
 14
4028.147646729336
 24
-1548.708827203058
 34
0.0
 50
90.0
100
AcDbRotatedDimension
  0
DIMENSION
  5
23E
102
{ACAD_XDICTIONARY
360
23F
102
}
102
{ACAD_REACTORS
330
240
102
}
330
2
100
AcDbEntity
  8
Dim
100
AcDbDimension
  2
*D8
 10
4121.34757655946
 20
-1560.984051171158
 30
0.0
 11
4075.05490290134
 21
-1560.984051171158
 31
0.0
 70
   160
 71
     5
 42
93.99996029254362
  3
01
100
AcDbAlignedDimension
 13
4027.347616266917
 23
-1548.108820854178
 33
0.0
 14
4121.34757655946
 24
-1548.108808154781
 34
0.0
100
AcDbRotatedDimension
  0
DIMENSION
  5
24D
102
{ACAD_XDICTIONARY
360
24E
102
}
102
{ACAD_REACTORS
330
24F
102
}
330
2
100
AcDbEntity
  8
Dim
100
AcDbDimension
  2
*D9
 10
4237.705385803177
 20
-1560.172803182528
 30
0.0
 11
4197.313702131824
 21
-1560.172803182528
 31
0.0
 70
   160
 71
     5
 42
82.5000000707014
  3
01
100
AcDbAlignedDimension
 13
4155.205385732475
 23
-1547.753188301538
 33
0.0
 14
4237.705385803177
 24
-1547.753190160038
 34
0.0
100
AcDbRotatedDimension
  0
DIMENSION
  5
25C
330
2
100
AcDbEntity
  8
Dim
100
AcDbDimension
  2
*D10
 10
4100.547616267236
 20
-1441.522352455115
 30
0.0
 11
4074.601428635127
 21
-1441.522352455115
 31
0.0
 70
   160
  1
PG42
 71
     5
 42
52.39999999999873
  3
01
100
AcDbAlignedDimension
 13
4048.147616267237
 23
-1454.708827202418
 33
0.0
 14
4100.547616267236
 24
-1454.708827202418
 34
0.0
100
AcDbRotatedDimension
  0
MTEXT
  5
269
330
2
100
AcDbEntity
  8
图框
 62
     3
100
AcDbMText
 10
4367.720498854232
 20
-1643.678281564775
 30
0.0
 40
4.478270362551226
 41
50.41858798863206
 71
     5
 72
     5
  1
1111324301006
  7
Romans字体
 73
     1
 44
1.0
1001
ACAD
1000
ACAD_MTEXT_DEFINED_HEIGHT_BEGIN
1070
    46
1040
13.0301182585288
1000
ACAD_MTEXT_DEFINED_HEIGHT_END
  0
LINE
  5
26A
330
2
100
AcDbEntity
  8
0
  6
Continuous
 62
     7
100
AcDbLine
 10
4147.205385803596
 20
-1538.108827203058
 30
0.0
 11
4147.205385803596
 21
-1546.908827203058
 31
0.0
  0
LINE
  5
26B
330
2
100
AcDbEntity
  8
0
  6
Continuous
 62
     7
100
AcDbLine
 10
4245.705385801997
 20
-1546.908827203058
 30
0.0
 11
4245.705385801997
 21
-1538.108827203058
 31
0.0
  0
CIRCLE
  5
26C
330
2
100
AcDbEntity
  8
0
  6
Continuous
 62
     7
100
AcDbCircle
 10
4050.597616265965
 20
-1542.508827203057
 30
0.0
 40
4.4
  0
CIRCLE
  5
26D
330
2
100
AcDbEntity
  8
0
  6
Continuous
 62
     7
100
AcDbCircle
 10
4098.097616265967
 20
-1542.508827203057
 30
0.0
 40
4.4
  0
LINE
  5
26E
330
2
100
AcDbEntity
  8
0
  6
Continuous
 62
     7
100
AcDbLine
 10
4245.705385801997
 20
-1538.108827203058
 30
0.0
 11
4237.705385801997
 21
-1538.108827203058
 31
0.0
  0
LINE
  5
26F
330
2
100
AcDbEntity
  8
0
  6
Continuous
 62
     7
100
AcDbLine
 10
4155.205385803596
 20
-1538.108827203058
 30
0.0
 11
4147.205385803596
 21
-1538.108827203058
 31
0.0
  0
LINE
  5
270
102
{ACAD_REACTORS
330
274
102
}
330
2
100
AcDbEntity
  8
0
  6
Continuous
 62
     7
100
AcDbLine
 10
4245.705385801997
 20
-1546.908827203058
 30
0.0
 11
4237.705385801997
 21
-1546.908827203058
 31
0.0
  0
LINE
  5
271
102
{ACAD_REACTORS
330
274
102
}
330
2
100
AcDbEntity
  8
0
  6
Continuous
 62
     7
100
AcDbLine
 10
4155.205385803596
 20
-1546.908827203058
 30
0.0
 11
4147.205385803596
 21
-1546.908827203058
 31
0.0
  0
DIMENSION
  5
272
102
{ACAD_XDICTIONARY
360
273
102
}
102
{ACAD_REACTORS
330
274
102
}
330
2
100
AcDbEntity
  8
Dim
100
AcDbDimension
  2
*D11
 10
4245.705385801997
 20
-1570.642210549769
 30
0.0
 11
4196.070418044215
 21
-1570.642210549769
 31
0.0
 70
   160
 71
     5
 42
98.49999999840111
  3
01
100
AcDbAlignedDimension
 13
4147.205385803596
 23
-1546.908827203058
 33
0.0
 14
4245.705385801997
 24
-1546.908827203058
 34
0.0
100
AcDbRotatedDimension
  0
LWPOLYLINE
  5
281
330
2
100
AcDbEntity
  8
0
  6
Continuous
 62
     7
100
AcDbPolyline
 90
        4
 70
     0
 43
0.0
 10
3981.182552305563
 20
-1660.091824051886
 10
3981.67619592117
 20
-1660.589108183656
 10
3982.314514251744
 20
-1660.949050117975
 10
3983.058579812225
 20
-1661.155730134992
  0
LWPOLYLINE
  5
282
330
2
100
AcDbEntity
  8
0
  6
Continuous
 62
     7
100
AcDbPolyline
 90
        7
 70
     0
 43
0.0
 10
4024.349515562725
 20
-1661.208952936344
 10
4025.070389966542
 20
-1661.152432407271
 10
4025.969636143865
 20
-1660.930328553182
 10
4026.844973047391
 20
-1660.545199590346
 10
4027.64010634663
 20
-1660.016929780339
 10
4028.303069031675
 20
-1659.379819168355
 10
4028.796832410518
 20
-1658.674742654406
  0
LINE
  5
283
330
2
100
AcDbEntity
  8
0
  6
Continuous
 62
     7
100
AcDbLine
 10
3983.058579812225
 20
-1661.155730134992
 30
0.0
 11
3983.726341956506
 21
-1661.208952752854
 31
0.0
  0
LINE
  5
284
330
2
100
AcDbEntity
  8
0
  6
Continuous
 62
     7
100
AcDbLine
 10
3981.068237693044
 20
-1659.919839885619
 30
0.0
 11
3981.182552305563
 21
-1660.091824051886
 31
0.0
  0
LINE
  5
285
330
2
100
AcDbEntity
  8
0
  6
Continuous
 62
     7
100
AcDbLine
 10
3979.099466248527
 20
-1656.753974093411
 30
0.0
 11
3981.094958346131
 21
-1659.963106569723
 31
0.0
  0
LINE
  5
286
330
2
100
AcDbEntity
  8
0
  6
Continuous
 62
     7
100
AcDbLine
 10
3977.456784524399
 20
-1653.956166144106
 30
0.0
 11
3979.099466248527
 21
-1656.753974093411
 31
0.0
  0
LINE
  5
287
330
2
100
AcDbEntity
  8
0
  6
Continuous
 62
     7
100
AcDbLine
 10
3978.168182563729
 20
-1655.185809033456
 30
0.0
 11
3977.489859201861
 21
-1654.014867977628
 31
0.0
  0
LWPOLYLINE
  5
288
330
2
100
AcDbEntity
  8
0
  6
Continuous
 62
     7
100
AcDbPolyline
 90
        4
 70
     0
 43
0.0
 10
3975.754382906704
 20
-1650.72327114016
 10
3976.460846212292
 20
-1652.117559295951
 10
3977.280201814318
 20
-1653.637296655556
 10
3977.489859201861
 20
-1654.014867977628
  0
LINE
  5
289
330
2
100
AcDbEntity
  8
0
  6
Continuous
 62
     7
100
AcDbLine
 10
3975.754582349942
 20
-1650.723677398936
 30
0.0
 11
3975.754382906704
 21
-1650.72327114016
 31
0.0
  0
LINE
  5
28A
330
2
100
AcDbEntity
  8
0
  6
Continuous
 62
     7
100
AcDbLine
 10
3969.547537319708
 20
-1627.877227654182
 30
0.0
 11
3974.401332257667
 21
-1611.404941495138
 31
0.0
  0
LINE
  5
28B
330
2
100
AcDbEntity
  8
0
  6
Continuous
 62
     7
100
AcDbLine
 10
3974.407094513859
 20
-1611.386291093018
 30
0.0
 11
3974.401371493149
 21
-1611.404808342851
 31
0.0
  0
LINE
  5
28C
330
2
100
AcDbEntity
  8
0
  6
Continuous
 62
     7
100
AcDbLine
 10
3974.407138177273
 20
-1611.386156027603
 30
0.0
 11
3979.664002355521
 21
-1595.140342322699
 31
0.0
  0
LINE
  5
28D
330
2
100
AcDbEntity
  8
0
  6
Continuous
 62
     7
100
AcDbLine
 10
3981.116668829912
 20
-1594.422297211879
 30
0.0
 11
3975.860959125555
 21
-1610.664543133621
 31
0.0
  0
LINE
  5
28E
330
2
100
AcDbEntity
  8
0
  6
Continuous
 62
     7
100
AcDbLine
 10
3983.726264314801
 20
-1661.208952528115
 30
0.0
 11
3987.662308375583
 21
-1661.208952528115
 31
0.0
  0
LINE
  5
28F
330
2
100
AcDbEntity
  8
0
  6
Continuous
 62
     7
100
AcDbLine
 10
3992.82024482877
 20
-1661.208952528115
 30
0.0
 11
4012.162530816442
 21
-1661.208952528115
 31
0.0
  0
LINE
  5
290
330
2
100
AcDbEntity
  8
0
  6
Continuous
 62
     7
100
AcDbLine
 10
4017.320467268207
 20
-1661.208952528115
 30
0.0
 11
4024.349571555502
 21
-1661.208952528115
 31
0.0
  0
LINE
  5
291
330
2
100
AcDbEntity
  8
0
  6
Continuous
 62
     7
100
AcDbLine
 10
3983.658485744339
 20
-1661.148284063015
 30
0.0
 11
3987.681056349274
 21
-1661.148284063015
 31
0.0
  0
LINE
  5
292
330
2
100
AcDbEntity
  8
0
  6
Continuous
 62
     7
100
AcDbLine
 10
3992.83899280246
 20
-1661.148284063015
 30
0.0
 11
4012.181278790132
 21
-1661.148284063015
 31
0.0
  0
LINE
  5
293
330
2
100
AcDbEntity
  8
0
  6
Continuous
 62
     7
100
AcDbLine
 10
4017.339215241896
 20
-1661.148284063015
 30
0.0
 11
4024.281793352018
 21
-1661.148284063015
 31
0.0
  0
LINE
  5
294
330
2
100
AcDbEntity
  8
0
  6
Continuous
 62
     7
100
AcDbLine
 10
4024.34951556557
 20
-1661.208952491132
 30
0.0
 11
4024.349571512829
 21
-1661.208952528115
 31
0.0
  0
LWPOLYLINE
  5
295
330
2
100
AcDbEntity
  8
0
  6
Continuous
 62
     7
100
AcDbPolyline
 90
        3
 70
     0
 43
0.0
 10
3975.497609275878
 20
-1650.127924734005
 10
3975.627620311359
 20
-1650.449703562531
 10
3975.75443921952
 20
-1650.723385929262
  0
LINE
  5
296
330
2
100
AcDbEntity
  8
0
  6
Continuous
 62
     7
100
AcDbLine
 10
3975.497480160363
 20
-1650.127577666983
 30
0.0
 11
3975.497609275878
 21
-1650.127924734005
 31
0.0
  0
LINE
  5
297
330
2
100
AcDbEntity
  8
0
  6
Continuous
 62
     7
100
AcDbLine
 10
3975.433691474529
 20
-1649.948275527238
 30
0.0
 11
3975.49752021657
 21
-1650.127585292469
 31
0.0
  0
LINE
  5
298
330
2
100
AcDbEntity
  8
0
  6
Continuous
 62
     7
100
AcDbLine
 10
3975.333074498624
 20
-1649.624916355415
 30
0.0
 11
3975.365976675949
 21
-1649.725817320594
 31
0.0
  0
LINE
  5
299
330
2
100
AcDbEntity
  8
0
  6
Continuous
 62
     7
100
AcDbLine
 10
3975.364035020294
 20
-1649.730998648712
 30
0.0
 11
3975.433691474529
 21
-1649.948275527238
 31
0.0
  0
LINE
  5
29A
330
2
100
AcDbEntity
  8
0
  6
Continuous
 62
     7
100
AcDbLine
 10
3975.333139133903
 20
-1649.625145245179
 30
0.0
 11
3975.364035020294
 21
-1649.730998648712
 31
0.0
  0
LINE
  5
29B
330
2
100
AcDbEntity
  8
0
  6
Continuous
 62
     7
100
AcDbLine
 10
3975.333138584856
 20
-1649.625143297914
 30
0.0
 11
3969.540554695522
 21
-1629.119297009714
 31
0.0
  0
LINE
  5
29C
330
2
100
AcDbEntity
  8
0
  6
Continuous
 62
     7
100
AcDbLine
 10
3975.365976675949
 20
-1649.725817320594
 30
0.0
 11
3974.069972151275
 21
-1645.137939078334
 31
0.0
  0
LINE
  5
29D
330
2
100
AcDbEntity
  8
0
  6
Continuous
 62
     7
100
AcDbLine
 10
3974.72366177831
 20
-1645.176915657532
 30
0.0
 11
3976.156245088398
 21
-1650.248285138241
 31
0.0
  0
LINE
  5
29E
330
2
100
AcDbEntity
  8
0
  6
Continuous
 62
     7
100
AcDbLine
 10
3971.153969239579
 20
-1630.265013505576
 30
0.0
 11
3975.377391034832
 21
-1645.215999073192
 31
0.0
  0
LINE
  5
29F
330
2
100
AcDbEntity
  8
0
  6
Continuous
 62
     7
100
AcDbLine
 10
3975.860959125555
 20
-1610.664543133621
 30
0.0
 11
3971.008198263862
 21
-1627.133319953075
 31
0.0
  0
LINE
  5
2A0
330
2
100
AcDbEntity
  8
0
  6
Continuous
 62
     7
100
AcDbLine
 10
4008.746952863925
 20
-1656.955622906673
 30
0.0
 11
4023.272647006179
 21
-1656.955622906673
 31
0.0
  0
LINE
  5
2A1
330
2
100
AcDbEntity
  8
0
  6
Continuous
 62
     7
100
AcDbLine
 10
3995.078407713594
 20
-1656.955622906673
 30
0.0
 11
3980.552713571339
 21
-1656.955622906673
 31
0.0
  0
LINE
  5
2A2
330
2
100
AcDbEntity
  8
0
  6
Continuous
 62
     7
100
AcDbLine
 10
3976.6233500598
 20
-1642.850933926776
 30
0.0
 11
3973.640994869327
 21
-1632.29334541822
 31
0.0
  0
LINE
  5
2A3
330
2
100
AcDbEntity
  8
0
  6
Continuous
 62
     7
100
AcDbLine
 10
3977.548193598171
 20
-1642.012691203976
 30
0.0
 11
3974.849031748753
 21
-1632.45761197493
 31
0.0
  0
LINE
  5
2A4
330
2
100
AcDbEntity
  8
0
  6
Continuous
 62
     7
100
AcDbLine
 10
4009.480016804753
 20
-1655.914030211504
 30
0.0
 11
4024.395057146622
 21
-1655.914030211504
 31
0.0
  0
LINE
  5
2A5
330
2
100
AcDbEntity
  8
0
  6
Continuous
 62
     7
100
AcDbLine
 10
3994.024708282159
 20
-1655.914030211504
 30
0.0
 11
3979.109667940291
 21
-1655.914030211504
 31
0.0
  0
LINE
  5
2A6
330
2
100
AcDbEntity
  8
0
  6
Continuous
 62
     7
100
AcDbLine
 10
3995.078407713594
 20
-1656.955622906673
 30
0.0
 11
3994.024708282159
 21
-1655.914030211504
 31
0.0
  0
LINE
  5
2A7
330
2
100
AcDbEntity
  8
0
  6
Continuous
 62
     7
100
AcDbLine
 10
3994.283436316189
 20
-1655.652954024082
 30
0.0
 11
3995.3371357462
 21
-1656.694546720674
 31
0.0
  0
LINE
  5
2A8
330
2
100
AcDbEntity
  8
0
  6
Continuous
 62
     7
100
AcDbLine
 10
3974.72366177831
 20
-1645.176915657532
 30
0.0
 11
3990.595399458801
 21
-1648.656216186851
 31
0.0
  0
LINE
  5
2A9
330
2
100
AcDbEntity
  8
0
  6
Continuous
 62
     7
100
AcDbLine
 10
3975.377391034832
 20
-1645.215999073192
 30
0.0
 11
3991.14605017807
 21
-1648.672703385982
 31
0.0
  0
LINE
  5
2AA
330
2
100
AcDbEntity
  8
0
  6
Continuous
 62
     7
100
AcDbLine
 10
4018.243042256163
 20
-1645.176915657532
 30
0.0
 11
4005.78608999379
 21
-1648.656216186851
 31
0.0
  0
LINE
  5
2AB
330
2
100
AcDbEntity
  8
0
  6
Continuous
 62
     7
100
AcDbLine
 10
4016.926028290349
 20
-1645.215999073192
 30
0.0
 11
4004.549977342221
 21
-1648.672703385982
 31
0.0
  0
LINE
  5
2AC
330
2
100
AcDbEntity
  8
0
  6
Continuous
 62
     7
100
AcDbLine
 10
4005.651944519436
 20
-1648.901547552728
 30
0.0
 11
4004.415831866444
 21
-1648.918034751859
 31
0.0
  0
LINE
  5
2AD
330
2
100
AcDbEntity
  8
0
  6
Continuous
 62
     7
100
AcDbLine
 10
4004.549977342221
 20
-1648.672703385982
 30
0.0
 11
4005.78608999379
 21
-1648.656216186851
 31
0.0
  0
LINE
  5
2AE
330
2
100
AcDbEntity
  8
0
  6
Continuous
 62
     7
100
AcDbLine
 10
4003.008032820935
 20
-1646.512575439648
 30
0.0
 11
3990.567921036337
 21
-1646.512575439648
 31
0.0
  0
LINE
  5
2AF
330
2
100
AcDbEntity
  8
0
  6
Continuous
 62
     7
100
AcDbLine
 10
3991.520977949829
 20
-1648.918034751859
 30
0.0
 11
3990.97032723198
 21
-1648.901547552728
 31
0.0
  0
LINE
  5
2B0
330
2
100
AcDbEntity
  8
0
  6
Continuous
 62
     7
100
AcDbLine
 10
3990.595399458801
 20
-1648.656216186851
 30
0.0
 11
3991.14605017807
 21
-1648.672703385982
 31
0.0
  0
LINE
  5
2B1
330
2
100
AcDbEntity
  8
0
  6
Continuous
 62
     7
100
AcDbLine
 10
3990.101136272778
 20
-1646.460092704481
 30
0.0
 11
3977.919995187917
 21
-1643.789821089181
 31
0.0
  0
LINE
  5
2B2
330
2
100
AcDbEntity
  8
0
  6
Continuous
 62
     7
100
AcDbLine
 10
3990.098345822683
 20
-1645.418500009312
 30
0.0
 11
3978.844838726287
 21
-1642.951578366381
 31
0.0
  0
LINE
  5
2B3
330
2
100
AcDbEntity
  8
0
  6
Continuous
 62
     7
100
AcDbLine
 10
3990.97032723198
 20
-1648.901547552728
 30
0.0
 11
3994.283436316189
 21
-1655.652954024082
 31
0.0
  0
LINE
  5
2B4
330
2
100
AcDbEntity
  8
0
  6
Continuous
 62
     7
100
AcDbLine
 10
3991.520977949829
 20
-1648.918034751859
 30
0.0
 11
3995.3371357462
 21
-1656.694546720674
 31
0.0
  0
LINE
  5
2B5
330
2
100
AcDbEntity
  8
0
  6
Continuous
 62
     7
100
AcDbLine
 10
4012.983691132418
 20
-1643.789821089181
 30
0.0
 11
4003.423308014157
 21
-1646.460092704481
 31
0.0
  0
LINE
  5
2B6
330
2
100
AcDbEntity
  8
0
  6
Continuous
 62
     7
100
AcDbLine
 10
4011.937791448454
 20
-1642.951578366381
 30
0.0
 11
4003.105462973649
 21
-1645.418500009312
 31
0.0
  0
LINE
  5
2B7
330
2
100
AcDbEntity
  8
0
  6
Continuous
 62
     7
100
AcDbLine
 10
4010.213198703794
 20
-1642.801443308155
 30
0.0
 11
4003.819255151142
 21
-1644.587309602608
 31
0.0
  0
LINE
  5
2B8
330
2
100
AcDbEntity
  8
0
  6
Continuous
 62
     7
100
AcDbLine
 10
4003.826033008045
 20
-1644.565376449217
 30
0.0
 11
4010.219976560697
 21
-1642.779510153343
 31
0.0
  0
LINE
  5
2B9
330
2
100
AcDbEntity
  8
0
  6
Continuous
 62
     7
100
AcDbLine
 10
4003.911055714911
 20
-1644.320813667224
 30
0.0
 11
4004.160409596695
 21
-1644.25116765056
 31
0.0
  0
LINE
  5
2BA
330
2
100
AcDbEntity
  8
0
  6
Continuous
 62
     7
100
AcDbLine
 10
4005.052983147687
 20
-1644.001866572531
 30
0.0
 11
4005.288641456763
 21
-1643.93604581192
 31
0.0
  0
LINE
  5
2BB
330
2
100
AcDbEntity
  8
0
  6
Continuous
 62
     7
100
AcDbLine
 10
4005.724066226145
 20
-1643.814429095642
 30
0.0
 11
4005.983337591371
 21
-1643.742013067347
 31
0.0
  0
LINE
  5
2BC
330
2
100
AcDbEntity
  8
0
  6
Continuous
 62
     7
100
AcDbLine
 10
4007.173435659836
 20
-1643.40961163045
 30
0.0
 11
4007.451597469983
 21
-1643.33191939
 31
0.0
  0
LINE
  5
2BD
330
2
100
AcDbEntity
  8
0
  6
Continuous
 62
     7
100
AcDbLine
 10
4007.688200301019
 20
-1643.265834818283
 30
0.0
 11
4007.932831570148
 21
-1643.197507855725
 31
0.0
  0
LINE
  5
2BE
330
2
100
AcDbEntity
  8
0
  6
Continuous
 62
     7
100
AcDbLine
 10
4008.360700162416
 20
-1643.078001624024
 30
0.0
 11
4008.594941687126
 21
-1643.01257657936
 31
0.0
  0
LINE
  5
2BF
330
2
100
AcDbEntity
  8
0
  6
Continuous
 62
     7
100
AcDbLine
 10
4009.564493803593
 20
-1642.741774932496
 30
0.0
 11
4009.815264468318
 21
-1642.671733199884
 31
0.0
  0
LINE
  5
2C0
330
2
100
AcDbEntity
  8
0
  6
Continuous
 62
     7
100
AcDbLine
 10
4005.829220697877
 20
-1643.338520284698
 30
0.0
 11
4006.600895397959
 21
-1643.12298697129
 31
0.0
  0
LINE
  5
2C1
330
2
100
AcDbEntity
  8
0
  6
Continuous
 62
     7
100
AcDbLine
 10
4006.398326313234
 20
-1643.020788074646
 30
0.0
 11
4005.77258030458
 21
-1643.195562639803
 31
0.0
  0
LINE
  5
2C2
330
2
100
AcDbEntity
  8
0
  6
Continuous
 62
     7
100
AcDbLine
 10
4002.690187780426
 20
-1645.470982744478
 30
0.0
 11
3990.56513058624
 21
-1645.470982744478
 31
0.0
  0
LINE
  5
2C3
330
2
100
AcDbEntity
  8
0
  6
Continuous
 62
     7
100
AcDbLine
 10
3990.101136272778
 20
-1646.460092704481
 30
0.0
 11
3990.098345822683
 21
-1645.418500009312
 31
0.0
  0
LINE
  5
2C4
330
2
100
AcDbEntity
  8
0
  6
Continuous
 62
     7
100
AcDbLine
 10
3990.56513058624
 20
-1645.470982744478
 30
0.0
 11
3990.567921036337
 21
-1646.512575439648
 31
0.0
  0
LINE
  5
2C5
330
2
100
AcDbEntity
  8
0
  6
Continuous
 62
     7
100
AcDbLine
 10
4005.840358875042
 20
-1642.976231105899
 30
0.0
 11
4006.143491679594
 21
-1642.891564317651
 31
0.0
  0
LINE
  5
2C6
330
2
100
AcDbEntity
  8
0
  6
Continuous
 62
     7
100
AcDbLine
 10
4008.635997139482
 20
-1641.526853491985
 30
0.0
 11
4008.401755614773
 21
-1641.59227853665
 31
0.0
  0
LINE
  5
2C7
330
2
100
AcDbEntity
  8
0
  6
Continuous
 62
     7
100
AcDbLine
 10
4007.432203498306
 20
-1641.863080184936
 30
0.0
 11
4007.181432833579
 21
-1641.933121916125
 31
0.0
  0
LINE
  5
2C8
330
2
100
AcDbEntity
  8
0
  6
Continuous
 62
     7
100
AcDbLine
 10
4006.753564242734
 20
-1642.052628147825
 30
0.0
 11
4006.508932972181
 21
-1642.120955108961
 31
0.0
  0
LINE
  5
2C9
330
2
100
AcDbEntity
  8
0
  6
Continuous
 62
     7
100
AcDbLine
 10
4005.517184581083
 20
-1642.397956307562
 30
0.0
 11
4005.253662865607
 21
-1642.471559483698
 31
0.0
  0
LINE
  5
2CA
330
2
100
AcDbEntity
  8
0
  6
Continuous
 62
     7
100
AcDbLine
 10
4004.615638068609
 20
-1642.649763587538
 30
0.0
 11
4004.370062276094
 21
-1642.718354359779
 31
0.0
  0
LINE
  5
2CB
330
2
100
AcDbEntity
  8
0
  6
Continuous
 62
     7
100
AcDbLine
 10
4003.580441653052
 20
-1642.93890007566
 30
0.0
 11
4003.285750702888
 21
-1643.021209002634
 31
0.0
  0
LINE
  5
2CC
330
2
100
AcDbEntity
  8
0
  6
Continuous
 62
     7
100
AcDbLine
 10
4002.492351989154
 20
-1643.242809961513
 30
0.0
 11
4002.242053586831
 21
-1643.312719787861
 31
0.0
  0
LINE
  5
2CD
330
2
100
AcDbEntity
  8
0
  6
Continuous
 62
     7
100
AcDbLine
 10
4002.309832157293
 20
-1643.093388252534
 30
0.0
 11
4002.560130559616
 21
-1643.02347842761
 31
0.0
  0
LINE
  5
2CE
330
2
100
AcDbEntity
  8
0
  6
Continuous
 62
     7
100
AcDbLine
 10
4003.35352927335
 20
-1642.80187746873
 30
0.0
 11
4003.648220223514
 21
-1642.719568541755
 31
0.0
  0
LINE
  5
2CF
330
2
100
AcDbEntity
  8
0
  6
Continuous
 62
     7
100
AcDbLine
 10
4004.437840846556
 20
-1642.499022825875
 30
0.0
 11
4004.683416639071
 21
-1642.430432052211
 31
0.0
  0
LINE
  5
2D0
330
2
100
AcDbEntity
  8
0
  6
Continuous
 62
     7
100
AcDbLine
 10
4005.321441437492
 20
-1642.252227948371
 30
0.0
 11
4005.584963151544
 21
-1642.178624772235
 31
0.0
  0
LINE
  5
2D1
330
2
100
AcDbEntity
  8
0
  6
Continuous
 62
     7
100
AcDbLine
 10
4006.576711542644
 20
-1641.901623575058
 30
0.0
 11
4006.821342813196
 21
-1641.833296612499
 31
0.0
  0
LINE
  5
2D2
330
2
100
AcDbEntity
  8
0
  6
Continuous
 62
     7
100
AcDbLine
 10
4007.249211404042
 20
-1641.713790380798
 30
0.0
 11
4007.499982068768
 21
-1641.64374864961
 31
0.0
  0
LINE
  5
2D3
330
2
100
AcDbEntity
  8
0
  6
Continuous
 62
     7
100
AcDbLine
 10
4008.469534185236
 20
-1641.372947002746
 30
0.0
 11
4008.703775709944
 21
-1641.307521958082
 31
0.0
  0
LINE
  5
2D4
330
2
100
AcDbEntity
  8
0
  6
Continuous
 62
     7
100
AcDbLine
 10
4001.966120777052
 20
-1642.788212918562
 30
0.0
 11
4008.360064331125
 21
-1641.002346622687
 31
0.0
  0
LINE
  5
2D5
330
2
100
AcDbEntity
  8
0
  6
Continuous
 62
     7
100
AcDbLine
 10
4009.32761169854
 20
-1642.491136512564
 30
0.0
 11
4007.432203498306
 21
-1641.863080184936
 31
0.0
  0
LINE
  5
2D6
330
2
100
AcDbEntity
  8
0
  6
Continuous
 62
     7
100
AcDbLine
 10
4007.668180562953
 20
-1642.112839955672
 30
0.0
 11
4009.564493803593
 21
-1642.741774932496
 31
0.0
  0
LINE
  5
2D7
330
2
100
AcDbEntity
  8
0
  6
Continuous
 62
     7
100
AcDbLine
 10
4007.451597469983
 20
-1643.33191939
 30
0.0
 11
4005.517184581083
 21
-1642.397956307562
 31
0.0
  0
LINE
  5
2D8
330
2
100
AcDbEntity
  8
0
  6
Continuous
 62
     7
100
AcDbLine
 10
4005.584963151544
 20
-1642.178624772235
 30
0.0
 11
4007.519376040447
 21
-1643.112587854673
 31
0.0
  0
LINE
  5
2D9
330
2
100
AcDbEntity
  8
0
  6
Continuous
 62
     7
100
AcDbLine
 10
4006.600895397959
 20
-1643.12298697129
 30
0.0
 11
4007.173435659836
 21
-1643.40961163045
 31
0.0
  0
LINE
  5
2DA
330
2
100
AcDbEntity
  8
0
  6
Continuous
 62
     7
100
AcDbLine
 10
4002.242053586831
 20
-1643.312719787861
 30
0.0
 11
4003.911055714911
 21
-1644.320813667224
 31
0.0
  0
LINE
  5
2DB
330
2
100
AcDbEntity
  8
0
  6
Continuous
 62
     7
100
AcDbLine
 10
4003.056058724578
 20
-1644.379258868494
 30
0.0
 11
4001.876791395741
 21
-1643.234379159173
 31
0.0
  0
LINE
  5
2DC
330
2
100
AcDbEntity
  8
0
  6
Continuous
 62
     7
100
AcDbLine
 10
4001.883569252646
 20
-1643.212446005782
 30
0.0
 11
4003.062836581483
 21
-1644.357325715104
 31
0.0
  0
LINE
  5
2DD
330
2
100
AcDbEntity
  8
0
  6
Continuous
 62
     7
100
AcDbLine
 10
4007.499982068768
 20
-1641.64374864961
 30
0.0
 11
4008.949508774383
 21
-1642.124059128559
 31
0.0
  0
LINE
  5
2DE
330
2
100
AcDbEntity
  8
0
  6
Continuous
 62
     7
100
AcDbLine
 10
3976.6233500598
 20
-1642.850933926776
 30
0.0
 11
3977.548193598171
 21
-1642.012691203976
 31
0.0
  0
LINE
  5
2DF
330
2
100
AcDbEntity
  8
0
  6
Continuous
 62
     7
100
AcDbLine
 10
3974.849031748753
 20
-1632.45761197493
 30
0.0
 11
3973.640994869327
 21
-1632.29334541822
 31
0.0
  0
LINE
  5
2E0
330
2
100
AcDbEntity
  8
0
  6
Continuous
 62
     7
100
AcDbLine
 10
3974.550307536449
 20
-1631.544207404384
 30
0.0
 11
3975.758344414452
 21
-1631.708473961093
 31
0.0
  0
LINE
  5
2E1
330
2
100
AcDbEntity
  8
0
  6
Continuous
 62
     7
100
AcDbLine
 10
4012.983691132418
 20
-1643.789821089181
 30
0.0
 11
4011.937791448454
 21
-1642.951578366381
 31
0.0
  0
LINE
  5
2E2
330
2
100
AcDbEntity
  8
0
  6
Continuous
 62
     7
100
AcDbLine
 10
4012.312958779397
 20
-1642.012691203976
 30
0.0
 11
4013.358858463362
 21
-1642.850933926776
 31
0.0
  0
LINE
  5
2E3
330
2
100
AcDbEntity
  8
0
  6
Continuous
 62
     7
100
AcDbLine
 10
4006.508932972181
 20
-1642.120955108961
 30
0.0
 11
4007.688200301019
 21
-1643.265834818283
 31
0.0
  0
LINE
  5
2E4
330
2
100
AcDbEntity
  8
0
  6
Continuous
 62
     7
100
AcDbLine
 10
4007.932831570148
 20
-1643.197507855725
 30
0.0
 11
4006.753564242734
 21
-1642.052628147825
 31
0.0
  0
LINE
  5
2E5
330
2
100
AcDbEntity
  8
0
  6
Continuous
 62
     7
100
AcDbLine
 10
4006.821342813196
 20
-1641.833296612499
 30
0.0
 11
4008.000610140611
 21
-1642.978176320398
 31
0.0
  0
LINE
  5
2E6
330
2
100
AcDbEntity
  8
0
  6
Continuous
 62
     7
100
AcDbLine
 10
4007.181432833579
 20
-1641.933121916125
 30
0.0
 11
4008.360700162416
 21
-1643.078001624024
 31
0.0
  0
LINE
  5
2E7
330
2
100
AcDbEntity
  8
0
  6
Continuous
 62
     7
100
AcDbLine
 10
4008.594941687126
 20
-1643.01257657936
 30
0.0
 11
4007.668180562953
 21
-1642.112839955672
 31
0.0
  0
LINE
  5
2E8
330
2
100
AcDbEntity
  8
0
  6
Continuous
 62
     7
100
AcDbLine
 10
4008.114274962405
 20
-1642.260792500407
 30
0.0
 11
4008.662720257587
 21
-1642.793245045456
 31
0.0
  0
LINE
  5
2E9
330
2
100
AcDbEntity
  8
0
  6
Continuous
 62
     7
100
AcDbLine
 10
4008.401755614773
 20
-1641.59227853665
 30
0.0
 11
4009.32761169854
 21
-1642.491136512564
 31
0.0
  0
LINE
  5
2EA
330
2
100
AcDbEntity
  8
0
  6
Continuous
 62
     7
100
AcDbLine
 10
4009.815264468318
 20
-1642.671733199884
 30
0.0
 11
4008.635997139482
 21
-1641.526853491985
 31
0.0
  0
LINE
  5
2EB
330
2
100
AcDbEntity
  8
0
  6
Continuous
 62
     7
100
AcDbLine
 10
4008.703775709944
 20
-1641.307521958082
 30
0.0
 11
4009.883043038781
 21
-1642.452401665981
 31
0.0
  0
LINE
  5
2EC
330
2
100
AcDbEntity
  8
0
  6
Continuous
 62
     7
100
AcDbLine
 10
4009.123260757688
 20
-1641.210397358224
 30
0.0
 11
4010.302528085103
 21
-1642.355277066123
 31
0.0
  0
LINE
  5
2ED
330
2
100
AcDbEntity
  8
0
  6
Continuous
 62
     7
100
AcDbLine
 10
4005.288641456763
 20
-1643.93604581192
 30
0.0
 11
4004.615638068609
 21
-1642.649763587538
 31
0.0
  0
LINE
  5
2EE
330
2
100
AcDbEntity
  8
0
  6
Continuous
 62
     7
100
AcDbLine
 10
4004.683416639071
 20
-1642.430432052211
 30
0.0
 11
4005.356420027225
 21
-1643.716714276594
 31
0.0
  0
LINE
  5
2EF
330
2
100
AcDbEntity
  8
0
  6
Continuous
 62
     7
100
AcDbLine
 10
4003.285750702888
 20
-1643.021209002634
 30
0.0
 11
4003.730823756554
 21
-1643.892557732678
 31
0.0
  0
LINE
  5
2F0
330
2
100
AcDbEntity
  8
0
  6
Continuous
 62
     7
100
AcDbLine
 10
4004.415831866444
 20
-1648.918034751859
 30
0.0
 11
4008.231989662816
 21
-1656.694546720674
 31
0.0
  0
LINE
  5
2F1
330
2
100
AcDbEntity
  8
0
  6
Continuous
 62
     7
100
AcDbLine
 10
4005.651944519436
 20
-1648.901547552728
 30
0.0
 11
4008.965053602222
 21
-1655.652954024082
 31
0.0
  0
LINE
  5
2F2
330
2
100
AcDbEntity
  8
0
  6
Continuous
 62
     7
100
AcDbLine
 10
4003.008032820935
 20
-1646.512575439648
 30
0.0
 11
4002.690187780426
 21
-1645.470982744478
 31
0.0
  0
LINE
  5
2F3
330
2
100
AcDbEntity
  8
0
  6
Continuous
 62
     7
100
AcDbLine
 10
4003.105462973649
 20
-1645.418500009312
 30
0.0
 11
4003.423308014157
 21
-1646.460092704481
 31
0.0
  0
LINE
  5
2F4
330
2
100
AcDbEntity
  8
0
  6
Continuous
 62
     7
100
AcDbLine
 10
3978.844838726287
 20
-1642.951578366381
 30
0.0
 11
3977.919995187917
 21
-1643.789821089181
 31
0.0
  0
LINE
  5
2F5
330
2
100
AcDbEntity
  8
0
  6
Continuous
 62
     7
100
AcDbLine
 10
3975.758344414452
 20
-1631.708473961093
 30
0.0
 11
4003.989657201802
 21
-1631.708473961093
 31
0.0
  0
LINE
  5
2F6
330
2
100
AcDbEntity
  8
0
  6
Continuous
 62
     7
100
AcDbLine
 10
3974.550307536449
 20
-1631.544207404384
 30
0.0
 11
4004.334830025501
 21
-1631.544207404384
 31
0.0
  0
LINE
  5
2F7
330
2
100
AcDbEntity
  8
0
  6
Continuous
 62
     7
100
AcDbLine
 10
3971.153969239579
 20
-1630.265013505576
 30
0.0
 11
4006.475693940666
 21
-1630.265013505576
 31
0.0
  0
LINE
  5
2F8
330
2
100
AcDbEntity
  8
0
  6
Continuous
 62
     7
100
AcDbLine
 10
4005.983337591371
 20
-1643.742013067347
 30
0.0
 11
4005.829220697877
 21
-1643.338520284698
 31
0.0
  0
LINE
  5
2F9
330
2
100
AcDbEntity
  8
0
  6
Continuous
 62
     7
100
AcDbLine
 10
4005.966164886472
 20
-1643.300270961552
 30
0.0
 11
4006.051116161834
 21
-1643.522681533443
 31
0.0
  0
LINE
  5
2FA
330
2
100
AcDbEntity
  8
0
  6
Continuous
 62
     7
100
AcDbLine
 10
4005.77258030458
 20
-1643.195562639803
 30
0.0
 11
4005.629153311779
 21
-1642.803038433031
 31
0.0
  0
LINE
  5
2FB
330
2
100
AcDbEntity
  8
0
  6
Continuous
 62
     7
100
AcDbLine
 10
4005.732765849284
 20
-1642.681775605607
 30
0.0
 11
4005.840358875042
 21
-1642.976231105899
 31
0.0
  0
LINE
  5
2FC
330
2
100
AcDbEntity
  8
0
  6
Continuous
 62
     7
100
AcDbLine
 10
4005.253662865607
 20
-1642.471559483698
 30
0.0
 11
4005.724066226145
 21
-1643.814429095642
 31
0.0
  0
LINE
  5
2FD
330
2
100
AcDbEntity
  8
0
  6
Continuous
 62
     7
100
AcDbLine
 10
4006.329922964949
 20
-1627.133319953075
 30
0.0
 11
3971.008198263862
 21
-1627.133319953075
 31
0.0
  0
LINE
  5
2FE
330
2
100
AcDbEntity
  8
0
  6
Continuous
 62
     7
100
AcDbLine
 10
4005.634216951944
 20
-1632.45761197493
 30
0.0
 11
4012.312958779397
 21
-1642.012691203976
 31
0.0
  0
LINE
  5
2FF
330
2
100
AcDbEntity
  8
0
  6
Continuous
 62
     7
100
AcDbLine
 10
4005.979389775642
 20
-1632.29334541822
 30
0.0
 11
4013.358858463362
 21
-1642.850933926776
 31
0.0
  0
LINE
  5
300
330
2
100
AcDbEntity
  8
0
  6
Continuous
 62
     7
100
AcDbLine
 10
4011.474467452369
 20
-1610.664543133621
 30
0.0
 11
4016.438393531001
 21
-1594.422297211879
 31
0.0
  0
LINE
  5
301
330
2
100
AcDbEntity
  8
0
  6
Continuous
 62
     7
100
AcDbLine
 10
4001.876791395741
 20
-1643.234379159173
 30
0.0
 11
4001.883569252646
 21
-1643.212446005782
 31
0.0
  0
LINE
  5
302
330
2
100
AcDbEntity
  8
0
  6
Continuous
 62
     7
100
AcDbLine
 10
4002.309832157293
 20
-1643.093388252534
 30
0.0
 11
4002.242053586831
 21
-1643.312719787861
 31
0.0
  0
LINE
  5
303
330
2
100
AcDbEntity
  8
0
  6
Continuous
 62
     7
100
AcDbLine
 10
4002.560130559616
 20
-1643.02347842761
 30
0.0
 11
4002.492351989154
 21
-1643.242809961513
 31
0.0
  0
LINE
  5
304
330
2
100
AcDbEntity
  8
0
  6
Continuous
 62
     7
100
AcDbLine
 10
4006.329922964949
 20
-1627.133319953075
 30
0.0
 11
4011.474467452369
 21
-1610.664543133621
 31
0.0
  0
LINE
  5
305
330
2
100
AcDbEntity
  8
0
  6
Continuous
 62
     7
100
AcDbLine
 10
4016.926028290349
 20
-1645.215999073192
 30
0.0
 11
4006.475693940666
 21
-1630.265013505576
 31
0.0
  0
LINE
  5
306
330
2
100
AcDbEntity
  8
0
  6
Continuous
 62
     7
100
AcDbLine
 10
4021.787792296851
 20
-1650.248285138241
 30
0.0
 11
4018.243042256163
 21
-1645.176915657532
 31
0.0
  0
LINE
  5
307
330
2
100
AcDbEntity
  8
0
  6
Continuous
 62
     7
100
AcDbLine
 10
4019.559960807386
 20
-1645.137939078334
 30
0.0
 11
4022.76676355323
 21
-1649.725817320594
 31
0.0
  0
LINE
  5
308
330
2
100
AcDbEntity
  8
0
  6
Continuous
 62
     7
100
AcDbLine
 10
4023.294150057103
 20
-1648.837741424003
 30
0.0
 11
4008.961118373313
 21
-1628.331895134381
 31
0.0
  0
LINE
  5
309
330
2
100
AcDbEntity
  8
0
  6
Continuous
 62
     7
100
AcDbLine
 10
4019.069588939363
 20
-1595.620872394606
 30
0.0
 11
4014.105662860733
 21
-1611.863118316349
 31
0.0
  0
LINE
  5
30A
330
2
100
AcDbEntity
  8
0
  6
Continuous
 62
     7
100
AcDbLine
 10
4003.285750702888
 20
-1643.021209002634
 30
0.0
 11
4003.35352927335
 21
-1642.80187746873
 31
0.0
  0
LINE
  5
30B
330
2
100
AcDbEntity
  8
0
  6
Continuous
 62
     7
100
AcDbLine
 10
4003.062836581483
 20
-1644.357325715104
 30
0.0
 11
4003.056058724578
 21
-1644.379258868494
 31
0.0
  0
LINE
  5
30C
330
2
100
AcDbEntity
  8
0
  6
Continuous
 62
     7
100
AcDbLine
 10
4003.648220223514
 20
-1642.719568541755
 30
0.0
 11
4003.580441653052
 21
-1642.93890007566
 31
0.0
  0
LINE
  5
30D
330
2
100
AcDbEntity
  8
0
  6
Continuous
 62
     7
100
AcDbLine
 10
4003.653510881564
 20
-1643.26961250928
 30
0.0
 11
4003.679141935001
 21
-1643.186670389567
 31
0.0
  0
LINE
  5
30E
330
2
100
AcDbEntity
  8
0
  6
Continuous
 62
     7
100
AcDbLine
 10
4004.370062276094
 20
-1642.718354359779
 30
0.0
 11
4004.437840846556
 21
-1642.499022825875
 31
0.0
  0
LINE
  5
30F
330
2
100
AcDbEntity
  8
0
  6
Continuous
 62
     7
100
AcDbLine
 10
4003.819255151142
 20
-1644.587309602608
 30
0.0
 11
4003.826033008045
 21
-1644.565376449217
 31
0.0
  0
LINE
  5
310
330
2
100
AcDbEntity
  8
0
  6
Continuous
 62
     7
100
AcDbLine
 10
4004.683416639071
 20
-1642.430432052211
 30
0.0
 11
4004.615638068609
 21
-1642.649763587538
 31
0.0
  0
LINE
  5
311
330
2
100
AcDbEntity
  8
0
  6
Continuous
 62
     7
100
AcDbLine
 10
4004.160409596695
 20
-1644.25116765056
 30
0.0
 11
4004.228188167157
 21
-1644.031836116655
 31
0.0
  0
LINE
  5
312
330
2
100
AcDbEntity
  8
0
  6
Continuous
 62
     7
100
AcDbLine
 10
4005.321441437492
 20
-1642.252227948371
 30
0.0
 11
4005.253662865607
 21
-1642.471559483698
 31
0.0
  0
LINE
  5
313
330
2
100
AcDbEntity
  8
0
  6
Continuous
 62
     7
100
AcDbLine
 10
4005.584963151544
 20
-1642.178624772235
 30
0.0
 11
4005.517184581083
 21
-1642.397956307562
 31
0.0
  0
LINE
  5
314
330
2
100
AcDbEntity
  8
0
  6
Continuous
 62
     7
100
AcDbLine
 10
4005.629153311779
 20
-1642.803038433031
 30
0.0
 11
4005.67589619071
 21
-1642.651778424249
 31
0.0
  0
LINE
  5
315
330
2
100
AcDbEntity
  8
0
  6
Continuous
 62
     7
100
AcDbLine
 10
4005.356420027225
 20
-1643.716714276594
 30
0.0
 11
4005.288641456763
 21
-1643.93604581192
 31
0.0
  0
LINE
  5
316
330
2
100
AcDbEntity
  8
0
  6
Continuous
 62
     7
100
AcDbLine
 10
4005.840358875042
 20
-1642.976231105899
 30
0.0
 11
4005.77258030458
 21
-1643.195562639803
 31
0.0
  0
LINE
  5
317
330
2
100
AcDbEntity
  8
0
  6
Continuous
 62
     7
100
AcDbLine
 10
4006.051116161834
 20
-1643.522681533443
 30
0.0
 11
4005.983337591371
 21
-1643.742013067347
 31
0.0
  0
LINE
  5
318
330
2
100
AcDbEntity
  8
0
  6
Continuous
 62
     7
100
AcDbLine
 10
4006.576711542644
 20
-1641.901623575058
 30
0.0
 11
4006.508932972181
 21
-1642.120955108961
 31
0.0
  0
LINE
  5
319
330
2
100
AcDbEntity
  8
0
  6
Continuous
 62
     7
100
AcDbLine
 10
4014.105662860733
 20
-1611.863118316349
 30
0.0
 11
4008.961118373313
 21
-1628.331895134381
 31
0.0
  0
LINE
  5
31A
330
2
100
AcDbEntity
  8
0
  6
Continuous
 62
     7
100
AcDbLine
 10
4003.989657201802
 20
-1631.708473961093
 30
0.0
 11
4004.334830025501
 21
-1631.544207404384
 31
0.0
  0
LINE
  5
31B
330
2
100
AcDbEntity
  8
0
  6
Continuous
 62
     7
100
AcDbLine
 10
4005.979389775642
 20
-1632.29334541822
 30
0.0
 11
4005.634216951944
 21
-1632.45761197493
 31
0.0
  0
LINE
  5
31C
330
2
100
AcDbEntity
  8
0
  6
Continuous
 62
     7
100
AcDbLine
 10
4006.821342813196
 20
-1641.833296612499
 30
0.0
 11
4006.753564242734
 21
-1642.052628147825
 31
0.0
  0
LINE
  5
31D
330
2
100
AcDbEntity
  8
0
  6
Continuous
 62
     7
100
AcDbLine
 10
4007.249211404042
 20
-1641.713790380798
 30
0.0
 11
4007.181432833579
 21
-1641.933121916125
 31
0.0
  0
LINE
  5
31E
330
2
100
AcDbEntity
  8
0
  6
Continuous
 62
     7
100
AcDbLine
 10
4007.499982068768
 20
-1641.64374864961
 30
0.0
 11
4007.432203498306
 21
-1641.863080184936
 31
0.0
  0
LINE
  5
31F
330
2
100
AcDbEntity
  8
0
  6
Continuous
 62
     7
100
AcDbLine
 10
4007.519376040447
 20
-1643.112587854673
 30
0.0
 11
4007.451597469983
 21
-1643.33191939
 31
0.0
  0
LINE
  5
320
330
2
100
AcDbEntity
  8
0
  6
Continuous
 62
     7
100
AcDbLine
 10
4008.469534185236
 20
-1641.372947002746
 30
0.0
 11
4008.401755614773
 21
-1641.59227853665
 31
0.0
  0
LINE
  5
321
330
2
100
AcDbEntity
  8
0
  6
Continuous
 62
     7
100
AcDbLine
 10
4008.000610140611
 20
-1642.978176320398
 30
0.0
 11
4007.932831570148
 21
-1643.197507855725
 31
0.0
  0
LINE
  5
322
330
2
100
AcDbEntity
  8
0
  6
Continuous
 62
     7
100
AcDbLine
 10
4008.703775709944
 20
-1641.307521958082
 30
0.0
 11
4008.635997139482
 21
-1641.526853491985
 31
0.0
  0
LINE
  5
323
330
2
100
AcDbEntity
  8
0
  6
Continuous
 62
     7
100
AcDbLine
 10
4008.662720257587
 20
-1642.793245045456
 30
0.0
 11
4008.594941687126
 21
-1643.01257657936
 31
0.0
  0
LINE
  5
324
330
2
100
AcDbEntity
  8
0
  6
Continuous
 62
     7
100
AcDbLine
 10
4009.883043038781
 20
-1642.452401665981
 30
0.0
 11
4009.815264468318
 21
-1642.671733199884
 31
0.0
  0
LINE
  5
325
330
2
100
AcDbEntity
  8
0
  6
Continuous
 62
     7
100
AcDbLine
 10
4010.219976560697
 20
-1642.779510153343
 30
0.0
 11
4010.213198703794
 21
-1642.801443308155
 31
0.0
  0
LINE
  5
326
330
2
100
AcDbEntity
  8
0
  6
Continuous
 62
     7
100
AcDbLine
 10
3975.860959125555
 20
-1610.664543133621
 30
0.0
 11
3980.164667831218
 21
-1610.664543133621
 31
0.0
  0
LINE
  5
327
330
2
100
AcDbEntity
  8
0
  6
Continuous
 62
     7
100
AcDbLine
 10
4007.171516993735
 20
-1610.664543133621
 30
0.0
 11
4011.474467452369
 21
-1610.664543133621
 31
0.0
  0
LINE
  5
328
330
2
100
AcDbEntity
  8
0
  6
Continuous
 62
     7
100
AcDbLine
 10
4014.105662860733
 20
-1611.863118316349
 30
0.0
 11
4028.512327960177
 21
-1632.474309759412
 31
0.0
  0
LINE
  5
329
330
2
100
AcDbEntity
  8
0
  6
Continuous
 62
     7
100
AcDbLine
 10
4029.055271294807
 20
-1657.979290150064
 30
0.0
 11
4029.064309040917
 21
-1658.063784578992
 31
0.0
  0
LINE
  5
32A
330
2
100
AcDbEntity
  8
0
  6
Continuous
 62
     7
100
AcDbLine
 10
4008.231989662816
 20
-1656.694546720674
 30
0.0
 11
4008.965053602222
 21
-1655.652954024082
 31
0.0
  0
LINE
  5
32B
330
2
100
AcDbEntity
  8
0
  6
Continuous
 62
     7
100
AcDbLine
 10
4009.480016804753
 20
-1655.914030211504
 30
0.0
 11
4008.746952863925
 21
-1656.955622906673
 31
0.0
  0
LINE
  5
32C
330
2
100
AcDbEntity
  8
0
  6
Continuous
 62
     7
100
AcDbLine
 10
4033.402620623155
 20
-1616.126718682806
 30
0.0
 11
4028.512327959462
 21
-1632.474309761803
 31
0.0
  0
LINE
  5
32D
330
2
100
AcDbEntity
  8
0
  6
Continuous
 62
     7
100
AcDbLine
 10
4029.088180069224
 20
-1633.443200401107
 30
0.0
 11
4033.978472732917
 21
-1617.095609322111
 31
0.0
  0
LINE
  5
32E
330
2
100
AcDbEntity
  8
0
  6
Continuous
 62
     7
100
AcDbLine
 10
4028.512327959462
 20
-1632.474309761803
 30
0.0
 11
4023.294150057103
 21
-1648.837741424003
 31
0.0
  0
LINE
  5
32F
330
2
100
AcDbEntity
  8
0
  6
Continuous
 62
     7
100
AcDbLine
 10
4023.870002166865
 20
-1649.806632063307
 30
0.0
 11
4029.088180069224
 21
-1633.443200401107
 31
0.0
  0
LINE
  5
330
330
2
100
AcDbEntity
  8
0
  6
Continuous
 62
     7
100
AcDbLine
 10
4019.069588939363
 20
-1595.620872394606
 30
0.0
 11
4033.402620623155
 21
-1616.126718682806
 31
0.0
  0
LINE
  5
331
330
2
100
AcDbEntity
  8
0
  6
Continuous
 62
     7
100
AcDbLine
 10
4033.408061202164
 20
-1615.290565508279
 30
0.0
 11
4030.201258456321
 21
-1610.702687266019
 31
0.0
  0
LINE
  5
332
330
2
100
AcDbEntity
  8
0
  6
Continuous
 62
     7
100
AcDbLine
 10
4030.058299192734
 20
-1610.466527102933
 30
0.0
 11
4033.347010343315
 21
-1615.171589285576
 31
0.0
  0
LINE
  5
333
330
2
100
AcDbEntity
  8
0
  6
Continuous
 62
     7
100
AcDbLine
 10
4018.952894456776
 20
-1594.546672745499
 30
0.0
 11
4029.851201354253
 21
-1610.138559443299
 31
0.0
  0
LINE
  5
334
330
2
100
AcDbEntity
  8
0
  6
Continuous
 62
     7
100
AcDbLine
 10
4033.551480622106
 20
-1615.478404727824
 30
0.0
 11
4033.347009306385
 21
-1615.171587802012
 31
0.0
  0
LWPOLYLINE
  5
335
330
2
100
AcDbEntity
  8
0
  6
Continuous
 62
     7
100
AcDbPolyline
 90
        3
 70
     0
 43
0.0
 10
4033.945038626352
 20
-1616.178845276039
 10
4033.791261842924
 20
-1615.883391616502
 10
4033.551480622106
 20
-1615.478404727824
  0
LINE
  5
336
330
2
100
AcDbEntity
  8
0
  6
Continuous
 62
     7
100
AcDbLine
 10
4033.346895336586
 20
-1615.171424820576
 30
0.0
 11
4033.408094546064
 21
-1615.290659536031
 31
0.0
  0
LINE
  5
337
330
2
100
AcDbEntity
  8
0
  6
Continuous
 62
     7
100
AcDbLine
 10
4033.944895505887
 20
-1616.17855383908
 30
0.0
 11
4033.945045815161
 21
-1616.178859925336
 31
0.0
  0
LINE
  5
338
330
2
100
AcDbEntity
  8
0
  6
Continuous
 62
     7
100
AcDbLine
 10
4034.262401306841
 20
-1616.83565548652
 30
0.0
 11
4033.945045815161
 21
-1616.178859925336
 31
0.0
  0
LINE
  5
339
330
2
100
AcDbEntity
  8
0
  6
Continuous
 62
     7
100
AcDbLine
 10
4034.629863090179
 20
-1617.623102274131
 30
0.0
 11
4034.262401306841
 21
-1616.83565548652
 31
0.0
  0
LINE
  5
33A
330
2
100
AcDbEntity
  8
0
  6
Continuous
 62
     7
100
AcDbLine
 10
4034.871911438796
 20
-1618.156392080805
 30
0.0
 11
4034.629863090179
 21
-1617.623102274131
 31
0.0
  0
LINE
  5
33B
330
2
100
AcDbEntity
  8
0
  6
Continuous
 62
     7
100
AcDbLine
 10
4035.300151813709
 20
-1619.131236926336
 30
0.0
 11
4034.853206844657
 21
-1618.114619474281
 31
0.0
  0
LINE
  5
33C
330
2
100
AcDbEntity
  8
0
  6
Continuous
 62
     7
100
AcDbLine
 10
4033.945045815161
 20
-1616.178859925336
 30
0.0
 11
4033.968336083238
 21
-1616.23309715961
 31
0.0
  0
LWPOLYLINE
  5
33D
330
2
100
AcDbEntity
  8
0
  6
Continuous
 62
     7
100
AcDbPolyline
 90
        3
 70
     0
 43
0.0
 10
4038.245034829189
 20
-1626.579967801768
 10
4036.76094690156
 20
-1622.699188892678
 10
4035.300151813709
 20
-1619.131236926336
  0
LWPOLYLINE
  5
33E
330
2
100
AcDbEntity
  8
0
  6
Continuous
 62
     7
100
AcDbPolyline
 90
        4
 70
     0
 43
0.0
 10
4038.277607016825
 20
-1628.249542462917
 10
4038.382593861562
 20
-1627.724737772929
 10
4038.374332125684
 20
-1627.086209120602
 10
4038.241635907665
 20
-1626.580860302294
  0
LINE
  5
33F
330
2
100
AcDbEntity
  8
0
  6
Continuous
 62
     7
100
AcDbLine
 10
4028.796832410518
 20
-1658.674742654406
 30
0.0
 11
4029.064309477594
 21
-1658.06378471981
 31
0.0
  0
LINE
  5
340
330
2
100
AcDbEntity
  8
0
  6
Continuous
 62
     7
100
AcDbLine
 10
3981.116668829912
 20
-1594.422297211879
 30
0.0
 11
4016.438393531001
 21
-1594.422297211879
 31
0.0
  0
LINE
  5
341
330
2
100
AcDbEntity
  8
0
  6
Continuous
 62
     7
100
AcDbLine
 10
4017.116929517487
 20
-1593.589962558339
 30
0.0
 11
3981.7952048164
 21
-1593.589962558339
 31
0.0
  0
LINE
  5
342
330
2
100
AcDbEntity
  8
0
  6
Continuous
 62
     7
100
AcDbLine
 10
4038.26742790424
 20
-1628.168740439304
 30
0.0
 11
4038.277628470885
 21
-1628.249467098475
 31
0.0
  0
ARC
  5
343
330
2
100
AcDbEntity
  8
0
  6
Continuous
 62
     7
100
AcDbCircle
 10
4033.881827306903
 20
-1622.931439791346
 30
0.0
 40
63.93622378998401
100
AcDbArc
 50
206.1477294341058
 51
211.0554266717921
  0
ARC
  5
344
330
2
100
AcDbEntity
  8
0
  6
Continuous
 62
     7
100
AcDbCircle
 10
3980.407471567692
 20
-1642.596329636595
 30
0.0
 40
59.69682907996639
100
AcDbArc
 50
24.63481748479904
 51
26.2065319538017
  0
ARC
  5
345
330
2
100
AcDbEntity
  8
0
  6
Continuous
 62
     7
100
AcDbCircle
 10
4053.285329329692
 20
-1615.39040440578
 30
0.0
 40
57.16750023728799
100
AcDbArc
 50
210.0209106252069
 51
210.1773169879052
  0
ARC
  5
346
330
2
100
AcDbEntity
  8
0
  6
Continuous
 62
     7
100
AcDbCircle
 10
3987.38286844928
 20
-1639.388747919081
 30
0.0
 40
52.01928601049599
100
AcDbArc
 50
24.14009823249683
 51
24.62594004839212
  0
ARC
  5
347
330
2
100
AcDbEntity
  8
0
  6
Continuous
 62
     7
100
AcDbCircle
 10
4027.582320965428
 20
-1603.067614241352
 30
0.0
 40
46.70012677593759
100
AcDbArc
 50
239.1705555975997
 51
239.3860896848974
  0
ARC
  5
348
330
2
100
AcDbEntity
  8
0
  6
Continuous
 62
     7
100
AcDbCircle
 10
4000.138911506305
 20
-1650.691084016116
 30
0.0
 40
8.650554304851201
100
AcDbArc
 50
57.78187439520015
 51
58.52966959280301
  0
ARC
  5
349
330
2
100
AcDbEntity
  8
0
  6
Continuous
 62
     7
100
AcDbCircle
 10
4023.863193291684
 20
-1614.212912444082
 30
0.0
 40
7.245171729185599
100
AcDbArc
 50
28.97832181588836
 51
31.15975420489338
  0
ARC
  5
34A
330
2
100
AcDbEntity
  8
0
  6
Continuous
 62
     7
100
AcDbCircle
 10
4010.726470630053
 20
-1640.220003251233
 30
0.0
 40
6.757092848195199
100
AcDbArc
 50
209.3790665973018
 51
210.8187842233046
  0
ARC
  5
34B
330
2
100
AcDbEntity
  8
0
  6
Continuous
 62
     7
100
AcDbCircle
 10
4024.432173562305
 20
-1613.872780099608
 30
0.0
 40
6.582286936187199
100
AcDbArc
 50
31.18886629699861
 51
31.67509700860164
  0
ARC
  5
34C
330
2
100
AcDbEntity
  8
0
  6
Continuous
 62
     7
100
AcDbCircle
 10
4028.236384594053
 20
-1619.04657142536
 30
0.0
 40
6.3851576694864
100
AcDbArc
 50
26.13907845329735
 51
26.66563772729191
  0
ARC
  5
34D
330
2
100
AcDbEntity
  8
0
  6
Continuous
 62
     7
100
AcDbCircle
 10
4024.98991527984
 20
-1613.523022766917
 30
0.0
 40
5.923970475225599
100
AcDbArc
 50
31.62880659769709
 51
34.87825151269934
  0
ARC
  5
34E
330
2
100
AcDbEntity
  8
0
  6
Continuous
 62
     7
100
AcDbCircle
 10
3980.363696924633
 20
-1648.312273109029
 30
0.0
 40
5.1937842615344
100
AcDbArc
 50
195.7918425987934
 51
200.4576421459046
  0
ARC
  5
34F
330
2
100
AcDbEntity
  8
0
  6
Continuous
 62
     7
100
AcDbCircle
 10
4024.318147328586
 20
-1656.671245443223
 30
0.0
 40
4.477202483118399
100
AcDbArc
 50
270.3617873316049
 51
271.8524771522049
  0
ARC
  5
350
330
2
100
AcDbEntity
  8
0
  6
Continuous
 62
     7
100
AcDbCircle
 10
4024.319133915184
 20
-1656.792849542812
 30
0.0
 40
4.355594584297598
100
AcDbArc
 50
269.5087965826906
 51
270.3589102030893
  0
ARC
  5
351
330
2
100
AcDbEntity
  8
0
  6
Continuous
 62
     7
100
AcDbCircle
 10
4025.829133414863
 20
-1656.947540673409
 30
0.0
 40
3.387266195532797
100
AcDbArc
 50
335.8931958936973
 51
341.0029312502917
  0
ARC
  5
352
330
2
100
AcDbEntity
  8
0
  6
Continuous
 62
     7
100
AcDbCircle
 10
4026.081274648756
 20
-1657.038399993849
 30
0.0
 40
3.119283624564799
100
AcDbArc
 50
341.0733501589031
 51
342.4440713902043
  0
ARC
  5
353
330
2
100
AcDbEntity
  8
0
  6
Continuous
 62
     7
100
AcDbCircle
 10
3983.294402936209
 20
-1658.328890809662
 30
0.0
 40
2.771265463198399
100
AcDbArc
 50
238.8618319274939
 51
242.2433647679942
  0
ARC
  5
354
330
2
100
AcDbEntity
  8
0
  6
Continuous
 62
     7
100
AcDbCircle
 10
4035.900995482935
 20
-1627.378341225795
 30
0.0
 40
2.487025366604798
100
AcDbArc
 50
356.9812095807001
 51
2.608767705099756
  0
ARC
  5
355
330
2
100
AcDbEntity
  8
0
  6
Continuous
 62
     7
100
AcDbCircle
 10
4036.079836701072
 20
-1627.371694043357
 30
0.0
 40
2.308067432014398
100
AcDbArc
 50
2.645999375801662
 51
8.35056468580194
  0
ARC
  5
356
330
2
100
AcDbEntity
  8
0
  6
Continuous
 62
     7
100
AcDbCircle
 10
3981.795270169989
 20
-1595.830062458319
 30
0.0
 40
2.240100525835198
100
AcDbArc
 50
90.00167154500147
 51
162.0693483588965
  0
ARC
  5
357
330
2
100
AcDbEntity
  8
0
  6
Continuous
 62
     7
100
AcDbCircle
 10
4017.116886010538
 20
-1595.830046050934
 30
0.0
 40
2.240088047119998
100
AcDbArc
 50
34.95361989720186
 51
89.99888717649527
  0
ARC
  5
358
330
2
100
AcDbEntity
  8
0
  6
Continuous
 62
     7
100
AcDbCircle
 10
3971.696003348397
 20
-1628.510360213061
 30
0.0
 40
2.239813142716798
100
AcDbArc
 50
163.5792896528102
 51
195.7755411239016
  0
ARC
  5
359
330
2
100
AcDbEntity
  8
0
  6
Continuous
 62
     7
100
AcDbCircle
 10
4036.181011506697
 20
-1627.358897585333
 30
0.0
 40
2.206107795852799
100
AcDbArc
 50
8.403358594700026
 51
20.67553770659764
  0
ARC
  5
35A
330
2
100
AcDbEntity
  8
0
  6
Continuous
 62
     7
100
AcDbCircle
 10
3982.918354027349
 20
-1658.810118611442
 30
0.0
 40
2.157462715799999
100
AcDbArc
 50
214.2389135042968
 51
220.9229603150898
  0
ARC
  5
35B
330
2
100
AcDbEntity
  8
0
  6
Continuous
 62
     7
100
AcDbCircle
 10
3982.886767205889
 20
-1658.832593110358
 30
0.0
 40
2.118704923059198
100
AcDbArc
 50
212.2489803565069
 51
214.2170772076052
  0
ARC
  5
35C
330
2
100
AcDbEntity
  8
0
  6
Continuous
 62
     7
100
AcDbCircle
 10
3980.383108090281
 20
-1595.373877024133
 30
0.0
 40
0.7560748452767989
100
AcDbArc
 50
149.4111502064012
 51
162.0084267747023
  0
ARC
  5
35D
330
2
100
AcDbEntity
  8
0
  6
Continuous
 62
     7
100
AcDbCircle
 10
4010.233855355595
 20
-1642.584989086048
 30
0.0
 40
0.1856547673232
100
AcDbArc
 50
342.8327161735906
 51
349.7296923634953
  0
SPLINE
  5
35E
330
2
100
AcDbEntity
  8
0
  6
Continuous
 62
     7
100
AcDbSpline
210
0.0
220
0.0
230
1.0
 70
     8
 71
     3
 72
    11
 73
     7
 74
     0
 42
0.0000000001
 43
0.0000000001
 40
0.0
 40
0.0
 40
0.0
 40
0.0
 40
0.2907641194
 40
0.5521596941000002
 40
0.785701326
 40
1.0
 40
1.0
 40
1.0
 40
1.0
 10
4010.302528085103
 20
-1642.355277066123
 30
0.0
 10
4010.323201046143
 20
-1642.375347199821
 30
0.0
 10
4010.359713472383
 20
-1642.416506668022
 30
0.0
 10
4010.399816391822
 20
-1642.483914071739
 30
0.0
 10
4010.420595938984
 20
-1642.551904450363
 30
0.0
 10
4010.420323954768
 20
-1642.597194937989
 30
0.0
 10
4010.416535480557
 20
-1642.618089904377
 30
0.0
  0
SPLINE
  5
35F
330
2
100
AcDbEntity
  8
0
  6
Continuous
 62
     7
100
AcDbSpline
210
0.0
220
0.0
230
1.0
 70
     8
 71
     3
 72
    11
 73
     7
 74
     0
 42
0.0000000001
 43
0.0000000001
 40
0.0
 40
0.0
 40
0.0
 40
0.0
 40
0.2317285691
 40
0.4925273847
 40
0.7573883423000001
 40
1.0
 40
1.0
 40
1.0
 40
1.0
 10
4008.360064331125
 20
-1641.002346622687
 30
0.0
 10
4008.421039162693
 20
-1640.985315991369
 30
0.0
 10
4008.557504568604
 20
-1640.973632916946
 30
0.0
 10
4008.763275761633
 20
-1641.006812931662
 30
0.0
 10
4008.960055728142
 20
-1641.084114659304
 30
0.0
 10
4009.075704180616
 20
-1641.164227538651
 30
0.0
 10
4009.123260757688
 20
-1641.210397358224
 30
0.0
  0
SPLINE
  5
360
330
2
100
AcDbEntity
  8
0
  6
Continuous
 62
     7
100
AcDbSpline
210
0.0
220
0.0
230
1.0
 70
     8
 71
     3
 72
     9
 73
     5
 74
     0
 42
0.0000000001
 43
0.0000000001
 40
0.0
 40
0.0
 40
0.0
 40
0.0
 40
0.4801984625
 40
1.0
 40
1.0
 40
1.0
 40
1.0
 10
4001.768064375806
 20
-1642.949868000078
 30
0.0
 10
4001.774755947081
 20
-1642.928263010014
 30
0.0
 10
4001.79747332791
 20
-1642.8856597034
 30
0.0
 10
4001.832985513935
 20
-1642.853474475415
 30
0.0
 10
4001.853073185825
 20
-1642.839478211613
 30
0.0
  0
SPLINE
  5
361
330
2
100
AcDbEntity
  8
0
  6
Continuous
 62
     7
100
AcDbSpline
210
0.0
220
0.0
230
1.0
 70
     8
 71
     3
 72
     9
 73
     5
 74
     0
 42
0.0000000001
 43
0.0000000001
 40
0.0
 40
0.0
 40
0.0
 40
0.0
 40
0.2342906112
 40
1.0
 40
1.0
 40
1.0
 40
1.0
 10
4001.853073185825
 20
-1642.839478211613
 30
0.0
 10
4001.861048689304
 20
-1642.833921209163
 30
0.0
 10
4001.896314781638
 20
-1642.811964452467
 30
0.0
 10
4001.935523149449
 20
-1642.796759016381
 30
0.0
 10
4001.966120777052
 20
-1642.788212918562
 30
0.0
  0
LINE
  5
362
330
2
100
AcDbEntity
  8
0
  6
Continuous
 62
     7
100
AcDbLine
 10
4005.503747091474
 20
-1642.556715678536
 30
0.0
 11
4005.693746251021
 21
-1642.6616354372
 31
0.0
  0
LINE
  5
363
330
2
100
AcDbEntity
  8
0
  6
Continuous
 62
     7
100
AcDbLine
 10
4005.693746251021
 20
-1642.6616354372
 30
0.0
 11
4005.908915826879
 21
-1642.772696333899
 31
0.0
  0
LINE
  5
364
330
2
100
AcDbEntity
  8
0
  6
Continuous
 62
     7
100
AcDbLine
 10
4005.908915826879
 20
-1642.772696333899
 30
0.0
 11
4005.936399318775
 21
-1642.786672115142
 31
0.0
  0
LINE
  5
365
330
2
100
AcDbEntity
  8
0
  6
Continuous
 62
     7
100
AcDbLine
 10
4005.936399318775
 20
-1642.786672115142
 30
0.0
 11
4006.363771513356
 21
-1643.003263214802
 31
0.0
  0
LINE
  5
366
330
2
100
AcDbEntity
  8
0
  6
Continuous
 62
     7
100
AcDbLine
 10
4006.363771513356
 20
-1643.003263214802
 30
0.0
 11
4006.398326313234
 21
-1643.020788074646
 31
0.0
  0
LINE
  5
367
330
2
100
AcDbEntity
  8
0
  6
Continuous
 62
     7
100
AcDbLine
 10
4003.730823756554
 20
-1643.892557732678
 30
0.0
 11
4003.787257054101
 21
-1643.992221208434
 31
0.0
  0
LINE
  5
368
330
2
100
AcDbEntity
  8
0
  6
Continuous
 62
     7
100
AcDbLine
 10
4004.923533489392
 20
-1643.681827090285
 30
0.0
 11
4005.002723615188
 21
-1643.809606567924
 31
0.0
  0
LINE
  5
369
330
2
100
AcDbEntity
  8
0
  6
Continuous
 62
     7
100
AcDbLine
 10
4004.370062276094
 20
-1642.718354359779
 30
0.0
 11
4004.838386491793
 21
-1643.534934463979
 31
0.0
  0
LINE
  5
36A
330
2
100
AcDbEntity
  8
0
  6
Continuous
 62
     7
100
AcDbLine
 10
4003.569349767895
 20
-1643.120010092915
 30
0.0
 11
4003.649243001657
 21
-1643.168856368603
 31
0.0
  0
LINE
  5
36B
330
2
100
AcDbEntity
  8
0
  6
Continuous
 62
     7
100
AcDbLine
 10
4003.800264014523
 20
-1643.258603380778
 30
0.0
 11
4005.052983147687
 21
-1644.001866572531
 31
0.0
  0
SPLINE
  5
36C
330
2
100
AcDbEntity
  8
0
  6
Continuous
 62
     7
100
AcDbSpline
210
0.0
220
0.0
230
1.0
 70
     8
 71
     3
 72
    13
 73
     9
 74
     0
 42
0.0000000001
 43
0.0000000001
 40
0.0
 40
0.0
 40
0.0
 40
0.0
 40
0.2505699237
 40
0.4974216118000001
 40
0.6205836095000004
 40
0.7443664004000004
 40
0.8702579062999998
 40
1.0
 40
1.0
 40
1.0
 40
1.0
 10
4025.112727713921
 20
-1655.185776350971
 30
0.0
 10
4025.042098651013
 20
-1655.401735805462
 30
0.0
 10
4024.867735267559
 20
-1655.82024648218
 30
0.0
 10
4024.550178217533
 20
-1656.291906590013
 30
0.0
 10
4024.226871050077
 20
-1656.604135733601
 30
0.0
 10
4023.945133208271
 20
-1656.794912546256
 30
0.0
 10
4023.623107350115
 20
-1656.923932550141
 30
0.0
 10
4023.390296536487
 20
-1656.955622906673
 30
0.0
 10
4023.272647006179
 20
-1656.955622906673
 30
0.0
  0
SPLINE
  5
36D
330
2
100
AcDbEntity
  8
0
  6
Continuous
 62
     7
100
AcDbSpline
210
0.0
220
0.0
230
1.0
 70
     8
 71
     3
 72
    13
 73
     9
 74
     0
 42
0.0000000001
 43
0.0000000001
 40
0.0
 40
0.0
 40
0.0
 40
0.0
 40
0.2517806176000001
 40
0.3774602076
 40
0.5030060695000002
 40
0.6281632310000002
 40
0.7526755537000001
 40
1.0
 40
1.0
 40
1.0
 40
1.0
 10
4023.326789970893
 20
-1650.668517466584
 30
0.0
 10
4023.503827353979
 20
-1651.036090013632
 30
0.0
 10
4023.761407440087
 20
-1651.591056386958
 30
0.0
 10
4024.079250139324
 20
-1652.341673177619
 30
0.0
 10
4024.304484745599
 20
-1652.908492861046
 30
0.0
 10
4024.519693542714
 20
-1653.477151235437
 30
0.0
 10
4024.796605383301
 20
-1654.233365690696
 30
0.0
 10
4024.991821302953
 20
-1654.803596202557
 30
0.0
 10
4025.112342532269
 20
-1655.185809033456
 30
0.0
  0
SPLINE
  5
36E
330
2
100
AcDbEntity
  8
0
  6
Continuous
 62
     7
100
AcDbSpline
210
0.0
220
0.0
230
1.0
 70
     8
 71
     3
 72
     9
 73
     5
 74
     0
 42
0.0000000001
 43
0.0000000001
 40
0.0
 40
0.0
 40
0.0
 40
0.0
 40
0.2424109156
 40
1.0
 40
1.0
 40
1.0
 40
1.0
 10
4023.870038517719
 20
-1649.806518073594
 30
0.0
 10
4023.829885996348
 20
-1649.724716612
 30
0.0
 10
4023.656989165611
 20
-1649.390854306294
 30
0.0
 10
4023.45731427657
 20
-1649.071062496603
 30
0.0
 10
4023.294186407958
 20
-1648.837627434289
 30
0.0
  0
SPLINE
  5
36F
330
2
100
AcDbEntity
  8
0
  6
Continuous
 62
     7
100
AcDbSpline
210
0.0
220
0.0
230
1.0
 70
     8
 71
     3
 72
     9
 73
     5
 74
     0
 42
0.0000000001
 43
0.0000000001
 40
0.0
 40
0.0
 40
0.0
 40
0.0
 40
0.5360970089000002
 40
1.0
 40
1.0
 40
1.0
 40
1.0
 10
4023.326900431633
 20
-1650.66840586508
 30
0.0
 10
4023.455830848499
 20
-1650.538137690971
 30
0.0
 10
4023.672708226071
 20
-1650.269760183531
 30
0.0
 10
4023.821762348486
 20
-1649.957719236265
 30
0.0
 10
4023.870002179666
 20
-1649.806632026325
 30
0.0
  0
SPLINE
  5
370
330
2
100
AcDbEntity
  8
0
  6
Continuous
 62
     7
100
AcDbSpline
210
0.0
220
0.0
230
1.0
 70
     8
 71
     3
 72
     9
 73
     5
 74
     0
 42
0.0000000001
 43
0.0000000001
 40
0.0
 40
0.0
 40
0.0
 40
0.0
 40
0.5258023761999999
 40
1.0
 40
1.0
 40
1.0
 40
1.0
 10
4001.787260143156
 20
-1643.115321407347
 30
0.0
 10
4001.774160163463
 20
-1643.088626455606
 30
0.0
 10
4001.755833274844
 20
-1643.033832377336
 30
0.0
 10
4001.760130191626
 20
-1642.975485000203
 30
0.0
 10
4001.768064375806
 20
-1642.949868000078
 30
0.0
  0
SPLINE
  5
371
330
2
100
AcDbEntity
  8
0
  6
Continuous
 62
     7
100
AcDbSpline
210
0.0
220
0.0
230
1.0
 70
     8
 71
     3
 72
     9
 73
     5
 74
     0
 42
0.0000000001
 43
0.0000000001
 40
0.0
 40
0.0
 40
0.0
 40
0.0
 40
0.2685180747
 40
1.0
 40
1.0
 40
1.0
 40
1.0
 10
4001.876791395741
 20
-1643.234379159173
 30
0.0
 10
4001.867199970474
 20
-1643.22506742184
 30
0.0
 10
4001.832724167849
 20
-1643.189191028873
 30
0.0
 10
4001.803303126767
 20
-1643.148013570157
 30
0.0
 10
4001.787260143156
 20
-1643.115321407347
 30
0.0
  0
SPLINE
  5
372
330
2
100
AcDbEntity
  8
0
  6
Continuous
 62
     7
100
AcDbSpline
210
0.0
220
0.0
230
1.0
 70
     8
 71
     3
 72
    11
 73
     7
 74
     0
 42
0.0000000001
 43
0.0000000001
 40
0.0
 40
0.0
 40
0.0
 40
0.0
 40
0.2317285691
 40
0.4925273847
 40
0.7573883423000001
 40
1.0
 40
1.0
 40
1.0
 40
1.0
 10
4003.819255151142
 20
-1644.587309602608
 30
0.0
 10
4003.758280319574
 20
-1644.604340233926
 30
0.0
 10
4003.621814913663
 20
-1644.616023309773
 30
0.0
 10
4003.416043720634
 20
-1644.582843293634
 30
0.0
 10
4003.219263754124
 20
-1644.505541567415
 30
0.0
 10
4003.103615301652
 20
-1644.425428686645
 30
0.0
 10
4003.056058724578
 20
-1644.379258868494
 30
0.0
  0
SPLINE
  5
373
330
2
100
AcDbEntity
  8
0
  6
Continuous
 62
     7
100
AcDbSpline
210
0.0
220
0.0
230
1.0
 70
     8
 71
     3
 72
    13
 73
     9
 74
     0
 42
0.0000000001
 43
0.0000000001
 40
0.0
 40
0.0
 40
0.0
 40
0.0
 40
0.1240114
 40
0.2625371513
 40
0.4026266033
 40
0.5373009724
 40
0.7829543476000001
 40
1.0
 40
1.0
 40
1.0
 40
1.0
 10
4016.926028290349
 20
-1645.215999073192
 30
0.0
 10
4017.031493724324
 20
-1645.186541952934
 30
0.0
 10
4017.258926883072
 20
-1645.139178391273
 30
0.0
 10
4017.611665442415
 20
-1645.093475973763
 30
0.0
 10
4017.975827050082
 20
-1645.067023016356
 30
0.0
 10
4018.435362618894
 20
-1645.056166128749
 30
0.0
 10
4018.962979467645
 20
-1645.074876598821
 30
0.0
 10
4019.369877061977
 20
-1645.114124825125
 30
0.0
 10
4019.560056221978
 20
-1645.13783224187
 30
0.0
  0
SPLINE
  5
374
330
2
100
AcDbEntity
  8
0
  6
Continuous
 62
     7
100
AcDbSpline
210
0.0
220
0.0
230
1.0
 70
     8
 71
     3
 72
    11
 73
     7
 74
     0
 42
0.0000000001
 43
0.0000000001
 40
0.0
 40
0.0
 40
0.0
 40
0.0
 40
0.233793636
 40
0.4919466925
 40
0.7545501365
 40
1.0
 40
1.0
 40
1.0
 40
1.0
 10
4008.961118373313
 20
-1628.331895134381
 30
0.0
 10
4008.88316698154
 20
-1628.57671350743
 30
0.0
 10
4008.615635418052
 20
-1629.05984931088
 30
0.0
 10
4008.022408029451
 20
-1629.651209702757
 30
0.0
 10
4007.29130620408
 20
-1630.085401284054
 30
0.0
 10
4006.744107656721
 20
-1630.238311945365
 30
0.0
 10
4006.475693940666
 20
-1630.265013505576
 30
0.0
  0
SPLINE
  5
375
330
2
100
AcDbEntity
  8
0
  6
Continuous
 62
     7
100
AcDbSpline
210
0.0
220
0.0
230
1.0
 70
     8
 71
     3
 72
     9
 73
     5
 74
     0
 42
0.0000000001
 43
0.0000000001
 40
0.0
 40
0.0
 40
0.0
 40
0.0
 40
0.2652693495
 40
1.0
 40
1.0
 40
1.0
 40
1.0
 10
4022.76676355323
 20
-1649.725817320594
 30
0.0
 10
4022.827838689601
 20
-1649.657434332544
 30
0.0
 10
4023.046226237787
 20
-1649.389800659227
 30
0.0
 10
4023.217102799666
 20
-1649.079720218684
 30
0.0
 10
4023.294150057103
 20
-1648.837741424003
 30
0.0
  0
SPLINE
  5
376
330
2
100
AcDbEntity
  8
0
  6
Continuous
 62
     7
100
AcDbSpline
210
0.0
220
0.0
230
1.0
 70
     8
 71
     3
 72
     9
 73
     5
 74
     0
 42
0.0000000001
 43
0.0000000001
 40
0.0
 40
0.0
 40
0.0
 40
0.0
 40
0.5442058913000001
 40
1.0
 40
1.0
 40
1.0
 40
1.0
 10
4010.219976560697
 20
-1642.779510153343
 30
0.0
 10
4010.262229797603
 20
-1642.767708574507
 30
0.0
 10
4010.338266121221
 20
-1642.735906990562
 30
0.0
 10
4010.394814554937
 20
-1642.672731454429
 30
0.0
 10
4010.409922011844
 20
-1642.639237739349
 30
0.0
  0
SPLINE
  5
377
330
2
100
AcDbEntity
  8
0
  6
Continuous
 62
     7
100
AcDbSpline
210
0.0
220
0.0
230
1.0
 70
     8
 71
     3
 72
    11
 73
     7
 74
     0
 42
0.0000000001
 43
0.0000000001
 40
0.0
 40
0.0
 40
0.0
 40
0.0
 40
0.2426119069
 40
0.5074729503000001
 40
0.7682716722000002
 40
1.0
 40
1.0
 40
1.0
 40
1.0
 10
4003.062836581483
 20
-1644.357325715104
 30
0.0
 10
4003.110393206917
 20
-1644.403495581616
 30
0.0
 10
4003.226041751846
 20
-1644.483608497945
 30
0.0
 10
4003.42282179801
 20
-1644.560910201406
 30
0.0
 10
4003.628592932721
 20
-1644.594090153537
 30
0.0
 10
4003.765058239063
 20
-1644.582407063467
 30
0.0
 10
4003.826033008045
 20
-1644.565376449217
 30
0.0
  0
SPLINE
  5
378
330
2
100
AcDbEntity
  8
0
  6
Continuous
 62
     7
100
AcDbSpline
210
0.0
220
0.0
230
1.0
 70
     8
 71
     3
 72
     9
 73
     5
 74
     0
 42
0.0000000001
 43
0.0000000001
 40
0.0
 40
0.0
 40
0.0
 40
0.0
 40
0.2322926317
 40
1.0
 40
1.0
 40
1.0
 40
1.0
 10
4001.794038000059
 20
-1643.093388252534
 30
0.0
 10
4001.799134035384
 20
-1643.103772879161
 30
0.0
 10
4001.823466049306
 20
-1643.147302879376
 30
0.0
 10
4001.856139571564
 20
-1643.185816178626
 30
0.0
 10
4001.883569252646
 20
-1643.212446005782
 30
0.0
  0
SPLINE
  5
379
330
2
100
AcDbEntity
  8
0
  6
Continuous
 62
     7
100
AcDbSpline
210
0.0
220
0.0
230
1.0
 70
     8
 71
     3
 72
     9
 73
     5
 74
     0
 42
0.0000000001
 43
0.0000000001
 40
0.0
 40
0.0
 40
0.0
 40
0.0
 40
0.5131216213
 40
1.0
 40
1.0
 40
1.0
 40
1.0
 10
4022.766858969244
 20
-1649.725710484129
 30
0.0
 10
4022.638382568234
 20
-1649.869573030034
 30
0.0
 10
4022.335702759676
 20
-1650.105274400845
 30
0.0
 10
4021.969908495686
 20
-1650.230168379352
 30
0.0
 10
4021.787792296851
 20
-1650.248285138241
 30
0.0
  0
SPLINE
  5
37A
330
2
100
AcDbEntity
  8
0
  6
Continuous
 62
     7
100
AcDbSpline
210
0.0
220
0.0
230
1.0
 70
     8
 71
     3
 72
     9
 73
     5
 74
     0
 42
0.0000000001
 43
0.0000000001
 40
0.0
 40
0.0
 40
0.0
 40
0.0
 40
0.2424829912
 40
1.0
 40
1.0
 40
1.0
 40
1.0
 10
4023.327270148952
 20
-1650.668661164544
 30
0.0
 10
4023.288189373267
 20
-1650.589022914474
 30
0.0
 10
4023.120146880802
 20
-1650.263985094447
 30
0.0
 10
4022.925612731695
 20
-1649.952871155132
 30
0.0
 10
4022.766844721063
 20
-1649.725726437768
 30
0.0
  0
SPLINE
  5
37B
330
2
100
AcDbEntity
  8
0
  6
Continuous
 62
     7
100
AcDbSpline
210
0.0
220
0.0
230
1.0
 70
     8
 71
     3
 72
    13
 73
     9
 74
     0
 42
0.0000000001
 43
0.0000000001
 40
0.0
 40
0.0
 40
0.0
 40
0.0
 40
0.1296331288
 40
0.2552578713
 40
0.3789042729999999
 40
0.5020102655
 40
0.7491993039000004
 40
1.0
 40
1.0
 40
1.0
 40
1.0
 10
4024.395057146622
 20
-1655.914030211504
 30
0.0
 10
4024.442128555858
 20
-1655.914029173152
 30
0.0
 10
4024.535326889348
 20
-1655.900521660212
 30
0.0
 10
4024.662544827648
 20
-1655.844711793474
 30
0.0
 10
4024.771960990426
 20
-1655.763810351212
 30
0.0
 10
4024.896762108972
 20
-1655.634097703958
 30
0.0
 10
4025.017430888107
 20
-1655.440954996314
 30
0.0
 10
4025.084388371056
 20
-1655.272323564821
 30
0.0
 10
4025.112727713921
 20
-1655.185776350971
 30
0.0
  0
SPLINE
  5
37C
330
2
100
AcDbEntity
  8
0
  6
Continuous
 62
     7
100
AcDbSpline
210
0.0
220
0.0
230
1.0
 70
     8
 71
     3
 72
     9
 73
     5
 74
     0
 42
0.0000000001
 43
0.0000000001
 40
0.0
 40
0.0
 40
0.0
 40
0.0
 40
0.5045459749
 40
1.0
 40
1.0
 40
1.0
 40
1.0
 10
4023.326792681987
 20
-1650.669144225808
 30
0.0
 10
4023.192136405302
 20
-1650.805309388682
 30
0.0
 10
4022.867469235688
 20
-1651.020746944699
 30
0.0
 10
4022.486411798974
 20
-1651.107307081052
 30
0.0
 10
4022.298360040152
 20
-1651.107309235989
 30
0.0
  0
SPLINE
  5
37D
330
2
100
AcDbEntity
  8
0
  6
Continuous
 62
     7
100
AcDbSpline
210
0.0
220
0.0
230
1.0
 70
     8
 71
     3
 72
    10
 73
     6
 74
     0
 42
0.0000000001
 43
0.0000000001
 40
0.0
 40
0.0
 40
0.0
 40
0.0
 40
0.2210398648
 40
0.4560156588
 40
1.0
 40
1.0
 40
1.0
 40
1.0
 10
4010.411238656405
 20
-1642.639787417294
 30
0.0
 10
4010.405466901425
 20
-1642.658456111479
 30
0.0
 10
4010.387108705781
 20
-1642.695245845976
 30
0.0
 10
4010.3250650032
 20
-1642.759627786402
 30
0.0
 10
4010.259515758835
 20
-1642.788506679723
 30
0.0
 10
4010.213198703794
 20
-1642.801443308155
 30
0.0
  0
SPLINE
  5
37E
330
2
100
AcDbEntity
  8
0
  6
Continuous
 62
     7
100
AcDbSpline
210
0.0
220
0.0
230
1.0
 70
     8
 71
     3
 72
     9
 73
     5
 74
     0
 42
0.0000000001
 43
0.0000000001
 40
0.0
 40
0.0
 40
0.0
 40
0.0
 40
0.2424967297
 40
1.0
 40
1.0
 40
1.0
 40
1.0
 10
4022.298346139037
 20
-1651.107309235989
 30
0.0
 10
4022.262741174128
 20
-1651.034753944777
 30
0.0
 10
4022.109585417651
 20
-1650.738676737797
 30
0.0
 10
4021.93242879762
 20
-1650.455212320017
 30
0.0
 10
4021.787792296851
 20
-1650.248285138241
 30
0.0
  0
SPLINE
  5
37F
330
2
100
AcDbEntity
  8
0
  6
Continuous
 62
     7
100
AcDbSpline
210
0.0
220
0.0
230
1.0
 70
     8
 71
     3
 72
     9
 73
     5
 74
     0
 42
0.0000000001
 43
0.0000000001
 40
0.0
 40
0.0
 40
0.0
 40
0.0
 40
0.5025286008
 40
1.0
 40
1.0
 40
1.0
 40
1.0
 10
4003.648220223514
 20
-1642.719568541755
 30
0.0
 10
4003.81703519866
 20
-1642.818673365643
 30
0.0
 10
4004.152722210291
 20
-1643.016271946111
 30
0.0
 10
4004.48973225306
 20
-1643.211733955187
 30
0.0
 10
4004.654993677577
 20
-1643.312934410952
 30
0.0
  0
SPLINE
  5
380
330
2
100
AcDbEntity
  8
0
  6
Continuous
 62
     7
100
AcDbSpline
210
0.0
220
0.0
230
1.0
 70
     8
 71
     3
 72
     9
 73
     5
 74
     0
 42
0.0000000001
 43
0.0000000001
 40
0.0
 40
0.0
 40
0.0
 40
0.0
 40
0.2368991877
 40
1.0
 40
1.0
 40
1.0
 40
1.0
 10
4001.766534229006
 20
-1642.988207103689
 30
0.0
 10
4001.766719288936
 20
-1642.996829743696
 30
0.0
 10
4001.769832463099
 20
-1643.033177882734
 30
0.0
 10
4001.781798980596
 20
-1643.068447754384
 30
0.0
 10
4001.794038000059
 20
-1643.093388252534
 30
0.0
  0
LINE
  5
381
330
2
100
AcDbEntity
  8
0
  6
Continuous
 62
     7
100
AcDbLine
 10
4002.560130559616
 20
-1643.02347842761
 30
0.0
 11
4003.641664950874
 21
-1643.713192057171
 31
0.0
  0
SPLINE
  5
382
330
2
100
AcDbEntity
  8
0
  6
Continuous
 62
     7
100
AcDbSpline
210
0.0
220
0.0
230
1.0
 70
     8
 71
     3
 72
     9
 73
     5
 74
     0
 42
0.0000000001
 43
0.0000000001
 40
0.0
 40
0.0
 40
0.0
 40
0.0
 40
0.2460188513
 40
1.0
 40
1.0
 40
1.0
 40
1.0
 10
4024.395057146622
 20
-1655.914030211504
 30
0.0
 10
4024.242022500394
 20
-1655.512036527507
 30
0.0
 10
4023.599444049104
 20
-1653.88590154844
 30
0.0
 10
4022.879094149599
 20
-1652.290749236389
 30
0.0
 10
4022.298346139037
 20
-1651.107309235989
 30
0.0
  0
LINE
  5
383
330
2
100
AcDbEntity
  8
0
  6
Continuous
 62
     7
100
AcDbLine
 10
4003.83989821618
 20
-1643.282135436939
 30
0.0
 11
4004.228188167157
 21
-1644.031836116655
 31
0.0
  0
SPLINE
  5
384
330
2
100
AcDbEntity
  8
0
  6
Continuous
 62
     7
100
AcDbSpline
210
0.0
220
0.0
230
1.0
 70
     8
 71
     3
 72
    13
 73
     9
 74
     0
 42
0.0000000001
 43
0.0000000001
 40
0.0
 40
0.0
 40
0.0
 40
0.0
 40
0.1190548713
 40
0.248180254
 40
0.5198909877000001
 40
0.7810039139000004
 40
0.8974851816000001
 40
1.0
 40
1.0
 40
1.0
 40
1.0
 10
4006.329922964949
 20
-1627.133319953075
 30
0.0
 10
4006.293144360731
 20
-1627.254492328662
 30
0.0
 10
4006.231089809505
 20
-1627.511624358771
 30
0.0
 10
4006.150110025719
 20
-1628.059181924157
 30
0.0
 10
4006.130782059091
 20
-1628.765689716727
 30
0.0
 10
4006.211724156389
 20
-1629.455019612638
 30
0.0
 10
4006.342420073203
 20
-1629.94941489837
 30
0.0
 10
4006.427657864018
 20
-1630.167126271734
 30
0.0
 10
4006.475693940666
 20
-1630.265013505576
 30
0.0
  0
SPLINE
  5
385
330
2
100
AcDbEntity
  8
0
  6
Continuous
 62
     7
100
AcDbSpline
210
0.0
220
0.0
230
1.0
 70
     8
 71
     3
 72
    11
 73
     7
 74
     0
 42
0.0000000001
 43
0.0000000001
 40
0.0
 40
0.0
 40
0.0
 40
0.0
 40
0.2205161558
 40
0.4740198769
 40
0.7414553938
 40
1.0
 40
1.0
 40
1.0
 40
1.0
 10
4008.961118373313
 20
-1628.331895134381
 30
0.0
 10
4008.834485247662
 20
-1628.153261619359
 30
0.0
 10
4008.488989853512
 20
-1627.821374913462
 30
0.0
 10
4007.84750374426
 20
-1627.450504320077
 30
0.0
 10
4007.10940641487
 20
-1627.202050733571
 30
0.0
 10
4006.586644039518
 20
-1627.13499088476
 30
0.0
 10
4006.329922964949
 20
-1627.133319953075
 30
0.0
  0
SPLINE
  5
386
330
2
100
AcDbEntity
  8
0
  6
Continuous
 62
     7
100
AcDbSpline
210
0.0
220
0.0
230
1.0
 70
     8
 71
     3
 72
    12
 73
     8
 74
     0
 42
0.0000000001
 43
0.0000000001
 40
0.0
 40
0.0
 40
0.0
 40
0.0
 40
0.3042520254
 40
0.5703954376000003
 40
0.7976380096
 40
0.9006487484999999
 40
1.0
 40
1.0
 40
1.0
 40
1.0
 10
3971.008198263862
 20
-1627.133319953075
 30
0.0
 10
3970.831292630578
 20
-1627.134466855531
 30
0.0
 10
3970.498482380273
 20
-1627.164751778451
 30
0.0
 10
3970.052522861323
 20
-1627.30701614843
 30
0.0
 10
3969.761299208871
 20
-1627.510611053812
 30
0.0
 10
3969.611009376457
 20
-1627.712537246454
 30
0.0
 10
3969.563882736853
 20
-1627.821780553494
 30
0.0
 10
3969.54754874727
 20
-1627.877191687376
 30
0.0
  0
SPLINE
  5
387
330
2
100
AcDbEntity
  8
0
  6
Continuous
 62
     7
100
AcDbSpline
210
0.0
220
0.0
230
1.0
 70
     8
 71
     3
 72
    13
 73
     9
 74
     0
 42
0.0000000001
 43
0.0000000001
 40
0.0
 40
0.0
 40
0.0
 40
0.0
 40
0.1025148184
 40
0.2189960861
 40
0.4801090123
 40
0.7518197459999999
 40
0.8809451287000001
 40
1.0
 40
1.0
 40
1.0
 40
1.0
 10
3971.153969239579
 20
-1630.265013505576
 30
0.0
 10
3971.105933162931
 20
-1630.167126271734
 30
0.0
 10
3971.020695372116
 20
-1629.94941489837
 30
0.0
 10
3970.889999456725
 20
-1629.455019612638
 30
0.0
 10
3970.809057358005
 20
-1628.765689716727
 30
0.0
 10
3970.828385324632
 20
-1628.059181924157
 30
0.0
 10
3970.90936510984
 20
-1627.511624358771
 30
0.0
 10
3970.971419659644
 20
-1627.254492328662
 30
0.0
 10
3971.008198263862
 20
-1627.133319953075
 30
0.0
  0
SPLINE
  5
388
330
2
100
AcDbEntity
  8
0
  6
Continuous
 62
     7
100
AcDbSpline
210
0.0
220
0.0
230
1.0
 70
     8
 71
     3
 72
    12
 73
     8
 74
     0
 42
0.0000000001
 43
0.0000000001
 40
0.0
 40
0.0
 40
0.0
 40
0.0
 40
0.3031045281
 40
0.5688927784000001
 40
0.7967156794
 40
0.9002082737999998
 40
1.0
 40
1.0
 40
1.0
 40
1.0
 10
3975.860959125555
 20
-1610.664543133621
 30
0.0
 10
3975.686753272901
 20
-1610.664526606755
 30
0.0
 10
3975.35848377572
 20
-1610.692187048056
 30
0.0
 10
3974.917140665926
 20
-1610.829131991946
 30
0.0
 10
3974.626838536652
 20
-1611.027047818821
 30
0.0
 10
3974.474120116968
 20
-1611.22445684742
 30
0.0
 10
3974.424754568556
 20
-1611.331724191941
 30
0.0
 10
3974.407095808243
 20
-1611.386292192532
 30
0.0
  0
SPLINE
  5
389
330
2
100
AcDbEntity
  8
0
  6
Continuous
 62
     7
100
AcDbSpline
210
0.0
220
0.0
230
1.0
 70
     8
 71
     3
 72
    11
 73
     7
 74
     0
 42
0.0000000001
 43
0.0000000001
 40
0.0
 40
0.0
 40
0.0
 40
0.0
 40
0.2310603129
 40
0.4706648014
 40
0.7258554944000001
 40
1.0
 40
1.0
 40
1.0
 40
1.0
 10
4018.95286827466
 20
-1594.546691041831
 30
0.0
 10
4019.002109000359
 20
-1594.617164895294
 30
0.0
 10
4019.083579167924
 20
-1594.774858560095
 30
0.0
 10
4019.142939374933
 20
-1595.040984606047
 30
0.0
 10
4019.139890272776
 20
-1595.329217464786
 30
0.0
 10
4019.098865485942
 20
-1595.523161326427
 30
0.0
 10
4019.069588939363
 20
-1595.620872394606
 30
0.0
  0
SPLINE
  5
38A
330
2
100
AcDbEntity
  8
0
  6
Continuous
 62
     7
100
AcDbSpline
210
0.0
220
0.0
230
1.0
 70
     8
 71
     3
 72
    11
 73
     7
 74
     0
 42
0.0000000001
 43
0.0000000001
 40
0.0
 40
0.0
 40
0.0
 40
0.0
 40
0.2752537492
 40
0.5321842148
 40
0.7715843566
 40
1.0
 40
1.0
 40
1.0
 40
1.0
 10
3971.153969239579
 20
-1630.265013505576
 30
0.0
 10
3970.962477575625
 20
-1630.24765852723
 30
0.0
 10
3970.594069734132
 20
-1630.172353742509
 30
0.0
 10
3970.105244505638
 20
-1629.929418850376
 30
0.0
 10
3969.732871927551
 20
-1629.573802657775
 30
0.0
 10
3969.584198149206
 20
-1629.273502643897
 30
0.0
 10
3969.540746204614
 20
-1629.119975087706
 30
0.0
  0
SPLINE
  5
38B
330
2
100
AcDbEntity
  8
0
  6
Continuous
 62
     7
100
AcDbSpline
210
0.0
220
0.0
230
1.0
 70
     8
 71
     3
 72
     9
 73
     5
 74
     0
 42
0.0000000001
 43
0.0000000001
 40
0.0
 40
0.0
 40
0.0
 40
0.0
 40
0.2452497707
 40
1.0
 40
1.0
 40
1.0
 40
1.0
 10
4005.629153311779
 20
-1642.803038433031
 30
0.0
 10
4005.621230026026
 20
-1642.781849146479
 30
0.0
 10
4005.586370354623
 20
-1642.69641272604
 30
0.0
 10
4005.541651011804
 20
-1642.615112084374
 30
0.0
 10
4005.503747091474
 20
-1642.556715678536
 30
0.0
  0
SPLINE
  5
38C
330
2
100
AcDbEntity
  8
0
  6
Continuous
 62
     7
100
AcDbSpline
210
0.0
220
0.0
230
1.0
 70
     8
 71
     3
 72
    13
 73
     9
 74
     0
 42
0.0000000001
 43
0.0000000001
 40
0.0
 40
0.0
 40
0.0
 40
0.0
 40
0.0862582811
 40
0.1781724453
 40
0.2801728865
 40
0.3951426625
 40
0.6686451658000001
 40
1.0
 40
1.0
 40
1.0
 40
1.0
 10
4017.116929516065
 20
-1593.589994706002
 30
0.0
 10
4017.084272503605
 20
-1593.589987557019
 30
0.0
 10
4017.016469918763
 20
-1593.599981232739
 30
0.0
 10
4016.918714842949
 20
-1593.643788130139
 30
0.0
 10
4016.824615086217
 20
-1593.714526235652
 30
0.0
 10
4016.697786214145
 20
-1593.851170313494
 30
0.0
 10
4016.557616424889
 20
-1594.08792399005
 30
0.0
 10
4016.476040908691
 20
-1594.302629941739
 30
0.0
 10
4016.438393531001
 20
-1594.422297211879
 30
0.0
  0
SPLINE
  5
38D
330
2
100
AcDbEntity
  8
0
  6
Continuous
 62
     7
100
AcDbSpline
210
0.0
220
0.0
230
1.0
 70
     8
 71
     3
 72
    12
 73
     8
 74
     0
 42
0.0000000001
 43
0.0000000001
 40
0.0
 40
0.0
 40
0.0
 40
0.0
 40
0.2528456457999999
 40
0.5067136127000002
 40
0.6334044518000001
 40
0.7588620894
 40
1.0
 40
1.0
 40
1.0
 40
1.0
 10
3978.167817722395
 20
-1655.185776548684
 30
0.0
 10
3978.306773988247
 20
-1655.404646771243
 30
0.0
 10
3978.61334737073
 20
-1655.826179791929
 30
0.0
 10
3979.0709777528
 20
-1656.291826628376
 30
0.0
 10
3979.488267629114
 20
-1656.602749536526
 30
0.0
 10
3979.92876635533
 20
-1656.850879337852
 30
0.0
 10
3980.305463336656
 20
-1656.955622906673
 30
0.0
 10
3980.552713571339
 20
-1656.955622906673
 30
0.0
  0
SPLINE
  5
38E
330
2
100
AcDbEntity
  8
0
  6
Continuous
 62
     7
100
AcDbSpline
210
0.0
220
0.0
230
1.0
 70
     8
 71
     3
 72
    10
 73
     6
 74
     0
 42
0.0000000001
 43
0.0000000001
 40
0.0
 40
0.0
 40
0.0
 40
0.0
 40
0.2545004326
 40
0.510186021
 40
1.0
 40
1.0
 40
1.0
 40
1.0
 10
3978.167817722395
 20
-1655.185776548684
 30
0.0
 10
3978.223439991643
 20
-1655.273332679389
 30
0.0
 10
3978.345383999317
 20
-1655.443659650088
 30
0.0
 10
3978.618730725164
 20
-1655.739622281326
 30
0.0
 10
3978.910028185953
 20
-1655.914025809176
 30
0.0
 10
3979.109667940291
 20
-1655.914030211504
 30
0.0
  0
SPLINE
  5
38F
330
2
100
AcDbEntity
  8
0
  6
Continuous
 62
     7
100
AcDbSpline
210
0.0
220
0.0
230
1.0
 70
     8
 71
     3
 72
    11
 73
     7
 74
     0
 42
0.0000000001
 43
0.0000000001
 40
0.0
 40
0.0
 40
0.0
 40
0.0
 40
0.2778832765
 40
0.5348791739000001
 40
0.7730195207
 40
1.0
 40
1.0
 40
1.0
 40
1.0
 10
3976.488772942518
 20
-1651.107309235989
 30
0.0
 10
3976.408158755359
 20
-1651.107308311429
 30
0.0
 10
3976.2523002241
 20
-1651.091879030832
 30
0.0
 10
3976.038293312313
 20
-1651.017124979477
 30
0.0
 10
3975.864745511682
 20
-1650.894330513153
 30
0.0
 10
3975.783664010651
 20
-1650.782754615198
 30
0.0
 10
3975.754599154175
 20
-1650.723669141904
 30
0.0
  0
SPLINE
  5
390
330
2
100
AcDbEntity
  8
0
  6
Continuous
 62
     7
100
AcDbSpline
210
0.0
220
0.0
230
1.0
 70
     8
 71
     3
 72
     9
 73
     5
 74
     0
 42
0.0000000001
 43
0.0000000001
 40
0.0
 40
0.0
 40
0.0
 40
0.0
 40
0.2477066912
 40
1.0
 40
1.0
 40
1.0
 40
1.0
 10
3981.288194546703
 20
-1660.223350877885
 30
0.0
 10
3981.309706119225
 20
-1660.248178615275
 30
0.0
 10
3981.398785020163
 20
-1660.346455488571
 30
0.0
 10
3981.496665085109
 20
-1660.436707091456
 30
0.0
 10
3981.574132758468
 20
-1660.499576032114
 30
0.0
  0
SPLINE
  5
391
330
2
100
AcDbEntity
  8
0
  6
Continuous
 62
     7
100
AcDbSpline
210
0.0
220
0.0
230
1.0
 70
     8
 71
     3
 72
     9
 73
     5
 74
     0
 42
0.0000000001
 43
0.0000000001
 40
0.0
 40
0.0
 40
0.0
 40
0.0
 40
0.2472451666
 40
1.0
 40
1.0
 40
1.0
 40
1.0
 10
3981.574132758468
 20
-1660.499576032114
 30
0.0
 10
3981.596588891357
 20
-1660.517800321599
 30
0.0
 10
3981.688745595639
 20
-1660.589859392923
 30
0.0
 10
3981.786015853522
 20
-1660.655333753618
 30
0.0
 10
3981.861371523183
 20
-1660.700880108245
 30
0.0
  0
SPLINE
  5
392
330
2
100
AcDbEntity
  8
0
  6
Continuous
 62
     7
100
AcDbSpline
210
0.0
220
0.0
230
1.0
 70
     8
 71
     3
 72
    10
 73
     6
 74
     0
 42
0.0000000001
 43
0.0000000001
 40
0.0
 40
0.0
 40
0.0
 40
0.0
 40
0.2352427265
 40
0.4804624257000001
 40
1.0
 40
1.0
 40
1.0
 40
1.0
 10
3982.003777485969
 20
-1660.781277038027
 30
0.0
 10
3982.122396420283
 20
-1660.843731134302
 30
0.0
 10
3982.374175892338
 20
-1660.954104974819
 30
0.0
 10
3982.92356497837
 20
-1661.109831872915
 30
0.0
 10
3983.362432284327
 20
-1661.150851149373
 30
0.0
 10
3983.658485744339
 20
-1661.148284063015
 30
0.0
  0
SPLINE
  5
393
330
2
100
AcDbEntity
  8
0
  6
Continuous
 62
     7
100
AcDbSpline
210
0.0
220
0.0
230
1.0
 70
     8
 71
     3
 72
     9
 73
     5
 74
     0
 42
0.0000000001
 43
0.0000000001
 40
0.0
 40
0.0
 40
0.0
 40
0.0
 40
0.5251803136
 40
1.0
 40
1.0
 40
1.0
 40
1.0
 10
3976.156245088398
 20
-1650.248285138241
 30
0.0
 10
3976.023294650514
 20
-1650.236235780171
 30
0.0
 10
3975.770995518843
 20
-1650.174139012112
 30
0.0
 10
3975.558501332301
 20
-1650.018255914583
 30
0.0
 10
3975.481648269447
 20
-1649.925193056156
 30
0.0
  0
SPLINE
  5
394
330
2
100
AcDbEntity
  8
0
  6
Continuous
 62
     7
100
AcDbSpline
210
0.0
220
0.0
230
1.0
 70
     8
 71
     3
 72
     9
 73
     5
 74
     0
 42
0.0000000001
 43
0.0000000001
 40
0.0
 40
0.0
 40
0.0
 40
0.0
 40
0.2541553815
 40
1.0
 40
1.0
 40
1.0
 40
1.0
 10
3975.481648269447
 20
-1649.925193056156
 30
0.0
 10
3975.469175216821
 20
-1649.910089196499
 30
0.0
 10
3975.422504975592
 20
-1649.848724899009
 30
0.0
 10
3975.385926168789
 20
-1649.779607097698
 30
0.0
 10
3975.365937047885
 20
-1649.725710484129
 30
0.0
  0
SPLINE
  5
395
330
2
100
AcDbEntity
  8
0
  6
Continuous
 62
     7
100
AcDbSpline
210
0.0
220
0.0
230
1.0
 70
     8
 71
     3
 72
    16
 73
    12
 74
     0
 42
0.0000000001
 43
0.0000000001
 40
0.0
 40
0.0
 40
0.0
 40
0.0
 40
0.2649901236
 40
0.490796068
 40
0.664468888
 40
0.7903456505
 40
0.8780646306999997
 40
0.936570135
 40
0.9574312839999999
 40
0.9740858986999999
 40
1.0
 40
1.0
 40
1.0
 40
1.0
 10
3975.377391034832
 20
-1645.215999073192
 30
0.0
 10
3975.261166193165
 20
-1645.190521008832
 30
0.0
 10
3975.04523382117
 20
-1645.146293733914
 30
0.0
 10
3974.750885612509
 20
-1645.096968224639
 30
0.0
 10
3974.516592404896
 20
-1645.068894913248
 30
0.0
 10
3974.342758332041
 20
-1645.058926778142
 30
0.0
 10
3974.22057845631
 20
-1645.063029102069
 30
0.0
 10
3974.145979923059
 20
-1645.075729351801
 30
0.0
 10
3974.105967776921
 20
-1645.092441301511
 30
0.0
 10
3974.082159199087
 20
-1645.108232870233
 30
0.0
 10
3974.071370515561
 20
-1645.126285608322
 30
0.0
 10
3974.069932521788
 20
-1645.13783224187
 30
0.0
  0
SPLINE
  5
396
330
2
100
AcDbEntity
  8
0
  6
Continuous
 62
     7
100
AcDbSpline
210
0.0
220
0.0
230
1.0
 70
     8
 71
     3
 72
     9
 73
     5
 74
     0
 42
0.0000000001
 43
0.0000000001
 40
0.0
 40
0.0
 40
0.0
 40
0.0
 40
0.2427755631
 40
1.0
 40
1.0
 40
1.0
 40
1.0
 10
3976.156245088398
 20
-1650.248285138241
 30
0.0
 10
3976.176525350403
 20
-1650.320077616246
 30
0.0
 10
3976.267383847274
 20
-1650.613703309715
 30
0.0
 10
3976.386278842401
 20
-1650.89841989324
 30
0.0
 10
3976.488786843633
 20
-1651.107309235989
 30
0.0
  0
LINE
  5
397
330
2
100
AcDbEntity
  8
0
  6
Continuous
 62
     7
100
AcDbLine
 10
4004.160409596695
 20
-1644.25116765056
 30
0.0
 11
4003.653510881564
 21
-1643.26961250928
 31
0.0
  0
SPLINE
  5
398
330
2
100
AcDbEntity
  8
0
  6
Continuous
 62
     7
100
AcDbSpline
210
0.0
220
0.0
230
1.0
 70
     8
 71
     3
 72
    10
 73
     6
 74
     0
 42
0.0000000001
 43
0.0000000001
 40
0.0
 40
0.0
 40
0.0
 40
0.0
 40
0.2449221936
 40
0.4963449616000001
 40
1.0
 40
1.0
 40
1.0
 40
1.0
 10
4003.86551879364
 20
-1644.12723460851
 30
0.0
 10
4003.756422951076
 20
-1644.050548747354
 30
0.0
 10
4003.529721769324
 20
-1643.903265659446
 30
0.0
 10
4003.070323506207
 20
-1643.611127962798
 30
0.0
 10
4002.723581651561
 20
-1643.390223604405
 30
0.0
 10
4002.492351989154
 20
-1643.242809961513
 30
0.0
  0
SPLINE
  5
399
330
2
100
AcDbEntity
  8
0
  6
Continuous
 62
     7
100
AcDbSpline
210
0.0
220
0.0
230
1.0
 70
     8
 71
     3
 72
    11
 73
     7
 74
     0
 42
0.0000000001
 43
0.0000000001
 40
0.0
 40
0.0
 40
0.0
 40
0.0
 40
0.2244439421
 40
0.4770417798
 40
0.7390095256000003
 40
1.0
 40
1.0
 40
1.0
 40
1.0
 10
4005.002723615188
 20
-1643.809606567924
 30
0.0
 10
4004.902446385211
 20
-1643.735294865899
 30
0.0
 10
4004.68232440087
 20
-1643.586728057725
 30
0.0
 10
4004.328851304211
 20
-1643.377013609184
 30
0.0
 10
4003.956167937412
 20
-1643.159990498196
 30
0.0
 10
4003.70560175122
 20
-1643.012376789056
 30
0.0
 10
4003.580441653052
 20
-1642.93890007566
 30
0.0
  0
SPLINE
  5
39A
330
2
100
AcDbEntity
  8
0
  6
Continuous
 62
     7
100
AcDbSpline
210
0.0
220
0.0
230
1.0
 70
     8
 71
     3
 72
     9
 73
     5
 74
     0
 42
0.0000000001
 43
0.0000000001
 40
0.0
 40
0.0
 40
0.0
 40
0.0
 40
0.2163120046
 40
1.0
 40
1.0
 40
1.0
 40
1.0
 10
4003.653510881564
 20
-1643.26961250928
 30
0.0
 10
4003.647903800677
 20
-1643.258577040774
 30
0.0
 10
4003.621281399871
 20
-1643.207916599143
 30
0.0
 10
4003.592453583511
 20
-1643.158446507178
 30
0.0
 10
4003.569349767895
 20
-1643.120010092915
 30
0.0
  0
SPLINE
  5
39B
330
2
100
AcDbEntity
  8
0
  6
Continuous
 62
     7
100
AcDbSpline
210
0.0
220
0.0
230
1.0
 70
     8
 71
     3
 72
    11
 73
     7
 74
     0
 42
0.0000000001
 43
0.0000000001
 40
0.0
 40
0.0
 40
0.0
 40
0.0
 40
0.205468619
 40
0.4377920068
 40
0.7032263518999999
 40
1.0
 40
1.0
 40
1.0
 40
1.0
 10
3979.73224780887
 20
-1594.989130270132
 30
0.0
 10
3979.78647168823
 20
-1594.897284956237
 30
0.0
 10
3979.94402675153
 20
-1594.725220866736
 30
0.0
 10
3980.268145275859
 20
-1594.547752439555
 30
0.0
 10
3980.669813083748
 20
-1594.441440667622
 30
0.0
 10
3980.962618837583
 20
-1594.421308288279
 30
0.0
 10
3981.116668829912
 20
-1594.422297211879
 30
0.0
  0
SPLINE
  5
39C
330
2
100
AcDbEntity
  8
0
  6
Continuous
 62
     7
100
AcDbSpline
210
0.0
220
0.0
230
1.0
 70
     8
 71
     3
 72
     9
 73
     5
 74
     0
 42
0.0000000001
 43
0.0000000001
 40
0.0
 40
0.0
 40
0.0
 40
0.0
 40
0.2562263967
 40
1.0
 40
1.0
 40
1.0
 40
1.0
 10
4038.26742790424
 20
-1628.168740439304
 30
0.0
 10
4038.283971800235
 20
-1628.11390267344
 30
0.0
 10
4038.342375817335
 20
-1627.898094540973
 30
0.0
 10
4038.375862582569
 20
-1627.675357768667
 30
0.0
 10
4038.384569647704
 20
-1627.509316583046
 30
0.0
  0
SPLINE
  5
39D
330
2
100
AcDbEntity
  8
0
  6
Continuous
 62
     7
100
AcDbSpline
210
0.0
220
0.0
230
1.0
 70
     8
 71
     3
 72
     9
 73
     5
 74
     0
 42
0.0000000001
 43
0.0000000001
 40
0.0
 40
0.0
 40
0.0
 40
0.0
 40
0.2471604759
 40
1.0
 40
1.0
 40
1.0
 40
1.0
 10
3980.552713571339
 20
-1656.955622906673
 30
0.0
 10
3980.800382983035
 20
-1657.306993845485
 30
0.0
 10
3981.814867391248
 20
-1658.719892359991
 30
0.0
 10
3982.865771618925
 20
-1660.106092008313
 30
0.0
 10
3983.658485744339
 20
-1661.148284063015
 30
0.0
  0
SPLINE
  5
39E
330
2
100
AcDbEntity
  8
0
  6
Continuous
 62
     7
100
AcDbSpline
210
0.0
220
0.0
230
1.0
 70
     8
 71
     3
 72
    13
 73
     9
 74
     0
 42
0.0000000001
 43
0.0000000001
 40
0.0
 40
0.0
 40
0.0
 40
0.0
 40
0.3313548342
 40
0.6048573375000002
 40
0.7198271135
 40
0.8218275547000001
 40
0.9137417189
 40
1.0
 40
1.0
 40
1.0
 40
1.0
 10
3981.116668829912
 20
-1594.422297211879
 30
0.0
 10
3981.154316207604
 20
-1594.302629941739
 30
0.0
 10
3981.235891723802
 20
-1594.08792399005
 30
0.0
 10
3981.376061513057
 20
-1593.851170313494
 30
0.0
 10
3981.502890385129
 20
-1593.714526235652
 30
0.0
 10
3981.596990141862
 20
-1593.643788130139
 30
0.0
 10
3981.694745217675
 20
-1593.599981232739
 30
0.0
 10
3981.762547802516
 20
-1593.589987557019
 30
0.0
 10
3981.7952048164
 20
-1593.589994706002
 30
0.0
  0
SPLINE
  5
39F
330
2
100
AcDbEntity
  8
0
  6
Continuous
 62
     7
100
AcDbSpline
210
0.0
220
0.0
230
1.0
 70
     8
 71
     3
 72
    11
 73
     7
 74
     0
 42
0.0000000001
 43
0.0000000001
 40
0.0
 40
0.0
 40
0.0
 40
0.0
 40
0.2585300212
 40
0.5254361638000004
 40
0.7786702236
 40
1.0
 40
1.0
 40
1.0
 40
1.0
 10
4016.438393531001
 20
-1594.422297211879
 30
0.0
 10
4016.695588682954
 20
-1594.420652789462
 30
0.0
 10
4017.21973054592
 20
-1594.482566651105
 30
0.0
 10
4017.95961175978
 20
-1594.728804242246
 30
0.0
 10
4018.601441323158
 20
-1595.102706622914
 30
0.0
 10
4018.944606052321
 20
-1595.439589279805
 30
0.0
 10
4019.069588939363
 20
-1595.620872394606
 30
0.0
  0
SPLINE
  5
3A0
330
2
100
AcDbEntity
  8
0
  6
Continuous
 62
     7
100
AcDbSpline
210
0.0
220
0.0
230
1.0
 70
     8
 71
     3
 72
     9
 73
     5
 74
     0
 42
0.0000000001
 43
0.0000000001
 40
0.0
 40
0.0
 40
0.0
 40
0.0
 40
0.5254407335
 40
1.0
 40
1.0
 40
1.0
 40
1.0
 10
4033.402620623155
 20
-1616.126718682806
 30
0.0
 10
4033.445185115318
 20
-1615.984658829766
 30
0.0
 10
4033.494714337875
 20
-1615.702694409597
 30
0.0
 10
4033.452831866597
 20
-1615.416800158526
 30
0.0
 10
4033.408061202164
 20
-1615.290565508279
 30
0.0
  0
SPLINE
  5
3A1
330
2
100
AcDbEntity
  8
0
  6
Continuous
 62
     7
100
AcDbSpline
210
0.0
220
0.0
230
1.0
 70
     8
 71
     3
 72
     9
 73
     5
 74
     0
 42
0.0000000001
 43
0.0000000001
 40
0.0
 40
0.0
 40
0.0
 40
0.0
 40
0.249005842
 40
1.0
 40
1.0
 40
1.0
 40
1.0
 10
4024.281793350596
 20
-1661.148284063015
 30
0.0
 10
4024.204604045183
 20
-1660.798751049917
 30
0.0
 10
4023.893394317185
 20
-1659.395398799476
 30
0.0
 10
4023.560443987507
 20
-1657.996135670246
 30
0.0
 10
4023.272647006179
 20
-1656.955622906673
 30
0.0
  0
SPLINE
  5
3A2
330
2
100
AcDbEntity
  8
0
  6
Continuous
 62
     7
100
AcDbSpline
210
0.0
220
0.0
230
1.0
 70
     8
 71
     3
 72
    10
 73
     6
 74
     0
 42
0.0000000001
 43
0.0000000001
 40
0.0
 40
0.0
 40
0.0
 40
0.0
 40
0.4983730009000002
 40
0.7485964663
 40
1.0
 40
1.0
 40
1.0
 40
1.0
 10
4033.978472722959
 20
-1617.095609359092
 30
0.0
 10
4034.020088334926
 20
-1616.956315866382
 30
0.0
 10
4034.055651364639
 20
-1616.736716534385
 30
0.0
 10
4034.03205160366
 20
-1616.444824144842
 30
0.0
 10
4033.993537293084
 20
-1616.302576176557
 30
0.0
 10
4033.967987491402
 20
-1616.233835520337
 30
0.0
  0
SPLINE
  5
3A3
330
2
100
AcDbEntity
  8
0
  6
Continuous
 62
     7
100
AcDbSpline
210
0.0
220
0.0
230
1.0
 70
     8
 71
     3
 72
     9
 73
     5
 74
     0
 42
0.0000000001
 43
0.0000000001
 40
0.0
 40
0.0
 40
0.0
 40
0.0
 40
0.2576823885
 40
1.0
 40
1.0
 40
1.0
 40
1.0
 10
4033.402586556674
 20
-1616.126832562995
 30
0.0
 10
4033.458088182221
 20
-1616.206219497744
 30
0.0
 10
4033.66819859563
 20
-1616.517927697288
 30
0.0
 10
4033.855533342523
 20
-1616.845206490024
 30
0.0
 10
4033.978438667857
 20
-1617.095723202299
 30
0.0
  0
SPLINE
  5
3A4
330
2
100
AcDbEntity
  8
0
  6
Continuous
 62
     7
100
AcDbSpline
210
0.0
220
0.0
230
1.0
 70
     8
 71
     3
 72
     9
 73
     5
 74
     0
 42
0.0000000001
 43
0.0000000001
 40
0.0
 40
0.0
 40
0.0
 40
0.0
 40
0.2576711915
 40
1.0
 40
1.0
 40
1.0
 40
1.0
 10
4028.51228537565
 20
-1632.474452111328
 30
0.0
 10
4028.567817702279
 20
-1632.553812552454
 30
0.0
 10
4028.777863093516
 20
-1632.865564197784
 30
0.0
 10
4028.965328180612
 20
-1633.192773961447
 30
0.0
 10
4029.088137485412
 20
-1633.443342750632
 30
0.0
  0
SPLINE
  5
3A5
330
2
100
AcDbEntity
  8
0
  6
Continuous
 62
     7
100
AcDbSpline
210
0.0
220
0.0
230
1.0
 70
     8
 71
     3
 72
     9
 73
     5
 74
     0
 42
0.0000000001
 43
0.0000000001
 40
0.0
 40
0.0
 40
0.0
 40
0.0
 40
0.3210343237
 40
1.0
 40
1.0
 40
1.0
 40
1.0
 10
3983.658485744339
 20
-1661.148284063015
 30
0.0
 10
3983.662873051795
 20
-1661.15722445438
 30
0.0
 10
3983.67751419193
 20
-1661.183572280781
 30
0.0
 10
3983.705201985983
 20
-1661.208981566411
 30
0.0
 10
3983.726264313379
 20
-1661.208987537646
 30
0.0
  0
SPLINE
  5
3A6
330
2
100
AcDbEntity
  8
0
  6
Continuous
 62
     7
100
AcDbSpline
210
0.0
220
0.0
230
1.0
 70
     8
 71
     3
 72
     9
 73
     5
 74
     0
 42
0.0000000001
 43
0.0000000001
 40
0.0
 40
0.0
 40
0.0
 40
0.0
 40
0.3209732806
 40
1.0
 40
1.0
 40
1.0
 40
1.0
 10
4024.281793350596
 20
-1661.148284063015
 30
0.0
 10
4024.286177506014
 20
-1661.157218140347
 30
0.0
 10
4024.300813114435
 20
-1661.183553246224
 30
0.0
 10
4024.328462286063
 20
-1661.208953658922
 30
0.0
 10
4024.349515557036
 20
-1661.208987485017
 30
0.0
  0
SPLINE
  5
3A7
330
2
100
AcDbEntity
  8
0
  6
Continuous
 62
     7
100
AcDbSpline
210
0.0
220
0.0
230
1.0
 70
     8
 71
     3
 72
    11
 73
     7
 74
     0
 42
0.0000000001
 43
0.0000000001
 40
0.0
 40
0.0
 40
0.0
 40
0.0
 40
0.2621437268
 40
0.5190942104000003
 40
0.7664130641
 40
1.0
 40
1.0
 40
1.0
 40
1.0
 10
4038.26742790424
 20
-1628.168740439304
 30
0.0
 10
4037.930283114675
 20
-1627.18676204868
 30
0.0
 10
4037.261152099573
 20
-1625.242776083472
 30
0.0
 10
4036.232223870819
 20
-1622.386776242422
 30
0.0
 10
4035.163595894796
 20
-1619.666307078546
 30
0.0
 10
4034.386036942119
 20
-1617.926137856224
 30
0.0
 10
4033.978472732917
 20
-1617.095609322111
 30
0.0
  0
SPLINE
  5
3A8
330
2
100
AcDbEntity
  8
0
  6
Continuous
 62
     7
100
AcDbSpline
210
0.0
220
0.0
230
1.0
 70
     8
 71
     3
 72
    11
 73
     7
 74
     0
 42
0.0000000001
 43
0.0000000001
 40
0.0
 40
0.0
 40
0.0
 40
0.0
 40
0.2670444562
 40
0.5192691945
 40
0.7620302466
 40
1.0
 40
1.0
 40
1.0
 40
1.0
 10
4023.870002166865
 20
-1649.806632063307
 30
0.0
 10
4024.250068284658
 20
-1650.581125381271
 30
0.0
 10
4025.042770355232
 20
-1652.061414825259
 30
0.0
 10
4026.341760531645
 20
-1654.15407309805
 30
0.0
 10
4027.685752849597
 20
-1656.104288387248
 30
0.0
 10
4028.601143121835
 20
-1657.358959565277
 30
0.0
 10
4029.055271294807
 20
-1657.979290150064
 30
0.0
  0
SPLINE
  5
3A9
330
2
100
AcDbEntity
  8
0
  6
Continuous
 62
     7
100
AcDbSpline
210
0.0
220
0.0
230
1.0
 70
     8
 71
     3
 72
    11
 73
     7
 74
     0
 42
0.0000000001
 43
0.0000000001
 40
0.0
 40
0.0
 40
0.0
 40
0.0
 40
0.2209194417
 40
0.4742890805
 40
0.7414623651000002
 40
1.0
 40
1.0
 40
1.0
 40
1.0
 10
4014.105662860733
 20
-1611.863118316349
 30
0.0
 10
4013.979886442335
 20
-1611.683136737374
 30
0.0
 10
4013.63553769461
 20
-1611.348753949905
 30
0.0
 10
4012.993897805426
 20
-1610.976343730846
 30
0.0
 10
4012.254894401547
 20
-1610.729029417043
 30
0.0
 10
4011.731431435876
 20
-1610.66451875653
 30
0.0
 10
4011.474467452369
 20
-1610.664543133621
 30
0.0
  0
SPLINE
  5
3AA
330
2
100
AcDbEntity
  8
0
  6
Continuous
 62
     7
100
AcDbSpline
210
0.0
220
0.0
230
1.0
 70
     8
 71
     3
 72
     9
 73
     5
 74
     0
 42
0.0000000001
 43
0.0000000001
 40
0.0
 40
0.0
 40
0.0
 40
0.0
 40
0.2573155462
 40
1.0
 40
1.0
 40
1.0
 40
1.0
 10
4033.408089567664
 20
-1615.29064549552
 30
0.0
 10
4033.459139554872
 20
-1615.363681208021
 30
0.0
 10
4033.652832567738
 20
-1615.650751675788
 30
0.0
 10
4033.827000250288
 20
-1615.951182123745
 30
0.0
 10
4033.942421361991
 20
-1616.181020368869
 30
0.0
  0
SPLINE
  5
3AB
330
2
100
AcDbEntity
  8
0
  6
Continuous
 62
     7
100
AcDbSpline
210
0.0
220
0.0
230
1.0
 70
     8
 71
     3
 72
    14
 73
    10
 74
     0
 42
0.0000000001
 43
0.0000000001
 40
0.0
 40
0.0
 40
0.0
 40
0.0
 40
0.2517006572
 40
0.3817430256
 40
0.5119486334000002
 40
0.6404441518999999
 40
0.7654959639
 40
0.8856862368999999
 40
1.0
 40
1.0
 40
1.0
 40
1.0
 10
4024.462878239734
 20
-1661.146108014332
 30
0.0
 10
4024.926093291354
 20
-1661.131160580271
 30
0.0
 10
4025.62912974233
 20
-1661.003484144133
 30
0.0
 10
4026.508063204167
 20
-1660.659018854909
 30
0.0
 10
4027.139222907049
 20
-1660.316844959629
 30
0.0
 10
4027.712434481985
 20
-1659.900220170528
 30
0.0
 10
4028.212242698115
 20
-1659.424070732176
 30
0.0
 10
4028.62384838666
 20
-1658.902517247472
 30
0.0
 10
4028.835089155746
 20
-1658.523195246859
 30
0.0
 10
4028.920981492368
 20
-1658.331031817522
 30
0.0
  0
ELLIPSE
  5
3AC
330
2
100
AcDbEntity
  8
0
  6
Continuous
 62
     7
100
AcDbEllipse
 10
3979.621339638104
 20
-1635.0252232272
 30
0.0
 11
5.960581512188801
 21
-3.154087261942398
 31
0.0
210
0.0
220
0.0
230
1.0
 40
0.2470936794
 41
2.7047273964
 42
3.3731612241
  0
ELLIPSE
  5
3AD
330
2
100
AcDbEntity
  8
0
  6
Continuous
 62
     7
100
AcDbEllipse
 10
3980.829376516107
 20
-1635.189489783909
 30
0.0
 11
5.960581512188801
 21
-3.154087261942398
 31
0.0
210
0.0
220
0.0
230
1.0
 40
0.2470936794
 41
2.7047273964
 42
3.3731612241
  0
ELLIPSE
  5
3AE
330
2
100
AcDbEntity
  8
0
  6
Continuous
 62
     7
100
AcDbEllipse
 10
4007.025499208135
 20
-1641.241819213998
 30
0.0
 11
6.482082134819198
 21
-2.169556603524798
 31
0.0
210
0.0
220
0.0
230
1.0
 40
0.2346746373
 41
-0.3335288061
 42
0.306668482
  0
ELLIPSE
  5
3AF
330
2
100
AcDbEntity
  8
0
  6
Continuous
 62
     7
100
AcDbEllipse
 10
4005.979599525593
 20
-1640.403576491199
 30
0.0
 11
6.482082134819198
 21
-2.169556603524798
 31
0.0
210
0.0
220
0.0
230
1.0
 40
0.2346746373
 41
-0.3335288061
 42
0.306668482
  0
ELLIPSE
  5
3B0
330
2
100
AcDbEntity
  8
0
  6
Continuous
 62
     7
100
AcDbEllipse
 10
4000.617685170245
 20
-1643.031559618254
 30
0.0
 11
-3.2512346230448
 21
3.173555192729599
 31
0.0
210
0.0
220
0.0
230
1.0
 40
0.4399531959000005
 41
-3.565046812099998
 42
-3.391179718899997
  0
ELLIPSE
  5
3B1
330
2
100
AcDbEntity
  8
0
  6
Continuous
 62
     7
100
AcDbEllipse
 10
4000.299840129737
 20
-1641.989966921662
 30
0.0
 11
-3.2512346230448
 21
3.173555192729599
 31
0.0
210
0.0
220
0.0
230
1.0
 40
0.4399531959000005
 41
-3.565046812099998
 42
-3.391179718899997
  0
ELLIPSE
  5
3B2
330
2
100
AcDbEntity
  8
0
  6
Continuous
 62
     7
100
AcDbEllipse
 10
3989.541799780278
 20
-1643.031559618254
 30
0.0
 11
-1.8578597191728
 21
3.2703265879088
 31
0.0
210
0.0
220
0.0
230
1.0
 40
0.6419531301000001
 41
-3.665161952699997
 42
-3.491294859299998
  0
ELLIPSE
  5
3B3
330
2
100
AcDbEntity
  8
0
  6
Continuous
 62
     7
100
AcDbEllipse
 10
3989.539009330182
 20
-1641.989966921662
 30
0.0
 11
-1.8578597191728
 21
3.2703265879088
 31
0.0
210
0.0
220
0.0
230
1.0
 40
0.6419531301000001
 41
-3.665161952699997
 42
-3.491294859299998
  0
ELLIPSE
  5
3B4
330
2
100
AcDbEntity
  8
0
  6
Continuous
 62
     7
100
AcDbEllipse
 10
3981.37743169391
 20
-1641.241819213998
 30
0.0
 11
4.735982101905599
 21
1.666250286187199
 31
0.0
210
0.0
220
0.0
230
1.0
 40
0.4350178395000003
 41
3.114160963399998
 42
3.7543582516
  0
ELLIPSE
  5
3B5
330
2
100
AcDbEntity
  8
0
  6
Continuous
 62
     7
100
AcDbEllipse
 10
3982.302275232279
 20
-1640.403576491199
 30
0.0
 11
4.735982101905599
 21
1.666250286187199
 31
0.0
210
0.0
220
0.0
230
1.0
 40
0.4350178395000003
 41
3.114160963399998
 42
3.7543582516
  0
ELLIPSE
  5
3B6
330
2
100
AcDbEntity
  8
0
  6
Continuous
 62
     7
100
AcDbEllipse
 10
4002.680266829173
 20
-1635.0252232272
 30
0.0
 11
3.168458443359997
 21
2.895115411484797
 31
0.0
210
0.0
220
0.0
230
1.0
 40
0.6100178025999995
 41
-0.0797765063
 42
0.5886573213000002
  0
ELLIPSE
  5
3B7
330
2
100
AcDbEntity
  8
0
  6
Continuous
 62
     7
100
AcDbEllipse
 10
4002.335094005474
 20
-1635.189489783909
 30
0.0
 11
3.168458443359997
 21
2.895115411484797
 31
0.0
210
0.0
220
0.0
230
1.0
 40
0.6100178025999995
 41
-0.0797765063
 42
0.5886573213000002
  0
ELLIPSE
  5
3B8
330
2
100
AcDbEntity
  8
0
  6
Continuous
 62
     7
100
AcDbEllipse
 10
4019.367463650294
 20
-1645.520390871012
 30
0.0
 11
1.4221701842544
 21
-0.1328589491152
 31
0.0
210
0.0
220
0.0
230
1.0
 40
0.2808947611
 41
7.744424821699999
 42
8.791622372899999
  0
ELLIPSE
  5
3B9
330
2
100
AcDbEntity
  8
0
  6
Continuous
 62
     7
100
AcDbEllipse
 10
4009.395019381049
 20
-1655.911318159829
 30
0.0
 11
1.120987938156799
 21
0.851455000972799
 31
0.0
210
0.0
220
0.0
230
1.0
 40
0.5393867132
 41
3.036352486299997
 42
3.7590867341
  0
ELLIPSE
  5
3BA
330
2
100
AcDbEntity
  8
0
  6
Continuous
 62
     7
100
AcDbEllipse
 10
4010.128083320455
 20
-1654.869725464659
 30
0.0
 11
1.120987938156799
 21
0.851455000972799
 31
0.0
210
0.0
220
0.0
230
1.0
 40
0.5393867132
 41
3.036352486299997
 42
3.7590867341
  0
ELLIPSE
  5
3BB
330
2
100
AcDbEntity
  8
0
  6
Continuous
 62
     7
100
AcDbEllipse
 10
4006.232341030776
 20
-1649.466457294331
 30
0.0
 11
1.833290161606399
 21
-0.684906624494399
 31
0.0
210
0.0
220
0.0
230
1.0
 40
0.2467111452
 41
2.8152531197
 42
3.3969981912
  0
ELLIPSE
  5
3BC
330
2
100
AcDbEntity
  8
0
  6
Continuous
 62
     7
100
AcDbEllipse
 10
4007.468453682347
 20
-1649.449970093777
 30
0.0
 11
1.833290161606399
 21
-0.684906624494399
 31
0.0
210
0.0
220
0.0
230
1.0
 40
0.2467111452
 41
2.8152531197
 42
3.3969981912
  0
ELLIPSE
  5
3BD
330
2
100
AcDbEntity
  8
0
  6
Continuous
 62
     7
100
AcDbEllipse
 10
3975.339633529245
 20
-1645.520390871012
 30
0.0
 11
1.268869717068798
 21
-0.3864798815472001
 31
0.0
210
0.0
220
0.0
230
1.0
 40
0.1315664581
 41
2.117279803
 42
3.1644773542
  0
ELLIPSE
  5
3BE
330
2
100
AcDbEntity
  8
0
  6
Continuous
 62
     7
100
AcDbEllipse
 10
3990.242722175027
 20
-1649.466457294331
 30
0.0
 11
1.287360915646399
 21
0.5281860377583999
 31
0.0
210
0.0
220
0.0
230
1.0
 40
0.4880062144
 41
0.0326657418
 42
0.6144108133000003
  0
ELLIPSE
  5
3BF
330
2
100
AcDbEntity
  8
0
  6
Continuous
 62
     7
100
AcDbEllipse
 10
3989.692071455757
 20
-1649.449970093777
 30
0.0
 11
1.287360915646399
 21
0.5281860377583999
 31
0.0
210
0.0
220
0.0
230
1.0
 40
0.4880062144
 41
0.0326657418
 42
0.6144108133000003
  0
ELLIPSE
  5
3C0
330
2
100
AcDbEntity
  8
0
  6
Continuous
 62
     7
100
AcDbEllipse
 10
3993.405400525298
 20
-1655.911318159829
 30
0.0
 11
1.949401353513598
 21
-0.9452564448656001
 31
0.0
210
0.0
220
0.0
230
1.0
 40
0.2277198572
 41
-0.4390548536
 42
0.2836793942
  0
ELLIPSE
  5
3C1
330
2
100
AcDbEntity
  8
0
  6
Continuous
 62
     7
100
AcDbEllipse
 10
3992.351701093865
 20
-1654.869725464659
 30
0.0
 11
1.949401353513598
 21
-0.9452564448656001
 31
0.0
210
0.0
220
0.0
230
1.0
 40
0.2277198572
 41
-0.4390548536
 42
0.2836793942
  0
LINE
  5
3C2
330
2
100
AcDbEntity
  8
0
  6
Continuous
 62
     7
100
AcDbLine
 10
3982.079035801313
 20
-1615.297951828089
 30
0.0
 11
3983.363245252992
 21
-1619.740633271755
 31
0.0
  0
LINE
  5
3C3
330
2
100
AcDbEntity
  8
0
  6
Continuous
 62
     7
100
AcDbLine
 10
4007.171402762817
 20
-1610.664657297506
 30
0.0
 11
4006.724324873264
 21
-1611.115811361926
 31
0.0
  0
LINE
  5
3C4
330
2
100
AcDbEntity
  8
0
  6
Continuous
 62
     7
100
AcDbLine
 10
3985.482545128488
 20
-1621.045334810078
 30
0.0
 11
3982.23442719173
 21
-1614.544178627264
 31
0.0
  0
LINE
  5
3C5
330
2
100
AcDbEntity
  8
0
  6
Continuous
 62
     7
100
AcDbLine
 10
3991.848921353056
 20
-1622.01553599757
 30
0.0
 11
3985.417947738114
 21
-1608.79795371406
 31
0.0
  0
LINE
  5
3C6
330
2
100
AcDbEntity
  8
0
  6
Continuous
 62
     7
100
AcDbLine
 10
3984.05439816651
 20
-1610.500235675244
 30
0.0
 11
3989.565418122988
 21
-1622.03444470654
 31
0.0
  0
LINE
  5
3C7
330
2
100
AcDbEntity
  8
0
  6
Continuous
 62
     7
100
AcDbLine
 10
3986.557986832114
 20
-1607.685970382745
 30
0.0
 11
3993.43257969065
 21
-1621.815323451467
 31
0.0
  0
LINE
  5
3C8
330
2
100
AcDbEntity
  8
0
  6
Continuous
 62
     7
100
AcDbLine
 10
3980.164910190194
 20
-1610.664654661401
 30
0.0
 11
3981.054776220118
 21
-1611.115808996805
 31
0.0
  0
ARC
  5
3C9
330
2
100
AcDbEntity
  8
0
  6
Continuous
 62
     7
100
AcDbCircle
 10
3996.524535201947
 20
-1607.45611775982
 30
0.0
 40
11.11990173760005
100
AcDbArc
 50
340.2744368553874
 51
343.2300328727066
  0
ARC
  5
3CA
330
2
100
AcDbEntity
  8
0
  6
Continuous
 62
     7
100
AcDbCircle
 10
3997.108134608497
 20
-1608.075381809697
 30
0.0
 40
10.08515522373811
100
AcDbArc
 50
342.4544032840023
 51
345.5516282565009
  0
SPLINE
  5
3CB
330
2
100
AcDbEntity
  8
0
  6
Continuous
 62
     7
100
AcDbSpline
210
0.0
220
0.0
230
1.0
 70
     8
 71
     3
 72
    11
 73
     7
 74
     0
 42
0.0000000001
 43
0.0000000001
 40
0.0
 40
0.0
 40
0.0
 40
0.0
 40
0.2404718469
 40
0.4849376613000003
 40
0.7371174783
 40
1.0
 40
1.0
 40
1.0
 40
1.0
 10
4006.420685116088
 20
-1605.021138567069
 30
0.0
 10
4006.622078725928
 20
-1605.431431700741
 30
0.0
 10
4006.948985891081
 20
-1606.300329388247
 30
0.0
 10
4007.187323210276
 20
-1607.688780959687
 30
0.0
 10
4007.172227087746
 20
-1609.139407100927
 30
0.0
 10
4006.998953049093
 20
-1610.107845688754
 30
0.0
 10
4006.874325219684
 20
-1610.591703887834
 30
0.0
  0
SPLINE
  5
3CC
330
2
100
AcDbEntity
  8
0
  6
Continuous
 62
     7
100
AcDbSpline
210
0.0
220
0.0
230
1.0
 70
     8
 71
     3
 72
    10
 73
     6
 74
     0
 42
0.0000000001
 43
0.0000000001
 40
0.0
 40
0.0
 40
0.0
 40
0.0
 40
0.2396857924
 40
0.4852186835000003
 40
1.0
 40
1.0
 40
1.0
 40
1.0
 10
3982.196605242639
 20
-1618.581168004967
 30
0.0
 10
3982.099614488629
 20
-1618.208890181489
 30
0.0
 10
3981.961509079642
 20
-1617.438699739774
 30
0.0
 10
3981.913732344624
 20
-1615.830234987897
 30
0.0
 10
3982.139251575151
 20
-1614.611931526217
 30
0.0
 10
3982.383197981134
 20
-1613.822520669886
 30
0.0
  0
SPLINE
  5
3CD
330
2
100
AcDbEntity
  8
0
  6
Continuous
 62
     7
100
AcDbSpline
210
0.0
220
0.0
230
1.0
 70
     8
 71
     3
 72
    21
 73
    17
 74
     0
 42
0.0000000001
 43
0.0000000001
 40
0.0
 40
0.0
 40
0.0
 40
0.0
 40
0.1210303661
 40
0.1860030346
 40
0.25327746
 40
0.3222057163
 40
0.3920274372999999
 40
0.4619225827000001
 40
0.5310659008
 40
0.5986813202
 40
0.6640988214
 40
0.7861900972
 40
0.842924404
 40
0.8969857300000001
 40
0.9490288750999999
 40
1.0
 40
1.0
 40
1.0
 40
1.0
 10
4006.724101617252
 20
-1611.115699944992
 30
0.0
 10
4006.354805691763
 20
-1612.337454754491
 30
0.0
 10
4005.445795779079
 20
-1614.121307685019
 30
0.0
 10
4003.777718259725
 20
-1616.211441864699
 30
0.0
 10
4002.248711988907
 20
-1617.691494687257
 30
0.0
 10
4000.512536454621
 20
-1619.005715080773
 30
0.0
 10
3998.611363935793
 20
-1620.123175820801
 30
0.0
 10
3996.592463136461
 20
-1621.015961446297
 30
0.0
 10
3994.506061525436
 20
-1621.662031226862
 30
0.0
 10
3992.402358151375
 20
-1622.04501671905
 30
0.0
 10
3989.711818919002
 20
-1622.189136312344
 30
0.0
 10
3987.116782276142
 20
-1621.806841586707
 30
0.0
 10
3984.844802917559
 20
-1620.84487191138
 30
0.0
 10
3983.404134128301
 20
-1619.889968447653
 30
0.0
 10
3982.227613485852
 20
-1618.707524843051
 30
0.0
 10
3981.639041637794
 20
-1617.782232326259
 30
0.0
 10
3981.402191004661
 20
-1617.299702198959
 30
0.0
  0
SPLINE
  5
3CE
330
2
100
AcDbEntity
  8
0
  6
Continuous
 62
     7
100
AcDbSpline
210
0.0
220
0.0
230
1.0
 70
     8
 71
     3
 72
    19
 73
    15
 74
     0
 42
0.0000000001
 43
0.0000000001
 40
0.0
 40
0.0
 40
0.0
 40
0.0
 40
0.1190310214
 40
0.182812754
 40
0.2488891407
 40
0.3854189097
 40
0.5234384321
 40
0.5912850944
 40
0.6573947069
 40
0.7820992087000001
 40
0.8403870287
 40
0.8958647559999999
 40
0.9488642136999999
 40
1.0
 40
1.0
 40
1.0
 40
1.0
 10
3982.383197981134
 20
-1613.822520669886
 30
0.0
 10
3982.735237600734
 20
-1612.683320039925
 30
0.0
 10
3983.573230380362
 20
-1611.017146463417
 30
0.0
 10
3985.102307051786
 20
-1609.044105939364
 30
0.0
 10
3986.985389641534
 20
-1607.14429701522
 30
0.0
 10
3989.792560324386
 20
-1605.153615872439
 30
0.0
 10
3992.971637707623
 20
-1603.793831171923
 30
0.0
 10
3995.623871682165
 20
-1603.146609671347
 30
0.0
 10
3998.198215446411
 20
-1602.823709598503
 30
0.0
 10
4000.725183838366
 20
-1602.959206151606
 30
0.0
 10
4003.032671983769
 20
-1603.607730946414
 30
0.0
 10
4004.555751992692
 20
-1604.313646231232
 30
0.0
 10
4005.872760259461
 20
-1605.235267746255
 30
0.0
 10
4006.60252943964
 20
-1605.992035505749
 30
0.0
 10
4006.918286151477
 20
-1606.395376108486
 30
0.0
  0
SPLINE
  5
3CF
330
2
100
AcDbEntity
  8
0
  6
Continuous
 62
     7
100
AcDbSpline
210
0.0
220
0.0
230
1.0
 70
     8
 71
     3
 72
    11
 73
     7
 74
     0
 42
0.0000000001
 43
0.0000000001
 40
0.0
 40
0.0
 40
0.0
 40
0.0
 40
0.2391996367
 40
0.4831712783000003
 40
0.7358388056000002
 40
1.0
 40
1.0
 40
1.0
 40
1.0
 10
3981.402191004661
 20
-1617.299702198959
 30
0.0
 10
3981.179636493196
 20
-1616.846297217536
 30
0.0
 10
3980.824297273282
 20
-1615.880916003269
 30
0.0
 10
3980.590790750092
 20
-1614.335019989011
 30
0.0
 10
3980.656951393411
 20
-1612.721004564967
 30
0.0
 10
3980.893489954052
 20
-1611.649628676129
 30
0.0
 10
3981.054883299459
 20
-1611.115699944992
 30
0.0
  0
SPLINE
  5
3D0
330
2
100
AcDbEntity
  8
0
  6
Continuous
 62
     7
100
AcDbSpline
210
0.0
220
0.0
230
1.0
 70
     8
 71
     3
 72
    20
 73
    16
 74
     0
 42
0.0000000001
 43
0.0000000001
 40
0.0
 40
0.0
 40
0.0
 40
0.0
 40
0.0588230441
 40
0.1207951422
 40
0.1856711937
 40
0.2529782539999999
 40
0.391870433
 40
0.5312940074000001
 40
0.5992273775000001
 40
0.6649219254
 40
0.7873082534999999
 40
0.8439904546999999
 40
0.8978427911
 40
0.9495230142
 40
1.0
 40
1.0
 40
1.0
 40
1.0
 10
3981.054883299459
 20
-1611.115699944992
 30
0.0
 10
3981.241024102558
 20
-1610.526490719812
 30
0.0
 10
3981.728440203422
 20
-1609.347788100969
 30
0.0
 10
3982.745201594596
 20
-1607.675797170593
 30
0.0
 10
3984.039381545603
 20
-1606.091410926854
 30
0.0
 10
3986.111571777456
 20
-1604.129095484555
 30
0.0
 10
3989.1812645061
 20
-1602.12656834926
 30
0.0
 10
3992.623273130591
 20
-1600.851952507563
 30
0.0
 10
3995.453589013048
 20
-1600.344546619815
 30
0.0
 10
3998.143120677981
 20
-1600.20259547951
 30
0.0
 10
4000.733359549892
 20
-1600.577723368053
 30
0.0
 10
4003.000948141152
 20
-1601.526058169417
 30
0.0
 10
4004.435071476835
 20
-1602.466685177193
 30
0.0
 10
4005.603876983315
 20
-1603.631939145412
 30
0.0
 10
4006.187043847353
 20
-1604.545148245072
 30
0.0
 10
4006.420685116088
 20
-1605.021138567069
 30
0.0
  0
SPLINE
  5
3D1
330
2
100
AcDbEntity
  8
0
  6
Continuous
 62
     7
100
AcDbSpline
210
0.0
220
0.0
230
1.0
 70
     8
 71
     3
 72
    21
 73
    17
 74
     0
 42
0.0000000001
 43
0.0000000001
 40
0.0
 40
0.0
 40
0.0
 40
0.0
 40
0.0569360205
 40
0.1172267498
 40
0.2457564115
 40
0.3126545781
 40
0.3802309514
 40
0.4481297186
 40
0.5160184923
 40
0.5833446985000002
 40
0.6494388373
 40
0.7756654078000002
 40
0.8354533228000001
 40
0.8927532640999999
 40
0.9475331397999999
 40
1.0
 40
1.0
 40
1.0
 40
1.0
 10
4006.991921687542
 20
-1611.209254423069
 30
0.0
 10
4006.805122125374
 20
-1611.730957732101
 30
0.0
 10
4006.343298230496
 20
-1612.778691329267
 30
0.0
 10
4005.109361795111
 20
-1614.833178123814
 30
0.0
 10
4003.446922698898
 20
-1616.719424495455
 30
0.0
 10
4001.475940307741
 20
-1618.356897060708
 30
0.0
 10
3999.838269140513
 20
-1619.457723178845
 30
0.0
 10
3998.092189475923
 20
-1620.396333462704
 30
0.0
 10
3996.264723784146
 20
-1621.15831793114
 30
0.0
 10
3994.38691286706
 20
-1621.730221708263
 30
0.0
 10
3991.904172062793
 20
-1622.215892384704
 30
0.0
 10
3989.426212707742
 20
-1622.303999732412
 30
0.0
 10
3987.079540262881
 20
-1621.9475297357
 30
0.0
 10
3985.468424082938
 20
-1621.476987475002
 30
0.0
 10
3984.007524539105
 20
-1620.806855989168
 30
0.0
 10
3983.134975972716
 20
-1620.223723495887
 30
0.0
 10
3982.736745600538
 20
-1619.904088337372
 30
0.0
  0
SPLINE
  5
3D2
330
2
100
AcDbEntity
  8
0
  6
Continuous
 62
     7
100
AcDbSpline
210
0.0
220
0.0
230
1.0
 70
     8
 71
     3
 72
    15
 73
    11
 74
     0
 42
0.0000000001
 43
0.0000000001
 40
0.0
 40
0.0
 40
0.0
 40
0.0
 40
0.124447811
 40
0.2467940931
 40
0.3686146466
 40
0.4910103595000001
 40
0.6148591747
 40
0.7407918632
 40
0.8691827065
 40
1.0
 40
1.0
 40
1.0
 40
1.0
 10
3982.736745600538
 20
-1619.904088337372
 30
0.0
 10
3982.40648877487
 20
-1619.639011387375
 30
0.0
 10
3981.788440701458
 20
-1619.064937643808
 30
0.0
 10
3981.008724569111
 20
-1618.076001870408
 30
0.0
 10
3980.399819715078
 20
-1616.98108484261
 30
0.0
 10
3979.972999558706
 20
-1615.797867977945
 30
0.0
 10
3979.735890323627
 20
-1614.54854010248
 30
0.0
 10
3979.690357681233
 20
-1613.25781382017
 30
0.0
 10
3979.828131383352
 20
-1611.950670553207
 30
0.0
 10
3980.03447064044
 20
-1611.090231670989
 30
0.0
 10
3980.164668020586
 20
-1610.664542514469
 30
0.0
  0
SPLINE
  5
3D3
330
2
100
AcDbEntity
  8
0
  6
Continuous
 62
     7
100
AcDbSpline
210
0.0
220
0.0
230
1.0
 70
     8
 71
     3
 72
    26
 73
    22
 74
     0
 42
0.0000000001
 43
0.0000000001
 40
0.0
 40
0.0
 40
0.0
 40
0.0
 40
0.0595033662
 40
0.1242696108
 40
0.1931808679
 40
0.264424165
 40
0.3365779628999999
 40
0.4088176763000001
 40
0.4798541343000001
 40
0.5482687307000002
 40
0.6132057396000004
 40
0.6742288428000001
 40
0.731236671
 40
0.7850143514
 40
0.811289713
 40
0.8374543681999998
 40
0.8636857231
 40
0.8901398926
 40
0.9169384639
 40
0.9441754893999998
 40
1.0
 40
1.0
 40
1.0
 40
1.0
 10
3980.164693386189
 20
-1610.664543677674
 30
0.0
 10
3980.399696205243
 20
-1609.91178089792
 30
0.0
 10
3981.064622278677
 20
-1608.391358993966
 30
0.0
 10
3982.502298723225
 20
-1606.258741476757
 30
0.0
 10
3984.379313556735
 20
-1604.279811395352
 30
0.0
 10
3986.608707960532
 20
-1602.546964073265
 30
0.0
 10
3989.099895110341
 20
-1601.127401975876
 30
0.0
 10
3991.761918002632
 20
-1600.069634806412
 30
0.0
 10
3994.499665920634
 20
-1599.412381918002
 30
0.0
 10
3997.209806785345
 20
-1599.182231070437
 30
0.0
 10
3999.790544823437
 20
-1599.389665170335
 30
0.0
 10
4002.145612419936
 20
-1600.031351723206
 30
0.0
 10
4004.183954519247
 20
-1601.088181965482
 30
0.0
 10
4005.564096147932
 20
-1602.302552776257
 30
0.0
 10
4006.414926593457
 20
-1603.42881619508
 30
0.0
 10
4006.925411046842
 20
-1604.341827542588
 30
0.0
 10
4007.305868113859
 20
-1605.318676704191
 30
0.0
 10
4007.550563717606
 20
-1606.346557590114
 30
0.0
 10
4007.657887168146
 20
-1607.41106919303
 30
0.0
 10
4007.619718571187
 20
-1608.86930233277
 30
0.0
 10
4007.395076922292
 20
-1609.959297323976
 30
0.0
 10
4007.171500711648
 20
-1610.664543679517
 30
0.0
  0
LINE
  5
3D4
330
2
100
AcDbEntity
  8
0
  6
Continuous
 62
     7
100
AcDbLine
 10
3988.470011535848
 20
-1658.595224143391
 30
0.0
 11
3987.385554407028
 21
-1662.104528698655
 31
0.0
  0
LINE
  5
3D5
330
2
100
AcDbEntity
  8
0
  6
Continuous
 62
     7
100
AcDbLine
 10
3993.178325457174
 20
-1660.050203189839
 30
0.0
 11
3992.093868328352
 21
-1663.559507745105
 31
0.0
  0
LINE
  5
3D6
330
2
100
AcDbEntity
  8
0
  6
Continuous
 62
     7
100
AcDbLine
 10
4012.970233976705
 20
-1658.595224143391
 30
0.0
 11
4011.885776847884
 21
-1662.104528698655
 31
0.0
  0
LINE
  5
3D7
330
2
100
AcDbEntity
  8
0
  6
Continuous
 62
     7
100
AcDbLine
 10
4017.67854789661
 20
-1660.050203189839
 30
0.0
 11
4016.59409076779
 21
-1663.559507745105
 31
0.0
  0
LINE
  5
3D8
330
2
100
AcDbEntity
  8
0
  6
Continuous
 62
     7
100
AcDbLine
 10
4029.088180069222
 20
-1633.443200401107
 30
0.0
 11
4033.86494735895
 21
-1643.177228704615
 31
0.0
  0
LINE
  5
3D9
330
2
100
AcDbEntity
  8
0
  6
Continuous
 62
     7
100
AcDbLine
 10
4033.865135801348
 20
-1643.176586284766
 30
0.0
 11
4033.875340830061
 21
-1643.257321358856
 31
0.0
  0
LINE
  5
3DA
330
2
100
AcDbEntity
  8
0
  6
Continuous
 62
     7
100
AcDbLine
 10
4033.86494735895
 20
-1643.177228704615
 30
0.0
 11
4038.26742790424
 21
-1628.168740437882
 31
0.0
  0
LINE
  5
3DB
330
2
100
AcDbEntity
  8
0
  6
Continuous
 62
     7
100
AcDbLine
 10
4033.875340830061
 20
-1643.257321358856
 30
0.0
 11
4038.277628473728
 21
-1628.249467089941
 31
0.0
  0
LINE
  5
3DC
330
2
100
AcDbEntity
  8
0
  6
Continuous
 62
     7
100
AcDbLine
 10
4033.875340830061
 20
-1643.257321358856
 30
0.0
 11
4033.874561060424
 21
-1643.259843421986
 31
0.0
  0
LINE
  5
3DD
330
2
100
AcDbEntity
  8
0
  6
Continuous
 62
     7
100
AcDbLine
 10
4029.055271294807
 20
-1657.979290150064
 30
0.0
 11
4033.86494735895
 21
-1643.177228704615
 31
0.0
  0
LINE
  5
3DE
330
2
100
AcDbEntity
  8
0
  6
Continuous
 62
     7
100
AcDbLine
 10
4029.06427026487
 20
-1658.063904191453
 30
0.0
 11
4033.874574968652
 21
-1643.259930258084
 31
0.0
  0
SPLINE
  5
3DF
330
2
100
AcDbEntity
  8
0
  6
Continuous
 62
     7
100
AcDbSpline
210
0.0
220
0.0
230
1.0
 70
     8
 71
     3
 72
    10
 73
     6
 74
     0
 42
0.0000000001
 43
0.0000000001
 40
0.0
 40
0.0
 40
0.0
 40
0.0
 40
0.2340947321
 40
0.4754055261
 40
1.0
 40
1.0
 40
1.0
 40
1.0
 10
4011.885868739192
 20
-1662.10422062104
 30
0.0
 10
4011.868607195459
 20
-1662.159999416873
 30
0.0
 10
4011.845937679812
 20
-1662.2775301398
 30
0.0
 10
4011.851265617542
 20
-1662.52832485731
 30
0.0
 10
4011.912796256178
 20
-1662.714553601438
 30
0.0
 10
4011.970439518285
 20
-1662.832018221169
 30
0.0
  0
SPLINE
  5
3E0
330
2
100
AcDbEntity
  8
0
  6
Continuous
 62
     7
100
AcDbSpline
210
0.0
220
0.0
230
1.0
 70
     8
 71
     3
 72
    10
 73
     6
 74
     0
 42
0.0000000001
 43
0.0000000001
 40
0.0
 40
0.0
 40
0.0
 40
0.0
 40
0.2340947321
 40
0.4754055261
 40
1.0
 40
1.0
 40
1.0
 40
1.0
 10
3987.385646298334
 20
-1662.10422062104
 30
0.0
 10
3987.368384754599
 20
-1662.159999416873
 30
0.0
 10
3987.345715238953
 20
-1662.2775301398
 30
0.0
 10
3987.351043176684
 20
-1662.52832485731
 30
0.0
 10
3987.41257381532
 20
-1662.714553601438
 30
0.0
 10
3987.47021707885
 20
-1662.832018221169
 30
0.0
  0
SPLINE
  5
3E1
330
2
100
AcDbEntity
  8
0
  6
Continuous
 62
     7
100
AcDbSpline
210
0.0
220
0.0
230
1.0
 70
     8
 71
     3
 72
    17
 73
    13
 74
     0
 42
0.0000000001
 43
0.0000000001
 40
0.0
 40
0.0
 40
0.0
 40
0.0
 40
0.1137636642
 40
0.2471282663
 40
0.3933285659
 40
0.5422653543
 40
0.6832338965000001
 40
0.8074080218999998
 40
0.8618875197999999
 40
0.9113657035999999
 40
0.9568229052999999
 40
1.0
 40
1.0
 40
1.0
 40
1.0
 10
4011.970439518285
 20
-1662.832018221169
 30
0.0
 10
4012.061245670835
 20
-1663.017061703558
 30
0.0
 10
4012.343319962871
 20
-1663.377138518379
 30
0.0
 10
4012.917755119002
 20
-1663.807288961709
 30
0.0
 10
4013.624938346747
 20
-1664.139636415681
 30
0.0
 10
4014.394199552644
 20
-1664.339513614097
 30
0.0
 10
4015.147508223928
 20
-1664.387494259818
 30
0.0
 10
4015.727061695857
 20
-1664.291941534286
 30
0.0
 10
4016.108007713135
 20
-1664.126274131204
 30
0.0
 10
4016.332208850509
 20
-1663.970724142687
 30
0.0
 10
4016.5001423089
 20
-1663.781637656141
 30
0.0
 10
4016.570871399242
 20
-1663.634549742849
 30
0.0
 10
4016.593998876482
 20
-1663.559815822721
 30
0.0
  0
SPLINE
  5
3E2
330
2
100
AcDbEntity
  8
0
  6
Continuous
 62
     7
100
AcDbSpline
210
0.0
220
0.0
230
1.0
 70
     8
 71
     3
 72
    17
 73
    13
 74
     0
 42
0.0000000001
 43
0.0000000001
 40
0.0
 40
0.0
 40
0.0
 40
0.0
 40
0.1137636642
 40
0.2471282663
 40
0.3933285659
 40
0.5422653543
 40
0.6832338965000001
 40
0.8074080218999998
 40
0.8618875197999999
 40
0.9113657035999999
 40
0.9568229052999999
 40
1.0
 40
1.0
 40
1.0
 40
1.0
 10
3987.47021707885
 20
-1662.832018221169
 30
0.0
 10
3987.561023229977
 20
-1663.017061703558
 30
0.0
 10
3987.843097523436
 20
-1663.377138518379
 30
0.0
 10
3988.417532679566
 20
-1663.807288961709
 30
0.0
 10
3989.124715907309
 20
-1664.139636415681
 30
0.0
 10
3989.893977111786
 20
-1664.339513614097
 30
0.0
 10
3990.647285783069
 20
-1664.387494259818
 30
0.0
 10
3991.22683925642
 20
-1664.291941534286
 30
0.0
 10
3991.607785272276
 20
-1664.126274131204
 30
0.0
 10
3991.831986409649
 20
-1663.970724142687
 30
0.0
 10
3991.999919868042
 20
-1663.781637656141
 30
0.0
 10
3992.070648959806
 20
-1663.634549742849
 30
0.0
 10
3992.093776437047
 20
-1663.559815822721
 30
0.0
  0
SPLINE
  5
3E3
330
2
100
AcDbEntity
  8
0
  6
Continuous
 62
     7
100
AcDbSpline
210
0.0
220
0.0
230
1.0
 70
     8
 71
     3
 72
    10
 73
     6
 74
     0
 42
0.0000000001
 43
0.0000000001
 40
0.0
 40
0.0
 40
0.0
 40
0.0
 40
0.2340947321
 40
0.4754055261
 40
1.0
 40
1.0
 40
1.0
 40
1.0
 10
4016.593998876482
 20
-1663.559815822721
 30
0.0
 10
4016.611260420217
 20
-1663.504037025465
 30
0.0
 10
4016.633929935863
 20
-1663.386506303961
 30
0.0
 10
4016.628601998132
 20
-1663.135711585029
 30
0.0
 10
4016.567071360918
 20
-1662.9494828409
 30
0.0
 10
4016.509428097389
 20
-1662.832018221169
 30
0.0
  0
SPLINE
  5
3E4
330
2
100
AcDbEntity
  8
0
  6
Continuous
 62
     7
100
AcDbSpline
210
0.0
220
0.0
230
1.0
 70
     8
 71
     3
 72
    10
 73
     6
 74
     0
 42
0.0000000001
 43
0.0000000001
 40
0.0
 40
0.0
 40
0.0
 40
0.0
 40
0.2340944964
 40
0.4753657866
 40
1.0
 40
1.0
 40
1.0
 40
1.0
 10
4017.678585588788
 20
-1660.050071444307
 30
0.0
 10
4017.695816444242
 20
-1659.994320119285
 30
0.0
 10
4017.718396516532
 20
-1659.876856586267
 30
0.0
 10
4017.713026699078
 20
-1659.626219142102
 30
0.0
 10
4017.651498050379
 20
-1659.440116259038
 30
0.0
 10
4017.593885226211
 20
-1659.322713665904
 30
0.0
  0
SPLINE
  5
3E5
330
2
100
AcDbEntity
  8
0
  6
Continuous
 62
     7
100
AcDbSpline
210
0.0
220
0.0
230
1.0
 70
     8
 71
     3
 72
    10
 73
     6
 74
     0
 42
0.0000000001
 43
0.0000000001
 40
0.0
 40
0.0
 40
0.0
 40
0.0
 40
0.2340947321
 40
0.4754055261
 40
1.0
 40
1.0
 40
1.0
 40
1.0
 10
3992.093776437047
 20
-1663.559815822721
 30
0.0
 10
3992.111037980779
 20
-1663.504037025465
 30
0.0
 10
3992.133707496427
 20
-1663.386506303961
 30
0.0
 10
3992.128379558695
 20
-1663.135711585029
 30
0.0
 10
3992.06684892006
 20
-1662.9494828409
 30
0.0
 10
3992.009205656531
 20
-1662.832018221169
 30
0.0
  0
SPLINE
  5
3E6
330
2
100
AcDbEntity
  8
0
  6
Continuous
 62
     7
100
AcDbSpline
210
0.0
220
0.0
230
1.0
 70
     8
 71
     3
 72
    17
 73
    13
 74
     0
 42
0.0000000001
 43
0.0000000001
 40
0.0
 40
0.0
 40
0.0
 40
0.0
 40
0.1137636642
 40
0.2471282663
 40
0.3933285659
 40
0.5422653543
 40
0.6832338965000001
 40
0.8074080218999998
 40
0.8618875197999999
 40
0.9113657035999999
 40
0.9568229052999999
 40
1.0
 40
1.0
 40
1.0
 40
1.0
 10
4016.509428097389
 20
-1662.832018221169
 30
0.0
 10
4016.418621944839
 20
-1662.64697473878
 30
0.0
 10
4016.136547652803
 20
-1662.286897925381
 30
0.0
 10
4015.562112496673
 20
-1661.85674748063
 30
0.0
 10
4014.854929268929
 20
-1661.52440002808
 30
0.0
 10
4014.085668063029
 20
-1661.324522829664
 30
0.0
 10
4013.332359391747
 20
-1661.276542183944
 30
0.0
 10
4012.752805919819
 20
-1661.372094908053
 30
0.0
 10
4012.371859902539
 20
-1661.537762311134
 30
0.0
 10
4012.147658766589
 20
-1661.693312299653
 30
0.0
 10
4011.979725306775
 20
-1661.882398786198
 30
0.0
 10
4011.908996216432
 20
-1662.029486699489
 30
0.0
 10
4011.885868739192
 20
-1662.10422062104
 30
0.0
  0
SPLINE
  5
3E7
330
2
100
AcDbEntity
  8
0
  6
Continuous
 62
     7
100
AcDbSpline
210
0.0
220
0.0
230
1.0
 70
     8
 71
     3
 72
    17
 73
    13
 74
     0
 42
0.0000000001
 43
0.0000000001
 40
0.0
 40
0.0
 40
0.0
 40
0.0
 40
0.1137636642
 40
0.2471282663
 40
0.3933285659
 40
0.5422653543
 40
0.6832338965000001
 40
0.8074080218999998
 40
0.8618875197999999
 40
0.9113657035999999
 40
0.9568229052999999
 40
1.0
 40
1.0
 40
1.0
 40
1.0
 10
3992.009205656531
 20
-1662.832018221169
 30
0.0
 10
3991.918399505403
 20
-1662.64697473878
 30
0.0
 10
3991.636325211946
 20
-1662.286897925381
 30
0.0
 10
3991.061890055814
 20
-1661.85674748063
 30
0.0
 10
3990.354706828069
 20
-1661.52440002808
 30
0.0
 10
3989.585445622171
 20
-1661.324522829664
 30
0.0
 10
3988.832136952311
 20
-1661.276542183944
 30
0.0
 10
3988.25258347896
 20
-1661.372094908053
 30
0.0
 10
3987.871637463105
 20
-1661.537762311134
 30
0.0
 10
3987.647436325731
 20
-1661.693312299653
 30
0.0
 10
3987.479502867339
 20
-1661.882398786198
 30
0.0
 10
3987.408773775574
 20
-1662.029486699489
 30
0.0
 10
3987.385646298334
 20
-1662.10422062104
 30
0.0
  0
SPLINE
  5
3E8
330
2
100
AcDbEntity
  8
0
  6
Continuous
 62
     7
100
AcDbSpline
210
0.0
220
0.0
230
1.0
 70
     8
 71
     3
 72
    10
 73
     6
 74
     0
 42
0.0000000001
 43
0.0000000001
 40
0.0
 40
0.0
 40
0.0
 40
0.0
 40
0.2340944964
 40
0.4753657866
 40
1.0
 40
1.0
 40
1.0
 40
1.0
 10
3993.17836314935
 20
-1660.050071444307
 30
0.0
 10
3993.195594003383
 20
-1659.994320119285
 30
0.0
 10
3993.218174075673
 20
-1659.876856586267
 30
0.0
 10
3993.212804258218
 20
-1659.626219142102
 30
0.0
 10
3993.151275610943
 20
-1659.440116259038
 30
0.0
 10
3993.093662785351
 20
-1659.322713665904
 30
0.0
  0
SPLINE
  5
3E9
330
2
100
AcDbEntity
  8
0
  6
Continuous
 62
     7
100
AcDbSpline
210
0.0
220
0.0
230
1.0
 70
     8
 71
     3
 72
    18
 73
    14
 74
     0
 42
0.0000000001
 43
0.0000000001
 40
0.0
 40
0.0
 40
0.0
 40
0.0
 40
0.1137407473
 40
0.1783959312
 40
0.2473189704
 40
0.3934908688
 40
0.542396792
 40
0.6833319862999999
 40
0.8074680166
 40
0.861929212
 40
0.911387631
 40
0.9568309838999999
 40
1.0
 40
1.0
 40
1.0
 40
1.0
 10
3993.093662785351
 20
-1659.322713665904
 30
0.0
 10
3993.002845785578
 20
-1659.137648079419
 30
0.0
 10
3992.798860183898
 20
-1658.877102019054
 30
0.0
 10
3992.460331677924
 20
-1658.583154105047
 30
0.0
 10
3992.040142540758
 20
-1658.297174225496
 30
0.0
 10
3991.438794878228
 20
-1658.015049465286
 30
0.0
 10
3990.669559624017
 20
-1657.815160792369
 30
0.0
 10
3989.916157657518
 20
-1657.767235843566
 30
0.0
 10
3989.336601107515
 20
-1657.862889119976
 30
0.0
 10
3988.955693776673
 20
-1658.028657061134
 30
0.0
 10
3988.731589351121
 20
-1658.184319082144
 30
0.0
 10
3988.56366029648
 20
-1658.373430288579
 30
0.0
 10
3988.493077265281
 20
-1658.520603570051
 30
0.0
 10
3988.469973843672
 20
-1658.595355887501
 30
0.0
  0
SPLINE
  5
3EA
330
2
100
AcDbEntity
  8
0
  6
Continuous
 62
     7
100
AcDbSpline
210
0.0
220
0.0
230
1.0
 70
     8
 71
     3
 72
    18
 73
    14
 74
     0
 42
0.0000000001
 43
0.0000000001
 40
0.0
 40
0.0
 40
0.0
 40
0.0
 40
0.1137407473
 40
0.1783959312
 40
0.2473189704
 40
0.3934908688
 40
0.542396792
 40
0.6833319862999999
 40
0.8074680166
 40
0.861929212
 40
0.911387631
 40
0.9568309838999999
 40
1.0
 40
1.0
 40
1.0
 40
1.0
 10
4017.593885226211
 20
-1659.322713665904
 30
0.0
 10
4017.503068226438
 20
-1659.137648079419
 30
0.0
 10
4017.299082624758
 20
-1658.877102019054
 30
0.0
 10
4016.960554118783
 20
-1658.583154105047
 30
0.0
 10
4016.540364980194
 20
-1658.297174225496
 30
0.0
 10
4015.939017317665
 20
-1658.015049465286
 30
0.0
 10
4015.169782064876
 20
-1657.815160792369
 30
0.0
 10
4014.416380098378
 20
-1657.767235843566
 30
0.0
 10
4013.836823548375
 20
-1657.862889119976
 30
0.0
 10
4013.455916217532
 20
-1658.028657061134
 30
0.0
 10
4013.231811791979
 20
-1658.184319082144
 30
0.0
 10
4013.063882735916
 20
-1658.373430288579
 30
0.0
 10
4012.993299704718
 20
-1658.520603570051
 30
0.0
 10
4012.970196284529
 20
-1658.595355887501
 30
0.0
  0
MTEXT
  5
3EB
102
{ACAD_XDICTIONARY
360
645
102
}
330
2
100
AcDbEntity
  8
打标文字
 62
     3
100
AcDbMText
 10
4263.547565783325
 20
-1443.503634093724
 30
0.0
 40
4.5
 41
129.382227065222
 71
     1
 72
     5
  3
\A1;{\f仿宋_GB2312|b0|i0|c134|p49;技术参数：\P- 材料: 压铸铝\P- 表面处理: 粉末喷涂\P- 颜色: RAL 7037（灰色） \P- 温度范围: -40℃ - +125℃\P- 防护等级: IP67（联锁状态,IEC 60529)    \P- 出线方向: 顶出线\P- 出线孔数: 1\P- 螺纹规格: PG42\P\Fromans|c134;\PTechnical specification:\P- Material: aluminium die-cas
  3
t\P- Surface: powder-coated\P- Colour: RAL 7037(grey)\P- Temperature range: -40\fSimSun|b0|i0|c134|p2;℃\Fromans|c134; - +125\fSimSun|b0|i0|c134|p2;℃\Fromans|c134;\P- Degree of protection: IP67\P  (acc.to IEC 60529 for coupled connector)\P- Cable entr
  1
y: top entry\P- No. of cable entries: 1\P- Thread size: PG42}
 73
     1
 44
1.0
1001
ACAD
1000
ACAD_MTEXT_DEFINED_HEIGHT_BEGIN
1070
    46
1040
161.7354166437583
1000
ACAD_MTEXT_DEFINED_HEIGHT_END
  0
ENDSEC
  0
SECTION
  2
OBJECTS
  0
DICTIONARY
  5
B
330
0
100
AcDbDictionary
281
     1
  3
ACAD_COLOR
350
49
  3
ACAD_GROUP
350
34
  3
ACAD_LAYOUT
350
13
  3
ACAD_MATERIAL
350
D
  3
ACAD_MLEADERSTYLE
350
427
  3
ACAD_MLINESTYLE
350
35
  3
ACAD_PLOTSETTINGS
350
36
  3
ACAD_PLOTSTYLENAME
350
A
  3
ACAD_SCALELIST
350
4A
  3
ACAD_TABLESTYLE
350
4B
  3
ACAD_VISUALSTYLE
350
2A
  3
ACDB_RECOMPOSE_DATA
350
417
  3
AcDbVariableDictionary
350
3F7
  0
DICTIONARY
  5
2B
330
27
100
AcDbDictionary
280
     1
281
     1
  0
DICTIONARY
  5
1A
330
19
100
AcDbDictionary
280
     1
281
     1
  3
ACAD_LAYERFILTERS
360
1B
  3
ACAD_LAYERSTATES
360
1C
  3
ACLYDICTIONARY
360
1D
  0
DICTIONARY
  5
7
330
6
100
AcDbDictionary
280
     1
281
     1
  3
ADSK_XREC_LAYER_RECONCILED
360
8
  0
DICTIONARY
  5
76
330
75
100
AcDbDictionary
280
     1
281
     1
  3
ADSK_XREC_LAYER_RECONCILED
360
77
  0
DICTIONARY
  5
4D
330
4C
100
AcDbDictionary
280
     1
281
     1
  0
DICTIONARY
  5
3
330
2
100
AcDbDictionary
280
     1
281
     1
  3
ACAD_SORTENTS
360
3ED
  0
DICTIONARY
  5
53F
330
7B
100
AcDbDictionary
280
     1
281
     1
  0
DICTIONARY
  5
647
330
4AA
100
AcDbDictionary
280
     1
281
     1
  3
ACAD_MTEXT_2008_RT
360
679
  0
DICTIONARY
  5
649
330
4EE
100
AcDbDictionary
280
     1
281
     1
  3
ACAD_MTEXT_2008_RT
360
67A
  0
DICTIONARY
  5
64B
330
4EF
100
AcDbDictionary
280
     1
281
     1
  3
ACAD_MTEXT_2008_RT
360
67B
  0
DICTIONARY
  5
64D
330
514
100
AcDbDictionary
280
     1
281
     1
  3
ACAD_MTEXT_2008_RT
360
67C
  0
DICTIONARY
  5
64F
330
517
100
AcDbDictionary
280
     1
281
     1
  3
ACAD_MTEXT_2008_RT
360
67D
  0
DICTIONARY
  5
651
330
518
100
AcDbDictionary
280
     1
281
     1
  3
ACAD_MTEXT_2008_RT
360
67E
  0
DICTIONARY
  5
653
330
522
100
AcDbDictionary
280
     1
281
     1
  3
ACAD_MTEXT_2008_RT
360
67F
  0
DICTIONARY
  5
655
330
523
100
AcDbDictionary
280
     1
281
     1
  3
ACAD_MTEXT_2008_RT
360
680
  0
DICTIONARY
  5
657
330
524
100
AcDbDictionary
280
     1
281
     1
  3
ACAD_MTEXT_2008_RT
360
681
  0
DICTIONARY
  5
659
330
532
100
AcDbDictionary
280
     1
281
     1
  3
ACAD_MTEXT_2008_RT
360
682
  0
DICTIONARY
  5
65B
330
533
100
AcDbDictionary
280
     1
281
     1
  3
ACAD_MTEXT_2008_RT
360
683
  0
DICTIONARY
  5
65D
330
534
100
AcDbDictionary
280
     1
281
     1
  3
ACAD_MTEXT_2008_RT
360
684
  0
DICTIONARY
  5
7A
330
79
100
AcDbDictionary
280
     1
281
     1
  0
DICTIONARY
  5
22F
330
22E
100
AcDbDictionary
280
     1
281
     1
  3
ACAD_DIMASSOC
360
230
  0
DICTIONARY
  5
23F
330
23E
100
AcDbDictionary
280
     1
281
     1
  3
ACAD_DIMASSOC
360
240
  0
DICTIONARY
  5
24E
330
24D
100
AcDbDictionary
280
     1
281
     1
  3
ACAD_DIMASSOC
360
24F
  0
DICTIONARY
  5
273
330
272
100
AcDbDictionary
280
     1
281
     1
  3
ACAD_DIMASSOC
360
274
  0
DICTIONARY
  5
645
330
3EB
100
AcDbDictionary
280
     1
281
     1
  3
ACAD_MTEXT_2008_RT
360
678
  0
DICTIONARY
  5
49
102
{ACAD_REACTORS
330
B
102
}
330
B
100
AcDbDictionary
281
     1
  0
DICTIONARY
  5
34
102
{ACAD_REACTORS
330
B
102
}
330
B
100
AcDbDictionary
281
     1
  0
DICTIONARY
  5
13
102
{ACAD_REACTORS
330
B
102
}
330
B
100
AcDbDictionary
281
     1
  3
Layout1
350
18
  3
Model
350
12
  0
DICTIONARY
  5
D
102
{ACAD_REACTORS
330
B
102
}
330
B
100
AcDbDictionary
281
     1
  3
ByBlock
350
40
  3
ByLayer
350
37
  3
Global
350
C
  0
DICTIONARY
  5
427
102
{ACAD_REACTORS
330
B
102
}
330
B
100
AcDbDictionary
281
     1
  3
Standard
350
428
  0
DICTIONARY
  5
35
102
{ACAD_REACTORS
330
B
102
}
330
B
100
AcDbDictionary
281
     1
  3
Standard
350
4E
  0
DICTIONARY
  5
36
102
{ACAD_REACTORS
330
B
102
}
330
B
100
AcDbDictionary
281
     1
  0
ACDBDICTIONARYWDFLT
  5
A
102
{ACAD_REACTORS
330
B
102
}
330
B
100
AcDbDictionary
281
     1
  3
Normal
350
9
100
AcDbDictionaryWithDefault
340
9
  0
DICTIONARY
  5
4A
102
{ACAD_REACTORS
330
B
102
}
330
B
100
AcDbDictionary
281
     1
  3
A0
350
53
  3
A1
350
54
  3
A2
350
55
  3
A3
350
56
  3
A4
350
57
  3
A5
350
58
  3
A6
350
59
  3
A7
350
5A
  3
A8
350
5B
  3
A9
350
5C
  3
B0
350
5D
  3
B1
350
5E
  3
B2
350
5F
  3
B3
350
60
  3
B4
350
61
  3
B5
350
62
  3
B6
350
63
  3
B7
350
64
  3
B8
350
65
  3
B9
350
66
  3
C0
350
67
  3
C1
350
68
  3
C2
350
69
  3
C3
350
6A
  3
C4
350
6B
  3
C5
350
6C
  3
C6
350
6D
  3
C7
350
6E
  3
C8
350
6F
  3
C9
350
70
  3
D0
350
71
  3
D1
350
72
  3
D2
350
73
  0
DICTIONARY
  5
4B
102
{ACAD_REACTORS
330
B
102
}
330
B
100
AcDbDictionary
281
     1
  3
Standard
350
4F
  0
DICTIONARY
  5
2A
102
{ACAD_REACTORS
330
B
102
}
330
B
100
AcDbDictionary
281
     1
  3
2dWireframe
350
29
  3
3D Hidden
350
41F
  3
3dWireframe
350
52
  3
Basic
350
41E
  3
Brighten
350
422
  3
ColorChange
350
426
  3
Conceptual
350
420
  3
Dim
350
421
  3
Facepattern
350
425
  3
Flat
350
41A
  3
FlatWithEdges
350
41B
  3
Gouraud
350
41C
  3
GouraudWithEdges
350
41D
  3
Linepattern
350
424
  3
Realistic
350
51
  3
Thicken
350
423
  0
XRECORD
  5
417
102
{ACAD_REACTORS
330
B
102
}
330
B
100
AcDbXrecord
280
     1
 90
        1
330
4F
330
3EB
330
4AA
330
4EE
330
4EF
330
514
330
517
330
518
330
522
330
523
330
524
330
532
330
533
330
534
  0
DICTIONARY
  5
3F7
102
{ACAD_REACTORS
330
B
102
}
330
B
100
AcDbDictionary
281
     1
  3
CANNOSCALE
350
3FA
  3
CMLEADERSTYLE
350
3F9
  3
CTABLESTYLE
350
3F8
  3
LIGHTINGUNITS
350
3FB
  3
LOFTANG1
350
5B8
  3
LOFTANG2
350
5B9
  3
MSLTSCALE
350
436
  0
DICTIONARY
  5
1B
102
{ACAD_REACTORS
330
1A
102
}
330
1A
100
AcDbDictionary
281
     1
  0
DICTIONARY
  5
1C
102
{ACAD_REACTORS
330
1A
102
}
330
1A
100
AcDbDictionary
281
     1
  0
DICTIONARY
  5
1D
102
{ACAD_REACTORS
330
1A
102
}
330
1A
100
AcDbDictionary
281
     1
1001
ACAD
1000
<All
  0
XRECORD
  5
8
102
{ACAD_REACTORS
330
7
102
}
330
7
100
AcDbXrecord
280
     1
290
     1
  0
XRECORD
  5
77
102
{ACAD_REACTORS
330
76
102
}
330
76
100
AcDbXrecord
280
     1
290
     1
  0
SORTENTSTABLE
  5
3ED
102
{ACAD_REACTORS
330
3
102
}
330
3
100
AcDbSortentsTable
330
2
  0
XRECORD
  5
679
102
{ACAD_REACTORS
330
647
102
}
330
647
100
AcDbXrecord
280
     1
 40
1024.0
  1
\pxqc;SH YE
  0
XRECORD
  5
67A
102
{ACAD_REACTORS
330
649
102
}
330
649
100
AcDbXrecord
280
     1
 40
941723.0
  1
\pxqc;档案员{\H0.7x;\P\Fromans|c134;Filing Clerk\fFangSong_GB2312|b0|i0|c134|p49; }
  0
XRECORD
  5
67B
102
{ACAD_REACTORS
330
64B
102
}
330
64B
100
AcDbXrecord
280
     1
 40
135119.0
  1
\pxqc;日期{\Fromans|c134;/Date}
  0
XRECORD
  5
67C
102
{ACAD_REACTORS
330
64D
102
}
330
64D
100
AcDbXrecord
280
     1
 40
45027.0
  1
\pxsm0.7;{\fFangSong_GB2312|b0|i0|c134|p49;标准化}\PStand.
  0
XRECORD
  5
67D
102
{ACAD_REACTORS
330
64F
102
}
330
64F
100
AcDbXrecord
280
     1
 40
126264.0
  1
\pxsm0.7;签名\P{\Fromans|c134;Signature} 
  0
XRECORD
  5
67E
102
{ACAD_REACTORS
330
651
102
}
330
651
100
AcDbXrecord
280
     1
 40
108459.0
  1
\pxsm0.7,qc;处数\P{\Fromans|c134;Number }
  0
XRECORD
  5
67F
102
{ACAD_REACTORS
330
653
102
}
330
653
100
AcDbXrecord
280
     1
 40
95308.0
  1
\pxsm0.7;标记\P{\Fromans|c134;Mark}
  0
XRECORD
  5
680
102
{ACAD_REACTORS
330
655
102
}
330
655
100
AcDbXrecord
280
     1
 40
110845.0
  1
\pxsm0.7;审核\P{\Fromans|c134;Checked}
  0
XRECORD
  5
681
102
{ACAD_REACTORS
330
657
102
}
330
657
100
AcDbXrecord
280
     1
 40
156275.0
  1
\pxsm0.7;绘图\P{\Fromans|c134;Drawn\Ftxt|c134; }
  0
XRECORD
  5
682
102
{ACAD_REACTORS
330
659
102
}
330
659
100
AcDbXrecord
280
     1
 40
119227.0
  1
\pxsm0.7;批准\P{\Fromans|c134;Approved}
  0
XRECORD
  5
683
102
{ACAD_REACTORS
330
65B
102
}
330
65B
100
AcDbXrecord
280
     1
 40
112005.0
  1
\pxsm0.7;工艺\P{\Fromans|c134;Process}
  0
XRECORD
  5
684
102
{ACAD_REACTORS
330
65D
102
}
330
65D
100
AcDbXrecord
280
     1
 40
95540.0
  1
\pxsm0.7;日期\P{\Fromans|c134;Date}
  0
DIMASSOC
  5
230
102
{ACAD_REACTORS
330
22F
102
}
330
22F
100
AcDbDimAssoc
330
22E
 90
        3
 70
     0
 71
     0
  1
AcDbOsnapPointRef
 72
    13
331
1CB
 73
     2
 91
        0
 40
1.570785570681481
 10
0.0
 20
0.0
 30
2.000000000000000E+50
 75
     0
  1
AcDbOsnapPointRef
 72
    13
331
11F
 73
     2
 91
        0
 40
0.0
 10
0.0
 20
0.0
 30
2.000000000000000E+50
 75
     0
  0
DIMASSOC
  5
240
102
{ACAD_REACTORS
330
23F
102
}
330
23F
100
AcDbDimAssoc
330
23E
 90
        3
 70
     0
 71
     0
  1
AcDbOsnapPointRef
 72
    13
331
149
 73
     2
 91
        0
 40
0.0
 10
0.0
 20
0.0
 30
2.000000000000000E+50
 75
     0
  1
AcDbOsnapPointRef
 72
     1
331
1D1
 73
     2
 91
        0
 40
6.282849403610967
 10
0.0
 20
0.0
 30
2.000000000000000E+50
 75
     0
  0
DIMASSOC
  5
24F
102
{ACAD_REACTORS
330
24E
102
}
330
24E
100
AcDbDimAssoc
330
24D
 90
        2
 70
     0
 71
     0
  1
AcDbOsnapPointRef
 72
     8
331
202
 73
     2
 91
        0
 40
0.9999997444321008
 10
0.0
 20
0.0
 30
0.0
 75
     1
  1
AcDbOsnapPointRef
 72
     5
331
1DB
 73
     2
 91
        0
 40
3.141592653589792
 10
0.0
 20
0.0
 30
0.0
 75
     0
  0
DIMASSOC
  5
274
102
{ACAD_REACTORS
330
273
102
}
330
273
100
AcDbDimAssoc
330
272
 90
        3
 70
     0
 71
     0
  1
AcDbOsnapPointRef
 72
     1
331
271
 73
     2
 91
        0
 40
1.0
 10
0.0
 20
0.0
 30
2.000000000000000E+50
 75
     0
  1
AcDbOsnapPointRef
 72
    13
331
270
 73
     2
 91
        0
 40
0.0
 10
0.0
 20
0.0
 30
2.000000000000000E+50
 75
     0
  0
XRECORD
  5
678
102
{ACAD_REACTORS
330
645
102
}
330
645
100
AcDbXrecord
280
     1
 40
13750764.0
  1
\A1;\pxql;{\f仿宋_GB2312|b0|i0|c134|p49;技术参数：\P- 材料: 压铸铝\P- 表面处理: 粉末喷涂\P- 颜色: RAL 7037（灰色） \P- 温度范围: -40℃ - +125℃\P- 防护等级: IP67（联锁状态,IEC 60529)    \P- 出线方向: 顶出线\P- 出线孔数: 1\P- 螺纹规格: PG42\P\Fromans|c134;\PTechnical specification:\P- Material: aluminium d
  1
ie-cast\P- Surface: powder-coated\P- Colour: RAL 7037(grey)\P- Temperature range: -40\fSimSun|b0|i0|c134|p2;℃\Fromans|c134; - +125\fSimSun|b0|i0|c134|p2;℃\Fromans|c134;\P- Degree of protection: IP67\P  (acc.to IEC 60529 for coupled connector)\P- Cabl
  1
e entry: top entry\P- No. of cable entries: 1\P- Thread size: PG42}
  0
LAYOUT
  5
18
102
{ACAD_REACTORS
330
13
102
}
330
13
100
AcDbPlotSettings
  1

  2

  4

  6

 40
0.0
 41
0.0
 42
0.0
 43
0.0
 44
0.0
 45
0.0
 46
0.0
 47
0.0
 48
0.0
 49
0.0
140
0.0
141
0.0
142
1.0
143
1.0
 70
     0
 72
     0
 73
     0
 74
     0
  7

 75
     0
147
1.0
 76
     0
 77
     2
 78
   300
148
0.0
149
0.0
100
AcDbLayout
  1
Layout1
 70
     0
 71
     1
 10
0.0
 20
0.0
 11
12.0
 21
9.0
 12
0.0
 22
0.0
 32
0.0
 14
1.000000000000000E+20
 24
1.000000000000000E+20
 34
1.000000000000000E+20
 15
-1.000000000000000E+20
 25
-1.000000000000000E+20
 35
-1.000000000000000E+20
146
0.0
 13
0.0
 23
0.0
 33
0.0
 16
1.0
 26
0.0
 36
0.0
 17
0.0
 27
1.0
 37
0.0
 76
     0
330
15
  0
LAYOUT
  5
12
102
{ACAD_REACTORS
330
13
102
}
330
13
100
AcDbPlotSettings
  1

  2
novaPDF.pc3
  4
A4
  6

 40
3.174999952316281
 41
3.174999952316281
 42
3.17498779296875
 43
3.175003051757812
 44
297.0106506347656
 45
209.9733276367186
 46
1.340157936057892
 47
0.0
 48
1558.336744472735
 49
-186.8271445657527
140
2003.834869376285
141
128.1728554342471
142
1.0
143
1.546974054020034
 70
 15028
 72
     1
 73
     0
 74
     4
  7
monochrome.ctb
 75
     0
147
0.6464232528020469
 76
     1
 77
     2
 78
   300
148
-1558.336744472735
149
186.8271445657527
100
AcDbLayout
  1
Model
 70
     0
 71
     0
 10
0.0
 20
0.0
 11
0.0
 21
0.0
 12
0.0
 22
0.0
 32
0.0
 14
0.0
 24
0.0
 34
0.0
 15
0.0
 25
0.0
 35
0.0
146
0.0
 13
0.0
 23
0.0
 33
0.0
 16
0.0
 26
0.0
 36
0.0
 17
0.0
 27
0.0
 37
0.0
 76
     0
330
2
331
28
1001
ACAD_PSEXT
1000
novaPDF.pc3
1000
novaPDF Pro Desktop 7 Printer Driver
1000
NVP7:
1000

1070
     0
  0
MATERIAL
  5
40
102
{ACAD_XDICTIONARY
360
41
102
}
102
{ACAD_REACTORS
330
D
102
}
330
D
100
AcDbMaterial
  1
ByBlock
 72
     0
 43
0.0008202099737533
 43
0.0
 43
0.0
 43
0.0
 43
0.0
 43
0.0008202099737533
 43
0.0
 43
0.0
 43
0.0
 43
0.0
 43
1.0
 43
0.0
 43
0.0
 43
0.0
 43
0.0
 43
1.0
 77
     0
 47
0.0008202099737533
 47
0.0
 47
0.0
 47
0.0
 47
0.0
 47
0.0008202099737533
 47
0.0
 47
0.0
 47
0.0
 47
0.0
 47
1.0
 47
0.0
 47
0.0
 47
0.0
 47
0.0
 47
1.0
171
     0
 49
0.0008202099737533
 49
0.0
 49
0.0
 49
0.0
 49
0.0
 49
0.0008202099737533
 49
0.0
 49
0.0
 49
0.0
 49
0.0
 49
1.0
 49
0.0
 49
0.0
 49
0.0
 49
0.0
 49
1.0
175
     0
142
0.0008202099737533
142
0.0
142
0.0
142
0.0
142
0.0
142
0.0008202099737533
142
0.0
142
0.0
142
0.0
142
0.0
142
1.0
142
0.0
142
0.0
142
0.0
142
0.0
142
1.0
179
     0
144
0.0008202099737533
144
0.0
144
0.0
144
0.0
144
0.0
144
0.0008202099737533
144
0.0
144
0.0
144
0.0
144
0.0
144
1.0
144
0.0
144
0.0
144
0.0
144
0.0
144
1.0
147
0.0008202099737533
147
0.0
147
0.0
147
0.0
147
0.0
147
0.0008202099737533
147
0.0
147
0.0
147
0.0
147
0.0
147
1.0
147
0.0
147
0.0
147
0.0
147
0.0
147
1.0
  0
MATERIAL
  5
37
102
{ACAD_XDICTIONARY
360
38
102
}
102
{ACAD_REACTORS
330
D
102
}
330
D
100
AcDbMaterial
  1
ByLayer
 72
     0
 43
0.0008202099737533
 43
0.0
 43
0.0
 43
0.0
 43
0.0
 43
0.0008202099737533
 43
0.0
 43
0.0
 43
0.0
 43
0.0
 43
1.0
 43
0.0
 43
0.0
 43
0.0
 43
0.0
 43
1.0
 77
     0
 47
0.0008202099737533
 47
0.0
 47
0.0
 47
0.0
 47
0.0
 47
0.0008202099737533
 47
0.0
 47
0.0
 47
0.0
 47
0.0
 47
1.0
 47
0.0
 47
0.0
 47
0.0
 47
0.0
 47
1.0
171
     0
 49
0.0008202099737533
 49
0.0
 49
0.0
 49
0.0
 49
0.0
 49
0.0008202099737533
 49
0.0
 49
0.0
 49
0.0
 49
0.0
 49
1.0
 49
0.0
 49
0.0
 49
0.0
 49
0.0
 49
1.0
175
     0
142
0.0008202099737533
142
0.0
142
0.0
142
0.0
142
0.0
142
0.0008202099737533
142
0.0
142
0.0
142
0.0
142
0.0
142
1.0
142
0.0
142
0.0
142
0.0
142
0.0
142
1.0
179
     0
144
0.0008202099737533
144
0.0
144
0.0
144
0.0
144
0.0
144
0.0008202099737533
144
0.0
144
0.0
144
0.0
144
0.0
144
1.0
144
0.0
144
0.0
144
0.0
144
0.0
144
1.0
147
0.0008202099737533
147
0.0
147
0.0
147
0.0
147
0.0
147
0.0008202099737533
147
0.0
147
0.0
147
0.0
147
0.0
147
1.0
147
0.0
147
0.0
147
0.0
147
0.0
147
1.0
  0
MATERIAL
  5
C
102
{ACAD_XDICTIONARY
360
E
102
}
102
{ACAD_REACTORS
330
D
102
}
330
D
100
AcDbMaterial
  1
Global
 73
     1
 78
     1
172
     1
176
     1
270
     1
274
     1
  0
MLEADERSTYLE
  5
428
102
{ACAD_REACTORS
330
427
102
}
330
427
100
AcDbMLeaderStyle
170
     2
171
     1
172
     0
 90
        2
 40
0.0
 41
0.0
173
     1
 91
-1056964608
340
23
 92
       -2
290
     1
 42
2.0
291
     1
 43
0.36
  3
Standard
 44
4.0
300

342
20
174
     1
178
     6
175
     1
176
     0
 93
-1056964608
 45
4.0
292
     0
297
     0
 46
4.0
 94
-1056964608
 47
1.0
 49
1.0
140
1.0
293
     1
141
0.0
294
     1
177
     0
142
1.0
295
     0
296
     0
143
0.125
1001
ACAD_MLEADERVER
1070
     2
  0
MLINESTYLE
  5
4E
102
{ACAD_REACTORS
330
35
102
}
330
35
100
AcDbMlineStyle
  2
STANDARD
 70
     0
  3

 62
   256
 51
90.0
 52
90.0
 71
     2
 49
0.5
 62
   256
  6
BYLAYER
 49
-0.5
 62
   256
  6
BYLAYER
  0
ACDBPLACEHOLDER
  5
9
102
{ACAD_REACTORS
330
A
102
}
330
A
  0
SCALE
  5
53
102
{ACAD_REACTORS
330
4A
102
}
330
4A
100
AcDbScale
 70
     0
300
1:1
140
1.0
141
1.0
290
     1
  0
SCALE
  5
54
102
{ACAD_REACTORS
330
4A
102
}
330
4A
100
AcDbScale
 70
     0
300
1:2
140
1.0
141
2.0
290
     0
  0
SCALE
  5
55
102
{ACAD_REACTORS
330
4A
102
}
330
4A
100
AcDbScale
 70
     0
300
1:4
140
1.0
141
4.0
290
     0
  0
SCALE
  5
56
102
{ACAD_REACTORS
330
4A
102
}
330
4A
100
AcDbScale
 70
     0
300
1:5
140
1.0
141
5.0
290
     0
  0
SCALE
  5
57
102
{ACAD_REACTORS
330
4A
102
}
330
4A
100
AcDbScale
 70
     0
300
1:8
140
1.0
141
8.0
290
     0
  0
SCALE
  5
58
102
{ACAD_REACTORS
330
4A
102
}
330
4A
100
AcDbScale
 70
     0
300
1:10
140
1.0
141
10.0
290
     0
  0
SCALE
  5
59
102
{ACAD_REACTORS
330
4A
102
}
330
4A
100
AcDbScale
 70
     0
300
1:16
140
1.0
141
16.0
290
     0
  0
SCALE
  5
5A
102
{ACAD_REACTORS
330
4A
102
}
330
4A
100
AcDbScale
 70
     0
300
1:20
140
1.0
141
20.0
290
     0
  0
SCALE
  5
5B
102
{ACAD_REACTORS
330
4A
102
}
330
4A
100
AcDbScale
 70
     0
300
1:30
140
1.0
141
30.0
290
     0
  0
SCALE
  5
5C
102
{ACAD_REACTORS
330
4A
102
}
330
4A
100
AcDbScale
 70
     0
300
1:40
140
1.0
141
40.0
290
     0
  0
SCALE
  5
5D
102
{ACAD_REACTORS
330
4A
102
}
330
4A
100
AcDbScale
 70
     0
300
1:50
140
1.0
141
50.0
290
     0
  0
SCALE
  5
5E
102
{ACAD_REACTORS
330
4A
102
}
330
4A
100
AcDbScale
 70
     0
300
1:100
140
1.0
141
100.0
290
     0
  0
SCALE
  5
5F
102
{ACAD_REACTORS
330
4A
102
}
330
4A
100
AcDbScale
 70
     0
300
2:1
140
2.0
141
1.0
290
     0
  0
SCALE
  5
60
102
{ACAD_REACTORS
330
4A
102
}
330
4A
100
AcDbScale
 70
     0
300
4:1
140
4.0
141
1.0
290
     0
  0
SCALE
  5
61
102
{ACAD_REACTORS
330
4A
102
}
330
4A
100
AcDbScale
 70
     0
300
8:1
140
8.0
141
1.0
290
     0
  0
SCALE
  5
62
102
{ACAD_REACTORS
330
4A
102
}
330
4A
100
AcDbScale
 70
     0
300
10:1
140
10.0
141
1.0
290
     0
  0
SCALE
  5
63
102
{ACAD_REACTORS
330
4A
102
}
330
4A
100
AcDbScale
 70
     0
300
100:1
140
100.0
141
1.0
290
     0
  0
SCALE
  5
64
102
{ACAD_REACTORS
330
4A
102
}
330
4A
100
AcDbScale
 70
     0
300
1/128" = 1'-0"
140
0.0078125
141
12.0
290
     0
  0
SCALE
  5
65
102
{ACAD_REACTORS
330
4A
102
}
330
4A
100
AcDbScale
 70
     0
300
1/64" = 1'-0"
140
0.015625
141
12.0
290
     0
  0
SCALE
  5
66
102
{ACAD_REACTORS
330
4A
102
}
330
4A
100
AcDbScale
 70
     0
300
1/32" = 1'-0"
140
0.03125
141
12.0
290
     0
  0
SCALE
  5
67
102
{ACAD_REACTORS
330
4A
102
}
330
4A
100
AcDbScale
 70
     0
300
1/16" = 1'-0"
140
0.0625
141
12.0
290
     0
  0
SCALE
  5
68
102
{ACAD_REACTORS
330
4A
102
}
330
4A
100
AcDbScale
 70
     0
300
3/32" = 1'-0"
140
0.09375
141
12.0
290
     0
  0
SCALE
  5
69
102
{ACAD_REACTORS
330
4A
102
}
330
4A
100
AcDbScale
 70
     0
300
1/8" = 1'-0"
140
0.125
141
12.0
290
     0
  0
SCALE
  5
6A
102
{ACAD_REACTORS
330
4A
102
}
330
4A
100
AcDbScale
 70
     0
300
3/16" = 1'-0"
140
0.1875
141
12.0
290
     0
  0
SCALE
  5
6B
102
{ACAD_REACTORS
330
4A
102
}
330
4A
100
AcDbScale
 70
     0
300
1/4" = 1'-0"
140
0.25
141
12.0
290
     0
  0
SCALE
  5
6C
102
{ACAD_REACTORS
330
4A
102
}
330
4A
100
AcDbScale
 70
     0
300
3/8" = 1'-0"
140
0.375
141
12.0
290
     0
  0
SCALE
  5
6D
102
{ACAD_REACTORS
330
4A
102
}
330
4A
100
AcDbScale
 70
     0
300
1/2" = 1'-0"
140
0.5
141
12.0
290
     0
  0
SCALE
  5
6E
102
{ACAD_REACTORS
330
4A
102
}
330
4A
100
AcDbScale
 70
     0
300
3/4" = 1'-0"
140
0.75
141
12.0
290
     0
  0
SCALE
  5
6F
102
{ACAD_REACTORS
330
4A
102
}
330
4A
100
AcDbScale
 70
     0
300
1" = 1'-0"
140
1.0
141
12.0
290
     0
  0
SCALE
  5
70
102
{ACAD_REACTORS
330
4A
102
}
330
4A
100
AcDbScale
 70
     0
300
1-1/2" = 1'-0"
140
1.5
141
12.0
290
     0
  0
SCALE
  5
71
102
{ACAD_REACTORS
330
4A
102
}
330
4A
100
AcDbScale
 70
     0
300
3" = 1'-0"
140
3.0
141
12.0
290
     0
  0
SCALE
  5
72
102
{ACAD_REACTORS
330
4A
102
}
330
4A
100
AcDbScale
 70
     0
300
6" = 1'-0"
140
6.0
141
12.0
290
     0
  0
SCALE
  5
73
102
{ACAD_REACTORS
330
4A
102
}
330
4A
100
AcDbScale
 70
     0
300
1'-0" = 1'-0"
140
12.0
141
12.0
290
     0
  0
TABLESTYLE
  5
4F
102
{ACAD_XDICTIONARY
360
50
102
}
102
{ACAD_REACTORS
330
4B
102
}
330
4B
100
AcDbTableStyle
  3
Standard
 70
     0
 71
     0
 40
1.5
 41
1.5
280
     0
281
     0
  7
STANDARD
140
4.5
170
     2
 62
     0
 63
     7
283
     0
274
    -2
284
     1
 64
     0
275
    -2
285
     1
 65
     0
276
    -2
286
     1
 66
     0
277
    -2
287
     1
 67
     0
278
    -2
288
     1
 68
     0
279
    -2
289
     1
 69
     0
  7
STANDARD
140
6.0
170
     5
 62
     0
 63
     7
283
     0
274
    -2
284
     1
 64
     0
275
    -2
285
     1
 65
     0
276
    -2
286
     1
 66
     0
277
    -2
287
     1
 67
     0
278
    -2
288
     1
 68
     0
279
    -2
289
     1
 69
     0
  7
STANDARD
140
4.5
170
     5
 62
     0
 63
     7
283
     0
274
    -2
284
     1
 64
     0
275
    -2
285
     1
 65
     0
276
    -2
286
     1
 66
     0
277
    -2
287
     1
 67
     0
278
    -2
288
     1
 68
     0
279
    -2
289
     1
 69
     0
  0
VISUALSTYLE
  5
29
102
{ACAD_REACTORS
330
2A
102
}
330
2A
100
AcDbVisualStyle
  2
2dWireframe
 70
     4
 71
     0
 72
     2
 73
     0
 90
        0
 40
-0.6
 41
-30.0
 62
     5
 63
     7
 74
     1
 91
        4
 64
     7
 65
   257
 75
     1
175
     1
 42
1.0
 92
        0
 66
   257
 43
1.0
 76
     1
 77
     6
 78
     2
 67
     7
 79
     5
170
     0
171
     0
290
     0
174
     0
 93
        1
 44
0.0
173
     0
291
     0
 45
0.0
1001
ACAD
1000
AcDbSavedByObjectVersion
1070
     0
1000
AcDbSavedByObjectVersion
1070
     0
1000
AcDbSavedByObjectVersion
1070
     0
  0
VISUALSTYLE
  5
41F
102
{ACAD_REACTORS
330
2A
102
}
330
2A
100
AcDbVisualStyle
  2
3D Hidden
 70
     6
 71
     1
 72
     2
 73
     2
 90
        0
 40
-0.6
 41
-30.0
 62
     5
 63
     7
421
 16777215
 74
     2
 91
        2
 64
     7
 65
   257
 75
     2
175
     1
 42
40.0
 92
        0
 66
   257
 43
1.0
 76
     1
 77
     6
 78
     2
 67
     7
 79
     3
170
     0
171
     0
290
     0
174
     0
 93
        1
 44
0.0
173
     0
291
     0
 45
0.0
1001
ACAD
1000
AcDbSavedByObjectVersion
1070
     0
1000
AcDbSavedByObjectVersion
1070
     0
1000
AcDbSavedByObjectVersion
1070
     0
  0
VISUALSTYLE
  5
52
102
{ACAD_REACTORS
330
2A
102
}
330
2A
100
AcDbVisualStyle
  2
3dWireframe
 70
     5
 71
     0
 72
     2
 73
     0
 90
        0
 40
-0.6
 41
-30.0
 62
     5
 63
     7
 74
     1
 91
        4
 64
     7
 65
   257
 75
     1
175
     1
 42
1.0
 92
        0
 66
   257
 43
1.0
 76
     1
 77
     6
 78
     2
 67
     7
 79
     5
170
     0
171
     0
290
     0
174
     0
 93
        1
 44
0.0
173
     0
291
     0
 45
0.0
1001
ACAD
1000
AcDbSavedByObjectVersion
1070
     0
1000
AcDbSavedByObjectVersion
1070
     0
1000
AcDbSavedByObjectVersion
1070
     0
  0
VISUALSTYLE
  5
41E
102
{ACAD_REACTORS
330
2A
102
}
330
2A
100
AcDbVisualStyle
  2
Basic
 70
     7
 71
     1
 72
     0
 73
     1
 90
        0
 40
-0.6
 41
-30.0
 62
     5
 63
     7
421
 16777215
 74
     0
 91
        4
 64
     7
 65
   257
 75
     1
175
     1
 42
1.0
 92
        8
 66
     7
 43
1.0
 76
     1
 77
     6
 78
     2
 67
     7
 79
     5
170
     0
171
     0
290
     0
174
     0
 93
        1
 44
0.0
173
     0
291
     1
 45
0.0
1001
ACAD
1000
AcDbSavedByObjectVersion
1070
     0
1000
AcDbSavedByObjectVersion
1070
     0
1000
AcDbSavedByObjectVersion
1070
     0
  0
VISUALSTYLE
  5
422
102
{ACAD_REACTORS
330
2A
102
}
330
2A
100
AcDbVisualStyle
  2
Brighten
 70
    12
 71
     2
 72
     2
 73
     0
 90
        0
 40
-0.6
 41
-30.0
 62
     5
 63
     7
421
 16777215
 74
     1
 91
        4
 64
     7
 65
   257
 75
     1
175
     1
 42
1.0
 92
        8
 66
     7
 43
1.0
 76
     1
 77
     6
 78
     2
 67
     7
 79
     5
170
     0
171
     0
290
     0
174
     0
 93
        1
 44
50.0
173
     0
291
     1
 45
0.0
1001
ACAD
1000
AcDbSavedByObjectVersion
1070
     0
1000
AcDbSavedByObjectVersion
1070
     0
1000
AcDbSavedByObjectVersion
1070
     0
  0
VISUALSTYLE
  5
426
102
{ACAD_REACTORS
330
2A
102
}
330
2A
100
AcDbVisualStyle
  2
ColorChange
 70
    16
 71
     2
 72
     2
 73
     3
 90
        0
 40
-0.6
 41
-30.0
 62
     5
 63
     8
421
  8421504
 74
     1
 91
        4
 64
     7
 65
   257
 75
     1
175
     1
 42
1.0
 92
        8
 66
     8
424
  8421504
 43
1.0
 76
     1
 77
     6
 78
     2
 67
     7
 79
     5
170
     0
171
     0
290
     0
174
     0
 93
        1
 44
0.0
173
     0
291
     1
 45
0.0
1001
ACAD
1000
AcDbSavedByObjectVersion
1070
     0
1000
AcDbSavedByObjectVersion
1070
     0
1000
AcDbSavedByObjectVersion
1070
     0
  0
VISUALSTYLE
  5
420
102
{ACAD_REACTORS
330
2A
102
}
330
2A
100
AcDbVisualStyle
  2
Conceptual
 70
     9
 71
     3
 72
     2
 73
     0
 90
        0
 40
-0.6
 41
-30.0
 62
     5
 63
     7
421
 16777215
 74
     2
 91
        2
 64
     7
 65
   257
 75
     1
175
     1
 42
40.0
 92
        8
 66
     7
 43
1.0
 76
     1
 77
     6
 78
     2
 67
     7
 79
     3
170
     0
171
     0
290
     0
174
     0
 93
        1
 44
0.0
173
     0
291
     0
 45
0.0
1001
ACAD
1000
AcDbSavedByObjectVersion
1070
     0
1000
AcDbSavedByObjectVersion
1070
     0
1000
AcDbSavedByObjectVersion
1070
     0
  0
VISUALSTYLE
  5
421
102
{ACAD_REACTORS
330
2A
102
}
330
2A
100
AcDbVisualStyle
  2
Dim
 70
    11
 71
     2
 72
     2
 73
     0
 90
        0
 40
-0.6
 41
-30.0
 62
     5
 63
     7
421
 16777215
 74
     1
 91
        4
 64
     7
 65
   257
 75
     1
175
     1
 42
1.0
 92
        8
 66
     7
 43
1.0
 76
     1
 77
     6
 78
     2
 67
     7
 79
     5
170
     0
171
     0
290
     0
174
     0
 93
        1
 44
-50.0
173
     0
291
     1
 45
0.0
1001
ACAD
1000
AcDbSavedByObjectVersion
1070
     0
1000
AcDbSavedByObjectVersion
1070
     0
1000
AcDbSavedByObjectVersion
1070
     0
  0
VISUALSTYLE
  5
425
102
{ACAD_REACTORS
330
2A
102
}
330
2A
100
AcDbVisualStyle
  2
Facepattern
 70
    15
 71
     2
 72
     2
 73
     0
 90
        0
 40
-0.6
 41
-30.0
 62
     5
 63
     7
421
 16777215
 74
     1
 91
        4
 64
     7
 65
   257
 75
     1
175
     1
 42
1.0
 92
        8
 66
     7
 43
1.0
 76
     1
 77
     6
 78
     2
 67
     7
 79
     5
170
     0
171
     0
290
     0
174
     0
 93
        1
 44
0.0
173
     0
291
     1
 45
0.0
1001
ACAD
1000
AcDbSavedByObjectVersion
1070
     0
1000
AcDbSavedByObjectVersion
1070
     0
1000
AcDbSavedByObjectVersion
1070
     0
  0
VISUALSTYLE
  5
41A
102
{ACAD_REACTORS
330
2A
102
}
330
2A
100
AcDbVisualStyle
  2
Flat
 70
     0
 71
     2
 72
     1
 73
     1
 90
        2
 40
-0.6
 41
30.0
 62
     5
 63
     7
421
 16777215
 74
     0
 91
        4
 64
     7
 65
   257
 75
     1
175
     1
 42
1.0
 92
        8
 66
     7
 43
1.0
 76
     1
 77
     6
 78
     2
 67
     7
 79
     5
170
     0
171
     0
290
     0
174
     0
 93
       13
 44
0.0
173
     0
291
     1
 45
0.0
1001
ACAD
1000
AcDbSavedByObjectVersion
1070
     0
1000
AcDbSavedByObjectVersion
1070
     0
1000
AcDbSavedByObjectVersion
1070
     0
  0
VISUALSTYLE
  5
41B
102
{ACAD_REACTORS
330
2A
102
}
330
2A
100
AcDbVisualStyle
  2
FlatWithEdges
 70
     1
 71
     2
 72
     1
 73
     1
 90
        2
 40
-0.6
 41
30.0
 62
     5
 63
     7
421
 16777215
 74
     1
 91
        4
 64
     7
 65
   257
 75
     1
175
     1
 42
1.0
 92
        0
 66
   257
 43
1.0
 76
     1
 77
     6
 78
     2
 67
     7
 79
     5
170
     0
171
     0
290
     0
174
     0
 93
       13
 44
0.0
173
     0
291
     1
 45
0.0
1001
ACAD
1000
AcDbSavedByObjectVersion
1070
     0
1000
AcDbSavedByObjectVersion
1070
     0
1000
AcDbSavedByObjectVersion
1070
     0
  0
VISUALSTYLE
  5
41C
102
{ACAD_REACTORS
330
2A
102
}
330
2A
100
AcDbVisualStyle
  2
Gouraud
 70
     2
 71
     2
 72
     2
 73
     1
 90
        2
 40
-0.6
 41
30.0
 62
     5
 63
     7
421
 16777215
 74
     0
 91
        4
 64
     7
 65
   257
 75
     1
175
     1
 42
1.0
 92
        0
 66
     7
 43
1.0
 76
     1
 77
     6
 78
     2
 67
     7
 79
     5
170
     0
171
     0
290
     0
174
     0
 93
       13
 44
0.0
173
     0
291
     1
 45
0.0
1001
ACAD
1000
AcDbSavedByObjectVersion
1070
     0
1000
AcDbSavedByObjectVersion
1070
     0
1000
AcDbSavedByObjectVersion
1070
     0
  0
VISUALSTYLE
  5
41D
102
{ACAD_REACTORS
330
2A
102
}
330
2A
100
AcDbVisualStyle
  2
GouraudWithEdges
 70
     3
 71
     2
 72
     2
 73
     1
 90
        2
 40
-0.6
 41
30.0
 62
     5
 63
     7
421
 16777215
 74
     1
 91
        4
 64
     7
 65
   257
 75
     1
175
     1
 42
1.0
 92
        0
 66
   257
 43
1.0
 76
     1
 77
     6
 78
     2
 67
     7
 79
     5
170
     0
171
     0
290
     0
174
     0
 93
       13
 44
0.0
173
     0
291
     1
 45
0.0
1001
ACAD
1000
AcDbSavedByObjectVersion
1070
     0
1000
AcDbSavedByObjectVersion
1070
     0
1000
AcDbSavedByObjectVersion
1070
     0
  0
VISUALSTYLE
  5
424
102
{ACAD_REACTORS
330
2A
102
}
330
2A
100
AcDbVisualStyle
  2
Linepattern
 70
    14
 71
     2
 72
     2
 73
     0
 90
        0
 40
-0.6
 41
-30.0
 62
     5
 63
     7
421
 16777215
 74
     1
 91
        4
 64
     7
 65
   257
 75
     7
175
     7
 42
1.0
 92
        8
 66
     7
 43
1.0
 76
     1
 77
     6
 78
     2
 67
     7
 79
     5
170
     0
171
     0
290
     0
174
     0
 93
        1
 44
0.0
173
     0
291
     1
 45
0.0
1001
ACAD
1000
AcDbSavedByObjectVersion
1070
     0
1000
AcDbSavedByObjectVersion
1070
     0
1000
AcDbSavedByObjectVersion
1070
     0
  0
VISUALSTYLE
  5
51
102
{ACAD_REACTORS
330
2A
102
}
330
2A
100
AcDbVisualStyle
  2
Realistic
 70
     8
 71
     2
 72
     2
 73
     0
 90
        0
 40
-0.6
 41
-30.0
 62
     5
 63
     7
 74
     1
 91
        0
 64
     7
 65
   257
 75
     1
175
     1
 42
1.0
 92
        8
 66
     8
 43
1.0
 76
     1
 77
     6
 78
     2
 67
     7
 79
     5
170
     0
171
     0
290
     0
174
     0
 93
       13
 44
0.0
173
     0
291
     0
 45
0.0
1001
ACAD
1000
AcDbSavedByObjectVersion
1070
     0
1000
AcDbSavedByObjectVersion
1070
     0
1000
AcDbSavedByObjectVersion
1070
     0
  0
VISUALSTYLE
  5
423
102
{ACAD_REACTORS
330
2A
102
}
330
2A
100
AcDbVisualStyle
  2
Thicken
 70
    13
 71
     2
 72
     2
 73
     0
 90
        0
 40
-0.6
 41
-30.0
 62
     5
 63
     7
421
 16777215
 74
     1
 91
        4
 64
     7
 65
   257
 75
     1
175
     1
 42
1.0
 92
       12
 66
     7
 43
1.0
 76
     1
 77
     6
 78
     2
 67
     7
 79
     5
170
     0
171
     0
290
     0
174
     0
 93
        1
 44
0.0
173
     0
291
     1
 45
0.0
1001
ACAD
1000
AcDbSavedByObjectVersion
1070
     0
1000
AcDbSavedByObjectVersion
1070
     0
1000
AcDbSavedByObjectVersion
1070
     0
  0
DICTIONARYVAR
  5
3FA
102
{ACAD_REACTORS
330
3F7
102
}
330
3F7
100
DictionaryVariables
280
     0
  1
1:1
  0
DICTIONARYVAR
  5
3F9
102
{ACAD_REACTORS
330
3F7
102
}
330
3F7
100
DictionaryVariables
280
     0
  1
STANDARD
  0
DICTIONARYVAR
  5
3F8
102
{ACAD_REACTORS
330
3F7
102
}
330
3F7
100
DictionaryVariables
280
     0
  1
STANDARD
  0
DICTIONARYVAR
  5
3FB
102
{ACAD_REACTORS
330
3F7
102
}
330
3F7
100
DictionaryVariables
280
     0
  1
0
  0
DICTIONARYVAR
  5
5B8
102
{ACAD_REACTORS
330
3F7
102
}
330
3F7
100
DictionaryVariables
280
     0
  1
1.570796
  0
DICTIONARYVAR
  5
5B9
102
{ACAD_REACTORS
330
3F7
102
}
330
3F7
100
DictionaryVariables
280
     0
  1
1.570796
  0
DICTIONARYVAR
  5
436
102
{ACAD_REACTORS
330
3F7
102
}
330
3F7
100
DictionaryVariables
280
     0
  1
1
  0
DICTIONARY
  5
41
330
40
100
AcDbDictionary
280
     1
281
     1
  3
ACAD_XREC_ROUNDTRIP
360
42
  3
BUMPTILE
360
43
  3
DIFFUSETILE
360
44
  3
OPACITYTILE
360
45
  3
REFLECTIONTILE
360
46
  3
REFRACTIONTILE
360
47
  3
SPECULARTILE
360
48
  0
DICTIONARY
  5
38
330
37
100
AcDbDictionary
280
     1
281
     1
  3
ACAD_XREC_ROUNDTRIP
360
39
  3
BUMPTILE
360
3A
  3
DIFFUSETILE
360
3B
  3
OPACITYTILE
360
3C
  3
REFLECTIONTILE
360
3D
  3
REFRACTIONTILE
360
3E
  3
SPECULARTILE
360
3F
  0
DICTIONARY
  5
E
330
C
100
AcDbDictionary
280
     1
281
     1
  3
ACAD_XREC_ROUNDTRIP
360
F
  0
DICTIONARY
  5
50
330
4F
100
AcDbDictionary
280
     1
281
     1
  3
ACAD_ROUNDTRIP_2008_TABLESTYLE_CELLSTYLEMAP
360
644
  3
ACAD_XREC_ROUNDTRIP
360
65F
  0
XRECORD
  5
42
102
{ACAD_REACTORS
330
41
102
}
330
41
100
AcDbXrecord
280
     1
102
MATERIAL
148
0.0
149
0.0
149
0.0
 93
        0
 94
      127
282
     0
 72
     0
 77
     0
171
     0
175
     0
179
     0
273
     0
  0
XRECORD
  5
43
102
{ACAD_REACTORS
330
41
102
}
330
41
100
AcDbXrecord
280
     1
270
     1
271
     1
  0
XRECORD
  5
44
102
{ACAD_REACTORS
330
41
102
}
330
41
100
AcDbXrecord
280
     1
270
     1
271
     1
  0
XRECORD
  5
45
102
{ACAD_REACTORS
330
41
102
}
330
41
100
AcDbXrecord
280
     1
270
     1
271
     1
  0
XRECORD
  5
46
102
{ACAD_REACTORS
330
41
102
}
330
41
100
AcDbXrecord
280
     1
270
     1
271
     1
  0
XRECORD
  5
47
102
{ACAD_REACTORS
330
41
102
}
330
41
100
AcDbXrecord
280
     1
270
     1
271
     1
  0
XRECORD
  5
48
102
{ACAD_REACTORS
330
41
102
}
330
41
100
AcDbXrecord
280
     1
270
     1
271
     1
  0
XRECORD
  5
39
102
{ACAD_REACTORS
330
38
102
}
330
38
100
AcDbXrecord
280
     1
102
MATERIAL
148
0.0
149
0.0
149
0.0
 93
        0
 94
      127
282
     0
 72
     0
 77
     0
171
     0
175
     0
179
     0
273
     0
  0
XRECORD
  5
3A
102
{ACAD_REACTORS
330
38
102
}
330
38
100
AcDbXrecord
280
     1
270
     1
271
     1
  0
XRECORD
  5
3B
102
{ACAD_REACTORS
330
38
102
}
330
38
100
AcDbXrecord
280
     1
270
     1
271
     1
  0
XRECORD
  5
3C
102
{ACAD_REACTORS
330
38
102
}
330
38
100
AcDbXrecord
280
     1
270
     1
271
     1
  0
XRECORD
  5
3D
102
{ACAD_REACTORS
330
38
102
}
330
38
100
AcDbXrecord
280
     1
270
     1
271
     1
  0
XRECORD
  5
3E
102
{ACAD_REACTORS
330
38
102
}
330
38
100
AcDbXrecord
280
     1
270
     1
271
     1
  0
XRECORD
  5
3F
102
{ACAD_REACTORS
330
38
102
}
330
38
100
AcDbXrecord
280
     1
270
     1
271
     1
  0
XRECORD
  5
F
102
{ACAD_REACTORS
330
E
102
}
330
E
100
AcDbXrecord
280
     1
102
MATERIAL
148
0.0
149
0.0
149
0.0
 93
        0
 94
      127
282
     0
 72
     1
 77
     1
171
     1
175
     1
179
     1
273
     0
  0
CELLSTYLEMAP
  5
644
102
{ACAD_REACTORS
330
50
102
}
330
50
100
AcDbCellStyleMap
 90
        3
300
CELLSTYLE
  1
TABLEFORMAT_BEGIN
 90
        5
170
     1
 91
        0
 92
    32768
 62
   257
 93
        1
300
CONTENTFORMAT
  1
CONTENTFORMAT_BEGIN
 90
        0
 91
        0
 92
      512
 93
        0
300

 40
0.0
140
1.0
 94
        5
 62
     0
340
20
144
6.0
309
CONTENTFORMAT_END
171
     1
301
MARGIN
  1
CELLMARGIN_BEGIN
 40
1.5
 40
1.5
 40
1.5
 40
1.5
 40
0.18
 40
0.18
309
CELLMARGIN_END
 94
        6
 95
        1
302
GRIDFORMAT
  1
GRIDFORMAT_BEGIN
 90
        0
 91
        1
 62
     0
 92
       -2
340
0
 93
        0
 40
1.125
309
GRIDFORMAT_END
 95
        2
302
GRIDFORMAT
  1
GRIDFORMAT_BEGIN
 90
        0
 91
        1
 62
     0
 92
       -2
340
0
 93
        0
 40
1.125
309
GRIDFORMAT_END
 95
        4
302
GRIDFORMAT
  1
GRIDFORMAT_BEGIN
 90
        0
 91
        1
 62
     0
 92
       -2
340
0
 93
        0
 40
1.125
309
GRIDFORMAT_END
 95
        8
302
GRIDFORMAT
  1
GRIDFORMAT_BEGIN
 90
        0
 91
        1
 62
     0
 92
       -2
340
0
 93
        0
 40
1.125
309
GRIDFORMAT_END
 95
       16
302
GRIDFORMAT
  1
GRIDFORMAT_BEGIN
 90
        0
 91
        1
 62
     0
 92
       -2
340
0
 93
        0
 40
1.125
309
GRIDFORMAT_END
 95
       32
302
GRIDFORMAT
  1
GRIDFORMAT_BEGIN
 90
        0
 91
        1
 62
     0
 92
       -2
340
0
 93
        0
 40
1.125
309
GRIDFORMAT_END
309
TABLEFORMAT_END
  1
CELLSTYLE_BEGIN
 90
        1
 91
        1
300
_TITLE
309
CELLSTYLE_END
300
CELLSTYLE
  1
TABLEFORMAT_BEGIN
 90
        5
170
     1
 91
        0
 92
        0
 62
   257
 93
        1
300
CONTENTFORMAT
  1
CONTENTFORMAT_BEGIN
 90
        0
 91
        0
 92
      512
 93
        0
300

 40
0.0
140
1.0
 94
        5
 62
     0
340
20
144
4.5
309
CONTENTFORMAT_END
171
     1
301
MARGIN
  1
CELLMARGIN_BEGIN
 40
1.5
 40
1.5
 40
1.5
 40
1.5
 40
0.18
 40
0.18
309
CELLMARGIN_END
 94
        6
 95
        1
302
GRIDFORMAT
  1
GRIDFORMAT_BEGIN
 90
        0
 91
        1
 62
     0
 92
       -2
340
0
 93
        0
 40
1.125
309
GRIDFORMAT_END
 95
        2
302
GRIDFORMAT
  1
GRIDFORMAT_BEGIN
 90
        0
 91
        1
 62
     0
 92
       -2
340
0
 93
        0
 40
1.125
309
GRIDFORMAT_END
 95
        4
302
GRIDFORMAT
  1
GRIDFORMAT_BEGIN
 90
        0
 91
        1
 62
     0
 92
       -2
340
0
 93
        0
 40
1.125
309
GRIDFORMAT_END
 95
        8
302
GRIDFORMAT
  1
GRIDFORMAT_BEGIN
 90
        0
 91
        1
 62
     0
 92
       -2
340
0
 93
        0
 40
1.125
309
GRIDFORMAT_END
 95
       16
302
GRIDFORMAT
  1
GRIDFORMAT_BEGIN
 90
        0
 91
        1
 62
     0
 92
       -2
340
0
 93
        0
 40
1.125
309
GRIDFORMAT_END
 95
       32
302
GRIDFORMAT
  1
GRIDFORMAT_BEGIN
 90
        0
 91
        1
 62
     0
 92
       -2
340
0
 93
        0
 40
1.125
309
GRIDFORMAT_END
309
TABLEFORMAT_END
  1
CELLSTYLE_BEGIN
 90
        2
 91
        1
300
_HEADER
309
CELLSTYLE_END
300
CELLSTYLE
  1
TABLEFORMAT_BEGIN
 90
        5
170
     1
 91
        0
 92
        0
 62
   257
 93
        1
300
CONTENTFORMAT
  1
CONTENTFORMAT_BEGIN
 90
        0
 91
        0
 92
      512
 93
        0
300

 40
0.0
140
1.0
 94
        2
 62
     0
340
20
144
4.5
309
CONTENTFORMAT_END
171
     1
301
MARGIN
  1
CELLMARGIN_BEGIN
 40
1.5
 40
1.5
 40
1.5
 40
1.5
 40
0.18
 40
0.18
309
CELLMARGIN_END
 94
        6
 95
        1
302
GRIDFORMAT
  1
GRIDFORMAT_BEGIN
 90
        0
 91
        1
 62
     0
 92
       -2
340
0
 93
        0
 40
1.125
309
GRIDFORMAT_END
 95
        2
302
GRIDFORMAT
  1
GRIDFORMAT_BEGIN
 90
        0
 91
        1
 62
     0
 92
       -2
340
0
 93
        0
 40
1.125
309
GRIDFORMAT_END
 95
        4
302
GRIDFORMAT
  1
GRIDFORMAT_BEGIN
 90
        0
 91
        1
 62
     0
 92
       -2
340
0
 93
        0
 40
1.125
309
GRIDFORMAT_END
 95
        8
302
GRIDFORMAT
  1
GRIDFORMAT_BEGIN
 90
        0
 91
        1
 62
     0
 92
       -2
340
0
 93
        0
 40
1.125
309
GRIDFORMAT_END
 95
       16
302
GRIDFORMAT
  1
GRIDFORMAT_BEGIN
 90
        0
 91
        1
 62
     0
 92
       -2
340
0
 93
        0
 40
1.125
309
GRIDFORMAT_END
 95
       32
302
GRIDFORMAT
  1
GRIDFORMAT_BEGIN
 90
        0
 91
        1
 62
     0
 92
       -2
340
0
 93
        0
 40
1.125
309
GRIDFORMAT_END
309
TABLEFORMAT_END
  1
CELLSTYLE_BEGIN
 90
        3
 91
        2
300
_DATA
309
CELLSTYLE_END
  0
XRECORD
  5
65F
102
{ACAD_REACTORS
330
50
102
}
330
50
100
AcDbXrecord
280
     1
102
ACAD_ROUNDTRIP_PRE2007_TABLESTYLE
 90
      512
 91
        0
  1

 92
      512
 93
        0
  2

 94
      512
 95
        0
  3

  0
ENDSEC
  0
EOF
