  0
SECTION
  2
HEADER
  9
$ACADVER
  1
AC1021
  9
$ACADMAINTVER
 70
    25
  9
$DWGCODEPAGE
  3
ANSI_936
  9
$LASTSAVEDBY
  1
14609
  9
$INSBASE
 10
0.0
 20
0.0
 30
0.0
  9
$EXTMIN
 10
531.0145825243231
 20
184.1768297936648
 30
0.0
  9
$EXTMAX
 10
679.5139576665757
 20
289.1768299845588
 30
0.0
  9
$LIMMIN
 10
0.0
 20
0.0
  9
$LIMMAX
 10
12.0
 20
9.0
  9
$ORTHOMODE
 70
     1
  9
$REGENMODE
 70
     1
  9
$FILLMODE
 70
     1
  9
$QTEXTMODE
 70
     0
  9
$MIRRTEXT
 70
     1
  9
$LTSCALE
 40
1.0
  9
$ATTMODE
 70
     1
  9
$TEXTSIZE
 40
0.2
  9
$TRACEWID
 40
0.05
  9
$TEXTSTYLE
  7
Standard
  9
$CLAYER
  8
DIM
  9
$CELTYPE
  6
ByLayer
  9
$CECOLOR
 62
   256
  9
$CELTSCALE
 40
1.0
  9
$DISPSILH
 70
     0
  9
$DIMSCALE
 40
1.0
  9
$DIMASZ
 40
1.5
  9
$DIMEXO
 40
0.2
  9
$DIMDLI
 40
0.2
  9
$DIMRND
 40
0.0
  9
$DIMDLE
 40
0.0
  9
$DIMEXE
 40
0.5
  9
$DIMTP
 40
0.0
  9
$DIMTM
 40
0.0
  9
$DIMTXT
 40
2.0
  9
$DIMCEN
 40
0.0
  9
$DIMTSZ
 40
0.0
  9
$DIMTOL
 70
     0
  9
$DIMLIM
 70
     0
  9
$DIMTIH
 70
     0
  9
$DIMTOH
 70
     0
  9
$DIMSE1
 70
     0
  9
$DIMSE2
 70
     0
  9
$DIMTAD
 70
     1
  9
$DIMZIN
 70
     8
  9
$DIMBLK
  1

  9
$DIMASO
 70
     1
  9
$DIMSHO
 70
     1
  9
$DIMPOST
  1

  9
$DIMAPOST
  1

  9
$DIMALT
 70
     0
  9
$DIMALTD
 70
     2
  9
$DIMALTF
 40
25.4
  9
$DIMLFAC
 40
1.0
  9
$DIMTOFL
 70
     0
  9
$DIMTVP
 40
0.0
  9
$DIMTIX
 70
     0
  9
$DIMSOXD
 70
     0
  9
$DIMSAH
 70
     0
  9
$DIMBLK1
  1

  9
$DIMBLK2
  1

  9
$DIMSTYLE
  2
01
  9
$DIMCLRD
 70
     1
  9
$DIMCLRE
 70
     6
  9
$DIMCLRT
 70
     4
  9
$DIMTFAC
 40
1.0
  9
$DIMGAP
 40
0.3
  9
$DIMJUST
 70
     0
  9
$DIMSD1
 70
     0
  9
$DIMSD2
 70
     0
  9
$DIMTOLJ
 70
     1
  9
$DIMTZIN
 70
     0
  9
$DIMALTZ
 70
     0
  9
$DIMALTTZ
 70
     0
  9
$DIMUPT
 70
     0
  9
$DIMDEC
 70
     1
  9
$DIMTDEC
 70
     1
  9
$DIMALTU
 70
     2
  9
$DIMALTTD
 70
     2
  9
$DIMTXSTY
  7
Romans字体
  9
$DIMAUNIT
 70
     0
  9
$DIMADEC
 70
     2
  9
$DIMALTRND
 40
0.0
  9
$DIMAZIN
 70
     2
  9
$DIMDSEP
 70
    46
  9
$DIMATFIT
 70
     3
  9
$DIMFRAC
 70
     0
  9
$DIMLDRBLK
  1

  9
$DIMLUNIT
 70
     2
  9
$DIMLWD
 70
    -2
  9
$DIMLWE
 70
    -2
  9
$DIMTMOVE
 70
     0
  9
$DIMFXL
 40
1.0
  9
$DIMFXLON
 70
     0
  9
$DIMJOGANG
 40
0.7853981633974483
  9
$DIMTFILL
 70
     0
  9
$DIMTFILLCLR
 70
     0
  9
$DIMARCSYM
 70
     0
  9
$DIMLTYPE
  6

  9
$DIMLTEX1
  6

  9
$DIMLTEX2
  6

  9
$LUNITS
 70
     2
  9
$LUPREC
 70
     4
  9
$SKETCHINC
 40
0.1
  9
$FILLETRAD
 40
0.5
  9
$AUNITS
 70
     0
  9
$AUPREC
 70
     0
  9
$MENU
  1
.
  9
$ELEVATION
 40
0.0
  9
$PELEVATION
 40
0.0
  9
$THICKNESS
 40
0.0
  9
$LIMCHECK
 70
     0
  9
$CHAMFERA
 40
0.5
  9
$CHAMFERB
 40
0.5
  9
$CHAMFERC
 40
1.0
  9
$CHAMFERD
 40
0.0
  9
$SKPOLY
 70
     0
  9
$TDCREATE
 40
2456524.383632987
  9
$TDUCREATE
 40
2456524.050299653
  9
$TDUPDATE
 40
2460346.537645278
  9
$TDUUPDATE
 40
2460346.204311945
  9
$TDINDWG
 40
1.3223544213
  9
$TDUSRTIMER
 40
1.3223325810
  9
$USRTIMER
 70
     1
  9
$ANGBASE
 50
0.0
  9
$ANGDIR
 70
     0
  9
$PDMODE
 70
     0
  9
$PDSIZE
 40
0.0
  9
$PLINEWID
 40
0.0
  9
$SPLFRAME
 70
     0
  9
$SPLINETYPE
 70
     6
  9
$SPLINESEGS
 70
     8
  9
$HANDSEED
  5
17C98
  9
$SURFTAB1
 70
     6
  9
$SURFTAB2
 70
     6
  9
$SURFTYPE
 70
     6
  9
$SURFU
 70
     6
  9
$SURFV
 70
     6
  9
$UCSBASE
  2

  9
$UCSNAME
  2

  9
$UCSORG
 10
0.0
 20
0.0
 30
0.0
  9
$UCSXDIR
 10
1.0
 20
0.0
 30
0.0
  9
$UCSYDIR
 10
0.0
 20
1.0
 30
0.0
  9
$UCSORTHOREF
  2

  9
$UCSORTHOVIEW
 70
     0
  9
$UCSORGTOP
 10
0.0
 20
0.0
 30
0.0
  9
$UCSORGBOTTOM
 10
0.0
 20
0.0
 30
0.0
  9
$UCSORGLEFT
 10
0.0
 20
0.0
 30
0.0
  9
$UCSORGRIGHT
 10
0.0
 20
0.0
 30
0.0
  9
$UCSORGFRONT
 10
0.0
 20
0.0
 30
0.0
  9
$UCSORGBACK
 10
0.0
 20
0.0
 30
0.0
  9
$PUCSBASE
  2

  9
$PUCSNAME
  2

  9
$PUCSORG
 10
0.0
 20
0.0
 30
0.0
  9
$PUCSXDIR
 10
1.0
 20
0.0
 30
0.0
  9
$PUCSYDIR
 10
0.0
 20
1.0
 30
0.0
  9
$PUCSORTHOREF
  2

  9
$PUCSORTHOVIEW
 70
     0
  9
$PUCSORGTOP
 10
0.0
 20
0.0
 30
0.0
  9
$PUCSORGBOTTOM
 10
0.0
 20
0.0
 30
0.0
  9
$PUCSORGLEFT
 10
0.0
 20
0.0
 30
0.0
  9
$PUCSORGRIGHT
 10
0.0
 20
0.0
 30
0.0
  9
$PUCSORGFRONT
 10
0.0
 20
0.0
 30
0.0
  9
$PUCSORGBACK
 10
0.0
 20
0.0
 30
0.0
  9
$USERI1
 70
     0
  9
$USERI2
 70
     0
  9
$USERI3
 70
     0
  9
$USERI4
 70
     0
  9
$USERI5
 70
     0
  9
$USERR1
 40
0.0
  9
$USERR2
 40
0.0
  9
$USERR3
 40
0.0
  9
$USERR4
 40
0.0
  9
$USERR5
 40
0.0
  9
$WORLDVIEW
 70
     1
  9
$SHADEDGE
 70
     3
  9
$SHADEDIF
 70
    70
  9
$TILEMODE
 70
     1
  9
$MAXACTVP
 70
    64
  9
$PINSBASE
 10
0.0
 20
0.0
 30
0.0
  9
$PLIMCHECK
 70
     0
  9
$PEXTMIN
 10
1.000000000000000E+20
 20
1.000000000000000E+20
 30
1.000000000000000E+20
  9
$PEXTMAX
 10
-1.000000000000000E+20
 20
-1.000000000000000E+20
 30
-1.000000000000000E+20
  9
$PLIMMIN
 10
0.0
 20
0.0
  9
$PLIMMAX
 10
12.0
 20
9.0
  9
$UNITMODE
 70
     0
  9
$VISRETAIN
 70
     1
  9
$PLINEGEN
 70
     0
  9
$PSLTSCALE
 70
     1
  9
$TREEDEPTH
 70
  3020
  9
$CMLSTYLE
  2
Standard
  9
$CMLJUST
 70
     0
  9
$CMLSCALE
 40
1.0
  9
$PROXYGRAPHICS
 70
     1
  9
$MEASUREMENT
 70
     0
  9
$CELWEIGHT
370
    -1
  9
$ENDCAPS
280
     0
  9
$JOINSTYLE
280
     0
  9
$LWDISPLAY
290
     0
  9
$INSUNITS
 70
     4
  9
$HYPERLINKBASE
  1

  9
$STYLESHEET
  1
MONOCHROME.CTB
  9
$XEDIT
290
     1
  9
$CEPSNTYPE
380
     0
  9
$PSTYLEMODE
290
     1
  9
$FINGERPRINTGUID
  2
{4A02065B-8BB3-4A96-9036-502DC906C165}
  9
$VERSIONGUID
  2
{B36574B2-1FB5-4F0B-94ED-0377DFF9B1BC}
  9
$EXTNAMES
290
     1
  9
$PSVPSCALE
 40
0.0
  9
$OLESTARTUP
290
     0
  9
$SORTENTS
280
   127
  9
$INDEXCTL
280
     0
  9
$HIDETEXT
280
     0
  9
$XCLIPFRAME
290
     0
  9
$HALOGAP
280
     0
  9
$OBSCOLOR
 70
   257
  9
$OBSLTYPE
280
     0
  9
$INTERSECTIONDISPLAY
280
     0
  9
$INTERSECTIONCOLOR
 70
   257
  9
$DIMASSOC
280
     1
  9
$PROJECTNAME
  1

  9
$CAMERADISPLAY
290
     0
  9
$LENSLENGTH
 40
50.0
  9
$CAMERAHEIGHT
 40
0.0
  9
$STEPSPERSEC
 40
2.0
  9
$STEPSIZE
 40
6.0
  9
$3DDWFPREC
 40
2.0
  9
$PSOLWIDTH
 40
0.25
  9
$PSOLHEIGHT
 40
4.0
  9
$LOFTANG1
 40
1.570796326794896
  9
$LOFTANG2
 40
1.570796326794896
  9
$LOFTMAG1
 40
0.0
  9
$LOFTMAG2
 40
0.0
  9
$LOFTPARAM
 70
     7
  9
$LOFTNORMALS
280
     1
  9
$LATITUDE
 40
37.795
  9
$LONGITUDE
 40
-122.394
  9
$NORTHDIRECTION
 40
0.0
  9
$TIMEZONE
 70
 -8000
  9
$LIGHTGLYPHDISPLAY
280
     1
  9
$TILEMODELIGHTSYNCH
280
     1
  9
$CMATERIAL
347
4FE6
  9
$SOLIDHIST
280
     1
  9
$SHOWHIST
280
     1
  9
$DWFFRAME
280
     2
  9
$DGNFRAME
280
     0
  9
$REALWORLDSCALE
290
     1
  9
$INTERFERECOLOR
 62
     1
  9
$INTERFEREOBJVS
345
33
  9
$INTERFEREVPVS
346
30
  9
$CSHADOW
280
     0
  9
$SHADOWPLANELOCATION
 40
0.0
  0
ENDSEC
  0
SECTION
  2
CLASSES
  0
CLASS
  1
ACDBDICTIONARYWDFLT
  2
AcDbDictionaryWithDefault
  3
ObjectDBX Classes
 90
        0
 91
        1
280
     0
281
     0
  0
CLASS
  1
VISUALSTYLE
  2
AcDbVisualStyle
  3
ObjectDBX Classes
 90
     4095
 91
       16
280
     0
281
     0
  0
CLASS
  1
MATERIAL
  2
AcDbMaterial
  3
ObjectDBX Classes
 90
     1153
 91
        3
280
     0
281
     0
  0
CLASS
  1
TABLESTYLE
  2
AcDbTableStyle
  3
ObjectDBX Classes
 90
     4095
 91
        1
280
     0
281
     0
  0
CLASS
  1
SCALE
  2
AcDbScale
  3
ObjectDBX Classes
 90
     1153
 91
       33
280
     0
281
     0
  0
CLASS
  1
MLEADERSTYLE
  2
AcDbMLeaderStyle
  3
ACDB_MLEADERSTYLE_CLASS
 90
     4095
 91
        1
280
     0
281
     0
  0
CLASS
  1
CELLSTYLEMAP
  2
AcDbCellStyleMap
  3
ObjectDBX Classes
 90
     1152
 91
        2
280
     0
281
     0
  0
CLASS
  1
DICTIONARYVAR
  2
AcDbDictionaryVar
  3
ObjectDBX Classes
 90
        0
 91
        8
280
     0
281
     0
  0
CLASS
  1
SORTENTSTABLE
  2
AcDbSortentsTable
  3
ObjectDBX Classes
 90
        0
 91
        1
280
     0
281
     0
  0
CLASS
  1
ACAD_EVALUATION_GRAPH
  2
AcDbEvalGraph
  3
ObjectDBX Classes
 90
     1153
 91
        0
280
     0
281
     0
  0
CLASS
  1
ACAECUSTOBJ
  2
AcAeEditorObj
  3
AcAeEditorObj
 90
     1024
 91
        0
280
     0
281
     0
  0
CLASS
  1
ACDB_DYNAMICBLOCKPURGEPREVENTER_VERSION
  2
AcDbDynamicBlockPurgePreventer
  3
ObjectDBX Classes
 90
     1153
 91
        0
280
     0
281
     0
  0
CLASS
  1
MENTALRAYRENDERSETTINGS
  2
AcDbMentalRayRenderSettings
  3
SCENEOE
 90
     1024
 91
        1
280
     0
281
     0
  0
CLASS
  1
ACDB_BLOCKREPRESENTATION_DATA
  2
AcDbBlockRepresentationData
  3
ObjectDBX Classes
 90
     1153
 91
        0
280
     0
281
     0
  0
CLASS
  1
DIMASSOC
  2
AcDbDimAssoc
  3
"AcDbDimAssoc|Product Desc:     AcDim ARX App For Dimension|Company:          Autodesk, Inc.|WEB Address:      www.autodesk.com"
 90
        0
 91
        4
280
     0
281
     0
  0
ENDSEC
  0
SECTION
  2
TABLES
  0
TABLE
  2
VPORT
  5
8
102
{ACAD_XDICTIONARY
360
50EE
102
}
330
0
100
AcDbSymbolTable
 70
     1
  0
VPORT
  5
29
330
8
100
AcDbSymbolTableRecord
100
AcDbViewportTableRecord
  2
*Active
 70
     0
 10
0.0
 20
0.0
 11
1.0
 21
1.0
 12
521.6242599932169
 22
81.52468051809108
 13
0.0
 23
0.0
 14
0.5
 24
0.5
 15
0.5
 25
0.5
 16
0.0
 26
0.0
 36
1.0
 17
104.9654968719086
 27
148.5022307685978
 37
0.0
 40
104.1687549445559
 41
1.967136150234741
 42
50.0
 43
0.0
 44
0.0
 50
0.0
 51
0.0
 71
     0
 72
   100
 73
     1
 74
     3
 75
     0
 76
     0
 77
     0
 78
     0
281
     0
 65
     1
110
0.0
120
0.0
130
0.0
111
1.0
121
0.0
131
0.0
112
0.0
122
1.0
132
0.0
 79
     0
146
0.0
348
2F
 60
     3
 61
     5
292
     1
282
     1
141
0.0
142
0.0
 63
   250
421
  3355443
  0
ENDTAB
  0
TABLE
  2
LTYPE
  5
5
330
0
100
AcDbSymbolTable
 70
     3
  0
LTYPE
  5
14
330
5
100
AcDbSymbolTableRecord
100
AcDbLinetypeTableRecord
  2
ByBlock
 70
     0
  3

 72
    65
 73
     0
 40
0.0
  0
LTYPE
  5
15
330
5
100
AcDbSymbolTableRecord
100
AcDbLinetypeTableRecord
  2
ByLayer
 70
     0
  3

 72
    65
 73
     0
 40
0.0
  0
LTYPE
  5
16
330
5
100
AcDbSymbolTableRecord
100
AcDbLinetypeTableRecord
  2
Continuous
 70
     0
  3
Solid line
 72
    65
 73
     0
 40
0.0
  0
LTYPE
  5
67BA
330
5
100
AcDbSymbolTableRecord
100
AcDbLinetypeTableRecord
  2
CENTER
 70
     0
  3
Center ____ _ ____ _ ____ _ ____ _ ____ _ ____
 72
    65
 73
     4
 40
2.0
 49
1.25
 74
     0
 49
-0.25
 74
     0
 49
0.25
 74
     0
 49
-0.25
 74
     0
  0
LTYPE
  5
16179
330
5
100
AcDbSymbolTableRecord
100
AcDbLinetypeTableRecord
  2
CENTERX2
 70
     0
  3
Center (2x) ________  __  ________  __  _____
 72
    65
 73
     4
 40
4.0
 49
2.5
 74
     0
 49
-0.5
 74
     0
 49
0.5
 74
     0
 49
-0.5
 74
     0
  0
ENDTAB
  0
TABLE
  2
LAYER
  5
2
102
{ACAD_XDICTIONARY
360
50B8
102
}
330
0
100
AcDbSymbolTable
 70
     8
  0
LAYER
  5
10
102
{ACAD_XDICTIONARY
360
50D0
102
}
330
2
100
AcDbSymbolTableRecord
100
AcDbLayerTableRecord
  2
0
 70
     0
 62
     7
  6
Continuous
370
    30
390
F
347
4FF6
  0
LAYER
  5
3B
102
{ACAD_XDICTIONARY
360
50D2
102
}
330
2
100
AcDbSymbolTableRecord
100
AcDbLayerTableRecord
  2
图层 1
 70
     0
 62
     7
  6
Continuous
370
    -3
390
F
347
4FF6
  0
LAYER
  5
50AE
102
{ACAD_XDICTIONARY
360
50AF
102
}
330
2
100
AcDbSymbolTableRecord
100
AcDbLayerTableRecord
  2
图框
 70
     0
 62
     7
  6
Continuous
370
    20
390
F
347
4FF6
  0
LAYER
  5
5141
330
2
100
AcDbSymbolTableRecord
100
AcDbLayerTableRecord
  2
Defpoints
 70
     0
 62
     7
  6
Continuous
290
     0
370
    -3
390
F
347
4FF6
  0
LAYER
  5
5144
330
2
100
AcDbSymbolTableRecord
100
AcDbLayerTableRecord
  2
DIM
 70
     0
 62
     3
  6
Continuous
370
    15
390
F
347
4FF6
1001
AcAecLayerStandard
1000

1000

  0
LAYER
  5
52F3
330
2
100
AcDbSymbolTableRecord
100
AcDbLayerTableRecord
  2
打标文字
 70
     0
 62
     3
  6
Continuous
370
    20
390
F
347
4FF6
  0
LAYER
  5
67B7
330
2
100
AcDbSymbolTableRecord
100
AcDbLayerTableRecord
  2
CEN
 70
     0
 62
     1
  6
CENTER
370
    15
390
F
347
4FF6
1001
AcAecLayerStandard
1000

1000

  0
LAYER
  5
11B6B
330
2
100
AcDbSymbolTableRecord
100
AcDbLayerTableRecord
  2
hat
 70
     0
 62
     6
  6
Continuous
370
    15
390
F
347
4FF6
1001
AcAecLayerStandard
1000

1000

  0
ENDTAB
  0
TABLE
  2
STYLE
  5
3
330
0
100
AcDbSymbolTable
 70
     4
  0
STYLE
  5
11
330
3
100
AcDbSymbolTableRecord
100
AcDbTextStyleTableRecord
  2
Standard
 70
     0
 40
0.0
 41
0.75
 50
0.0
 71
     0
 42
0.2
  3

  4

1001
ACAD
1000
仿宋_GB2312
1071
    34353
  0
STYLE
  5
FD48
330
3
100
AcDbSymbolTableRecord
100
AcDbTextStyleTableRecord
  2
Romans字体
 70
     0
 40
0.0
 41
0.75
 50
0.0
 71
     0
 42
0.2
  3
romans.shx
  4

  0
STYLE
  5
11080
330
3
100
AcDbSymbolTableRecord
100
AcDbTextStyleTableRecord
  2
工程字
 70
     0
 40
0.0
 41
1.0
 50
0.0
 71
     0
 42
3.5
  3
gbenor.shx
  4
gbcbig.shx
  0
STYLE
  5
11081
330
3
100
AcDbSymbolTableRecord
100
AcDbTextStyleTableRecord
  2
Chinese
 70
     0
 40
0.0
 41
1.0
 50
0.0
 71
     0
 42
2.5
  3

  4

1001
ACAD
1000
PMingLiU
1071
    34834
  0
ENDTAB
  0
TABLE
  2
VIEW
  5
6
330
0
100
AcDbSymbolTable
 70
     0
  0
ENDTAB
  0
TABLE
  2
UCS
  5
7
330
0
100
AcDbSymbolTable
 70
     0
  0
ENDTAB
  0
TABLE
  2
APPID
  5
9
330
0
100
AcDbSymbolTable
 70
    18
  0
APPID
  5
12
330
9
100
AcDbSymbolTableRecord
100
AcDbRegAppTableRecord
  2
ACAD
 70
     0
  0
APPID
  5
5024
330
9
100
AcDbSymbolTableRecord
100
AcDbRegAppTableRecord
  2
ACAD_MLEADERVER
 70
     0
  0
APPID
  5
50B5
330
9
100
AcDbSymbolTableRecord
100
AcDbRegAppTableRecord
  2
AcDbDynamicBlockGUID
 70
     0
  0
APPID
  5
50B6
330
9
100
AcDbSymbolTableRecord
100
AcDbRegAppTableRecord
  2
AcDbBlockRepETag
 70
     0
  0
APPID
  5
50B7
330
9
100
AcDbSymbolTableRecord
100
AcDbRegAppTableRecord
  2
ACAD_PSEXT
 70
     0
  0
APPID
  5
50CF
330
9
100
AcDbSymbolTableRecord
100
AcDbRegAppTableRecord
  2
AcadAnnoPO
 70
     0
  0
APPID
  5
5146
330
9
100
AcDbSymbolTableRecord
100
AcDbRegAppTableRecord
  2
AcAecLayerStandard
 70
     0
  0
APPID
  5
5147
330
9
100
AcDbSymbolTableRecord
100
AcDbRegAppTableRecord
  2
ACAD_DSTYLE_DIMJAG
 70
     0
  0
APPID
  5
5148
330
9
100
AcDbSymbolTableRecord
100
AcDbRegAppTableRecord
  2
ACAD_DSTYLE_DIMTALN
 70
     0
  0
APPID
  5
52AD
330
9
100
AcDbSymbolTableRecord
100
AcDbRegAppTableRecord
  2
ACAUTHENVIRON
 70
     0
  0
APPID
  5
52B0
330
9
100
AcDbSymbolTableRecord
100
AcDbRegAppTableRecord
  2
AcDbDynamicBlockTrueName
 70
     0
  0
APPID
  5
67C6
330
9
100
AcDbSymbolTableRecord
100
AcDbRegAppTableRecord
  2
ACAD_EXEMPT_FROM_CAD_STANDARDS
 70
     0
  0
APPID
  5
6838
330
9
100
AcDbSymbolTableRecord
100
AcDbRegAppTableRecord
  2
ACAD_NAV_VCDISPLAY
 70
     0
  0
APPID
  5
70A9
330
9
100
AcDbSymbolTableRecord
100
AcDbRegAppTableRecord
  2
DCO15
 70
     0
  0
APPID
  5
8725
330
9
100
AcDbSymbolTableRecord
100
AcDbRegAppTableRecord
  2
AcDbBlockRepBTag
 70
     0
  0
APPID
  5
FE64
330
9
100
AcDbSymbolTableRecord
100
AcDbRegAppTableRecord
  2
ACAD_DSTYLE_DIMRADIAL_EXTENSION
 70
     0
  0
APPID
  5
FF93
330
9
100
AcDbSymbolTableRecord
100
AcDbRegAppTableRecord
  2
ACAD_DSTYLE_DIMBREAK
 70
     0
  0
APPID
  5
15463
330
9
100
AcDbSymbolTableRecord
100
AcDbRegAppTableRecord
  2
ACAD_DSTYLE_DIMINSPECT
 70
     0
  0
ENDTAB
  0
TABLE
  2
DIMSTYLE
  5
A
330
0
100
AcDbSymbolTable
 70
     2
100
AcDbDimStyleTable
 71
     2
340
5145
340
27
  0
DIMSTYLE
105
27
330
A
100
AcDbSymbolTableRecord
100
AcDbDimStyleTableRecord
  2
Standard
 70
     0
340
11
  0
DIMSTYLE
105
5145
102
{ACAD_REACTORS
330
178F4
330
1774B
330
17797
330
17748
330
17751
330
179AB
330
17A55
330
17A7F
102
}
330
A
100
AcDbSymbolTableRecord
100
AcDbDimStyleTableRecord
  2
01
 70
     0
 41
1.5
 42
0.2
 43
0.2
 44
0.5
 73
     0
 74
     0
 77
     1
 78
     8
 79
     2
140
2.0
141
0.0
147
0.3
176
     1
177
     6
178
     4
179
     2
271
     1
272
     1
340
FD48
1001
ACAD_DSTYLE_DIMJAG
1070
   388
1040
1.5
1001
ACAD_DSTYLE_DIMTALN
1070
   392
1070
     0
  0
ENDTAB
  0
TABLE
  2
BLOCK_RECORD
  5
1
330
0
100
AcDbSymbolTable
 70
    10
  0
BLOCK_RECORD
  5
1F
102
{ACAD_XDICTIONARY
360
67C0
102
}
330
1
100
AcDbSymbolTableRecord
100
AcDbBlockTableRecord
  2
*Model_Space
340
22
 70
     0
280
     1
281
     0
  0
BLOCK_RECORD
  5
1B
330
1
100
AcDbSymbolTableRecord
100
AcDbBlockTableRecord
  2
*Paper_Space
340
1E
 70
     0
280
     1
281
     0
  0
BLOCK_RECORD
  5
23
330
1
100
AcDbSymbolTableRecord
100
AcDbBlockTableRecord
  2
*Paper_Space0
340
26
 70
     0
280
     1
281
     0
  0
BLOCK_RECORD
  5
13E17
102
{ACAD_XDICTIONARY
360
17C4F
102
}
330
1
100
AcDbSymbolTableRecord
100
AcDbBlockTableRecord
  2
A4图框-NEW
340
0
310
2800000020000000200000000100080000000000000400000000000000000000000000000000000000000000000080000080000000808000800000008000800080800000C0C0C000C0DCC000F0CAA6000020400000206000002080000020A0000020C0000020E00000400000004020000040400000406000004080000040A0
310
000040C0000040E00000600000006020000060400000606000006080000060A0000060C0000060E00000800000008020000080400000806000008080000080A0000080C0000080E00000A0000000A0200000A0400000A0600000A0800000A0A00000A0C00000A0E00000C0000000C0200000C0400000C0600000C0800000C0
310
A00000C0C00000C0E00000E0000000E0200000E0400000E0600000E0800000E0A00000E0C00000E0E00040000000400020004000400040006000400080004000A0004000C0004000E00040200000402020004020400040206000402080004020A0004020C0004020E000404000004040200040404000404060004040800040
310
40A0004040C0004040E00040600000406020004060400040606000406080004060A0004060C0004060E00040800000408020004080400040806000408080004080A0004080C0004080E00040A0000040A0200040A0400040A0600040A0800040A0A00040A0C00040A0E00040C0000040C0200040C0400040C0600040C08000
310
40C0A00040C0C00040C0E00040E0000040E0200040E0400040E0600040E0800040E0A00040E0C00040E0E00080000000800020008000400080006000800080008000A0008000C0008000E00080200000802020008020400080206000802080008020A0008020C0008020E00080400000804020008040400080406000804080
310
008040A0008040C0008040E00080600000806020008060400080606000806080008060A0008060C0008060E00080800000808020008080400080806000808080008080A0008080C0008080E00080A0000080A0200080A0400080A0600080A0800080A0A00080A0C00080A0E00080C0000080C0200080C0400080C0600080C0
310
800080C0A00080C0C00080C0E00080E0000080E0200080E0400080E0600080E0800080E0A00080E0C00080E0E000C0000000C0002000C0004000C0006000C0008000C000A000C000C000C000E000C0200000C0202000C0204000C0206000C0208000C020A000C020C000C020E000C0400000C0402000C0404000C0406000C0
310
408000C040A000C040C000C040E000C0600000C0602000C0604000C0606000C0608000C060A000C060C000C060E000C0800000C0802000C0804000C0806000C0808000C080A000C080C000C080E000C0A00000C0A02000C0A04000C0A06000C0A08000C0A0A000C0A0C000C0A0E000C0C00000C0C02000C0C04000C0C06000
310
C0C08000C0C0A000F0FBFF00A4A0A000808080000000FF0000FF000000FFFF00FF000000FF00FF00FFFF0000FFFFFF0000000000000000000000000000000000000000000000000000000000000000000000000000000000000000000000000000000000000000000000000000000000000000000000000000000000000000
310
000000000000000000000000000000000000000000000000000000000000000000000000000000000000000000000000000000000000000000000000000000000000000000000000000000000000000000000000000000000000000000000000000000000000000000000000000000000000F9F9F9F9F9F9F9F9F9F9F9F9F9
310
F9F9F9F9F9F9F9F9F9F9F9F9F9F9FF00000000F9FF000000000000000000FFFFFFFFFFFFFFFFFFFFFFFFF9FAFAFAFF00000000F9FF000000000000000000FFFFFFFFFFFFFFFFFFFFFFFFFFFFFFFFFF00000000F9FD000000000000000000FFFFFFFFFFFFFFFFFFFFFFFFFFFFFFFFFF00000000F9FF000000000000000000FF
310
FFFFFFFFFFFFFFFFFFFFFFFFFFFFFFFF00000000F9FD000000000000000000FFFFFFFFFFFFFFFFFFFFFFFFFFFFFFFFFF00000000F9FF00000000000000000000000000000000000000000000000000FF00000000F9FD00000000000000000000000000000000000000000000000000FF00000000F9FF000000000000000000
310
00000000000000000000000000000000FF00000000F9FD00000000000000000000000000000000000000000000000000FF00000000F9FF00000000000000000000000000000000000000000000000000FF00000000F9FD00000000000000000000000000000000000000000000000000FF00000000F9FD0000000000000000
310
0000000000000000000000000000000000FF00000000F9FF00000000000000000000000000000000000000000000000000FF00000000F9FD00000000000000000000000000000000000000000000000000FF00000000F9FF00000000000000000000000000000000000000000000000000FF00000000F9FD00000000000000
310
000000000000000000000000000000000000FF00000000F9FF00000000000000000000000000000000000000000000000000FF00000000F9FFFFFFFFFFFFFFFFFFFFFFFFFFFFFFFFFFFFFFFFFFFFFFFFFFFFFF00000000F9FFFFFFF9F9F9F9F9F9F9F9F9F9F9F9F9F9F9F9F9F9F9F9F9F9F9F9000000000000000000000000
310
00000000000000000000000000000000000000000000000000000000000000000000000000000000000000000000000000000000000000000000000000000000000000000000000000000000000000000000000000000000000000000000000000000000000000000000000000000000000000000000000000000000000000
310
0000000000000000000000000000000000000000000000000000000000000000000000000000000000000000000000000000000000000000
102
{BLKREFS
331
1556A
102
}
 70
     4
280
     1
281
     0
1001
AcDbDynamicBlockGUID
1000
{777CC035-0D31-4ED2-9A08-2878E65BC3B0}
1001
AcDbBlockRepETag
1070
     1
1071
      149
  0
BLOCK_RECORD
  5
177EA
330
1
100
AcDbSymbolTableRecord
100
AcDbBlockTableRecord
  2
*D2
340
0
 70
     0
280
     1
281
     0
  0
BLOCK_RECORD
  5
177F7
330
1
100
AcDbSymbolTableRecord
100
AcDbBlockTableRecord
  2
*D3
340
0
 70
     0
280
     1
281
     0
  0
BLOCK_RECORD
  5
17811
330
1
100
AcDbSymbolTableRecord
100
AcDbBlockTableRecord
  2
*D4
340
0
 70
     0
280
     1
281
     0
  0
BLOCK_RECORD
  5
178AE
330
1
100
AcDbSymbolTableRecord
100
AcDbBlockTableRecord
  2
*D5
340
0
 70
     0
280
     1
281
     0
  0
BLOCK_RECORD
  5
178F5
330
1
100
AcDbSymbolTableRecord
100
AcDbBlockTableRecord
  2
*D6
340
0
 70
     0
280
     1
281
     0
  0
BLOCK_RECORD
  5
179AC
330
1
100
AcDbSymbolTableRecord
100
AcDbBlockTableRecord
  2
*D7
340
0
 70
     0
280
     1
281
     0
  0
BLOCK_RECORD
  5
17A56
330
1
100
AcDbSymbolTableRecord
100
AcDbBlockTableRecord
  2
*D8
340
0
 70
     0
280
     1
281
     0
  0
BLOCK_RECORD
  5
17A80
330
1
100
AcDbSymbolTableRecord
100
AcDbBlockTableRecord
  2
*D9
340
0
 70
     0
280
     1
281
     0
  0
ENDTAB
  0
ENDSEC
  0
SECTION
  2
BLOCKS
  0
BLOCK
  5
20
330
1F
100
AcDbEntity
  8
0
100
AcDbBlockBegin
  2
*Model_Space
 70
     0
 10
0.0
 20
0.0
 30
0.0
  3
*Model_Space
  1

  0
ENDBLK
  5
21
330
1F
100
AcDbEntity
  8
0
100
AcDbBlockEnd
  0
BLOCK
  5
1C
330
1B
100
AcDbEntity
 67
     1
  8
0
100
AcDbBlockBegin
  2
*Paper_Space
 70
     0
 10
0.0
 20
0.0
 30
0.0
  3
*Paper_Space
  1

  0
ENDBLK
  5
1D
330
1B
100
AcDbEntity
 67
     1
  8
0
100
AcDbBlockEnd
  0
BLOCK
  5
24
330
23
100
AcDbEntity
 67
     1
  8
0
100
AcDbBlockBegin
  2
*Paper_Space0
 70
     0
 10
0.0
 20
0.0
 30
0.0
  3
*Paper_Space0
  1

  0
ENDBLK
  5
25
330
23
100
AcDbEntity
 67
     1
  8
0
100
AcDbBlockEnd
  0
BLOCK
  5
13E19
330
13E17
100
AcDbEntity
  8
0
100
AcDbBlockBegin
  2
A4图框-NEW
 70
     0
 10
0.0
 20
0.0
 30
0.0
  3
A4图框-NEW
  1

  0
MTEXT
  5
17BBA
102
{ACAD_XDICTIONARY
360
17C80
102
}
330
13E17
100
AcDbEntity
  8
图框
 62
     3
100
AcDbMText
 10
967.6594956750133
 20
499.7664151964293
 30
0.0
 40
2.985513575034151
 41
15.50176341157864
 46
6.292658374511018
 71
     5
 72
     5
  1
BQ LUO
  7
Romans字体
 73
     1
 44
1.0
1001
AcDbBlockRepETag
1070
     1
1071
        0
1005
17BBA
1001
ACAD
1000
ACAD_MTEXT_DEFINED_HEIGHT_BEGIN
1070
    46
1040
6.292658374511018
1000
ACAD_MTEXT_DEFINED_HEIGHT_END
  0
MTEXT
  5
17BBB
330
13E17
100
AcDbEntity
  8
图框
 62
     3
100
AcDbMText
 10
983.041569333247
 20
499.7664151964293
 30
0.0
 40
2.487927979195124
 41
15.26238390489062
 46
6.292658374511042
 71
     5
 72
     5
  1
{\W0.7;18.10.2010}
  7
Romans字体
 73
     1
 44
1.0
1001
AcDbBlockRepETag
1070
     1
1071
        1
1005
17BBB
1001
ACAD
1000
ACAD_MTEXT_DEFINED_HEIGHT_BEGIN
1070
    46
1040
6.292658374511042
1000
ACAD_MTEXT_DEFINED_HEIGHT_END
  0
MTEXT
  5
17BBC
330
13E17
100
AcDbEntity
  8
图框
 62
     3
100
AcDbMText
 10
1012.477254728976
 20
487.1810984474071
 30
0.0
 40
2.985513575034151
 41
17.64876416884615
 46
6.292658374511455
 71
     5
 72
     5
  1
YY LIN
  7
Romans字体
 73
     1
 44
1.0
1001
AcDbBlockRepETag
1070
     1
1071
        2
1005
17BBC
1001
ACAD
1000
ACAD_MTEXT_DEFINED_HEIGHT_BEGIN
1070
    46
1040
6.292658374511455
1000
ACAD_MTEXT_DEFINED_HEIGHT_END
  0
MTEXT
  5
17BBD
330
13E17
100
AcDbEntity
  8
图框
 62
     3
100
AcDbMText
 10
1028.977802139886
 20
487.1810984474071
 30
0.0
 40
2.487927979195124
 41
15.35233065297276
 46
6.292658374511495
 71
     5
 72
     5
  1
{\W0.7;18.10.2010}
  7
Romans字体
 73
     1
 44
1.0
1001
AcDbBlockRepETag
1070
     1
1071
        3
1005
17BBD
1001
ACAD
1000
ACAD_MTEXT_DEFINED_HEIGHT_BEGIN
1070
    46
1040
6.292658374511495
1000
ACAD_MTEXT_DEFINED_HEIGHT_END
  0
MTEXT
  5
17BBE
330
13E17
100
AcDbEntity
  8
图框
 62
     3
100
AcDbMText
 10
1063.722665487208
 20
525.4145966538831
 30
0.0
 40
2.985513575034151
 41
32.4973914334545
 46
11.82914190181707
 71
     5
 72
     5
  1
-
  7
Romans字体
 73
     1
 44
1.0
1001
AcDbBlockRepETag
1070
     1
1071
        4
1005
17BBE
1001
ACAD
1000
ACAD_MTEXT_DEFINED_HEIGHT_BEGIN
1070
    46
1040
11.82914190181707
1000
ACAD_MTEXT_DEFINED_HEIGHT_END
  0
MTEXT
  5
17BBF
330
13E17
100
AcDbEntity
  8
图框
 62
     3
100
AcDbMText
 10
1063.727338552349
 20
513.5854547520641
 30
0.0
 40
2.985513575034151
 41
32.48804530317308
 46
11.82914190182139
 71
     5
 72
     5
  1
-
  7
Romans字体
 73
     1
 44
1.0
1001
AcDbBlockRepETag
1070
     1
1071
        5
1005
17BBF
1001
ACAD
1000
ACAD_MTEXT_DEFINED_HEIGHT_BEGIN
1070
    46
1040
11.82914190182139
1000
ACAD_MTEXT_DEFINED_HEIGHT_END
  0
MTEXT
  5
17BC0
330
13E17
100
AcDbEntity
  8
图框
 62
     3
100
AcDbMText
 10
1110.122306614152
 20
526.8006839312707
 30
0.0
 40
2.985513575034151
 41
33.61239199242139
 46
9.05696734704178
 71
     5
 72
     5
  1
-
  7
Romans字体
 73
     1
 44
1.0
1001
AcDbBlockRepETag
1070
     1
1071
        6
1005
17BC0
1001
ACAD
1000
ACAD_MTEXT_DEFINED_HEIGHT_BEGIN
1070
    46
1040
9.05696734704178
1000
ACAD_MTEXT_DEFINED_HEIGHT_END
  0
MTEXT
  5
17BC1
330
13E17
100
AcDbEntity
  8
图框
 62
     3
100
AcDbMText
 10
1110.122306614152
 20
500.2775205517162
 30
0.0
 40
2.985513575034151
 41
33.61239199242139
 46
8.871557304763419
 71
     5
 72
     5
  1
-
  7
Romans字体
 73
     1
 44
1.0
1001
AcDbBlockRepETag
1070
     1
1071
        7
1005
17BC1
1001
ACAD
1000
ACAD_MTEXT_DEFINED_HEIGHT_BEGIN
1070
    46
1040
8.871557304763419
1000
ACAD_MTEXT_DEFINED_HEIGHT_END
  0
MTEXT
  5
17BC2
330
13E17
100
AcDbEntity
  8
图框
 62
     3
100
AcDbMText
 10
967.6594956750133
 20
493.4737568219182
 30
0.0
 40
2.985513575034151
 41
15.50176341157864
 46
6.292658374510335
 71
     5
 72
     5
  1
P RAO
  7
Romans字体
 73
     1
 44
1.0
1001
AcDbBlockRepETag
1070
     1
1071
        8
1005
17BC2
1001
ACAD
1000
ACAD_MTEXT_DEFINED_HEIGHT_BEGIN
1070
    46
1040
6.292658374510335
1000
ACAD_MTEXT_DEFINED_HEIGHT_END
  0
MTEXT
  5
17BC3
330
13E17
100
AcDbEntity
  8
图框
 62
     3
100
AcDbMText
 10
983.041569333247
 20
493.2441970450405
 30
0.0
 40
2.487927979195124
 41
15.26238390489051
 46
6.751777928266487
 71
     5
 72
     5
  1
{\W0.7;18.10.2010}
  7
Romans字体
 73
     1
 44
1.0
1001
AcDbBlockRepETag
1070
     1
1071
        9
1005
17BC3
1001
ACAD
1000
ACAD_MTEXT_DEFINED_HEIGHT_BEGIN
1070
    46
1040
6.751777928266487
1000
ACAD_MTEXT_DEFINED_HEIGHT_END
  0
MTEXT
  5
17BC4
330
13E17
100
AcDbEntity
  8
图框
 62
     3
100
AcDbMText
 10
1012.477254728976
 20
499.7664151964291
 30
0.0
 40
2.985513575034151
 41
17.64876416884615
 46
6.292658374511397
 71
     5
 72
     5
  1
-
  7
Romans字体
 73
     1
 44
1.0
1001
AcDbBlockRepETag
1070
     1
1071
       10
1005
17BC4
1001
ACAD
1000
ACAD_MTEXT_DEFINED_HEIGHT_BEGIN
1070
    46
1040
6.292658374511397
1000
ACAD_MTEXT_DEFINED_HEIGHT_END
  0
MTEXT
  5
17BC5
330
13E17
100
AcDbEntity
  8
图框
 62
     3
100
AcDbMText
 10
1028.977802139886
 20
499.7664151964289
 30
0.0
 40
2.487927979195124
 41
15.35233065297265
 46
6.292658374511382
 71
     5
 72
     5
  1
-
  7
Romans字体
 73
     1
 44
1.0
1001
AcDbBlockRepETag
1070
     1
1071
       11
1005
17BC5
1001
ACAD
1000
ACAD_MTEXT_DEFINED_HEIGHT_BEGIN
1070
    46
1040
6.292658374511382
1000
ACAD_MTEXT_DEFINED_HEIGHT_END
  0
MTEXT
  5
17BC6
330
13E17
100
AcDbEntity
  8
图框
 62
     3
100
AcDbMText
 10
967.6594956750133
 20
487.1810984474071
 30
0.0
 40
2.985513575034151
 41
15.50176341157863
 46
6.292658374511478
 71
     5
 72
     5
  1
-
  7
Romans字体
 73
     1
 44
1.0
1001
AcDbBlockRepETag
1070
     1
1071
       12
1005
17BC6
1001
ACAD
1000
ACAD_MTEXT_DEFINED_HEIGHT_BEGIN
1070
    46
1040
6.292658374511478
1000
ACAD_MTEXT_DEFINED_HEIGHT_END
  0
MTEXT
  5
17BC7
330
13E17
100
AcDbEntity
  8
图框
 62
     3
100
AcDbMText
 10
983.041569333247
 20
487.1810984474071
 30
0.0
 40
2.487927979195124
 41
15.26238390489062
 46
6.292658374511495
 71
     5
 72
     5
  1
-
  7
Romans字体
 73
     1
 44
1.0
1001
AcDbBlockRepETag
1070
     1
1071
       13
1005
17BC7
1001
ACAD
1000
ACAD_MTEXT_DEFINED_HEIGHT_BEGIN
1070
    46
1040
6.292658374511495
1000
ACAD_MTEXT_DEFINED_HEIGHT_END
  0
MTEXT
  5
17BC8
330
13E17
100
AcDbEntity
  8
图框
 62
     3
100
AcDbMText
 10
1074.556686986741
 20
495.8417418993361
 30
0.0
 40
2.985513575034151
 41
10.82934843438978
 46
7.886094601210427
 71
     5
 72
     5
  1
-
  7
Romans字体
 73
     1
 44
1.0
1001
AcDbBlockRepETag
1070
     1
1071
       14
1005
17BC8
1001
ACAD
1000
ACAD_MTEXT_DEFINED_HEIGHT_BEGIN
1070
    46
1040
7.886094601210427
1000
ACAD_MTEXT_DEFINED_HEIGHT_END
  0
LINE
  5
17BC9
330
13E17
100
AcDbEntity
  8
图框
370
    -3
100
AcDbLine
 10
1036.653967466372
 20
499.7847891999413
 30
0.0
 11
1079.971361203936
 21
499.7847891999413
 31
0.0
1001
AcDbBlockRepETag
1070
     1
1071
       15
1005
17BC9
  0
MTEXT
  5
17BCA
330
13E17
100
AcDbEntity
  8
图框
 62
     1
370
    20
100
AcDbMText
 10
1108.26336443907
 20
491.5162596080882
 30
0.0
 40
2.699054613030988
 41
82.30831305643079
 46
0.0
 71
     5
 72
     5
  1
{\fSimHei|b0|i0|c134|p2;厦门唯恩电气有限公司}
 73
     1
 44
1.0
1001
AcDbBlockRepETag
1070
     1
1071
       16
1005
17BCA
  0
MTEXT
  5
17BCB
330
13E17
100
AcDbEntity
  8
图框
 62
     3
370
    20
100
AcDbMText
 10
1108.435451459908
 20
487.298967726064
 30
0.0
 40
1.652482416141417
 41
68.08558693693567
 46
0.0
 71
     5
 72
     5
  1
{\fArial Narrow|b0|i0|c0|p34;XIAMEN WAIN ELECTRICAL CO.LTD}
  7
工程字
 73
     1
 44
1.0
1001
AcDbBlockRepETag
1070
     1
1071
       17
1005
17BCB
  0
MTEXT
  5
17BCC
330
13E17
100
AcDbEntity
  8
图框
 62
     1
370
    20
100
AcDbMText
 10
1085.711816899387
 20
491.0944802995856
 30
0.0
 40
2.005930044038334
 41
5.047240019334847
 46
0.0
 71
     1
 72
     5
  1
{\fArial|b0|i0|c0|p34;A}
  7
Chinese
 73
     1
 44
1.0
1001
AcDbBlockRepETag
1070
     1
1071
       18
1005
17BCC
  0
MTEXT
  5
17BCD
330
13E17
100
AcDbEntity
  8
图框
 62
     1
370
    20
100
AcDbMText
 10
1088.213485935716
 20
491.0944802995856
 30
0.0
 40
2.005930044038334
 41
5.047240019334847
 46
0.0
 71
     1
 72
     5
  1
{\fArial|b0|i0|c0|p34;I}
  7
Chinese
 73
     1
 44
1.0
1001
AcDbBlockRepETag
1070
     1
1071
       19
1005
17BCD
  0
MTEXT
  5
17BCE
330
13E17
100
AcDbEntity
  8
图框
 62
     1
370
    20
100
AcDbMText
 10
1089.142375222864
 20
491.0822866326808
 30
0.0
 40
2.005930044038334
 41
5.047240019334847
 46
0.0
 71
     1
 72
     5
  1
{\fArial|b0|i0|c0|p34;N}
  7
Chinese
 73
     1
 44
1.0
1001
AcDbBlockRepETag
1070
     1
1071
       20
1005
17BCE
  0
MTEXT
  5
17BCF
330
13E17
100
AcDbEntity
  8
图框
100
AcDbMText
 10
1069.142012769545
 20
487.9667319294409
 30
0.0
 40
2.252848170144607
 41
21.65869686878327
 46
7.863925338579296
 71
     5
 72
     5
  1
{\W0.5;\C1;All Dimensions in mm\POriginal Size DIN A 4}
  7
Romans字体
 73
     1
 44
1.0
1001
AcDbBlockRepETag
1070
     1
1071
       21
1005
17BCF
1001
ACAD
1000
ACAD_MTEXT_DEFINED_HEIGHT_BEGIN
1070
    46
1040
7.863925338579296
1000
ACAD_MTEXT_DEFINED_HEIGHT_END
  0
MTEXT
  5
17BD0
330
13E17
100
AcDbEntity
  8
图框
  6
ByBlock
 62
     6
370
    18
100
AcDbMText
 10
1127.40434942308
 20
508.7896535755975
 30
0.0
 40
2.651776162684904
 41
2.557913877927211
 46
0.0
 71
     1
 72
     5
  1
A
  7
Romans字体
 11
0.0000000000000001
 21
1.0
 31
0.0
 73
     1
 44
1.0
1001
AcDbBlockRepETag
1070
     1
1071
       22
1005
17BD0
  0
MTEXT
  5
17BD1
330
13E17
100
AcDbEntity
  8
图框
 62
     6
100
AcDbMText
 10
1127.40434942308
 20
556.3746573232886
 30
0.0
 40
2.651776162684904
 41
2.557913877927211
 46
0.0
 71
     1
 72
     5
  1
B
  7
Romans字体
 11
0.0000000000000001
 21
1.0
 31
0.0
 73
     1
 44
1.0
1001
AcDbBlockRepETag
1070
     1
1071
       23
1005
17BD1
  0
MTEXT
  5
17BD2
330
13E17
100
AcDbEntity
  8
图框
 62
     6
100
AcDbMText
 10
1127.40434942308
 20
607.5539372630998
 30
0.0
 40
2.651776162684904
 41
2.557913877927211
 46
0.0
 71
     1
 72
     5
  1
C
  7
Romans字体
 11
0.0000000000000001
 21
1.0
 31
0.0
 73
     1
 44
1.0
1001
AcDbBlockRepETag
1070
     1
1071
       24
1005
17BD2
  0
MTEXT
  5
17BD3
330
13E17
100
AcDbEntity
  8
图框
 62
     6
100
AcDbMText
 10
1127.40434942308
 20
658.7332172029115
 30
0.0
 40
2.651776162684904
 41
2.557913877927211
 46
0.0
 71
     1
 72
     5
  1
D
  7
Romans字体
 11
0.0000000000000001
 21
1.0
 31
0.0
 73
     1
 44
1.0
1001
AcDbBlockRepETag
1070
     1
1071
       25
1005
17BD3
  0
LINE
  5
17BD4
330
13E17
100
AcDbEntity
  8
图框
 62
     6
100
AcDbLine
 10
1130.411601781241
 20
634.0726090796082
 30
0.0
 11
1126.928502610363
 21
634.0726090796082
 31
0.0
1001
AcDbBlockRepETag
1070
     1
1071
       26
1005
17BD4
  0
LINE
  5
17BD5
330
13E17
100
AcDbEntity
  8
图框
 62
     6
100
AcDbLine
 10
1130.411601781241
 20
582.89332913979
 30
0.0
 11
1126.928502610363
 21
582.89332913979
 31
0.0
1001
AcDbBlockRepETag
1070
     1
1071
       27
1005
17BD5
  0
MTEXT
  5
17BD6
330
13E17
100
AcDbEntity
  8
图框
 62
     6
100
AcDbMText
 10
1105.329704038389
 20
483.6164543011163
 30
0.0
 40
2.651776162684904
 41
2.557913877927211
 46
0.0
 71
     1
 72
     5
  1
6
  7
Romans字体
 73
     1
 44
1.0
1001
AcDbBlockRepETag
1070
     1
1071
       28
1005
17BD6
  0
LINE
  5
17BD7
330
13E17
100
AcDbEntity
  8
图框
 62
     6
100
AcDbLine
 10
1081.088565155284
 20
484.0347692601515
 30
0.0
 11
1081.088565155284
 21
480.5347692601475
 31
0.0
1001
AcDbBlockRepETag
1070
     1
1071
       29
1005
17BD7
  0
MTEXT
  5
17BD8
330
13E17
100
AcDbEntity
  8
图框
 62
     6
100
AcDbMText
 10
1055.900596365941
 20
483.520053108993
 30
0.0
 40
2.651776162684904
 41
2.557913877927211
 46
0.0
 71
     1
 72
     5
  1
5
  7
Romans字体
 73
     1
 44
1.0
1001
AcDbBlockRepETag
1070
     1
1071
       30
1005
17BD8
  0
LINE
  5
17BD9
330
13E17
100
AcDbEntity
  8
图框
 62
     6
100
AcDbLine
 10
1031.553386436349
 20
484.0347692601515
 30
0.0
 11
1031.553386436349
 21
480.5347692601475
 31
0.0
1001
AcDbBlockRepETag
1070
     1
1071
       31
1005
17BD9
  0
MTEXT
  5
17BDA
330
13E17
100
AcDbEntity
  8
图框
 62
     6
100
AcDbMText
 10
1006.383180575197
 20
483.5687958215896
 30
0.0
 40
2.651776162684904
 41
2.557913877927211
 46
0.0
 71
     1
 72
     5
  1
4
  7
Romans字体
 73
     1
 44
1.0
1001
AcDbBlockRepETag
1070
     1
1071
       32
1005
17BDA
  0
LINE
  5
17BDB
330
13E17
100
AcDbEntity
  8
图框
 62
     6
100
AcDbLine
 10
982.0182077173887
 20
484.0347692601515
 30
0.0
 11
982.0182077173887
 21
480.5347692601475
 31
0.0
1001
AcDbBlockRepETag
1070
     1
1071
       33
1005
17BDB
  0
MTEXT
  5
17BDC
330
13E17
100
AcDbEntity
  8
图框
 62
     6
100
AcDbMText
 10
956.8302389280352
 20
483.5989680297948
 30
0.0
 40
2.651776162684904
 41
2.557913877927211
 46
0.0
 71
     1
 72
     5
  1
3
  7
Romans字体
 73
     1
 44
1.0
1001
AcDbBlockRepETag
1070
     1
1071
       34
1005
17BDC
  0
LINE
  5
17BDD
330
13E17
100
AcDbEntity
  8
图框
 62
     6
100
AcDbLine
 10
932.4830289984245
 20
484.0347692601515
 30
0.0
 11
932.4830289984245
 21
480.5347692601475
 31
0.0
1001
AcDbBlockRepETag
1070
     1
1071
       35
1005
17BDD
  0
MTEXT
  5
17BDE
330
13E17
100
AcDbEntity
  8
图框
 62
     6
100
AcDbMText
 10
906.0252349826365
 20
483.6475250013156
 30
0.0
 40
2.651776162684904
 41
2.557913877927211
 46
0.0
 71
     1
 72
     5
  1
2
  7
Romans字体
 73
     1
 44
1.0
1001
AcDbBlockRepETag
1070
     1
1071
       36
1005
17BDE
  0
LINE
  5
17BDF
330
13E17
100
AcDbEntity
  8
图框
 62
     6
100
AcDbLine
 10
882.9478502794648
 20
484.0347692601515
 30
0.0
 11
882.9478502794648
 21
480.5347692601475
 31
0.0
1001
AcDbBlockRepETag
1070
     1
1071
       37
1005
17BDF
  0
MTEXT
  5
17BE0
330
13E17
100
AcDbEntity
  8
图框
 62
     6
100
AcDbMText
 10
857.7598814901191
 20
483.651829494754
 30
0.0
 40
2.651776162684904
 41
2.557913877927211
 46
0.0
 71
     1
 72
     5
  1
1
  7
Romans字体
 73
     1
 44
1.0
1001
AcDbBlockRepETag
1070
     1
1071
       38
1005
17BE0
  0
LINE
  5
17BE1
330
13E17
100
AcDbEntity
  8
图框
370
    50
100
AcDbLine
 10
836.8548209370597
 20
484.0347692601515
 30
0.0
 11
1126.928502610363
 21
484.0347692601515
 31
0.0
1001
AcDbBlockRepETag
1070
     1
1071
       39
1005
17BE1
  0
LINE
  5
17BE2
330
13E17
100
AcDbEntity
  8
图框
370
    50
100
AcDbLine
 10
836.9128518455362
 20
484.0178684310246
 30
0.0
 11
836.9128518455394
 21
675.0207195125422
 31
0.0
1001
AcDbBlockRepETag
1070
     1
1071
       40
1005
17BE2
  0
MTEXT
  5
17BE3
330
13E17
100
AcDbEntity
  8
图框
 62
     6
100
AcDbMText
 10
833.8475685789031
 20
658.7332172029115
 30
0.0
 40
2.651776162684904
 41
2.557913877927211
 46
0.0
 71
     1
 72
     5
  1
D
  7
Romans字体
 11
0.0000000000000001
 21
1.0
 31
0.0
 73
     1
 44
1.0
1001
AcDbBlockRepETag
1070
     1
1071
       41
1005
17BE3
  0
LINE
  5
17BE4
330
13E17
100
AcDbEntity
  8
图框
 62
     6
100
AcDbLine
 10
836.9128518455386
 20
634.0726090796082
 30
0.0
 11
833.4128518455365
 21
634.0726090796082
 31
0.0
1001
AcDbBlockRepETag
1070
     1
1071
       42
1005
17BE4
  0
MTEXT
  5
17BE5
330
13E17
100
AcDbEntity
  8
图框
 62
     6
100
AcDbMText
 10
833.9039177480142
 20
607.5539372630998
 30
0.0
 40
2.651776162684904
 41
2.557913877927211
 46
0.0
 71
     1
 72
     5
  1
C
  7
Romans字体
 11
0.0000000000000001
 21
1.0
 31
0.0
 73
     1
 44
1.0
1001
AcDbBlockRepETag
1070
     1
1071
       43
1005
17BE5
  0
LINE
  5
17BE6
330
13E17
100
AcDbEntity
  8
图框
 62
     6
100
AcDbLine
 10
836.9128518455378
 20
582.89332913979
 30
0.0
 11
833.4128518455365
 21
582.89332913979
 31
0.0
1001
AcDbBlockRepETag
1070
     1
1071
       44
1005
17BE6
  0
MTEXT
  5
17BE7
330
13E17
100
AcDbEntity
  8
图框
 62
     6
100
AcDbMText
 10
833.9039177480142
 20
556.3746573232886
 30
0.0
 40
2.651776162684904
 41
2.557913877927211
 46
0.0
 71
     1
 72
     5
  1
B
  7
Romans字体
 11
0.0000000000000001
 21
1.0
 31
0.0
 73
     1
 44
1.0
1001
AcDbBlockRepETag
1070
     1
1071
       45
1005
17BE7
  0
LINE
  5
17BE8
330
13E17
100
AcDbEntity
  8
图框
 62
     6
100
AcDbLine
 10
836.9128518455367
 20
531.714049199969
 30
0.0
 11
833.4128518455365
 21
531.714049199969
 31
0.0
1001
AcDbBlockRepETag
1070
     1
1071
       46
1005
17BE8
  0
MTEXT
  5
17BE9
330
13E17
100
AcDbEntity
  8
图框
 62
     6
100
AcDbMText
 10
833.9039177480142
 20
508.7896535755975
 30
0.0
 40
2.651776162684904
 41
2.557913877927211
 46
0.0
 71
     1
 72
     5
  1
A
  7
Romans字体
 11
0.0000000000000001
 21
1.0
 31
0.0
 73
     1
 44
1.0
1001
AcDbBlockRepETag
1070
     1
1071
       47
1005
17BE9
  0
LINE
  5
17BEA
330
13E17
100
AcDbEntity
  8
图框
370
    -3
100
AcDbLine
 10
836.9128518455394
 20
675.0207195125422
 30
0.0
 11
836.9128518455394
 21
684.5021384922564
 31
0.0
1001
AcDbBlockRepETag
1070
     1
1071
       48
1005
17BEA
  0
LINE
  5
17BEB
330
13E17
100
AcDbEntity
  8
图框
370
    -3
100
AcDbLine
 10
842.6237321475781
 20
675.5347692601515
 30
0.0
 11
842.6237321475781
 21
685.0161882398658
 31
0.0
1001
AcDbBlockRepETag
1070
     1
1071
       49
1005
17BEB
  0
LINE
  5
17BEC
330
13E17
100
AcDbEntity
  8
图框
370
    -3
100
AcDbLine
 10
848.3346124496179
 20
675.5347692601515
 30
0.0
 11
848.3346124496179
 21
685.0161882398658
 31
0.0
1001
AcDbBlockRepETag
1070
     1
1071
       50
1005
17BEC
  0
LINE
  5
17BED
330
13E17
100
AcDbEntity
  8
图框
370
    -3
100
AcDbLine
 10
854.0454927516588
 20
675.5347692601515
 30
0.0
 11
854.0454927516588
 21
685.0161882398658
 31
0.0
1001
AcDbBlockRepETag
1070
     1
1071
       51
1005
17BED
  0
LINE
  5
17BEE
330
13E17
100
AcDbEntity
  8
图框
370
    -3
100
AcDbLine
 10
861.5351874539182
 20
675.5347692601515
 30
0.0
 11
861.5351874539182
 21
686.7901958362482
 31
0.0
1001
AcDbBlockRepETag
1070
     1
1071
       52
1005
17BEE
  0
MTEXT
  5
17BEF
330
13E17
100
AcDbEntity
  8
图框
 62
     6
100
AcDbMText
 10
1105.329704038389
 20
678.859919059449
 30
0.0
 40
2.651776162684904
 41
2.557913877927211
 46
0.0
 71
     1
 72
     5
  1
6
  7
Romans字体
 73
     1
 44
1.0
1001
AcDbBlockRepETag
1070
     1
1071
       53
1005
17BEF
  0
LINE
  5
17BF0
330
13E17
100
AcDbEntity
  8
图框
 62
     6
100
AcDbLine
 10
1081.088565155284
 20
679.0347692601516
 30
0.0
 11
1081.088565155284
 21
675.5347692601515
 31
0.0
1001
AcDbBlockRepETag
1070
     1
1071
       54
1005
17BF0
  0
MTEXT
  5
17BF1
330
13E17
100
AcDbEntity
  8
图框
 62
     6
100
AcDbMText
 10
1055.900596365941
 20
678.859919059449
 30
0.0
 40
2.651776162684904
 41
2.557913877927211
 46
0.0
 71
     1
 72
     5
  1
5
  7
Romans字体
 73
     1
 44
1.0
1001
AcDbBlockRepETag
1070
     1
1071
       55
1005
17BF1
  0
LINE
  5
17BF2
330
13E17
100
AcDbEntity
  8
图框
 62
     6
100
AcDbLine
 10
1031.553386436349
 20
679.0347692601516
 30
0.0
 11
1031.553386436349
 21
675.5347692601515
 31
0.0
1001
AcDbBlockRepETag
1070
     1
1071
       56
1005
17BF2
  0
MTEXT
  5
17BF3
330
13E17
100
AcDbEntity
  8
图框
 62
     6
100
AcDbMText
 10
1006.36541764698
 20
678.7312083656147
 30
0.0
 40
2.651776162684904
 41
2.557913877927211
 46
0.0
 71
     1
 72
     5
  1
4
  7
Romans字体
 73
     1
 44
1.0
1001
AcDbBlockRepETag
1070
     1
1071
       57
1005
17BF3
  0
LINE
  5
17BF4
330
13E17
100
AcDbEntity
  8
图框
 62
     6
100
AcDbLine
 10
982.0182077173887
 20
679.0347692601516
 30
0.0
 11
982.0182077173887
 21
675.5347692601515
 31
0.0
1001
AcDbBlockRepETag
1070
     1
1071
       58
1005
17BF4
  0
MTEXT
  5
17BF5
330
13E17
100
AcDbEntity
  8
图框
 62
     6
100
AcDbMText
 10
956.8302389280352
 20
678.859919059449
 30
0.0
 40
2.651776162684904
 41
2.557913877927211
 46
0.0
 71
     1
 72
     5
  1
3
  7
Romans字体
 73
     1
 44
1.0
1001
AcDbBlockRepETag
1070
     1
1071
       59
1005
17BF5
  0
LINE
  5
17BF6
330
13E17
100
AcDbEntity
  8
图框
 62
     6
100
AcDbLine
 10
932.4830289984245
 20
679.0347692601516
 30
0.0
 11
932.4830289984245
 21
675.5347692601515
 31
0.0
1001
AcDbBlockRepETag
1070
     1
1071
       60
1005
17BF6
  0
MTEXT
  5
17BF7
330
13E17
100
AcDbEntity
  8
图框
 62
     6
100
AcDbMText
 10
907.295060209082
 20
678.859919059449
 30
0.0
 40
2.651776162684904
 41
2.557913877927211
 46
0.0
 71
     1
 72
     5
  1
2
  7
Romans字体
 73
     1
 44
1.0
1001
AcDbBlockRepETag
1070
     1
1071
       61
1005
17BF7
  0
LINE
  5
17BF8
330
13E17
100
AcDbEntity
  8
图框
 62
     6
100
AcDbLine
 10
882.9478502794648
 20
678.7962435131815
 30
0.0
 11
882.9478502794648
 21
675.5347692601515
 31
0.0
1001
AcDbBlockRepETag
1070
     1
1071
       62
1005
17BF8
  0
MTEXT
  5
17BF9
330
13E17
100
AcDbEntity
  8
图框
 62
     6
100
AcDbMText
 10
862.6286629643733
 20
678.859919059449
 30
0.0
 40
2.651776162684904
 41
2.557913877927211
 46
0.0
 71
     1
 72
     5
  1
1
  7
Romans字体
 73
     1
 44
1.0
1001
AcDbBlockRepETag
1070
     1
1071
       63
1005
17BF9
  0
LINE
  5
17BFA
330
13E17
100
AcDbEntity
  8
图框
370
    -3
100
AcDbLine
 10
836.9128518455394
 20
675.0207195125422
 30
0.0
 11
836.9128518455394
 21
686.7901958362482
 31
0.0
1001
AcDbBlockRepETag
1070
     1
1071
       64
1005
17BFA
  0
LINE
  5
17BFB
330
13E17
100
AcDbEntity
  8
图框
370
    50
100
AcDbLine
 10
836.9128518455394
 20
675.5347692601515
 30
0.0
 11
1126.928502610363
 21
675.5347692601515
 31
0.0
1001
AcDbBlockRepETag
1070
     1
1071
       65
1005
17BFB
  0
LINE
  5
17BFC
330
13E17
100
AcDbEntity
  8
图框
370
    -3
100
AcDbLine
 10
842.6237321475781
 20
675.5347692601515
 30
0.0
 11
842.6237321475781
 21
686.7901958362482
 31
0.0
1001
AcDbBlockRepETag
1070
     1
1071
       66
1005
17BFC
  0
LINE
  5
17BFD
330
13E17
100
AcDbEntity
  8
图框
370
    -3
100
AcDbLine
 10
848.3346124496179
 20
675.5347692601515
 30
0.0
 11
848.3346124496179
 21
686.7901958362482
 31
0.0
1001
AcDbBlockRepETag
1070
     1
1071
       67
1005
17BFD
  0
MTEXT
  5
17BFE
102
{ACAD_XDICTIONARY
360
17C82
102
}
330
13E17
100
AcDbEntity
  8
图框
100
AcDbMText
 10
857.7903401027889
 20
686.7901958362482
 30
0.0
 40
1.958998408821398
 41
11.25542657609672
 46
7.489694702258906
 71
     4
 72
     5
  1
\pi2.8203;档案员{\H0.7x;\P\pi1.4159;\Fromans|c134;Filing Clerk\fFangSong_GB2312|b0|i0|c134|p49; }
 11
-0.0000000000000002
 21
-1.0
 31
0.0
 73
     1
 44
1.0
1001
AcDbBlockRepETag
1070
     1
1071
       68
1005
17BFE
1001
ACAD
1000
ACAD_MTEXT_DEFINED_HEIGHT_BEGIN
1070
    46
1040
7.489694702258906
1000
ACAD_MTEXT_DEFINED_HEIGHT_END
  0
MTEXT
  5
17BFF
102
{ACAD_XDICTIONARY
360
17C84
102
}
330
13E17
100
AcDbEntity
  8
图框
100
AcDbMText
 10
845.479172298598
 20
686.7901958362482
 30
0.0
 40
1.958998408821398
 41
11.25542657609672
 46
5.710880302039671
 71
     4
 72
     5
  1
\pi0.7115;日期{\Fromans|c134;/Date}
 11
-0.0000000000000002
 21
-1.0
 31
0.0
 73
     1
 44
1.0
1001
AcDbBlockRepETag
1070
     1
1071
       69
1005
17BFF
1001
ACAD
1000
ACAD_MTEXT_DEFINED_HEIGHT_BEGIN
1070
    46
1040
5.710880302039671
1000
ACAD_MTEXT_DEFINED_HEIGHT_END
  0
LINE
  5
17C00
330
13E17
100
AcDbEntity
  8
图框
370
    -3
100
AcDbLine
 10
854.0454927516588
 20
675.5347692601515
 30
0.0
 11
854.0454927516588
 21
686.7901958362482
 31
0.0
1001
AcDbBlockRepETag
1070
     1
1071
       70
1005
17C00
  0
LINE
  5
17C01
330
13E17
100
AcDbEntity
  8
图框
370
    -3
100
AcDbLine
 10
1036.653967466372
 20
531.3291676047914
 30
0.0
 11
1036.653967466372
 21
484.0126019753161
 31
0.0
1001
AcDbBlockRepETag
1070
     1
1071
       71
1005
17C01
  0
LINE
  5
17C02
330
13E17
100
AcDbEntity
  8
图框
370
    -3
100
AcDbLine
 10
1047.483315900763
 20
507.6708838011533
 30
0.0
 11
1047.483315900763
 21
491.8986945987308
 31
0.0
1001
AcDbBlockRepETag
1070
     1
1071
       72
1005
17C02
  0
LINE
  5
17C03
330
13E17
100
AcDbEntity
  8
图框
370
    -3
100
AcDbLine
 10
1058.312664335153
 20
507.6708838011533
 30
0.0
 11
1058.312664335153
 21
484.0347692601515
 31
0.0
1001
AcDbBlockRepETag
1070
     1
1071
       73
1005
17C03
  0
LINE
  5
17C04
330
13E17
100
AcDbEntity
  8
图框
370
    25
100
AcDbLine
 10
1048.474135214456
 20
488.1095628329926
 30
0.0
 11
1054.946420288459
 21
488.1095628329926
 31
0.0
1001
AcDbBlockRepETag
1070
     1
1071
       74
1005
17C04
  0
LINE
  5
17C05
330
13E17
100
AcDbEntity
  8
图框
370
    25
100
AcDbLine
 10
1054.232527365989
 20
487.0761716842634
 30
0.0
 11
1049.156490914508
 21
486.4576273751
 31
0.0
1001
AcDbBlockRepETag
1070
     1
1071
       75
1005
17C05
  0
LINE
  5
17C06
330
13E17
100
AcDbEntity
  8
图框
370
    25
100
AcDbLine
 10
1054.232527365989
 20
489.1429539817209
 30
0.0
 11
1049.156490914508
 21
489.7614982908846
 31
0.0
1001
AcDbBlockRepETag
1070
     1
1071
       76
1005
17C06
  0
LINE
  5
17C07
330
13E17
100
AcDbEntity
  8
图框
370
    25
100
AcDbLine
 10
1049.156490914508
 20
489.7614982908846
 30
0.0
 11
1049.156490914508
 21
486.4576273751
 31
0.0
1001
AcDbBlockRepETag
1070
     1
1071
       77
1005
17C07
  0
LINE
  5
17C08
330
13E17
100
AcDbEntity
  8
图框
370
    25
100
AcDbLine
 10
1054.232527365989
 20
489.1429539817209
 30
0.0
 11
1054.232527365989
 21
487.0761716842634
 31
0.0
1001
AcDbBlockRepETag
1070
     1
1071
       78
1005
17C08
  0
CIRCLE
  5
17C09
330
13E17
100
AcDbEntity
  8
图框
370
    25
100
AcDbCircle
 10
1042.502700458579
 20
488.1095628329926
 30
0.0
 40
1.651935457891863
1001
AcDbBlockRepETag
1070
     1
1071
       79
1005
17C09
  0
CIRCLE
  5
17C0A
330
13E17
100
AcDbEntity
  8
图框
370
    25
100
AcDbCircle
 10
1042.502700458579
 20
488.1095628329926
 30
0.0
 40
1.033391148728775
1001
AcDbBlockRepETag
1070
     1
1071
       80
1005
17C0A
  0
LINE
  5
17C0B
330
13E17
100
AcDbEntity
  8
图框
370
    25
100
AcDbLine
 10
1040.136872078216
 20
488.1095628329926
 30
0.0
 11
1044.868528838943
 21
488.1095628329926
 31
0.0
1001
AcDbBlockRepETag
1070
     1
1071
       81
1005
17C0B
  0
LINE
  5
17C0C
330
13E17
100
AcDbEntity
  8
图框
370
    25
100
AcDbLine
 10
1042.502700458579
 20
490.475391213355
 30
0.0
 11
1042.502700458579
 21
485.743734452629
 31
0.0
1001
AcDbBlockRepETag
1070
     1
1071
       82
1005
17C0C
  0
LINE
  5
17C0D
330
13E17
100
AcDbEntity
  8
图框
370
    -3
100
AcDbLine
 10
1069.142012769546
 20
507.6708838011533
 30
0.0
 11
1069.142012769546
 21
491.8986945987308
 31
0.0
1001
AcDbBlockRepETag
1070
     1
1071
       83
1005
17C0D
  0
MTEXT
  5
17C0E
330
13E17
100
AcDbEntity
  8
图框
100
AcDbMText
 10
1086.643735910939
 20
526.8006839312707
 30
0.0
 40
2.154898249703542
 41
13.34474941400573
 46
9.056967347041775
 71
     5
 72
     5
  1
图号{\Ftxt|c134;\P\Fromans|c134;\W0.65;Drawing No.}
 73
     1
 44
1.0
1001
AcDbBlockRepETag
1070
     1
1071
       84
1005
17C0E
1001
ACAD
1000
ACAD_MTEXT_DEFINED_HEIGHT_BEGIN
1070
    46
1040
9.056967347041775
1000
ACAD_MTEXT_DEFINED_HEIGHT_END
  0
LINE
  5
17C0F
330
13E17
100
AcDbEntity
  8
图框
370
    -3
100
AcDbLine
 10
1093.316110617942
 20
531.3291676047914
 30
0.0
 11
1093.316110617942
 21
495.8417418993347
 31
0.0
1001
AcDbBlockRepETag
1070
     1
1071
       85
1005
17C0F
  0
LINE
  5
17C10
330
13E17
100
AcDbEntity
  8
图框
370
    -3
100
AcDbLine
 10
1047.473969770481
 20
531.3291676047914
 30
0.0
 11
1047.473969770481
 21
507.6708838011533
 31
0.0
1001
AcDbBlockRepETag
1070
     1
1071
       86
1005
17C10
  0
MTEXT
  5
17C11
330
13E17
100
AcDbEntity
  8
图框
100
AcDbMText
 10
1063.72733855235
 20
503.7278365005473
 30
0.0
 40
2.252848170144607
 41
10.82934843439208
 46
7.886094601212128
 71
     5
 72
     5
  1
重量\P{\Fromans|c134;Weight}
 73
     1
 44
1.0
1001
AcDbBlockRepETag
1070
     1
1071
       87
1005
17C11
1001
ACAD
1000
ACAD_MTEXT_DEFINED_HEIGHT_BEGIN
1070
    46
1040
7.886094601212128
1000
ACAD_MTEXT_DEFINED_HEIGHT_END
  0
LINE
  5
17C12
330
13E17
100
AcDbEntity
  8
图框
370
    -3
100
AcDbLine
 10
1036.653967466372
 20
519.5000257029746
 30
0.0
 11
1079.971361203936
 21
519.5000257029746
 31
0.0
1001
AcDbBlockRepETag
1070
     1
1071
       88
1005
17C12
  0
MTEXT
  5
17C13
330
13E17
100
AcDbEntity
  8
图框
100
AcDbMText
 10
1074.556686986741
 20
503.7278365005473
 30
0.0
 40
2.252848170144607
 41
10.82934843438984
 46
7.886094601212141
 71
     5
 72
     5
  1
数量\P{\Fromans|c134;Qty.}
 73
     1
 44
1.0
1001
AcDbBlockRepETag
1070
     1
1071
       89
1005
17C13
1001
ACAD
1000
ACAD_MTEXT_DEFINED_HEIGHT_BEGIN
1070
    46
1040
7.886094601212141
1000
ACAD_MTEXT_DEFINED_HEIGHT_END
  0
LINE
  5
17C14
330
13E17
100
AcDbEntity
  8
图框
370
    -3
100
AcDbLine
 10
1079.971361203936
 20
495.8417418993347
 30
0.0
 11
1126.928502610363
 21
495.8417418993342
 31
0.0
1001
AcDbBlockRepETag
1070
     1
1071
       90
1005
17C14
  0
LINE
  5
17C15
330
13E17
100
AcDbEntity
  8
图框
370
    -3
100
AcDbLine
 10
1079.971361203936
 20
504.7132992040975
 30
0.0
 11
1126.928502610363
 21
504.7132992040975
 31
0.0
1001
AcDbBlockRepETag
1070
     1
1071
       91
1005
17C15
  0
MTEXT
  5
17C16
330
13E17
100
AcDbEntity
  8
图框
100
AcDbMText
 10
1052.893317052817
 20
503.7278365005473
 30
0.0
 40
2.252848170144607
 41
10.83869456467139
 46
7.886094601212101
 71
     5
 72
     5
  1
版本\P{\Fromans|c134;REV.}
 73
     1
 44
1.0
1001
AcDbBlockRepETag
1070
     1
1071
       92
1005
17C16
1001
ACAD
1000
ACAD_MTEXT_DEFINED_HEIGHT_BEGIN
1070
    46
1040
7.886094601212101
1000
ACAD_MTEXT_DEFINED_HEIGHT_END
  0
MTEXT
  5
17C17
330
13E17
100
AcDbEntity
  8
图框
100
AcDbMText
 10
1042.068641683568
 20
503.7278365005473
 30
0.0
 40
2.252848170144607
 41
10.8293484343908
 46
7.886094601212136
 71
     5
 72
     5
  1
比例\P{\Fromans|c134;Scale}
 73
     1
 44
1.0
1001
AcDbBlockRepETag
1070
     1
1071
       93
1005
17C17
1001
ACAD
1000
ACAD_MTEXT_DEFINED_HEIGHT_BEGIN
1070
    46
1040
7.886094601212136
1000
ACAD_MTEXT_DEFINED_HEIGHT_END
  0
LINE
  5
17C18
330
13E17
100
AcDbEntity
  8
图框
370
    -3
100
AcDbLine
 10
1036.653967466372
 20
507.6708838011533
 30
0.0
 11
1079.971361203936
 21
507.6708838011533
 31
0.0
1001
AcDbBlockRepETag
1070
     1
1071
       94
1005
17C18
  0
LINE
  5
17C19
330
13E17
100
AcDbEntity
  8
图框
370
    -3
100
AcDbLine
 10
1036.653967466372
 20
491.8986945987308
 30
0.0
 11
1079.971361203936
 21
491.8986945987308
 31
0.0
1001
AcDbBlockRepETag
1070
     1
1071
       95
1005
17C19
  0
LINE
  5
17C1A
330
13E17
100
AcDbEntity
  8
图框
370
    -3
100
AcDbLine
 10
1079.971361203936
 20
531.3291676047914
 30
0.0
 11
1079.971361203936
 21
484.0125999975168
 31
0.0
1001
AcDbBlockRepETag
1070
     1
1071
       96
1005
17C1A
  0
MTEXT
  5
17C1B
330
13E17
100
AcDbEntity
  8
图框
100
AcDbMText
 10
1042.063968618426
 20
525.4145966538832
 30
0.0
 40
2.252848170144607
 41
10.82000230410933
 46
11.82914190181708
 71
     5
 72
     5
  1
表面处理\P{\Fromans|c134;Finish}
 73
     1
 44
1.0
1001
AcDbBlockRepETag
1070
     1
1071
       97
1005
17C1B
1001
ACAD
1000
ACAD_MTEXT_DEFINED_HEIGHT_BEGIN
1070
    46
1040
11.82914190181708
1000
ACAD_MTEXT_DEFINED_HEIGHT_END
  0
MTEXT
  5
17C1C
330
13E17
100
AcDbEntity
  8
图框
100
AcDbMText
 10
1042.063968618426
 20
513.5854547520639
 30
0.0
 40
2.252848170144607
 41
10.82000230410933
 46
11.8291419018212
 71
     5
 72
     5
  1
材料\P{\Fromans|c134;Material}
 73
     1
 44
1.0
1001
AcDbBlockRepETag
1070
     1
1071
       98
1005
17C1C
1001
ACAD
1000
ACAD_MTEXT_DEFINED_HEIGHT_BEGIN
1070
    46
1040
11.8291419018212
1000
ACAD_MTEXT_DEFINED_HEIGHT_END
  0
LINE
  5
17C1D
330
13E17
100
AcDbEntity
  8
图框
370
    -3
100
AcDbLine
 10
1079.971361203936
 20
522.27220025775
 30
0.0
 11
1126.928502610363
 21
522.27220025775
 31
0.0
1001
AcDbBlockRepETag
1070
     1
1071
       99
1005
17C1D
  0
LINE
  5
17C1E
330
13E17
100
AcDbEntity
  8
图框
370
    -3
100
AcDbLine
 10
1079.971361203936
 20
513.5854547520641
 30
0.0
 11
1126.928502610363
 21
513.5854547520639
 31
0.0
1001
AcDbBlockRepETag
1070
     1
1071
      100
1005
17C1E
  0
MTEXT
  5
17C1F
330
13E17
100
AcDbEntity
  8
图框
100
AcDbMText
 10
1086.643735910939
 20
517.9288275049072
 30
0.0
 40
1.958998408821398
 41
13.34474941400573
 46
8.686745505685811
 71
     5
 72
     5
  1
产品代号\P{\Fromans|c134;Part Code}
 73
     1
 44
1.0
1001
AcDbBlockRepETag
1070
     1
1071
      101
1005
17C1F
1001
ACAD
1000
ACAD_MTEXT_DEFINED_HEIGHT_BEGIN
1070
    46
1040
8.686745505685811
1000
ACAD_MTEXT_DEFINED_HEIGHT_END
  0
LINE
  5
17C20
330
13E17
100
AcDbEntity
  8
图框
370
    -3
100
AcDbLine
 10
946.9285026103634
 20
525.7982263931411
 30
0.0
 11
1036.653967466372
 21
525.7982263931411
 31
0.0
1001
AcDbBlockRepETag
1070
     1
1071
      102
1005
17C20
  0
LINE
  5
17C21
330
13E17
100
AcDbEntity
  8
图框
370
    -3
100
AcDbLine
 10
946.9285026103634
 20
520.2672851814959
 30
0.0
 11
1036.653967466372
 21
520.2672851814959
 31
0.0
1001
AcDbBlockRepETag
1070
     1
1071
      103
1005
17C21
  0
LINE
  5
17C22
330
13E17
100
AcDbEntity
  8
图框
370
    35
100
AcDbLine
 10
946.9285026103634
 20
531.3291676047914
 30
0.0
 11
1126.928502610363
 21
531.3291676047914
 31
0.0
1001
AcDbBlockRepETag
1070
     1
1071
      104
1005
17C22
  0
LINE
  5
17C23
330
13E17
100
AcDbEntity
  8
图框
370
    -3
100
AcDbLine
 10
990.6727612856927
 20
509.2054027581959
 30
0.0
 11
990.6727612856927
 21
484.0347692601515
 31
0.0
1001
AcDbBlockRepETag
1070
     1
1071
      105
1005
17C23
  0
MTEXT
  5
17C24
102
{ACAD_XDICTIONARY
360
17C86
102
}
330
13E17
100
AcDbEntity
  8
图框
100
AcDbMText
 10
997.1628169651232
 20
499.816589978722
 30
0.0
 40
2.252848170144607
 41
12.98011135886052
 46
6.19230880992475
 71
     5
 72
     5
  1
{\fSimSun|b0|i0|c134|p2;标准化}\PStand.
  7
Romans字体
 73
     1
 44
1.0
1001
AcDbBlockRepETag
1070
     1
1071
      106
1005
17C24
1001
ACAD
1000
ACAD_MTEXT_DEFINED_HEIGHT_BEGIN
1070
    46
1040
6.19230880992475
1000
ACAD_MTEXT_DEFINED_HEIGHT_END
  0
LINE
  5
17C25
330
13E17
100
AcDbEntity
  8
图框
370
    -3
100
AcDbLine
 10
975.4103773808022
 20
509.2054027581959
 30
0.0
 11
975.4103773808022
 21
484.0347692601515
 31
0.0
1001
AcDbBlockRepETag
1070
     1
1071
      107
1005
17C25
  0
MTEXT
  5
17C26
330
13E17
100
AcDbEntity
  8
图框
100
AcDbMText
 10
984.5089229802068
 20
511.9708733640202
 30
0.0
 40
2.448748011026752
 41
38.287899328693
 46
5.530941211648832
 71
     5
 72
     5
  1
  变更描述{\Fromans|c134;/Description}
 73
     1
 44
1.0
1001
AcDbBlockRepETag
1070
     1
1071
      108
1005
17C26
1001
ACAD
1000
ACAD_MTEXT_DEFINED_HEIGHT_BEGIN
1070
    46
1040
5.530941211648832
1000
ACAD_MTEXT_DEFINED_HEIGHT_END
  0
MTEXT
  5
17C27
102
{ACAD_XDICTIONARY
360
17C88
102
}
330
13E17
100
AcDbEntity
  8
图框
100
AcDbMText
 10
1012.477254728976
 20
511.9708733640202
 30
0.0
 40
1.958998408821398
 41
17.64876416884548
 46
5.530941211649166
 71
     5
 72
     5
  1
签名\P{\Fromans|c134;Signature} 
 73
     1
 44
1.0
1001
AcDbBlockRepETag
1070
     1
1071
      109
1005
17C27
1001
ACAD
1000
ACAD_MTEXT_DEFINED_HEIGHT_BEGIN
1070
    46
1040
5.530941211649166
1000
ACAD_MTEXT_DEFINED_HEIGHT_END
  0
MTEXT
  5
17C28
102
{ACAD_XDICTIONARY
360
17C8A
102
}
330
13E17
100
AcDbEntity
  8
图框
100
AcDbMText
 10
960.7558556394856
 20
511.9708733640202
 30
0.0
 40
1.958998408821398
 41
9.218235352749283
 46
5.530941211648841
 71
     5
 72
     5
  1
处数\P{\Fromans|c134;Number }
 73
     1
 44
1.0
1001
AcDbBlockRepETag
1070
     1
1071
      110
1005
17C28
1001
ACAD
1000
ACAD_MTEXT_DEFINED_HEIGHT_BEGIN
1070
    46
1040
5.530941211648841
1000
ACAD_MTEXT_DEFINED_HEIGHT_END
  0
LINE
  5
17C29
330
13E17
100
AcDbEntity
  8
图框
370
    -3
100
AcDbLine
 10
946.9285026103634
 20
514.7363439698449
 30
0.0
 11
1036.653967466372
 21
514.7363439698449
 31
0.0
1001
AcDbBlockRepETag
1070
     1
1071
      111
1005
17C29
  0
LINE
  5
17C2A
330
13E17
100
AcDbEntity
  8
图框
370
    -3
100
AcDbLine
 10
946.9285026103634
 20
509.2054027581959
 30
0.0
 11
1036.653967466372
 21
509.2054027581959
 31
0.0
1001
AcDbBlockRepETag
1070
     1
1071
      112
1005
17C2A
  0
LINE
  5
17C2B
330
13E17
100
AcDbEntity
  8
图框
370
    -3
100
AcDbLine
 10
946.9285026103634
 20
502.9127443836848
 30
0.0
 11
1036.653967466372
 21
502.9127443836848
 31
0.0
1001
AcDbBlockRepETag
1070
     1
1071
      113
1005
17C2B
  0
LINE
  5
17C2C
330
13E17
100
AcDbEntity
  8
图框
370
    -3
100
AcDbLine
 10
946.9285026103634
 20
496.620086009173
 30
0.0
 11
1036.653967466372
 21
496.620086009173
 31
0.0
1001
AcDbBlockRepETag
1070
     1
1071
      114
1005
17C2C
  0
LINE
  5
17C2D
330
13E17
100
AcDbEntity
  8
图框
370
    35
380
     1
100
AcDbLine
 10
946.9285026103634
 20
531.3291676047914
 30
0.0
 11
946.9285026103634
 21
484.0347692601515
 31
0.0
1001
AcDbBlockRepETag
1070
     1
1071
      115
1005
17C2D
  0
LINE
  5
17C2E
330
13E17
100
AcDbEntity
  8
图框
370
    -3
100
AcDbLine
 10
1021.301636813399
 20
531.3291676047914
 30
0.0
 11
1021.301636813399
 21
484.0347692601515
 31
0.0
1001
AcDbBlockRepETag
1070
     1
1071
      116
1005
17C2E
  0
LINE
  5
17C2F
330
13E17
100
AcDbEntity
  8
图框
370
    -3
100
AcDbLine
 10
1003.652872644553
 20
531.3291676047914
 30
0.0
 11
1003.652872644553
 21
484.0347692601515
 31
0.0
1001
AcDbBlockRepETag
1070
     1
1071
      117
1005
17C2F
  0
LINE
  5
17C30
330
13E17
100
AcDbEntity
  8
图框
370
    -3
100
AcDbLine
 10
965.3649733158603
 20
531.3291676047914
 30
0.0
 11
965.3649733158603
 21
509.2054027581959
 31
0.0
1001
AcDbBlockRepETag
1070
     1
1071
      118
1005
17C30
  0
LINE
  5
17C31
330
13E17
100
AcDbEntity
  8
图框
370
    -3
100
AcDbLine
 10
956.1467379631109
 20
531.3291676047914
 30
0.0
 11
956.1467379631109
 21
509.2054027581959
 31
0.0
1001
AcDbBlockRepETag
1070
     1
1071
      119
1005
17C31
  0
MTEXT
  5
17C32
102
{ACAD_XDICTIONARY
360
17C8C
102
}
330
13E17
100
AcDbEntity
  8
图框
100
AcDbMText
 10
951.537620286737
 20
511.9708733640202
 30
0.0
 40
1.958998408821398
 41
9.218235352747692
 46
5.530941211648832
 71
     5
 72
     5
  1
标记\P{\Fromans|c134;Mark}
 73
     1
 44
1.0
1001
AcDbBlockRepETag
1070
     1
1071
      120
1005
17C32
1001
ACAD
1000
ACAD_MTEXT_DEFINED_HEIGHT_BEGIN
1070
    46
1040
5.530941211648832
1000
ACAD_MTEXT_DEFINED_HEIGHT_END
  0
MTEXT
  5
17C33
102
{ACAD_XDICTIONARY
360
17C8E
102
}
330
13E17
100
AcDbEntity
  8
图框
100
AcDbMText
 10
953.4185582897936
 20
493.4737568219182
 30
0.0
 40
2.252848170144607
 41
12.98011135886041
 46
6.292658374510382
 71
     5
 72
     5
  1
审核\P{\Fromans|c134;Checked}
 73
     1
 44
1.0
1001
AcDbBlockRepETag
1070
     1
1071
      121
1005
17C33
1001
ACAD
1000
ACAD_MTEXT_DEFINED_HEIGHT_BEGIN
1070
    46
1040
6.292658374510382
1000
ACAD_MTEXT_DEFINED_HEIGHT_END
  0
MTEXT
  5
17C34
102
{ACAD_XDICTIONARY
360
17C90
102
}
330
13E17
100
AcDbEntity
  8
图框
100
AcDbMText
 10
953.4185582897936
 20
499.8775635376777
 30
0.0
 40
2.252848170144607
 41
12.98011135886041
 46
6.070361692014189
 71
     5
 72
     5
  1
绘图\P{\Fromans|c134;Drawn\Ftxt|c134; }
 73
     1
 44
1.0
1001
AcDbBlockRepETag
1070
     1
1071
      122
1005
17C34
1001
ACAD
1000
ACAD_MTEXT_DEFINED_HEIGHT_BEGIN
1070
    46
1040
6.070361692014189
1000
ACAD_MTEXT_DEFINED_HEIGHT_END
  0
ARC
  5
17C35
330
13E17
100
AcDbEntity
  8
图框
 62
     4
370
    35
100
AcDbCircle
 10
1086.900627017421
 20
490.0179944151195
 30
0.0
 40
4.063310408393665
100
AcDbArc
 50
18.95237904564806
 51
161.0476209543519
1001
AcDbBlockRepETag
1070
     1
1071
      123
1005
17C35
  0
ARC
  5
17C36
330
13E17
100
AcDbEntity
  8
图框
 62
     4
370
    35
100
AcDbCircle
 10
1086.900627017421
 20
490.0179944151195
 30
0.0
 40
4.063310408393665
100
AcDbArc
 50
198.952379045648
 51
341.0476209543519
1001
AcDbBlockRepETag
1070
     1
1071
      124
1005
17C36
  0
LINE
  5
17C37
330
13E17
100
AcDbEntity
  8
图框
 62
     4
370
    35
100
AcDbLine
 10
1083.057593369548
 20
488.6983035966752
 30
0.0
 11
1090.74366066529
 21
488.6983035966752
 31
0.0
1001
AcDbBlockRepETag
1070
     1
1071
      125
1005
17C37
  0
LINE
  5
17C38
330
13E17
100
AcDbEntity
  8
图框
 62
     4
370
    35
100
AcDbLine
 10
1083.057593369548
 20
491.3376852335652
 30
0.0
 11
1090.74366066529
 21
491.3376852335652
 31
0.0
1001
AcDbBlockRepETag
1070
     1
1071
      126
1005
17C38
  0
MTEXT
  5
17C39
330
13E17
100
AcDbEntity
  8
图框
 62
     1
370
    20
100
AcDbMText
 10
1083.034582879669
 20
491.0506288081688
 30
0.0
 40
2.005930044038334
 41
5.047240019334847
 46
0.0
 71
     1
 72
     5
  1
{\fArial|b0|i0|c0|p34;W}
  7
Chinese
 73
     1
 44
1.0
1001
AcDbBlockRepETag
1070
     1
1071
      127
1005
17C39
  0
LINE
  5
17C3A
330
13E17
100
AcDbEntity
  8
图框
370
    -3
100
AcDbLine
 10
946.9285026103634
 20
490.327427634663
 30
0.0
 11
1036.653967466372
 21
490.327427634663
 31
0.0
1001
AcDbBlockRepETag
1070
     1
1071
      128
1005
17C3A
  0
LINE
  5
17C3B
330
13E17
100
AcDbEntity
  8
图框
370
    -3
100
AcDbLine
 10
959.9086139692238
 20
509.2054027581959
 30
0.0
 11
959.9086139692238
 21
484.0347692601515
 31
0.0
1001
AcDbBlockRepETag
1070
     1
1071
      129
1005
17C3B
  0
MTEXT
  5
17C3C
330
13E17
100
AcDbEntity
  8
图框
100
AcDbMText
 10
967.6594956750129
 20
506.0590735709403
 30
0.0
 40
2.252848170144607
 41
15.50176341157869
 46
6.292658374511246
 71
     5
 72
     5
  1
姓名{\Fromans|c134;/Name\Ftxt|c134; }
 73
     1
 44
1.0
1001
AcDbBlockRepETag
1070
     1
1071
      130
1005
17C3C
1001
ACAD
1000
ACAD_MTEXT_DEFINED_HEIGHT_BEGIN
1070
    46
1040
6.292658374511246
1000
ACAD_MTEXT_DEFINED_HEIGHT_END
  0
MTEXT
  5
17C3D
330
13E17
100
AcDbEntity
  8
图框
100
AcDbMText
 10
983.0415693332477
 20
506.0590735709403
 30
0.0
 40
2.252848170144607
 41
15.26238390489042
 46
6.2926583745112
 71
     5
 72
     5
  1
日期{\Fromans|c134;/Date}
 73
     1
 44
1.0
1001
AcDbBlockRepETag
1070
     1
1071
      131
1005
17C3D
1001
ACAD
1000
ACAD_MTEXT_DEFINED_HEIGHT_BEGIN
1070
    46
1040
6.2926583745112
1000
ACAD_MTEXT_DEFINED_HEIGHT_END
  0
LINE
  5
17C3E
330
13E17
100
AcDbEntity
  8
图框
370
    -3
100
AcDbLine
 10
946.9285026103634
 20
509.2054027581959
 30
0.0
 11
959.9086139692238
 21
502.9127443836848
 31
0.0
1001
AcDbBlockRepETag
1070
     1
1071
      132
1005
17C3E
  0
MTEXT
  5
17C3F
330
13E17
100
AcDbEntity
  8
图框
100
AcDbMText
 10
1012.931405110086
 20
506.0185715840725
 30
0.0
 40
2.252848170144607
 41
16.93492221063566
 46
0.0
 71
     5
 72
     5
  1
姓名{\Fromans|c134;/Name}
 73
     1
 44
1.0
1001
AcDbBlockRepETag
1070
     1
1071
      133
1005
17C3F
  0
MTEXT
  5
17C40
330
13E17
100
AcDbEntity
  8
图框
100
AcDbMText
 10
1028.977802139886
 20
506.0590735709403
 30
0.0
 40
2.252848170144607
 41
15.35233065297283
 46
6.292658374511256
 71
     5
 72
     5
  1
日期{\Fromans|c134;/Date}
 73
     1
 44
1.0
1001
AcDbBlockRepETag
1070
     1
1071
      134
1005
17C40
1001
ACAD
1000
ACAD_MTEXT_DEFINED_HEIGHT_BEGIN
1070
    46
1040
6.292658374511256
1000
ACAD_MTEXT_DEFINED_HEIGHT_END
  0
LINE
  5
17C41
330
13E17
100
AcDbEntity
  8
图框
370
    -3
100
AcDbLine
 10
1003.652872644553
 20
502.9127443836848
 30
0.0
 11
990.6727612856927
 21
509.2054027581959
 31
0.0
1001
AcDbBlockRepETag
1070
     1
1071
      135
1005
17C41
  0
MTEXT
  5
17C42
102
{ACAD_XDICTIONARY
360
17C92
102
}
330
13E17
100
AcDbEntity
  8
图框
100
AcDbMText
 10
997.1628169651232
 20
487.1810984474071
 30
0.0
 40
2.252848170144607
 41
12.98011135886052
 46
6.292658374511517
 71
     5
 72
     5
  1
批准\P{\Fromans|c134;Approved}
 73
     1
 44
1.0
1001
AcDbBlockRepETag
1070
     1
1071
      136
1005
17C42
1001
ACAD
1000
ACAD_MTEXT_DEFINED_HEIGHT_BEGIN
1070
    46
1040
6.292658374511517
1000
ACAD_MTEXT_DEFINED_HEIGHT_END
  0
MTEXT
  5
17C43
102
{ACAD_XDICTIONARY
360
17C94
102
}
330
13E17
100
AcDbEntity
  8
图框
100
AcDbMText
 10
953.4185582897936
 20
487.1810984474071
 30
0.0
 40
2.252848170144607
 41
12.98011135886041
 46
6.292658374511495
 71
     5
 72
     5
  1
工艺\P{\Fromans|c134;Process}
 73
     1
 44
1.0
1001
AcDbBlockRepETag
1070
     1
1071
      137
1005
17C43
1001
ACAD
1000
ACAD_MTEXT_DEFINED_HEIGHT_BEGIN
1070
    46
1040
6.292658374511495
1000
ACAD_MTEXT_DEFINED_HEIGHT_END
  0
MTEXT
  5
17C44
102
{ACAD_XDICTIONARY
360
17C96
102
}
330
13E17
100
AcDbEntity
  8
图框
100
AcDbMText
 10
1028.977802139886
 20
511.9708733640202
 30
0.0
 40
1.958998408821398
 41
15.35233065297235
 46
5.530941211648913
 71
     5
 72
     5
  1
日期\P{\Fromans|c134;Date}
 73
     1
 44
1.0
1001
AcDbBlockRepETag
1070
     1
1071
      138
1005
17C44
1001
ACAD
1000
ACAD_MTEXT_DEFINED_HEIGHT_BEGIN
1070
    46
1040
5.530941211648913
1000
ACAD_MTEXT_DEFINED_HEIGHT_END
  0
MTEXT
  5
17C45
330
13E17
100
AcDbEntity
  8
图框
100
AcDbMText
 10
1086.643735910939
 20
509.1493769780809
 30
0.0
 40
2.154898249703542
 41
13.34474941400573
 46
8.87215554796615
 71
     5
 72
     5
  1
产品料号\P{\Fromans|c134;Part No.}
 73
     1
 44
1.0
1001
AcDbBlockRepETag
1070
     1
1071
      139
1005
17C45
1001
ACAD
1000
ACAD_MTEXT_DEFINED_HEIGHT_BEGIN
1070
    46
1040
8.87215554796615
1000
ACAD_MTEXT_DEFINED_HEIGHT_END
  0
MTEXT
  5
17C46
330
13E17
100
AcDbEntity
  8
图框
100
AcDbMText
 10
1086.643735910939
 20
500.2775205517163
 30
0.0
 40
1.958998408821398
 41
13.34474941400573
 46
8.871557304763321
 71
     5
 72
     5
  1
产品名称\P{\Fromans|c134;Part Name}
 73
     1
 44
1.0
1001
AcDbBlockRepETag
1070
     1
1071
      140
1005
17C46
1001
ACAD
1000
ACAD_MTEXT_DEFINED_HEIGHT_BEGIN
1070
    46
1040
8.871557304763321
1000
ACAD_MTEXT_DEFINED_HEIGHT_END
  0
LINE
  5
17C47
330
13E17
100
AcDbEntity
  8
图框
 62
     1
370
    18
100
AcDbLine
 10
833.4128518455365
 20
690.5347692601515
 30
0.0
 11
833.4128518455365
 21
480.5347692601515
 31
0.0
1001
AcDbBlockRepETag
1070
     1
1071
      141
1005
17C47
  0
LINE
  5
17C48
330
13E17
100
AcDbEntity
  8
图框
 62
     1
370
    18
100
AcDbLine
 10
833.4128518455365
 20
480.5347692601515
 30
0.0
 11
1130.411601781236
 21
480.5347692601515
 31
0.0
1001
AcDbBlockRepETag
1070
     1
1071
      142
1005
17C48
  0
LINE
  5
17C49
330
13E17
100
AcDbEntity
  8
图框
 62
     1
370
    18
100
AcDbLine
 10
833.4128518455365
 20
690.5347692601515
 30
0.0
 11
1130.411601781236
 21
690.5347692601515
 31
0.0
1001
AcDbBlockRepETag
1070
     1
1071
      143
1005
17C49
  0
LINE
  5
17C4A
330
13E17
100
AcDbEntity
  8
图框
 62
     1
370
    18
100
AcDbLine
 10
1130.411601781236
 20
480.5347692601515
 30
0.0
 11
1130.411601781236
 21
690.5347692601515
 31
0.0
1001
AcDbBlockRepETag
1070
     1
1071
      144
1005
17C4A
  0
LINE
  5
17C4B
330
13E17
100
AcDbEntity
  8
图框
370
    18
100
AcDbLine
 10
836.9128518455394
 20
686.7901958362482
 30
0.0
 11
861.5351874539182
 21
686.7901958362482
 31
0.0
1001
AcDbBlockRepETag
1070
     1
1071
      145
1005
17C4B
  0
LINE
  5
17C4C
330
13E17
100
AcDbEntity
  8
图框
370
    50
100
AcDbLine
 10
1126.928502610363
 20
484.3410054693078
 30
0.0
 11
1126.928502610363
 21
675.5347692601515
 31
0.0
1001
AcDbBlockRepETag
1070
     1
1071
      146
1005
17C4C
  0
MTEXT
  5
17C4D
330
13E17
100
AcDbEntity
  8
图框
 62
     3
100
AcDbMText
 10
1052.897990117958
 20
495.8417418993364
 30
0.0
 40
2.985513575034151
 41
10.82934843439114
 46
7.886094601211307
 71
     5
 72
     5
  1
V1.1
  7
Romans字体
 73
     1
 44
1.0
1001
AcDbBlockRepETag
1070
     1
1071
      147
1005
17C4D
1001
ACAD
1000
ACAD_MTEXT_DEFINED_HEIGHT_BEGIN
1070
    46
1040
7.886094601211307
1000
ACAD_MTEXT_DEFINED_HEIGHT_END
  0
LINE
  5
17C4E
330
13E17
100
AcDbEntity
  8
图框
 62
     6
100
AcDbLine
 10
1126.911601781236
 20
531.714049199969
 30
0.0
 11
1130.411601781236
 21
531.714049199969
 31
0.0
1001
AcDbBlockRepETag
1070
     1
1071
      148
1005
17C4E
  0
ENDBLK
  5
13EAE
330
13E17
100
AcDbEntity
  8
0
100
AcDbBlockEnd
  0
BLOCK
  5
177EB
330
177EA
100
AcDbEntity
  8
0
100
AcDbBlockBegin
  2
*D2
 70
     1
 10
0.0
 20
0.0
 30
0.0
  3
*D2
  1

  0
LINE
  5
17B2D
330
177EA
100
AcDbEntity
  8
DIM
 62
     6
370
    -2
100
AcDbLine
 10
594.2307877319238
 20
239.7002397765424
 30
0.0
 11
592.8950889604499
 21
239.7002397765424
 31
0.0
  0
LINE
  5
17B2E
330
177EA
100
AcDbEntity
  8
DIM
 62
     6
370
    -2
100
AcDbLine
 10
594.2307877319238
 20
228.199926311765
 30
0.0
 11
592.8950889604499
 21
228.199926311765
 31
0.0
  0
LINE
  5
17B2F
330
177EA
100
AcDbEntity
  8
DIM
 62
     1
370
    -2
100
AcDbLine
 10
593.3950889604499
 20
229.6999263117649
 30
0.0
 11
593.3950889604499
 21
238.2002397765424
 31
0.0
  0
LINE
  5
17B30
330
177EA
100
AcDbEntity
  8
DIM
 62
     1
370
    -2
100
AcDbLine
 10
593.3950889604499
 20
239.7002397765424
 30
0.0
 11
593.3950889604499
 21
247.7288112051138
 31
0.0
  0
SOLID
  5
17B31
330
177EA
100
AcDbEntity
  8
DIM
 62
     1
100
AcDbTrace
 10
593.1450889604499
 20
229.6999263117649
 30
0.0
 11
593.6450889604499
 21
229.6999263117649
 31
0.0
 12
593.3950889604499
 22
228.199926311765
 32
0.0
 13
593.3950889604499
 23
228.199926311765
 33
0.0
  0
SOLID
  5
17B32
330
177EA
100
AcDbEntity
  8
DIM
 62
     1
100
AcDbTrace
 10
593.1450889604499
 20
238.2002397765424
 30
0.0
 11
593.6450889604499
 21
238.2002397765424
 31
0.0
 12
593.3950889604499
 22
239.7002397765424
 32
0.0
 13
593.3950889604499
 23
239.7002397765424
 33
0.0
  0
MTEXT
  5
17B33
330
177EA
100
AcDbEntity
  8
DIM
 62
     4
100
AcDbMText
 10
592.0950889604499
 20
244.4645254908282
 30
0.0
 40
2.0
 41
0.0
 46
0.0
 71
     5
 72
     1
  1
\A1;%%C11.5
  7
Romans字体
 11
0.0000000000000001
 21
1.0
 31
0.0
 73
     1
 44
1.0
  0
POINT
  5
17B34
330
177EA
100
AcDbEntity
  8
Defpoints
 62
     0
100
AcDbPoint
 10
594.4307877319237
 20
239.7002397765424
 30
0.0
  0
POINT
  5
17B35
330
177EA
100
AcDbEntity
  8
Defpoints
 62
     0
100
AcDbPoint
 10
594.4307877319237
 20
228.199926311765
 30
0.0
  0
POINT
  5
17B36
330
177EA
100
AcDbEntity
  8
Defpoints
 62
     0
100
AcDbPoint
 10
593.3950889604499
 20
228.199926311765
 30
0.0
  0
ENDBLK
  5
177EC
330
177EA
100
AcDbEntity
  8
0
100
AcDbBlockEnd
  0
BLOCK
  5
177F8
330
177F7
100
AcDbEntity
  8
0
100
AcDbBlockBegin
  2
*D3
 70
     1
 10
0.0
 20
0.0
 30
0.0
  3
*D3
  1

  0
LINE
  5
17B37
330
177F7
100
AcDbEntity
  8
DIM
 62
     6
370
    -2
100
AcDbLine
 10
578.5798793198487
 20
239.700083044137
 30
0.0
 11
575.8176149303751
 21
239.700083044137
 31
0.0
  0
LINE
  5
17B38
330
177F7
100
AcDbEntity
  8
DIM
 62
     6
370
    -2
100
AcDbLine
 10
578.5798793198487
 20
228.200083044137
 30
0.0
 11
575.8176149303751
 21
228.200083044137
 31
0.0
  0
LINE
  5
17B39
330
177F7
100
AcDbEntity
  8
DIM
 62
     1
370
    -2
100
AcDbLine
 10
576.3176149303752
 20
238.200083044137
 30
0.0
 11
576.3176149303752
 21
229.700083044137
 31
0.0
  0
SOLID
  5
17B3A
330
177F7
100
AcDbEntity
  8
DIM
 62
     1
100
AcDbTrace
 10
576.0676149303754
 20
238.200083044137
 30
0.0
 11
576.5676149303754
 21
238.200083044137
 31
0.0
 12
576.3176149303752
 22
239.700083044137
 32
0.0
 13
576.3176149303752
 23
239.700083044137
 33
0.0
  0
SOLID
  5
17B3B
330
177F7
100
AcDbEntity
  8
DIM
 62
     1
100
AcDbTrace
 10
576.0676149303754
 20
229.700083044137
 30
0.0
 11
576.5676149303754
 21
229.700083044137
 31
0.0
 12
576.3176149303752
 22
228.200083044137
 32
0.0
 13
576.3176149303752
 23
228.200083044137
 33
0.0
  0
MTEXT
  5
17B3C
330
177F7
100
AcDbEntity
  8
DIM
 62
     4
100
AcDbMText
 10
575.0176149303752
 20
233.9500830441372
 30
0.0
 40
2.0
 41
0.0
 46
0.0
 71
     5
 72
     1
  1
\A1;%%C11.5
  7
Romans字体
 11
0.0000000000000001
 21
1.0
 31
0.0
 73
     1
 44
1.0
  0
POINT
  5
17B3D
330
177F7
100
AcDbEntity
  8
Defpoints
 62
     0
100
AcDbPoint
 10
578.7798793198488
 20
239.700083044137
 30
0.0
  0
POINT
  5
17B3E
330
177F7
100
AcDbEntity
  8
Defpoints
 62
     0
100
AcDbPoint
 10
578.7798793198488
 20
228.200083044137
 30
0.0
  0
POINT
  5
17B3F
330
177F7
100
AcDbEntity
  8
Defpoints
 62
     0
100
AcDbPoint
 10
576.3176149303752
 20
228.200083044137
 30
0.0
  0
ENDBLK
  5
177F9
330
177F7
100
AcDbEntity
  8
0
100
AcDbBlockEnd
  0
BLOCK
  5
17812
330
17811
100
AcDbEntity
  8
0
100
AcDbBlockBegin
  2
*D4
 70
     1
 10
0.0
 20
0.0
 30
0.0
  3
*D4
  1

  0
LINE
  5
17B40
330
17811
100
AcDbEntity
  8
DIM
 62
     6
370
    -2
100
AcDbLine
 10
578.7798793198488
 20
255.7873985069462
 30
0.0
 11
578.7798793198488
 21
251.5766650281305
 31
0.0
  0
LINE
  5
17B41
330
17811
100
AcDbEntity
  8
DIM
 62
     6
370
    -2
100
AcDbLine
 10
594.2803018158537
 20
258.0374598370113
 30
0.0
 11
594.2803018158537
 21
251.5766650281305
 31
0.0
  0
LINE
  5
17B42
330
17811
100
AcDbEntity
  8
DIM
 62
     1
370
    -2
100
AcDbLine
 10
580.279879319849
 20
252.0766650281305
 30
0.0
 11
592.7803018158536
 21
252.0766650281305
 31
0.0
  0
SOLID
  5
17B43
330
17811
100
AcDbEntity
  8
DIM
 62
     1
100
AcDbTrace
 10
580.279879319849
 20
252.3266650281305
 30
0.0
 11
580.279879319849
 21
251.8266650281305
 31
0.0
 12
578.7798793198488
 22
252.0766650281305
 32
0.0
 13
578.7798793198488
 23
252.0766650281305
 33
0.0
  0
SOLID
  5
17B44
330
17811
100
AcDbEntity
  8
DIM
 62
     1
100
AcDbTrace
 10
592.7803018158536
 20
252.3266650281305
 30
0.0
 11
592.7803018158536
 21
251.8266650281305
 31
0.0
 12
594.2803018158537
 22
252.0766650281305
 32
0.0
 13
594.2803018158537
 23
252.0766650281305
 33
0.0
  0
MTEXT
  5
17B45
330
17811
100
AcDbEntity
  8
DIM
 62
     4
100
AcDbMText
 10
586.5300905678513
 20
253.3766650281305
 30
0.0
 40
2.0
 41
0.0
 46
0.0
 71
     5
 72
     1
  1
\A1;15.5
  7
Romans字体
 73
     1
 44
1.0
  0
POINT
  5
17B46
330
17811
100
AcDbEntity
  8
Defpoints
 62
     0
100
AcDbPoint
 10
578.7798793198488
 20
255.9873985069462
 30
0.0
  0
POINT
  5
17B47
330
17811
100
AcDbEntity
  8
Defpoints
 62
     0
100
AcDbPoint
 10
594.2803018158537
 20
258.2374598370113
 30
0.0
  0
POINT
  5
17B48
330
17811
100
AcDbEntity
  8
Defpoints
 62
     0
100
AcDbPoint
 10
594.2803018158537
 20
252.0766650281305
 30
0.0
  0
ENDBLK
  5
17813
330
17811
100
AcDbEntity
  8
0
100
AcDbBlockEnd
  0
BLOCK
  5
178AF
330
178AE
100
AcDbEntity
  8
0
100
AcDbBlockBegin
  2
*D5
 70
     1
 10
0.0
 20
0.0
 30
0.0
  3
*D5
  1

  0
LINE
  5
17B49
330
178AE
100
AcDbEntity
  8
DIM
 62
     6
370
    -2
100
AcDbLine
 10
592.5802609291434
 20
238.600209792955
 30
0.0
 11
588.3198144814109
 21
238.600209792955
 31
0.0
  0
LINE
  5
17B4A
330
178AE
100
AcDbEntity
  8
DIM
 62
     6
370
    -2
100
AcDbLine
 10
592.5802609291434
 20
229.2999562953524
 30
0.0
 11
588.3198144814109
 21
229.2999562953524
 31
0.0
  0
LINE
  5
17B4B
330
178AE
100
AcDbEntity
  8
DIM
 62
     1
370
    -2
100
AcDbLine
 10
588.819814481411
 20
237.100209792955
 30
0.0
 11
588.819814481411
 21
230.7999562953524
 31
0.0
  0
SOLID
  5
17B4C
330
178AE
100
AcDbEntity
  8
DIM
 62
     1
100
AcDbTrace
 10
588.5698144814109
 20
237.100209792955
 30
0.0
 11
589.0698144814109
 21
237.100209792955
 31
0.0
 12
588.819814481411
 22
238.600209792955
 32
0.0
 13
588.819814481411
 23
238.600209792955
 33
0.0
  0
SOLID
  5
17B4D
330
178AE
100
AcDbEntity
  8
DIM
 62
     1
100
AcDbTrace
 10
588.5698144814109
 20
230.7999562953524
 30
0.0
 11
589.0698144814109
 21
230.7999562953524
 31
0.0
 12
588.819814481411
 22
229.2999562953524
 32
0.0
 13
588.819814481411
 23
229.2999562953524
 33
0.0
  0
MTEXT
  5
17B4E
330
178AE
100
AcDbEntity
  8
DIM
 62
     4
100
AcDbMText
 10
587.519814481411
 20
233.9500834655849
 30
0.0
 40
2.0
 41
0.0
 46
0.0
 71
     5
 72
     1
  1
\A1;%%C9.3
  7
Romans字体
 11
0.0000000000000001
 21
1.0
 31
0.0
 73
     1
 44
1.0
  0
POINT
  5
17B4F
330
178AE
100
AcDbEntity
  8
Defpoints
 62
     0
100
AcDbPoint
 10
592.7802609291432
 20
238.600209792955
 30
0.0
  0
POINT
  5
17B50
330
178AE
100
AcDbEntity
  8
Defpoints
 62
     0
100
AcDbPoint
 10
592.7802609291432
 20
229.2999562953524
 30
0.0
  0
POINT
  5
17B51
330
178AE
100
AcDbEntity
  8
Defpoints
 62
     0
100
AcDbPoint
 10
588.819814481411
 20
229.2999562953524
 30
0.0
  0
ENDBLK
  5
178B0
330
178AE
100
AcDbEntity
  8
0
100
AcDbBlockEnd
  0
BLOCK
  5
178F6
330
178F5
100
AcDbEntity
  8
0
100
AcDbBlockBegin
  2
*D6
 70
     1
 10
0.0
 20
0.0
 30
0.0
  3
*D6
  1

  0
LINE
  5
17B52
330
178F5
100
AcDbEntity
  8
DIM
 62
     6
370
    -2
100
AcDbLine
 10
578.7798793198488
 20
229.2209864804399
 30
0.0
 11
578.7798793198488
 21
221.7709336539817
 31
0.0
  0
LINE
  5
17B53
330
178F5
100
AcDbEntity
  8
DIM
 62
     6
370
    -2
100
AcDbLine
 10
613.7802781866694
 20
232.4440673072265
 30
0.0
 11
613.7802781866694
 21
221.7709336539817
 31
0.0
  0
LINE
  5
17B54
330
178F5
100
AcDbEntity
  8
DIM
 62
     1
370
    -2
100
AcDbLine
 10
580.279879319849
 20
222.2709336539817
 30
0.0
 11
612.2802781866694
 21
222.2709336539817
 31
0.0
  0
SOLID
  5
17B55
330
178F5
100
AcDbEntity
  8
DIM
 62
     1
100
AcDbTrace
 10
580.279879319849
 20
222.5209336539817
 30
0.0
 11
580.279879319849
 21
222.0209336539817
 31
0.0
 12
578.7798793198488
 22
222.2709336539817
 32
0.0
 13
578.7798793198488
 23
222.2709336539817
 33
0.0
  0
SOLID
  5
17B56
330
178F5
100
AcDbEntity
  8
DIM
 62
     1
100
AcDbTrace
 10
612.2802781866694
 20
222.5209336539817
 30
0.0
 11
612.2802781866694
 21
222.0209336539817
 31
0.0
 12
613.7802781866694
 22
222.2709336539817
 32
0.0
 13
613.7802781866694
 23
222.2709336539817
 33
0.0
  0
MTEXT
  5
17B57
330
178F5
100
AcDbEntity
  8
DIM
 62
     4
100
AcDbMText
 10
596.2800787532593
 20
223.5709336539817
 30
0.0
 40
2.0
 41
0.0
 46
0.0
 71
     5
 72
     1
  1
\A1;35
  7
Romans字体
 73
     1
 44
1.0
  0
POINT
  5
17B58
330
178F5
100
AcDbEntity
  8
Defpoints
 62
     0
100
AcDbPoint
 10
578.7798793198488
 20
229.4209864804399
 30
0.0
  0
POINT
  5
17B59
330
178F5
100
AcDbEntity
  8
Defpoints
 62
     0
100
AcDbPoint
 10
613.7802781866694
 20
232.6440673072265
 30
0.0
  0
POINT
  5
17B5A
330
178F5
100
AcDbEntity
  8
Defpoints
 62
     0
100
AcDbPoint
 10
613.7802781866694
 20
222.2709336539817
 30
0.0
  0
ENDBLK
  5
178F7
330
178F5
100
AcDbEntity
  8
0
100
AcDbBlockEnd
  0
BLOCK
  5
179AD
330
179AC
100
AcDbEntity
  8
0
100
AcDbBlockBegin
  2
*D7
 70
     1
 10
0.0
 20
0.0
 30
0.0
  3
*D7
  1

  0
LINE
  5
17B5B
330
179AC
100
AcDbEntity
  8
DIM
 62
     6
370
    -2
100
AcDbLine
 10
611.7442102091697
 20
236.9500830441538
 30
0.0
 11
619.8111650504269
 21
236.9500830441538
 31
0.0
  0
LINE
  5
17B5C
330
179AC
100
AcDbEntity
  8
DIM
 62
     6
370
    -2
100
AcDbLine
 10
611.7442102091697
 20
230.9500830441538
 30
0.0
 11
619.8111650504269
 21
230.9500830441538
 31
0.0
  0
LINE
  5
17B5D
330
179AC
100
AcDbEntity
  8
DIM
 62
     1
370
    -2
100
AcDbLine
 10
619.3111650504269
 20
235.4500830441538
 30
0.0
 11
619.3111650504269
 21
232.4500830441538
 31
0.0
  0
SOLID
  5
17B5E
330
179AC
100
AcDbEntity
  8
DIM
 62
     1
100
AcDbTrace
 10
619.0611650504266
 20
235.4500830441538
 30
0.0
 11
619.5611650504266
 21
235.4500830441538
 31
0.0
 12
619.3111650504269
 22
236.9500830441538
 32
0.0
 13
619.3111650504269
 23
236.9500830441538
 33
0.0
  0
SOLID
  5
17B5F
330
179AC
100
AcDbEntity
  8
DIM
 62
     1
100
AcDbTrace
 10
619.0611650504266
 20
232.4500830441538
 30
0.0
 11
619.5611650504266
 21
232.4500830441538
 31
0.0
 12
619.3111650504269
 22
230.9500830441538
 32
0.0
 13
619.3111650504269
 23
230.9500830441538
 33
0.0
  0
MTEXT
  5
17B60
330
179AC
100
AcDbEntity
  8
DIM
 62
     4
100
AcDbMText
 10
618.0111650504268
 20
233.9500830441539
 30
0.0
 40
2.0
 41
0.0
 46
0.0
 71
     5
 72
     1
  1
\A1;%%C6
  7
Romans字体
 11
0.0000000000000001
 21
1.0
 31
0.0
 73
     1
 44
1.0
  0
POINT
  5
17B61
330
179AC
100
AcDbEntity
  8
Defpoints
 62
     0
100
AcDbPoint
 10
611.5442102091698
 20
236.9500830441538
 30
0.0
  0
POINT
  5
17B62
330
179AC
100
AcDbEntity
  8
Defpoints
 62
     0
100
AcDbPoint
 10
611.5442102091698
 20
230.9500830441538
 30
0.0
  0
POINT
  5
17B63
330
179AC
100
AcDbEntity
  8
Defpoints
 62
     0
100
AcDbPoint
 10
619.3111650504269
 20
230.9500830441538
 30
0.0
  0
ENDBLK
  5
179AE
330
179AC
100
AcDbEntity
  8
0
100
AcDbBlockEnd
  0
BLOCK
  5
17A57
330
17A56
100
AcDbEntity
  8
0
100
AcDbBlockBegin
  2
*D8
 70
     1
 10
0.0
 20
0.0
 30
0.0
  3
*D8
  1

  0
LINE
  5
17B64
330
17A56
100
AcDbEntity
  8
DIM
 62
     6
370
    -2
100
AcDbLine
 10
584.7475070430854
 20
238.9502193331873
 30
0.0
 11
584.1866821982612
 21
238.9502193331873
 31
0.0
  0
LINE
  5
17B65
330
17A56
100
AcDbEntity
  8
DIM
 62
     6
370
    -2
100
AcDbLine
 10
584.7475070430854
 20
228.94994675512
 30
0.0
 11
584.1866821982612
 21
228.94994675512
 31
0.0
  0
LINE
  5
17B66
330
17A56
100
AcDbEntity
  8
DIM
 62
     1
370
    -2
100
AcDbLine
 10
584.6866821982612
 20
237.4502193331873
 30
0.0
 11
584.6866821982612
 21
230.44994675512
 31
0.0
  0
SOLID
  5
17B67
330
17A56
100
AcDbEntity
  8
DIM
 62
     1
100
AcDbTrace
 10
584.4366821982612
 20
237.4502193331873
 30
0.0
 11
584.9366821982612
 21
237.4502193331873
 31
0.0
 12
584.6866821982612
 22
238.9502193331873
 32
0.0
 13
584.6866821982612
 23
238.9502193331873
 33
0.0
  0
SOLID
  5
17B68
330
17A56
100
AcDbEntity
  8
DIM
 62
     1
100
AcDbTrace
 10
584.4366821982612
 20
230.44994675512
 30
0.0
 11
584.9366821982612
 21
230.44994675512
 31
0.0
 12
584.6866821982612
 22
228.94994675512
 32
0.0
 13
584.6866821982612
 23
228.94994675512
 33
0.0
  0
MTEXT
  5
17B69
330
17A56
100
AcDbEntity
  8
DIM
 62
     4
100
AcDbMText
 10
583.3866821982613
 20
233.9500830441538
 30
0.0
 40
2.0
 41
0.0
 46
0.0
 71
     5
 72
     1
  1
\A1;%%C10
  7
Romans字体
 11
0.0000000000000001
 21
1.0
 31
0.0
 73
     1
 44
1.0
  0
POINT
  5
17B6A
330
17A56
100
AcDbEntity
  8
Defpoints
 62
     0
100
AcDbPoint
 10
584.9475070430854
 20
238.9502193331873
 30
0.0
  0
POINT
  5
17B6B
330
17A56
100
AcDbEntity
  8
Defpoints
 62
     0
100
AcDbPoint
 10
584.9475070430854
 20
228.94994675512
 30
0.0
  0
POINT
  5
17B6C
330
17A56
100
AcDbEntity
  8
Defpoints
 62
     0
100
AcDbPoint
 10
584.6866821982612
 20
228.94994675512
 30
0.0
  0
ENDBLK
  5
17A58
330
17A56
100
AcDbEntity
  8
0
100
AcDbBlockEnd
  0
BLOCK
  5
17A81
330
17A80
100
AcDbEntity
  8
0
100
AcDbBlockBegin
  2
*D9
 70
     1
 10
0.0
 20
0.0
 30
0.0
  3
*D9
  1

  0
LINE
  5
17B6D
330
17A80
100
AcDbEntity
  8
DIM
 62
     6
370
    -2
100
AcDbLine
 10
581.4999815197122
 20
265.2376506416584
 30
0.0
 11
574.8261403312202
 21
265.2376506416584
 31
0.0
  0
LINE
  5
17B6E
330
17A80
100
AcDbEntity
  8
DIM
 62
     6
370
    -2
100
AcDbLine
 10
581.4999815197122
 20
258.2374598370113
 30
0.0
 11
574.8261403312202
 21
258.2374598370113
 31
0.0
  0
LINE
  5
17B6F
330
17A80
100
AcDbEntity
  8
DIM
 62
     1
370
    -2
100
AcDbLine
 10
575.3261403312202
 20
263.7376506416584
 30
0.0
 11
575.3261403312202
 21
259.7374598370113
 31
0.0
  0
SOLID
  5
17B70
330
17A80
100
AcDbEntity
  8
DIM
 62
     1
100
AcDbTrace
 10
575.0761403312202
 20
263.7376506416584
 30
0.0
 11
575.5761403312202
 21
263.7376506416584
 31
0.0
 12
575.3261403312202
 22
265.2376506416584
 32
0.0
 13
575.3261403312202
 23
265.2376506416584
 33
0.0
  0
SOLID
  5
17B71
330
17A80
100
AcDbEntity
  8
DIM
 62
     1
100
AcDbTrace
 10
575.0761403312202
 20
259.7374598370113
 30
0.0
 11
575.5761403312202
 21
259.7374598370113
 31
0.0
 12
575.3261403312202
 22
258.2374598370113
 32
0.0
 13
575.3261403312202
 23
258.2374598370113
 33
0.0
  0
MTEXT
  5
17B72
330
17A80
100
AcDbEntity
  8
DIM
 62
     4
100
AcDbMText
 10
574.0261403312202
 20
261.7375552393349
 30
0.0
 40
2.0
 41
0.0
 46
0.0
 71
     5
 72
     1
  1
\A1;%%C7
  7
Romans字体
 11
0.0000000000000001
 21
1.0
 31
0.0
 73
     1
 44
1.0
  0
POINT
  5
17B73
330
17A80
100
AcDbEntity
  8
Defpoints
 62
     0
100
AcDbPoint
 10
581.6999815197122
 20
265.2376506416584
 30
0.0
  0
POINT
  5
17B74
330
17A80
100
AcDbEntity
  8
Defpoints
 62
     0
100
AcDbPoint
 10
581.6999815197122
 20
258.2374598370113
 30
0.0
  0
POINT
  5
17B75
330
17A80
100
AcDbEntity
  8
Defpoints
 62
     0
100
AcDbPoint
 10
575.3261403312202
 20
258.2374598370113
 30
0.0
  0
ENDBLK
  5
17A82
330
17A80
100
AcDbEntity
  8
0
100
AcDbBlockEnd
  0
ENDSEC
  0
SECTION
  2
ENTITIES
  0
HATCH
  5
28AE
330
1F
100
AcDbEntity
  8
图层 1
 62
     7
100
AcDbHatch
 10
0.0
 20
0.0
 30
0.0
210
0.0
220
0.0
230
1.0
  2
SOLID
 70
     1
 71
     0
 91
        1
 92
        1
 93
        2
 72
     4
 94
        3
 73
     0
 74
     0
 95
       17
 96
       13
 40
0.0
 40
0.0
 40
0.0
 40
0.0
 40
0.3527780104152769
 40
0.3527780104152769
 40
0.3527780104152769
 40
0.7055560208305538
 40
0.7055560208305538
 40
0.7055560208305538
 40
1.058334031245828
 40
1.058334031245828
 40
1.058334031245828
 40
1.411112041661104
 40
1.411112041661104
 40
1.411112041661104
 40
1.411112041661104
 10
11.07013262565829
 20
29.50312817963231
 10
11.07013262565829
 20
29.50312817963231
 10
10.9431807732774
 20
29.50312817963231
 10
10.9431807732774
 20
29.50312817963231
 10
10.9431807732774
 20
29.50312817963231
 10
10.85843136843155
 20
29.22786486877117
 10
10.85843136843155
 20
29.22786486877117
 10
10.85843136843155
 20
29.22786486877117
 10
10.90080607085448
 20
29.2068497724476
 10
10.90080607085448
 20
29.2068497724476
 10
10.94455881238059
 20
29.31571486159919
 10
11.00346998404173
 20
29.40907701083995
 10
11.07013262565829
 20
29.50312817963231
 72
     1
 10
11.07013262565829
 20
29.50312817963231
 11
11.07013262565829
 21
29.50312817963231
 97
        0
 75
     0
 76
     1
 98
        0
450
        0
451
        0
460
0.0
461
0.0
452
        0
462
0.0
453
        0
470

  0
HATCH
  5
2C65
330
1F
100
AcDbEntity
  8
图层 1
 62
     7
100
AcDbHatch
 10
0.0
 20
0.0
 30
0.0
210
0.0
220
0.0
230
1.0
  2
SOLID
 70
     1
 71
     0
 91
        1
 92
        1
 93
        2
 72
     4
 94
        3
 73
     0
 74
     0
 95
       47
 96
       43
 40
0.0
 40
0.0
 40
0.0
 40
0.0
 40
0.3527780104152769
 40
0.3527780104152769
 40
0.3527780104152769
 40
0.7055560208305538
 40
0.7055560208305538
 40
0.7055560208305538
 40
1.058334031245828
 40
1.058334031245828
 40
1.058334031245828
 40
1.411112041661104
 40
1.411112041661104
 40
1.411112041661104
 40
1.763890052076384
 40
1.763890052076384
 40
1.763890052076384
 40
2.116668062491659
 40
2.116668062491659
 40
2.116668062491659
 40
2.469446072906936
 40
2.469446072906936
 40
2.469446072906936
 40
2.822224083322215
 40
2.822224083322215
 40
2.822224083322215
 40
3.175002093737492
 40
3.175002093737492
 40
3.175002093737492
 40
3.527780104152768
 40
3.527780104152768
 40
3.527780104152768
 40
3.880558114568044
 40
3.880558114568044
 40
3.880558114568044
 40
4.233336124983321
 40
4.233336124983321
 40
4.233336124983321
 40
4.586114135398599
 40
4.586114135398599
 40
4.586114135398599
 40
4.938892145813873
 40
4.938892145813873
 40
4.938892145813873
 40
4.938892145813873
 10
162.8986914070121
 20
257.4895347631509
 10
162.8986914070121
 20
257.4895347631509
 10
162.9200510131114
 20
257.4471600607279
 10
162.9200510131114
 20
257.4471600607279
 10
162.9200510131114
 20
257.4471600607279
 10
162.9200510131114
 20
257.404785358305
 10
162.9200510131114
 20
257.404785358305
 10
162.9200510131114
 20
257.404785358305
 10
162.8986914070121
 20
257.36258291077
 10
162.8986914070121
 20
257.36258291077
 10
162.8986914070121
 20
257.36258291077
 10
162.8986914070121
 20
257.320208208347
 10
162.8986914070121
 20
257.320208208347
 10
162.8986914070121
 20
257.320208208347
 10
162.8563167045891
 20
257.2990208571356
 10
162.8563167045891
 20
257.2990208571356
 10
162.8563167045891
 20
257.2990208571356
 10
162.8139420021662
 20
257.2563016449369
 10
162.8139420021662
 20
257.2563016449369
 10
162.8139420021662
 20
257.2563016449369
 10
162.7295371070961
 20
257.2563016449369
 10
162.7295371070961
 20
257.2563016449369
 10
162.7295371070961
 20
257.2563016449369
 10
162.6658027985738
 20
257.2778335059241
 10
162.6658027985738
 20
257.2778335059241
 10
162.6658027985738
 20
257.2778335059241
 10
162.6237726059267
 20
257.2990208571356
 10
162.6237726059267
 20
257.2990208571356
 10
162.6237726059267
 20
257.2990208571356
 10
162.5813979035038
 20
257.3413955595585
 10
162.5813979035038
 20
257.3413955595585
 10
162.5813979035038
 20
257.3413955595585
 10
162.5813979035038
 20
257.4895347631509
 10
162.5813979035038
 20
257.4895347631509
 10
162.5813979035038
 20
257.4895347631509
 10
162.6447877022503
 20
257.5525800521216
 10
162.6447877022503
 20
257.5525800521216
 10
162.6447877022503
 20
257.5525800521216
 10
162.7081775009967
 20
257.5525800521216
 10
162.7081775009967
 20
257.5525800521216
 10
162.8749202324821
 20
257.5424170137356
 10
162.7918933765152
 20
257.5939212252171
 10
162.8986914070121
 20
257.4895347631509
 72
     1
 10
162.8986914070121
 20
257.4895347631509
 11
162.8986914070121
 21
257.4895347631509
 97
        0
 75
     0
 76
     1
 98
        0
450
        0
451
        0
460
0.0
461
0.0
452
        0
462
0.0
453
        0
470

  0
HATCH
  5
2EE7
330
1F
100
AcDbEntity
  8
图层 1
 62
     7
100
AcDbHatch
 10
0.0
 20
0.0
 30
0.0
210
0.0
220
0.0
230
1.0
  2
SOLID
 70
     1
 71
     0
 91
        1
 92
        1
 93
        2
 72
     4
 94
        3
 73
     0
 74
     0
 95
       56
 96
       52
 40
0.0
 40
0.0
 40
0.0
 40
0.0
 40
0.3527780104152769
 40
0.3527780104152769
 40
0.3527780104152769
 40
0.7055560208305538
 40
0.7055560208305538
 40
0.7055560208305538
 40
1.058334031245828
 40
1.058334031245828
 40
1.058334031245828
 40
1.411112041661104
 40
1.411112041661104
 40
1.411112041661104
 40
1.763890052076384
 40
1.763890052076384
 40
1.763890052076384
 40
2.116668062491659
 40
2.116668062491659
 40
2.116668062491659
 40
2.469446072906936
 40
2.469446072906936
 40
2.469446072906936
 40
2.822224083322215
 40
2.822224083322215
 40
2.822224083322215
 40
3.175002093737492
 40
3.175002093737492
 40
3.175002093737492
 40
3.527780104152768
 40
3.527780104152768
 40
3.527780104152768
 40
3.880558114568044
 40
3.880558114568044
 40
3.880558114568044
 40
4.233336124983321
 40
4.233336124983321
 40
4.233336124983321
 40
4.586114135398599
 40
4.586114135398599
 40
4.586114135398599
 40
4.938892145813873
 40
4.938892145813873
 40
4.938892145813873
 40
5.291670156229153
 40
5.291670156229153
 40
5.291670156229153
 40
5.64444816664443
 40
5.64444816664443
 40
5.64444816664443
 40
5.997226177059705
 40
5.997226177059705
 40
5.997226177059705
 40
5.997226177059705
 10
185.4837187788815
 20
241.4451977396596
 10
185.4837187788815
 20
241.4451977396596
 10
185.4837187788815
 20
241.4028230372367
 10
185.4837187788815
 20
241.4028230372367
 10
185.4837187788815
 20
241.4028230372367
 10
185.5047338752051
 20
241.3604483348137
 10
185.5047338752051
 20
241.3604483348137
 10
185.4520238795082
 20
241.2782827532863
 10
185.4671823096433
 20
241.1897437409066
 10
185.335579575289
 20
241.2119646214456
 10
185.335579575289
 20
241.2119646214456
 10
185.2932048728662
 20
241.2119646214456
 10
185.2932048728662
 20
241.2119646214456
 10
185.2932048728662
 20
241.2119646214456
 10
185.2294705643439
 20
241.2334964824328
 10
185.2294705643439
 20
241.2334964824328
 10
185.2294705643439
 20
241.2334964824328
 10
185.1660807655974
 20
241.2543393238685
 10
185.1660807655974
 20
241.2543393238685
 10
185.1660807655974
 20
241.2543393238685
 10
185.1450656692739
 20
241.2758711848558
 10
185.1450656692739
 20
241.2758711848558
 10
185.1450656692739
 20
241.2758711848558
 10
185.1450656692739
 20
241.2967140262914
 10
185.1450656692739
 20
241.2967140262914
 10
185.1450656692739
 20
241.2967140262914
 10
185.1237060631745
 20
241.3604483348137
 10
185.1237060631745
 20
241.3604483348137
 10
185.1237060631745
 20
241.3604483348137
 10
185.1237060631745
 20
241.4028230372367
 10
185.1237060631745
 20
241.4028230372367
 10
185.1237060631745
 20
241.4028230372367
 10
185.1660807655974
 20
241.4875724420825
 10
185.1660807655974
 20
241.4875724420825
 10
185.1660807655974
 20
241.4875724420825
 10
185.2084554680203
 20
241.5085875384061
 10
185.2084554680203
 20
241.5085875384061
 10
185.2084554680203
 20
241.5085875384061
 10
185.2718452667668
 20
241.5297748896175
 10
185.2718452667668
 20
241.5297748896175
 10
185.2718452667668
 20
241.5297748896175
 10
185.3565946716127
 20
241.5297748896175
 10
185.3565946716127
 20
241.5297748896175
 10
185.3565946716127
 20
241.5297748896175
 10
185.4199844703592
 20
241.5085875384061
 10
185.4199844703592
 20
241.5085875384061
 10
185.4199844703592
 20
241.5085875384061
 10
185.4623591727821
 20
241.4875724420825
 10
185.4623591727821
 20
241.4875724420825
 10
185.4623591727821
 20
241.4875724420825
 10
185.4837187788815
 20
241.4451977396596
 10
185.4837187788815
 20
241.4451977396596
 72
     1
 10
185.4837187788815
 20
241.4451977396596
 11
185.4837187788815
 21
241.4451977396596
 97
        0
 75
     0
 76
     1
 98
        0
450
        0
451
        0
460
0.0
461
0.0
452
        0
462
0.0
453
        0
470

  0
HATCH
  5
2F93
330
1F
100
AcDbEntity
  8
图层 1
 62
     7
100
AcDbHatch
 10
0.0
 20
0.0
 30
0.0
210
0.0
220
0.0
230
1.0
  2
SOLID
 70
     1
 71
     0
 91
        1
 92
        1
 93
        2
 72
     4
 94
        3
 73
     0
 74
     0
 95
       38
 96
       34
 40
0.0
 40
0.0
 40
0.0
 40
0.0
 40
0.3527780104152769
 40
0.3527780104152769
 40
0.3527780104152769
 40
0.7055560208305538
 40
0.7055560208305538
 40
0.7055560208305538
 40
1.058334031245828
 40
1.058334031245828
 40
1.058334031245828
 40
1.411112041661104
 40
1.411112041661104
 40
1.411112041661104
 40
1.763890052076384
 40
1.763890052076384
 40
1.763890052076384
 40
2.116668062491659
 40
2.116668062491659
 40
2.116668062491659
 40
2.469446072906936
 40
2.469446072906936
 40
2.469446072906936
 40
2.822224083322215
 40
2.822224083322215
 40
2.822224083322215
 40
3.175002093737492
 40
3.175002093737492
 40
3.175002093737492
 40
3.527780104152768
 40
3.527780104152768
 40
3.527780104152768
 40
3.880558114568044
 40
3.880558114568044
 40
3.880558114568044
 40
3.880558114568044
 10
185.907121293335
 20
220.1937677098971
 10
185.9005756075949
 20
220.0449394867532
 10
185.9329595265197
 20
220.1136691870245
 10
185.864746590912
 20
219.9817219428946
 10
185.864746590912
 20
219.9817219428946
 10
185.822371888489
 20
219.9605345916831
 10
185.822371888489
 20
219.9605345916831
 10
185.822371888489
 20
219.9605345916831
 10
185.6528730787974
 20
219.9605345916831
 10
185.6528730787974
 20
219.9605345916831
 10
185.6528730787974
 20
219.9605345916831
 10
185.5894832800509
 20
220.002909294106
 10
185.5894832800509
 20
220.002909294106
 10
185.5894832800509
 20
220.002909294106
 10
185.5681236739515
 20
220.0240966453175
 10
185.5681236739515
 20
220.0240966453175
 10
185.5681236739515
 20
220.0240966453175
 10
185.5681236739515
 20
220.045283996529
 10
185.5681236739515
 20
220.045283996529
 10
185.5681236739515
 20
220.045283996529
 10
185.547108577628
 20
220.0876586989519
 10
185.547108577628
 20
220.0876586989519
 10
185.547108577628
 20
220.0876586989519
 10
185.547108577628
 20
220.1513930074742
 10
185.547108577628
 20
220.1513930074742
 10
185.547108577628
 20
220.1513930074742
 10
185.5894832800509
 20
220.23614241232
 10
185.5894832800509
 20
220.23614241232
 10
185.5894832800509
 20
220.23614241232
 10
185.6318579824738
 20
220.2573297635315
 10
185.6318579824738
 20
220.2573297635315
 10
185.7055830744942
 20
220.2566407439799
 10
185.8416644359337
 20
220.3310548555519
 10
185.907121293335
 20
220.1937677098971
 72
     1
 10
185.907121293335
 20
220.1937677098971
 11
185.907121293335
 21
220.1937677098971
 97
        0
 75
     0
 76
     1
 98
        0
450
        0
451
        0
460
0.0
461
0.0
452
        0
462
0.0
453
        0
470

  0
HATCH
  5
2FDE
330
1F
100
AcDbEntity
  8
图层 1
 62
     7
100
AcDbHatch
 10
0.0
 20
0.0
 30
0.0
210
0.0
220
0.0
230
1.0
  2
SOLID
 70
     1
 71
     0
 91
        1
 92
        1
 93
        2
 72
     4
 94
        3
 73
     0
 74
     0
 95
       50
 96
       46
 40
0.0
 40
0.0
 40
0.0
 40
0.0
 40
0.3527780104152769
 40
0.3527780104152769
 40
0.3527780104152769
 40
0.7055560208305538
 40
0.7055560208305538
 40
0.7055560208305538
 40
1.058334031245828
 40
1.058334031245828
 40
1.058334031245828
 40
1.411112041661104
 40
1.411112041661104
 40
1.411112041661104
 40
1.763890052076384
 40
1.763890052076384
 40
1.763890052076384
 40
2.116668062491659
 40
2.116668062491659
 40
2.116668062491659
 40
2.469446072906936
 40
2.469446072906936
 40
2.469446072906936
 40
2.822224083322215
 40
2.822224083322215
 40
2.822224083322215
 40
3.175002093737492
 40
3.175002093737492
 40
3.175002093737492
 40
3.527780104152768
 40
3.527780104152768
 40
3.527780104152768
 40
3.880558114568044
 40
3.880558114568044
 40
3.880558114568044
 40
4.233336124983321
 40
4.233336124983321
 40
4.233336124983321
 40
4.586114135398599
 40
4.586114135398599
 40
4.586114135398599
 40
4.938892145813873
 40
4.938892145813873
 40
4.938892145813873
 40
5.291670156229153
 40
5.291670156229153
 40
5.291670156229153
 40
5.291670156229153
 10
180.9117295442905
 20
208.9327766684477
 10
180.9117295442905
 20
208.9327766684477
 10
180.9117295442905
 20
208.7637946234197
 10
180.9117295442905
 20
208.7637946234197
 10
181.2273004989198
 20
208.6749111012643
 10
181.3833634273555
 20
208.6776671794706
 10
181.6948002646751
 20
208.5097186637701
 10
181.9542161258496
 20
208.4294478860095
 10
182.1388733656765
 20
208.2134402565853
 10
182.3297317814676
 20
208.02292635057
 10
182.3297317814676
 20
208.02292635057
 10
182.435496282637
 20
208.065301052993
 10
182.435496282637
 20
208.065301052993
 10
182.288390608372
 20
208.2733849575739
 10
182.3752070718726
 20
208.2134402565853
 10
182.1605774815516
 20
208.3824223016133
 10
182.1605774815516
 20
208.3824223016133
 10
182.1182027791287
 20
208.4247970040363
 10
182.1182027791287
 20
208.4247970040363
 10
182.1182027791287
 20
208.4247970040363
 10
182.0968431730294
 20
208.467516216235
 10
182.0968431730294
 20
208.467516216235
 10
182.0968431730294
 20
208.467516216235
 10
182.0544684706064
 20
208.4883590576707
 10
182.0544684706064
 20
208.4883590576707
 10
182.0544684706064
 20
208.4883590576707
 10
181.9910786718599
 20
208.5305615052057
 10
181.9910786718599
 20
208.5305615052057
 10
181.9910786718599
 20
208.5305615052057
 10
181.948703969437
 20
208.552093366193
 10
181.948703969437
 20
208.552093366193
 10
181.948703969437
 20
208.552093366193
 10
181.9063292670141
 20
208.5729362076286
 10
181.9063292670141
 20
208.5729362076286
 10
181.9063292670141
 20
208.5729362076286
 10
181.8639545645911
 20
208.6156554198274
 10
181.8639545645911
 20
208.6156554198274
 10
181.8639545645911
 20
208.6156554198274
 10
181.821924371944
 20
208.6368427710388
 10
181.821924371944
 20
208.6368427710388
 10
181.6637943848536
 20
208.6742220817127
 10
181.5452830219797
 20
208.8092699138248
 10
181.3771622513911
 20
208.8061693258427
 10
181.2803550043924
 20
208.8573290275484
 10
181.0126709085988
 20
208.8971199066528
 10
180.9117295442905
 20
208.9327766684477
 72
     1
 10
180.9117295442905
 20
208.9327766684477
 11
180.9117295442905
 21
208.9327766684477
 97
        0
 75
     0
 76
     1
 98
        0
450
        0
451
        0
460
0.0
461
0.0
452
        0
462
0.0
453
        0
470

  0
HATCH
  5
35C8
330
1F
100
AcDbEntity
  8
图层 1
 62
     7
100
AcDbHatch
 10
0.0
 20
0.0
 30
0.0
210
0.0
220
0.0
230
1.0
  2
SOLID
 70
     1
 71
     0
 91
        1
 92
        1
 93
        2
 72
     4
 94
        3
 73
     0
 74
     0
 95
       38
 96
       34
 40
0.0
 40
0.0
 40
0.0
 40
0.0
 40
0.3527780104152769
 40
0.3527780104152769
 40
0.3527780104152769
 40
0.7055560208305538
 40
0.7055560208305538
 40
0.7055560208305538
 40
1.058334031245828
 40
1.058334031245828
 40
1.058334031245828
 40
1.411112041661104
 40
1.411112041661104
 40
1.411112041661104
 40
1.763890052076384
 40
1.763890052076384
 40
1.763890052076384
 40
2.116668062491659
 40
2.116668062491659
 40
2.116668062491659
 40
2.469446072906936
 40
2.469446072906936
 40
2.469446072906936
 40
2.822224083322215
 40
2.822224083322215
 40
2.822224083322215
 40
3.175002093737492
 40
3.175002093737492
 40
3.175002093737492
 40
3.527780104152768
 40
3.527780104152768
 40
3.527780104152768
 40
3.880558114568044
 40
3.880558114568044
 40
3.880558114568044
 40
3.880558114568044
 10
189.145513185819
 20
166.8326485368285
 10
189.207869455238
 20
166.740492171803
 10
189.1317327947871
 20
166.6833035490209
 10
189.103138483396
 20
166.6209472796017
 10
189.103138483396
 20
166.6209472796017
 10
189.0607637809731
 20
166.5997599283903
 10
189.0607637809731
 20
166.5997599283903
 10
189.0607637809731
 20
166.5997599283903
 10
188.9973739822266
 20
166.5785725771788
 10
188.9973739822266
 20
166.5785725771788
 10
188.9973739822266
 20
166.5785725771788
 10
188.9549992798037
 20
166.5997599283903
 10
188.9549992798037
 20
166.5997599283903
 10
188.9549992798037
 20
166.5997599283903
 10
188.8916094810572
 20
166.5997599283903
 10
188.8916094810572
 20
166.5997599283903
 10
188.8916094810572
 20
166.5997599283903
 10
188.8492347786343
 20
166.6209472796017
 10
188.8492347786343
 20
166.6209472796017
 10
188.8492347786343
 20
166.6209472796017
 10
188.8278751725349
 20
166.6633219820247
 10
188.8278751725349
 20
166.6633219820247
 10
188.8278751725349
 20
166.6633219820247
 10
188.8068600762114
 20
166.6845093332361
 10
188.8068600762114
 20
166.6845093332361
 10
188.8068600762114
 20
166.6845093332361
 10
188.8068600762114
 20
166.8326485368285
 10
188.8068600762114
 20
166.8326485368285
 10
188.8068600762114
 20
166.8326485368285
 10
188.8702498749578
 20
166.896038335575
 10
188.8702498749578
 20
166.896038335575
 10
189.0228677056355
 20
166.8819134347673
 10
189.0686875058164
 20
166.9411691162043
 10
189.145513185819
 20
166.8326485368285
 72
     1
 10
189.145513185819
 20
166.8326485368285
 11
189.145513185819
 21
166.8326485368285
 97
        0
 75
     0
 76
     1
 98
        0
450
        0
451
        0
460
0.0
461
0.0
452
        0
462
0.0
453
        0
470

  0
HATCH
  5
35D8
330
1F
100
AcDbEntity
  8
图层 1
 62
     7
100
AcDbHatch
 10
0.0
 20
0.0
 30
0.0
210
0.0
220
0.0
230
1.0
  2
SOLID
 70
     1
 71
     0
 91
        1
 92
        1
 93
        2
 72
     4
 94
        3
 73
     0
 74
     0
 95
       68
 96
       64
 40
0.0
 40
0.0
 40
0.0
 40
0.0
 40
0.3527780104152769
 40
0.3527780104152769
 40
0.3527780104152769
 40
0.7055560208305538
 40
0.7055560208305538
 40
0.7055560208305538
 40
1.058334031245828
 40
1.058334031245828
 40
1.058334031245828
 40
1.411112041661104
 40
1.411112041661104
 40
1.411112041661104
 40
1.763890052076384
 40
1.763890052076384
 40
1.763890052076384
 40
2.116668062491659
 40
2.116668062491659
 40
2.116668062491659
 40
2.469446072906936
 40
2.469446072906936
 40
2.469446072906936
 40
2.822224083322215
 40
2.822224083322215
 40
2.822224083322215
 40
3.175002093737492
 40
3.175002093737492
 40
3.175002093737492
 40
3.527780104152768
 40
3.527780104152768
 40
3.527780104152768
 40
3.880558114568044
 40
3.880558114568044
 40
3.880558114568044
 40
4.233336124983321
 40
4.233336124983321
 40
4.233336124983321
 40
4.586114135398599
 40
4.586114135398599
 40
4.586114135398599
 40
4.938892145813873
 40
4.938892145813873
 40
4.938892145813873
 40
5.291670156229153
 40
5.291670156229153
 40
5.291670156229153
 40
5.64444816664443
 40
5.64444816664443
 40
5.64444816664443
 40
5.997226177059705
 40
5.997226177059705
 40
5.997226177059705
 40
6.350004187474984
 40
6.350004187474984
 40
6.350004187474984
 40
6.702782197890257
 40
6.702782197890257
 40
6.702782197890257
 40
7.055560208305537
 40
7.055560208305537
 40
7.055560208305537
 40
7.408338218720808
 40
7.408338218720808
 40
7.408338218720808
 40
7.408338218720808
 10
174.7732543591544
 20
135.4846705078077
 10
174.7732543591544
 20
135.4846705078077
 10
174.7732543591544
 20
135.3789060066383
 10
174.7732543591544
 20
135.3789060066383
 10
174.7732543591544
 20
135.3789060066383
 10
174.8156290615773
 20
135.3789060066383
 10
174.8156290615773
 20
135.3789060066383
 10
174.8156290615773
 20
135.3789060066383
 10
174.8580037640002
 20
135.3578909103147
 10
174.8580037640002
 20
135.3578909103147
 10
174.8580037640002
 20
135.3578909103147
 10
174.9213935627468
 20
135.3578909103147
 10
174.9213935627468
 20
135.3578909103147
 10
174.9213935627468
 20
135.3578909103147
 10
174.9637682651697
 20
135.3365313042154
 10
174.9637682651697
 20
135.3365313042154
 10
174.9637682651697
 20
135.3365313042154
 10
174.9847833614933
 20
135.3365313042154
 10
174.9847833614933
 20
135.3365313042154
 10
174.9847833614933
 20
135.3365313042154
 10
175.0271580639162
 20
135.3155162078918
 10
175.0271580639162
 20
135.3155162078918
 10
175.0271580639162
 20
135.3155162078918
 10
175.0485176700155
 20
135.2941566017924
 10
175.0485176700155
 20
135.2941566017924
 10
175.0485176700155
 20
135.2941566017924
 10
175.0695327663391
 20
135.2941566017924
 10
175.0695327663391
 20
135.2941566017924
 10
175.0695327663391
 20
135.2941566017924
 10
175.0908923724385
 20
135.2731415054689
 10
175.0908923724385
 20
135.2731415054689
 10
175.0908923724385
 20
135.2731415054689
 10
175.1332670748614
 20
135.2731415054689
 10
175.1332670748614
 20
135.2731415054689
 10
175.1332670748614
 20
135.2731415054689
 10
175.154282171185
 20
135.2517818993695
 10
175.154282171185
 20
135.2517818993695
 10
175.154282171185
 20
135.2517818993695
 10
175.154282171185
 20
135.3578909103147
 10
175.154282171185
 20
135.3578909103147
 10
175.154282171185
 20
135.3578909103147
 10
175.1332670748614
 20
135.3789060066383
 10
175.1332670748614
 20
135.3789060066383
 10
175.1332670748614
 20
135.3789060066383
 10
175.0908923724385
 20
135.3789060066383
 10
175.0908923724385
 20
135.3789060066383
 10
175.0908923724385
 20
135.3789060066383
 10
175.0908923724385
 20
135.3999211029619
 10
175.0908923724385
 20
135.3999211029619
 10
175.0908923724385
 20
135.3999211029619
 10
175.0695327663391
 20
135.3999211029619
 10
175.0695327663391
 20
135.3999211029619
 10
175.0695327663391
 20
135.3999211029619
 10
175.0271580639162
 20
135.4212807090612
 10
175.0271580639162
 20
135.4212807090612
 10
175.0271580639162
 20
135.4212807090612
 10
175.0061429675926
 20
135.4212807090612
 10
175.0061429675926
 20
135.4212807090612
 10
175.0061429675926
 20
135.4212807090612
 10
174.9637682651697
 20
135.4422958053848
 10
174.9637682651697
 20
135.4422958053848
 10
174.8996894468716
 20
135.4498750204523
 10
174.8394002361073
 20
135.4860485469109
 10
174.7732543591544
 20
135.4846705078077
 72
     1
 10
174.7732543591544
 20
135.4846705078077
 11
174.7732543591544
 21
135.4846705078077
 97
        0
 75
     0
 76
     1
 98
        0
450
        0
451
        0
460
0.0
461
0.0
452
        0
462
0.0
453
        0
470

  0
HATCH
  5
3807
330
1F
100
AcDbEntity
  8
图层 1
 62
     7
100
AcDbHatch
 10
0.0
 20
0.0
 30
0.0
210
0.0
220
0.0
230
1.0
  2
SOLID
 70
     1
 71
     0
 91
        1
 92
        1
 93
        2
 72
     4
 94
        3
 73
     0
 74
     0
 95
       29
 96
       25
 40
0.0
 40
0.0
 40
0.0
 40
0.0
 40
0.3527780104152769
 40
0.3527780104152769
 40
0.3527780104152769
 40
0.7055560208305538
 40
0.7055560208305538
 40
0.7055560208305538
 40
1.058334031245828
 40
1.058334031245828
 40
1.058334031245828
 40
1.411112041661104
 40
1.411112041661104
 40
1.411112041661104
 40
1.763890052076384
 40
1.763890052076384
 40
1.763890052076384
 40
2.116668062491659
 40
2.116668062491659
 40
2.116668062491659
 40
2.469446072906936
 40
2.469446072906936
 40
2.469446072906936
 40
2.822224083322215
 40
2.822224083322215
 40
2.822224083322215
 40
2.822224083322215
 10
175.4929352807925
 20
164.0174869039101
 10
175.4929352807925
 20
164.0174869039101
 10
175.5139503771161
 20
163.9751122014871
 10
175.5139503771161
 20
163.9751122014871
 10
175.5139503771161
 20
163.9751122014871
 10
175.5139503771161
 20
163.9327374990642
 10
175.5139503771161
 20
163.9327374990642
 10
175.5139503771161
 20
163.9327374990642
 10
175.4929352807925
 20
163.8903627966413
 10
175.4929352807925
 20
163.8903627966413
 10
175.4929352807925
 20
163.8903627966413
 10
175.471920184469
 20
163.8691754454298
 10
175.471920184469
 20
163.8691754454298
 10
175.471920184469
 20
163.8691754454298
 10
175.4505605783696
 20
163.8269729978948
 10
175.4505605783696
 20
163.8269729978948
 10
175.3571984291289
 20
163.7715069239916
 10
175.272449024283
 20
163.8195660377152
 10
175.1966568736079
 20
163.8691754454298
 10
175.208370205985
 20
163.9930267098286
 10
175.1563492298397
 20
164.0216210212197
 10
175.2600466723544
 20
164.0596893514451
 10
175.3330827448232
 20
164.1094710140476
 10
175.4357466580104
 20
164.0753645462439
 10
175.4929352807925
 20
164.0174869039101
 72
     1
 10
175.4929352807925
 20
164.0174869039101
 11
175.4929352807925
 21
164.0174869039101
 97
        0
 75
     0
 76
     1
 98
        0
450
        0
451
        0
460
0.0
461
0.0
452
        0
462
0.0
453
        0
470

  0
HATCH
  5
3895
330
1F
100
AcDbEntity
  8
图层 1
 62
     7
100
AcDbHatch
 10
0.0
 20
0.0
 30
0.0
210
0.0
220
0.0
230
1.0
  2
SOLID
 70
     1
 71
     0
 91
        1
 92
        1
 93
        2
 72
     4
 94
        3
 73
     0
 74
     0
 95
       11
 96
        7
 40
0.0
 40
0.0
 40
0.0
 40
0.0
 40
0.3527780104152769
 40
0.3527780104152769
 40
0.3527780104152769
 40
0.7055560208305538
 40
0.7055560208305538
 40
0.7055560208305538
 40
0.7055560208305538
 10
174.9213935627468
 20
174.5369206529582
 10
174.9213935627468
 20
174.5369206529582
 10
174.9213935627468
 20
174.3043765542958
 10
174.9213935627468
 20
174.3043765542958
 10
174.9213935627468
 20
174.3043765542958
 10
174.9213935627468
 20
174.5369206529582
 10
174.9213935627468
 20
174.5369206529582
 72
     1
 10
174.9213935627468
 20
174.5369206529582
 11
174.9213935627468
 21
174.5369206529582
 97
        0
 75
     0
 76
     1
 98
        0
450
        0
451
        0
460
0.0
461
0.0
452
        0
462
0.0
453
        0
470

  0
HATCH
  5
3943
330
1F
100
AcDbEntity
  8
图层 1
 62
     7
100
AcDbHatch
 10
0.0
 20
0.0
 30
0.0
210
0.0
220
0.0
230
1.0
  2
SOLID
 70
     1
 71
     0
 91
        1
 92
        1
 93
        2
 72
     4
 94
        3
 73
     0
 74
     0
 95
      131
 96
      127
 40
0.0
 40
0.0
 40
0.0
 40
0.0
 40
0.3527780104152769
 40
0.3527780104152769
 40
0.3527780104152769
 40
0.7055560208305538
 40
0.7055560208305538
 40
0.7055560208305538
 40
1.058334031245828
 40
1.058334031245828
 40
1.058334031245828
 40
1.411112041661104
 40
1.411112041661104
 40
1.411112041661104
 40
1.763890052076384
 40
1.763890052076384
 40
1.763890052076384
 40
2.116668062491659
 40
2.116668062491659
 40
2.116668062491659
 40
2.469446072906936
 40
2.469446072906936
 40
2.469446072906936
 40
2.822224083322215
 40
2.822224083322215
 40
2.822224083322215
 40
3.175002093737492
 40
3.175002093737492
 40
3.175002093737492
 40
3.527780104152768
 40
3.527780104152768
 40
3.527780104152768
 40
3.880558114568044
 40
3.880558114568044
 40
3.880558114568044
 40
4.233336124983321
 40
4.233336124983321
 40
4.233336124983321
 40
4.586114135398599
 40
4.586114135398599
 40
4.586114135398599
 40
4.938892145813873
 40
4.938892145813873
 40
4.938892145813873
 40
5.291670156229153
 40
5.291670156229153
 40
5.291670156229153
 40
5.64444816664443
 40
5.64444816664443
 40
5.64444816664443
 40
5.997226177059705
 40
5.997226177059705
 40
5.997226177059705
 40
6.350004187474984
 40
6.350004187474984
 40
6.350004187474984
 40
6.702782197890257
 40
6.702782197890257
 40
6.702782197890257
 40
7.055560208305537
 40
7.055560208305537
 40
7.055560208305537
 40
7.408338218720808
 40
7.408338218720808
 40
7.408338218720808
 40
7.76111622913609
 40
7.76111622913609
 40
7.76111622913609
 40
8.113894239551369
 40
8.113894239551369
 40
8.113894239551369
 40
8.466672249966642
 40
8.466672249966642
 40
8.466672249966642
 40
8.819450260381922
 40
8.819450260381922
 40
8.819450260381922
 40
9.172228270797198
 40
9.172228270797198
 40
9.172228270797198
 40
9.525006281212476
 40
9.525006281212476
 40
9.525006281212476
 40
9.877784291627751
 40
9.877784291627751
 40
9.877784291627751
 40
10.23056230204303
 40
10.23056230204303
 40
10.23056230204303
 40
10.58334031245831
 40
10.58334031245831
 40
10.58334031245831
 40
10.93611832287358
 40
10.93611832287358
 40
10.93611832287358
 40
11.28889633328886
 40
11.28889633328886
 40
11.28889633328886
 40
11.64167434370414
 40
11.64167434370414
 40
11.64167434370414
 40
11.99445235411941
 40
11.99445235411941
 40
11.99445235411941
 40
12.34723036453469
 40
12.34723036453469
 40
12.34723036453469
 40
12.70000837494997
 40
12.70000837494997
 40
12.70000837494997
 40
13.05278638536524
 40
13.05278638536524
 40
13.05278638536524
 40
13.40556439578052
 40
13.40556439578052
 40
13.40556439578052
 40
13.7583424061958
 40
13.7583424061958
 40
13.7583424061958
 40
14.11112041661107
 40
14.11112041661107
 40
14.11112041661107
 40
14.46389842702635
 40
14.46389842702635
 40
14.46389842702635
 40
14.81667643744163
 40
14.81667643744163
 40
14.81667643744163
 40
14.81667643744163
 10
173.3972823146245
 20
126.8274843518258
 10
173.3972823146245
 20
126.8274843518258
 10
173.3972823146245
 20
126.7217198506564
 10
173.3972823146245
 20
126.7217198506564
 10
173.3972823146245
 20
126.7217198506564
 10
173.4186419207238
 20
126.7217198506564
 10
173.4186419207238
 20
126.7217198506564
 10
173.4186419207238
 20
126.7217198506564
 10
173.4820317194703
 20
126.7007047543328
 10
173.4820317194703
 20
126.7007047543328
 10
173.4820317194703
 20
126.7007047543328
 10
173.5244064218933
 20
126.6793451482334
 10
173.5244064218933
 20
126.6793451482334
 10
173.5244064218933
 20
126.6793451482334
 10
173.5877962206398
 20
126.6793451482334
 10
173.5877962206398
 20
126.6793451482334
 10
173.5877962206398
 20
126.6793451482334
 10
173.6301709230627
 20
126.6583300519099
 10
173.6301709230627
 20
126.6583300519099
 10
173.7955356154449
 20
126.5911506456296
 10
173.759706598762
 20
126.6380039751379
 10
173.9478089363468
 20
126.5525655507404
 10
173.9478089363468
 20
126.5525655507404
 10
173.9688240326703
 20
126.4464565397952
 10
173.9688240326703
 20
126.4464565397952
 10
173.9688240326703
 20
126.4464565397952
 10
174.0325583411926
 20
126.5101908483175
 10
174.0325583411926
 20
126.5101908483175
 10
174.0325583411926
 20
126.5101908483175
 10
174.0749330436156
 20
126.5101908483175
 10
174.0749330436156
 20
126.5101908483175
 10
174.0749330436156
 20
126.5101908483175
 10
174.1593379386856
 20
126.4678161458946
 10
174.1593379386856
 20
126.4678161458946
 10
174.1593379386856
 20
126.4678161458946
 10
174.180697544785
 20
126.4464565397952
 10
174.180697544785
 20
126.4464565397952
 10
174.2464989119621
 20
126.3982251711837
 10
174.3298702777047
 20
126.3716979184474
 10
174.3922265471239
 20
126.3196769423022
 10
174.608234176548
 20
126.2059887162895
 10
174.7749769080334
 20
126.0278771622029
 10
174.9637682651697
 20
125.8749148217494
 10
174.9637682651697
 20
125.8749148217494
 10
175.0061429675926
 20
125.9172895241723
 10
175.0061429675926
 20
125.9172895241723
 10
174.961356696739
 20
125.9631093243532
 10
174.782211613325
 20
126.1246844092016
 10
174.7308796567315
 20
126.1501781326105
 10
174.7308796567315
 20
126.1501781326105
 10
174.6885049543085
 20
126.1925528350335
 10
174.6885049543085
 20
126.1925528350335
 10
174.6885049543085
 20
126.1925528350335
 10
174.667489857985
 20
126.2349275374564
 10
174.667489857985
 20
126.2349275374564
 10
174.667489857985
 20
126.2349275374564
 10
174.625115155562
 20
126.2559426337799
 10
174.625115155562
 20
126.2559426337799
 10
174.625115155562
 20
126.2559426337799
 10
174.5827404531391
 20
126.2983173362029
 10
174.5827404531391
 20
126.2983173362029
 10
174.5827404531391
 20
126.2983173362029
 10
174.5403657507162
 20
126.3196769423022
 10
174.5403657507162
 20
126.3196769423022
 10
174.5403657507162
 20
126.3196769423022
 10
174.4979910482932
 20
126.3620516447252
 10
174.4979910482932
 20
126.3620516447252
 10
174.4735308542117
 20
126.3875453681341
 10
174.3247026310678
 20
126.4695386947736
 10
174.2864620459544
 20
126.4888312422181
 10
174.2864620459544
 20
126.4888312422181
 10
174.2654469496308
 20
126.5101908483175
 10
174.2654469496308
 20
126.5101908483175
 10
174.2654469496308
 20
126.5101908483175
 10
174.2230722472079
 20
126.5312059446411
 10
174.2230722472079
 20
126.5312059446411
 10
174.2230722472079
 20
126.5312059446411
 10
174.2017126411085
 20
126.5525655507404
 10
174.2017126411085
 20
126.5525655507404
 10
174.2017126411085
 20
126.5525655507404
 10
174.1383228423621
 20
126.573580647064
 10
174.1383228423621
 20
126.573580647064
 10
174.1383228423621
 20
126.573580647064
 10
174.1169632362627
 20
126.5945957433876
 10
174.1169632362627
 20
126.5945957433876
 10
174.1169632362627
 20
126.5945957433876
 10
174.0959481399391
 20
126.7007047543328
 10
174.0959481399391
 20
126.7007047543328
 10
174.0959481399391
 20
126.7007047543328
 10
174.0325583411926
 20
126.6369704458105
 10
174.0325583411926
 20
126.6369704458105
 10
174.0325583411926
 20
126.6369704458105
 10
173.9901836387697
 20
126.6369704458105
 10
173.9901836387697
 20
126.6369704458105
 10
173.9901836387697
 20
126.6369704458105
 10
173.9054342339239
 20
126.6793451482334
 10
173.9054342339239
 20
126.6793451482334
 10
173.9054342339239
 20
126.6793451482334
 10
173.8420444351773
 20
126.7007047543328
 10
173.8420444351773
 20
126.7007047543328
 10
173.8420444351773
 20
126.7007047543328
 10
173.7996697327544
 20
126.7217198506564
 10
173.7996697327544
 20
126.7217198506564
 10
173.7996697327544
 20
126.7217198506564
 10
173.7572950303315
 20
126.7217198506564
 10
173.7572950303315
 20
126.7217198506564
 10
173.7572950303315
 20
126.7217198506564
 10
173.6725456254856
 20
126.7640945530793
 10
173.6725456254856
 20
126.7640945530793
 10
173.6725456254856
 20
126.7640945530793
 10
173.6515305291621
 20
126.7640945530793
 10
173.6515305291621
 20
126.7640945530793
 10
173.6515305291621
 20
126.7640945530793
 10
173.5667811243162
 20
126.7851096494029
 10
173.5667811243162
 20
126.7851096494029
 10
173.5667811243162
 20
126.7851096494029
 10
173.5033913255697
 20
126.8064692555022
 10
173.5033913255697
 20
126.8064692555022
 10
173.5033913255697
 20
126.8064692555022
 10
173.4396570170474
 20
126.8064692555022
 10
173.4396570170474
 20
126.8064692555022
 10
173.4396570170474
 20
126.8064692555022
 10
173.4186419207238
 20
126.8274843518258
 10
173.4186419207238
 20
126.8274843518258
 10
173.4186419207238
 20
126.8274843518258
 10
173.3972823146245
 20
126.8274843518258
 10
173.3972823146245
 20
126.8274843518258
 72
     1
 10
173.3972823146245
 20
126.8274843518258
 11
173.3972823146245
 21
126.8274843518258
 97
        0
 75
     0
 76
     1
 98
        0
450
        0
451
        0
460
0.0
461
0.0
452
        0
462
0.0
453
        0
470

  0
HATCH
  5
4842
330
1F
100
AcDbEntity
  8
图层 1
 62
     7
100
AcDbHatch
 10
0.0
 20
0.0
 30
0.0
210
0.0
220
0.0
230
1.0
  2
SOLID
 70
     1
 71
     0
 91
        1
 92
        1
 93
        2
 72
     4
 94
        3
 73
     0
 74
     0
 95
       47
 96
       43
 40
0.0
 40
0.0
 40
0.0
 40
0.0
 40
0.3527780104152769
 40
0.3527780104152769
 40
0.3527780104152769
 40
0.7055560208305538
 40
0.7055560208305538
 40
0.7055560208305538
 40
1.058334031245828
 40
1.058334031245828
 40
1.058334031245828
 40
1.411112041661104
 40
1.411112041661104
 40
1.411112041661104
 40
1.763890052076384
 40
1.763890052076384
 40
1.763890052076384
 40
2.116668062491659
 40
2.116668062491659
 40
2.116668062491659
 40
2.469446072906936
 40
2.469446072906936
 40
2.469446072906936
 40
2.822224083322215
 40
2.822224083322215
 40
2.822224083322215
 40
3.175002093737492
 40
3.175002093737492
 40
3.175002093737492
 40
3.527780104152768
 40
3.527780104152768
 40
3.527780104152768
 40
3.880558114568044
 40
3.880558114568044
 40
3.880558114568044
 40
4.233336124983321
 40
4.233336124983321
 40
4.233336124983321
 40
4.586114135398599
 40
4.586114135398599
 40
4.586114135398599
 40
4.938892145813873
 40
4.938892145813873
 40
4.938892145813873
 40
4.938892145813873
 10
180.1920486226523
 20
255.6479577566324
 10
180.1920486226523
 20
255.6479577566324
 10
180.2130637189759
 20
255.6055830542095
 10
180.2130637189759
 20
255.6055830542095
 10
180.2130637189759
 20
255.6055830542095
 10
180.2130637189759
 20
255.5210059042515
 10
180.2130637189759
 20
255.5210059042515
 10
180.2130637189759
 20
255.5210059042515
 10
180.1920486226523
 20
255.4786312018286
 10
180.1920486226523
 20
255.4786312018286
 10
180.1920486226523
 20
255.4786312018286
 10
180.1496739202294
 20
255.4359119896299
 10
180.1496739202294
 20
255.4359119896299
 10
180.1496739202294
 20
255.4359119896299
 10
180.1283143141301
 20
255.4147246384184
 10
180.1283143141301
 20
255.4147246384184
 10
180.1283143141301
 20
255.4147246384184
 10
180.0225498129606
 20
255.4147246384184
 10
180.0225498129606
 20
255.4147246384184
 10
180.0225498129606
 20
255.4147246384184
 10
179.9591600142141
 20
255.4359119896299
 10
179.9591600142141
 20
255.4359119896299
 10
179.9591600142141
 20
255.4359119896299
 10
179.9167853117912
 20
255.4570993408414
 10
179.9167853117912
 20
255.4570993408414
 10
179.9167853117912
 20
255.4570993408414
 10
179.8957702154676
 20
255.4786312018286
 10
179.8957702154676
 20
255.4786312018286
 10
179.8957702154676
 20
255.4786312018286
 10
179.8744106093683
 20
255.4994740432643
 10
179.8744106093683
 20
255.4994740432643
 10
179.8744106093683
 20
255.4994740432643
 10
179.8744106093683
 20
255.6479577566324
 10
179.8744106093683
 20
255.6479577566324
 10
179.9608825630931
 20
255.7323626517025
 10
180.045631967939
 20
255.7085914771726
 10
180.1496739202294
 20
255.7115198102668
 10
180.1496739202294
 20
255.7115198102668
 10
180.170689016553
 20
255.6688005980681
 10
180.170689016553
 20
255.6688005980681
 10
180.170689016553
 20
255.6688005980681
 10
180.1920486226523
 20
255.6479577566324
 10
180.1920486226523
 20
255.6479577566324
 72
     1
 10
180.1920486226523
 20
255.6479577566324
 11
180.1920486226523
 21
255.6479577566324
 97
        0
 75
     0
 76
     1
 98
        0
450
        0
451
        0
460
0.0
461
0.0
452
        0
462
0.0
453
        0
470

  0
LINE
  5
15523
330
1F
100
AcDbEntity
  8
图框
 62
     1
370
    18
100
AcDbLine
 10
531.0145826987259
 20
289.1768299845588
 30
0.0
 11
679.5139576665757
 21
289.1768299845588
 31
0.0
1001
AcDbBlockRepETag
1070
     1
1071
      143
1005
15523
  0
MTEXT
  5
15556
102
{ACAD_XDICTIONARY
360
17C7E
102
}
330
1F
100
AcDbEntity
  8
打标文字
 62
     3
100
AcDbMText
 10
633.0533607130941
 20
260.9111832321929
 30
0.0
 40
1.5
 41
46.88571713065463
 46
47.39332115782246
 71
     1
 72
     5
  3
\A1;{\f仿宋_GB2312|b0|i0|c134|p49;技术参数}:\P- {\f仿宋_GB2312|b0|i0|c134|p49;材料}: {\f仿宋_GB2312|b0|i0|c134|p49;铜合金}\P- {\f仿宋_GB2312|b0|i0|c134|p49;表面处理}: {\f仿宋_GB2312|b0|i0|c134|p49;镀银}\P- {\f仿宋_GB2312|b0|i0|c134|p49;额定电流}: 70A\P- {\f仿宋_GB2312|b0|i0|c134|p49
  3
;接触电阻}: ≤0.5mΩ\P- {\f仿宋_GB2312|b0|i0|c134|p49;线径范围}: 25mm{\H0.7x;\S2^ ;}\P- {\f仿宋_GB2312|b0|i0|c134|p49;剥线长度：}15mm\P- {\f仿宋_GB2312|b0|i0|c134|p49;可插拔次数}: {\f仿宋_GB2312|b0|i0|c134|p49;≥}500\P- {\f仿宋_GB2312|b0|i0|c134|p49;电缆绞线标准}: IEC 60228-5\P\PTechnica
  3
l specification:\P- Material: copper alloy\P- Surface: hard-silver plated\P- Rated current: 70A\P- Contact resistance: ≤0.5mΩ\P- Wire gauge: 25mm{\H0.7x;\S2^ ;}\P- {\A0;Stripping length: 15mm\P}- Mating cycles: {\f仿宋_GB2312|b0|i0|c134|p49;≥}500\P- For
  1
 stranded fine wire acc. to: IEC 60228-5
  7
Romans字体
 73
     1
 44
1.0
1001
ACAD
1000
ACAD_MTEXT_DEFINED_HEIGHT_BEGIN
1070
    46
1040
47.39332115782246
1000
ACAD_MTEXT_DEFINED_HEIGHT_END
  0
LINE
  5
1555E
330
1F
100
AcDbEntity
  8
图框
 62
     1
100
AcDbLine
 10
677.7724080811392
 20
281.6769901273708
 30
0.0
 11
677.7724080811392
 21
262.1472338978545
 31
0.0
  0
MTEXT
  5
15566
330
1F
100
AcDbEntity
  8
图框
 62
     3
100
AcDbMText
 10
669.36931007112
 20
202.8738589380055
 30
0.0
 40
1.492756789270166
 41
16.80619601594785
 46
4.343372757943781
 71
     5
 72
     5
  1
CKSM70-25
  7
Romans字体
 73
     1
 44
1.0
1001
ACAD
1000
ACAD_MTEXT_DEFINED_HEIGHT_BEGIN
1070
    46
1040
4.343372757943781
1000
ACAD_MTEXT_DEFINED_HEIGHT_END
  0
MTEXT
  5
15567
330
1F
100
AcDbEntity
  8
图框
 62
     3
100
AcDbMText
 10
669.36931007112
 20
198.484133669437
 30
0.0
 40
1.492756789270166
 41
16.80619601594785
 46
4.436077779192773
 71
     5
 72
     5
  1
1010341101601
  7
Romans字体
 73
     1
 44
1.0
1001
ACAD
1000
ACAD_MTEXT_DEFINED_HEIGHT_BEGIN
1070
    46
1040
4.436077779192773
1000
ACAD_MTEXT_DEFINED_HEIGHT_END
  0
MTEXT
  5
15568
330
1F
100
AcDbEntity
  8
图框
 62
     3
100
AcDbMText
 10
635.3424775658663
 20
191.8303161222501
 30
0.0
 40
1.492756789270166
 41
5.414674223554219
 46
3.943047305235955
 71
     5
 72
     5
  1
2:1 
  7
Romans字体
 73
     1
 44
1.0
1001
ACAD
1000
ACAD_MTEXT_DEFINED_HEIGHT_BEGIN
1070
    46
1040
3.943047305235955
1000
ACAD_MTEXT_DEFINED_HEIGHT_END
  0
MTEXT
  5
15569
330
1F
100
AcDbEntity
  8
图框
 62
     3
100
AcDbMText
 10
646.1718260129758
 20
191.8303161222504
 30
0.0
 40
1.492756789270166
 41
5.414674223555066
 46
3.943047305235906
 71
     5
 72
     5
  1
10.8g 
  7
Romans字体
 73
     1
 44
1.0
1001
ACAD
1000
ACAD_MTEXT_DEFINED_HEIGHT_BEGIN
1070
    46
1040
3.943047305235906
1000
ACAD_MTEXT_DEFINED_HEIGHT_END
  0
INSERT
  5
1556A
330
1F
100
AcDbEntity
  8
DIM
100
AcDbBlockReference
  2
A4图框-NEW
 10
114.3081561121811
 20
-56.09055511857542
 30
0.0
 41
0.5000000005871926
 42
0.5000000005871926
 43
0.5000000005871991
  0
LINE
  5
174DB
330
1F
100
AcDbEntity
  8
0
100
AcDbLine
 10
547.9097030366301
 20
193.8035415577581
 30
0.0
 11
547.9870794557199
 21
193.5400763827699
 31
0.0
  0
LINE
  5
174DC
330
1F
100
AcDbEntity
  8
0
100
AcDbLine
 10
539.5980254933075
 20
199.3637948268303
 30
0.0
 11
539.3249728577383
 21
199.3347557693845
 31
0.0
  0
LINE
  5
174DD
330
1F
100
AcDbEntity
  8
0
100
AcDbLine
 10
555.7053513455525
 20
204.1079282848523
 30
0.0
 11
555.0787012446831
 21
203.1711879388889
 31
0.0
  0
LINE
  5
174DE
330
1F
100
AcDbEntity
  8
0
100
AcDbLine
 10
547.9088502203019
 20
192.4534226025877
 30
0.0
 11
547.3967128829595
 21
191.6878602801725
 31
0.0
  0
LINE
  5
174DF
330
1F
100
AcDbEntity
  8
0
100
AcDbLine
 10
553.120605763302
 20
201.592996655897
 30
0.0
 11
547.6695831249825
 21
193.4446012036472
 31
0.0
  0
LINE
  5
174E0
330
1F
100
AcDbEntity
  8
0
100
AcDbLine
 10
553.4388763808236
 20
202.6982466233284
 30
0.0
 11
553.1405797196663
 21
202.2523414568174
 31
0.0
  0
LINE
  5
174E1
330
1F
100
AcDbEntity
  8
0
100
AcDbLine
 10
561.8904836396028
 20
218.2995084831236
 30
0.0
 11
554.4397485800215
 21
207.1618670342294
 31
0.0
  0
LINE
  5
174E2
330
1F
100
AcDbEntity
  8
0
100
AcDbLine
 10
554.6635962375703
 20
207.4964830055421
 30
0.0
 11
555.1330539239435
 21
206.8576743811464
 31
0.0
  0
LINE
  5
174E3
330
1F
100
AcDbEntity
  8
0
100
AcDbLine
 10
553.264929941892
 20
202.4382248868638
 30
0.0
 11
553.2591626735333
 21
202.0721505266759
 31
0.0
  0
LINE
  5
174E4
330
1F
100
AcDbEntity
  8
0
100
AcDbLine
 10
545.5350852862915
 20
207.6092500850506
 30
0.0
 11
545.1989250898801
 21
207.4641982980684
 31
0.0
  0
LINE
  5
174E5
330
1F
100
AcDbEntity
  8
0
100
AcDbLine
 10
549.6765830622482
 20
210.8326394151792
 30
0.0
 11
548.9069543396952
 21
211.0227409861059
 31
0.0
  0
LINE
  5
174E6
330
1F
100
AcDbEntity
  8
0
100
AcDbLine
 10
556.9034704642803
 20
221.6356648927606
 30
0.0
 11
549.4527354046992
 21
210.4980234438664
 31
0.0
  0
LINE
  5
174E7
330
1F
100
AcDbEntity
  8
0
100
AcDbLine
 10
548.3072644854429
 20
211.13867764421
 30
0.0
 11
548.9069543396952
 21
211.0227409861059
 31
0.0
  0
LINE
  5
174E8
330
1F
100
AcDbEntity
  8
0
100
AcDbLine
 10
545.7032439856742
 20
207.8606200888501
 30
0.0
 11
545.4107350640656
 21
207.4233666550042
 31
0.0
  0
LINE
  5
174E9
330
1F
100
AcDbEntity
  8
0
100
AcDbLine
 10
544.8089282199795
 20
207.1532499249691
 30
0.0
 11
539.3579055816599
 21
199.0048544727194
 31
0.0
  0
LINE
  5
174EA
330
1F
100
AcDbEntity
  8
0
100
AcDbLine
 10
546.1469412875516
 20
210.5022067557283
 30
0.0
 11
545.5202911866827
 21
209.565466409765
 31
0.0
  0
LINE
  5
174EB
330
1F
100
AcDbEntity
  8
0
100
AcDbLine
 10
538.3504401623014
 20
198.8477010734638
 30
0.0
 11
537.8383028249587
 21
198.0821387510487
 31
0.0
  0
LINE
  5
174EC
330
1F
100
AcDbEntity
  8
0
100
AcDbLine
 10
559.5091804786319
 20
222.9529126117888
 30
0.0
 11
559.281990152523
 21
222.9653472052647
 31
0.0
  0
ARC
  5
174ED
330
1F
100
AcDbEntity
  8
0
100
AcDbCircle
 10
547.6179757449674
 20
206.2018677605295
 30
0.0
 40
4.985971895833333
100
AcDbArc
 50
82.06656176008058
 51
82.35684822446776
  0
ARC
  5
174EE
330
1F
100
AcDbEntity
  8
0
100
AcDbCircle
 10
547.692814502573
 20
206.5599960878595
 30
0.0
 40
4.619726569399999
100
AcDbArc
 50
82.35668483717125
 51
82.70984230046641
  0
ARC
  5
174EF
330
1F
100
AcDbEntity
  8
0
100
AcDbCircle
 10
551.9966211691114
 20
204.3184975451519
 30
0.0
 40
4.021612209799998
100
AcDbArc
 50
26.47467142626351
 51
27.91024217197335
  0
ARC
  5
174F0
330
1F
100
AcDbEntity
  8
0
100
AcDbCircle
 10
559.397058562139
 20
219.9674408905965
 30
0.0
 40
3.000155468333332
100
AcDbArc
 50
92.19877670447399
 51
146.2172620823731
  0
ARC
  5
174F1
330
1F
100
AcDbEntity
  8
0
100
AcDbCircle
 10
559.3968152150131
 20
219.9676059016124
 30
0.0
 40
3.0001519386
100
AcDbArc
 50
326.2201243572622
 51
20.23868018978165
  0
SPLINE
  5
174F2
330
1F
100
AcDbEntity
  8
0
100
AcDbSpline
210
0.0
220
0.0
230
1.0
 70
     8
 71
     3
 72
    21
 73
    17
 74
     0
 42
0.0000000001
 43
0.0000000001
 40
0.0
 40
0.0
 40
0.0
 40
0.0
 40
0.0523271568
 40
0.1096479648
 40
0.1713257584
 40
0.2366859982
 40
0.3049868531
 40
0.3753692664999999
 40
0.5187151237
 40
0.6593918084000002
 40
0.726495196
 40
0.7903170219
 40
0.8501182783999999
 40
0.9052803911999999
 40
0.9553283590999999
 40
1.0
 40
1.0
 40
1.0
 40
1.0
 10
559.5091804786319
 20
222.9529126117887
 30
0.0
 10
559.5686483828925
 20
222.9449327067217
 30
0.0
 10
559.6924160833106
 20
222.9216719687022
 30
0.0
 10
559.8820829800851
 20
222.8698701579957
 30
0.0
 10
560.0817818341692
 20
222.8000604945495
 30
0.0
 10
560.2884537341625
 20
222.7133979335758
 30
0.0
 10
560.4990038412055
 20
222.6111142541261
 30
0.0
 10
560.7823897636064
 20
222.4550769185241
 30
0.0
 10
561.1235983755451
 20
222.2331547146091
 30
0.0
 10
561.439433743156
 20
221.9822999545227
 30
0.0
 10
561.6672281847658
 20
221.7697288277097
 30
0.0
 10
561.818401735482
 20
221.6115049573221
 30
0.0
 10
561.9502971305043
 20
221.4543600906689
 30
0.0
 10
562.0610149972889
 20
221.3006618454613
 30
0.0
 10
562.1488712321365
 20
221.1526777381304
 30
0.0
 10
562.1940109572492
 20
221.0535184316155
 30
0.0
 10
562.2117253130916
 20
221.0054562924712
 30
0.0
  0
SPLINE
  5
174F3
330
1F
100
AcDbEntity
  8
0
100
AcDbSpline
210
0.0
220
0.0
230
1.0
 70
     8
 71
     3
 72
    31
 73
    27
 74
     0
 42
0.0000000001
 43
0.0000000001
 40
0.0
 40
0.0
 40
0.0
 40
0.0
 40
0.015500428
 40
0.0315038343
 40
0.0484551468
 40
0.0667125447
 40
0.0865337342
 40
0.1080882788
 40
0.1314735304
 40
0.1567227006
 40
0.1838281208
 40
0.2127379782
 40
0.2433742712
 40
0.2756324254
 40
0.3444790029
 40
0.418097609
 40
0.495095637
 40
0.5739541404999999
 40
0.6530875219
 40
0.7309001149
 40
0.8058457254
 40
0.8764745951
 40
0.9097740213999999
 40
0.9415458077
 40
0.9716623990999998
 40
1.0
 40
1.0
 40
1.0
 40
1.0
 10
537.8382392604031
 20
198.0820202517072
 30
0.0
 10
537.8060756509486
 20
198.033931134914
 30
0.0
 10
537.7503965065061
 20
197.929331440624
 30
0.0
 10
537.6976255276646
 20
197.7553127290239
 30
0.0
 10
537.6748587589083
 20
197.5646478671677
 30
0.0
 10
537.6819953329733
 20
197.3586985289962
 30
0.0
 10
537.7185635798708
 20
197.1386150448038
 30
0.0
 10
537.7841925894747
 20
196.9055562907616
 30
0.0
 10
537.8784510531581
 20
196.6607858880849
 30
0.0
 10
538.0006890534588
 20
196.4056081225525
 30
0.0
 10
538.1502784411592
 20
196.1415135004785
 30
0.0
 10
538.3262731897391
 20
195.8699732446009
 30
0.0
 10
538.5276953179042
 20
195.59259516411
 30
0.0
 10
538.8352986097969
 20
195.2087871311954
 30
0.0
 10
539.2761694698616
 20
194.7272037965596
 30
0.0
 10
539.8722993114305
 20
194.1645401319239
 30
0.0
 10
540.5327743662036
 20
193.6183311510713
 30
0.0
 10
541.2420523182553
 20
193.1015006744985
 30
0.0
 10
541.9834474965504
 20
192.6262544882706
 30
0.0
 10
542.7394771363386
 20
192.2037609379602
 30
0.0
 10
543.492273474261
 20
191.8439867466726
 30
0.0
 10
544.1139486621185
 20
191.5986336357178
 30
0.0
 10
544.5957897197348
 20
191.4421216473602
 30
0.0
 10
544.9383679028272
 20
191.3474677962961
 30
0.0
 10
545.2671116761629
 20
191.2737994872202
 30
0.0
 10
545.4824454753821
 20
191.2377840445009
 30
0.0
 10
545.5872731409962
 20
191.2237173840409
 30
0.0
  0
SPLINE
  5
174F4
330
1F
100
AcDbEntity
  8
0
100
AcDbSpline
210
0.0
220
0.0
230
1.0
 70
     8
 71
     3
 72
    13
 73
     9
 74
     0
 42
0.0000000001
 43
0.0000000001
 40
0.0
 40
0.0
 40
0.0
 40
0.0
 40
0.2895891235
 40
0.5471734644000002
 40
0.6662904100000002
 40
0.7804404943000001
 40
0.8911133718999998
 40
1.0
 40
1.0
 40
1.0
 40
1.0
 10
539.3249702594202
 20
199.3347582854012
 30
0.0
 10
539.2170511808533
 20
199.3232786994754
 30
0.0
 10
539.0140954765871
 20
199.2883102467632
 30
0.0
 10
538.7775656706462
 20
199.2027185755608
 30
0.0
 10
538.6173531637938
 20
199.1115231469176
 30
0.0
 10
538.5136571940638
 20
199.034360815308
 30
0.0
 10
538.423792562301
 20
198.9468589434031
 30
0.0
 10
538.3731430307189
 20
198.8816095431239
 30
0.0
 10
538.3504510123802
 20
198.8476938149386
 30
0.0
  0
SPLINE
  5
174F5
330
1F
100
AcDbEntity
  8
0
100
AcDbSpline
210
0.0
220
0.0
230
1.0
 70
     8
 71
     3
 72
    10
 73
     6
 74
     0
 42
0.0000000001
 43
0.0000000001
 40
0.0
 40
0.0
 40
0.0
 40
0.0
 40
0.5182718036999999
 40
0.7616278716
 40
1.0
 40
1.0
 40
1.0
 40
1.0
 10
545.1989335055843
 20
207.464191390782
 30
0.0
 10
545.118864486015
 20
207.4296265034881
 30
0.0
 10
545.0058528863368
 20
207.3649312253681
 30
0.0
 10
544.8817919634854
 20
207.250482714825
 30
0.0
 10
544.8312416863118
 20
207.1865823132868
 30
0.0
 10
544.8089409302176
 20
207.1532414223761
 30
0.0
  0
SPLINE
  5
174F6
330
1F
100
AcDbEntity
  8
0
100
AcDbSpline
210
0.0
220
0.0
230
1.0
 70
     8
 71
     3
 72
    31
 73
    27
 74
     0
 42
0.0000000001
 43
0.0000000001
 40
0.0
 40
0.0
 40
0.0
 40
0.0
 40
0.015500428
 40
0.0315038343
 40
0.0484551468
 40
0.0667125447
 40
0.0865337342
 40
0.1080882788
 40
0.1314735304
 40
0.1567227006
 40
0.1838281208
 40
0.2127379782
 40
0.2433742712
 40
0.2756324254
 40
0.3444790029
 40
0.418097609
 40
0.495095637
 40
0.5739541404999999
 40
0.6530875219
 40
0.7309001149
 40
0.8058457254
 40
0.8764745951
 40
0.9097740213999999
 40
0.9415458077
 40
0.9716623990999998
 40
1.0
 40
1.0
 40
1.0
 40
1.0
 10
545.5202225008287
 20
209.5653402549128
 30
0.0
 10
545.4880588913744
 20
209.5172511381196
 30
0.0
 10
545.432379746932
 20
209.4126514438296
 30
0.0
 10
545.3796087680902
 20
209.2386327322294
 30
0.0
 10
545.3568419993152
 20
209.0479678703457
 30
0.0
 10
545.3639785733805
 20
208.8420185321742
 30
0.0
 10
545.400546820278
 20
208.6219350479818
 30
0.0
 10
545.4661758298819
 20
208.3888762939396
 30
0.0
 10
545.5604342935838
 20
208.1441058912905
 30
0.0
 10
545.6826722938658
 20
207.8889281257304
 30
0.0
 10
545.8322616815663
 20
207.6248335036564
 30
0.0
 10
546.0082564301464
 20
207.3532932477789
 30
0.0
 10
546.2096785583113
 20
207.075915167288
 30
0.0
 10
546.5172818502042
 20
206.6921071343732
 30
0.0
 10
546.9581527102688
 20
206.2105237997374
 30
0.0
 10
547.5542825518563
 20
205.6478601351297
 30
0.0
 10
548.2147576066108
 20
205.1016511542492
 30
0.0
 10
548.9240355586807
 20
204.5848206777041
 30
0.0
 10
549.6654307369762
 20
204.1095744914763
 30
0.0
 10
550.4214603767643
 20
203.6870809411659
 30
0.0
 10
551.1742567146681
 20
203.3273067498505
 30
0.0
 10
551.7959319025441
 20
203.0819536389234
 30
0.0
 10
552.2777729601416
 20
202.925441650538
 30
0.0
 10
552.6203511432344
 20
202.830787799474
 30
0.0
 10
552.94909491657
 20
202.7571194903981
 30
0.0
 10
553.1644287158077
 20
202.7211040477065
 30
0.0
 10
553.2692563814032
 20
202.7070373872189
 30
0.0
  0
SPLINE
  5
174F7
330
1F
100
AcDbEntity
  8
0
100
AcDbSpline
210
0.0
220
0.0
230
1.0
 70
     8
 71
     3
 72
    16
 73
    12
 74
     0
 42
0.0000000001
 43
0.0000000001
 40
0.0
 40
0.0
 40
0.0
 40
0.0
 40
0.1154287302
 40
0.2306327593
 40
0.3473780293999999
 40
0.4664977925000002
 40
0.5275799845
 40
0.5899189855
 40
0.7192031146
 40
0.8558022162
 40
1.0
 40
1.0
 40
1.0
 40
1.0
 10
546.1469412875514
 20
210.5022067557281
 30
0.0
 10
546.1971613635001
 20
210.5772776306124
 30
0.0
 10
546.3135976675423
 20
210.7172033830982
 30
0.0
 10
546.5277396197087
 20
210.8872511941259
 30
0.0
 10
546.7714460445721
 20
211.0169370127568
 30
0.0
 10
546.9923739552593
 20
211.0917912352183
 30
0.0
 10
547.1774399620596
 20
211.1342509221708
 30
0.0
 10
547.3726355090502
 20
211.1665573640869
 30
0.0
 10
547.6292268911719
 20
211.1863669806907
 30
0.0
 10
547.9504223488993
 20
211.1803807307936
 30
0.0
 10
548.1692957130904
 20
211.1585486546871
 30
0.0
 10
548.2811243532728
 20
211.1435425443846
 30
0.0
  0
SPLINE
  5
174F8
330
1F
100
AcDbEntity
  8
0
100
AcDbSpline
210
0.0
220
0.0
230
1.0
 70
     8
 71
     3
 72
    15
 73
    11
 74
     0
 42
0.0000000001
 43
0.0000000001
 40
0.0
 40
0.0
 40
0.0
 40
0.0
 40
0.0961809226
 40
0.1960186269
 40
0.3026948483
 40
0.4186484679
 40
0.5455885102
 40
0.6845784931000001
 40
0.8360994156
 40
1.0
 40
1.0
 40
1.0
 40
1.0
 10
547.3967866901761
 20
191.6879940905723
 30
0.0
 10
547.3618302960982
 20
191.6357293682583
 30
0.0
 10
547.2786647385618
 20
191.5367088401196
 30
0.0
 10
547.1215480971022
 20
191.4143601508861
 30
0.0
 10
546.9330777820974
 20
191.3175521130187
 30
0.0
 10
546.7150211342031
 20
191.2465320841366
 30
0.0
 10
546.4688669748976
 20
191.2013672500969
 30
0.0
 10
546.1961775816758
 20
191.1820790101714
 30
0.0
 10
545.8988391137296
 20
191.1887240366475
 30
0.0
 10
545.69346957552
 20
191.2094670505948
 30
0.0
 10
545.5872731409962
 20
191.2237173840409
 30
0.0
  0
SPLINE
  5
174F9
330
1F
100
AcDbEntity
  8
0
100
AcDbSpline
210
0.0
220
0.0
230
1.0
 70
     8
 71
     3
 72
     9
 73
     5
 74
     0
 42
0.0000000001
 43
0.0000000001
 40
0.0
 40
0.0
 40
0.0
 40
0.0
 40
0.2411107105
 40
1.0
 40
1.0
 40
1.0
 40
1.0
 10
548.3061525058566
 20
211.1401193227401
 30
0.0
 10
548.3548799800713
 20
211.1333291647762
 30
0.0
 10
548.556558296555
 20
211.1021962353983
 30
0.0
 10
548.7564459248516
 20
211.0598741119114
 30
0.0
 10
548.9067821067586
 20
211.0227574487399
 30
0.0
  0
SPLINE
  5
174FA
330
1F
100
AcDbEntity
  8
0
100
AcDbSpline
210
0.0
220
0.0
230
1.0
 70
     8
 71
     3
 72
    18
 73
    14
 74
     0
 42
0.0000000001
 43
0.0000000001
 40
0.0
 40
0.0
 40
0.0
 40
0.0
 40
0.1513259997
 40
0.2928794824
 40
0.4249748361
 40
0.4878068321000001
 40
0.5487172155
 40
0.6657480910000002
 40
0.7787252527
 40
0.8342074188999999
 40
0.8892354525
 40
0.9442817167999999
 40
1.0
 40
1.0
 40
1.0
 40
1.0
 10
555.132272284047
 20
206.8587220634946
 30
0.0
 10
555.2215116335095
 20
206.7373512405141
 30
0.0
 10
555.3866333829728
 20
206.4966789121307
 30
0.0
 10
555.5980648832841
 20
206.1296929056923
 30
0.0
 10
555.737591513502
 20
205.8244148707391
 30
0.0
 10
555.8229301799273
 20
205.5842852711113
 30
0.0
 10
555.8888965176715
 20
205.3537164736961
 30
0.0
 10
555.9388100380617
 20
205.0671817093312
 30
0.0
 10
555.9373214524546
 20
204.7810079125263
 30
0.0
 10
555.9012100798278
 20
204.5610694196301
 30
0.0
 10
555.8560245456248
 20
204.4021548610843
 30
0.0
 10
555.7917356916256
 20
204.2497017307366
 30
0.0
 10
555.736193063046
 20
204.1540316543004
 30
0.0
 10
555.7053513455522
 20
204.1079282848521
 30
0.0
  0
SPLINE
  5
174FB
330
1F
100
AcDbEntity
  8
0
100
AcDbSpline
210
0.0
220
0.0
230
1.0
 70
     8
 71
     3
 72
    13
 73
     9
 74
     0
 42
0.0000000001
 43
0.0000000001
 40
0.0
 40
0.0
 40
0.0
 40
0.0
 40
0.289593984
 40
0.5471995070000001
 40
0.6663029143000001
 40
0.7804460256
 40
0.891117389
 40
1.0
 40
1.0
 40
1.0
 40
1.0
 10
547.9870794441255
 20
193.5400763877991
 30
0.0
 10
548.0176612112187
 20
193.4359442669105
 30
0.0
 10
548.0627662025783
 20
193.2349923670664
 30
0.0
 10
548.0740043370676
 20
192.98369601886
 30
0.0
 10
548.0508165772199
 20
192.8008079876958
 30
0.0
 10
548.019064738898
 20
192.6755246498299
 30
0.0
 10
547.9725207501436
 20
192.5590562674434
 30
0.0
 10
547.9315305892495
 20
192.4873443946353
 30
0.0
 10
547.908839370251
 20
192.4534298610942
 30
0.0
  0
SPLINE
  5
174FC
330
1F
100
AcDbEntity
  8
0
100
AcDbSpline
210
0.0
220
0.0
230
1.0
 70
     8
 71
     3
 72
    15
 73
    11
 74
     0
 42
0.0000000001
 43
0.0000000001
 40
0.0
 40
0.0
 40
0.0
 40
0.0
 40
0.0961809226
 40
0.1960186269
 40
0.3026948483
 40
0.4186484679
 40
0.5455885102
 40
0.6845784931000001
 40
0.8360994156
 40
1.0
 40
1.0
 40
1.0
 40
1.0
 10
555.0787699305832
 20
203.1713140937502
 30
0.0
 10
555.0438135365054
 20
203.1190493714362
 30
0.0
 10
554.9606479789688
 20
203.0200288432975
 30
0.0
 10
554.8035313375281
 20
202.8976801540919
 30
0.0
 10
554.6150610225046
 20
202.8008721161966
 30
0.0
 10
554.3970043746102
 20
202.7298520873145
 30
0.0
 10
554.1508502153232
 20
202.6846872533024
 30
0.0
 10
553.8781608221015
 20
202.6653990133771
 30
0.0
 10
553.5808223541365
 20
202.6720440398253
 30
0.0
 10
553.3754528159271
 20
202.6927870537727
 30
0.0
 10
553.2692563814032
 20
202.7070373872189
 30
0.0
  0
SPLINE
  5
174FD
330
1F
100
AcDbEntity
  8
0
100
AcDbSpline
210
0.0
220
0.0
230
1.0
 70
     8
 71
     3
 72
    10
 73
     6
 74
     0
 42
0.0000000001
 43
0.0000000001
 40
0.0
 40
0.0
 40
0.0
 40
0.0
 40
0.5182840204
 40
0.7616260703
 40
1.0
 40
1.0
 40
1.0
 40
1.0
 10
553.2591490258329
 20
202.0721578395967
 30
0.0
 10
553.2577667224606
 20
201.9849551671299
 30
0.0
 10
553.2411322462725
 20
201.8557966826371
 30
0.0
 10
553.182650345643
 20
201.697462338773
 30
0.0
 10
553.1428940934159
 20
201.6263464743203
 30
0.0
 10
553.1205930530728
 20
201.5930051584434
 30
0.0
  0
SPLINE
  5
174FE
330
1F
100
AcDbEntity
  8
0
100
AcDbSpline
210
0.0
220
0.0
230
1.0
 70
     8
 71
     3
 72
    32
 73
    28
 74
     0
 42
0.0000000001
 43
0.0000000001
 40
0.0
 40
0.0
 40
0.0
 40
0.0
 40
0.0237059353
 40
0.0451318229
 40
0.0645469302
 40
0.08237422
 40
0.0992157469
 40
0.1158081475
 40
0.1329332992
 40
0.151285975
 40
0.1714010684
 40
0.1936346058
 40
0.2181817944
 40
0.2451312807
 40
0.2744662491
 40
0.3061058682
 40
0.3399196418
 40
0.3757219171
 40
0.4524056151
 40
0.5341678944
 40
0.6187150109
 40
0.7036097874
 40
0.786395643
 40
0.8647106041
 40
0.9364926692999999
 40
0.9693872996999999
 40
1.0
 40
1.0
 40
1.0
 40
1.0
 10
559.2819739974567
 20
222.9653636941567
 30
0.0
 10
559.2476373482947
 20
222.9640546287534
 30
0.0
 10
559.1823017339669
 20
222.9583083989841
 30
0.0
 10
559.0906215436773
 20
222.9381997957773
 30
0.0
 10
559.0110028793295
 20
222.9071420636952
 30
0.0
 10
558.9442146768575
 20
222.8650352731726
 30
0.0
 10
558.891153873924
 20
222.8120622903562
 30
0.0
 10
558.8527586576989
 20
222.7487984278339
 30
0.0
 10
558.8297112932357
 20
222.6762531485568
 30
0.0
 10
558.8218534898514
 20
222.595550482441
 30
0.0
 10
558.8289737206248
 20
222.5074734282917
 30
0.0
 10
558.8507551738598
 20
222.4127061583985
 30
0.0
 10
558.8868575029586
 20
222.3119012128348
 30
0.0
 10
558.9370328004841
 20
222.2058524285702
 30
0.0
 10
559.0007900940264
 20
222.0953645397669
 30
0.0
 10
559.0776274724865
 20
221.9813479711865
 30
0.0
 10
559.1669258821443
 20
221.8647694801355
 30
0.0
 10
559.3047321098094
 20
221.7034807292706
 30
0.0
 10
559.5031492620377
 20
221.5031286188418
 30
0.0
 10
559.7706795326313
 20
221.273534541724
 30
0.0
 10
560.0640186570687
 20
221.0572708968489
 30
0.0
 10
560.3732576884973
 20
220.8616640511749
 30
0.0
 10
560.6879753890592
 20
220.6933174185296
 30
0.0
 10
560.9975341056078
 20
220.5578035497545
 30
0.0
 10
561.2495963551907
 20
220.473570811404
 30
0.0
 10
561.4403439288982
 20
220.4276363212851
 30
0.0
 10
561.5311218763699
 20
220.4118298473491
 30
0.0
 10
561.5751005938903
 20
220.4059284120522
 30
0.0
  0
SPLINE
  5
174FF
330
1F
100
AcDbEntity
  8
0
100
AcDbSpline
210
0.0
220
0.0
230
1.0
 70
     8
 71
     3
 72
    29
 73
    25
 74
     0
 42
0.0000000001
 43
0.0000000001
 40
0.0
 40
0.0
 40
0.0
 40
0.0
 40
0.0155010647
 40
0.0315041801
 40
0.04845632
 40
0.0667122634
 40
0.0865340966
 40
0.1080885192
 40
0.1314725545
 40
0.1567235498
 40
0.1838271984
 40
0.2127386042
 40
0.2756153098
 40
0.3444639618
 40
0.4180859122
 40
0.4950871216
 40
0.5739488142
 40
0.6530858837000002
 40
0.7309028956
 40
0.8058524722999999
 40
0.8764829664
 40
0.9415456686
 40
0.9716640986999999
 40
1.0
 40
1.0
 40
1.0
 40
1.0
 10
539.3579182919166
 20
199.004845970154
 30
0.0
 10
539.3299482528918
 20
198.9630291808108
 30
0.0
 10
539.2815173214768
 20
198.872084651457
 30
0.0
 10
539.2355780223905
 20
198.7207752331934
 30
0.0
 10
539.2158127817268
 20
198.5549828343319
 30
0.0
 10
539.2219425912286
 20
198.3758989849286
 30
0.0
 10
539.2537625381144
 20
198.1845291784423
 30
0.0
 10
539.310807196047
 20
197.9818723014834
 30
0.0
 10
539.3927384929578
 20
197.7690168093339
 30
0.0
 10
539.4990566517446
 20
197.547145635041
 30
0.0
 10
539.6290813407166
 20
197.3174656300029
 30
0.0
 10
539.83910413351
 20
196.9935412294647
 30
0.0
 10
540.1576773221071
 20
196.5797243658538
 30
0.0
 10
540.6080678071881
 20
196.0876354775833
 30
0.0
 10
541.1264949002777
 20
195.5983289225584
 30
0.0
 10
541.7008191666058
 20
195.1233576680856
 30
0.0
 10
542.3175950240772
 20
194.6739221756008
 30
0.0
 10
542.9622970593972
 20
194.26063680968
 30
0.0
 10
543.6197234566117
 20
193.8932418691529
 30
0.0
 10
544.2743800526804
 20
193.5803607435457
 30
0.0
 10
544.9108487347302
 20
193.3292154174454
 30
0.0
 10
545.4264413601737
 20
193.1722583530215
 30
0.0
 10
545.8177569823414
 20
193.0845398054938
 30
0.0
 10
546.005002436034
 20
193.0532221247571
 30
0.0
 10
546.0961496622299
 20
193.0409912210342
 30
0.0
  0
SPLINE
  5
17500
330
1F
100
AcDbEntity
  8
0
100
AcDbSpline
210
0.0
220
0.0
230
1.0
 70
     8
 71
     3
 72
    20
 73
    16
 74
     0
 42
0.0000000001
 43
0.0000000001
 40
0.0
 40
0.0
 40
0.0
 40
0.0
 40
0.1382837373
 40
0.1997588851
 40
0.2567893165
 40
0.3102460951
 40
0.3612427862
 40
0.4111174873
 40
0.4613269797
 40
0.5132794973000001
 40
0.5682268722
 40
0.6271791904999999
 40
0.6908820056
 40
0.8342731845999999
 40
1.0
 40
1.0
 40
1.0
 40
1.0
 10
562.2117253130916
 20
221.0054562924712
 30
0.0
 10
562.2298379756752
 20
220.9563134777138
 30
0.0
 10
562.2508480614661
 20
220.8829476649001
 30
0.0
 10
562.2610574687298
 20
220.7860125208495
 30
0.0
 10
562.2592377009875
 20
220.7206828346502
 30
0.0
 10
562.2482261847243
 20
220.6602502815194
 30
0.0
 10
562.2279623274793
 20
220.6050862233446
 30
0.0
 10
562.1984430287792
 20
220.5556694771463
 30
0.0
 10
562.1599585983378
 20
220.5123940819807
 30
0.0
 10
562.1128676621939
 20
220.4755359740383
 30
0.0
 10
562.0575217572215
 20
220.4453059986853
 30
0.0
 10
561.9943000591448
 20
220.4217597120247
 30
0.0
 10
561.8960634965138
 20
220.398399877555
 30
0.0
 10
561.7543534977365
 20
220.3883035173049
 30
0.0
 10
561.637311425818
 20
220.3975804378285
 30
0.0
 10
561.5751005938903
 20
220.4059284120522
 30
0.0
  0
SPLINE
  5
17501
330
1F
100
AcDbEntity
  8
0
100
AcDbSpline
210
0.0
220
0.0
230
1.0
 70
     8
 71
     3
 72
    29
 73
    25
 74
     0
 42
0.0000000001
 43
0.0000000001
 40
0.0
 40
0.0
 40
0.0
 40
0.0
 40
0.0155010647
 40
0.0315041801
 40
0.04845632
 40
0.0667122634
 40
0.0865340966
 40
0.1080885192
 40
0.1314725545
 40
0.1567235498
 40
0.1838271984
 40
0.2127386042
 40
0.2756153098
 40
0.3444639618
 40
0.4180859122
 40
0.4950871216
 40
0.5739488142
 40
0.6530858837000002
 40
0.7309028956
 40
0.8058524722999999
 40
0.8764829664
 40
0.9415456686
 40
0.9716640986999999
 40
1.0
 40
1.0
 40
1.0
 40
1.0
 10
544.8089409302176
 20
207.1532414223761
 30
0.0
 10
544.7809708911932
 20
207.1114246330327
 30
0.0
 10
544.7325399597965
 20
207.0204801037068
 30
0.0
 10
544.6866006607102
 20
206.8691706854431
 30
0.0
 10
544.6668354200278
 20
206.7033782865538
 30
0.0
 10
544.6729652295297
 20
206.5242944371505
 30
0.0
 10
544.7047851764343
 20
206.332924630692
 30
0.0
 10
544.7618298343667
 20
206.1302677537331
 30
0.0
 10
544.8437611312774
 20
205.9174122615836
 30
0.0
 10
544.9500792900456
 20
205.695541087263
 30
0.0
 10
545.0801039790364
 20
205.4658610822526
 30
0.0
 10
545.2901267718115
 20
205.1419366816868
 30
0.0
 10
545.6086999604082
 20
204.7281198180757
 30
0.0
 10
546.0590904455076
 20
204.236030929833
 30
0.0
 10
546.5775175385788
 20
203.7467243747805
 30
0.0
 10
547.1518418049068
 20
203.2717531203076
 30
0.0
 10
547.7686176623969
 20
202.8223176278505
 30
0.0
 10
548.4133196976983
 20
202.409032261902
 30
0.0
 10
549.0707460949312
 20
202.0416373214026
 30
0.0
 10
549.7254026910003
 20
201.7287561957954
 30
0.0
 10
550.3618713730499
 20
201.4776108696951
 30
0.0
 10
550.8774639984748
 20
201.3206538052434
 30
0.0
 10
551.2687796206424
 20
201.2329352577159
 30
0.0
 10
551.4560250743537
 20
201.2016175770067
 30
0.0
 10
551.5471723005495
 20
201.1893866732839
 30
0.0
  0
SPLINE
  5
17502
330
1F
100
AcDbEntity
  8
0
100
AcDbSpline
210
0.0
220
0.0
230
1.0
 70
     8
 71
     3
 72
     9
 73
     5
 74
     0
 42
0.0000000001
 43
0.0000000001
 40
0.0
 40
0.0
 40
0.0
 40
0.0
 40
0.2560428268
 40
1.0
 40
1.0
 40
1.0
 40
1.0
 10
554.5205085298363
 20
207.2561583490859
 30
0.0
 10
554.5202369494976
 20
207.2482484851184
 30
0.0
 10
554.518656816212
 20
207.2173772288868
 30
0.0
 10
554.5149354670411
 20
207.1866041795185
 30
0.0
 10
554.5108281165766
 20
207.1639775391108
 30
0.0
  0
SPLINE
  5
17503
330
1F
100
AcDbEntity
  8
0
100
AcDbSpline
210
0.0
220
0.0
230
1.0
 70
     8
 71
     3
 72
    15
 73
    11
 74
     0
 42
0.0000000001
 43
0.0000000001
 40
0.0
 40
0.0
 40
0.0
 40
0.0
 40
0.1037015607
 40
0.2038020136
 40
0.306332393
 40
0.4168052059000001
 40
0.5393931663
 40
0.6767609235
 40
0.8302833592
 40
1.0
 40
1.0
 40
1.0
 40
1.0
 10
554.5108281165766
 20
207.1639775391108
 30
0.0
 10
554.5030219932063
 20
207.120975036852
 30
0.0
 10
554.4779265973546
 20
207.0377117687064
 30
0.0
 10
554.4083249132158
 20
206.9271017138585
 30
0.0
 10
554.3093396304291
 20
206.8375621333355
 30
0.0
 10
554.1837153001361
 20
206.7701263168109
 30
0.0
 10
554.0334621584642
 20
206.7248171686943
 30
0.0
 10
553.8602100425377
 20
206.7013470534064
 30
0.0
 10
553.6656952466561
 20
206.6997380586206
 30
0.0
 10
553.5298326240847
 20
206.7124104955883
 30
0.0
 10
553.4589405513545
 20
206.7219233919343
 30
0.0
  0
LINE
  5
17504
330
1F
100
AcDbEntity
  8
0
100
AcDbLine
 10
555.133052953907
 20
206.8576745707159
 30
0.0
 11
555.1398287418503
 21
206.8484382325417
 31
0.0
  0
SPLINE
  5
17505
330
1F
100
AcDbEntity
  8
0
100
AcDbSpline
210
0.0
220
0.0
230
1.0
 70
     8
 71
     3
 72
     9
 73
     5
 74
     0
 42
0.0000000001
 43
0.0000000001
 40
0.0
 40
0.0
 40
0.0
 40
0.0
 40
0.519418999
 40
1.0
 40
1.0
 40
1.0
 40
1.0
 10
555.1398287418503
 20
206.8484382325415
 30
0.0
 10
555.218307096928
 20
206.7412675322173
 30
0.0
 10
555.3632736599674
 20
206.5303539285279
 30
0.0
 10
555.4929278194872
 20
206.3095742465649
 30
0.0
 10
555.5504473652396
 20
206.2009651101945
 30
0.0
  0
SPLINE
  5
17506
330
1F
100
AcDbEntity
  8
0
100
AcDbSpline
210
0.0
220
0.0
230
1.0
 70
     8
 71
     3
 72
    23
 73
    19
 74
     0
 42
0.0000000001
 43
0.0000000001
 40
0.0
 40
0.0
 40
0.0
 40
0.0
 40
0.0781419521
 40
0.1502546597
 40
0.2165025158
 40
0.277288531
 40
0.3332695706
 40
0.3854336202000001
 40
0.4350955628000002
 40
0.4838403686000002
 40
0.5333645011
 40
0.5852731994
 40
0.6408991002000001
 40
0.7012527590000001
 40
0.7670329188
 40
0.838676994
 40
0.9163617843
 40
1.0
 40
1.0
 40
1.0
 40
1.0
 10
555.5964930333142
 20
206.1113409089796
 30
0.0
 10
555.636924056253
 20
206.0301104406029
 30
0.0
 10
555.7092237172091
 20
205.8710956945052
 30
0.0
 10
555.7936070252
 20
205.6339181767942
 30
0.0
 10
555.8489381960193
 20
205.4089175323838
 30
0.0
 10
555.8748597163766
 20
205.1973917928274
 30
0.0
 10
555.8708680154433
 20
205.0004982564679
 30
0.0
 10
555.8366241238497
 20
204.819497107667
 30
0.0
 10
555.7719104901358
 20
204.6558385926811
 30
0.0
 10
555.6769209508956
 20
204.5112566136426
 30
0.0
 10
555.5527283498892
 20
204.3871968177008
 30
0.0
 10
555.4006742593148
 20
204.2847186944242
 30
0.0
 10
555.2223282446916
 20
204.2040690966792
 30
0.0
 10
555.0189358419458
 20
204.1454652178752
 30
0.0
 10
554.7917316466306
 20
204.1089384896081
 30
0.0
 10
554.5419998449382
 20
204.0945765052183
 30
0.0
 10
554.2713237747822
 20
204.102385158489
 30
0.0
 10
554.0848106800008
 20
204.121541978616
 30
0.0
 10
553.9885551320313
 20
204.1344583600175
 30
0.0
  0
SPLINE
  5
17507
330
1F
100
AcDbEntity
  8
0
100
AcDbSpline
210
0.0
220
0.0
230
1.0
 70
     8
 71
     3
 72
    29
 73
    25
 74
     0
 42
0.0000000001
 43
0.0000000001
 40
0.0
 40
0.0
 40
0.0
 40
0.0
 40
0.0155010647
 40
0.0315041801
 40
0.04845632
 40
0.0667122634
 40
0.0865340966
 40
0.1080885192
 40
0.1314725545
 40
0.1567235498
 40
0.1838271984
 40
0.2127386042
 40
0.2756153098
 40
0.3444639618
 40
0.4180859122
 40
0.4950871216
 40
0.5739488142
 40
0.6530858837000002
 40
0.7309028956
 40
0.8058524722999999
 40
0.8764829664
 40
0.9415456686
 40
0.9716640986999999
 40
1.0
 40
1.0
 40
1.0
 40
1.0
 10
545.4107468845683
 20
207.4233587476164
 30
0.0
 10
545.384734800307
 20
207.3844692113176
 30
0.0
 10
545.3396941241974
 20
207.299890968165
 30
0.0
 10
545.2969706614593
 20
207.1591734906346
 30
0.0
 10
545.2785890244139
 20
207.0049868680561
 30
0.0
 10
545.2842897358577
 20
206.8384392211974
 30
0.0
 10
545.3138822272917
 20
206.6604656571016
 30
0.0
 10
545.3669336530248
 20
206.4719951384957
 30
0.0
 10
545.4431296067964
 20
206.2740399267095
 30
0.0
 10
545.5420052967158
 20
206.0677001472839
 30
0.0
 10
545.6629280155953
 20
205.8540981698142
 30
0.0
 10
545.8582488222454
 20
205.552849079803
 30
0.0
 10
546.1545212950785
 20
205.1680001663268
 30
0.0
 10
546.5733836085365
 20
204.7103584155357
 30
0.0
 10
547.0555198408111
 20
204.2553042294399
 30
0.0
 10
547.5896403402311
 20
203.8135818462359
 30
0.0
 10
548.1632407404969
 20
203.395607674193
 30
0.0
 10
548.7628124342021
 20
203.0112530525931
 30
0.0
 10
549.3742177607936
 20
202.6695764412895
 30
0.0
 10
549.9830471774763
 20
202.378597576429
 30
0.0
 10
550.5749618679566
 20
202.1450328902536
 30
0.0
 10
551.0544620506156
 20
201.9990631122649
 30
0.0
 10
551.4183848513746
 20
201.9174850262313
 30
0.0
 10
551.592522775058
 20
201.8883596413942
 30
0.0
 10
551.6772895258709
 20
201.8769849237239
 30
0.0
  0
SPLINE
  5
17508
330
1F
100
AcDbEntity
  8
0
100
AcDbSpline
210
0.0
220
0.0
230
1.0
 70
     8
 71
     3
 72
    15
 73
    11
 74
     0
 42
0.0000000001
 43
0.0000000001
 40
0.0
 40
0.0
 40
0.0
 40
0.0
 40
0.09618009
 40
0.1960188669
 40
0.3026969699
 40
0.4186523709000002
 40
0.5455934215
 40
0.6845832269
 40
0.8361025262999998
 40
1.0
 40
1.0
 40
1.0
 40
1.0
 10
547.908839370251
 20
192.4534298610942
 30
0.0
 10
547.873877254353
 20
192.4011751166139
 30
0.0
 10
547.7907025188405
 20
192.3021747282649
 30
0.0
 10
547.6335814552282
 20
192.1798537001587
 30
0.0
 10
547.4451137597988
 20
192.0830682857107
 30
0.0
 10
547.2270659328477
 20
192.0120659540236
 30
0.0
 10
546.9809263856465
 20
191.9669137945259
 30
0.0
 10
546.7082569932617
 20
191.9476333561505
 30
0.0
 10
546.4109434966898
 20
191.9542812263152
 30
0.0
 10
546.2055920616839
 20
191.9750230231135
 30
0.0
 10
546.0994053570222
 20
191.9892720509177
 30
0.0
  0
SPLINE
  5
17509
330
1F
100
AcDbEntity
  8
0
100
AcDbSpline
210
0.0
220
0.0
230
1.0
 70
     8
 71
     3
 72
     9
 73
     5
 74
     0
 42
0.0000000001
 43
0.0000000001
 40
0.0
 40
0.0
 40
0.0
 40
0.0
 40
0.2593058203
 40
1.0
 40
1.0
 40
1.0
 40
1.0
 10
549.5322690474851
 20
210.6187121292934
 30
0.0
 10
549.5210057742575
 20
210.6140673483238
 30
0.0
 10
549.4780232341835
 20
210.5950923725782
 30
0.0
 10
549.4369493891131
 20
210.5716559341844
 30
0.0
 10
549.408453204718
 20
210.5516785234459
 30
0.0
  0
SPLINE
  5
1750A
330
1F
100
AcDbEntity
  8
0
100
AcDbSpline
210
0.0
220
0.0
230
1.0
 70
     8
 71
     3
 72
    29
 73
    25
 74
     0
 42
0.0000000001
 43
0.0000000001
 40
0.0
 40
0.0
 40
0.0
 40
0.0
 40
0.0164057591
 40
0.0323265746
 40
0.0483484564
 40
0.065042538
 40
0.0829020637
 40
0.1022987597
 40
0.1234927537
 40
0.1466394668
 40
0.1718095805
 40
0.1990170818
 40
0.2592996625
 40
0.3267494115
 40
0.4001539726
 40
0.4780051849000002
 40
0.558602732
 40
0.6401346493000001
 40
0.7207513598000001
 40
0.7986405125
 40
0.8720904336
 40
0.9396222614
 40
0.9707822402999999
 40
1.0
 40
1.0
 40
1.0
 40
1.0
 10
549.408453204718
 20
210.5516785234459
 30
0.0
 10
549.3805861744773
 20
210.532142184745
 30
0.0
 10
549.3290098913925
 20
210.4884813786698
 30
0.0
 10
549.2670756072875
 20
210.4086638763122
 30
0.0
 10
549.2231771286046
 20
210.3169942571789
 30
0.0
 10
549.1976303805049
 20
210.2145726753013
 30
0.0
 10
549.1904248768611
 20
210.1023702394409
 30
0.0
 10
549.2012054195279
 20
209.9812026561207
 30
0.0
 10
549.2297937447878
 20
209.8517995833271
 30
0.0
 10
549.2758762347131
 20
209.7149232913626
 30
0.0
 10
549.3390851725584
 20
209.5713700342948
 30
0.0
 10
549.4495674884246
 20
209.365213622416
 30
0.0
 10
549.6297482638333
 20
209.0980535508212
 30
0.0
 10
549.8971025705615
 20
208.7770329417167
 30
0.0
 10
550.2159021388503
 20
208.4535649934015
 30
0.0
 10
550.577810041817
 20
208.1362058615299
 30
0.0
 10
550.9733549693477
 20
207.8333468680894
 30
0.0
 10
551.3920877746783
 20
207.5530276190304
 30
0.0
 10
551.8229224954892
 20
207.3026776366274
 30
0.0
 10
552.254449053271
 20
207.088907531721
 30
0.0
 10
552.675241913336
 20
206.9172631968017
 30
0.0
 10
553.0165395839282
 20
206.8102336326181
 30
0.0
 10
553.2752790983828
 20
206.7509121058874
 30
0.0
 10
553.3988682096873
 20
206.7299844055006
 30
0.0
 10
553.4589405513545
 20
206.7219233919343
 30
0.0
  0
SPLINE
  5
1750B
330
1F
100
AcDbEntity
  8
0
100
AcDbSpline
210
0.0
220
0.0
230
1.0
 70
     8
 71
     3
 72
    40
 73
    36
 74
     0
 42
0.0000000001
 43
0.0000000001
 40
0.0
 40
0.0
 40
0.0
 40
0.0
 40
0.0282221204
 40
0.0539070445
 40
0.0770659972
 40
0.0877587732
 40
0.0979034811
 40
0.1167392802
 40
0.1255916398
 40
0.1341731546
 40
0.1425852129
 40
0.1509365372
 40
0.159338553
 40
0.1679007775
 40
0.1858739235
 40
0.2055589884
 40
0.2274131664
 40
0.2517030313
 40
0.2785398264
 40
0.3079253523999999
 40
0.3397703854
 40
0.3739257444
 40
0.4101852941
 40
0.4483075837
 40
0.5289859745000002
 40
0.6135007301
 40
0.6563617285
 40
0.6991570229999999
 40
0.7831489004000001
 40
0.8236906699999998
 40
0.8628320158000001
 40
0.9002759843999999
 40
0.9357681405000001
 40
0.9690825225000001
 40
1.0
 40
1.0
 40
1.0
 40
1.0
 10
548.2790310955428
 20
211.1423779665422
 30
0.0
 10
548.1618495380675
 20
211.1573676882651
 30
0.0
 10
547.9367527181283
 20
211.1774439057235
 30
0.0
 10
547.6136302416376
 20
211.1754623071537
 30
0.0
 10
547.3655005380043
 20
211.144844707255
 30
0.0
 10
547.1861564459969
 20
211.1021278919753
 30
0.0
 10
547.0281381857411
 20
211.0507032768642
 30
0.0
 10
546.8841365360617
 20
210.9818789645123
 30
0.0
 10
546.7595357113252
 20
210.8946358383555
 30
0.0
 10
546.6785175743001
 20
210.8225351278216
 30
0.0
 10
546.6082965258001
 20
210.742644391044
 30
0.0
 10
546.5490645235546
 20
210.6551962156555
 30
0.0
 10
546.5010161738141
 20
210.5604297277233
 30
0.0
 10
546.4512773762367
 20
210.4225586502512
 30
0.0
 10
546.4186618425059
 20
210.2301164670689
 30
0.0
 10
546.426801120686
 20
209.9798490042896
 30
0.0
 10
546.4801638757266
 20
209.7085145236387
 30
0.0
 10
546.5779224240526
 20
209.4183533239701
 30
0.0
 10
546.7189020287264
 20
209.1116686127511
 30
0.0
 10
546.9018743638583
 20
208.7911819484373
 30
0.0
 10
547.1250656546231
 20
208.4597320854129
 30
0.0
 10
547.3864914660665
 20
208.1204627994473
 30
0.0
 10
547.6836359831334
 20
207.7764880595966
 30
0.0
 10
548.1323323088274
 20
207.3071662360059
 30
0.0
 10
548.7627159226152
 20
206.7336831169633
 30
0.0
 10
549.4524041887597
 20
206.2004283679069
 30
0.0
 10
550.0398626189288
 20
205.797283865155
 30
0.0
 10
550.6403760115205
 20
205.4180011858818
 30
0.0
 10
551.2536596617861
 20
205.0778167084198
 30
0.0
 10
551.8724744855343
 20
204.7833560817093
 30
0.0
 10
552.3241742669149
 20
204.5922437738048
 30
0.0
 10
552.7646109232607
 20
204.4300868895146
 30
0.0
 10
553.1896615112432
 20
204.2983617267841
 30
0.0
 10
553.5952167424095
 20
204.198420184786
 30
0.0
 10
553.8602857909019
 20
204.1516706222791
 30
0.0
 10
553.9885551320313
 20
204.1344583600175
 30
0.0
  0
SPLINE
  5
1750C
330
1F
100
AcDbEntity
  8
0
100
AcDbSpline
210
0.0
220
0.0
230
1.0
 70
     8
 71
     3
 72
    31
 73
    27
 74
     0
 42
0.0000000001
 43
0.0000000001
 40
0.0
 40
0.0
 40
0.0
 40
0.0
 40
0.0155004225
 40
0.0315034559
 40
0.0484541193
 40
0.0667106862
 40
0.0865309548
 40
0.1080845521
 40
0.131468887
 40
0.1567172055
 40
0.1838218647
 40
0.2127310721
 40
0.2433668328
 40
0.2756245827
 40
0.3444707305
 40
0.4180893968000002
 40
0.4950879201
 40
0.5739472736
 40
0.6530817638000001
 40
0.7308956185
 40
0.8058425353
 40
0.8764726506999998
 40
0.9097726458
 40
0.9415449512999998
 40
0.971662004
 40
1.0
 40
1.0
 40
1.0
 40
1.0
 10
538.3504510123802
 20
198.8476938149386
 30
0.0
 10
538.3182791243408
 20
198.7996093741785
 30
0.0
 10
538.2625828444687
 20
198.6950186003846
 30
0.0
 10
538.209786713132
 20
198.5210088958847
 30
0.0
 10
538.186996545629
 20
198.330351134298
 30
0.0
 10
538.1941114581935
 20
198.1244072163256
 30
0.0
 10
538.2306599647193
 20
197.9043276519969
 30
0.0
 10
538.2962709113964
 20
197.6712713087744
 30
0.0
 10
538.3905132151252
 20
197.4265018866791
 30
0.0
 10
538.5127368650477
 20
197.1713236638266
 30
0.0
 10
538.6623137945663
 20
196.9072272028311
 30
0.0
 10
538.8382980338835
 20
196.6356838339429
 30
0.0
 10
539.0397115406027
 20
196.358301388018
 30
0.0
 10
539.3473064392723
 20
195.9744851051704
 30
0.0
 10
539.7881718434829
 20
195.4928892856092
 30
0.0
 10
540.3843012252813
 20
194.930209154522
 30
0.0
 10
541.0447821374263
 20
194.3839818177223
 30
0.0
 10
541.7540713524179
 20
193.8671322004497
 30
0.0
 10
542.4954820855813
 20
193.3918671603287
 30
0.0
 10
543.2515303124447
 20
192.9693560621853
 30
0.0
 10
544.0043469193933
 20
192.609566556386
 30
0.0
 10
544.6260396806782
 20
192.3642029550074
 30
0.0
 10
545.1078945594971
 20
192.2076844094082
 30
0.0
 10
545.4504823959011
 20
192.1130267546821
 30
0.0
 10
545.7792352214489
 20
192.0393557003277
 30
0.0
 10
545.9945748947781
 20
192.0033390866661
 30
0.0
 10
546.0994053570222
 20
191.9892720509177
 30
0.0
  0
SPLINE
  5
1750D
330
1F
100
AcDbEntity
  8
0
100
AcDbSpline
210
0.0
220
0.0
230
1.0
 70
     8
 71
     3
 72
    15
 73
    11
 74
     0
 42
0.0000000001
 43
0.0000000001
 40
0.0
 40
0.0
 40
0.0
 40
0.0
 40
0.0961803489
 40
0.196022779
 40
0.3026940959
 40
0.4186468741
 40
0.5455903932
 40
0.6845987798000001
 40
0.8361229596999999
 40
1.0
 40
1.0
 40
1.0
 40
1.0
 10
547.6695704147718
 20
193.4446097062215
 30
0.0
 10
547.6391747335534
 20
193.3991664447052
 30
0.0
 10
547.5668502451807
 20
193.3130710250379
 30
0.0
 10
547.430204461706
 20
193.2067345418561
 30
0.0
 10
547.2663417326907
 20
193.1225393827559
 30
0.0
 10
547.0767295427394
 20
193.0608204483395
 30
0.0
 10
546.8626885720188
 20
193.0215414624404
 30
0.0
 10
546.6255674792884
 20
193.0047925943276
 30
0.0
 10
546.3670329697055
 20
193.0105708169368
 30
0.0
 10
546.1884744942461
 20
193.0286022962459
 30
0.0
 10
546.0961496622299
 20
193.0409912210342
 30
0.0
  0
SPLINE
  5
1750E
330
1F
100
AcDbEntity
  8
0
100
AcDbSpline
210
0.0
220
0.0
230
1.0
 70
     8
 71
     3
 72
    15
 73
    11
 74
     0
 42
0.0000000001
 43
0.0000000001
 40
0.0
 40
0.0
 40
0.0
 40
0.0
 40
0.0961803489
 40
0.196022779
 40
0.3026940959
 40
0.4186468741
 40
0.5455903932
 40
0.6845987798000001
 40
0.8361229596999999
 40
1.0
 40
1.0
 40
1.0
 40
1.0
 10
553.1405678991911
 20
202.2523493641863
 30
0.0
 10
553.1122999722025
 20
202.2100872155072
 30
0.0
 10
553.0450383325248
 20
202.1300186353339
 30
0.0
 10
552.9179580080532
 20
202.0311259037613
 30
0.0
 10
552.7655659748583
 20
201.9528245624067
 30
0.0
 10
552.5892269908835
 20
201.8954260681959
 30
0.0
 10
552.3901692862136
 20
201.8588966843483
 30
0.0
 10
552.1696471110394
 20
201.8433202681768
 30
0.0
 10
551.9292104979999
 20
201.8486940044632
 30
0.0
 10
551.7631514479321
 20
201.865463246698
 30
0.0
 10
551.6772895258709
 20
201.8769849237239
 30
0.0
  0
SPLINE
  5
1750F
330
1F
100
AcDbEntity
  8
0
100
AcDbSpline
210
0.0
220
0.0
230
1.0
 70
     8
 71
     3
 72
    15
 73
    11
 74
     0
 42
0.0000000001
 43
0.0000000001
 40
0.0
 40
0.0
 40
0.0
 40
0.0
 40
0.0961803489
 40
0.196022779
 40
0.3026940959
 40
0.4186468741
 40
0.5455903932
 40
0.6845987798000001
 40
0.8361229596999999
 40
1.0
 40
1.0
 40
1.0
 40
1.0
 10
553.1205930530728
 20
201.5930051584434
 30
0.0
 10
553.090197371873
 20
201.5475618969549
 30
0.0
 10
553.0178728834818
 20
201.4614664772599
 30
0.0
 10
552.8812271000073
 20
201.3551299940781
 30
0.0
 10
552.7173643709918
 20
201.270934834978
 30
0.0
 10
552.5277521810591
 20
201.2092159005893
 30
0.0
 10
552.3137112103198
 20
201.1699369146624
 30
0.0
 10
552.0765901175893
 20
201.1531880465495
 30
0.0
 10
551.8180556080066
 20
201.1589662691587
 30
0.0
 10
551.6394971325657
 20
201.1769977484954
 30
0.0
 10
551.5471723005495
 20
201.1893866732839
 30
0.0
  0
HATCH
  5
176F8
330
1F
100
AcDbEntity
  8
hat
100
AcDbHatch
 10
0.0
 20
0.0
 30
0.0
210
0.0
220
0.0
230
1.0
  2
ANSI31
 70
     0
 71
     0
 91
        3
 92
       23
 72
     0
 73
     1
 93
        9
 10
592.3302573005128
 20
265.2376506416584
 10
592.3302573005124
 20
266.3876819881362
 10
591.7802336713366
 20
266.3876819881362
 10
591.1739971471092
 20
266.7376915283686
 10
580.5299270210107
 20
266.7376915283686
 10
579.7799065776557
 20
267.4877119717237
 10
578.7798793198488
 20
267.4877119717237
 10
578.7798793198488
 20
266.2376778994653
 10
580.5119765317331
 20
265.2376506416584
 97
        0
 92
        5
 93
       13
 72
     1
 10
596.3010828385747
 20
261.7375552393349
 11
613.7802781866776
 21
261.7375552393349
 72
     1
 10
613.7802781866776
 20
261.7375552393349
 11
613.7802781866776
 21
263.7375552393349
 72
     2
 10
611.5442102091779
 20
261.7375552393348
 40
3.000000000000034
 50
41.81031489578085
 51
90.0
 73
     1
 72
     1
 10
611.5442102091779
 20
264.7375552393348
 11
597.5732689175229
 21
264.7375552393348
 72
     2
 10
597.5732689173813
 20
264.9375606908964
 40
0.2000054515614306
 50
89.99999995948542
 51
150.5128794641568
 73
     0
 72
     1
 10
597.3991708989053
 20
264.8391124272398
 11
596.0143036874542
 21
267.2377318176137
 72
     4
 94
        3
 73
     1
 74
     0
 95
        8
 96
        4
 40
0.0
 40
0.0
 40
0.0
 40
0.0
 40
1.0
 40
1.0
 40
1.0
 40
1.0
 10
596.0143217820467
 20
267.2377051572719
 42
1.0
 10
595.9228129368167
 20
267.396203126528
 42
0.9106836024999999
 10
595.7643149675955
 20
267.4877119717237
 42
0.9106836024999999
 10
595.58129727717
 20
267.4877119717237
 42
1.0
 72
     1
 10
595.5812972771707
 20
267.4877119717237
 11
593.7802781866776
 21
267.4877119717237
 72
     1
 10
593.7802781866776
 20
267.4877119717237
 11
593.7802781866776
 21
266.3876819881362
 72
     1
 10
593.7802781866776
 20
266.3876819881362
 11
593.230284558319
 21
266.3876819881362
 72
     1
 10
593.230284558319
 20
266.3876819881362
 11
593.2302845583192
 21
265.2376506416585
 72
     1
 10
593.2302845583192
 20
265.2376506416584
 11
594.2803018158537
 21
265.2376506416584
 72
     1
 10
594.2803018158537
 20
265.2376506416584
 11
596.3010828385747
 21
261.7375552393349
 97
        0
 92
        5
 93
       18
 72
     1
 10
594.2803018158537
 20
258.2374598370113
 11
580.5119765317331
 21
258.2374598370113
 72
     1
 10
580.5119765317331
 20
258.2374598370113
 11
578.7798793198488
 21
257.2374325792045
 72
     1
 10
578.7798793198488
 20
257.2374325792046
 11
578.7798793198488
 21
255.9873985069462
 72
     1
 10
578.7798793198488
 20
255.9873985069462
 11
579.7799065776557
 21
255.9873985069462
 72
     1
 10
579.7799065776557
 20
255.9873985069462
 11
580.5299270210107
 21
256.7374189503011
 72
     1
 10
580.5299270210107
 20
256.7374189503011
 11
591.173997147109
 21
256.7374189503011
 72
     1
 10
591.173997147109
 20
256.7374189503011
 11
591.7802336713366
 21
257.0874284905336
 72
     1
 10
591.7802336713366
 20
257.0874284905336
 11
593.7802781866772
 21
257.0874284905336
 72
     1
 10
593.7802781866772
 20
257.0874284905336
 11
593.7802781866776
 21
255.9873985069462
 72
     1
 10
593.7802781866776
 20
255.9873985069462
 11
595.5812972771716
 21
255.9873985069462
 72
     4
 94
        3
 73
     1
 74
     0
 95
        8
 96
        4
 40
0.0
 40
0.0
 40
0.0
 40
0.0
 40
1.0
 40
1.0
 40
1.0
 40
1.0
 10
595.58129727717
 20
255.9873985069461
 42
1.0
 10
595.7643149675955
 20
255.9873985069462
 42
0.9106836024999999
 10
595.9228129368167
 20
256.0789073521753
 42
0.9106836024999999
 10
596.0143217820467
 20
256.2374053213978
 42
1.0
 72
     1
 10
596.0143036874549
 20
256.2373786610574
 11
597.3991708989005
 21
258.6359980514215
 72
     2
 10
597.5732689173813
 20
258.5375497877734
 40
0.2000054515614303
 50
209.4871205330969
 51
270.0000000405146
 73
     0
 72
     1
 10
597.5732689175229
 20
258.7375552393348
 11
611.5442102091779
 21
258.7375552393348
 72
     2
 10
611.5442102091779
 20
261.7375552393349
 40
3.000000000000029
 50
270.0
 51
318.1896851042201
 73
     1
 72
     1
 10
613.7802781866776
 20
259.7375552393348
 11
613.7802781866776
 21
261.7375552393349
 72
     1
 10
613.7802781866776
 20
261.7375552393349
 11
596.3010828385747
 21
261.7375552393349
 72
     1
 10
596.3010828385747
 20
261.7375552393349
 11
594.2803018158537
 21
258.2374598370114
 97
        0
 75
     0
 76
     1
 52
0.0
 41
8.0
 77
     0
 78
     1
 53
45.0
 43
66.51547241913874
 44
-5.960419140344328
 45
-0.7071067811865475
 46
0.7071067811865476
 79
     0
 47
0.0366649657838513
 98
        3
 10
590.3245080197347
 20
265.7238500341728
 10
594.7281344906719
 20
265.3205344925286
 10
596.1593165206427
 20
259.5274702199877
1001
ACAD
1010
0.0
1020
0.0
1030
0.0
  0
LINE
  5
176FA
330
1F
100
AcDbEntity
  8
hat
  6
CENTERX2
 62
     1
100
AcDbLine
 10
576.7709606177517
 20
261.7375552393349
 30
0.0
 11
614.6219453406082
 21
261.7375552393349
 31
0.0
  0
LINE
  5
176FC
330
1F
100
AcDbEntity
  8
CEN
  6
ByBlock
 62
     6
100
AcDbLine
 10
591.0489937398834
 20
238.9502193331874
 30
0.0
 11
585.8523608626292
 21
238.9502193331874
 31
0.0
  0
LINE
  5
176FD
330
1F
100
AcDbEntity
  8
CEN
  6
ByBlock
 62
     6
100
AcDbLine
 10
591.0489937398834
 20
228.94994675512
 30
0.0
 11
585.8523608626292
 21
228.94994675512
 31
0.0
  0
LINE
  5
176FF
330
1F
100
AcDbEntity
  8
0
100
AcDbLine
 10
578.7798793198488
 20
267.4877119717237
 30
0.0
 11
578.7798793198488
 21
255.9873985069462
 31
0.0
  0
LINE
  5
17700
330
1F
100
AcDbEntity
  8
0
100
AcDbLine
 10
580.5119765317331
 20
265.2376506416584
 30
0.0
 11
580.5119765317331
 21
258.2374598370113
 31
0.0
  0
LINE
  5
17701
330
1F
100
AcDbEntity
  8
0
100
AcDbLine
 10
579.7799065776557
 20
255.9873985069462
 30
0.0
 11
580.5299270210107
 21
256.7374189503011
 31
0.0
  0
LINE
  5
17702
330
1F
100
AcDbEntity
  8
0
100
AcDbLine
 10
579.7799065776557
 20
267.4877119717237
 30
0.0
 11
580.5299270210107
 21
266.7376915283686
 31
0.0
  0
LINE
  5
17703
330
1F
100
AcDbEntity
  8
0
100
AcDbLine
 10
578.7798793198488
 20
255.9873985069462
 30
0.0
 11
579.7799065776557
 21
255.9873985069462
 31
0.0
  0
LINE
  5
17704
330
1F
100
AcDbEntity
  8
0
100
AcDbLine
 10
593.7802781866776
 20
255.9873985069462
 30
0.0
 11
595.58129727717
 21
255.9873985069462
 31
0.0
  0
LINE
  5
17705
330
1F
100
AcDbEntity
  8
0
100
AcDbLine
 10
580.5299270210107
 20
256.7374189503011
 30
0.0
 11
591.1739971471092
 21
256.7374189503011
 31
0.0
  0
LINE
  5
17706
330
1F
100
AcDbEntity
  8
0
100
AcDbLine
 10
578.7798793198488
 20
257.2374325792046
 30
0.0
 11
580.5119765317331
 21
258.2374598370113
 31
0.0
  0
LINE
  5
17707
330
1F
100
AcDbEntity
  8
0
100
AcDbLine
 10
580.5119765317331
 20
258.2374598370113
 30
0.0
 11
594.2803018158537
 21
258.2374598370113
 31
0.0
  0
LINE
  5
17708
330
1F
100
AcDbEntity
  8
0
100
AcDbLine
 10
578.7798793198488
 20
266.2376778994651
 30
0.0
 11
580.5119765317331
 21
265.2376506416584
 31
0.0
  0
LINE
  5
17709
330
1F
100
AcDbEntity
  8
CEN
  6
CENTER
 62
     1
 48
0.05
100
AcDbLine
 10
592.780270929416
 20
264.2263850301396
 30
0.0
 11
592.780270929416
 21
267.387709245943
 31
0.0
  0
LINE
  5
1770A
330
1F
100
AcDbEntity
  8
0
100
AcDbLine
 10
593.7802781866776
 20
267.4877119717237
 30
0.0
 11
593.7802781866776
 21
266.3876819881362
 31
0.0
  0
LINE
  5
1770B
330
1F
100
AcDbEntity
  8
0
100
AcDbLine
 10
593.7802781866772
 20
257.0874284905336
 30
0.0
 11
593.7802781866776
 21
255.9873985069462
 31
0.0
  0
LINE
  5
1770C
330
1F
100
AcDbEntity
  8
0
100
AcDbLine
 10
594.2803018158537
 20
265.2376506416584
 30
0.0
 11
594.2803018158537
 21
258.2374598370113
 31
0.0
  0
LINE
  5
1770D
330
1F
100
AcDbEntity
  8
0
100
AcDbLine
 10
596.0143190800728
 20
256.2374053213979
 30
0.0
 11
596.8217478149759
 21
257.6358890199572
 31
0.0
  0
LINE
  5
1770E
330
1F
100
AcDbEntity
  8
0
100
AcDbLine
 10
580.5119765317331
 20
265.2376506416584
 30
0.0
 11
592.2802573005127
 21
265.2376506416584
 31
0.0
  0
LINE
  5
1770F
330
1F
100
AcDbEntity
  8
0
100
AcDbLine
 10
593.280284558319
 20
265.2376506416584
 30
0.0
 11
594.2803018158537
 21
265.2376506416584
 31
0.0
  0
LINE
  5
17710
330
1F
100
AcDbEntity
  8
0
100
AcDbLine
 10
596.0143190800728
 20
267.237705157272
 30
0.0
 11
596.8217478149759
 21
265.8392214587126
 31
0.0
  0
LINE
  5
17711
330
1F
100
AcDbEntity
  8
0
100
AcDbLine
 10
580.5299270210107
 20
266.7376915283686
 30
0.0
 11
591.1739971471092
 21
266.7376915283686
 31
0.0
  0
LINE
  5
17712
330
1F
100
AcDbEntity
  8
0
100
AcDbLine
 10
578.7798793198488
 20
267.4877119717237
 30
0.0
 11
579.7799065776557
 21
267.4877119717237
 31
0.0
  0
LINE
  5
17713
330
1F
100
AcDbEntity
  8
0
100
AcDbLine
 10
593.7802781866776
 20
267.4877119717237
 30
0.0
 11
595.58129727717
 21
267.4877119717237
 31
0.0
  0
LINE
  5
17714
102
{ACAD_REACTORS
330
1774D
102
}
330
1F
100
AcDbEntity
  8
0
100
AcDbLine
 10
578.7798793198488
 20
228.200083044137
 30
0.0
 11
578.7798793198488
 21
239.700083044137
 31
0.0
  0
LINE
  5
17715
330
1F
100
AcDbEntity
  8
0
100
AcDbLine
 10
579.7799065776557
 20
228.199926311765
 30
0.0
 11
579.7799065776557
 21
239.7002397765424
 31
0.0
  0
LINE
  5
17716
330
1F
100
AcDbEntity
  8
0
100
AcDbLine
 10
580.5299270210107
 20
228.94994675512
 30
0.0
 11
580.5299270210107
 21
238.9502193331874
 31
0.0
  0
LINE
  5
17717
330
1F
100
AcDbEntity
  8
0
100
AcDbLine
 10
579.7799065776557
 20
228.199926311765
 30
0.0
 11
580.5299270210107
 21
228.94994675512
 31
0.0
  0
LINE
  5
17718
330
1F
100
AcDbEntity
  8
0
100
AcDbLine
 10
579.7799065776557
 20
239.7002397765424
 30
0.0
 11
580.5299270210107
 21
238.9502193331874
 31
0.0
  0
LINE
  5
17719
330
1F
100
AcDbEntity
  8
0
100
AcDbLine
 10
578.7798793198488
 20
228.199926311765
 30
0.0
 11
579.7799065776557
 21
228.199926311765
 31
0.0
  0
LINE
  5
1771A
102
{ACAD_REACTORS
330
1774A
102
}
330
1F
100
AcDbEntity
  8
0
100
AcDbLine
 10
593.7802781866776
 20
228.199926311765
 30
0.0
 11
595.08129727717
 21
228.199926311765
 31
0.0
  0
LINE
  5
1771B
330
1F
100
AcDbEntity
  8
0
100
AcDbLine
 10
580.5299270210107
 20
228.94994675512
 30
0.0
 11
591.1739971471092
 21
228.94994675512
 31
0.0
  0
LINE
  5
1771C
330
1F
100
AcDbEntity
  8
0
100
AcDbLine
 10
593.7802781866776
 20
228.200083044137
 30
0.0
 11
593.7802781866776
 21
239.700083044137
 31
0.0
  0
LINE
  5
1771D
330
1F
100
AcDbEntity
  8
0
100
AcDbLine
 10
580.5299270210107
 20
238.9502193331874
 30
0.0
 11
591.1739971471092
 21
238.9502193331874
 31
0.0
  0
LINE
  5
1771E
330
1F
100
AcDbEntity
  8
0
100
AcDbLine
 10
578.7798793198488
 20
239.7002397765424
 30
0.0
 11
579.7799065776557
 21
239.7002397765424
 31
0.0
  0
LINE
  5
1771F
102
{ACAD_REACTORS
330
1774A
102
}
330
1F
100
AcDbEntity
  8
0
100
AcDbLine
 10
593.7802781866776
 20
239.7002397765424
 30
0.0
 11
595.08129727717
 21
239.7002397765424
 31
0.0
  0
ARC
  5
17720
330
1F
100
AcDbEntity
  8
0
100
AcDbCircle
 10
592.7390536825957
 20
267.5235805420459
 30
0.0
 40
2.322195080375121
100
AcDbArc
 50
259.8608858252997
 51
271.0170111549164
  0
ARC
  5
17721
330
1F
100
AcDbEntity
  8
0
100
AcDbCircle
 10
595.58129727717
 20
256.4874121358496
 30
0.0
 40
0.5000136289033682
100
AcDbArc
 50
270.0
 51
329.9999999999849
  0
ARC
  5
17722
330
1F
100
AcDbEntity
  8
0
100
AcDbCircle
 10
595.08129727717
 20
239.200226147639
 30
0.0
 40
0.5000136289033682
100
AcDbArc
 50
30.00000000001363
 51
90.0
  0
ARC
  5
17723
330
1F
100
AcDbEntity
  8
0
100
AcDbCircle
 10
592.8214873512407
 20
267.5235908850742
 30
0.0
 40
2.322205407147034
100
AcDbArc
 50
268.9830137261036
 51
280.139089287802
  0
ARC
  5
17724
330
1F
100
AcDbEntity
  8
0
100
AcDbCircle
 10
595.58129727717
 20
266.9876983428203
 30
0.0
 40
0.5000136289033682
100
AcDbArc
 50
30.00000000001363
 51
90.0
  0
ARC
  5
17725
330
1F
100
AcDbEntity
  8
0
100
AcDbCircle
 10
597.5732689175229
 20
264.9375606906462
 30
0.0
 40
0.2000054515613473
100
AcDbArc
 50
209.4871204550874
 51
269.9971352109912
  0
ARC
  5
17726
330
1F
100
AcDbEntity
  8
0
100
AcDbCircle
 10
595.08129727717
 20
228.6999399406683
 30
0.0
 40
0.5000136289033682
100
AcDbArc
 50
270.0
 51
329.9999999999849
  0
LINE
  5
17727
330
1F
100
AcDbEntity
  8
0
100
AcDbLine
 10
580.5119765317331
 20
265.2376506416584
 30
0.0
 11
592.330257300513
 21
265.2376506416584
 31
0.0
  0
LINE
  5
17728
330
1F
100
AcDbEntity
  8
0
100
AcDbLine
 10
578.7798793198488
 20
266.2376778994651
 30
0.0
 11
580.5119765317331
 21
265.2376506416584
 31
0.0
  0
LINE
  5
17729
330
1F
100
AcDbEntity
  8
0
100
AcDbLine
 10
578.7798793198488
 20
267.4877119717237
 30
0.0
 11
579.7799065776557
 21
267.4877119717237
 31
0.0
  0
LINE
  5
1772A
330
1F
100
AcDbEntity
  8
0
100
AcDbLine
 10
578.7798793198488
 20
267.4877119717237
 30
0.0
 11
578.7798793198488
 21
266.2376778994651
 31
0.0
  0
LINE
  5
1772B
330
1F
100
AcDbEntity
  8
0
100
AcDbLine
 10
579.7799065776557
 20
267.4877119717237
 30
0.0
 11
580.5299270210107
 21
266.7376915283686
 31
0.0
  0
LINE
  5
1772C
330
1F
100
AcDbEntity
  8
0
100
AcDbLine
 10
592.3302573005124
 20
266.3876819881362
 30
0.0
 11
592.3302573005128
 21
265.2376506416584
 31
0.0
  0
LINE
  5
1772D
330
1F
100
AcDbEntity
  8
0
100
AcDbLine
 10
580.5299270210107
 20
266.7376915283686
 30
0.0
 11
591.1739971471092
 21
266.7376915283686
 31
0.0
  0
LINE
  5
1772E
330
1F
100
AcDbEntity
  8
0
100
AcDbLine
 10
593.230284558319
 20
266.3876819881362
 30
0.0
 11
593.2302845583192
 21
265.2376506416584
 31
0.0
  0
LINE
  5
1772F
330
1F
100
AcDbEntity
  8
0
100
AcDbLine
 10
593.2302845583192
 20
265.2376506416584
 30
0.0
 11
594.2803018158537
 21
265.2376506416584
 31
0.0
  0
LINE
  5
17730
330
1F
100
AcDbEntity
  8
0
100
AcDbLine
 10
593.7802781866776
 20
267.4877119717237
 30
0.0
 11
595.58129727717
 21
267.4877119717237
 31
0.0
  0
LINE
  5
17731
330
1F
100
AcDbEntity
  8
0
100
AcDbLine
 10
593.7802781866776
 20
267.4877119717237
 30
0.0
 11
593.7802781866776
 21
266.3876819881362
 31
0.0
  0
LINE
  5
17732
330
1F
100
AcDbEntity
  8
0
100
AcDbLine
 10
596.0143190800728
 20
267.237705157272
 30
0.0
 11
597.4009627137284
 21
264.8360089659527
 31
0.0
  0
SPLINE
  5
17733
330
1F
100
AcDbEntity
  8
0
100
AcDbSpline
210
0.0
220
0.0
230
1.0
 70
    12
 71
     3
 72
     8
 73
     4
 74
     0
 42
0.0000000001
 43
0.0000000001
 40
0.0
 40
0.0
 40
0.0
 40
0.0
 40
1.0
 40
1.0
 40
1.0
 40
1.0
 10
595.58129727717
 20
267.4877119717237
 30
0.0
 41
1.0
 10
595.7643149675955
 20
267.4877119717237
 30
0.0
 41
0.9106836024999999
 10
595.9228129368167
 20
267.396203126528
 30
0.0
 41
0.9106836024999999
 10
596.0143217820467
 20
267.2377051572719
 30
0.0
 41
1.0
  0
LINE
  5
17734
330
1F
100
AcDbEntity
  8
0
100
AcDbLine
 10
596.0143190800728
 20
256.2374053213979
 30
0.0
 11
597.4009627137339
 21
258.6391015127264
 31
0.0
  0
SPLINE
  5
17735
330
1F
100
AcDbEntity
  8
0
100
AcDbSpline
210
0.0
220
0.0
230
1.0
 70
    12
 71
     3
 72
     8
 73
     4
 74
     0
 42
0.0000000001
 43
0.0000000001
 40
0.0
 40
0.0
 40
0.0
 40
0.0
 40
1.0
 40
1.0
 40
1.0
 40
1.0
 10
595.58129727717
 20
255.9873985069461
 30
0.0
 41
1.0
 10
595.7643149675955
 20
255.9873985069462
 30
0.0
 41
0.9106836024999999
 10
595.9228129368167
 20
256.0789073521753
 30
0.0
 41
0.9106836024999999
 10
596.0143217820467
 20
256.2374053213978
 30
0.0
 41
1.0
  0
LINE
  5
17736
330
1F
100
AcDbEntity
  8
0
100
AcDbLine
 10
593.7802781866776
 20
255.9873985069462
 30
0.0
 11
595.58129727717
 21
255.9873985069462
 31
0.0
  0
LINE
  5
17737
330
1F
100
AcDbEntity
  8
0
100
AcDbLine
 10
593.7802781866772
 20
257.0874284905336
 30
0.0
 11
593.7802781866776
 21
255.9873985069462
 31
0.0
  0
LINE
  5
17738
330
1F
100
AcDbEntity
  8
0
100
AcDbLine
 10
580.5299270210107
 20
256.7374189503011
 30
0.0
 11
591.173997147109
 21
256.7374189503011
 31
0.0
  0
LINE
  5
17739
330
1F
100
AcDbEntity
  8
0
100
AcDbLine
 10
579.7799065776557
 20
255.9873985069462
 30
0.0
 11
580.5299270210107
 21
256.7374189503011
 31
0.0
  0
LINE
  5
1773A
330
1F
100
AcDbEntity
  8
0
100
AcDbLine
 10
578.7798793198488
 20
255.9873985069462
 30
0.0
 11
579.7799065776557
 21
255.9873985069462
 31
0.0
  0
LINE
  5
1773B
330
1F
100
AcDbEntity
  8
0
100
AcDbLine
 10
578.7798793198488
 20
257.2374325792046
 30
0.0
 11
580.5119765317331
 21
258.2374598370113
 31
0.0
  0
LINE
  5
1773C
102
{ACAD_REACTORS
330
17753
102
}
330
1F
100
AcDbEntity
  8
0
100
AcDbLine
 10
578.7798793198488
 20
257.2374325792046
 30
0.0
 11
578.7798793198488
 21
255.9873985069462
 31
0.0
  0
LINE
  5
1773D
330
1F
100
AcDbEntity
  8
0
100
AcDbLine
 10
580.5119765317331
 20
258.2374598370113
 30
0.0
 11
594.2803018158537
 21
258.2374598370113
 31
0.0
  0
DIMENSION
  5
17748
102
{ACAD_XDICTIONARY
360
17749
102
}
102
{ACAD_REACTORS
330
1774A
102
}
330
1F
100
AcDbEntity
  8
DIM
100
AcDbDimension
  2
*D2
 10
593.3950889604499
 20
228.199926311765
 30
0.0
 11
593.3950889604499
 21
244.4645254908282
 31
0.0
 70
   160
  1
%%C<>
 71
     5
 42
11.50031346477743
 73
     0
 74
     0
 75
     0
  3
01
100
AcDbAlignedDimension
 13
594.4307877319237
 23
239.7002397765424
 33
0.0
 14
594.4307877319237
 24
228.199926311765
 34
0.0
 50
90.0
100
AcDbRotatedDimension
1001
ACAD_DSTYLE_DIMINSPECT
1070
   394
1070
     4
1070
   393
1070
     1
  0
DIMENSION
  5
1774B
102
{ACAD_XDICTIONARY
360
1774C
102
}
102
{ACAD_REACTORS
330
1774D
102
}
330
1F
100
AcDbEntity
  8
DIM
100
AcDbDimension
  2
*D3
 10
576.3176149303752
 20
228.200083044137
 30
0.0
 11
576.3176149303752
 21
233.9500830441372
 31
0.0
 70
   160
  1
%%C<>
 71
     5
 42
11.5
 73
     0
 74
     0
 75
     0
  3
01
100
AcDbAlignedDimension
 13
578.7798793198488
 23
239.700083044137
 33
0.0
 14
578.7798793198488
 24
228.200083044137
 34
0.0
 50
90.0
100
AcDbRotatedDimension
  0
DIMENSION
  5
17751
102
{ACAD_XDICTIONARY
360
17752
102
}
102
{ACAD_REACTORS
330
17753
102
}
330
1F
100
AcDbEntity
  8
DIM
100
AcDbDimension
  2
*D4
 10
594.2803018158537
 20
252.0766650281305
 30
0.0
 11
586.5300905678513
 21
252.0766650281305
 31
0.0
 70
   160
 71
     5
 42
15.50042249600483
 73
     0
 74
     0
 75
     0
  3
01
100
AcDbAlignedDimension
 13
578.7798793198488
 23
255.9873985069462
 33
0.0
 14
594.2803018158537
 24
258.2374598370113
 34
0.0
100
AcDbRotatedDimension
  0
CIRCLE
  5
17754
330
1F
100
AcDbEntity
  8
0
100
AcDbCircle
 10
592.780270929416
 20
233.9500830441537
 30
0.0
 40
0.45
  0
LINE
  5
1775B
330
1F
100
AcDbEntity
  8
0
100
AcDbLine
 10
597.5732589137377
 20
258.7375552393348
 30
0.0
 11
611.5442102091779
 21
258.7375552393348
 31
0.0
  0
LINE
  5
1775C
330
1F
100
AcDbEntity
  8
0
100
AcDbLine
 10
613.7802781866776
 20
259.7375552393348
 30
0.0
 11
613.7802781866776
 21
263.7375552393349
 31
0.0
  0
LINE
  5
1775D
330
1F
100
AcDbEntity
  8
0
100
AcDbLine
 10
611.5442102091779
 20
264.7375552393348
 30
0.0
 11
597.5732589171366
 21
264.7375552393348
 31
0.0
  0
ARC
  5
1775E
330
1F
100
AcDbEntity
  8
0
100
AcDbCircle
 10
611.5442102091779
 20
261.7375552393348
 30
0.0
 40
3.0
100
AcDbArc
 50
41.8103148957752
 51
90.0
  0
ARC
  5
1775F
330
1F
100
AcDbEntity
  8
0
100
AcDbCircle
 10
611.5442102091779
 20
261.7375552393348
 30
0.0
 40
3.0
100
AcDbArc
 50
270.0
 51
318.1896851042247
  0
ARC
  5
17760
330
1F
100
AcDbEntity
  8
0
100
AcDbCircle
 10
597.5732689175229
 20
258.5375497880237
 30
0.0
 40
0.2000054515613473
100
AcDbArc
 50
90.0028647890087
 51
150.5128795449111
  0
ARC
  5
17761
330
1F
100
AcDbEntity
  8
0
100
AcDbCircle
 10
597.0732689175147
 20
237.1500884954651
 30
0.0
 40
0.2000054515613473
100
AcDbArc
 50
209.4871204550874
 51
269.9971352109912
  0
LINE
  5
17762
330
1F
100
AcDbEntity
  8
0
100
AcDbLine
 10
595.5143190800645
 20
239.4502329620909
 30
0.0
 11
596.9009627137202
 21
237.0485367707716
 31
0.0
  0
LINE
  5
17763
330
1F
100
AcDbEntity
  8
0
100
AcDbLine
 10
595.5143190800645
 20
228.4499331262168
 30
0.0
 11
596.9009627137256
 21
230.8516293175453
 31
0.0
  0
LINE
  5
17764
330
1F
100
AcDbEntity
  8
0
100
AcDbLine
 10
597.0732589137297
 20
230.9500830441538
 30
0.0
 11
611.5442102091698
 21
230.9500830441538
 31
0.0
  0
LINE
  5
17765
330
1F
100
AcDbEntity
  8
0
100
AcDbLine
 10
613.7802781866694
 20
231.9500830441537
 30
0.0
 11
613.7802781866694
 21
235.9500830441538
 31
0.0
  0
LINE
  5
17766
330
1F
100
AcDbEntity
  8
0
100
AcDbLine
 10
611.5442102091698
 20
236.9500830441538
 30
0.0
 11
597.0732589171283
 21
236.9500830441538
 31
0.0
  0
ARC
  5
17767
330
1F
100
AcDbEntity
  8
0
100
AcDbCircle
 10
611.5442102091698
 20
233.9500830441537
 30
0.0
 40
3.0
100
AcDbArc
 50
41.81031489577399
 51
90.0
  0
ARC
  5
17768
330
1F
100
AcDbEntity
  8
0
100
AcDbCircle
 10
611.5442102091698
 20
233.9500830441537
 30
0.0
 40
3.0
100
AcDbArc
 50
270.0
 51
318.189685104226
  0
ARC
  5
17769
330
1F
100
AcDbEntity
  8
0
100
AcDbCircle
 10
597.0732689175147
 20
230.7500775928426
 30
0.0
 40
0.2000054515613473
100
AcDbArc
 50
90.0028647890087
 51
150.5128795449125
  0
LINE
  5
1776A
330
1F
100
AcDbEntity
  8
0
100
AcDbLine
 10
596.9009627141169
 20
237.0485367700987
 30
0.0
 11
596.8991708988992
 21
230.8485258562524
 31
0.0
  0
LINE
  5
1776B
330
1F
100
AcDbEntity
  8
0
100
AcDbLine
 10
596.3010828385747
 20
261.7375552393349
 30
0.0
 11
594.2803018158537
 21
258.2374598370114
 31
0.0
  0
LINE
  5
1776C
330
1F
100
AcDbEntity
  8
0
100
AcDbLine
 10
596.3010828385747
 20
261.7375552393349
 30
0.0
 11
594.2803018158537
 21
265.2376506416584
 31
0.0
  0
LINE
  5
17780
330
1F
100
AcDbEntity
  8
hat
  6
CENTERX2
 62
     1
100
AcDbLine
 10
577.5611705422488
 20
233.9500834655849
 30
0.0
 11
581.6561523218227
 21
233.9500834655849
 31
0.0
  0
LINE
  5
17781
330
1F
100
AcDbEntity
  8
0
100
AcDbLine
 10
591.1739971471092
 20
228.94994675512
 30
0.0
 11
591.1739971471092
 21
238.9502193331874
 31
0.0
  0
LINE
  5
17782
102
{ACAD_REACTORS
330
17799
102
}
330
1F
100
AcDbEntity
  8
0
100
AcDbLine
 10
591.7802336713366
 20
229.2999562953524
 30
0.0
 11
593.7802881869502
 21
229.2999562953524
 31
0.0
  0
LINE
  5
17783
330
1F
100
AcDbEntity
  8
0
100
AcDbLine
 10
591.7802336713366
 20
229.2999562953524
 30
0.0
 11
591.7802336713366
 21
238.600209792955
 31
0.0
  0
LINE
  5
17784
330
1F
100
AcDbEntity
  8
0
100
AcDbLine
 10
591.1739971471092
 20
228.94994675512
 30
0.0
 11
591.7802336713366
 21
229.2999562953524
 31
0.0
  0
LINE
  5
17785
330
1F
100
AcDbEntity
  8
0
100
AcDbLine
 10
591.1739971471092
 20
238.9502193331874
 30
0.0
 11
591.7802336713366
 21
238.600209792955
 31
0.0
  0
LINE
  5
17786
102
{ACAD_REACTORS
330
17799
102
}
330
1F
100
AcDbEntity
  8
0
100
AcDbLine
 10
591.7802336713366
 20
238.600209792955
 30
0.0
 11
593.7802881869502
 21
238.600209792955
 31
0.0
  0
ARC
  5
17787
330
1F
100
AcDbEntity
  8
0
100
AcDbCircle
 10
592.7253000396665
 20
269.2968381489757
 30
0.0
 40
2.935855639141379
100
AcDbArc
 50
262.2669404857881
 51
271.0728674805044
  0
ARC
  5
17788
330
1F
100
AcDbEntity
  8
0
100
AcDbCircle
 10
592.8360663314329
 20
269.2826680270757
 30
0.0
 40
2.921703642750964
100
AcDbArc
 50
268.9057632856616
 51
277.754428747622
  0
LINE
  5
17789
330
1F
100
AcDbEntity
  8
0
100
AcDbLine
 10
591.1739971471092
 20
266.7376915283686
 30
0.0
 11
591.7802336713366
 21
266.3876819881362
 31
0.0
  0
LINE
  5
1778A
330
1F
100
AcDbEntity
  8
0
100
AcDbLine
 10
591.7802336713366
 20
266.3876819881362
 30
0.0
 11
592.3302573005128
 21
266.3876819881362
 31
0.0
  0
LINE
  5
1778B
330
1F
100
AcDbEntity
  8
0
100
AcDbLine
 10
593.2302845583198
 20
266.3876819881362
 30
0.0
 11
593.7802781866776
 21
266.3876819881362
 31
0.0
  0
LINE
  5
1778C
330
1F
100
AcDbEntity
  8
0
100
AcDbLine
 10
591.7802336713366
 20
257.0874284905336
 30
0.0
 11
593.7802781866776
 21
257.0874284905336
 31
0.0
  0
LINE
  5
1778D
330
1F
100
AcDbEntity
  8
0
100
AcDbLine
 10
591.1739971471092
 20
256.7374189503013
 30
0.0
 11
591.7802336713366
 21
257.0874284905336
 31
0.0
  0
DIMENSION
  5
17797
102
{ACAD_XDICTIONARY
360
17798
102
}
102
{ACAD_REACTORS
330
17799
102
}
330
1F
100
AcDbEntity
  8
DIM
100
AcDbDimension
  2
*D5
 10
588.819814481411
 20
229.2999562953524
 30
0.0
 11
588.819814481411
 21
233.9500834655849
 31
0.0
 70
   160
  1
%%C<>
 71
     5
 42
9.300253497602621
 73
     0
 74
     0
 75
     0
  3
01
100
AcDbAlignedDimension
 13
592.7802609291432
 23
238.600209792955
 33
0.0
 14
592.7802609291432
 24
229.2999562953524
 34
0.0
 50
90.0
100
AcDbRotatedDimension
  0
LINE
  5
1779A
330
1F
100
AcDbEntity
  8
CEN
  6
CENTER
 62
     1
 48
0.05
100
AcDbLine
 10
592.780270929416
 20
232.369420936252
 30
0.0
 11
592.780270929416
 21
235.5307451520554
 31
0.0
  0
DIMENSION
  5
178F4
330
1F
100
AcDbEntity
  8
DIM
100
AcDbDimension
  2
*D6
 10
613.7802781866694
 20
222.2709336539817
 30
0.0
 11
596.2800787532593
 21
223.5709336539817
 31
0.0
 70
    32
 71
     5
 42
35.00039886682043
 73
     0
 74
     0
 75
     0
  3
01
100
AcDbAlignedDimension
 13
578.7798793198488
 23
229.4209864804399
 33
0.0
 14
613.7802781866694
 24
232.6440673072265
 34
0.0
100
AcDbRotatedDimension
  0
DIMENSION
  5
179AB
330
1F
100
AcDbEntity
  8
DIM
100
AcDbDimension
  2
*D7
 10
619.3111650504269
 20
230.9500830441538
 30
0.0
 11
618.0111650504268
 21
233.9500830441539
 31
0.0
 70
    32
  1
%%C<>
 71
     5
 42
6.0
 73
     0
 74
     0
 75
     0
  3
01
100
AcDbAlignedDimension
 13
611.5442102091698
 23
236.9500830441538
 33
0.0
 14
611.5442102091698
 24
230.9500830441538
 34
0.0
 50
90.0
100
AcDbRotatedDimension
  0
DIMENSION
  5
17A55
330
1F
100
AcDbEntity
  8
DIM
100
AcDbDimension
  2
*D8
 10
584.6866821982612
 20
228.94994675512
 30
0.0
 11
583.3866821982613
 21
233.9500830441538
 31
0.0
 70
    32
  1
%%C<>
 71
     5
 42
10.00027257806735
 73
     0
 74
     0
 75
     0
  3
01
100
AcDbAlignedDimension
 13
584.9475070430854
 23
238.9502193331873
 33
0.0
 14
584.9475070430854
 24
228.94994675512
 34
0.0
 50
90.0
100
AcDbRotatedDimension
  0
DIMENSION
  5
17A7F
330
1F
100
AcDbEntity
  8
DIM
100
AcDbDimension
  2
*D9
 10
575.3261403312202
 20
258.2374598370113
 30
0.0
 11
574.0261403312202
 21
261.7375552393349
 31
0.0
 70
    32
  1
%%C<>
 71
     5
 42
7.000190804647103
 73
     0
 74
     0
 75
     0
  3
01
100
AcDbAlignedDimension
 13
581.6999815197122
 23
265.2376506416584
 33
0.0
 14
581.6999815197122
 24
258.2374598370113
 34
0.0
 50
90.0
100
AcDbRotatedDimension
  0
LINE
  5
17B76
330
1F
100
AcDbEntity
  8
hat
  6
CENTERX2
 62
     1
100
AcDbLine
 10
590.2751019275707
 20
233.9500834655849
 30
0.0
 11
614.5611805422491
 21
233.9500834655849
 31
0.0
  0
ENDSEC
  0
SECTION
  2
OBJECTS
  0
DICTIONARY
  5
C
330
0
100
AcDbDictionary
281
     1
  3
ACAD_COLOR
350
4FFE
  3
ACAD_GROUP
350
D
  3
ACAD_LAYOUT
350
1A
  3
ACAD_MATERIAL
350
4FE5
  3
ACAD_MLEADERSTYLE
350
5022
  3
ACAD_MLINESTYLE
350
17
  3
ACAD_PLOTSETTINGS
350
19
  3
ACAD_PLOTSTYLENAME
350
E
  3
ACAD_RENDER_PLOT_SETTINGS
350
6537
  3
ACAD_SCALELIST
350
5000
  3
ACAD_TABLESTYLE
350
4FE3
  3
ACAD_VISUALSTYLE
350
2A
  3
ACDB_RECOMPOSE_DATA
350
50EC
  3
AcDbVariableDictionary
350
5108
  3
ASE_INDEX_DICTIONARY
350
14143
  0
DICTIONARY
  5
50EE
330
8
100
AcDbDictionary
280
     1
281
     1
  0
DICTIONARY
  5
50B8
330
2
100
AcDbDictionary
280
     1
281
     1
  3
ACAD_LAYERFILTERS
360
146E2
  3
ACAD_LAYERSTATES
360
50B9
  3
ACLYDICTIONARY
360
146E1
  0
DICTIONARY
  5
50D0
330
10
100
AcDbDictionary
280
     1
281
     1
  3
ADSK_XREC_LAYER_RECONCILED
360
50D1
  0
DICTIONARY
  5
50D2
330
3B
100
AcDbDictionary
280
     1
281
     1
  3
ADSK_XREC_LAYER_RECONCILED
360
50D3
  0
DICTIONARY
  5
50AF
330
50AE
100
AcDbDictionary
280
     1
281
     1
  3
ADSK_XREC_LAYER_RECONCILED
360
50D4
  0
DICTIONARY
  5
67C0
330
1F
100
AcDbDictionary
280
     1
281
     1
  3
ACAD_SORTENTS
360
67C1
  0
DICTIONARY
  5
17C4F
330
13E17
100
AcDbDictionary
280
     1
281
     1
  0
DICTIONARY
  5
17C80
330
17BBA
100
AcDbDictionary
280
     1
281
     1
  3
ACAD_MTEXT_2008_RT
360
17C81
  0
DICTIONARY
  5
17C82
330
17BFE
100
AcDbDictionary
280
     1
281
     1
  3
ACAD_MTEXT_2008_RT
360
17C83
  0
DICTIONARY
  5
17C84
330
17BFF
100
AcDbDictionary
280
     1
281
     1
  3
ACAD_MTEXT_2008_RT
360
17C85
  0
DICTIONARY
  5
17C86
330
17C24
100
AcDbDictionary
280
     1
281
     1
  3
ACAD_MTEXT_2008_RT
360
17C87
  0
DICTIONARY
  5
17C88
330
17C27
100
AcDbDictionary
280
     1
281
     1
  3
ACAD_MTEXT_2008_RT
360
17C89
  0
DICTIONARY
  5
17C8A
330
17C28
100
AcDbDictionary
280
     1
281
     1
  3
ACAD_MTEXT_2008_RT
360
17C8B
  0
DICTIONARY
  5
17C8C
330
17C32
100
AcDbDictionary
280
     1
281
     1
  3
ACAD_MTEXT_2008_RT
360
17C8D
  0
DICTIONARY
  5
17C8E
330
17C33
100
AcDbDictionary
280
     1
281
     1
  3
ACAD_MTEXT_2008_RT
360
17C8F
  0
DICTIONARY
  5
17C90
330
17C34
100
AcDbDictionary
280
     1
281
     1
  3
ACAD_MTEXT_2008_RT
360
17C91
  0
DICTIONARY
  5
17C92
330
17C42
100
AcDbDictionary
280
     1
281
     1
  3
ACAD_MTEXT_2008_RT
360
17C93
  0
DICTIONARY
  5
17C94
330
17C43
100
AcDbDictionary
280
     1
281
     1
  3
ACAD_MTEXT_2008_RT
360
17C95
  0
DICTIONARY
  5
17C96
330
17C44
100
AcDbDictionary
280
     1
281
     1
  3
ACAD_MTEXT_2008_RT
360
17C97
  0
DICTIONARY
  5
17C7E
330
15556
100
AcDbDictionary
280
     1
281
     1
  3
ACAD_MTEXT_2008_RT
360
17C7F
  0
DICTIONARY
  5
17749
330
17748
100
AcDbDictionary
280
     1
281
     1
  3
ACAD_DIMASSOC
360
1774A
  0
DICTIONARY
  5
1774C
330
1774B
100
AcDbDictionary
280
     1
281
     1
  3
ACAD_DIMASSOC
360
1774D
  0
DICTIONARY
  5
17752
330
17751
100
AcDbDictionary
280
     1
281
     1
  3
ACAD_DIMASSOC
360
17753
  0
DICTIONARY
  5
17798
330
17797
100
AcDbDictionary
280
     1
281
     1
  3
ACAD_DIMASSOC
360
17799
  0
DICTIONARY
  5
4FFE
102
{ACAD_REACTORS
330
C
102
}
330
C
100
AcDbDictionary
281
     1
  0
DICTIONARY
  5
D
102
{ACAD_REACTORS
330
C
102
}
330
C
100
AcDbDictionary
281
     1
  0
DICTIONARY
  5
1A
102
{ACAD_REACTORS
330
C
102
}
330
C
100
AcDbDictionary
281
     1
  3
Layout1
350
1E
  3
Layout2
350
26
  3
Model
350
22
  0
DICTIONARY
  5
4FE5
102
{ACAD_REACTORS
330
C
102
}
330
C
100
AcDbDictionary
281
     1
  3
ByBlock
350
4FEE
  3
ByLayer
350
4FE6
  3
Global
350
4FF6
  0
DICTIONARY
  5
5022
102
{ACAD_REACTORS
330
C
102
}
330
C
100
AcDbDictionary
281
     1
  3
Standard
350
5023
  0
DICTIONARY
  5
17
102
{ACAD_REACTORS
330
C
102
}
330
C
100
AcDbDictionary
281
     1
  3
Standard
350
18
  0
DICTIONARY
  5
19
102
{ACAD_REACTORS
330
C
102
}
330
C
100
AcDbDictionary
281
     1
  0
ACDBDICTIONARYWDFLT
  5
E
102
{ACAD_REACTORS
330
C
102
}
330
C
100
AcDbDictionary
281
     1
  3
Normal
350
F
100
AcDbDictionaryWithDefault
340
F
  0
DICTIONARY
  5
6537
102
{ACAD_REACTORS
330
C
102
}
330
C
100
AcDbDictionary
281
     1
  3
{1DC63513-1B1A-422F-9880-65CFD2B8D533}
350
6538
  0
DICTIONARY
  5
5000
102
{ACAD_REACTORS
330
C
102
}
330
C
100
AcDbDictionary
281
     1
  3
A0
350
5001
  3
A1
350
5002
  3
A2
350
5003
  3
A3
350
5004
  3
A4
350
5005
  3
A5
350
5006
  3
A6
350
5007
  3
A7
350
5008
  3
A8
350
5009
  3
A9
350
500A
  3
B0
350
500B
  3
B1
350
500C
  3
B2
350
500D
  3
B3
350
500E
  3
B4
350
500F
  3
B5
350
5010
  3
B6
350
5011
  3
B7
350
5012
  3
B8
350
5013
  3
B9
350
5014
  3
C0
350
5015
  3
C1
350
5016
  3
C2
350
5017
  3
C3
350
5018
  3
C4
350
5019
  3
C5
350
501A
  3
C6
350
501B
  3
C7
350
501C
  3
C8
350
501D
  3
C9
350
501E
  3
D0
350
501F
  3
D1
350
5020
  3
D2
350
5021
  0
DICTIONARY
  5
4FE3
102
{ACAD_REACTORS
330
C
102
}
330
C
100
AcDbDictionary
281
     1
  3
Standard
350
4FFF
  0
DICTIONARY
  5
2A
102
{ACAD_REACTORS
330
C
102
}
330
C
100
AcDbDictionary
281
     1
  3
2dWireframe
350
2F
  3
3D Hidden
350
31
  3
3dWireframe
350
30
  3
Basic
350
32
  3
Brighten
350
36
  3
ColorChange
350
3A
  3
Conceptual
350
34
  3
Dim
350
35
  3
Facepattern
350
39
  3
Flat
350
2B
  3
FlatWithEdges
350
2C
  3
Gouraud
350
2D
  3
GouraudWithEdges
350
2E
  3
Linepattern
350
38
  3
Realistic
350
33
  3
Thicken
350
37
  0
XRECORD
  5
50EC
102
{ACAD_REACTORS
330
C
102
}
330
C
100
AcDbXrecord
280
     1
 90
        1
330
4FFF
330
15556
330
17BBA
330
17BFE
330
17BFF
330
17C24
330
17C27
330
17C28
330
17C32
330
17C33
330
17C34
330
17C42
330
17C43
330
17C44
  0
DICTIONARY
  5
5108
102
{ACAD_REACTORS
330
C
102
}
330
C
100
AcDbDictionary
281
     1
  3
CANNOSCALE
350
510B
  3
CMLEADERSTYLE
350
510A
  3
CTABLESTYLE
350
5109
  3
DIMASSOC
350
510E
  3
INDEXCTL
350
510D
  3
LIGHTINGUNITS
350
17C6F
  3
MSLTSCALE
350
17C6E
  3
SORTENTS
350
510C
  0
DICTIONARY
  5
14143
102
{ACAD_REACTORS
330
C
102
}
330
C
100
AcDbDictionary
281
     1
  3
ASEBlockHierarchyIndexRecord
350
14144
1001
DCO15
1040
1903428632.093
  0
DICTIONARY
  5
146E2
102
{ACAD_REACTORS
330
50B8
102
}
330
50B8
100
AcDbDictionary
281
     1
  0
DICTIONARY
  5
50B9
102
{ACAD_REACTORS
330
50B8
102
}
330
50B8
100
AcDbDictionary
281
     1
  0
DICTIONARY
  5
146E1
102
{ACAD_REACTORS
330
50B8
102
}
330
50B8
100
AcDbDictionary
281
     1
1001
ACAD
1000
<All
  0
XRECORD
  5
50D1
102
{ACAD_REACTORS
330
50D0
102
}
330
50D0
100
AcDbXrecord
280
     1
290
     1
  0
XRECORD
  5
50D3
102
{ACAD_REACTORS
330
50D2
102
}
330
50D2
100
AcDbXrecord
280
     1
290
     1
  0
XRECORD
  5
50D4
102
{ACAD_REACTORS
330
50AF
102
}
330
50AF
100
AcDbXrecord
280
     1
290
     1
  0
SORTENTSTABLE
  5
67C1
102
{ACAD_REACTORS
330
67C0
102
}
330
67C0
100
AcDbSortentsTable
330
1F
331
2C65
  5
2EE7
331
17751
  5
17751
331
174EB
  5
174EB
331
1770A
  5
1770A
331
174F3
  5
174F3
331
17712
  5
17712
331
174FB
  5
174FB
331
1771A
  5
1771A
331
17761
  5
17761
331
17503
  5
17503
331
17722
  5
17722
331
17769
  5
17769
331
17A7F
  5
17B76
331
1750B
  5
1750B
331
1772A
  5
1772A
331
17781
  5
17782
331
17732
  5
17732
331
17789
  5
1778A
331
17703
  5
17703
331
174DC
  5
174DC
331
1773A
  5
1773A
331
174E4
  5
174E4
331
17B76
  5
17781
331
28AE
  5
2A38
331
3895
  5
3943
331
174EC
  5
174EC
331
1770B
  5
1770B
331
174F4
  5
174F4
331
17713
  5
17713
331
174FC
  5
174FC
331
1771B
  5
1771B
331
17762
  5
17762
331
17504
  5
17504
331
17723
  5
17723
331
1776A
  5
1776A
331
2FDE
  5
35C8
331
1750C
  5
1750C
331
1772B
  5
1772B
331
17782
  5
17783
331
1778A
  5
1778B
331
176FC
  5
176FC
331
17733
  5
17733
331
1773B
  5
1773B
331
17704
  5
17704
331
174DD
  5
174DD
331
1774B
  5
1774B
331
174E5
  5
174E5
331
2EE7
  5
2F93
331
174ED
  5
174ED
331
1770C
  5
1770C
331
1779A
  5
178F4
331
15556
  5
15556
331
174F5
  5
174F5
331
17714
  5
17714
331
1775B
  5
1775B
331
174FD
  5
174FD
331
1771C
  5
1771C
331
17763
  5
17763
331
1555E
  5
1555E
331
17505
  5
17505
331
17724
  5
17724
331
1776B
  5
1776B
331
15566
  5
15566
331
1750D
  5
1750D
331
1772C
  5
1772C
331
17783
  5
17784
331
176FD
  5
176FD
331
17734
  5
17734
331
1778B
  5
1778C
331
17705
  5
17705
331
174DE
  5
174DE
331
1773C
  5
1773C
331
174E6
  5
174E6
331
3807
  5
3895
331
174EE
  5
174EE
331
1770D
  5
1770D
331
17754
  5
17754
331
174F6
  5
174F6
331
17715
  5
17715
331
1775C
  5
1775C
331
174FE
  5
174FE
331
1771D
  5
1771D
331
17764
  5
17764
331
17506
  5
17506
331
17725
  5
17725
331
1776C
  5
1776C
331
15567
  5
15567
331
35C8
  5
35D8
331
35D8
  5
3807
331
1750E
  5
1750E
331
1772D
  5
1772D
331
17784
  5
17785
331
1778C
  5
1778D
331
17735
  5
17735
331
1773D
  5
1773D
331
17706
  5
17706
331
174DF
  5
174DF
331
174E7
  5
174E7
331
174EF
  5
174EF
331
1770E
  5
1770E
331
179AB
  5
17A55
331
174F7
  5
174F7
331
17716
  5
17716
331
1775D
  5
1775D
331
174FF
  5
174FF
331
1771E
  5
1771E
331
17765
  5
17765
331
17507
  5
17507
331
17726
  5
17726
331
15568
  5
15568
331
1750F
  5
1750F
331
1772E
  5
1772E
331
17785
  5
17786
331
176FF
  5
176FF
331
17736
  5
17736
331
1778D
  5
17797
331
17707
  5
17707
331
174E0
  5
174E0
331
178F4
  5
179AB
331
174E8
  5
174E8
331
174F0
  5
174F0
331
1770F
  5
1770F
331
174F8
  5
174F8
331
17717
  5
17717
331
1775E
  5
1775E
331
17500
  5
17500
331
1771F
  5
1771F
331
17766
  5
17766
331
17727
  5
17727
331
17508
  5
17508
331
15569
  5
15569
331
176F8
  5
176F8
331
1772F
  5
1772F
331
17786
  5
17787
331
17700
  5
17700
331
17737
  5
17737
331
174E1
  5
174E1
331
174E9
  5
174E9
331
17708
  5
17708
331
2F93
  5
2FDE
331
174F1
  5
174F1
331
17710
  5
17710
331
4842
  5
4E94
331
17718
  5
17718
331
1775F
  5
1775F
331
17A55
  5
17A7F
331
174F9
  5
174F9
331
17767
  5
17767
331
17501
  5
17501
331
17720
  5
17720
331
1556A
  5
1556A
331
17509
  5
17509
331
17728
  5
17728
331
17730
  5
17730
331
17787
  5
17788
331
17701
  5
17701
331
17738
  5
17738
331
17748
  5
17748
331
17797
  5
1779A
331
174E2
  5
174E2
331
15523
  5
15523
331
174EA
  5
174EA
331
17709
  5
17709
331
3943
  5
4842
331
174F2
  5
174F2
331
17711
  5
17711
331
174FA
  5
174FA
331
17719
  5
17719
331
17760
  5
17760
331
17502
  5
17502
331
17721
  5
17721
331
17768
  5
17768
331
1750A
  5
1750A
331
17729
  5
17729
331
17780
  5
17780
331
17788
  5
17789
331
176FA
  5
176FA
331
17731
  5
17731
331
17739
  5
17739
331
174DB
  5
174DB
331
17702
  5
17702
331
174E3
  5
174E3
  0
XRECORD
  5
17C81
102
{ACAD_REACTORS
330
17C80
102
}
330
17C80
100
AcDbXrecord
280
     1
 40
1527.0
  1
\pxqc;BQ LUO
  0
XRECORD
  5
17C83
102
{ACAD_REACTORS
330
17C82
102
}
330
17C82
100
AcDbXrecord
280
     1
 40
1262561.0
  1
\pxqc;档案员{\H0.7x;\P\Fromans|c134;Filing Clerk\fFangSong_GB2312|b0|i0|c134|p49; }
  0
XRECORD
  5
17C85
102
{ACAD_REACTORS
330
17C84
102
}
330
17C84
100
AcDbXrecord
280
     1
 40
650528.0
  1
\pxqc;日期{\Fromans|c134;/Date}
  0
XRECORD
  5
17C87
102
{ACAD_REACTORS
330
17C86
102
}
330
17C86
100
AcDbXrecord
280
     1
 40
1836818.0
  1
\pxsm0.7;{\fFangSong_GB2312|b0|i0|c134|p49;标准化}\PStand.
  0
XRECORD
  5
17C89
102
{ACAD_REACTORS
330
17C88
102
}
330
17C88
100
AcDbXrecord
280
     1
 40
118135.0
  1
\pxsm0.7;签名\P{\Fromans|c134;Signature} 
  0
XRECORD
  5
17C8B
102
{ACAD_REACTORS
330
17C8A
102
}
330
17C8A
100
AcDbXrecord
280
     1
 40
108939.0
  1
\pxsm0.7,qc;处数\P{\Fromans|c134;Number }
  0
XRECORD
  5
17C8D
102
{ACAD_REACTORS
330
17C8C
102
}
330
17C8C
100
AcDbXrecord
280
     1
 40
125762.0
  1
\pxsm0.7;标记\P{\Fromans|c134;Mark}
  0
XRECORD
  5
17C8F
102
{ACAD_REACTORS
330
17C8E
102
}
330
17C8E
100
AcDbXrecord
280
     1
 40
111973.0
  1
\pxsm0.7;审核\P{\Fromans|c134;Checked}
  0
XRECORD
  5
17C91
102
{ACAD_REACTORS
330
17C90
102
}
330
17C90
100
AcDbXrecord
280
     1
 40
137968.0
  1
\pxsm0.7;绘图\P{\Fromans|c134;Drawn\Ftxt|c134; }
  0
XRECORD
  5
17C93
102
{ACAD_REACTORS
330
17C92
102
}
330
17C92
100
AcDbXrecord
280
     1
 40
106320.0
  1
\pxsm0.7;批准\P{\Fromans|c134;Approved}
  0
XRECORD
  5
17C95
102
{ACAD_REACTORS
330
17C94
102
}
330
17C94
100
AcDbXrecord
280
     1
 40
127283.0
  1
\pxsm0.7;工艺\P{\Fromans|c134;Process}
  0
XRECORD
  5
17C97
102
{ACAD_REACTORS
330
17C96
102
}
330
17C96
100
AcDbXrecord
280
     1
 40
106220.0
  1
\pxsm0.7;日期\P{\Fromans|c134;Date}
  0
XRECORD
  5
17C7F
102
{ACAD_REACTORS
330
17C7E
102
}
330
17C7E
100
AcDbXrecord
280
     1
 40
526787489.0
  1
\A1;\pxql;{\f仿宋_GB2312|b0|i0|c134|p49;技术参数}:\P\pq*;- {\f仿宋_GB2312|b0|i0|c134|p49;材料}: {\f仿宋_GB2312|b0|i0|c134|p49;铜合金}\P- {\f仿宋_GB2312|b0|i0|c134|p49;表面处理}: {\f仿宋_GB2312|b0|i0|c134|p49;镀银}\P\pql;- {\f仿宋_GB2312|b0|i0|c134|p49;额定电流}: 70A\P- {\f仿宋_GB231
  1
2|b0|i0|c134|p49;接触电阻}: ≤0.5mΩ\P- {\f仿宋_GB2312|b0|i0|c134|p49;线径范围}: 25mm{\H0.7x;\S2^ ;}\P- {\f仿宋_GB2312|b0|i0|c134|p49;剥线长度：}15mm\P- {\f仿宋_GB2312|b0|i0|c134|p49;可插拔次数}: {\f仿宋_GB2312|b0|i0|c134|p49;≥}500\P- {\f仿宋_GB2312|b0|i0|c134|p49;电缆绞线标准}: IEC 602
  1
28-5\P\pq*;\P\pql;Technical specification:\P- Material: copper alloy\P- Surface: hard-silver plated\P- Rated current: 70A\P- Contact resistance: ≤0.5mΩ\P- Wire gauge: 25mm{\H0.7x;\S2^ ;}\P\pq*;- {\A0;Stripping length: 15mm\P\pql;}- Mating cycles: {\f仿
  1
宋_GB2312|b0|i0|c134|p49;≥}500\P- For stranded fine wire acc. to: IEC 60228-5
  0
DIMASSOC
  5
1774A
102
{ACAD_REACTORS
330
17749
102
}
330
17749
100
AcDbDimAssoc
330
17748
 90
        3
 70
     0
 71
     0
  1
AcDbOsnapPointRef
 72
     2
331
1771F
 73
     2
 91
        0
 40
0.5
 10
0.0
 20
0.0
 30
0.0
 75
     0
  1
AcDbOsnapPointRef
 72
     2
331
1771A
 73
     2
 91
        0
 40
0.5
 10
0.0
 20
0.0
 30
0.0
 75
     0
  0
DIMASSOC
  5
1774D
102
{ACAD_REACTORS
330
1774C
102
}
330
1774C
100
AcDbDimAssoc
330
1774B
 90
        3
 70
     0
 71
     0
  1
AcDbOsnapPointRef
 72
     1
331
17714
 73
     2
 91
        0
 40
1.0
 10
0.0
 20
0.0
 30
2.000000000000000E+50
 75
     0
  1
AcDbOsnapPointRef
 72
    13
331
17714
 73
     2
 91
        0
 40
0.0
 10
0.0
 20
0.0
 30
2.000000000000000E+50
 75
     0
  0
DIMASSOC
  5
17753
102
{ACAD_REACTORS
330
17752
102
}
330
17752
100
AcDbDimAssoc
330
17751
 90
        1
 70
     0
 71
     0
  1
AcDbOsnapPointRef
 72
     1
331
1773C
 73
     2
 91
        0
 40
1.0
 10
0.0
 20
0.0
 30
2.000000000000000E+50
 75
     0
  0
DIMASSOC
  5
17799
102
{ACAD_REACTORS
330
17798
102
}
330
17798
100
AcDbDimAssoc
330
17797
 90
        3
 70
     0
 71
     0
  1
AcDbOsnapPointRef
 72
     2
331
17786
 73
     2
 91
        0
 40
0.5
 10
0.0
 20
0.0
 30
0.0
 75
     0
  1
AcDbOsnapPointRef
 72
     2
331
17782
 73
     2
 91
        0
 40
0.5
 10
0.0
 20
0.0
 30
0.0
 75
     0
  0
LAYOUT
  5
1E
102
{ACAD_REACTORS
330
1A
102
}
330
1A
100
AcDbPlotSettings
  1

  2
none_device
  4

  6

 40
0.0
 41
0.0
 42
0.0
 43
0.0
 44
0.0
 45
0.0
 46
0.0
 47
0.0
 48
0.0
 49
0.0
140
0.0
141
0.0
142
1.0
143
1.0
 70
   688
 72
     0
 73
     0
 74
     5
  7

 75
    16
147
1.0
 76
     0
 77
     2
 78
   300
148
0.0
149
0.0
100
AcDbLayout
  1
Layout1
 70
     1
 71
     1
 10
0.0
 20
0.0
 11
12.0
 21
9.0
 12
0.0
 22
0.0
 32
0.0
 14
1.000000000000000E+20
 24
1.000000000000000E+20
 34
1.000000000000000E+20
 15
-1.000000000000000E+20
 25
-1.000000000000000E+20
 35
-1.000000000000000E+20
146
0.0
 13
0.0
 23
0.0
 33
0.0
 16
1.0
 26
0.0
 36
0.0
 17
0.0
 27
1.0
 37
0.0
 76
     0
330
1B
  0
LAYOUT
  5
26
102
{ACAD_REACTORS
330
1A
102
}
330
1A
100
AcDbPlotSettings
  1

  2
none_device
  4

  6

 40
0.0
 41
0.0
 42
0.0
 43
0.0
 44
0.0
 45
0.0
 46
0.0
 47
0.0
 48
0.0
 49
0.0
140
0.0
141
0.0
142
1.0
143
1.0
 70
   688
 72
     0
 73
     0
 74
     5
  7

 75
    16
147
1.0
 76
     0
 77
     2
 78
   300
148
0.0
149
0.0
100
AcDbLayout
  1
Layout2
 70
     1
 71
     2
 10
0.0
 20
0.0
 11
0.0
 21
0.0
 12
0.0
 22
0.0
 32
0.0
 14
0.0
 24
0.0
 34
0.0
 15
0.0
 25
0.0
 35
0.0
146
0.0
 13
0.0
 23
0.0
 33
0.0
 16
1.0
 26
0.0
 36
0.0
 17
0.0
 27
1.0
 37
0.0
 76
     0
330
23
  0
LAYOUT
  5
22
102
{ACAD_REACTORS
330
1A
102
}
330
1A
100
AcDbPlotSettings
  1

  2
Adobe PDF Converter.pc3
  4
A4
  6

 40
3.174999952316281
 41
3.174999952316281
 42
3.17498779296875
 43
3.175003051757812
 44
297.0318298339844
 45
209.9733276367186
 46
0.0000000000000076
 47
1.630241740247063
 48
246.9897427644609
 49
39.36804549891383
140
544.952097801264
141
244.7492402188181
142
1.0
143
1.025046328645055
 70
  3764
 72
     1
 73
     0
 74
     4
  7
monochrome.ctb
 75
     0
147
0.9755656618192436
 76
     1
 77
     2
 78
   300
148
-246.9897427644609
149
-39.36804549891383
100
AcDbLayout
  1
Model
 70
     1
 71
     0
 10
0.0
 20
0.0
 11
12.0
 21
9.0
 12
0.0
 22
0.0
 32
0.0
 14
1.000000000000000E+20
 24
1.000000000000000E+20
 34
1.000000000000000E+20
 15
-1.000000000000000E+20
 25
-1.000000000000000E+20
 35
-1.000000000000000E+20
146
0.0
 13
0.0
 23
0.0
 33
0.0
 16
1.0
 26
0.0
 36
0.0
 17
0.0
 27
1.0
 37
0.0
 76
     0
330
1F
331
29
1001
ACAD_PSEXT
1000
Adobe PDF Converter.pc3
1000
Adobe PDF Converter
1000
桌面\*.pdf
1000

1070
     0
  0
MATERIAL
  5
4FEE
102
{ACAD_XDICTIONARY
360
4FEF
102
}
102
{ACAD_REACTORS
330
4FE5
102
}
330
4FE5
100
AcDbMaterial
  1
ByBlock
 72
     0
 43
0.0208333333333333
 43
0.0
 43
0.0
 43
0.0
 43
0.0
 43
0.0208333333333333
 43
0.0
 43
0.0
 43
0.0
 43
0.0
 43
1.0
 43
0.0
 43
0.0
 43
0.0
 43
0.0
 43
1.0
 77
     0
 47
0.0208333333333333
 47
0.0
 47
0.0
 47
0.0
 47
0.0
 47
0.0208333333333333
 47
0.0
 47
0.0
 47
0.0
 47
0.0
 47
1.0
 47
0.0
 47
0.0
 47
0.0
 47
0.0
 47
1.0
171
     0
 49
0.0208333333333333
 49
0.0
 49
0.0
 49
0.0
 49
0.0
 49
0.0208333333333333
 49
0.0
 49
0.0
 49
0.0
 49
0.0
 49
1.0
 49
0.0
 49
0.0
 49
0.0
 49
0.0
 49
1.0
175
     0
142
0.0208333333333333
142
0.0
142
0.0
142
0.0
142
0.0
142
0.0208333333333333
142
0.0
142
0.0
142
0.0
142
0.0
142
1.0
142
0.0
142
0.0
142
0.0
142
0.0
142
1.0
179
     0
144
0.0208333333333333
144
0.0
144
0.0
144
0.0
144
0.0
144
0.0208333333333333
144
0.0
144
0.0
144
0.0
144
0.0
144
1.0
144
0.0
144
0.0
144
0.0
144
0.0
144
1.0
147
0.0208333333333333
147
0.0
147
0.0
147
0.0
147
0.0
147
0.0208333333333333
147
0.0
147
0.0
147
0.0
147
0.0
147
1.0
147
0.0
147
0.0
147
0.0
147
0.0
147
1.0
  0
MATERIAL
  5
4FE6
102
{ACAD_XDICTIONARY
360
4FE7
102
}
102
{ACAD_REACTORS
330
4FE5
102
}
330
4FE5
100
AcDbMaterial
  1
ByLayer
 72
     0
 43
0.0208333333333333
 43
0.0
 43
0.0
 43
0.0
 43
0.0
 43
0.0208333333333333
 43
0.0
 43
0.0
 43
0.0
 43
0.0
 43
1.0
 43
0.0
 43
0.0
 43
0.0
 43
0.0
 43
1.0
 77
     0
 47
0.0208333333333333
 47
0.0
 47
0.0
 47
0.0
 47
0.0
 47
0.0208333333333333
 47
0.0
 47
0.0
 47
0.0
 47
0.0
 47
1.0
 47
0.0
 47
0.0
 47
0.0
 47
0.0
 47
1.0
171
     0
 49
0.0208333333333333
 49
0.0
 49
0.0
 49
0.0
 49
0.0
 49
0.0208333333333333
 49
0.0
 49
0.0
 49
0.0
 49
0.0
 49
1.0
 49
0.0
 49
0.0
 49
0.0
 49
0.0
 49
1.0
175
     0
142
0.0208333333333333
142
0.0
142
0.0
142
0.0
142
0.0
142
0.0208333333333333
142
0.0
142
0.0
142
0.0
142
0.0
142
1.0
142
0.0
142
0.0
142
0.0
142
0.0
142
1.0
179
     0
144
0.0208333333333333
144
0.0
144
0.0
144
0.0
144
0.0
144
0.0208333333333333
144
0.0
144
0.0
144
0.0
144
0.0
144
1.0
144
0.0
144
0.0
144
0.0
144
0.0
144
1.0
147
0.0208333333333333
147
0.0
147
0.0
147
0.0
147
0.0
147
0.0208333333333333
147
0.0
147
0.0
147
0.0
147
0.0
147
1.0
147
0.0
147
0.0
147
0.0
147
0.0
147
1.0
  0
MATERIAL
  5
4FF6
102
{ACAD_XDICTIONARY
360
4FF7
102
}
102
{ACAD_REACTORS
330
4FE5
102
}
330
4FE5
100
AcDbMaterial
  1
Global
 72
     0
 43
0.0208333333333333
 43
0.0
 43
0.0
 43
0.0
 43
0.0
 43
0.0208333333333333
 43
0.0
 43
0.0
 43
0.0
 43
0.0
 43
1.0
 43
0.0
 43
0.0
 43
0.0
 43
0.0
 43
1.0
 77
     0
 47
0.0208333333333333
 47
0.0
 47
0.0
 47
0.0
 47
0.0
 47
0.0208333333333333
 47
0.0
 47
0.0
 47
0.0
 47
0.0
 47
1.0
 47
0.0
 47
0.0
 47
0.0
 47
0.0
 47
1.0
171
     0
 49
0.0208333333333333
 49
0.0
 49
0.0
 49
0.0
 49
0.0
 49
0.0208333333333333
 49
0.0
 49
0.0
 49
0.0
 49
0.0
 49
1.0
 49
0.0
 49
0.0
 49
0.0
 49
0.0
 49
1.0
175
     0
142
0.0208333333333333
142
0.0
142
0.0
142
0.0
142
0.0
142
0.0208333333333333
142
0.0
142
0.0
142
0.0
142
0.0
142
1.0
142
0.0
142
0.0
142
0.0
142
0.0
142
1.0
179
     0
144
0.0208333333333333
144
0.0
144
0.0
144
0.0
144
0.0
144
0.0208333333333333
144
0.0
144
0.0
144
0.0
144
0.0
144
1.0
144
0.0
144
0.0
144
0.0
144
0.0
144
1.0
147
0.0208333333333333
147
0.0
147
0.0
147
0.0
147
0.0
147
0.0208333333333333
147
0.0
147
0.0
147
0.0
147
0.0
147
1.0
147
0.0
147
0.0
147
0.0
147
0.0
147
1.0
  0
MLEADERSTYLE
  5
5023
102
{ACAD_REACTORS
330
5022
102
}
330
5022
100
AcDbMLeaderStyle
170
     2
171
     1
172
     0
 90
        2
 40
0.0
 41
0.0
173
     1
 91
-1056964608
340
14
 92
       -2
290
     1
 42
0.09
291
     1
 43
0.36
  3
Standard
 44
0.18
300

342
11
174
     1
178
     6
175
     1
176
     0
 93
-1056964608
 45
0.18
292
     0
297
     0
 46
0.18
 94
-1056964608
 47
1.0
 49
1.0
140
1.0
293
     1
141
0.0
294
     1
177
     0
142
1.0
295
     0
296
     0
143
0.125
1001
ACAD_MLEADERVER
1070
     2
  0
MLINESTYLE
  5
18
102
{ACAD_REACTORS
330
17
102
}
330
17
100
AcDbMlineStyle
  2
STANDARD
 70
     0
  3

 62
   256
 51
90.0
 52
90.0
 71
     2
 49
0.5
 62
   256
  6
BYLAYER
 49
-0.5
 62
   256
  6
BYLAYER
  0
ACDBPLACEHOLDER
  5
F
102
{ACAD_REACTORS
330
E
102
}
330
E
  0
MENTALRAYRENDERSETTINGS
  5
6538
102
{ACAD_REACTORS
330
6537
102
}
330
6537
100
AcDbRenderSettings
 90
        2
  1
中
290
     1
290
     1
290
     1
290
     1
  1

  1
渲染质量好于“低级”。包括纹理过滤并且强制双面处于激活状态。处理中等级反锯齿和 5 反射/折射的光线跟踪深度。
 90
        0
100
AcDbMentalRayRenderSettings
 90
        2
 90
        0
 90
        1
 70
     2
 40
3.0
 40
3.0
 40
0.0500000007450581
 40
0.0500000007450581
 40
0.0500000007450581
 40
0.0500000007450581
 70
     0
290
     0
290
     1
 90
        5
 90
        5
 90
        5
290
     0
 90
      500
290
     0
 40
1.0
 90
    10000
 90
        5
 90
        5
 90
        5
290
     0
 90
      200
290
     0
290
     0
290
     0
 40
0.1
 40
1.0
 40
1500.0
 70
     0
 70
     0
 40
10.0
 70
     0
 70
     0
290
     0
  1

 90
       32
 70
     0
 90
     1048
290
     0
 40
1.0
  0
SCALE
  5
5001
102
{ACAD_REACTORS
330
5000
102
}
330
5000
100
AcDbScale
 70
     0
300
1:1
140
1.0
141
1.0
290
     1
  0
SCALE
  5
5002
102
{ACAD_REACTORS
330
5000
102
}
330
5000
100
AcDbScale
 70
     0
300
1:2
140
1.0
141
2.0
290
     0
  0
SCALE
  5
5003
102
{ACAD_REACTORS
330
5000
102
}
330
5000
100
AcDbScale
 70
     0
300
1:4
140
1.0
141
4.0
290
     0
  0
SCALE
  5
5004
102
{ACAD_REACTORS
330
5000
102
}
330
5000
100
AcDbScale
 70
     0
300
1:5
140
1.0
141
5.0
290
     0
  0
SCALE
  5
5005
102
{ACAD_REACTORS
330
5000
102
}
330
5000
100
AcDbScale
 70
     0
300
1:8
140
1.0
141
8.0
290
     0
  0
SCALE
  5
5006
102
{ACAD_REACTORS
330
5000
102
}
330
5000
100
AcDbScale
 70
     0
300
1:10
140
1.0
141
10.0
290
     0
  0
SCALE
  5
5007
102
{ACAD_REACTORS
330
5000
102
}
330
5000
100
AcDbScale
 70
     0
300
1:16
140
1.0
141
16.0
290
     0
  0
SCALE
  5
5008
102
{ACAD_REACTORS
330
5000
102
}
330
5000
100
AcDbScale
 70
     0
300
1:20
140
1.0
141
20.0
290
     0
  0
SCALE
  5
5009
102
{ACAD_REACTORS
330
5000
102
}
330
5000
100
AcDbScale
 70
     0
300
1:30
140
1.0
141
30.0
290
     0
  0
SCALE
  5
500A
102
{ACAD_REACTORS
330
5000
102
}
330
5000
100
AcDbScale
 70
     0
300
1:40
140
1.0
141
40.0
290
     0
  0
SCALE
  5
500B
102
{ACAD_REACTORS
330
5000
102
}
330
5000
100
AcDbScale
 70
     0
300
1:50
140
1.0
141
50.0
290
     0
  0
SCALE
  5
500C
102
{ACAD_REACTORS
330
5000
102
}
330
5000
100
AcDbScale
 70
     0
300
1:100
140
1.0
141
100.0
290
     0
  0
SCALE
  5
500D
102
{ACAD_REACTORS
330
5000
102
}
330
5000
100
AcDbScale
 70
     0
300
2:1
140
2.0
141
1.0
290
     0
  0
SCALE
  5
500E
102
{ACAD_REACTORS
330
5000
102
}
330
5000
100
AcDbScale
 70
     0
300
4:1
140
4.0
141
1.0
290
     0
  0
SCALE
  5
500F
102
{ACAD_REACTORS
330
5000
102
}
330
5000
100
AcDbScale
 70
     0
300
8:1
140
8.0
141
1.0
290
     0
  0
SCALE
  5
5010
102
{ACAD_REACTORS
330
5000
102
}
330
5000
100
AcDbScale
 70
     0
300
10:1
140
10.0
141
1.0
290
     0
  0
SCALE
  5
5011
102
{ACAD_REACTORS
330
5000
102
}
330
5000
100
AcDbScale
 70
     0
300
100:1
140
100.0
141
1.0
290
     0
  0
SCALE
  5
5012
102
{ACAD_REACTORS
330
5000
102
}
330
5000
100
AcDbScale
 70
     0
300
1/128" = 1'-0"
140
0.0078125
141
12.0
290
     0
  0
SCALE
  5
5013
102
{ACAD_REACTORS
330
5000
102
}
330
5000
100
AcDbScale
 70
     0
300
1/64" = 1'-0"
140
0.015625
141
12.0
290
     0
  0
SCALE
  5
5014
102
{ACAD_REACTORS
330
5000
102
}
330
5000
100
AcDbScale
 70
     0
300
1/32" = 1'-0"
140
0.03125
141
12.0
290
     0
  0
SCALE
  5
5015
102
{ACAD_REACTORS
330
5000
102
}
330
5000
100
AcDbScale
 70
     0
300
1/16" = 1'-0"
140
0.0625
141
12.0
290
     0
  0
SCALE
  5
5016
102
{ACAD_REACTORS
330
5000
102
}
330
5000
100
AcDbScale
 70
     0
300
3/32" = 1'-0"
140
0.09375
141
12.0
290
     0
  0
SCALE
  5
5017
102
{ACAD_REACTORS
330
5000
102
}
330
5000
100
AcDbScale
 70
     0
300
1/8" = 1'-0"
140
0.125
141
12.0
290
     0
  0
SCALE
  5
5018
102
{ACAD_REACTORS
330
5000
102
}
330
5000
100
AcDbScale
 70
     0
300
3/16" = 1'-0"
140
0.1875
141
12.0
290
     0
  0
SCALE
  5
5019
102
{ACAD_REACTORS
330
5000
102
}
330
5000
100
AcDbScale
 70
     0
300
1/4" = 1'-0"
140
0.25
141
12.0
290
     0
  0
SCALE
  5
501A
102
{ACAD_REACTORS
330
5000
102
}
330
5000
100
AcDbScale
 70
     0
300
3/8" = 1'-0"
140
0.375
141
12.0
290
     0
  0
SCALE
  5
501B
102
{ACAD_REACTORS
330
5000
102
}
330
5000
100
AcDbScale
 70
     0
300
1/2" = 1'-0"
140
0.5
141
12.0
290
     0
  0
SCALE
  5
501C
102
{ACAD_REACTORS
330
5000
102
}
330
5000
100
AcDbScale
 70
     0
300
3/4" = 1'-0"
140
0.75
141
12.0
290
     0
  0
SCALE
  5
501D
102
{ACAD_REACTORS
330
5000
102
}
330
5000
100
AcDbScale
 70
     0
300
1" = 1'-0"
140
1.0
141
12.0
290
     0
  0
SCALE
  5
501E
102
{ACAD_REACTORS
330
5000
102
}
330
5000
100
AcDbScale
 70
     0
300
1-1/2" = 1'-0"
140
1.5
141
12.0
290
     0
  0
SCALE
  5
501F
102
{ACAD_REACTORS
330
5000
102
}
330
5000
100
AcDbScale
 70
     0
300
3" = 1'-0"
140
3.0
141
12.0
290
     0
  0
SCALE
  5
5020
102
{ACAD_REACTORS
330
5000
102
}
330
5000
100
AcDbScale
 70
     0
300
6" = 1'-0"
140
6.0
141
12.0
290
     0
  0
SCALE
  5
5021
102
{ACAD_REACTORS
330
5000
102
}
330
5000
100
AcDbScale
 70
     0
300
1'-0" = 1'-0"
140
12.0
141
12.0
290
     0
  0
TABLESTYLE
  5
4FFF
102
{ACAD_XDICTIONARY
360
50D6
102
}
102
{ACAD_REACTORS
330
4FE3
102
}
330
4FE3
100
AcDbTableStyle
  3
Standard
 70
     0
 71
     0
 40
0.06
 41
0.06
280
     0
281
     0
  7
Standard
140
0.18
170
     2
 62
     0
 63
     7
283
     0
 90
      512
 91
        0
  1

274
    -2
284
     1
 64
     0
275
    -2
285
     1
 65
     0
276
    -2
286
     1
 66
     0
277
    -2
287
     1
 67
     0
278
    -2
288
     1
 68
     0
279
    -2
289
     1
 69
     0
  7
Standard
140
0.25
170
     5
 62
     0
 63
     7
283
     0
 90
      512
 91
        0
  1

274
    -2
284
     1
 64
     0
275
    -2
285
     1
 65
     0
276
    -2
286
     1
 66
     0
277
    -2
287
     1
 67
     0
278
    -2
288
     1
 68
     0
279
    -2
289
     1
 69
     0
  7
Standard
140
0.18
170
     5
 62
     0
 63
     7
283
     0
 90
      512
 91
        0
  1

274
    -2
284
     1
 64
     0
275
    -2
285
     1
 65
     0
276
    -2
286
     1
 66
     0
277
    -2
287
     1
 67
     0
278
    -2
288
     1
 68
     0
279
    -2
289
     1
 69
     0
  0
VISUALSTYLE
  5
2F
102
{ACAD_REACTORS
330
2A
102
}
330
2A
100
AcDbVisualStyle
  2
2dWireframe
 70
     4
 71
     0
 72
     2
 73
     0
 90
        0
 40
-0.6
 41
-30.0
 62
     5
 63
     7
 74
     1
 91
        4
 64
     7
 65
   257
 75
     1
175
     1
 42
1.0
 92
        0
 66
   257
 43
1.0
 76
     1
 77
     6
 78
     2
 67
     7
 79
     5
170
     0
171
     0
290
     0
174
     0
 93
        1
 44
0.0
173
     0
291
     0
 45
0.0
1001
ACAD
1000
AcDbSavedByObjectVersion
1070
     0
1000
AcDbSavedByObjectVersion
1070
     0
1000
AcDbSavedByObjectVersion
1070
     0
1000
AcDbSavedByObjectVersion
1070
     0
1000
AcDbSavedByObjectVersion
1070
     0
1000
AcDbSavedByObjectVersion
1070
     0
1000
AcDbSavedByObjectVersion
1070
     0
1000
AcDbSavedByObjectVersion
1070
     0
1000
AcDbSavedByObjectVersion
1070
     0
1000
AcDbSavedByObjectVersion
1070
     0
1000
AcDbSavedByObjectVersion
1070
     0
1000
AcDbSavedByObjectVersion
1070
     0
1000
AcDbSavedByObjectVersion
1070
     0
1000
AcDbSavedByObjectVersion
1070
     0
1000
AcDbSavedByObjectVersion
1070
     0
1000
AcDbSavedByObjectVersion
1070
     0
1000
AcDbSavedByObjectVersion
1070
     0
1000
AcDbSavedByObjectVersion
1070
     0
1000
AcDbSavedByObjectVersion
1070
     0
1000
AcDbSavedByObjectVersion
1070
     0
1000
AcDbSavedByObjectVersion
1070
     0
1000
AcDbSavedByObjectVersion
1070
     0
1000
AcDbSavedByObjectVersion
1070
     0
1000
AcDbSavedByObjectVersion
1070
     0
1000
AcDbSavedByObjectVersion
1070
     0
1000
AcDbSavedByObjectVersion
1070
     0
1000
AcDbSavedByObjectVersion
1070
     0
1000
AcDbSavedByObjectVersion
1070
     0
1000
AcDbSavedByObjectVersion
1070
     0
1000
AcDbSavedByObjectVersion
1070
     0
1000
AcDbSavedByObjectVersion
1070
     0
1000
AcDbSavedByObjectVersion
1070
     0
1000
AcDbSavedByObjectVersion
1070
     0
1000
AcDbSavedByObjectVersion
1070
     0
1000
AcDbSavedByObjectVersion
1070
     0
1000
AcDbSavedByObjectVersion
1070
     0
1000
AcDbSavedByObjectVersion
1070
     0
1000
AcDbSavedByObjectVersion
1070
     0
1000
AcDbSavedByObjectVersion
1070
     0
1000
AcDbSavedByObjectVersion
1070
     0
1000
AcDbSavedByObjectVersion
1070
     0
1000
AcDbSavedByObjectVersion
1070
     0
1000
AcDbSavedByObjectVersion
1070
     0
1000
AcDbSavedByObjectVersion
1070
     0
1000
AcDbSavedByObjectVersion
1070
     0
1000
AcDbSavedByObjectVersion
1070
     0
1000
AcDbSavedByObjectVersion
1070
     0
1000
AcDbSavedByObjectVersion
1070
     0
1000
AcDbSavedByObjectVersion
1070
     0
1000
AcDbSavedByObjectVersion
1070
     0
1000
AcDbSavedByObjectVersion
1070
     0
1000
AcDbSavedByObjectVersion
1070
     0
1000
AcDbSavedByObjectVersion
1070
     0
1000
AcDbSavedByObjectVersion
1070
     0
1000
AcDbSavedByObjectVersion
1070
     0
1000
AcDbSavedByObjectVersion
1070
     0
1000
AcDbSavedByObjectVersion
1070
     0
  0
VISUALSTYLE
  5
31
102
{ACAD_REACTORS
330
2A
102
}
330
2A
100
AcDbVisualStyle
  2
3D Hidden
 70
     6
 71
     1
 72
     2
 73
     2
 90
        0
 40
-0.6
 41
-30.0
 62
     5
 63
     7
 74
     2
 91
        2
 64
     7
 65
   257
 75
     2
175
     1
 42
40.0
 92
        0
 66
   257
 43
1.0
 76
     1
 77
     6
 78
     2
 67
     7
 79
     3
170
     0
171
     0
290
     0
174
     0
 93
        1
 44
0.0
173
     0
291
     0
 45
0.0
1001
ACAD
1000
AcDbSavedByObjectVersion
1070
     0
1000
AcDbSavedByObjectVersion
1070
     0
1000
AcDbSavedByObjectVersion
1070
     0
1000
AcDbSavedByObjectVersion
1070
     0
1000
AcDbSavedByObjectVersion
1070
     0
1000
AcDbSavedByObjectVersion
1070
     0
1000
AcDbSavedByObjectVersion
1070
     0
1000
AcDbSavedByObjectVersion
1070
     0
1000
AcDbSavedByObjectVersion
1070
     0
1000
AcDbSavedByObjectVersion
1070
     0
1000
AcDbSavedByObjectVersion
1070
     0
1000
AcDbSavedByObjectVersion
1070
     0
1000
AcDbSavedByObjectVersion
1070
     0
1000
AcDbSavedByObjectVersion
1070
     0
1000
AcDbSavedByObjectVersion
1070
     0
1000
AcDbSavedByObjectVersion
1070
     0
1000
AcDbSavedByObjectVersion
1070
     0
1000
AcDbSavedByObjectVersion
1070
     0
1000
AcDbSavedByObjectVersion
1070
     0
1000
AcDbSavedByObjectVersion
1070
     0
1000
AcDbSavedByObjectVersion
1070
     0
1000
AcDbSavedByObjectVersion
1070
     0
1000
AcDbSavedByObjectVersion
1070
     0
1000
AcDbSavedByObjectVersion
1070
     0
1000
AcDbSavedByObjectVersion
1070
     0
1000
AcDbSavedByObjectVersion
1070
     0
1000
AcDbSavedByObjectVersion
1070
     0
1000
AcDbSavedByObjectVersion
1070
     0
1000
AcDbSavedByObjectVersion
1070
     0
1000
AcDbSavedByObjectVersion
1070
     0
1000
AcDbSavedByObjectVersion
1070
     0
1000
AcDbSavedByObjectVersion
1070
     0
1000
AcDbSavedByObjectVersion
1070
     0
1000
AcDbSavedByObjectVersion
1070
     0
1000
AcDbSavedByObjectVersion
1070
     0
1000
AcDbSavedByObjectVersion
1070
     0
1000
AcDbSavedByObjectVersion
1070
     0
1000
AcDbSavedByObjectVersion
1070
     0
1000
AcDbSavedByObjectVersion
1070
     0
1000
AcDbSavedByObjectVersion
1070
     0
1000
AcDbSavedByObjectVersion
1070
     0
1000
AcDbSavedByObjectVersion
1070
     0
1000
AcDbSavedByObjectVersion
1070
     0
1000
AcDbSavedByObjectVersion
1070
     0
1000
AcDbSavedByObjectVersion
1070
     0
1000
AcDbSavedByObjectVersion
1070
     0
1000
AcDbSavedByObjectVersion
1070
     0
1000
AcDbSavedByObjectVersion
1070
     0
1000
AcDbSavedByObjectVersion
1070
     0
1000
AcDbSavedByObjectVersion
1070
     0
1000
AcDbSavedByObjectVersion
1070
     0
1000
AcDbSavedByObjectVersion
1070
     0
1000
AcDbSavedByObjectVersion
1070
     0
1000
AcDbSavedByObjectVersion
1070
     0
1000
AcDbSavedByObjectVersion
1070
     0
1000
AcDbSavedByObjectVersion
1070
     0
1000
AcDbSavedByObjectVersion
1070
     0
  0
VISUALSTYLE
  5
30
102
{ACAD_REACTORS
330
2A
102
}
330
2A
100
AcDbVisualStyle
  2
3dWireframe
 70
     5
 71
     0
 72
     2
 73
     0
 90
        0
 40
-0.6
 41
-30.0
 62
     5
 63
     7
 74
     1
 91
        4
 64
     7
 65
   257
 75
     1
175
     1
 42
1.0
 92
        0
 66
   257
 43
1.0
 76
     1
 77
     6
 78
     2
 67
     7
 79
     5
170
     0
171
     0
290
     0
174
     0
 93
        1
 44
0.0
173
     0
291
     0
 45
0.0
1001
ACAD
1000
AcDbSavedByObjectVersion
1070
     0
1000
AcDbSavedByObjectVersion
1070
     0
1000
AcDbSavedByObjectVersion
1070
     0
1000
AcDbSavedByObjectVersion
1070
     0
1000
AcDbSavedByObjectVersion
1070
     0
1000
AcDbSavedByObjectVersion
1070
     0
1000
AcDbSavedByObjectVersion
1070
     0
1000
AcDbSavedByObjectVersion
1070
     0
1000
AcDbSavedByObjectVersion
1070
     0
1000
AcDbSavedByObjectVersion
1070
     0
1000
AcDbSavedByObjectVersion
1070
     0
1000
AcDbSavedByObjectVersion
1070
     0
1000
AcDbSavedByObjectVersion
1070
     0
1000
AcDbSavedByObjectVersion
1070
     0
1000
AcDbSavedByObjectVersion
1070
     0
1000
AcDbSavedByObjectVersion
1070
     0
1000
AcDbSavedByObjectVersion
1070
     0
1000
AcDbSavedByObjectVersion
1070
     0
1000
AcDbSavedByObjectVersion
1070
     0
1000
AcDbSavedByObjectVersion
1070
     0
1000
AcDbSavedByObjectVersion
1070
     0
1000
AcDbSavedByObjectVersion
1070
     0
1000
AcDbSavedByObjectVersion
1070
     0
1000
AcDbSavedByObjectVersion
1070
     0
1000
AcDbSavedByObjectVersion
1070
     0
1000
AcDbSavedByObjectVersion
1070
     0
1000
AcDbSavedByObjectVersion
1070
     0
1000
AcDbSavedByObjectVersion
1070
     0
1000
AcDbSavedByObjectVersion
1070
     0
1000
AcDbSavedByObjectVersion
1070
     0
1000
AcDbSavedByObjectVersion
1070
     0
1000
AcDbSavedByObjectVersion
1070
     0
1000
AcDbSavedByObjectVersion
1070
     0
1000
AcDbSavedByObjectVersion
1070
     0
1000
AcDbSavedByObjectVersion
1070
     0
1000
AcDbSavedByObjectVersion
1070
     0
1000
AcDbSavedByObjectVersion
1070
     0
1000
AcDbSavedByObjectVersion
1070
     0
1000
AcDbSavedByObjectVersion
1070
     0
1000
AcDbSavedByObjectVersion
1070
     0
1000
AcDbSavedByObjectVersion
1070
     0
1000
AcDbSavedByObjectVersion
1070
     0
1000
AcDbSavedByObjectVersion
1070
     0
1000
AcDbSavedByObjectVersion
1070
     0
1000
AcDbSavedByObjectVersion
1070
     0
1000
AcDbSavedByObjectVersion
1070
     0
1000
AcDbSavedByObjectVersion
1070
     0
1000
AcDbSavedByObjectVersion
1070
     0
1000
AcDbSavedByObjectVersion
1070
     0
1000
AcDbSavedByObjectVersion
1070
     0
1000
AcDbSavedByObjectVersion
1070
     0
1000
AcDbSavedByObjectVersion
1070
     0
1000
AcDbSavedByObjectVersion
1070
     0
1000
AcDbSavedByObjectVersion
1070
     0
1000
AcDbSavedByObjectVersion
1070
     0
1000
AcDbSavedByObjectVersion
1070
     0
1000
AcDbSavedByObjectVersion
1070
     0
  0
VISUALSTYLE
  5
32
102
{ACAD_REACTORS
330
2A
102
}
330
2A
100
AcDbVisualStyle
  2
Basic
 70
     7
 71
     1
 72
     0
 73
     1
 90
        0
 40
-0.6
 41
-30.0
 62
     5
 63
     7
 74
     0
 91
        4
 64
     7
 65
   257
 75
     1
175
     1
 42
1.0
 92
        8
 66
     7
 43
1.0
 76
     1
 77
     6
 78
     2
 67
     7
 79
     5
170
     0
171
     0
290
     0
174
     0
 93
        1
 44
0.0
173
     0
291
     1
 45
0.0
1001
ACAD
1000
AcDbSavedByObjectVersion
1070
     0
1000
AcDbSavedByObjectVersion
1070
     0
1000
AcDbSavedByObjectVersion
1070
     0
1000
AcDbSavedByObjectVersion
1070
     0
1000
AcDbSavedByObjectVersion
1070
     0
1000
AcDbSavedByObjectVersion
1070
     0
1000
AcDbSavedByObjectVersion
1070
     0
1000
AcDbSavedByObjectVersion
1070
     0
1000
AcDbSavedByObjectVersion
1070
     0
1000
AcDbSavedByObjectVersion
1070
     0
1000
AcDbSavedByObjectVersion
1070
     0
1000
AcDbSavedByObjectVersion
1070
     0
1000
AcDbSavedByObjectVersion
1070
     0
1000
AcDbSavedByObjectVersion
1070
     0
1000
AcDbSavedByObjectVersion
1070
     0
1000
AcDbSavedByObjectVersion
1070
     0
1000
AcDbSavedByObjectVersion
1070
     0
1000
AcDbSavedByObjectVersion
1070
     0
1000
AcDbSavedByObjectVersion
1070
     0
1000
AcDbSavedByObjectVersion
1070
     0
1000
AcDbSavedByObjectVersion
1070
     0
1000
AcDbSavedByObjectVersion
1070
     0
1000
AcDbSavedByObjectVersion
1070
     0
1000
AcDbSavedByObjectVersion
1070
     0
1000
AcDbSavedByObjectVersion
1070
     0
1000
AcDbSavedByObjectVersion
1070
     0
1000
AcDbSavedByObjectVersion
1070
     0
1000
AcDbSavedByObjectVersion
1070
     0
1000
AcDbSavedByObjectVersion
1070
     0
1000
AcDbSavedByObjectVersion
1070
     0
1000
AcDbSavedByObjectVersion
1070
     0
1000
AcDbSavedByObjectVersion
1070
     0
1000
AcDbSavedByObjectVersion
1070
     0
1000
AcDbSavedByObjectVersion
1070
     0
1000
AcDbSavedByObjectVersion
1070
     0
1000
AcDbSavedByObjectVersion
1070
     0
1000
AcDbSavedByObjectVersion
1070
     0
1000
AcDbSavedByObjectVersion
1070
     0
1000
AcDbSavedByObjectVersion
1070
     0
1000
AcDbSavedByObjectVersion
1070
     0
1000
AcDbSavedByObjectVersion
1070
     0
1000
AcDbSavedByObjectVersion
1070
     0
1000
AcDbSavedByObjectVersion
1070
     0
1000
AcDbSavedByObjectVersion
1070
     0
1000
AcDbSavedByObjectVersion
1070
     0
1000
AcDbSavedByObjectVersion
1070
     0
1000
AcDbSavedByObjectVersion
1070
     0
1000
AcDbSavedByObjectVersion
1070
     0
1000
AcDbSavedByObjectVersion
1070
     0
1000
AcDbSavedByObjectVersion
1070
     0
1000
AcDbSavedByObjectVersion
1070
     0
1000
AcDbSavedByObjectVersion
1070
     0
1000
AcDbSavedByObjectVersion
1070
     0
1000
AcDbSavedByObjectVersion
1070
     0
1000
AcDbSavedByObjectVersion
1070
     0
1000
AcDbSavedByObjectVersion
1070
     0
1000
AcDbSavedByObjectVersion
1070
     0
  0
VISUALSTYLE
  5
36
102
{ACAD_REACTORS
330
2A
102
}
330
2A
100
AcDbVisualStyle
  2
Brighten
 70
    12
 71
     2
 72
     2
 73
     0
 90
        0
 40
-0.6
 41
-30.0
 62
     5
 63
     7
 74
     1
 91
        4
 64
     7
 65
   257
 75
     1
175
     1
 42
1.0
 92
        8
 66
     7
 43
1.0
 76
     1
 77
     6
 78
     2
 67
     7
 79
     5
170
     0
171
     0
290
     0
174
     0
 93
        1
 44
50.0
173
     0
291
     1
 45
0.0
1001
ACAD
1000
AcDbSavedByObjectVersion
1070
     0
1000
AcDbSavedByObjectVersion
1070
     0
1000
AcDbSavedByObjectVersion
1070
     0
1000
AcDbSavedByObjectVersion
1070
     0
1000
AcDbSavedByObjectVersion
1070
     0
1000
AcDbSavedByObjectVersion
1070
     0
1000
AcDbSavedByObjectVersion
1070
     0
1000
AcDbSavedByObjectVersion
1070
     0
1000
AcDbSavedByObjectVersion
1070
     0
1000
AcDbSavedByObjectVersion
1070
     0
1000
AcDbSavedByObjectVersion
1070
     0
1000
AcDbSavedByObjectVersion
1070
     0
1000
AcDbSavedByObjectVersion
1070
     0
1000
AcDbSavedByObjectVersion
1070
     0
1000
AcDbSavedByObjectVersion
1070
     0
1000
AcDbSavedByObjectVersion
1070
     0
1000
AcDbSavedByObjectVersion
1070
     0
1000
AcDbSavedByObjectVersion
1070
     0
1000
AcDbSavedByObjectVersion
1070
     0
1000
AcDbSavedByObjectVersion
1070
     0
1000
AcDbSavedByObjectVersion
1070
     0
1000
AcDbSavedByObjectVersion
1070
     0
1000
AcDbSavedByObjectVersion
1070
     0
1000
AcDbSavedByObjectVersion
1070
     0
1000
AcDbSavedByObjectVersion
1070
     0
1000
AcDbSavedByObjectVersion
1070
     0
1000
AcDbSavedByObjectVersion
1070
     0
1000
AcDbSavedByObjectVersion
1070
     0
1000
AcDbSavedByObjectVersion
1070
     0
1000
AcDbSavedByObjectVersion
1070
     0
1000
AcDbSavedByObjectVersion
1070
     0
1000
AcDbSavedByObjectVersion
1070
     0
1000
AcDbSavedByObjectVersion
1070
     0
1000
AcDbSavedByObjectVersion
1070
     0
1000
AcDbSavedByObjectVersion
1070
     0
1000
AcDbSavedByObjectVersion
1070
     0
1000
AcDbSavedByObjectVersion
1070
     0
1000
AcDbSavedByObjectVersion
1070
     0
1000
AcDbSavedByObjectVersion
1070
     0
1000
AcDbSavedByObjectVersion
1070
     0
1000
AcDbSavedByObjectVersion
1070
     0
1000
AcDbSavedByObjectVersion
1070
     0
1000
AcDbSavedByObjectVersion
1070
     0
1000
AcDbSavedByObjectVersion
1070
     0
1000
AcDbSavedByObjectVersion
1070
     0
1000
AcDbSavedByObjectVersion
1070
     0
1000
AcDbSavedByObjectVersion
1070
     0
1000
AcDbSavedByObjectVersion
1070
     0
1000
AcDbSavedByObjectVersion
1070
     0
1000
AcDbSavedByObjectVersion
1070
     0
1000
AcDbSavedByObjectVersion
1070
     0
1000
AcDbSavedByObjectVersion
1070
     0
1000
AcDbSavedByObjectVersion
1070
     0
1000
AcDbSavedByObjectVersion
1070
     0
1000
AcDbSavedByObjectVersion
1070
     0
1000
AcDbSavedByObjectVersion
1070
     0
1000
AcDbSavedByObjectVersion
1070
     0
  0
VISUALSTYLE
  5
3A
102
{ACAD_REACTORS
330
2A
102
}
330
2A
100
AcDbVisualStyle
  2
ColorChange
 70
    16
 71
     2
 72
     2
 73
     3
 90
        0
 40
-0.6
 41
-30.0
 62
     5
 63
     8
 74
     1
 91
        4
 64
     7
 65
   257
 75
     1
175
     1
 42
1.0
 92
        8
 66
     8
 43
1.0
 76
     1
 77
     6
 78
     2
 67
     7
 79
     5
170
     0
171
     0
290
     0
174
     0
 93
        1
 44
0.0
173
     0
291
     1
 45
0.0
1001
ACAD
1000
AcDbSavedByObjectVersion
1070
     0
1000
AcDbSavedByObjectVersion
1070
     0
1000
AcDbSavedByObjectVersion
1070
     0
1000
AcDbSavedByObjectVersion
1070
     0
1000
AcDbSavedByObjectVersion
1070
     0
1000
AcDbSavedByObjectVersion
1070
     0
1000
AcDbSavedByObjectVersion
1070
     0
1000
AcDbSavedByObjectVersion
1070
     0
1000
AcDbSavedByObjectVersion
1070
     0
1000
AcDbSavedByObjectVersion
1070
     0
1000
AcDbSavedByObjectVersion
1070
     0
1000
AcDbSavedByObjectVersion
1070
     0
1000
AcDbSavedByObjectVersion
1070
     0
1000
AcDbSavedByObjectVersion
1070
     0
1000
AcDbSavedByObjectVersion
1070
     0
1000
AcDbSavedByObjectVersion
1070
     0
1000
AcDbSavedByObjectVersion
1070
     0
1000
AcDbSavedByObjectVersion
1070
     0
1000
AcDbSavedByObjectVersion
1070
     0
1000
AcDbSavedByObjectVersion
1070
     0
1000
AcDbSavedByObjectVersion
1070
     0
1000
AcDbSavedByObjectVersion
1070
     0
1000
AcDbSavedByObjectVersion
1070
     0
1000
AcDbSavedByObjectVersion
1070
     0
1000
AcDbSavedByObjectVersion
1070
     0
1000
AcDbSavedByObjectVersion
1070
     0
1000
AcDbSavedByObjectVersion
1070
     0
1000
AcDbSavedByObjectVersion
1070
     0
1000
AcDbSavedByObjectVersion
1070
     0
1000
AcDbSavedByObjectVersion
1070
     0
1000
AcDbSavedByObjectVersion
1070
     0
1000
AcDbSavedByObjectVersion
1070
     0
1000
AcDbSavedByObjectVersion
1070
     0
1000
AcDbSavedByObjectVersion
1070
     0
1000
AcDbSavedByObjectVersion
1070
     0
1000
AcDbSavedByObjectVersion
1070
     0
1000
AcDbSavedByObjectVersion
1070
     0
1000
AcDbSavedByObjectVersion
1070
     0
1000
AcDbSavedByObjectVersion
1070
     0
1000
AcDbSavedByObjectVersion
1070
     0
1000
AcDbSavedByObjectVersion
1070
     0
1000
AcDbSavedByObjectVersion
1070
     0
1000
AcDbSavedByObjectVersion
1070
     0
1000
AcDbSavedByObjectVersion
1070
     0
1000
AcDbSavedByObjectVersion
1070
     0
1000
AcDbSavedByObjectVersion
1070
     0
1000
AcDbSavedByObjectVersion
1070
     0
1000
AcDbSavedByObjectVersion
1070
     0
1000
AcDbSavedByObjectVersion
1070
     0
1000
AcDbSavedByObjectVersion
1070
     0
1000
AcDbSavedByObjectVersion
1070
     0
1000
AcDbSavedByObjectVersion
1070
     0
1000
AcDbSavedByObjectVersion
1070
     0
1000
AcDbSavedByObjectVersion
1070
     0
1000
AcDbSavedByObjectVersion
1070
     0
1000
AcDbSavedByObjectVersion
1070
     0
1000
AcDbSavedByObjectVersion
1070
     0
  0
VISUALSTYLE
  5
34
102
{ACAD_REACTORS
330
2A
102
}
330
2A
100
AcDbVisualStyle
  2
Conceptual
 70
     9
 71
     3
 72
     2
 73
     0
 90
        0
 40
-0.6
 41
-30.0
 62
     5
 63
     7
 74
     2
 91
        2
 64
     7
 65
   257
 75
     1
175
     1
 42
40.0
 92
        8
 66
     7
 43
1.0
 76
     1
 77
     6
 78
     2
 67
     7
 79
     3
170
     0
171
     0
290
     0
174
     0
 93
        1
 44
0.0
173
     0
291
     0
 45
0.0
1001
ACAD
1000
AcDbSavedByObjectVersion
1070
     0
1000
AcDbSavedByObjectVersion
1070
     0
1000
AcDbSavedByObjectVersion
1070
     0
1000
AcDbSavedByObjectVersion
1070
     0
1000
AcDbSavedByObjectVersion
1070
     0
1000
AcDbSavedByObjectVersion
1070
     0
1000
AcDbSavedByObjectVersion
1070
     0
1000
AcDbSavedByObjectVersion
1070
     0
1000
AcDbSavedByObjectVersion
1070
     0
1000
AcDbSavedByObjectVersion
1070
     0
1000
AcDbSavedByObjectVersion
1070
     0
1000
AcDbSavedByObjectVersion
1070
     0
1000
AcDbSavedByObjectVersion
1070
     0
1000
AcDbSavedByObjectVersion
1070
     0
1000
AcDbSavedByObjectVersion
1070
     0
1000
AcDbSavedByObjectVersion
1070
     0
1000
AcDbSavedByObjectVersion
1070
     0
1000
AcDbSavedByObjectVersion
1070
     0
1000
AcDbSavedByObjectVersion
1070
     0
1000
AcDbSavedByObjectVersion
1070
     0
1000
AcDbSavedByObjectVersion
1070
     0
1000
AcDbSavedByObjectVersion
1070
     0
1000
AcDbSavedByObjectVersion
1070
     0
1000
AcDbSavedByObjectVersion
1070
     0
1000
AcDbSavedByObjectVersion
1070
     0
1000
AcDbSavedByObjectVersion
1070
     0
1000
AcDbSavedByObjectVersion
1070
     0
1000
AcDbSavedByObjectVersion
1070
     0
1000
AcDbSavedByObjectVersion
1070
     0
1000
AcDbSavedByObjectVersion
1070
     0
1000
AcDbSavedByObjectVersion
1070
     0
1000
AcDbSavedByObjectVersion
1070
     0
1000
AcDbSavedByObjectVersion
1070
     0
1000
AcDbSavedByObjectVersion
1070
     0
1000
AcDbSavedByObjectVersion
1070
     0
1000
AcDbSavedByObjectVersion
1070
     0
1000
AcDbSavedByObjectVersion
1070
     0
1000
AcDbSavedByObjectVersion
1070
     0
1000
AcDbSavedByObjectVersion
1070
     0
1000
AcDbSavedByObjectVersion
1070
     0
1000
AcDbSavedByObjectVersion
1070
     0
1000
AcDbSavedByObjectVersion
1070
     0
1000
AcDbSavedByObjectVersion
1070
     0
1000
AcDbSavedByObjectVersion
1070
     0
1000
AcDbSavedByObjectVersion
1070
     0
1000
AcDbSavedByObjectVersion
1070
     0
1000
AcDbSavedByObjectVersion
1070
     0
1000
AcDbSavedByObjectVersion
1070
     0
1000
AcDbSavedByObjectVersion
1070
     0
1000
AcDbSavedByObjectVersion
1070
     0
1000
AcDbSavedByObjectVersion
1070
     0
1000
AcDbSavedByObjectVersion
1070
     0
1000
AcDbSavedByObjectVersion
1070
     0
1000
AcDbSavedByObjectVersion
1070
     0
1000
AcDbSavedByObjectVersion
1070
     0
1000
AcDbSavedByObjectVersion
1070
     0
1000
AcDbSavedByObjectVersion
1070
     0
  0
VISUALSTYLE
  5
35
102
{ACAD_REACTORS
330
2A
102
}
330
2A
100
AcDbVisualStyle
  2
Dim
 70
    11
 71
     2
 72
     2
 73
     0
 90
        0
 40
-0.6
 41
-30.0
 62
     5
 63
     7
 74
     1
 91
        4
 64
     7
 65
   257
 75
     1
175
     1
 42
1.0
 92
        8
 66
     7
 43
1.0
 76
     1
 77
     6
 78
     2
 67
     7
 79
     5
170
     0
171
     0
290
     0
174
     0
 93
        1
 44
-50.0
173
     0
291
     1
 45
0.0
1001
ACAD
1000
AcDbSavedByObjectVersion
1070
     0
1000
AcDbSavedByObjectVersion
1070
     0
1000
AcDbSavedByObjectVersion
1070
     0
1000
AcDbSavedByObjectVersion
1070
     0
1000
AcDbSavedByObjectVersion
1070
     0
1000
AcDbSavedByObjectVersion
1070
     0
1000
AcDbSavedByObjectVersion
1070
     0
1000
AcDbSavedByObjectVersion
1070
     0
1000
AcDbSavedByObjectVersion
1070
     0
1000
AcDbSavedByObjectVersion
1070
     0
1000
AcDbSavedByObjectVersion
1070
     0
1000
AcDbSavedByObjectVersion
1070
     0
1000
AcDbSavedByObjectVersion
1070
     0
1000
AcDbSavedByObjectVersion
1070
     0
1000
AcDbSavedByObjectVersion
1070
     0
1000
AcDbSavedByObjectVersion
1070
     0
1000
AcDbSavedByObjectVersion
1070
     0
1000
AcDbSavedByObjectVersion
1070
     0
1000
AcDbSavedByObjectVersion
1070
     0
1000
AcDbSavedByObjectVersion
1070
     0
1000
AcDbSavedByObjectVersion
1070
     0
1000
AcDbSavedByObjectVersion
1070
     0
1000
AcDbSavedByObjectVersion
1070
     0
1000
AcDbSavedByObjectVersion
1070
     0
1000
AcDbSavedByObjectVersion
1070
     0
1000
AcDbSavedByObjectVersion
1070
     0
1000
AcDbSavedByObjectVersion
1070
     0
1000
AcDbSavedByObjectVersion
1070
     0
1000
AcDbSavedByObjectVersion
1070
     0
1000
AcDbSavedByObjectVersion
1070
     0
1000
AcDbSavedByObjectVersion
1070
     0
1000
AcDbSavedByObjectVersion
1070
     0
1000
AcDbSavedByObjectVersion
1070
     0
1000
AcDbSavedByObjectVersion
1070
     0
1000
AcDbSavedByObjectVersion
1070
     0
1000
AcDbSavedByObjectVersion
1070
     0
1000
AcDbSavedByObjectVersion
1070
     0
1000
AcDbSavedByObjectVersion
1070
     0
1000
AcDbSavedByObjectVersion
1070
     0
1000
AcDbSavedByObjectVersion
1070
     0
1000
AcDbSavedByObjectVersion
1070
     0
1000
AcDbSavedByObjectVersion
1070
     0
1000
AcDbSavedByObjectVersion
1070
     0
1000
AcDbSavedByObjectVersion
1070
     0
1000
AcDbSavedByObjectVersion
1070
     0
1000
AcDbSavedByObjectVersion
1070
     0
1000
AcDbSavedByObjectVersion
1070
     0
1000
AcDbSavedByObjectVersion
1070
     0
1000
AcDbSavedByObjectVersion
1070
     0
1000
AcDbSavedByObjectVersion
1070
     0
1000
AcDbSavedByObjectVersion
1070
     0
1000
AcDbSavedByObjectVersion
1070
     0
1000
AcDbSavedByObjectVersion
1070
     0
1000
AcDbSavedByObjectVersion
1070
     0
1000
AcDbSavedByObjectVersion
1070
     0
1000
AcDbSavedByObjectVersion
1070
     0
1000
AcDbSavedByObjectVersion
1070
     0
  0
VISUALSTYLE
  5
39
102
{ACAD_REACTORS
330
2A
102
}
330
2A
100
AcDbVisualStyle
  2
Facepattern
 70
    15
 71
     2
 72
     2
 73
     0
 90
        0
 40
-0.6
 41
-30.0
 62
     5
 63
     7
 74
     1
 91
        4
 64
     7
 65
   257
 75
     1
175
     1
 42
1.0
 92
        8
 66
     7
 43
1.0
 76
     1
 77
     6
 78
     2
 67
     7
 79
     5
170
     0
171
     0
290
     0
174
     0
 93
        1
 44
0.0
173
     0
291
     1
 45
0.0
1001
ACAD
1000
AcDbSavedByObjectVersion
1070
     0
1000
AcDbSavedByObjectVersion
1070
     0
1000
AcDbSavedByObjectVersion
1070
     0
1000
AcDbSavedByObjectVersion
1070
     0
1000
AcDbSavedByObjectVersion
1070
     0
1000
AcDbSavedByObjectVersion
1070
     0
1000
AcDbSavedByObjectVersion
1070
     0
1000
AcDbSavedByObjectVersion
1070
     0
1000
AcDbSavedByObjectVersion
1070
     0
1000
AcDbSavedByObjectVersion
1070
     0
1000
AcDbSavedByObjectVersion
1070
     0
1000
AcDbSavedByObjectVersion
1070
     0
1000
AcDbSavedByObjectVersion
1070
     0
1000
AcDbSavedByObjectVersion
1070
     0
1000
AcDbSavedByObjectVersion
1070
     0
1000
AcDbSavedByObjectVersion
1070
     0
1000
AcDbSavedByObjectVersion
1070
     0
1000
AcDbSavedByObjectVersion
1070
     0
1000
AcDbSavedByObjectVersion
1070
     0
1000
AcDbSavedByObjectVersion
1070
     0
1000
AcDbSavedByObjectVersion
1070
     0
1000
AcDbSavedByObjectVersion
1070
     0
1000
AcDbSavedByObjectVersion
1070
     0
1000
AcDbSavedByObjectVersion
1070
     0
1000
AcDbSavedByObjectVersion
1070
     0
1000
AcDbSavedByObjectVersion
1070
     0
1000
AcDbSavedByObjectVersion
1070
     0
1000
AcDbSavedByObjectVersion
1070
     0
1000
AcDbSavedByObjectVersion
1070
     0
1000
AcDbSavedByObjectVersion
1070
     0
1000
AcDbSavedByObjectVersion
1070
     0
1000
AcDbSavedByObjectVersion
1070
     0
1000
AcDbSavedByObjectVersion
1070
     0
1000
AcDbSavedByObjectVersion
1070
     0
1000
AcDbSavedByObjectVersion
1070
     0
1000
AcDbSavedByObjectVersion
1070
     0
1000
AcDbSavedByObjectVersion
1070
     0
1000
AcDbSavedByObjectVersion
1070
     0
1000
AcDbSavedByObjectVersion
1070
     0
1000
AcDbSavedByObjectVersion
1070
     0
1000
AcDbSavedByObjectVersion
1070
     0
1000
AcDbSavedByObjectVersion
1070
     0
1000
AcDbSavedByObjectVersion
1070
     0
1000
AcDbSavedByObjectVersion
1070
     0
1000
AcDbSavedByObjectVersion
1070
     0
1000
AcDbSavedByObjectVersion
1070
     0
1000
AcDbSavedByObjectVersion
1070
     0
1000
AcDbSavedByObjectVersion
1070
     0
1000
AcDbSavedByObjectVersion
1070
     0
1000
AcDbSavedByObjectVersion
1070
     0
1000
AcDbSavedByObjectVersion
1070
     0
1000
AcDbSavedByObjectVersion
1070
     0
1000
AcDbSavedByObjectVersion
1070
     0
1000
AcDbSavedByObjectVersion
1070
     0
1000
AcDbSavedByObjectVersion
1070
     0
1000
AcDbSavedByObjectVersion
1070
     0
1000
AcDbSavedByObjectVersion
1070
     0
  0
VISUALSTYLE
  5
2B
102
{ACAD_REACTORS
330
2A
102
}
330
2A
100
AcDbVisualStyle
  2
Flat
 70
     0
 71
     2
 72
     1
 73
     1
 90
        2
 40
-0.6
 41
30.0
 62
     5
 63
     7
 74
     0
 91
        4
 64
     7
 65
   257
 75
     1
175
     1
 42
1.0
 92
        8
 66
     7
 43
1.0
 76
     1
 77
     6
 78
     2
 67
     7
 79
     5
170
     0
171
     0
290
     0
174
     0
 93
       13
 44
0.0
173
     0
291
     1
 45
0.0
1001
ACAD
1000
AcDbSavedByObjectVersion
1070
     0
1000
AcDbSavedByObjectVersion
1070
     0
1000
AcDbSavedByObjectVersion
1070
     0
1000
AcDbSavedByObjectVersion
1070
     0
1000
AcDbSavedByObjectVersion
1070
     0
1000
AcDbSavedByObjectVersion
1070
     0
1000
AcDbSavedByObjectVersion
1070
     0
1000
AcDbSavedByObjectVersion
1070
     0
1000
AcDbSavedByObjectVersion
1070
     0
1000
AcDbSavedByObjectVersion
1070
     0
1000
AcDbSavedByObjectVersion
1070
     0
1000
AcDbSavedByObjectVersion
1070
     0
1000
AcDbSavedByObjectVersion
1070
     0
1000
AcDbSavedByObjectVersion
1070
     0
1000
AcDbSavedByObjectVersion
1070
     0
1000
AcDbSavedByObjectVersion
1070
     0
1000
AcDbSavedByObjectVersion
1070
     0
1000
AcDbSavedByObjectVersion
1070
     0
1000
AcDbSavedByObjectVersion
1070
     0
1000
AcDbSavedByObjectVersion
1070
     0
1000
AcDbSavedByObjectVersion
1070
     0
1000
AcDbSavedByObjectVersion
1070
     0
1000
AcDbSavedByObjectVersion
1070
     0
1000
AcDbSavedByObjectVersion
1070
     0
1000
AcDbSavedByObjectVersion
1070
     0
1000
AcDbSavedByObjectVersion
1070
     0
1000
AcDbSavedByObjectVersion
1070
     0
1000
AcDbSavedByObjectVersion
1070
     0
1000
AcDbSavedByObjectVersion
1070
     0
1000
AcDbSavedByObjectVersion
1070
     0
1000
AcDbSavedByObjectVersion
1070
     0
1000
AcDbSavedByObjectVersion
1070
     0
1000
AcDbSavedByObjectVersion
1070
     0
1000
AcDbSavedByObjectVersion
1070
     0
1000
AcDbSavedByObjectVersion
1070
     0
1000
AcDbSavedByObjectVersion
1070
     0
1000
AcDbSavedByObjectVersion
1070
     0
1000
AcDbSavedByObjectVersion
1070
     0
1000
AcDbSavedByObjectVersion
1070
     0
1000
AcDbSavedByObjectVersion
1070
     0
1000
AcDbSavedByObjectVersion
1070
     0
1000
AcDbSavedByObjectVersion
1070
     0
1000
AcDbSavedByObjectVersion
1070
     0
1000
AcDbSavedByObjectVersion
1070
     0
1000
AcDbSavedByObjectVersion
1070
     0
1000
AcDbSavedByObjectVersion
1070
     0
1000
AcDbSavedByObjectVersion
1070
     0
1000
AcDbSavedByObjectVersion
1070
     0
1000
AcDbSavedByObjectVersion
1070
     0
1000
AcDbSavedByObjectVersion
1070
     0
1000
AcDbSavedByObjectVersion
1070
     0
1000
AcDbSavedByObjectVersion
1070
     0
1000
AcDbSavedByObjectVersion
1070
     0
1000
AcDbSavedByObjectVersion
1070
     0
1000
AcDbSavedByObjectVersion
1070
     0
1000
AcDbSavedByObjectVersion
1070
     0
1000
AcDbSavedByObjectVersion
1070
     0
  0
VISUALSTYLE
  5
2C
102
{ACAD_REACTORS
330
2A
102
}
330
2A
100
AcDbVisualStyle
  2
FlatWithEdges
 70
     1
 71
     2
 72
     1
 73
     1
 90
        2
 40
-0.6
 41
30.0
 62
     5
 63
     7
 74
     1
 91
        4
 64
     7
 65
   257
 75
     1
175
     1
 42
1.0
 92
        0
 66
   257
 43
1.0
 76
     1
 77
     6
 78
     2
 67
     7
 79
     5
170
     0
171
     0
290
     0
174
     0
 93
       13
 44
0.0
173
     0
291
     1
 45
0.0
1001
ACAD
1000
AcDbSavedByObjectVersion
1070
     0
1000
AcDbSavedByObjectVersion
1070
     0
1000
AcDbSavedByObjectVersion
1070
     0
1000
AcDbSavedByObjectVersion
1070
     0
1000
AcDbSavedByObjectVersion
1070
     0
1000
AcDbSavedByObjectVersion
1070
     0
1000
AcDbSavedByObjectVersion
1070
     0
1000
AcDbSavedByObjectVersion
1070
     0
1000
AcDbSavedByObjectVersion
1070
     0
1000
AcDbSavedByObjectVersion
1070
     0
1000
AcDbSavedByObjectVersion
1070
     0
1000
AcDbSavedByObjectVersion
1070
     0
1000
AcDbSavedByObjectVersion
1070
     0
1000
AcDbSavedByObjectVersion
1070
     0
1000
AcDbSavedByObjectVersion
1070
     0
1000
AcDbSavedByObjectVersion
1070
     0
1000
AcDbSavedByObjectVersion
1070
     0
1000
AcDbSavedByObjectVersion
1070
     0
1000
AcDbSavedByObjectVersion
1070
     0
1000
AcDbSavedByObjectVersion
1070
     0
1000
AcDbSavedByObjectVersion
1070
     0
1000
AcDbSavedByObjectVersion
1070
     0
1000
AcDbSavedByObjectVersion
1070
     0
1000
AcDbSavedByObjectVersion
1070
     0
1000
AcDbSavedByObjectVersion
1070
     0
1000
AcDbSavedByObjectVersion
1070
     0
1000
AcDbSavedByObjectVersion
1070
     0
1000
AcDbSavedByObjectVersion
1070
     0
1000
AcDbSavedByObjectVersion
1070
     0
1000
AcDbSavedByObjectVersion
1070
     0
1000
AcDbSavedByObjectVersion
1070
     0
1000
AcDbSavedByObjectVersion
1070
     0
1000
AcDbSavedByObjectVersion
1070
     0
1000
AcDbSavedByObjectVersion
1070
     0
1000
AcDbSavedByObjectVersion
1070
     0
1000
AcDbSavedByObjectVersion
1070
     0
1000
AcDbSavedByObjectVersion
1070
     0
1000
AcDbSavedByObjectVersion
1070
     0
1000
AcDbSavedByObjectVersion
1070
     0
1000
AcDbSavedByObjectVersion
1070
     0
1000
AcDbSavedByObjectVersion
1070
     0
1000
AcDbSavedByObjectVersion
1070
     0
1000
AcDbSavedByObjectVersion
1070
     0
1000
AcDbSavedByObjectVersion
1070
     0
1000
AcDbSavedByObjectVersion
1070
     0
1000
AcDbSavedByObjectVersion
1070
     0
1000
AcDbSavedByObjectVersion
1070
     0
1000
AcDbSavedByObjectVersion
1070
     0
1000
AcDbSavedByObjectVersion
1070
     0
1000
AcDbSavedByObjectVersion
1070
     0
1000
AcDbSavedByObjectVersion
1070
     0
1000
AcDbSavedByObjectVersion
1070
     0
1000
AcDbSavedByObjectVersion
1070
     0
1000
AcDbSavedByObjectVersion
1070
     0
1000
AcDbSavedByObjectVersion
1070
     0
1000
AcDbSavedByObjectVersion
1070
     0
1000
AcDbSavedByObjectVersion
1070
     0
  0
VISUALSTYLE
  5
2D
102
{ACAD_REACTORS
330
2A
102
}
330
2A
100
AcDbVisualStyle
  2
Gouraud
 70
     2
 71
     2
 72
     2
 73
     1
 90
        2
 40
-0.6
 41
30.0
 62
     5
 63
     7
 74
     0
 91
        4
 64
     7
 65
   257
 75
     1
175
     1
 42
1.0
 92
        0
 66
     7
 43
1.0
 76
     1
 77
     6
 78
     2
 67
     7
 79
     5
170
     0
171
     0
290
     0
174
     0
 93
       13
 44
0.0
173
     0
291
     1
 45
0.0
1001
ACAD
1000
AcDbSavedByObjectVersion
1070
     0
1000
AcDbSavedByObjectVersion
1070
     0
1000
AcDbSavedByObjectVersion
1070
     0
1000
AcDbSavedByObjectVersion
1070
     0
1000
AcDbSavedByObjectVersion
1070
     0
1000
AcDbSavedByObjectVersion
1070
     0
1000
AcDbSavedByObjectVersion
1070
     0
1000
AcDbSavedByObjectVersion
1070
     0
1000
AcDbSavedByObjectVersion
1070
     0
1000
AcDbSavedByObjectVersion
1070
     0
1000
AcDbSavedByObjectVersion
1070
     0
1000
AcDbSavedByObjectVersion
1070
     0
1000
AcDbSavedByObjectVersion
1070
     0
1000
AcDbSavedByObjectVersion
1070
     0
1000
AcDbSavedByObjectVersion
1070
     0
1000
AcDbSavedByObjectVersion
1070
     0
1000
AcDbSavedByObjectVersion
1070
     0
1000
AcDbSavedByObjectVersion
1070
     0
1000
AcDbSavedByObjectVersion
1070
     0
1000
AcDbSavedByObjectVersion
1070
     0
1000
AcDbSavedByObjectVersion
1070
     0
1000
AcDbSavedByObjectVersion
1070
     0
1000
AcDbSavedByObjectVersion
1070
     0
1000
AcDbSavedByObjectVersion
1070
     0
1000
AcDbSavedByObjectVersion
1070
     0
1000
AcDbSavedByObjectVersion
1070
     0
1000
AcDbSavedByObjectVersion
1070
     0
1000
AcDbSavedByObjectVersion
1070
     0
1000
AcDbSavedByObjectVersion
1070
     0
1000
AcDbSavedByObjectVersion
1070
     0
1000
AcDbSavedByObjectVersion
1070
     0
1000
AcDbSavedByObjectVersion
1070
     0
1000
AcDbSavedByObjectVersion
1070
     0
1000
AcDbSavedByObjectVersion
1070
     0
1000
AcDbSavedByObjectVersion
1070
     0
1000
AcDbSavedByObjectVersion
1070
     0
1000
AcDbSavedByObjectVersion
1070
     0
1000
AcDbSavedByObjectVersion
1070
     0
1000
AcDbSavedByObjectVersion
1070
     0
1000
AcDbSavedByObjectVersion
1070
     0
1000
AcDbSavedByObjectVersion
1070
     0
1000
AcDbSavedByObjectVersion
1070
     0
1000
AcDbSavedByObjectVersion
1070
     0
1000
AcDbSavedByObjectVersion
1070
     0
1000
AcDbSavedByObjectVersion
1070
     0
1000
AcDbSavedByObjectVersion
1070
     0
1000
AcDbSavedByObjectVersion
1070
     0
1000
AcDbSavedByObjectVersion
1070
     0
1000
AcDbSavedByObjectVersion
1070
     0
1000
AcDbSavedByObjectVersion
1070
     0
1000
AcDbSavedByObjectVersion
1070
     0
1000
AcDbSavedByObjectVersion
1070
     0
1000
AcDbSavedByObjectVersion
1070
     0
1000
AcDbSavedByObjectVersion
1070
     0
1000
AcDbSavedByObjectVersion
1070
     0
1000
AcDbSavedByObjectVersion
1070
     0
1000
AcDbSavedByObjectVersion
1070
     0
  0
VISUALSTYLE
  5
2E
102
{ACAD_REACTORS
330
2A
102
}
330
2A
100
AcDbVisualStyle
  2
GouraudWithEdges
 70
     3
 71
     2
 72
     2
 73
     1
 90
        2
 40
-0.6
 41
30.0
 62
     5
 63
     7
 74
     1
 91
        4
 64
     7
 65
   257
 75
     1
175
     1
 42
1.0
 92
        0
 66
   257
 43
1.0
 76
     1
 77
     6
 78
     2
 67
     7
 79
     5
170
     0
171
     0
290
     0
174
     0
 93
       13
 44
0.0
173
     0
291
     1
 45
0.0
1001
ACAD
1000
AcDbSavedByObjectVersion
1070
     0
1000
AcDbSavedByObjectVersion
1070
     0
1000
AcDbSavedByObjectVersion
1070
     0
1000
AcDbSavedByObjectVersion
1070
     0
1000
AcDbSavedByObjectVersion
1070
     0
1000
AcDbSavedByObjectVersion
1070
     0
1000
AcDbSavedByObjectVersion
1070
     0
1000
AcDbSavedByObjectVersion
1070
     0
1000
AcDbSavedByObjectVersion
1070
     0
1000
AcDbSavedByObjectVersion
1070
     0
1000
AcDbSavedByObjectVersion
1070
     0
1000
AcDbSavedByObjectVersion
1070
     0
1000
AcDbSavedByObjectVersion
1070
     0
1000
AcDbSavedByObjectVersion
1070
     0
1000
AcDbSavedByObjectVersion
1070
     0
1000
AcDbSavedByObjectVersion
1070
     0
1000
AcDbSavedByObjectVersion
1070
     0
1000
AcDbSavedByObjectVersion
1070
     0
1000
AcDbSavedByObjectVersion
1070
     0
1000
AcDbSavedByObjectVersion
1070
     0
1000
AcDbSavedByObjectVersion
1070
     0
1000
AcDbSavedByObjectVersion
1070
     0
1000
AcDbSavedByObjectVersion
1070
     0
1000
AcDbSavedByObjectVersion
1070
     0
1000
AcDbSavedByObjectVersion
1070
     0
1000
AcDbSavedByObjectVersion
1070
     0
1000
AcDbSavedByObjectVersion
1070
     0
1000
AcDbSavedByObjectVersion
1070
     0
1000
AcDbSavedByObjectVersion
1070
     0
1000
AcDbSavedByObjectVersion
1070
     0
1000
AcDbSavedByObjectVersion
1070
     0
1000
AcDbSavedByObjectVersion
1070
     0
1000
AcDbSavedByObjectVersion
1070
     0
1000
AcDbSavedByObjectVersion
1070
     0
1000
AcDbSavedByObjectVersion
1070
     0
1000
AcDbSavedByObjectVersion
1070
     0
1000
AcDbSavedByObjectVersion
1070
     0
1000
AcDbSavedByObjectVersion
1070
     0
1000
AcDbSavedByObjectVersion
1070
     0
1000
AcDbSavedByObjectVersion
1070
     0
1000
AcDbSavedByObjectVersion
1070
     0
1000
AcDbSavedByObjectVersion
1070
     0
1000
AcDbSavedByObjectVersion
1070
     0
1000
AcDbSavedByObjectVersion
1070
     0
1000
AcDbSavedByObjectVersion
1070
     0
1000
AcDbSavedByObjectVersion
1070
     0
1000
AcDbSavedByObjectVersion
1070
     0
1000
AcDbSavedByObjectVersion
1070
     0
1000
AcDbSavedByObjectVersion
1070
     0
1000
AcDbSavedByObjectVersion
1070
     0
1000
AcDbSavedByObjectVersion
1070
     0
1000
AcDbSavedByObjectVersion
1070
     0
1000
AcDbSavedByObjectVersion
1070
     0
1000
AcDbSavedByObjectVersion
1070
     0
1000
AcDbSavedByObjectVersion
1070
     0
1000
AcDbSavedByObjectVersion
1070
     0
1000
AcDbSavedByObjectVersion
1070
     0
  0
VISUALSTYLE
  5
38
102
{ACAD_REACTORS
330
2A
102
}
330
2A
100
AcDbVisualStyle
  2
Linepattern
 70
    14
 71
     2
 72
     2
 73
     0
 90
        0
 40
-0.6
 41
-30.0
 62
     5
 63
     7
 74
     1
 91
        4
 64
     7
 65
   257
 75
     7
175
     7
 42
1.0
 92
        8
 66
     7
 43
1.0
 76
     1
 77
     6
 78
     2
 67
     7
 79
     5
170
     0
171
     0
290
     0
174
     0
 93
        1
 44
0.0
173
     0
291
     1
 45
0.0
1001
ACAD
1000
AcDbSavedByObjectVersion
1070
     0
1000
AcDbSavedByObjectVersion
1070
     0
1000
AcDbSavedByObjectVersion
1070
     0
1000
AcDbSavedByObjectVersion
1070
     0
1000
AcDbSavedByObjectVersion
1070
     0
1000
AcDbSavedByObjectVersion
1070
     0
1000
AcDbSavedByObjectVersion
1070
     0
1000
AcDbSavedByObjectVersion
1070
     0
1000
AcDbSavedByObjectVersion
1070
     0
1000
AcDbSavedByObjectVersion
1070
     0
1000
AcDbSavedByObjectVersion
1070
     0
1000
AcDbSavedByObjectVersion
1070
     0
1000
AcDbSavedByObjectVersion
1070
     0
1000
AcDbSavedByObjectVersion
1070
     0
1000
AcDbSavedByObjectVersion
1070
     0
1000
AcDbSavedByObjectVersion
1070
     0
1000
AcDbSavedByObjectVersion
1070
     0
1000
AcDbSavedByObjectVersion
1070
     0
1000
AcDbSavedByObjectVersion
1070
     0
1000
AcDbSavedByObjectVersion
1070
     0
1000
AcDbSavedByObjectVersion
1070
     0
1000
AcDbSavedByObjectVersion
1070
     0
1000
AcDbSavedByObjectVersion
1070
     0
1000
AcDbSavedByObjectVersion
1070
     0
1000
AcDbSavedByObjectVersion
1070
     0
1000
AcDbSavedByObjectVersion
1070
     0
1000
AcDbSavedByObjectVersion
1070
     0
1000
AcDbSavedByObjectVersion
1070
     0
1000
AcDbSavedByObjectVersion
1070
     0
1000
AcDbSavedByObjectVersion
1070
     0
1000
AcDbSavedByObjectVersion
1070
     0
1000
AcDbSavedByObjectVersion
1070
     0
1000
AcDbSavedByObjectVersion
1070
     0
1000
AcDbSavedByObjectVersion
1070
     0
1000
AcDbSavedByObjectVersion
1070
     0
1000
AcDbSavedByObjectVersion
1070
     0
1000
AcDbSavedByObjectVersion
1070
     0
1000
AcDbSavedByObjectVersion
1070
     0
1000
AcDbSavedByObjectVersion
1070
     0
1000
AcDbSavedByObjectVersion
1070
     0
1000
AcDbSavedByObjectVersion
1070
     0
1000
AcDbSavedByObjectVersion
1070
     0
1000
AcDbSavedByObjectVersion
1070
     0
1000
AcDbSavedByObjectVersion
1070
     0
1000
AcDbSavedByObjectVersion
1070
     0
1000
AcDbSavedByObjectVersion
1070
     0
1000
AcDbSavedByObjectVersion
1070
     0
1000
AcDbSavedByObjectVersion
1070
     0
1000
AcDbSavedByObjectVersion
1070
     0
1000
AcDbSavedByObjectVersion
1070
     0
1000
AcDbSavedByObjectVersion
1070
     0
1000
AcDbSavedByObjectVersion
1070
     0
1000
AcDbSavedByObjectVersion
1070
     0
1000
AcDbSavedByObjectVersion
1070
     0
1000
AcDbSavedByObjectVersion
1070
     0
1000
AcDbSavedByObjectVersion
1070
     0
1000
AcDbSavedByObjectVersion
1070
     0
  0
VISUALSTYLE
  5
33
102
{ACAD_REACTORS
330
2A
102
}
330
2A
100
AcDbVisualStyle
  2
Realistic
 70
     8
 71
     2
 72
     2
 73
     0
 90
        0
 40
-0.6
 41
-30.0
 62
     5
 63
     7
 74
     1
 91
        0
 64
     7
 65
   257
 75
     1
175
     1
 42
1.0
 92
        8
 66
     8
 43
1.0
 76
     1
 77
     6
 78
     2
 67
     7
 79
     5
170
     0
171
     0
290
     0
174
     0
 93
       13
 44
0.0
173
     0
291
     0
 45
0.0
1001
ACAD
1000
AcDbSavedByObjectVersion
1070
     0
1000
AcDbSavedByObjectVersion
1070
     0
1000
AcDbSavedByObjectVersion
1070
     0
1000
AcDbSavedByObjectVersion
1070
     0
1000
AcDbSavedByObjectVersion
1070
     0
1000
AcDbSavedByObjectVersion
1070
     0
1000
AcDbSavedByObjectVersion
1070
     0
1000
AcDbSavedByObjectVersion
1070
     0
1000
AcDbSavedByObjectVersion
1070
     0
1000
AcDbSavedByObjectVersion
1070
     0
1000
AcDbSavedByObjectVersion
1070
     0
1000
AcDbSavedByObjectVersion
1070
     0
1000
AcDbSavedByObjectVersion
1070
     0
1000
AcDbSavedByObjectVersion
1070
     0
1000
AcDbSavedByObjectVersion
1070
     0
1000
AcDbSavedByObjectVersion
1070
     0
1000
AcDbSavedByObjectVersion
1070
     0
1000
AcDbSavedByObjectVersion
1070
     0
1000
AcDbSavedByObjectVersion
1070
     0
1000
AcDbSavedByObjectVersion
1070
     0
1000
AcDbSavedByObjectVersion
1070
     0
1000
AcDbSavedByObjectVersion
1070
     0
1000
AcDbSavedByObjectVersion
1070
     0
1000
AcDbSavedByObjectVersion
1070
     0
1000
AcDbSavedByObjectVersion
1070
     0
1000
AcDbSavedByObjectVersion
1070
     0
1000
AcDbSavedByObjectVersion
1070
     0
1000
AcDbSavedByObjectVersion
1070
     0
1000
AcDbSavedByObjectVersion
1070
     0
1000
AcDbSavedByObjectVersion
1070
     0
1000
AcDbSavedByObjectVersion
1070
     0
1000
AcDbSavedByObjectVersion
1070
     0
1000
AcDbSavedByObjectVersion
1070
     0
1000
AcDbSavedByObjectVersion
1070
     0
1000
AcDbSavedByObjectVersion
1070
     0
1000
AcDbSavedByObjectVersion
1070
     0
1000
AcDbSavedByObjectVersion
1070
     0
1000
AcDbSavedByObjectVersion
1070
     0
1000
AcDbSavedByObjectVersion
1070
     0
1000
AcDbSavedByObjectVersion
1070
     0
1000
AcDbSavedByObjectVersion
1070
     0
1000
AcDbSavedByObjectVersion
1070
     0
1000
AcDbSavedByObjectVersion
1070
     0
1000
AcDbSavedByObjectVersion
1070
     0
1000
AcDbSavedByObjectVersion
1070
     0
1000
AcDbSavedByObjectVersion
1070
     0
1000
AcDbSavedByObjectVersion
1070
     0
1000
AcDbSavedByObjectVersion
1070
     0
1000
AcDbSavedByObjectVersion
1070
     0
1000
AcDbSavedByObjectVersion
1070
     0
1000
AcDbSavedByObjectVersion
1070
     0
1000
AcDbSavedByObjectVersion
1070
     0
1000
AcDbSavedByObjectVersion
1070
     0
1000
AcDbSavedByObjectVersion
1070
     0
1000
AcDbSavedByObjectVersion
1070
     0
1000
AcDbSavedByObjectVersion
1070
     0
1000
AcDbSavedByObjectVersion
1070
     0
  0
VISUALSTYLE
  5
37
102
{ACAD_REACTORS
330
2A
102
}
330
2A
100
AcDbVisualStyle
  2
Thicken
 70
    13
 71
     2
 72
     2
 73
     0
 90
        0
 40
-0.6
 41
-30.0
 62
     5
 63
     7
 74
     1
 91
        4
 64
     7
 65
   257
 75
     1
175
     1
 42
1.0
 92
       12
 66
     7
 43
1.0
 76
     1
 77
     6
 78
     2
 67
     7
 79
     5
170
     0
171
     0
290
     0
174
     0
 93
        1
 44
0.0
173
     0
291
     1
 45
0.0
1001
ACAD
1000
AcDbSavedByObjectVersion
1070
     0
1000
AcDbSavedByObjectVersion
1070
     0
1000
AcDbSavedByObjectVersion
1070
     0
1000
AcDbSavedByObjectVersion
1070
     0
1000
AcDbSavedByObjectVersion
1070
     0
1000
AcDbSavedByObjectVersion
1070
     0
1000
AcDbSavedByObjectVersion
1070
     0
1000
AcDbSavedByObjectVersion
1070
     0
1000
AcDbSavedByObjectVersion
1070
     0
1000
AcDbSavedByObjectVersion
1070
     0
1000
AcDbSavedByObjectVersion
1070
     0
1000
AcDbSavedByObjectVersion
1070
     0
1000
AcDbSavedByObjectVersion
1070
     0
1000
AcDbSavedByObjectVersion
1070
     0
1000
AcDbSavedByObjectVersion
1070
     0
1000
AcDbSavedByObjectVersion
1070
     0
1000
AcDbSavedByObjectVersion
1070
     0
1000
AcDbSavedByObjectVersion
1070
     0
1000
AcDbSavedByObjectVersion
1070
     0
1000
AcDbSavedByObjectVersion
1070
     0
1000
AcDbSavedByObjectVersion
1070
     0
1000
AcDbSavedByObjectVersion
1070
     0
1000
AcDbSavedByObjectVersion
1070
     0
1000
AcDbSavedByObjectVersion
1070
     0
1000
AcDbSavedByObjectVersion
1070
     0
1000
AcDbSavedByObjectVersion
1070
     0
1000
AcDbSavedByObjectVersion
1070
     0
1000
AcDbSavedByObjectVersion
1070
     0
1000
AcDbSavedByObjectVersion
1070
     0
1000
AcDbSavedByObjectVersion
1070
     0
1000
AcDbSavedByObjectVersion
1070
     0
1000
AcDbSavedByObjectVersion
1070
     0
1000
AcDbSavedByObjectVersion
1070
     0
1000
AcDbSavedByObjectVersion
1070
     0
1000
AcDbSavedByObjectVersion
1070
     0
1000
AcDbSavedByObjectVersion
1070
     0
1000
AcDbSavedByObjectVersion
1070
     0
1000
AcDbSavedByObjectVersion
1070
     0
1000
AcDbSavedByObjectVersion
1070
     0
1000
AcDbSavedByObjectVersion
1070
     0
1000
AcDbSavedByObjectVersion
1070
     0
1000
AcDbSavedByObjectVersion
1070
     0
1000
AcDbSavedByObjectVersion
1070
     0
1000
AcDbSavedByObjectVersion
1070
     0
1000
AcDbSavedByObjectVersion
1070
     0
1000
AcDbSavedByObjectVersion
1070
     0
1000
AcDbSavedByObjectVersion
1070
     0
1000
AcDbSavedByObjectVersion
1070
     0
1000
AcDbSavedByObjectVersion
1070
     0
1000
AcDbSavedByObjectVersion
1070
     0
1000
AcDbSavedByObjectVersion
1070
     0
1000
AcDbSavedByObjectVersion
1070
     0
1000
AcDbSavedByObjectVersion
1070
     0
1000
AcDbSavedByObjectVersion
1070
     0
1000
AcDbSavedByObjectVersion
1070
     0
1000
AcDbSavedByObjectVersion
1070
     0
1000
AcDbSavedByObjectVersion
1070
     0
  0
DICTIONARYVAR
  5
510B
102
{ACAD_REACTORS
330
5108
102
}
330
5108
100
DictionaryVariables
280
     0
  1
1:1
  0
DICTIONARYVAR
  5
510A
102
{ACAD_REACTORS
330
5108
102
}
330
5108
100
DictionaryVariables
280
     0
  1
STANDARD
  0
DICTIONARYVAR
  5
5109
102
{ACAD_REACTORS
330
5108
102
}
330
5108
100
DictionaryVariables
280
     0
  1
STANDARD
  0
DICTIONARYVAR
  5
510E
102
{ACAD_REACTORS
330
5108
102
}
330
5108
100
DictionaryVariables
280
     0
  1
1
  0
DICTIONARYVAR
  5
510D
102
{ACAD_REACTORS
330
5108
102
}
330
5108
100
DictionaryVariables
280
     0
  1
0
  0
DICTIONARYVAR
  5
17C6F
102
{ACAD_REACTORS
330
5108
102
}
330
5108
100
DictionaryVariables
280
     0
  1
0
  0
DICTIONARYVAR
  5
17C6E
102
{ACAD_REACTORS
330
5108
102
}
330
5108
100
DictionaryVariables
280
     0
  1
0
  0
DICTIONARYVAR
  5
510C
102
{ACAD_REACTORS
330
5108
102
}
330
5108
100
DictionaryVariables
280
     0
  1
127
  0
XRECORD
  5
14144
102
{ACAD_REACTORS
330
14143
102
}
330
14143
100
AcDbXrecord
280
     1
330
0
  0
DICTIONARY
  5
4FEF
330
4FEE
100
AcDbDictionary
280
     1
281
     1
  3
ACAD_XREC_ROUNDTRIP
360
7C2C
  3
BUMPTILE
360
4FF1
  3
DIFFUSETILE
360
4FF0
  3
OPACITYTILE
360
4FF4
  3
REFLECTIONTILE
360
4FF3
  3
REFRACTIONTILE
360
4FF5
  3
SPECULARTILE
360
4FF2
  0
DICTIONARY
  5
4FE7
330
4FE6
100
AcDbDictionary
280
     1
281
     1
  3
ACAD_XREC_ROUNDTRIP
360
7C2B
  3
BUMPTILE
360
4FE9
  3
DIFFUSETILE
360
4FE8
  3
OPACITYTILE
360
4FEC
  3
REFLECTIONTILE
360
4FEB
  3
REFRACTIONTILE
360
4FED
  3
SPECULARTILE
360
4FEA
  0
DICTIONARY
  5
4FF7
330
4FF6
100
AcDbDictionary
280
     1
281
     1
  3
ACAD_XREC_ROUNDTRIP
360
7C2D
  3
BUMPTILE
360
4FF9
  3
DIFFUSETILE
360
4FF8
  3
OPACITYTILE
360
4FFC
  3
REFLECTIONTILE
360
4FFB
  3
REFRACTIONTILE
360
4FFD
  3
SPECULARTILE
360
4FFA
  0
DICTIONARY
  5
50D6
330
4FFF
100
AcDbDictionary
280
     1
281
     1
  3
ACAD_ROUNDTRIP_2008_TABLESTYLE_CELLSTYLEMAP
360
17C7D
  0
XRECORD
  5
7C2C
102
{ACAD_REACTORS
330
4FEF
102
}
330
4FEF
100
AcDbXrecord
280
     1
102
MATERIAL
148
0.0
149
0.0
149
0.0
 93
        0
 94
      127
282
     0
 72
     0
 77
     0
171
     0
175
     0
179
     0
273
     0
  0
XRECORD
  5
4FF1
102
{ACAD_REACTORS
330
4FEF
102
}
330
4FEF
100
AcDbXrecord
280
     1
270
     1
271
     1
  0
XRECORD
  5
4FF0
102
{ACAD_REACTORS
330
4FEF
102
}
330
4FEF
100
AcDbXrecord
280
     1
270
     1
271
     1
  0
XRECORD
  5
4FF4
102
{ACAD_REACTORS
330
4FEF
102
}
330
4FEF
100
AcDbXrecord
280
     1
270
     1
271
     1
  0
XRECORD
  5
4FF3
102
{ACAD_REACTORS
330
4FEF
102
}
330
4FEF
100
AcDbXrecord
280
     1
270
     1
271
     1
  0
XRECORD
  5
4FF5
102
{ACAD_REACTORS
330
4FEF
102
}
330
4FEF
100
AcDbXrecord
280
     1
270
     1
271
     1
  0
XRECORD
  5
4FF2
102
{ACAD_REACTORS
330
4FEF
102
}
330
4FEF
100
AcDbXrecord
280
     1
270
     1
271
     1
  0
XRECORD
  5
7C2B
102
{ACAD_REACTORS
330
4FE7
102
}
330
4FE7
100
AcDbXrecord
280
     1
102
MATERIAL
148
0.0
149
0.0
149
0.0
 93
        0
 94
      127
282
     0
 72
     0
 77
     0
171
     0
175
     0
179
     0
273
     0
  0
XRECORD
  5
4FE9
102
{ACAD_REACTORS
330
4FE7
102
}
330
4FE7
100
AcDbXrecord
280
     1
270
     1
271
     1
  0
XRECORD
  5
4FE8
102
{ACAD_REACTORS
330
4FE7
102
}
330
4FE7
100
AcDbXrecord
280
     1
270
     1
271
     1
  0
XRECORD
  5
4FEC
102
{ACAD_REACTORS
330
4FE7
102
}
330
4FE7
100
AcDbXrecord
280
     1
270
     1
271
     1
  0
XRECORD
  5
4FEB
102
{ACAD_REACTORS
330
4FE7
102
}
330
4FE7
100
AcDbXrecord
280
     1
270
     1
271
     1
  0
XRECORD
  5
4FED
102
{ACAD_REACTORS
330
4FE7
102
}
330
4FE7
100
AcDbXrecord
280
     1
270
     1
271
     1
  0
XRECORD
  5
4FEA
102
{ACAD_REACTORS
330
4FE7
102
}
330
4FE7
100
AcDbXrecord
280
     1
270
     1
271
     1
  0
XRECORD
  5
7C2D
102
{ACAD_REACTORS
330
4FF7
102
}
330
4FF7
100
AcDbXrecord
280
     1
102
MATERIAL
148
0.0
149
0.0
149
0.0
 93
        0
 94
      127
282
     0
 72
     0
 77
     0
171
     0
175
     0
179
     0
273
     0
  0
XRECORD
  5
4FF9
102
{ACAD_REACTORS
330
4FF7
102
}
330
4FF7
100
AcDbXrecord
280
     1
270
     1
271
     1
  0
XRECORD
  5
4FF8
102
{ACAD_REACTORS
330
4FF7
102
}
330
4FF7
100
AcDbXrecord
280
     1
270
     1
271
     1
  0
XRECORD
  5
4FFC
102
{ACAD_REACTORS
330
4FF7
102
}
330
4FF7
100
AcDbXrecord
280
     1
270
     1
271
     1
  0
XRECORD
  5
4FFB
102
{ACAD_REACTORS
330
4FF7
102
}
330
4FF7
100
AcDbXrecord
280
     1
270
     1
271
     1
  0
XRECORD
  5
4FFD
102
{ACAD_REACTORS
330
4FF7
102
}
330
4FF7
100
AcDbXrecord
280
     1
270
     1
271
     1
  0
XRECORD
  5
4FFA
102
{ACAD_REACTORS
330
4FF7
102
}
330
4FF7
100
AcDbXrecord
280
     1
270
     1
271
     1
  0
CELLSTYLEMAP
  5
17C7D
102
{ACAD_REACTORS
330
50D6
102
}
330
50D6
100
AcDbCellStyleMap
 90
        3
300
CELLSTYLE
  1
TABLEFORMAT_BEGIN
 90
        5
170
     1
 91
        0
 92
    32768
 62
   257
 93
        1
300
CONTENTFORMAT
  1
CONTENTFORMAT_BEGIN
 90
        0
 91
        0
 92
      512
 93
        0
300

 40
0.0
140
1.0
 94
        5
 62
     0
340
11
144
0.25
309
CONTENTFORMAT_END
171
     1
301
MARGIN
  1
CELLMARGIN_BEGIN
 40
0.06
 40
0.06
 40
0.06
 40
0.06
 40
0.18
 40
0.18
309
CELLMARGIN_END
 94
        6
 95
        1
302
GRIDFORMAT
  1
GRIDFORMAT_BEGIN
 90
        0
 91
        1
 62
     0
 92
       -2
340
0
 93
        0
 40
0.045
309
GRIDFORMAT_END
 95
        2
302
GRIDFORMAT
  1
GRIDFORMAT_BEGIN
 90
        0
 91
        1
 62
     0
 92
       -2
340
0
 93
        0
 40
0.045
309
GRIDFORMAT_END
 95
        4
302
GRIDFORMAT
  1
GRIDFORMAT_BEGIN
 90
        0
 91
        1
 62
     0
 92
       -2
340
0
 93
        0
 40
0.045
309
GRIDFORMAT_END
 95
        8
302
GRIDFORMAT
  1
GRIDFORMAT_BEGIN
 90
        0
 91
        1
 62
     0
 92
       -2
340
0
 93
        0
 40
0.045
309
GRIDFORMAT_END
 95
       16
302
GRIDFORMAT
  1
GRIDFORMAT_BEGIN
 90
        0
 91
        1
 62
     0
 92
       -2
340
0
 93
        0
 40
0.045
309
GRIDFORMAT_END
 95
       32
302
GRIDFORMAT
  1
GRIDFORMAT_BEGIN
 90
        0
 91
        1
 62
     0
 92
       -2
340
0
 93
        0
 40
0.045
309
GRIDFORMAT_END
309
TABLEFORMAT_END
  1
CELLSTYLE_BEGIN
 90
        1
 91
        1
300
_TITLE
309
CELLSTYLE_END
300
CELLSTYLE
  1
TABLEFORMAT_BEGIN
 90
        5
170
     1
 91
        0
 92
        0
 62
   257
 93
        1
300
CONTENTFORMAT
  1
CONTENTFORMAT_BEGIN
 90
        0
 91
        0
 92
      512
 93
        0
300

 40
0.0
140
1.0
 94
        5
 62
     0
340
11
144
0.18
309
CONTENTFORMAT_END
171
     1
301
MARGIN
  1
CELLMARGIN_BEGIN
 40
0.06
 40
0.06
 40
0.06
 40
0.06
 40
0.18
 40
0.18
309
CELLMARGIN_END
 94
        6
 95
        1
302
GRIDFORMAT
  1
GRIDFORMAT_BEGIN
 90
        0
 91
        1
 62
     0
 92
       -2
340
0
 93
        0
 40
0.045
309
GRIDFORMAT_END
 95
        2
302
GRIDFORMAT
  1
GRIDFORMAT_BEGIN
 90
        0
 91
        1
 62
     0
 92
       -2
340
0
 93
        0
 40
0.045
309
GRIDFORMAT_END
 95
        4
302
GRIDFORMAT
  1
GRIDFORMAT_BEGIN
 90
        0
 91
        1
 62
     0
 92
       -2
340
0
 93
        0
 40
0.045
309
GRIDFORMAT_END
 95
        8
302
GRIDFORMAT
  1
GRIDFORMAT_BEGIN
 90
        0
 91
        1
 62
     0
 92
       -2
340
0
 93
        0
 40
0.045
309
GRIDFORMAT_END
 95
       16
302
GRIDFORMAT
  1
GRIDFORMAT_BEGIN
 90
        0
 91
        1
 62
     0
 92
       -2
340
0
 93
        0
 40
0.045
309
GRIDFORMAT_END
 95
       32
302
GRIDFORMAT
  1
GRIDFORMAT_BEGIN
 90
        0
 91
        1
 62
     0
 92
       -2
340
0
 93
        0
 40
0.045
309
GRIDFORMAT_END
309
TABLEFORMAT_END
  1
CELLSTYLE_BEGIN
 90
        2
 91
        1
300
_HEADER
309
CELLSTYLE_END
300
CELLSTYLE
  1
TABLEFORMAT_BEGIN
 90
        5
170
     1
 91
        0
 92
        0
 62
   257
 93
        1
300
CONTENTFORMAT
  1
CONTENTFORMAT_BEGIN
 90
        0
 91
        0
 92
      512
 93
        0
300

 40
0.0
140
1.0
 94
        2
 62
     0
340
11
144
0.18
309
CONTENTFORMAT_END
171
     1
301
MARGIN
  1
CELLMARGIN_BEGIN
 40
0.06
 40
0.06
 40
0.06
 40
0.06
 40
0.18
 40
0.18
309
CELLMARGIN_END
 94
        6
 95
        1
302
GRIDFORMAT
  1
GRIDFORMAT_BEGIN
 90
        0
 91
        1
 62
     0
 92
       -2
340
0
 93
        0
 40
0.045
309
GRIDFORMAT_END
 95
        2
302
GRIDFORMAT
  1
GRIDFORMAT_BEGIN
 90
        0
 91
        1
 62
     0
 92
       -2
340
0
 93
        0
 40
0.045
309
GRIDFORMAT_END
 95
        4
302
GRIDFORMAT
  1
GRIDFORMAT_BEGIN
 90
        0
 91
        1
 62
     0
 92
       -2
340
0
 93
        0
 40
0.045
309
GRIDFORMAT_END
 95
        8
302
GRIDFORMAT
  1
GRIDFORMAT_BEGIN
 90
        0
 91
        1
 62
     0
 92
       -2
340
0
 93
        0
 40
0.045
309
GRIDFORMAT_END
 95
       16
302
GRIDFORMAT
  1
GRIDFORMAT_BEGIN
 90
        0
 91
        1
 62
     0
 92
       -2
340
0
 93
        0
 40
0.045
309
GRIDFORMAT_END
 95
       32
302
GRIDFORMAT
  1
GRIDFORMAT_BEGIN
 90
        0
 91
        1
 62
     0
 92
       -2
340
0
 93
        0
 40
0.045
309
GRIDFORMAT_END
309
TABLEFORMAT_END
  1
CELLSTYLE_BEGIN
 90
        3
 91
        2
300
_DATA
309
CELLSTYLE_END
  0
ENDSEC
  0
EOF
