  0
SECTION
  2
HEADER
  9
$ACADVER
  1
AC1021
  9
$ACADMAINTVER
 70
    25
  9
$DWGCODEPAGE
  3
ANSI_936
  9
$LASTSAVEDBY
  1
14609
  9
$INSBASE
 10
0.0
 20
0.0
 30
0.0
  9
$EXTMIN
 10
362.2152430620301
 20
184.5734201987883
 30
0.0
  9
$EXTMAX
 10
510.7146182042826
 20
289.5734203896823
 30
0.0
  9
$LIMMIN
 10
0.0
 20
0.0
  9
$LIMMAX
 10
12.0
 20
9.0
  9
$ORTHOMODE
 70
     0
  9
$REGENMODE
 70
     1
  9
$FILLMODE
 70
     1
  9
$QTEXTMODE
 70
     0
  9
$MIRRTEXT
 70
     1
  9
$LTSCALE
 40
1.0
  9
$ATTMODE
 70
     1
  9
$TEXTSIZE
 40
0.2
  9
$TRACEWID
 40
0.05
  9
$TEXTSTYLE
  7
Standard
  9
$CLAYER
  8
DIM
  9
$CELTYPE
  6
ByLayer
  9
$CECOLOR
 62
   256
  9
$CELTSCALE
 40
1.0
  9
$DISPSILH
 70
     0
  9
$DIMSCALE
 40
1.0
  9
$DIMASZ
 40
2.0
  9
$DIMEXO
 40
0.2
  9
$DIMDLI
 40
0.2
  9
$DIMRND
 40
0.0
  9
$DIMDLE
 40
0.0
  9
$DIMEXE
 40
0.5
  9
$DIMTP
 40
0.0
  9
$DIMTM
 40
0.0
  9
$DIMTXT
 40
2.5
  9
$DIMCEN
 40
0.0
  9
$DIMTSZ
 40
0.0
  9
$DIMTOL
 70
     0
  9
$DIMLIM
 70
     0
  9
$DIMTIH
 70
     0
  9
$DIMTOH
 70
     0
  9
$DIMSE1
 70
     0
  9
$DIMSE2
 70
     0
  9
$DIMTAD
 70
     1
  9
$DIMZIN
 70
     8
  9
$DIMBLK
  1

  9
$DIMASO
 70
     1
  9
$DIMSHO
 70
     1
  9
$DIMPOST
  1

  9
$DIMAPOST
  1

  9
$DIMALT
 70
     0
  9
$DIMALTD
 70
     2
  9
$DIMALTF
 40
25.4
  9
$DIMLFAC
 40
1.0
  9
$DIMTOFL
 70
     0
  9
$DIMTVP
 40
0.0
  9
$DIMTIX
 70
     0
  9
$DIMSOXD
 70
     0
  9
$DIMSAH
 70
     0
  9
$DIMBLK1
  1

  9
$DIMBLK2
  1

  9
$DIMSTYLE
  2
01
  9
$DIMCLRD
 70
     1
  9
$DIMCLRE
 70
     6
  9
$DIMCLRT
 70
     4
  9
$DIMTFAC
 40
1.0
  9
$DIMGAP
 40
0.3
  9
$DIMJUST
 70
     0
  9
$DIMSD1
 70
     0
  9
$DIMSD2
 70
     0
  9
$DIMTOLJ
 70
     1
  9
$DIMTZIN
 70
     0
  9
$DIMALTZ
 70
     0
  9
$DIMALTTZ
 70
     0
  9
$DIMUPT
 70
     0
  9
$DIMDEC
 70
     1
  9
$DIMTDEC
 70
     1
  9
$DIMALTU
 70
     2
  9
$DIMALTTD
 70
     2
  9
$DIMTXSTY
  7
Romans字体
  9
$DIMAUNIT
 70
     0
  9
$DIMADEC
 70
     2
  9
$DIMALTRND
 40
0.0
  9
$DIMAZIN
 70
     2
  9
$DIMDSEP
 70
    46
  9
$DIMATFIT
 70
     3
  9
$DIMFRAC
 70
     0
  9
$DIMLDRBLK
  1

  9
$DIMLUNIT
 70
     2
  9
$DIMLWD
 70
    -2
  9
$DIMLWE
 70
    -2
  9
$DIMTMOVE
 70
     0
  9
$DIMFXL
 40
1.0
  9
$DIMFXLON
 70
     0
  9
$DIMJOGANG
 40
0.7853981633974483
  9
$DIMTFILL
 70
     0
  9
$DIMTFILLCLR
 70
     0
  9
$DIMARCSYM
 70
     0
  9
$DIMLTYPE
  6

  9
$DIMLTEX1
  6

  9
$DIMLTEX2
  6

  9
$LUNITS
 70
     2
  9
$LUPREC
 70
     4
  9
$SKETCHINC
 40
0.1
  9
$FILLETRAD
 40
0.5
  9
$AUNITS
 70
     0
  9
$AUPREC
 70
     0
  9
$MENU
  1
.
  9
$ELEVATION
 40
0.0
  9
$PELEVATION
 40
0.0
  9
$THICKNESS
 40
0.0
  9
$LIMCHECK
 70
     0
  9
$CHAMFERA
 40
0.5
  9
$CHAMFERB
 40
0.5
  9
$CHAMFERC
 40
1.0
  9
$CHAMFERD
 40
0.0
  9
$SKPOLY
 70
     0
  9
$TDCREATE
 40
2456524.383632987
  9
$TDUCREATE
 40
2456524.050299653
  9
$TDUPDATE
 40
2460346.563684850
  9
$TDUUPDATE
 40
2460346.230351516
  9
$TDINDWG
 40
1.2421207523
  9
$TDUSRTIMER
 40
1.2421002083
  9
$USRTIMER
 70
     1
  9
$ANGBASE
 50
0.0
  9
$ANGDIR
 70
     0
  9
$PDMODE
 70
     0
  9
$PDSIZE
 40
0.0
  9
$PLINEWID
 40
0.0
  9
$SPLFRAME
 70
     0
  9
$SPLINETYPE
 70
     6
  9
$SPLINESEGS
 70
     8
  9
$HANDSEED
  5
1536F
  9
$SURFTAB1
 70
     6
  9
$SURFTAB2
 70
     6
  9
$SURFTYPE
 70
     6
  9
$SURFU
 70
     6
  9
$SURFV
 70
     6
  9
$UCSBASE
  2

  9
$UCSNAME
  2

  9
$UCSORG
 10
0.0
 20
0.0
 30
0.0
  9
$UCSXDIR
 10
1.0
 20
0.0
 30
0.0
  9
$UCSYDIR
 10
0.0
 20
1.0
 30
0.0
  9
$UCSORTHOREF
  2

  9
$UCSORTHOVIEW
 70
     0
  9
$UCSORGTOP
 10
0.0
 20
0.0
 30
0.0
  9
$UCSORGBOTTOM
 10
0.0
 20
0.0
 30
0.0
  9
$UCSORGLEFT
 10
0.0
 20
0.0
 30
0.0
  9
$UCSORGRIGHT
 10
0.0
 20
0.0
 30
0.0
  9
$UCSORGFRONT
 10
0.0
 20
0.0
 30
0.0
  9
$UCSORGBACK
 10
0.0
 20
0.0
 30
0.0
  9
$PUCSBASE
  2

  9
$PUCSNAME
  2

  9
$PUCSORG
 10
0.0
 20
0.0
 30
0.0
  9
$PUCSXDIR
 10
1.0
 20
0.0
 30
0.0
  9
$PUCSYDIR
 10
0.0
 20
1.0
 30
0.0
  9
$PUCSORTHOREF
  2

  9
$PUCSORTHOVIEW
 70
     0
  9
$PUCSORGTOP
 10
0.0
 20
0.0
 30
0.0
  9
$PUCSORGBOTTOM
 10
0.0
 20
0.0
 30
0.0
  9
$PUCSORGLEFT
 10
0.0
 20
0.0
 30
0.0
  9
$PUCSORGRIGHT
 10
0.0
 20
0.0
 30
0.0
  9
$PUCSORGFRONT
 10
0.0
 20
0.0
 30
0.0
  9
$PUCSORGBACK
 10
0.0
 20
0.0
 30
0.0
  9
$USERI1
 70
     0
  9
$USERI2
 70
     0
  9
$USERI3
 70
     0
  9
$USERI4
 70
     0
  9
$USERI5
 70
     0
  9
$USERR1
 40
0.0
  9
$USERR2
 40
0.0
  9
$USERR3
 40
0.0
  9
$USERR4
 40
0.0
  9
$USERR5
 40
0.0
  9
$WORLDVIEW
 70
     1
  9
$SHADEDGE
 70
     3
  9
$SHADEDIF
 70
    70
  9
$TILEMODE
 70
     1
  9
$MAXACTVP
 70
    64
  9
$PINSBASE
 10
0.0
 20
0.0
 30
0.0
  9
$PLIMCHECK
 70
     0
  9
$PEXTMIN
 10
1.000000000000000E+20
 20
1.000000000000000E+20
 30
1.000000000000000E+20
  9
$PEXTMAX
 10
-1.000000000000000E+20
 20
-1.000000000000000E+20
 30
-1.000000000000000E+20
  9
$PLIMMIN
 10
0.0
 20
0.0
  9
$PLIMMAX
 10
12.0
 20
9.0
  9
$UNITMODE
 70
     0
  9
$VISRETAIN
 70
     1
  9
$PLINEGEN
 70
     0
  9
$PSLTSCALE
 70
     1
  9
$TREEDEPTH
 70
  3020
  9
$CMLSTYLE
  2
Standard
  9
$CMLJUST
 70
     0
  9
$CMLSCALE
 40
1.0
  9
$PROXYGRAPHICS
 70
     1
  9
$MEASUREMENT
 70
     0
  9
$CELWEIGHT
370
    -1
  9
$ENDCAPS
280
     0
  9
$JOINSTYLE
280
     0
  9
$LWDISPLAY
290
     0
  9
$INSUNITS
 70
     4
  9
$HYPERLINKBASE
  1

  9
$STYLESHEET
  1
MONOCHROME.CTB
  9
$XEDIT
290
     1
  9
$CEPSNTYPE
380
     0
  9
$PSTYLEMODE
290
     1
  9
$FINGERPRINTGUID
  2
{4A02065B-8BB3-4A96-9036-502DC906C165}
  9
$VERSIONGUID
  2
{6F3DA846-49F2-41D5-9A64-01132C5BED75}
  9
$EXTNAMES
290
     1
  9
$PSVPSCALE
 40
0.0
  9
$OLESTARTUP
290
     0
  9
$SORTENTS
280
   127
  9
$INDEXCTL
280
     0
  9
$HIDETEXT
280
     0
  9
$XCLIPFRAME
290
     0
  9
$HALOGAP
280
     0
  9
$OBSCOLOR
 70
   257
  9
$OBSLTYPE
280
     0
  9
$INTERSECTIONDISPLAY
280
     0
  9
$INTERSECTIONCOLOR
 70
   257
  9
$DIMASSOC
280
     1
  9
$PROJECTNAME
  1

  9
$CAMERADISPLAY
290
     0
  9
$LENSLENGTH
 40
50.0
  9
$CAMERAHEIGHT
 40
0.0
  9
$STEPSPERSEC
 40
2.0
  9
$STEPSIZE
 40
6.0
  9
$3DDWFPREC
 40
2.0
  9
$PSOLWIDTH
 40
0.25
  9
$PSOLHEIGHT
 40
4.0
  9
$LOFTANG1
 40
1.570796326794896
  9
$LOFTANG2
 40
1.570796326794896
  9
$LOFTMAG1
 40
0.0
  9
$LOFTMAG2
 40
0.0
  9
$LOFTPARAM
 70
     7
  9
$LOFTNORMALS
280
     1
  9
$LATITUDE
 40
37.795
  9
$LONGITUDE
 40
-122.394
  9
$NORTHDIRECTION
 40
0.0
  9
$TIMEZONE
 70
 -8000
  9
$LIGHTGLYPHDISPLAY
280
     1
  9
$TILEMODELIGHTSYNCH
280
     1
  9
$CMATERIAL
347
4FE6
  9
$SOLIDHIST
280
     1
  9
$SHOWHIST
280
     1
  9
$DWFFRAME
280
     2
  9
$DGNFRAME
280
     0
  9
$REALWORLDSCALE
290
     1
  9
$INTERFERECOLOR
 62
     1
  9
$INTERFEREOBJVS
345
33
  9
$INTERFEREVPVS
346
30
  9
$CSHADOW
280
     0
  9
$SHADOWPLANELOCATION
 40
0.0
  0
ENDSEC
  0
SECTION
  2
CLASSES
  0
CLASS
  1
ACDBDICTIONARYWDFLT
  2
AcDbDictionaryWithDefault
  3
ObjectDBX Classes
 90
        0
 91
        1
280
     0
281
     0
  0
CLASS
  1
VISUALSTYLE
  2
AcDbVisualStyle
  3
ObjectDBX Classes
 90
     4095
 91
       16
280
     0
281
     0
  0
CLASS
  1
MATERIAL
  2
AcDbMaterial
  3
ObjectDBX Classes
 90
     1153
 91
        3
280
     0
281
     0
  0
CLASS
  1
TABLESTYLE
  2
AcDbTableStyle
  3
ObjectDBX Classes
 90
     4095
 91
        1
280
     0
281
     0
  0
CLASS
  1
SCALE
  2
AcDbScale
  3
ObjectDBX Classes
 90
     1153
 91
       33
280
     0
281
     0
  0
CLASS
  1
MLEADERSTYLE
  2
AcDbMLeaderStyle
  3
ACDB_MLEADERSTYLE_CLASS
 90
     4095
 91
        1
280
     0
281
     0
  0
CLASS
  1
CELLSTYLEMAP
  2
AcDbCellStyleMap
  3
ObjectDBX Classes
 90
     1152
 91
        2
280
     0
281
     0
  0
CLASS
  1
DICTIONARYVAR
  2
AcDbDictionaryVar
  3
ObjectDBX Classes
 90
        0
 91
        8
280
     0
281
     0
  0
CLASS
  1
SORTENTSTABLE
  2
AcDbSortentsTable
  3
ObjectDBX Classes
 90
        0
 91
        1
280
     0
281
     0
  0
CLASS
  1
ACAD_EVALUATION_GRAPH
  2
AcDbEvalGraph
  3
ObjectDBX Classes
 90
     1153
 91
        0
280
     0
281
     0
  0
CLASS
  1
ACAECUSTOBJ
  2
AcAeEditorObj
  3
AcAeEditorObj
 90
     1024
 91
        0
280
     0
281
     0
  0
CLASS
  1
ACDB_DYNAMICBLOCKPURGEPREVENTER_VERSION
  2
AcDbDynamicBlockPurgePreventer
  3
ObjectDBX Classes
 90
     1153
 91
        0
280
     0
281
     0
  0
CLASS
  1
MENTALRAYRENDERSETTINGS
  2
AcDbMentalRayRenderSettings
  3
SCENEOE
 90
     1024
 91
        1
280
     0
281
     0
  0
CLASS
  1
ACDB_BLOCKREPRESENTATION_DATA
  2
AcDbBlockRepresentationData
  3
ObjectDBX Classes
 90
     1153
 91
        0
280
     0
281
     0
  0
CLASS
  1
DIMASSOC
  2
AcDbDimAssoc
  3
"AcDbDimAssoc|Product Desc:     AcDim ARX App For Dimension|Company:          Autodesk, Inc.|WEB Address:      www.autodesk.com"
 90
        0
 91
        5
280
     0
281
     0
  0
ENDSEC
  0
SECTION
  2
TABLES
  0
TABLE
  2
VPORT
  5
8
102
{ACAD_XDICTIONARY
360
50EE
102
}
330
0
100
AcDbSymbolTable
 70
     1
  0
VPORT
  5
29
330
8
100
AcDbSymbolTableRecord
100
AcDbViewportTableRecord
  2
*Active
 70
     0
 10
0.0
 20
0.0
 11
1.0
 21
1.0
 12
365.6321146990958
 22
85.96164335660512
 13
0.0
 23
0.0
 14
0.5
 24
0.5
 15
0.5
 25
0.5
 16
0.0
 26
0.0
 36
1.0
 17
104.9654968719086
 27
148.5022307685978
 37
0.0
 40
113.00852858205
 41
1.967136150234741
 42
50.0
 43
0.0
 44
0.0
 50
0.0
 51
0.0
 71
     0
 72
   100
 73
     1
 74
     3
 75
     0
 76
     0
 77
     0
 78
     0
281
     0
 65
     1
110
0.0
120
0.0
130
0.0
111
1.0
121
0.0
131
0.0
112
0.0
122
1.0
132
0.0
 79
     0
146
0.0
348
2F
 60
     3
 61
     5
292
     1
282
     1
141
0.0
142
0.0
 63
   250
421
  3355443
  0
ENDTAB
  0
TABLE
  2
LTYPE
  5
5
330
0
100
AcDbSymbolTable
 70
     2
  0
LTYPE
  5
14
330
5
100
AcDbSymbolTableRecord
100
AcDbLinetypeTableRecord
  2
ByBlock
 70
     0
  3

 72
    65
 73
     0
 40
0.0
  0
LTYPE
  5
15
330
5
100
AcDbSymbolTableRecord
100
AcDbLinetypeTableRecord
  2
ByLayer
 70
     0
  3

 72
    65
 73
     0
 40
0.0
  0
LTYPE
  5
16
330
5
100
AcDbSymbolTableRecord
100
AcDbLinetypeTableRecord
  2
Continuous
 70
     0
  3
Solid line
 72
    65
 73
     0
 40
0.0
  0
LTYPE
  5
67BA
330
5
100
AcDbSymbolTableRecord
100
AcDbLinetypeTableRecord
  2
CENTER
 70
     0
  3
Center ____ _ ____ _ ____ _ ____ _ ____ _ ____
 72
    65
 73
     4
 40
2.0
 49
1.25
 74
     0
 49
-0.25
 74
     0
 49
0.25
 74
     0
 49
-0.25
 74
     0
  0
ENDTAB
  0
TABLE
  2
LAYER
  5
2
102
{ACAD_XDICTIONARY
360
50B8
102
}
330
0
100
AcDbSymbolTable
 70
     9
  0
LAYER
  5
10
102
{ACAD_XDICTIONARY
360
50D0
102
}
330
2
100
AcDbSymbolTableRecord
100
AcDbLayerTableRecord
  2
0
 70
     0
 62
     7
  6
Continuous
370
    30
390
F
347
4FF6
  0
LAYER
  5
3B
102
{ACAD_XDICTIONARY
360
50D2
102
}
330
2
100
AcDbSymbolTableRecord
100
AcDbLayerTableRecord
  2
图层 1
 70
     0
 62
     7
  6
Continuous
370
    -3
390
F
347
4FF6
  0
LAYER
  5
50AE
102
{ACAD_XDICTIONARY
360
50AF
102
}
330
2
100
AcDbSymbolTableRecord
100
AcDbLayerTableRecord
  2
图框
 70
     0
 62
     7
  6
Continuous
370
    20
390
F
347
4FF6
  0
LAYER
  5
5141
330
2
100
AcDbSymbolTableRecord
100
AcDbLayerTableRecord
  2
Defpoints
 70
     0
 62
     7
  6
Continuous
290
     0
370
    -3
390
F
347
4FF6
  0
LAYER
  5
5144
330
2
100
AcDbSymbolTableRecord
100
AcDbLayerTableRecord
  2
DIM
 70
     0
 62
     3
  6
Continuous
370
    15
390
F
347
4FF6
1001
AcAecLayerStandard
1000

1000

  0
LAYER
  5
52F3
330
2
100
AcDbSymbolTableRecord
100
AcDbLayerTableRecord
  2
打标文字
 70
     0
 62
     3
  6
Continuous
370
    20
390
F
347
4FF6
  0
LAYER
  5
67B7
330
2
100
AcDbSymbolTableRecord
100
AcDbLayerTableRecord
  2
CEN
 70
     0
 62
     1
  6
CENTER
370
    15
390
F
347
4FF6
1001
AcAecLayerStandard
1000

1000

  0
LAYER
  5
11B6B
330
2
100
AcDbSymbolTableRecord
100
AcDbLayerTableRecord
  2
hat
 70
     0
 62
     6
  6
Continuous
370
    15
390
F
347
4FF6
1001
AcAecLayerStandard
1000

1000

  0
LAYER
  5
14DD1
330
2
100
AcDbSymbolTableRecord
100
AcDbLayerTableRecord
  2
02___PRT_ALL_AXES
 70
     0
 62
     7
  6
Continuous
370
     0
390
F
347
4FF6
  0
ENDTAB
  0
TABLE
  2
STYLE
  5
3
330
0
100
AcDbSymbolTable
 70
     4
  0
STYLE
  5
11
330
3
100
AcDbSymbolTableRecord
100
AcDbTextStyleTableRecord
  2
Standard
 70
     0
 40
0.0
 41
0.75
 50
0.0
 71
     0
 42
0.2
  3

  4

1001
ACAD
1000
仿宋_GB2312
1071
    34353
  0
STYLE
  5
FD48
330
3
100
AcDbSymbolTableRecord
100
AcDbTextStyleTableRecord
  2
Romans字体
 70
     0
 40
0.0
 41
0.75
 50
0.0
 71
     0
 42
0.2
  3
romans.shx
  4

  0
STYLE
  5
11080
330
3
100
AcDbSymbolTableRecord
100
AcDbTextStyleTableRecord
  2
工程字
 70
     0
 40
0.0
 41
1.0
 50
0.0
 71
     0
 42
3.5
  3
gbenor.shx
  4
gbcbig.shx
  0
STYLE
  5
11081
330
3
100
AcDbSymbolTableRecord
100
AcDbTextStyleTableRecord
  2
Chinese
 70
     0
 40
0.0
 41
1.0
 50
0.0
 71
     0
 42
2.5
  3

  4

1001
ACAD
1000
PMingLiU
1071
    34834
  0
ENDTAB
  0
TABLE
  2
VIEW
  5
6
330
0
100
AcDbSymbolTable
 70
     0
  0
ENDTAB
  0
TABLE
  2
UCS
  5
7
330
0
100
AcDbSymbolTable
 70
     0
  0
ENDTAB
  0
TABLE
  2
APPID
  5
9
330
0
100
AcDbSymbolTable
 70
    17
  0
APPID
  5
12
330
9
100
AcDbSymbolTableRecord
100
AcDbRegAppTableRecord
  2
ACAD
 70
     0
  0
APPID
  5
5024
330
9
100
AcDbSymbolTableRecord
100
AcDbRegAppTableRecord
  2
ACAD_MLEADERVER
 70
     0
  0
APPID
  5
50B5
330
9
100
AcDbSymbolTableRecord
100
AcDbRegAppTableRecord
  2
AcDbDynamicBlockGUID
 70
     0
  0
APPID
  5
50B6
330
9
100
AcDbSymbolTableRecord
100
AcDbRegAppTableRecord
  2
AcDbBlockRepETag
 70
     0
  0
APPID
  5
50B7
330
9
100
AcDbSymbolTableRecord
100
AcDbRegAppTableRecord
  2
ACAD_PSEXT
 70
     0
  0
APPID
  5
50CF
330
9
100
AcDbSymbolTableRecord
100
AcDbRegAppTableRecord
  2
AcadAnnoPO
 70
     0
  0
APPID
  5
5146
330
9
100
AcDbSymbolTableRecord
100
AcDbRegAppTableRecord
  2
AcAecLayerStandard
 70
     0
  0
APPID
  5
5147
330
9
100
AcDbSymbolTableRecord
100
AcDbRegAppTableRecord
  2
ACAD_DSTYLE_DIMJAG
 70
     0
  0
APPID
  5
5148
330
9
100
AcDbSymbolTableRecord
100
AcDbRegAppTableRecord
  2
ACAD_DSTYLE_DIMTALN
 70
     0
  0
APPID
  5
52AD
330
9
100
AcDbSymbolTableRecord
100
AcDbRegAppTableRecord
  2
ACAUTHENVIRON
 70
     0
  0
APPID
  5
52B0
330
9
100
AcDbSymbolTableRecord
100
AcDbRegAppTableRecord
  2
AcDbDynamicBlockTrueName
 70
     0
  0
APPID
  5
67C6
330
9
100
AcDbSymbolTableRecord
100
AcDbRegAppTableRecord
  2
ACAD_EXEMPT_FROM_CAD_STANDARDS
 70
     0
  0
APPID
  5
6838
330
9
100
AcDbSymbolTableRecord
100
AcDbRegAppTableRecord
  2
ACAD_NAV_VCDISPLAY
 70
     0
  0
APPID
  5
70A9
330
9
100
AcDbSymbolTableRecord
100
AcDbRegAppTableRecord
  2
DCO15
 70
     0
  0
APPID
  5
8725
330
9
100
AcDbSymbolTableRecord
100
AcDbRegAppTableRecord
  2
AcDbBlockRepBTag
 70
     0
  0
APPID
  5
FE64
330
9
100
AcDbSymbolTableRecord
100
AcDbRegAppTableRecord
  2
ACAD_DSTYLE_DIMRADIAL_EXTENSION
 70
     0
  0
APPID
  5
FF93
330
9
100
AcDbSymbolTableRecord
100
AcDbRegAppTableRecord
  2
ACAD_DSTYLE_DIMBREAK
 70
     0
  0
ENDTAB
  0
TABLE
  2
DIMSTYLE
  5
A
330
0
100
AcDbSymbolTable
 70
     2
100
AcDbDimStyleTable
 71
     2
340
5145
340
27
  0
DIMSTYLE
105
27
330
A
100
AcDbSymbolTableRecord
100
AcDbDimStyleTableRecord
  2
Standard
 70
     0
340
11
  0
DIMSTYLE
105
5145
102
{ACAD_REACTORS
330
150B4
330
150B7
330
150BA
330
150BD
330
150C0
330
14F63
330
14F64
330
14F65
102
}
330
A
100
AcDbSymbolTableRecord
100
AcDbDimStyleTableRecord
  2
01
 70
     0
 41
2.0
 42
0.2
 43
0.2
 44
0.5
 73
     0
 74
     0
 77
     1
 78
     8
 79
     2
140
2.5
141
0.0
147
0.3
176
     1
177
     6
178
     4
179
     2
271
     1
272
     1
340
FD48
1001
ACAD_DSTYLE_DIMJAG
1070
   388
1040
1.5
1001
ACAD_DSTYLE_DIMTALN
1070
   392
1070
     0
  0
ENDTAB
  0
TABLE
  2
BLOCK_RECORD
  5
1
330
0
100
AcDbSymbolTable
 70
    10
  0
BLOCK_RECORD
  5
1F
102
{ACAD_XDICTIONARY
360
67C0
102
}
330
1
100
AcDbSymbolTableRecord
100
AcDbBlockTableRecord
  2
*Model_Space
340
22
 70
     0
280
     1
281
     0
  0
BLOCK_RECORD
  5
1B
330
1
100
AcDbSymbolTableRecord
100
AcDbBlockTableRecord
  2
*Paper_Space
340
1E
 70
     0
280
     1
281
     0
  0
BLOCK_RECORD
  5
23
330
1
100
AcDbSymbolTableRecord
100
AcDbBlockTableRecord
  2
*Paper_Space0
340
26
 70
     0
280
     1
281
     0
  0
BLOCK_RECORD
  5
13E17
102
{ACAD_XDICTIONARY
360
15326
102
}
330
1
100
AcDbSymbolTableRecord
100
AcDbBlockTableRecord
  2
A4图框-NEW
340
0
310
2800000020000000200000000100080000000000000400000000000000000000000000000000000000000000000080000080000000808000800000008000800080800000C0C0C000C0DCC000F0CAA6000020400000206000002080000020A0000020C0000020E00000400000004020000040400000406000004080000040A0
310
000040C0000040E00000600000006020000060400000606000006080000060A0000060C0000060E00000800000008020000080400000806000008080000080A0000080C0000080E00000A0000000A0200000A0400000A0600000A0800000A0A00000A0C00000A0E00000C0000000C0200000C0400000C0600000C0800000C0
310
A00000C0C00000C0E00000E0000000E0200000E0400000E0600000E0800000E0A00000E0C00000E0E00040000000400020004000400040006000400080004000A0004000C0004000E00040200000402020004020400040206000402080004020A0004020C0004020E000404000004040200040404000404060004040800040
310
40A0004040C0004040E00040600000406020004060400040606000406080004060A0004060C0004060E00040800000408020004080400040806000408080004080A0004080C0004080E00040A0000040A0200040A0400040A0600040A0800040A0A00040A0C00040A0E00040C0000040C0200040C0400040C0600040C08000
310
40C0A00040C0C00040C0E00040E0000040E0200040E0400040E0600040E0800040E0A00040E0C00040E0E00080000000800020008000400080006000800080008000A0008000C0008000E00080200000802020008020400080206000802080008020A0008020C0008020E00080400000804020008040400080406000804080
310
008040A0008040C0008040E00080600000806020008060400080606000806080008060A0008060C0008060E00080800000808020008080400080806000808080008080A0008080C0008080E00080A0000080A0200080A0400080A0600080A0800080A0A00080A0C00080A0E00080C0000080C0200080C0400080C0600080C0
310
800080C0A00080C0C00080C0E00080E0000080E0200080E0400080E0600080E0800080E0A00080E0C00080E0E000C0000000C0002000C0004000C0006000C0008000C000A000C000C000C000E000C0200000C0202000C0204000C0206000C0208000C020A000C020C000C020E000C0400000C0402000C0404000C0406000C0
310
408000C040A000C040C000C040E000C0600000C0602000C0604000C0606000C0608000C060A000C060C000C060E000C0800000C0802000C0804000C0806000C0808000C080A000C080C000C080E000C0A00000C0A02000C0A04000C0A06000C0A08000C0A0A000C0A0C000C0A0E000C0C00000C0C02000C0C04000C0C06000
310
C0C08000C0C0A000F0FBFF00A4A0A000808080000000FF0000FF000000FFFF00FF000000FF00FF00FFFF0000FFFFFF0000000000000000000000000000000000000000000000000000000000000000000000000000000000000000000000000000000000000000000000000000000000000000000000000000000000000000
310
000000000000000000000000000000000000000000000000000000000000000000000000000000000000000000000000000000000000000000000000000000000000000000000000000000000000000000000000000000000000000000000000000000000000000000000000000000000000F9F9F9F9F9F9F9F9F9F9F9F9F9
310
F9F9F9F9F9F9F9F9F9F9F9F9F9F9FF00000000F9FF000000000000000000FFFFFFFFFFFFFFFFFFFFFFFFF9FAFAFAFF00000000F9FF000000000000000000FFFFFFFFFFFFFFFFFFFFFFFFFFFFFFFFFF00000000F9FD000000000000000000FFFFFFFFFFFFFFFFFFFFFFFFFFFFFFFFFF00000000F9FF000000000000000000FF
310
FFFFFFFFFFFFFFFFFFFFFFFFFFFFFFFF00000000F9FD000000000000000000FFFFFFFFFFFFFFFFFFFFFFFFFFFFFFFFFF00000000F9FF00000000000000000000000000000000000000000000000000FF00000000F9FD00000000000000000000000000000000000000000000000000FF00000000F9FF000000000000000000
310
00000000000000000000000000000000FF00000000F9FD00000000000000000000000000000000000000000000000000FF00000000F9FF00000000000000000000000000000000000000000000000000FF00000000F9FD00000000000000000000000000000000000000000000000000FF00000000F9FD0000000000000000
310
0000000000000000000000000000000000FF00000000F9FF00000000000000000000000000000000000000000000000000FF00000000F9FD00000000000000000000000000000000000000000000000000FF00000000F9FF00000000000000000000000000000000000000000000000000FF00000000F9FD00000000000000
310
000000000000000000000000000000000000FF00000000F9FF00000000000000000000000000000000000000000000000000FF00000000F9FFFFFFFFFFFFFFFFFFFFFFFFFFFFFFFFFFFFFFFFFFFFFFFFFFFFFF00000000F9FFFFFFF9F9F9F9F9F9F9F9F9F9F9F9F9F9F9F9F9F9F9F9F9F9F9F9000000000000000000000000
310
00000000000000000000000000000000000000000000000000000000000000000000000000000000000000000000000000000000000000000000000000000000000000000000000000000000000000000000000000000000000000000000000000000000000000000000000000000000000000000000000000000000000000
310
0000000000000000000000000000000000000000000000000000000000000000000000000000000000000000000000000000000000000000
102
{BLKREFS
331
13EBE
102
}
 70
     4
280
     1
281
     0
1001
AcDbDynamicBlockGUID
1000
{4F5D2ACD-CEA1-412E-BA5B-29A51943BDCF}
1001
AcDbBlockRepETag
1070
     1
1071
      149
  0
BLOCK_RECORD
  5
150C3
330
1
100
AcDbSymbolTableRecord
100
AcDbBlockTableRecord
  2
*D2
340
0
 70
     0
280
     1
281
     0
  0
BLOCK_RECORD
  5
150CF
330
1
100
AcDbSymbolTableRecord
100
AcDbBlockTableRecord
  2
*D3
340
0
 70
     0
280
     1
281
     0
  0
BLOCK_RECORD
  5
150DB
330
1
100
AcDbSymbolTableRecord
100
AcDbBlockTableRecord
  2
*D4
340
0
 70
     0
280
     1
281
     0
  0
BLOCK_RECORD
  5
150E7
330
1
100
AcDbSymbolTableRecord
100
AcDbBlockTableRecord
  2
*D5
340
0
 70
     0
280
     1
281
     0
  0
BLOCK_RECORD
  5
150F3
330
1
100
AcDbSymbolTableRecord
100
AcDbBlockTableRecord
  2
*D6
340
0
 70
     0
280
     1
281
     0
  0
BLOCK_RECORD
  5
150FF
330
1
100
AcDbSymbolTableRecord
100
AcDbBlockTableRecord
  2
*D7
340
0
 70
     0
280
     1
281
     0
  0
BLOCK_RECORD
  5
1510B
330
1
100
AcDbSymbolTableRecord
100
AcDbBlockTableRecord
  2
*D8
340
0
 70
     0
280
     1
281
     0
  0
BLOCK_RECORD
  5
15117
330
1
100
AcDbSymbolTableRecord
100
AcDbBlockTableRecord
  2
*D9
340
0
 70
     0
280
     1
281
     0
  0
ENDTAB
  0
ENDSEC
  0
SECTION
  2
BLOCKS
  0
BLOCK
  5
20
330
1F
100
AcDbEntity
  8
0
100
AcDbBlockBegin
  2
*Model_Space
 70
     0
 10
0.0
 20
0.0
 30
0.0
  3
*Model_Space
  1

  0
ENDBLK
  5
21
330
1F
100
AcDbEntity
  8
0
100
AcDbBlockEnd
  0
BLOCK
  5
1C
330
1B
100
AcDbEntity
 67
     1
  8
0
100
AcDbBlockBegin
  2
*Paper_Space
 70
     0
 10
0.0
 20
0.0
 30
0.0
  3
*Paper_Space
  1

  0
ENDBLK
  5
1D
330
1B
100
AcDbEntity
 67
     1
  8
0
100
AcDbBlockEnd
  0
BLOCK
  5
24
330
23
100
AcDbEntity
 67
     1
  8
0
100
AcDbBlockBegin
  2
*Paper_Space0
 70
     0
 10
0.0
 20
0.0
 30
0.0
  3
*Paper_Space0
  1

  0
ENDBLK
  5
25
330
23
100
AcDbEntity
 67
     1
  8
0
100
AcDbBlockEnd
  0
BLOCK
  5
13E19
330
13E17
100
AcDbEntity
  8
0
100
AcDbBlockBegin
  2
A4图框-NEW
 70
     0
 10
0.0
 20
0.0
 30
0.0
  3
A4图框-NEW
  1

  0
MTEXT
  5
15291
102
{ACAD_XDICTIONARY
360
15357
102
}
330
13E17
100
AcDbEntity
  8
图框
 62
     3
100
AcDbMText
 10
967.6594956750133
 20
499.7664151964293
 30
0.0
 40
2.985513575034151
 41
15.50176341157864
 46
6.292658374511018
 71
     5
 72
     5
  1
BQ LUO
  7
Romans字体
 73
     1
 44
1.0
1001
AcDbBlockRepETag
1070
     1
1071
        0
1005
15291
1001
ACAD
1000
ACAD_MTEXT_DEFINED_HEIGHT_BEGIN
1070
    46
1040
6.292658374511018
1000
ACAD_MTEXT_DEFINED_HEIGHT_END
  0
MTEXT
  5
15292
330
13E17
100
AcDbEntity
  8
图框
 62
     3
100
AcDbMText
 10
983.041569333247
 20
499.7664151964293
 30
0.0
 40
2.487927979195124
 41
15.26238390489062
 46
6.292658374511042
 71
     5
 72
     5
  1
{\W0.7;18.10.2010}
  7
Romans字体
 73
     1
 44
1.0
1001
AcDbBlockRepETag
1070
     1
1071
        1
1005
15292
1001
ACAD
1000
ACAD_MTEXT_DEFINED_HEIGHT_BEGIN
1070
    46
1040
6.292658374511042
1000
ACAD_MTEXT_DEFINED_HEIGHT_END
  0
MTEXT
  5
15293
330
13E17
100
AcDbEntity
  8
图框
 62
     3
100
AcDbMText
 10
1012.477254728976
 20
487.1810984474071
 30
0.0
 40
2.985513575034151
 41
17.64876416884615
 46
6.292658374511455
 71
     5
 72
     5
  1
YY LIN
  7
Romans字体
 73
     1
 44
1.0
1001
AcDbBlockRepETag
1070
     1
1071
        2
1005
15293
1001
ACAD
1000
ACAD_MTEXT_DEFINED_HEIGHT_BEGIN
1070
    46
1040
6.292658374511455
1000
ACAD_MTEXT_DEFINED_HEIGHT_END
  0
MTEXT
  5
15294
330
13E17
100
AcDbEntity
  8
图框
 62
     3
100
AcDbMText
 10
1028.977802139886
 20
487.1810984474071
 30
0.0
 40
2.487927979195124
 41
15.35233065297276
 46
6.292658374511495
 71
     5
 72
     5
  1
{\W0.7;18.10.2010}
  7
Romans字体
 73
     1
 44
1.0
1001
AcDbBlockRepETag
1070
     1
1071
        3
1005
15294
1001
ACAD
1000
ACAD_MTEXT_DEFINED_HEIGHT_BEGIN
1070
    46
1040
6.292658374511495
1000
ACAD_MTEXT_DEFINED_HEIGHT_END
  0
MTEXT
  5
15295
330
13E17
100
AcDbEntity
  8
图框
 62
     3
100
AcDbMText
 10
1063.722665487208
 20
525.4145966538831
 30
0.0
 40
2.985513575034151
 41
32.4973914334545
 46
11.82914190181707
 71
     5
 72
     5
  1
-
  7
Romans字体
 73
     1
 44
1.0
1001
AcDbBlockRepETag
1070
     1
1071
        4
1005
15295
1001
ACAD
1000
ACAD_MTEXT_DEFINED_HEIGHT_BEGIN
1070
    46
1040
11.82914190181707
1000
ACAD_MTEXT_DEFINED_HEIGHT_END
  0
MTEXT
  5
15296
330
13E17
100
AcDbEntity
  8
图框
 62
     3
100
AcDbMText
 10
1063.727338552349
 20
513.5854547520641
 30
0.0
 40
2.985513575034151
 41
32.48804530317308
 46
11.82914190182139
 71
     5
 72
     5
  1
-
  7
Romans字体
 73
     1
 44
1.0
1001
AcDbBlockRepETag
1070
     1
1071
        5
1005
15296
1001
ACAD
1000
ACAD_MTEXT_DEFINED_HEIGHT_BEGIN
1070
    46
1040
11.82914190182139
1000
ACAD_MTEXT_DEFINED_HEIGHT_END
  0
MTEXT
  5
15297
330
13E17
100
AcDbEntity
  8
图框
 62
     3
100
AcDbMText
 10
1110.122306614152
 20
526.8006839312707
 30
0.0
 40
2.985513575034151
 41
33.61239199242139
 46
9.05696734704178
 71
     5
 72
     5
  1
-
  7
Romans字体
 73
     1
 44
1.0
1001
AcDbBlockRepETag
1070
     1
1071
        6
1005
15297
1001
ACAD
1000
ACAD_MTEXT_DEFINED_HEIGHT_BEGIN
1070
    46
1040
9.05696734704178
1000
ACAD_MTEXT_DEFINED_HEIGHT_END
  0
MTEXT
  5
15298
330
13E17
100
AcDbEntity
  8
图框
 62
     3
100
AcDbMText
 10
1110.122306614152
 20
500.2775205517162
 30
0.0
 40
2.985513575034151
 41
33.61239199242139
 46
8.871557304763419
 71
     5
 72
     5
  1
-
  7
Romans字体
 73
     1
 44
1.0
1001
AcDbBlockRepETag
1070
     1
1071
        7
1005
15298
1001
ACAD
1000
ACAD_MTEXT_DEFINED_HEIGHT_BEGIN
1070
    46
1040
8.871557304763419
1000
ACAD_MTEXT_DEFINED_HEIGHT_END
  0
MTEXT
  5
15299
330
13E17
100
AcDbEntity
  8
图框
 62
     3
100
AcDbMText
 10
967.6594956750133
 20
493.4737568219182
 30
0.0
 40
2.985513575034151
 41
15.50176341157864
 46
6.292658374510335
 71
     5
 72
     5
  1
P RAO
  7
Romans字体
 73
     1
 44
1.0
1001
AcDbBlockRepETag
1070
     1
1071
        8
1005
15299
1001
ACAD
1000
ACAD_MTEXT_DEFINED_HEIGHT_BEGIN
1070
    46
1040
6.292658374510335
1000
ACAD_MTEXT_DEFINED_HEIGHT_END
  0
MTEXT
  5
1529A
330
13E17
100
AcDbEntity
  8
图框
 62
     3
100
AcDbMText
 10
983.041569333247
 20
493.2441970450405
 30
0.0
 40
2.487927979195124
 41
15.26238390489051
 46
6.751777928266487
 71
     5
 72
     5
  1
{\W0.7;18.10.2010}
  7
Romans字体
 73
     1
 44
1.0
1001
AcDbBlockRepETag
1070
     1
1071
        9
1005
1529A
1001
ACAD
1000
ACAD_MTEXT_DEFINED_HEIGHT_BEGIN
1070
    46
1040
6.751777928266487
1000
ACAD_MTEXT_DEFINED_HEIGHT_END
  0
MTEXT
  5
1529B
330
13E17
100
AcDbEntity
  8
图框
 62
     3
100
AcDbMText
 10
1012.477254728976
 20
499.7664151964291
 30
0.0
 40
2.985513575034151
 41
17.64876416884615
 46
6.292658374511397
 71
     5
 72
     5
  1
-
  7
Romans字体
 73
     1
 44
1.0
1001
AcDbBlockRepETag
1070
     1
1071
       10
1005
1529B
1001
ACAD
1000
ACAD_MTEXT_DEFINED_HEIGHT_BEGIN
1070
    46
1040
6.292658374511397
1000
ACAD_MTEXT_DEFINED_HEIGHT_END
  0
MTEXT
  5
1529C
330
13E17
100
AcDbEntity
  8
图框
 62
     3
100
AcDbMText
 10
1028.977802139886
 20
499.7664151964289
 30
0.0
 40
2.487927979195124
 41
15.35233065297265
 46
6.292658374511382
 71
     5
 72
     5
  1
-
  7
Romans字体
 73
     1
 44
1.0
1001
AcDbBlockRepETag
1070
     1
1071
       11
1005
1529C
1001
ACAD
1000
ACAD_MTEXT_DEFINED_HEIGHT_BEGIN
1070
    46
1040
6.292658374511382
1000
ACAD_MTEXT_DEFINED_HEIGHT_END
  0
MTEXT
  5
1529D
330
13E17
100
AcDbEntity
  8
图框
 62
     3
100
AcDbMText
 10
967.6594956750133
 20
487.1810984474071
 30
0.0
 40
2.985513575034151
 41
15.50176341157863
 46
6.292658374511478
 71
     5
 72
     5
  1
-
  7
Romans字体
 73
     1
 44
1.0
1001
AcDbBlockRepETag
1070
     1
1071
       12
1005
1529D
1001
ACAD
1000
ACAD_MTEXT_DEFINED_HEIGHT_BEGIN
1070
    46
1040
6.292658374511478
1000
ACAD_MTEXT_DEFINED_HEIGHT_END
  0
MTEXT
  5
1529E
330
13E17
100
AcDbEntity
  8
图框
 62
     3
100
AcDbMText
 10
983.041569333247
 20
487.1810984474071
 30
0.0
 40
2.487927979195124
 41
15.26238390489062
 46
6.292658374511495
 71
     5
 72
     5
  1
-
  7
Romans字体
 73
     1
 44
1.0
1001
AcDbBlockRepETag
1070
     1
1071
       13
1005
1529E
1001
ACAD
1000
ACAD_MTEXT_DEFINED_HEIGHT_BEGIN
1070
    46
1040
6.292658374511495
1000
ACAD_MTEXT_DEFINED_HEIGHT_END
  0
MTEXT
  5
1529F
330
13E17
100
AcDbEntity
  8
图框
 62
     3
100
AcDbMText
 10
1074.556686986741
 20
495.8417418993361
 30
0.0
 40
2.985513575034151
 41
10.82934843438978
 46
7.886094601210427
 71
     5
 72
     5
  1
-
  7
Romans字体
 73
     1
 44
1.0
1001
AcDbBlockRepETag
1070
     1
1071
       14
1005
1529F
1001
ACAD
1000
ACAD_MTEXT_DEFINED_HEIGHT_BEGIN
1070
    46
1040
7.886094601210427
1000
ACAD_MTEXT_DEFINED_HEIGHT_END
  0
LINE
  5
152A0
330
13E17
100
AcDbEntity
  8
图框
370
    -3
100
AcDbLine
 10
1036.653967466372
 20
499.7847891999413
 30
0.0
 11
1079.971361203936
 21
499.7847891999413
 31
0.0
1001
AcDbBlockRepETag
1070
     1
1071
       15
1005
152A0
  0
MTEXT
  5
152A1
330
13E17
100
AcDbEntity
  8
图框
 62
     1
370
    20
100
AcDbMText
 10
1108.26336443907
 20
491.5162596080882
 30
0.0
 40
2.699054613030988
 41
82.30831305643079
 46
0.0
 71
     5
 72
     5
  1
{\fSimHei|b0|i0|c134|p2;厦门唯恩电气有限公司}
 73
     1
 44
1.0
1001
AcDbBlockRepETag
1070
     1
1071
       16
1005
152A1
  0
MTEXT
  5
152A2
330
13E17
100
AcDbEntity
  8
图框
 62
     3
370
    20
100
AcDbMText
 10
1108.435451459908
 20
487.298967726064
 30
0.0
 40
1.652482416141417
 41
68.08558693693567
 46
0.0
 71
     5
 72
     5
  1
{\fArial Narrow|b0|i0|c0|p34;XIAMEN WAIN ELECTRICAL CO.LTD}
  7
工程字
 73
     1
 44
1.0
1001
AcDbBlockRepETag
1070
     1
1071
       17
1005
152A2
  0
MTEXT
  5
152A3
330
13E17
100
AcDbEntity
  8
图框
 62
     1
370
    20
100
AcDbMText
 10
1085.711816899387
 20
491.0944802995856
 30
0.0
 40
2.005930044038334
 41
5.047240019334847
 46
0.0
 71
     1
 72
     5
  1
{\fArial|b0|i0|c0|p34;A}
  7
Chinese
 73
     1
 44
1.0
1001
AcDbBlockRepETag
1070
     1
1071
       18
1005
152A3
  0
MTEXT
  5
152A4
330
13E17
100
AcDbEntity
  8
图框
 62
     1
370
    20
100
AcDbMText
 10
1088.213485935716
 20
491.0944802995856
 30
0.0
 40
2.005930044038334
 41
5.047240019334847
 46
0.0
 71
     1
 72
     5
  1
{\fArial|b0|i0|c0|p34;I}
  7
Chinese
 73
     1
 44
1.0
1001
AcDbBlockRepETag
1070
     1
1071
       19
1005
152A4
  0
MTEXT
  5
152A5
330
13E17
100
AcDbEntity
  8
图框
 62
     1
370
    20
100
AcDbMText
 10
1089.142375222864
 20
491.0822866326808
 30
0.0
 40
2.005930044038334
 41
5.047240019334847
 46
0.0
 71
     1
 72
     5
  1
{\fArial|b0|i0|c0|p34;N}
  7
Chinese
 73
     1
 44
1.0
1001
AcDbBlockRepETag
1070
     1
1071
       20
1005
152A5
  0
MTEXT
  5
152A6
330
13E17
100
AcDbEntity
  8
图框
100
AcDbMText
 10
1069.142012769545
 20
487.9667319294409
 30
0.0
 40
2.252848170144607
 41
21.65869686878327
 46
7.863925338579296
 71
     5
 72
     5
  1
{\W0.5;\C1;All Dimensions in mm\POriginal Size DIN A 4}
  7
Romans字体
 73
     1
 44
1.0
1001
AcDbBlockRepETag
1070
     1
1071
       21
1005
152A6
1001
ACAD
1000
ACAD_MTEXT_DEFINED_HEIGHT_BEGIN
1070
    46
1040
7.863925338579296
1000
ACAD_MTEXT_DEFINED_HEIGHT_END
  0
MTEXT
  5
152A7
330
13E17
100
AcDbEntity
  8
图框
  6
ByBlock
 62
     6
370
    18
100
AcDbMText
 10
1127.40434942308
 20
508.7896535755975
 30
0.0
 40
2.651776162684904
 41
2.557913877927211
 46
0.0
 71
     1
 72
     5
  1
A
  7
Romans字体
 11
0.0000000000000001
 21
1.0
 31
0.0
 73
     1
 44
1.0
1001
AcDbBlockRepETag
1070
     1
1071
       22
1005
152A7
  0
MTEXT
  5
152A8
330
13E17
100
AcDbEntity
  8
图框
 62
     6
100
AcDbMText
 10
1127.40434942308
 20
556.3746573232886
 30
0.0
 40
2.651776162684904
 41
2.557913877927211
 46
0.0
 71
     1
 72
     5
  1
B
  7
Romans字体
 11
0.0000000000000001
 21
1.0
 31
0.0
 73
     1
 44
1.0
1001
AcDbBlockRepETag
1070
     1
1071
       23
1005
152A8
  0
MTEXT
  5
152A9
330
13E17
100
AcDbEntity
  8
图框
 62
     6
100
AcDbMText
 10
1127.40434942308
 20
607.5539372630998
 30
0.0
 40
2.651776162684904
 41
2.557913877927211
 46
0.0
 71
     1
 72
     5
  1
C
  7
Romans字体
 11
0.0000000000000001
 21
1.0
 31
0.0
 73
     1
 44
1.0
1001
AcDbBlockRepETag
1070
     1
1071
       24
1005
152A9
  0
MTEXT
  5
152AA
330
13E17
100
AcDbEntity
  8
图框
 62
     6
100
AcDbMText
 10
1127.40434942308
 20
658.7332172029115
 30
0.0
 40
2.651776162684904
 41
2.557913877927211
 46
0.0
 71
     1
 72
     5
  1
D
  7
Romans字体
 11
0.0000000000000001
 21
1.0
 31
0.0
 73
     1
 44
1.0
1001
AcDbBlockRepETag
1070
     1
1071
       25
1005
152AA
  0
LINE
  5
152AB
330
13E17
100
AcDbEntity
  8
图框
 62
     6
100
AcDbLine
 10
1130.411601781241
 20
634.0726090796082
 30
0.0
 11
1126.928502610363
 21
634.0726090796082
 31
0.0
1001
AcDbBlockRepETag
1070
     1
1071
       26
1005
152AB
  0
LINE
  5
152AC
330
13E17
100
AcDbEntity
  8
图框
 62
     6
100
AcDbLine
 10
1130.411601781241
 20
582.89332913979
 30
0.0
 11
1126.928502610363
 21
582.89332913979
 31
0.0
1001
AcDbBlockRepETag
1070
     1
1071
       27
1005
152AC
  0
MTEXT
  5
152AD
330
13E17
100
AcDbEntity
  8
图框
 62
     6
100
AcDbMText
 10
1105.329704038389
 20
483.6164543011163
 30
0.0
 40
2.651776162684904
 41
2.557913877927211
 46
0.0
 71
     1
 72
     5
  1
6
  7
Romans字体
 73
     1
 44
1.0
1001
AcDbBlockRepETag
1070
     1
1071
       28
1005
152AD
  0
LINE
  5
152AE
330
13E17
100
AcDbEntity
  8
图框
 62
     6
100
AcDbLine
 10
1081.088565155284
 20
484.0347692601515
 30
0.0
 11
1081.088565155284
 21
480.5347692601475
 31
0.0
1001
AcDbBlockRepETag
1070
     1
1071
       29
1005
152AE
  0
MTEXT
  5
152AF
330
13E17
100
AcDbEntity
  8
图框
 62
     6
100
AcDbMText
 10
1055.900596365941
 20
483.520053108993
 30
0.0
 40
2.651776162684904
 41
2.557913877927211
 46
0.0
 71
     1
 72
     5
  1
5
  7
Romans字体
 73
     1
 44
1.0
1001
AcDbBlockRepETag
1070
     1
1071
       30
1005
152AF
  0
LINE
  5
152B0
330
13E17
100
AcDbEntity
  8
图框
 62
     6
100
AcDbLine
 10
1031.553386436349
 20
484.0347692601515
 30
0.0
 11
1031.553386436349
 21
480.5347692601475
 31
0.0
1001
AcDbBlockRepETag
1070
     1
1071
       31
1005
152B0
  0
MTEXT
  5
152B1
330
13E17
100
AcDbEntity
  8
图框
 62
     6
100
AcDbMText
 10
1006.383180575197
 20
483.5687958215896
 30
0.0
 40
2.651776162684904
 41
2.557913877927211
 46
0.0
 71
     1
 72
     5
  1
4
  7
Romans字体
 73
     1
 44
1.0
1001
AcDbBlockRepETag
1070
     1
1071
       32
1005
152B1
  0
LINE
  5
152B2
330
13E17
100
AcDbEntity
  8
图框
 62
     6
100
AcDbLine
 10
982.0182077173887
 20
484.0347692601515
 30
0.0
 11
982.0182077173887
 21
480.5347692601475
 31
0.0
1001
AcDbBlockRepETag
1070
     1
1071
       33
1005
152B2
  0
MTEXT
  5
152B3
330
13E17
100
AcDbEntity
  8
图框
 62
     6
100
AcDbMText
 10
956.8302389280352
 20
483.5989680297948
 30
0.0
 40
2.651776162684904
 41
2.557913877927211
 46
0.0
 71
     1
 72
     5
  1
3
  7
Romans字体
 73
     1
 44
1.0
1001
AcDbBlockRepETag
1070
     1
1071
       34
1005
152B3
  0
LINE
  5
152B4
330
13E17
100
AcDbEntity
  8
图框
 62
     6
100
AcDbLine
 10
932.4830289984245
 20
484.0347692601515
 30
0.0
 11
932.4830289984245
 21
480.5347692601475
 31
0.0
1001
AcDbBlockRepETag
1070
     1
1071
       35
1005
152B4
  0
MTEXT
  5
152B5
330
13E17
100
AcDbEntity
  8
图框
 62
     6
100
AcDbMText
 10
906.0252349826365
 20
483.6475250013156
 30
0.0
 40
2.651776162684904
 41
2.557913877927211
 46
0.0
 71
     1
 72
     5
  1
2
  7
Romans字体
 73
     1
 44
1.0
1001
AcDbBlockRepETag
1070
     1
1071
       36
1005
152B5
  0
LINE
  5
152B6
330
13E17
100
AcDbEntity
  8
图框
 62
     6
100
AcDbLine
 10
882.9478502794648
 20
484.0347692601515
 30
0.0
 11
882.9478502794648
 21
480.5347692601475
 31
0.0
1001
AcDbBlockRepETag
1070
     1
1071
       37
1005
152B6
  0
MTEXT
  5
152B7
330
13E17
100
AcDbEntity
  8
图框
 62
     6
100
AcDbMText
 10
857.7598814901191
 20
483.651829494754
 30
0.0
 40
2.651776162684904
 41
2.557913877927211
 46
0.0
 71
     1
 72
     5
  1
1
  7
Romans字体
 73
     1
 44
1.0
1001
AcDbBlockRepETag
1070
     1
1071
       38
1005
152B7
  0
LINE
  5
152B8
330
13E17
100
AcDbEntity
  8
图框
370
    50
100
AcDbLine
 10
836.8548209370597
 20
484.0347692601515
 30
0.0
 11
1126.928502610363
 21
484.0347692601515
 31
0.0
1001
AcDbBlockRepETag
1070
     1
1071
       39
1005
152B8
  0
LINE
  5
152B9
330
13E17
100
AcDbEntity
  8
图框
370
    50
100
AcDbLine
 10
836.9128518455362
 20
484.0178684310246
 30
0.0
 11
836.9128518455394
 21
675.0207195125422
 31
0.0
1001
AcDbBlockRepETag
1070
     1
1071
       40
1005
152B9
  0
MTEXT
  5
152BA
330
13E17
100
AcDbEntity
  8
图框
 62
     6
100
AcDbMText
 10
833.8475685789031
 20
658.7332172029115
 30
0.0
 40
2.651776162684904
 41
2.557913877927211
 46
0.0
 71
     1
 72
     5
  1
D
  7
Romans字体
 11
0.0000000000000001
 21
1.0
 31
0.0
 73
     1
 44
1.0
1001
AcDbBlockRepETag
1070
     1
1071
       41
1005
152BA
  0
LINE
  5
152BB
330
13E17
100
AcDbEntity
  8
图框
 62
     6
100
AcDbLine
 10
836.9128518455386
 20
634.0726090796082
 30
0.0
 11
833.4128518455365
 21
634.0726090796082
 31
0.0
1001
AcDbBlockRepETag
1070
     1
1071
       42
1005
152BB
  0
MTEXT
  5
152BC
330
13E17
100
AcDbEntity
  8
图框
 62
     6
100
AcDbMText
 10
833.9039177480142
 20
607.5539372630998
 30
0.0
 40
2.651776162684904
 41
2.557913877927211
 46
0.0
 71
     1
 72
     5
  1
C
  7
Romans字体
 11
0.0000000000000001
 21
1.0
 31
0.0
 73
     1
 44
1.0
1001
AcDbBlockRepETag
1070
     1
1071
       43
1005
152BC
  0
LINE
  5
152BD
330
13E17
100
AcDbEntity
  8
图框
 62
     6
100
AcDbLine
 10
836.9128518455378
 20
582.89332913979
 30
0.0
 11
833.4128518455365
 21
582.89332913979
 31
0.0
1001
AcDbBlockRepETag
1070
     1
1071
       44
1005
152BD
  0
MTEXT
  5
152BE
330
13E17
100
AcDbEntity
  8
图框
 62
     6
100
AcDbMText
 10
833.9039177480142
 20
556.3746573232886
 30
0.0
 40
2.651776162684904
 41
2.557913877927211
 46
0.0
 71
     1
 72
     5
  1
B
  7
Romans字体
 11
0.0000000000000001
 21
1.0
 31
0.0
 73
     1
 44
1.0
1001
AcDbBlockRepETag
1070
     1
1071
       45
1005
152BE
  0
LINE
  5
152BF
330
13E17
100
AcDbEntity
  8
图框
 62
     6
100
AcDbLine
 10
836.9128518455367
 20
531.714049199969
 30
0.0
 11
833.4128518455365
 21
531.714049199969
 31
0.0
1001
AcDbBlockRepETag
1070
     1
1071
       46
1005
152BF
  0
MTEXT
  5
152C0
330
13E17
100
AcDbEntity
  8
图框
 62
     6
100
AcDbMText
 10
833.9039177480142
 20
508.7896535755975
 30
0.0
 40
2.651776162684904
 41
2.557913877927211
 46
0.0
 71
     1
 72
     5
  1
A
  7
Romans字体
 11
0.0000000000000001
 21
1.0
 31
0.0
 73
     1
 44
1.0
1001
AcDbBlockRepETag
1070
     1
1071
       47
1005
152C0
  0
LINE
  5
152C1
330
13E17
100
AcDbEntity
  8
图框
370
    -3
100
AcDbLine
 10
836.9128518455394
 20
675.0207195125422
 30
0.0
 11
836.9128518455394
 21
684.5021384922564
 31
0.0
1001
AcDbBlockRepETag
1070
     1
1071
       48
1005
152C1
  0
LINE
  5
152C2
330
13E17
100
AcDbEntity
  8
图框
370
    -3
100
AcDbLine
 10
842.6237321475781
 20
675.5347692601515
 30
0.0
 11
842.6237321475781
 21
685.0161882398658
 31
0.0
1001
AcDbBlockRepETag
1070
     1
1071
       49
1005
152C2
  0
LINE
  5
152C3
330
13E17
100
AcDbEntity
  8
图框
370
    -3
100
AcDbLine
 10
848.3346124496179
 20
675.5347692601515
 30
0.0
 11
848.3346124496179
 21
685.0161882398658
 31
0.0
1001
AcDbBlockRepETag
1070
     1
1071
       50
1005
152C3
  0
LINE
  5
152C4
330
13E17
100
AcDbEntity
  8
图框
370
    -3
100
AcDbLine
 10
854.0454927516588
 20
675.5347692601515
 30
0.0
 11
854.0454927516588
 21
685.0161882398658
 31
0.0
1001
AcDbBlockRepETag
1070
     1
1071
       51
1005
152C4
  0
LINE
  5
152C5
330
13E17
100
AcDbEntity
  8
图框
370
    -3
100
AcDbLine
 10
861.5351874539182
 20
675.5347692601515
 30
0.0
 11
861.5351874539182
 21
686.7901958362482
 31
0.0
1001
AcDbBlockRepETag
1070
     1
1071
       52
1005
152C5
  0
MTEXT
  5
152C6
330
13E17
100
AcDbEntity
  8
图框
 62
     6
100
AcDbMText
 10
1105.329704038389
 20
678.859919059449
 30
0.0
 40
2.651776162684904
 41
2.557913877927211
 46
0.0
 71
     1
 72
     5
  1
6
  7
Romans字体
 73
     1
 44
1.0
1001
AcDbBlockRepETag
1070
     1
1071
       53
1005
152C6
  0
LINE
  5
152C7
330
13E17
100
AcDbEntity
  8
图框
 62
     6
100
AcDbLine
 10
1081.088565155284
 20
679.0347692601516
 30
0.0
 11
1081.088565155284
 21
675.5347692601515
 31
0.0
1001
AcDbBlockRepETag
1070
     1
1071
       54
1005
152C7
  0
MTEXT
  5
152C8
330
13E17
100
AcDbEntity
  8
图框
 62
     6
100
AcDbMText
 10
1055.900596365941
 20
678.859919059449
 30
0.0
 40
2.651776162684904
 41
2.557913877927211
 46
0.0
 71
     1
 72
     5
  1
5
  7
Romans字体
 73
     1
 44
1.0
1001
AcDbBlockRepETag
1070
     1
1071
       55
1005
152C8
  0
LINE
  5
152C9
330
13E17
100
AcDbEntity
  8
图框
 62
     6
100
AcDbLine
 10
1031.553386436349
 20
679.0347692601516
 30
0.0
 11
1031.553386436349
 21
675.5347692601515
 31
0.0
1001
AcDbBlockRepETag
1070
     1
1071
       56
1005
152C9
  0
MTEXT
  5
152CA
330
13E17
100
AcDbEntity
  8
图框
 62
     6
100
AcDbMText
 10
1006.36541764698
 20
678.7312083656147
 30
0.0
 40
2.651776162684904
 41
2.557913877927211
 46
0.0
 71
     1
 72
     5
  1
4
  7
Romans字体
 73
     1
 44
1.0
1001
AcDbBlockRepETag
1070
     1
1071
       57
1005
152CA
  0
LINE
  5
152CB
330
13E17
100
AcDbEntity
  8
图框
 62
     6
100
AcDbLine
 10
982.0182077173887
 20
679.0347692601516
 30
0.0
 11
982.0182077173887
 21
675.5347692601515
 31
0.0
1001
AcDbBlockRepETag
1070
     1
1071
       58
1005
152CB
  0
MTEXT
  5
152CC
330
13E17
100
AcDbEntity
  8
图框
 62
     6
100
AcDbMText
 10
956.8302389280352
 20
678.859919059449
 30
0.0
 40
2.651776162684904
 41
2.557913877927211
 46
0.0
 71
     1
 72
     5
  1
3
  7
Romans字体
 73
     1
 44
1.0
1001
AcDbBlockRepETag
1070
     1
1071
       59
1005
152CC
  0
LINE
  5
152CD
330
13E17
100
AcDbEntity
  8
图框
 62
     6
100
AcDbLine
 10
932.4830289984245
 20
679.0347692601516
 30
0.0
 11
932.4830289984245
 21
675.5347692601515
 31
0.0
1001
AcDbBlockRepETag
1070
     1
1071
       60
1005
152CD
  0
MTEXT
  5
152CE
330
13E17
100
AcDbEntity
  8
图框
 62
     6
100
AcDbMText
 10
907.295060209082
 20
678.859919059449
 30
0.0
 40
2.651776162684904
 41
2.557913877927211
 46
0.0
 71
     1
 72
     5
  1
2
  7
Romans字体
 73
     1
 44
1.0
1001
AcDbBlockRepETag
1070
     1
1071
       61
1005
152CE
  0
LINE
  5
152CF
330
13E17
100
AcDbEntity
  8
图框
 62
     6
100
AcDbLine
 10
882.9478502794648
 20
678.7962435131815
 30
0.0
 11
882.9478502794648
 21
675.5347692601515
 31
0.0
1001
AcDbBlockRepETag
1070
     1
1071
       62
1005
152CF
  0
MTEXT
  5
152D0
330
13E17
100
AcDbEntity
  8
图框
 62
     6
100
AcDbMText
 10
862.6286629643733
 20
678.859919059449
 30
0.0
 40
2.651776162684904
 41
2.557913877927211
 46
0.0
 71
     1
 72
     5
  1
1
  7
Romans字体
 73
     1
 44
1.0
1001
AcDbBlockRepETag
1070
     1
1071
       63
1005
152D0
  0
LINE
  5
152D1
330
13E17
100
AcDbEntity
  8
图框
370
    -3
100
AcDbLine
 10
836.9128518455394
 20
675.0207195125422
 30
0.0
 11
836.9128518455394
 21
686.7901958362482
 31
0.0
1001
AcDbBlockRepETag
1070
     1
1071
       64
1005
152D1
  0
LINE
  5
152D2
330
13E17
100
AcDbEntity
  8
图框
370
    50
100
AcDbLine
 10
836.9128518455394
 20
675.5347692601515
 30
0.0
 11
1126.928502610363
 21
675.5347692601515
 31
0.0
1001
AcDbBlockRepETag
1070
     1
1071
       65
1005
152D2
  0
LINE
  5
152D3
330
13E17
100
AcDbEntity
  8
图框
370
    -3
100
AcDbLine
 10
842.6237321475781
 20
675.5347692601515
 30
0.0
 11
842.6237321475781
 21
686.7901958362482
 31
0.0
1001
AcDbBlockRepETag
1070
     1
1071
       66
1005
152D3
  0
LINE
  5
152D4
330
13E17
100
AcDbEntity
  8
图框
370
    -3
100
AcDbLine
 10
848.3346124496179
 20
675.5347692601515
 30
0.0
 11
848.3346124496179
 21
686.7901958362482
 31
0.0
1001
AcDbBlockRepETag
1070
     1
1071
       67
1005
152D4
  0
MTEXT
  5
152D5
102
{ACAD_XDICTIONARY
360
15359
102
}
330
13E17
100
AcDbEntity
  8
图框
100
AcDbMText
 10
857.7903401027889
 20
686.7901958362482
 30
0.0
 40
1.958998408821398
 41
11.25542657609672
 46
7.489694702258906
 71
     4
 72
     5
  1
\pi2.8203;档案员{\H0.7x;\P\pi1.4159;\Fromans|c134;Filing Clerk\fFangSong_GB2312|b0|i0|c134|p49; }
 11
-0.0000000000000002
 21
-1.0
 31
0.0
 73
     1
 44
1.0
1001
AcDbBlockRepETag
1070
     1
1071
       68
1005
152D5
1001
ACAD
1000
ACAD_MTEXT_DEFINED_HEIGHT_BEGIN
1070
    46
1040
7.489694702258906
1000
ACAD_MTEXT_DEFINED_HEIGHT_END
  0
MTEXT
  5
152D6
102
{ACAD_XDICTIONARY
360
1535B
102
}
330
13E17
100
AcDbEntity
  8
图框
100
AcDbMText
 10
845.479172298598
 20
686.7901958362482
 30
0.0
 40
1.958998408821398
 41
11.25542657609672
 46
5.710880302039671
 71
     4
 72
     5
  1
\pi0.7115;日期{\Fromans|c134;/Date}
 11
-0.0000000000000002
 21
-1.0
 31
0.0
 73
     1
 44
1.0
1001
AcDbBlockRepETag
1070
     1
1071
       69
1005
152D6
1001
ACAD
1000
ACAD_MTEXT_DEFINED_HEIGHT_BEGIN
1070
    46
1040
5.710880302039671
1000
ACAD_MTEXT_DEFINED_HEIGHT_END
  0
LINE
  5
152D7
330
13E17
100
AcDbEntity
  8
图框
370
    -3
100
AcDbLine
 10
854.0454927516588
 20
675.5347692601515
 30
0.0
 11
854.0454927516588
 21
686.7901958362482
 31
0.0
1001
AcDbBlockRepETag
1070
     1
1071
       70
1005
152D7
  0
LINE
  5
152D8
330
13E17
100
AcDbEntity
  8
图框
370
    -3
100
AcDbLine
 10
1036.653967466372
 20
531.3291676047914
 30
0.0
 11
1036.653967466372
 21
484.0126019753161
 31
0.0
1001
AcDbBlockRepETag
1070
     1
1071
       71
1005
152D8
  0
LINE
  5
152D9
330
13E17
100
AcDbEntity
  8
图框
370
    -3
100
AcDbLine
 10
1047.483315900763
 20
507.6708838011533
 30
0.0
 11
1047.483315900763
 21
491.8986945987308
 31
0.0
1001
AcDbBlockRepETag
1070
     1
1071
       72
1005
152D9
  0
LINE
  5
152DA
330
13E17
100
AcDbEntity
  8
图框
370
    -3
100
AcDbLine
 10
1058.312664335153
 20
507.6708838011533
 30
0.0
 11
1058.312664335153
 21
484.0347692601515
 31
0.0
1001
AcDbBlockRepETag
1070
     1
1071
       73
1005
152DA
  0
LINE
  5
152DB
330
13E17
100
AcDbEntity
  8
图框
370
    25
100
AcDbLine
 10
1048.474135214456
 20
488.1095628329926
 30
0.0
 11
1054.946420288459
 21
488.1095628329926
 31
0.0
1001
AcDbBlockRepETag
1070
     1
1071
       74
1005
152DB
  0
LINE
  5
152DC
330
13E17
100
AcDbEntity
  8
图框
370
    25
100
AcDbLine
 10
1054.232527365989
 20
487.0761716842634
 30
0.0
 11
1049.156490914508
 21
486.4576273751
 31
0.0
1001
AcDbBlockRepETag
1070
     1
1071
       75
1005
152DC
  0
LINE
  5
152DD
330
13E17
100
AcDbEntity
  8
图框
370
    25
100
AcDbLine
 10
1054.232527365989
 20
489.1429539817209
 30
0.0
 11
1049.156490914508
 21
489.7614982908846
 31
0.0
1001
AcDbBlockRepETag
1070
     1
1071
       76
1005
152DD
  0
LINE
  5
152DE
330
13E17
100
AcDbEntity
  8
图框
370
    25
100
AcDbLine
 10
1049.156490914508
 20
489.7614982908846
 30
0.0
 11
1049.156490914508
 21
486.4576273751
 31
0.0
1001
AcDbBlockRepETag
1070
     1
1071
       77
1005
152DE
  0
LINE
  5
152DF
330
13E17
100
AcDbEntity
  8
图框
370
    25
100
AcDbLine
 10
1054.232527365989
 20
489.1429539817209
 30
0.0
 11
1054.232527365989
 21
487.0761716842634
 31
0.0
1001
AcDbBlockRepETag
1070
     1
1071
       78
1005
152DF
  0
CIRCLE
  5
152E0
330
13E17
100
AcDbEntity
  8
图框
370
    25
100
AcDbCircle
 10
1042.502700458579
 20
488.1095628329926
 30
0.0
 40
1.651935457891863
1001
AcDbBlockRepETag
1070
     1
1071
       79
1005
152E0
  0
CIRCLE
  5
152E1
330
13E17
100
AcDbEntity
  8
图框
370
    25
100
AcDbCircle
 10
1042.502700458579
 20
488.1095628329926
 30
0.0
 40
1.033391148728775
1001
AcDbBlockRepETag
1070
     1
1071
       80
1005
152E1
  0
LINE
  5
152E2
330
13E17
100
AcDbEntity
  8
图框
370
    25
100
AcDbLine
 10
1040.136872078216
 20
488.1095628329926
 30
0.0
 11
1044.868528838943
 21
488.1095628329926
 31
0.0
1001
AcDbBlockRepETag
1070
     1
1071
       81
1005
152E2
  0
LINE
  5
152E3
330
13E17
100
AcDbEntity
  8
图框
370
    25
100
AcDbLine
 10
1042.502700458579
 20
490.475391213355
 30
0.0
 11
1042.502700458579
 21
485.743734452629
 31
0.0
1001
AcDbBlockRepETag
1070
     1
1071
       82
1005
152E3
  0
LINE
  5
152E4
330
13E17
100
AcDbEntity
  8
图框
370
    -3
100
AcDbLine
 10
1069.142012769546
 20
507.6708838011533
 30
0.0
 11
1069.142012769546
 21
491.8986945987308
 31
0.0
1001
AcDbBlockRepETag
1070
     1
1071
       83
1005
152E4
  0
MTEXT
  5
152E5
330
13E17
100
AcDbEntity
  8
图框
100
AcDbMText
 10
1086.643735910939
 20
526.8006839312707
 30
0.0
 40
2.154898249703542
 41
13.34474941400573
 46
9.056967347041775
 71
     5
 72
     5
  1
图号{\Ftxt|c134;\P\Fromans|c134;\W0.65;Drawing No.}
 73
     1
 44
1.0
1001
AcDbBlockRepETag
1070
     1
1071
       84
1005
152E5
1001
ACAD
1000
ACAD_MTEXT_DEFINED_HEIGHT_BEGIN
1070
    46
1040
9.056967347041775
1000
ACAD_MTEXT_DEFINED_HEIGHT_END
  0
LINE
  5
152E6
330
13E17
100
AcDbEntity
  8
图框
370
    -3
100
AcDbLine
 10
1093.316110617942
 20
531.3291676047914
 30
0.0
 11
1093.316110617942
 21
495.8417418993347
 31
0.0
1001
AcDbBlockRepETag
1070
     1
1071
       85
1005
152E6
  0
LINE
  5
152E7
330
13E17
100
AcDbEntity
  8
图框
370
    -3
100
AcDbLine
 10
1047.473969770481
 20
531.3291676047914
 30
0.0
 11
1047.473969770481
 21
507.6708838011533
 31
0.0
1001
AcDbBlockRepETag
1070
     1
1071
       86
1005
152E7
  0
MTEXT
  5
152E8
330
13E17
100
AcDbEntity
  8
图框
100
AcDbMText
 10
1063.72733855235
 20
503.7278365005473
 30
0.0
 40
2.252848170144607
 41
10.82934843439208
 46
7.886094601212128
 71
     5
 72
     5
  1
重量\P{\Fromans|c134;Weight}
 73
     1
 44
1.0
1001
AcDbBlockRepETag
1070
     1
1071
       87
1005
152E8
1001
ACAD
1000
ACAD_MTEXT_DEFINED_HEIGHT_BEGIN
1070
    46
1040
7.886094601212128
1000
ACAD_MTEXT_DEFINED_HEIGHT_END
  0
LINE
  5
152E9
330
13E17
100
AcDbEntity
  8
图框
370
    -3
100
AcDbLine
 10
1036.653967466372
 20
519.5000257029746
 30
0.0
 11
1079.971361203936
 21
519.5000257029746
 31
0.0
1001
AcDbBlockRepETag
1070
     1
1071
       88
1005
152E9
  0
MTEXT
  5
152EA
330
13E17
100
AcDbEntity
  8
图框
100
AcDbMText
 10
1074.556686986741
 20
503.7278365005473
 30
0.0
 40
2.252848170144607
 41
10.82934843438984
 46
7.886094601212141
 71
     5
 72
     5
  1
数量\P{\Fromans|c134;Qty.}
 73
     1
 44
1.0
1001
AcDbBlockRepETag
1070
     1
1071
       89
1005
152EA
1001
ACAD
1000
ACAD_MTEXT_DEFINED_HEIGHT_BEGIN
1070
    46
1040
7.886094601212141
1000
ACAD_MTEXT_DEFINED_HEIGHT_END
  0
LINE
  5
152EB
330
13E17
100
AcDbEntity
  8
图框
370
    -3
100
AcDbLine
 10
1079.971361203936
 20
495.8417418993347
 30
0.0
 11
1126.928502610363
 21
495.8417418993342
 31
0.0
1001
AcDbBlockRepETag
1070
     1
1071
       90
1005
152EB
  0
LINE
  5
152EC
330
13E17
100
AcDbEntity
  8
图框
370
    -3
100
AcDbLine
 10
1079.971361203936
 20
504.7132992040975
 30
0.0
 11
1126.928502610363
 21
504.7132992040975
 31
0.0
1001
AcDbBlockRepETag
1070
     1
1071
       91
1005
152EC
  0
MTEXT
  5
152ED
330
13E17
100
AcDbEntity
  8
图框
100
AcDbMText
 10
1052.893317052817
 20
503.7278365005473
 30
0.0
 40
2.252848170144607
 41
10.83869456467139
 46
7.886094601212101
 71
     5
 72
     5
  1
版本\P{\Fromans|c134;REV.}
 73
     1
 44
1.0
1001
AcDbBlockRepETag
1070
     1
1071
       92
1005
152ED
1001
ACAD
1000
ACAD_MTEXT_DEFINED_HEIGHT_BEGIN
1070
    46
1040
7.886094601212101
1000
ACAD_MTEXT_DEFINED_HEIGHT_END
  0
MTEXT
  5
152EE
330
13E17
100
AcDbEntity
  8
图框
100
AcDbMText
 10
1042.068641683568
 20
503.7278365005473
 30
0.0
 40
2.252848170144607
 41
10.8293484343908
 46
7.886094601212136
 71
     5
 72
     5
  1
比例\P{\Fromans|c134;Scale}
 73
     1
 44
1.0
1001
AcDbBlockRepETag
1070
     1
1071
       93
1005
152EE
1001
ACAD
1000
ACAD_MTEXT_DEFINED_HEIGHT_BEGIN
1070
    46
1040
7.886094601212136
1000
ACAD_MTEXT_DEFINED_HEIGHT_END
  0
LINE
  5
152EF
330
13E17
100
AcDbEntity
  8
图框
370
    -3
100
AcDbLine
 10
1036.653967466372
 20
507.6708838011533
 30
0.0
 11
1079.971361203936
 21
507.6708838011533
 31
0.0
1001
AcDbBlockRepETag
1070
     1
1071
       94
1005
152EF
  0
LINE
  5
152F0
330
13E17
100
AcDbEntity
  8
图框
370
    -3
100
AcDbLine
 10
1036.653967466372
 20
491.8986945987308
 30
0.0
 11
1079.971361203936
 21
491.8986945987308
 31
0.0
1001
AcDbBlockRepETag
1070
     1
1071
       95
1005
152F0
  0
LINE
  5
152F1
330
13E17
100
AcDbEntity
  8
图框
370
    -3
100
AcDbLine
 10
1079.971361203936
 20
531.3291676047914
 30
0.0
 11
1079.971361203936
 21
484.0125999975168
 31
0.0
1001
AcDbBlockRepETag
1070
     1
1071
       96
1005
152F1
  0
MTEXT
  5
152F2
330
13E17
100
AcDbEntity
  8
图框
100
AcDbMText
 10
1042.063968618426
 20
525.4145966538832
 30
0.0
 40
2.252848170144607
 41
10.82000230410933
 46
11.82914190181708
 71
     5
 72
     5
  1
表面处理\P{\Fromans|c134;Finish}
 73
     1
 44
1.0
1001
AcDbBlockRepETag
1070
     1
1071
       97
1005
152F2
1001
ACAD
1000
ACAD_MTEXT_DEFINED_HEIGHT_BEGIN
1070
    46
1040
11.82914190181708
1000
ACAD_MTEXT_DEFINED_HEIGHT_END
  0
MTEXT
  5
152F3
330
13E17
100
AcDbEntity
  8
图框
100
AcDbMText
 10
1042.063968618426
 20
513.5854547520639
 30
0.0
 40
2.252848170144607
 41
10.82000230410933
 46
11.8291419018212
 71
     5
 72
     5
  1
材料\P{\Fromans|c134;Material}
 73
     1
 44
1.0
1001
AcDbBlockRepETag
1070
     1
1071
       98
1005
152F3
1001
ACAD
1000
ACAD_MTEXT_DEFINED_HEIGHT_BEGIN
1070
    46
1040
11.8291419018212
1000
ACAD_MTEXT_DEFINED_HEIGHT_END
  0
LINE
  5
152F4
330
13E17
100
AcDbEntity
  8
图框
370
    -3
100
AcDbLine
 10
1079.971361203936
 20
522.27220025775
 30
0.0
 11
1126.928502610363
 21
522.27220025775
 31
0.0
1001
AcDbBlockRepETag
1070
     1
1071
       99
1005
152F4
  0
LINE
  5
152F5
330
13E17
100
AcDbEntity
  8
图框
370
    -3
100
AcDbLine
 10
1079.971361203936
 20
513.5854547520641
 30
0.0
 11
1126.928502610363
 21
513.5854547520639
 31
0.0
1001
AcDbBlockRepETag
1070
     1
1071
      100
1005
152F5
  0
MTEXT
  5
152F6
330
13E17
100
AcDbEntity
  8
图框
100
AcDbMText
 10
1086.643735910939
 20
517.9288275049072
 30
0.0
 40
1.958998408821398
 41
13.34474941400573
 46
8.686745505685811
 71
     5
 72
     5
  1
产品代号\P{\Fromans|c134;Part Code}
 73
     1
 44
1.0
1001
AcDbBlockRepETag
1070
     1
1071
      101
1005
152F6
1001
ACAD
1000
ACAD_MTEXT_DEFINED_HEIGHT_BEGIN
1070
    46
1040
8.686745505685811
1000
ACAD_MTEXT_DEFINED_HEIGHT_END
  0
LINE
  5
152F7
330
13E17
100
AcDbEntity
  8
图框
370
    -3
100
AcDbLine
 10
946.9285026103634
 20
525.7982263931411
 30
0.0
 11
1036.653967466372
 21
525.7982263931411
 31
0.0
1001
AcDbBlockRepETag
1070
     1
1071
      102
1005
152F7
  0
LINE
  5
152F8
330
13E17
100
AcDbEntity
  8
图框
370
    -3
100
AcDbLine
 10
946.9285026103634
 20
520.2672851814959
 30
0.0
 11
1036.653967466372
 21
520.2672851814959
 31
0.0
1001
AcDbBlockRepETag
1070
     1
1071
      103
1005
152F8
  0
LINE
  5
152F9
330
13E17
100
AcDbEntity
  8
图框
370
    35
100
AcDbLine
 10
946.9285026103634
 20
531.3291676047914
 30
0.0
 11
1126.928502610363
 21
531.3291676047914
 31
0.0
1001
AcDbBlockRepETag
1070
     1
1071
      104
1005
152F9
  0
LINE
  5
152FA
330
13E17
100
AcDbEntity
  8
图框
370
    -3
100
AcDbLine
 10
990.6727612856927
 20
509.2054027581959
 30
0.0
 11
990.6727612856927
 21
484.0347692601515
 31
0.0
1001
AcDbBlockRepETag
1070
     1
1071
      105
1005
152FA
  0
MTEXT
  5
152FB
102
{ACAD_XDICTIONARY
360
1535D
102
}
330
13E17
100
AcDbEntity
  8
图框
100
AcDbMText
 10
997.1628169651232
 20
499.816589978722
 30
0.0
 40
2.252848170144607
 41
12.98011135886052
 46
6.19230880992475
 71
     5
 72
     5
  1
{\fSimSun|b0|i0|c134|p2;标准化}\PStand.
  7
Romans字体
 73
     1
 44
1.0
1001
AcDbBlockRepETag
1070
     1
1071
      106
1005
152FB
1001
ACAD
1000
ACAD_MTEXT_DEFINED_HEIGHT_BEGIN
1070
    46
1040
6.19230880992475
1000
ACAD_MTEXT_DEFINED_HEIGHT_END
  0
LINE
  5
152FC
330
13E17
100
AcDbEntity
  8
图框
370
    -3
100
AcDbLine
 10
975.4103773808022
 20
509.2054027581959
 30
0.0
 11
975.4103773808022
 21
484.0347692601515
 31
0.0
1001
AcDbBlockRepETag
1070
     1
1071
      107
1005
152FC
  0
MTEXT
  5
152FD
330
13E17
100
AcDbEntity
  8
图框
100
AcDbMText
 10
984.5089229802068
 20
511.9708733640202
 30
0.0
 40
2.448748011026752
 41
38.287899328693
 46
5.530941211648832
 71
     5
 72
     5
  1
  变更描述{\Fromans|c134;/Description}
 73
     1
 44
1.0
1001
AcDbBlockRepETag
1070
     1
1071
      108
1005
152FD
1001
ACAD
1000
ACAD_MTEXT_DEFINED_HEIGHT_BEGIN
1070
    46
1040
5.530941211648832
1000
ACAD_MTEXT_DEFINED_HEIGHT_END
  0
MTEXT
  5
152FE
102
{ACAD_XDICTIONARY
360
1535F
102
}
330
13E17
100
AcDbEntity
  8
图框
100
AcDbMText
 10
1012.477254728976
 20
511.9708733640202
 30
0.0
 40
1.958998408821398
 41
17.64876416884548
 46
5.530941211649166
 71
     5
 72
     5
  1
签名\P{\Fromans|c134;Signature} 
 73
     1
 44
1.0
1001
AcDbBlockRepETag
1070
     1
1071
      109
1005
152FE
1001
ACAD
1000
ACAD_MTEXT_DEFINED_HEIGHT_BEGIN
1070
    46
1040
5.530941211649166
1000
ACAD_MTEXT_DEFINED_HEIGHT_END
  0
MTEXT
  5
152FF
102
{ACAD_XDICTIONARY
360
15361
102
}
330
13E17
100
AcDbEntity
  8
图框
100
AcDbMText
 10
960.7558556394856
 20
511.9708733640202
 30
0.0
 40
1.958998408821398
 41
9.218235352749283
 46
5.530941211648841
 71
     5
 72
     5
  1
处数\P{\Fromans|c134;Number }
 73
     1
 44
1.0
1001
AcDbBlockRepETag
1070
     1
1071
      110
1005
152FF
1001
ACAD
1000
ACAD_MTEXT_DEFINED_HEIGHT_BEGIN
1070
    46
1040
5.530941211648841
1000
ACAD_MTEXT_DEFINED_HEIGHT_END
  0
LINE
  5
15300
330
13E17
100
AcDbEntity
  8
图框
370
    -3
100
AcDbLine
 10
946.9285026103634
 20
514.7363439698449
 30
0.0
 11
1036.653967466372
 21
514.7363439698449
 31
0.0
1001
AcDbBlockRepETag
1070
     1
1071
      111
1005
15300
  0
LINE
  5
15301
330
13E17
100
AcDbEntity
  8
图框
370
    -3
100
AcDbLine
 10
946.9285026103634
 20
509.2054027581959
 30
0.0
 11
1036.653967466372
 21
509.2054027581959
 31
0.0
1001
AcDbBlockRepETag
1070
     1
1071
      112
1005
15301
  0
LINE
  5
15302
330
13E17
100
AcDbEntity
  8
图框
370
    -3
100
AcDbLine
 10
946.9285026103634
 20
502.9127443836848
 30
0.0
 11
1036.653967466372
 21
502.9127443836848
 31
0.0
1001
AcDbBlockRepETag
1070
     1
1071
      113
1005
15302
  0
LINE
  5
15303
330
13E17
100
AcDbEntity
  8
图框
370
    -3
100
AcDbLine
 10
946.9285026103634
 20
496.620086009173
 30
0.0
 11
1036.653967466372
 21
496.620086009173
 31
0.0
1001
AcDbBlockRepETag
1070
     1
1071
      114
1005
15303
  0
LINE
  5
15304
330
13E17
100
AcDbEntity
  8
图框
370
    35
380
     1
100
AcDbLine
 10
946.9285026103634
 20
531.3291676047914
 30
0.0
 11
946.9285026103634
 21
484.0347692601515
 31
0.0
1001
AcDbBlockRepETag
1070
     1
1071
      115
1005
15304
  0
LINE
  5
15305
330
13E17
100
AcDbEntity
  8
图框
370
    -3
100
AcDbLine
 10
1021.301636813399
 20
531.3291676047914
 30
0.0
 11
1021.301636813399
 21
484.0347692601515
 31
0.0
1001
AcDbBlockRepETag
1070
     1
1071
      116
1005
15305
  0
LINE
  5
15306
330
13E17
100
AcDbEntity
  8
图框
370
    -3
100
AcDbLine
 10
1003.652872644553
 20
531.3291676047914
 30
0.0
 11
1003.652872644553
 21
484.0347692601515
 31
0.0
1001
AcDbBlockRepETag
1070
     1
1071
      117
1005
15306
  0
LINE
  5
15307
330
13E17
100
AcDbEntity
  8
图框
370
    -3
100
AcDbLine
 10
965.3649733158603
 20
531.3291676047914
 30
0.0
 11
965.3649733158603
 21
509.2054027581959
 31
0.0
1001
AcDbBlockRepETag
1070
     1
1071
      118
1005
15307
  0
LINE
  5
15308
330
13E17
100
AcDbEntity
  8
图框
370
    -3
100
AcDbLine
 10
956.1467379631109
 20
531.3291676047914
 30
0.0
 11
956.1467379631109
 21
509.2054027581959
 31
0.0
1001
AcDbBlockRepETag
1070
     1
1071
      119
1005
15308
  0
MTEXT
  5
15309
102
{ACAD_XDICTIONARY
360
15363
102
}
330
13E17
100
AcDbEntity
  8
图框
100
AcDbMText
 10
951.537620286737
 20
511.9708733640202
 30
0.0
 40
1.958998408821398
 41
9.218235352747692
 46
5.530941211648832
 71
     5
 72
     5
  1
标记\P{\Fromans|c134;Mark}
 73
     1
 44
1.0
1001
AcDbBlockRepETag
1070
     1
1071
      120
1005
15309
1001
ACAD
1000
ACAD_MTEXT_DEFINED_HEIGHT_BEGIN
1070
    46
1040
5.530941211648832
1000
ACAD_MTEXT_DEFINED_HEIGHT_END
  0
MTEXT
  5
1530A
102
{ACAD_XDICTIONARY
360
15365
102
}
330
13E17
100
AcDbEntity
  8
图框
100
AcDbMText
 10
953.4185582897936
 20
493.4737568219182
 30
0.0
 40
2.252848170144607
 41
12.98011135886041
 46
6.292658374510382
 71
     5
 72
     5
  1
审核\P{\Fromans|c134;Checked}
 73
     1
 44
1.0
1001
AcDbBlockRepETag
1070
     1
1071
      121
1005
1530A
1001
ACAD
1000
ACAD_MTEXT_DEFINED_HEIGHT_BEGIN
1070
    46
1040
6.292658374510382
1000
ACAD_MTEXT_DEFINED_HEIGHT_END
  0
MTEXT
  5
1530B
102
{ACAD_XDICTIONARY
360
15367
102
}
330
13E17
100
AcDbEntity
  8
图框
100
AcDbMText
 10
953.4185582897936
 20
499.8775635376777
 30
0.0
 40
2.252848170144607
 41
12.98011135886041
 46
6.070361692014189
 71
     5
 72
     5
  1
绘图\P{\Fromans|c134;Drawn\Ftxt|c134; }
 73
     1
 44
1.0
1001
AcDbBlockRepETag
1070
     1
1071
      122
1005
1530B
1001
ACAD
1000
ACAD_MTEXT_DEFINED_HEIGHT_BEGIN
1070
    46
1040
6.070361692014189
1000
ACAD_MTEXT_DEFINED_HEIGHT_END
  0
ARC
  5
1530C
330
13E17
100
AcDbEntity
  8
图框
 62
     4
370
    35
100
AcDbCircle
 10
1086.900627017421
 20
490.0179944151195
 30
0.0
 40
4.063310408393665
100
AcDbArc
 50
18.95237904564806
 51
161.0476209543519
1001
AcDbBlockRepETag
1070
     1
1071
      123
1005
1530C
  0
ARC
  5
1530D
330
13E17
100
AcDbEntity
  8
图框
 62
     4
370
    35
100
AcDbCircle
 10
1086.900627017421
 20
490.0179944151195
 30
0.0
 40
4.063310408393665
100
AcDbArc
 50
198.952379045648
 51
341.0476209543519
1001
AcDbBlockRepETag
1070
     1
1071
      124
1005
1530D
  0
LINE
  5
1530E
330
13E17
100
AcDbEntity
  8
图框
 62
     4
370
    35
100
AcDbLine
 10
1083.057593369548
 20
488.6983035966752
 30
0.0
 11
1090.74366066529
 21
488.6983035966752
 31
0.0
1001
AcDbBlockRepETag
1070
     1
1071
      125
1005
1530E
  0
LINE
  5
1530F
330
13E17
100
AcDbEntity
  8
图框
 62
     4
370
    35
100
AcDbLine
 10
1083.057593369548
 20
491.3376852335652
 30
0.0
 11
1090.74366066529
 21
491.3376852335652
 31
0.0
1001
AcDbBlockRepETag
1070
     1
1071
      126
1005
1530F
  0
MTEXT
  5
15310
330
13E17
100
AcDbEntity
  8
图框
 62
     1
370
    20
100
AcDbMText
 10
1083.034582879669
 20
491.0506288081688
 30
0.0
 40
2.005930044038334
 41
5.047240019334847
 46
0.0
 71
     1
 72
     5
  1
{\fArial|b0|i0|c0|p34;W}
  7
Chinese
 73
     1
 44
1.0
1001
AcDbBlockRepETag
1070
     1
1071
      127
1005
15310
  0
LINE
  5
15311
330
13E17
100
AcDbEntity
  8
图框
370
    -3
100
AcDbLine
 10
946.9285026103634
 20
490.327427634663
 30
0.0
 11
1036.653967466372
 21
490.327427634663
 31
0.0
1001
AcDbBlockRepETag
1070
     1
1071
      128
1005
15311
  0
LINE
  5
15312
330
13E17
100
AcDbEntity
  8
图框
370
    -3
100
AcDbLine
 10
959.9086139692238
 20
509.2054027581959
 30
0.0
 11
959.9086139692238
 21
484.0347692601515
 31
0.0
1001
AcDbBlockRepETag
1070
     1
1071
      129
1005
15312
  0
MTEXT
  5
15313
330
13E17
100
AcDbEntity
  8
图框
100
AcDbMText
 10
967.6594956750129
 20
506.0590735709403
 30
0.0
 40
2.252848170144607
 41
15.50176341157869
 46
6.292658374511246
 71
     5
 72
     5
  1
姓名{\Fromans|c134;/Name\Ftxt|c134; }
 73
     1
 44
1.0
1001
AcDbBlockRepETag
1070
     1
1071
      130
1005
15313
1001
ACAD
1000
ACAD_MTEXT_DEFINED_HEIGHT_BEGIN
1070
    46
1040
6.292658374511246
1000
ACAD_MTEXT_DEFINED_HEIGHT_END
  0
MTEXT
  5
15314
330
13E17
100
AcDbEntity
  8
图框
100
AcDbMText
 10
983.0415693332477
 20
506.0590735709403
 30
0.0
 40
2.252848170144607
 41
15.26238390489042
 46
6.2926583745112
 71
     5
 72
     5
  1
日期{\Fromans|c134;/Date}
 73
     1
 44
1.0
1001
AcDbBlockRepETag
1070
     1
1071
      131
1005
15314
1001
ACAD
1000
ACAD_MTEXT_DEFINED_HEIGHT_BEGIN
1070
    46
1040
6.2926583745112
1000
ACAD_MTEXT_DEFINED_HEIGHT_END
  0
LINE
  5
15315
330
13E17
100
AcDbEntity
  8
图框
370
    -3
100
AcDbLine
 10
946.9285026103634
 20
509.2054027581959
 30
0.0
 11
959.9086139692238
 21
502.9127443836848
 31
0.0
1001
AcDbBlockRepETag
1070
     1
1071
      132
1005
15315
  0
MTEXT
  5
15316
330
13E17
100
AcDbEntity
  8
图框
100
AcDbMText
 10
1012.931405110086
 20
506.0185715840725
 30
0.0
 40
2.252848170144607
 41
16.93492221063566
 46
0.0
 71
     5
 72
     5
  1
姓名{\Fromans|c134;/Name}
 73
     1
 44
1.0
1001
AcDbBlockRepETag
1070
     1
1071
      133
1005
15316
  0
MTEXT
  5
15317
330
13E17
100
AcDbEntity
  8
图框
100
AcDbMText
 10
1028.977802139886
 20
506.0590735709403
 30
0.0
 40
2.252848170144607
 41
15.35233065297283
 46
6.292658374511256
 71
     5
 72
     5
  1
日期{\Fromans|c134;/Date}
 73
     1
 44
1.0
1001
AcDbBlockRepETag
1070
     1
1071
      134
1005
15317
1001
ACAD
1000
ACAD_MTEXT_DEFINED_HEIGHT_BEGIN
1070
    46
1040
6.292658374511256
1000
ACAD_MTEXT_DEFINED_HEIGHT_END
  0
LINE
  5
15318
330
13E17
100
AcDbEntity
  8
图框
370
    -3
100
AcDbLine
 10
1003.652872644553
 20
502.9127443836848
 30
0.0
 11
990.6727612856927
 21
509.2054027581959
 31
0.0
1001
AcDbBlockRepETag
1070
     1
1071
      135
1005
15318
  0
MTEXT
  5
15319
102
{ACAD_XDICTIONARY
360
15369
102
}
330
13E17
100
AcDbEntity
  8
图框
100
AcDbMText
 10
997.1628169651232
 20
487.1810984474071
 30
0.0
 40
2.252848170144607
 41
12.98011135886052
 46
6.292658374511517
 71
     5
 72
     5
  1
批准\P{\Fromans|c134;Approved}
 73
     1
 44
1.0
1001
AcDbBlockRepETag
1070
     1
1071
      136
1005
15319
1001
ACAD
1000
ACAD_MTEXT_DEFINED_HEIGHT_BEGIN
1070
    46
1040
6.292658374511517
1000
ACAD_MTEXT_DEFINED_HEIGHT_END
  0
MTEXT
  5
1531A
102
{ACAD_XDICTIONARY
360
1536B
102
}
330
13E17
100
AcDbEntity
  8
图框
100
AcDbMText
 10
953.4185582897936
 20
487.1810984474071
 30
0.0
 40
2.252848170144607
 41
12.98011135886041
 46
6.292658374511495
 71
     5
 72
     5
  1
工艺\P{\Fromans|c134;Process}
 73
     1
 44
1.0
1001
AcDbBlockRepETag
1070
     1
1071
      137
1005
1531A
1001
ACAD
1000
ACAD_MTEXT_DEFINED_HEIGHT_BEGIN
1070
    46
1040
6.292658374511495
1000
ACAD_MTEXT_DEFINED_HEIGHT_END
  0
MTEXT
  5
1531B
102
{ACAD_XDICTIONARY
360
1536D
102
}
330
13E17
100
AcDbEntity
  8
图框
100
AcDbMText
 10
1028.977802139886
 20
511.9708733640202
 30
0.0
 40
1.958998408821398
 41
15.35233065297235
 46
5.530941211648912
 71
     5
 72
     5
  1
日期\P{\Fromans|c134;Date}
 73
     1
 44
1.0
1001
AcDbBlockRepETag
1070
     1
1071
      138
1005
1531B
1001
ACAD
1000
ACAD_MTEXT_DEFINED_HEIGHT_BEGIN
1070
    46
1040
5.530941211648912
1000
ACAD_MTEXT_DEFINED_HEIGHT_END
  0
MTEXT
  5
1531C
330
13E17
100
AcDbEntity
  8
图框
100
AcDbMText
 10
1086.643735910939
 20
509.1493769780809
 30
0.0
 40
2.154898249703542
 41
13.34474941400573
 46
8.87215554796615
 71
     5
 72
     5
  1
产品料号\P{\Fromans|c134;Part No.}
 73
     1
 44
1.0
1001
AcDbBlockRepETag
1070
     1
1071
      139
1005
1531C
1001
ACAD
1000
ACAD_MTEXT_DEFINED_HEIGHT_BEGIN
1070
    46
1040
8.87215554796615
1000
ACAD_MTEXT_DEFINED_HEIGHT_END
  0
MTEXT
  5
1531D
330
13E17
100
AcDbEntity
  8
图框
100
AcDbMText
 10
1086.643735910939
 20
500.2775205517163
 30
0.0
 40
1.958998408821398
 41
13.34474941400573
 46
8.871557304763321
 71
     5
 72
     5
  1
产品名称\P{\Fromans|c134;Part Name}
 73
     1
 44
1.0
1001
AcDbBlockRepETag
1070
     1
1071
      140
1005
1531D
1001
ACAD
1000
ACAD_MTEXT_DEFINED_HEIGHT_BEGIN
1070
    46
1040
8.871557304763321
1000
ACAD_MTEXT_DEFINED_HEIGHT_END
  0
LINE
  5
1531E
330
13E17
100
AcDbEntity
  8
图框
 62
     1
370
    18
100
AcDbLine
 10
833.4128518455365
 20
690.5347692601515
 30
0.0
 11
833.4128518455365
 21
480.5347692601515
 31
0.0
1001
AcDbBlockRepETag
1070
     1
1071
      141
1005
1531E
  0
LINE
  5
1531F
330
13E17
100
AcDbEntity
  8
图框
 62
     1
370
    18
100
AcDbLine
 10
833.4128518455365
 20
480.5347692601515
 30
0.0
 11
1130.411601781236
 21
480.5347692601515
 31
0.0
1001
AcDbBlockRepETag
1070
     1
1071
      142
1005
1531F
  0
LINE
  5
15320
330
13E17
100
AcDbEntity
  8
图框
 62
     1
370
    18
100
AcDbLine
 10
833.4128518455365
 20
690.5347692601515
 30
0.0
 11
1130.411601781236
 21
690.5347692601515
 31
0.0
1001
AcDbBlockRepETag
1070
     1
1071
      143
1005
15320
  0
LINE
  5
15321
330
13E17
100
AcDbEntity
  8
图框
 62
     1
370
    18
100
AcDbLine
 10
1130.411601781236
 20
480.5347692601515
 30
0.0
 11
1130.411601781236
 21
690.5347692601515
 31
0.0
1001
AcDbBlockRepETag
1070
     1
1071
      144
1005
15321
  0
LINE
  5
15322
330
13E17
100
AcDbEntity
  8
图框
370
    18
100
AcDbLine
 10
836.9128518455394
 20
686.7901958362482
 30
0.0
 11
861.5351874539182
 21
686.7901958362482
 31
0.0
1001
AcDbBlockRepETag
1070
     1
1071
      145
1005
15322
  0
LINE
  5
15323
330
13E17
100
AcDbEntity
  8
图框
370
    50
100
AcDbLine
 10
1126.928502610363
 20
484.3410054693078
 30
0.0
 11
1126.928502610363
 21
675.5347692601515
 31
0.0
1001
AcDbBlockRepETag
1070
     1
1071
      146
1005
15323
  0
MTEXT
  5
15324
330
13E17
100
AcDbEntity
  8
图框
 62
     3
100
AcDbMText
 10
1052.897990117958
 20
495.8417418993364
 30
0.0
 40
2.985513575034151
 41
10.82934843439114
 46
7.886094601211307
 71
     5
 72
     5
  1
V1.1
  7
Romans字体
 73
     1
 44
1.0
1001
AcDbBlockRepETag
1070
     1
1071
      147
1005
15324
1001
ACAD
1000
ACAD_MTEXT_DEFINED_HEIGHT_BEGIN
1070
    46
1040
7.886094601211307
1000
ACAD_MTEXT_DEFINED_HEIGHT_END
  0
LINE
  5
15325
330
13E17
100
AcDbEntity
  8
图框
 62
     6
100
AcDbLine
 10
1126.911601781236
 20
531.714049199969
 30
0.0
 11
1130.411601781236
 21
531.714049199969
 31
0.0
1001
AcDbBlockRepETag
1070
     1
1071
      148
1005
15325
  0
ENDBLK
  5
13EAE
330
13E17
100
AcDbEntity
  8
0
100
AcDbBlockEnd
  0
BLOCK
  5
150C4
330
150C3
100
AcDbEntity
  8
0
100
AcDbBlockBegin
  2
*D2
 70
     1
 10
0.0
 20
0.0
 30
0.0
  3
*D2
  1

  0
LINE
  5
1519E
330
150C3
100
AcDbEntity
  8
DIM
 62
     6
370
    -2
100
AcDbLine
 10
399.2231181027051
 20
248.0966400830858
 30
0.0
 11
391.522905960779
 21
248.0966400830858
 31
0.0
  0
LINE
  5
1519F
330
150C3
100
AcDbEntity
  8
DIM
 62
     6
370
    -2
100
AcDbLine
 10
399.2231181027051
 20
236.0966400830858
 30
0.0
 11
391.522905960779
 21
236.0966400830858
 31
0.0
  0
LINE
  5
151A0
330
150C3
100
AcDbEntity
  8
DIM
 62
     1
370
    -2
100
AcDbLine
 10
392.0229059607791
 20
246.0966400830858
 30
0.0
 11
392.0229059607791
 21
238.0966400830858
 31
0.0
  0
SOLID
  5
151A1
330
150C3
100
AcDbEntity
  8
DIM
 62
     1
100
AcDbTrace
 10
391.6895726274457
 20
246.0966400830858
 30
0.0
 11
392.3562392941123
 21
246.0966400830858
 31
0.0
 12
392.0229059607791
 22
248.0966400830858
 32
0.0
 13
392.0229059607791
 23
248.0966400830858
 33
0.0
  0
SOLID
  5
151A2
330
150C3
100
AcDbEntity
  8
DIM
 62
     1
100
AcDbTrace
 10
391.6895726274457
 20
238.0966400830858
 30
0.0
 11
392.3562392941123
 21
238.0966400830858
 31
0.0
 12
392.0229059607791
 22
236.0966400830858
 32
0.0
 13
392.0229059607791
 23
236.0966400830858
 33
0.0
  0
MTEXT
  5
151A3
330
150C3
100
AcDbEntity
  8
DIM
 62
     4
100
AcDbMText
 10
390.4729059607788
 20
242.0966400830859
 30
0.0
 40
2.5
 41
0.0
 46
0.0
 71
     5
 72
     1
  1
\A1;%%CD3
  7
Romans字体
 11
0.0000000000000001
 21
1.0
 31
0.0
 73
     1
 44
1.0
  0
POINT
  5
151A4
330
150C3
100
AcDbEntity
  8
Defpoints
 62
     0
100
AcDbPoint
 10
399.4231181027051
 20
248.0966400830858
 30
0.0
  0
POINT
  5
151A5
330
150C3
100
AcDbEntity
  8
Defpoints
 62
     0
100
AcDbPoint
 10
399.4231181027051
 20
236.0966400830858
 30
0.0
  0
POINT
  5
151A6
330
150C3
100
AcDbEntity
  8
Defpoints
 62
     0
100
AcDbPoint
 10
392.0229059607791
 20
236.0966400830858
 30
0.0
  0
ENDBLK
  5
150C5
330
150C3
100
AcDbEntity
  8
0
100
AcDbBlockEnd
  0
BLOCK
  5
150D0
330
150CF
100
AcDbEntity
  8
0
100
AcDbBlockBegin
  2
*D3
 70
     1
 10
0.0
 20
0.0
 30
0.0
  3
*D3
  1

  0
LINE
  5
151A7
330
150CF
100
AcDbEntity
  8
DIM
 62
     6
370
    -2
100
AcDbLine
 10
401.3255376803906
 20
247.0966400830858
 30
0.0
 11
395.9480758573335
 21
247.0966400830858
 31
0.0
  0
LINE
  5
151A8
330
150CF
100
AcDbEntity
  8
DIM
 62
     6
370
    -2
100
AcDbLine
 10
400.955168910306
 20
237.0966400830858
 30
0.0
 11
395.9480758573335
 21
237.0966400830858
 31
0.0
  0
LINE
  5
151A9
330
150CF
100
AcDbEntity
  8
DIM
 62
     1
370
    -2
100
AcDbLine
 10
396.4480758573336
 20
245.0966400830858
 30
0.0
 11
396.4480758573336
 21
239.0966400830858
 31
0.0
  0
SOLID
  5
151AA
330
150CF
100
AcDbEntity
  8
DIM
 62
     1
100
AcDbTrace
 10
396.1147425240002
 20
245.0966400830858
 30
0.0
 11
396.7814091906668
 21
245.0966400830858
 31
0.0
 12
396.4480758573336
 22
247.0966400830858
 32
0.0
 13
396.4480758573336
 23
247.0966400830858
 33
0.0
  0
SOLID
  5
151AB
330
150CF
100
AcDbEntity
  8
DIM
 62
     1
100
AcDbTrace
 10
396.1147425240002
 20
239.0966400830858
 30
0.0
 11
396.7814091906668
 21
239.0966400830858
 31
0.0
 12
396.4480758573336
 22
237.0966400830858
 32
0.0
 13
396.4480758573336
 23
237.0966400830858
 33
0.0
  0
MTEXT
  5
151AC
330
150CF
100
AcDbEntity
  8
DIM
 62
     4
100
AcDbMText
 10
394.8980758573334
 20
242.0966400830859
 30
0.0
 40
2.5
 41
0.0
 46
0.0
 71
     5
 72
     1
  1
\A1;%%CD2
  7
Romans字体
 11
0.0000000000000001
 21
1.0
 31
0.0
 73
     1
 44
1.0
  0
POINT
  5
151AD
330
150CF
100
AcDbEntity
  8
Defpoints
 62
     0
100
AcDbPoint
 10
401.5255376803906
 20
247.0966400830858
 30
0.0
  0
POINT
  5
151AE
330
150CF
100
AcDbEntity
  8
Defpoints
 62
     0
100
AcDbPoint
 10
401.155168910306
 20
237.0966400830858
 30
0.0
  0
POINT
  5
151AF
330
150CF
100
AcDbEntity
  8
Defpoints
 62
     0
100
AcDbPoint
 10
396.4480758573336
 20
237.0966400830858
 30
0.0
  0
ENDBLK
  5
150D1
330
150CF
100
AcDbEntity
  8
0
100
AcDbBlockEnd
  0
BLOCK
  5
150DC
330
150DB
100
AcDbEntity
  8
0
100
AcDbBlockBegin
  2
*D4
 70
     1
 10
0.0
 20
0.0
 30
0.0
  3
*D4
  1

  0
LINE
  5
151B0
330
150DB
100
AcDbEntity
  8
DIM
 62
     6
370
    -2
100
AcDbLine
 10
408.6940064431192
 20
249.3466400830858
 30
0.0
 11
410.8231181027165
 21
249.3466400830858
 31
0.0
  0
LINE
  5
151B1
330
150DB
100
AcDbEntity
  8
DIM
 62
     6
370
    -2
100
AcDbLine
 10
410.5231181027049
 20
234.8466400830858
 30
0.0
 11
410.8231181027165
 21
234.8466400830858
 31
0.0
  0
LINE
  5
151B2
330
150DB
100
AcDbEntity
  8
DIM
 62
     1
370
    -2
100
AcDbLine
 10
410.3231181027165
 20
247.3466400830858
 30
0.0
 11
410.3231181027165
 21
236.8466400830858
 31
0.0
  0
SOLID
  5
151B3
330
150DB
100
AcDbEntity
  8
DIM
 62
     1
100
AcDbTrace
 10
409.9897847693833
 20
247.3466400830858
 30
0.0
 11
410.6564514360497
 21
247.3466400830858
 31
0.0
 12
410.3231181027165
 22
249.3466400830858
 32
0.0
 13
410.3231181027165
 23
249.3466400830858
 33
0.0
  0
SOLID
  5
151B4
330
150DB
100
AcDbEntity
  8
DIM
 62
     1
100
AcDbTrace
 10
409.9897847693833
 20
236.8466400830858
 30
0.0
 11
410.6564514360497
 21
236.8466400830858
 31
0.0
 12
410.3231181027165
 22
234.8466400830858
 32
0.0
 13
410.3231181027165
 23
234.8466400830858
 33
0.0
  0
MTEXT
  5
151B5
330
150DB
100
AcDbEntity
  8
DIM
 62
     4
100
AcDbMText
 10
408.7731181027165
 20
242.0966400830859
 30
0.0
 40
2.5
 41
0.0
 46
0.0
 71
     5
 72
     1
  1
\A1;%%CD1
  7
Romans字体
 11
0.0000000000000001
 21
1.0
 31
0.0
 73
     1
 44
1.0
  0
POINT
  5
151B6
330
150DB
100
AcDbEntity
  8
Defpoints
 62
     0
100
AcDbPoint
 10
408.4940064431192
 20
249.3466400830858
 30
0.0
  0
POINT
  5
151B7
330
150DB
100
AcDbEntity
  8
Defpoints
 62
     0
100
AcDbPoint
 10
410.3231181027048
 20
234.8466400830858
 30
0.0
  0
POINT
  5
151B8
330
150DB
100
AcDbEntity
  8
Defpoints
 62
     0
100
AcDbPoint
 10
410.3231181027165
 20
234.8466400830858
 30
0.0
  0
ENDBLK
  5
150DD
330
150DB
100
AcDbEntity
  8
0
100
AcDbBlockEnd
  0
BLOCK
  5
150E8
330
150E7
100
AcDbEntity
  8
0
100
AcDbBlockBegin
  2
*D5
 70
     1
 10
0.0
 20
0.0
 30
0.0
  3
*D5
  1

  0
LINE
  5
151B9
330
150E7
100
AcDbEntity
  8
DIM
 62
     6
370
    -2
100
AcDbLine
 10
399.2231181027051
 20
250.8466400830858
 30
0.0
 11
387.3874994331222
 21
250.8466400830858
 31
0.0
  0
LINE
  5
151BA
330
150E7
100
AcDbEntity
  8
DIM
 62
     6
370
    -2
100
AcDbLine
 10
399.2231181027051
 20
233.3466400830858
 30
0.0
 11
387.3874994331222
 21
233.3466400830858
 31
0.0
  0
LINE
  5
151BB
330
150E7
100
AcDbEntity
  8
DIM
 62
     1
370
    -2
100
AcDbLine
 10
387.8874994331222
 20
248.8466400830858
 30
0.0
 11
387.8874994331222
 21
235.3466400830858
 31
0.0
  0
SOLID
  5
151BC
330
150E7
100
AcDbEntity
  8
DIM
 62
     1
100
AcDbTrace
 10
387.5541660997889
 20
248.8466400830858
 30
0.0
 11
388.2208327664555
 21
248.8466400830858
 31
0.0
 12
387.8874994331222
 22
250.8466400830858
 32
0.0
 13
387.8874994331222
 23
250.8466400830858
 33
0.0
  0
SOLID
  5
151BD
330
150E7
100
AcDbEntity
  8
DIM
 62
     1
100
AcDbTrace
 10
387.5541660997889
 20
235.3466400830858
 30
0.0
 11
388.2208327664555
 21
235.3466400830858
 31
0.0
 12
387.8874994331222
 22
233.3466400830858
 32
0.0
 13
387.8874994331222
 23
233.3466400830858
 33
0.0
  0
MTEXT
  5
151BE
330
150E7
100
AcDbEntity
  8
DIM
 62
     4
100
AcDbMText
 10
386.3374994331222
 20
242.0966400830859
 30
0.0
 40
2.5
 41
0.0
 46
0.0
 71
     5
 72
     1
  1
\A1;%%C17.5
  7
Romans字体
 11
0.0000000000000001
 21
1.0
 31
0.0
 73
     1
 44
1.0
  0
POINT
  5
151BF
330
150E7
100
AcDbEntity
  8
Defpoints
 62
     0
100
AcDbPoint
 10
399.4231181027051
 20
250.8466400830858
 30
0.0
  0
POINT
  5
151C0
330
150E7
100
AcDbEntity
  8
Defpoints
 62
     0
100
AcDbPoint
 10
399.4231181027051
 20
233.3466400830858
 30
0.0
  0
POINT
  5
151C1
330
150E7
100
AcDbEntity
  8
Defpoints
 62
     0
100
AcDbPoint
 10
387.8874994331222
 20
233.3466400830858
 30
0.0
  0
ENDBLK
  5
150E9
330
150E7
100
AcDbEntity
  8
0
100
AcDbBlockEnd
  0
BLOCK
  5
150F4
330
150F3
100
AcDbEntity
  8
0
100
AcDbBlockBegin
  2
*D6
 70
     1
 10
0.0
 20
0.0
 30
0.0
  3
*D6
  1

  0
LINE
  5
151C2
330
150F3
100
AcDbEntity
  8
DIM
 62
     6
370
    -2
100
AcDbLine
 10
399.4231181027051
 20
233.3874286317354
 30
0.0
 11
399.4231181027051
 21
229.8016391734564
 31
0.0
  0
LINE
  5
151C3
330
150F3
100
AcDbEntity
  8
DIM
 62
     6
370
    -2
100
AcDbLine
 10
421.9231181027051
 20
237.5105677371356
 30
0.0
 11
421.9231181027051
 21
229.8016391734564
 31
0.0
  0
LINE
  5
151C4
330
150F3
100
AcDbEntity
  8
DIM
 62
     1
370
    -2
100
AcDbLine
 10
401.4231181027051
 20
230.3016391734564
 30
0.0
 11
419.9231181027051
 21
230.3016391734564
 31
0.0
  0
SOLID
  5
151C5
330
150F3
100
AcDbEntity
  8
DIM
 62
     1
100
AcDbTrace
 10
401.4231181027051
 20
230.6349725067898
 30
0.0
 11
401.4231181027051
 21
229.9683058401231
 31
0.0
 12
399.4231181027051
 22
230.3016391734564
 32
0.0
 13
399.4231181027051
 23
230.3016391734564
 33
0.0
  0
SOLID
  5
151C6
330
150F3
100
AcDbEntity
  8
DIM
 62
     1
100
AcDbTrace
 10
419.9231181027051
 20
230.6349725067898
 30
0.0
 11
419.9231181027051
 21
229.9683058401231
 31
0.0
 12
421.9231181027051
 22
230.3016391734564
 32
0.0
 13
421.9231181027051
 23
230.3016391734564
 33
0.0
  0
MTEXT
  5
151C7
330
150F3
100
AcDbEntity
  8
DIM
 62
     4
100
AcDbMText
 10
410.6731181027051
 20
231.8516391734564
 30
0.0
 40
2.5
 41
0.0
 46
0.0
 71
     5
 72
     1
  1
\A1;22.5
  7
Romans字体
 73
     1
 44
1.0
  0
POINT
  5
151C8
330
150F3
100
AcDbEntity
  8
Defpoints
 62
     0
100
AcDbPoint
 10
399.4231181027051
 20
233.5874286317353
 30
0.0
  0
POINT
  5
151C9
330
150F3
100
AcDbEntity
  8
Defpoints
 62
     0
100
AcDbPoint
 10
421.9231181027051
 20
237.7105677371356
 30
0.0
  0
POINT
  5
151CA
330
150F3
100
AcDbEntity
  8
Defpoints
 62
     0
100
AcDbPoint
 10
421.9231181027051
 20
230.3016391734564
 30
0.0
  0
ENDBLK
  5
150F5
330
150F3
100
AcDbEntity
  8
0
100
AcDbBlockEnd
  0
BLOCK
  5
15100
330
150FF
100
AcDbEntity
  8
0
100
AcDbBlockBegin
  2
*D7
 70
     1
 10
0.0
 20
0.0
 30
0.0
  3
*D7
  1

  0
LINE
  5
151CB
330
150FF
100
AcDbEntity
  8
DIM
 62
     6
370
    -2
100
AcDbLine
 10
399.4231181027051
 20
231.4945339025957
 30
0.0
 11
399.4231181027051
 21
224.6397912901445
 31
0.0
  0
LINE
  5
151CC
330
150FF
100
AcDbEntity
  8
DIM
 62
     6
370
    -2
100
AcDbLine
 10
445.0231181027056
 20
238.1708612108022
 30
0.0
 11
445.0231181027056
 21
224.6397912901445
 31
0.0
  0
LINE
  5
151CD
330
150FF
100
AcDbEntity
  8
DIM
 62
     1
370
    -2
100
AcDbLine
 10
401.4231181027051
 20
225.1397912901445
 30
0.0
 11
443.0231181027055
 21
225.1397912901445
 31
0.0
  0
SOLID
  5
151CE
330
150FF
100
AcDbEntity
  8
DIM
 62
     1
100
AcDbTrace
 10
401.4231181027051
 20
225.4731246234779
 30
0.0
 11
401.4231181027051
 21
224.8064579568112
 31
0.0
 12
399.4231181027051
 22
225.1397912901445
 32
0.0
 13
399.4231181027051
 23
225.1397912901445
 33
0.0
  0
SOLID
  5
151CF
330
150FF
100
AcDbEntity
  8
DIM
 62
     1
100
AcDbTrace
 10
443.0231181027055
 20
225.4731246234779
 30
0.0
 11
443.0231181027055
 21
224.8064579568112
 31
0.0
 12
445.0231181027056
 22
225.1397912901445
 32
0.0
 13
445.0231181027056
 23
225.1397912901445
 33
0.0
  0
MTEXT
  5
151D0
330
150FF
100
AcDbEntity
  8
DIM
 62
     4
100
AcDbMText
 10
422.2231181027053
 20
226.6897912901446
 30
0.0
 40
2.5
 41
0.0
 46
0.0
 71
     5
 72
     1
  1
\A1;45.6
  7
Romans字体
 73
     1
 44
1.0
  0
POINT
  5
151D1
330
150FF
100
AcDbEntity
  8
Defpoints
 62
     0
100
AcDbPoint
 10
399.4231181027051
 20
231.6945339025957
 30
0.0
  0
POINT
  5
151D2
330
150FF
100
AcDbEntity
  8
Defpoints
 62
     0
100
AcDbPoint
 10
445.0231181027056
 20
238.3708612108021
 30
0.0
  0
POINT
  5
151D3
330
150FF
100
AcDbEntity
  8
Defpoints
 62
     0
100
AcDbPoint
 10
445.0231181027056
 20
225.1397912901445
 30
0.0
  0
ENDBLK
  5
15101
330
150FF
100
AcDbEntity
  8
0
100
AcDbBlockEnd
  0
BLOCK
  5
1510C
330
1510B
100
AcDbEntity
  8
0
100
AcDbBlockBegin
  2
*D8
 70
     1
 10
0.0
 20
0.0
 30
0.0
  3
*D8
  1

  0
LINE
  5
151D4
330
1510B
100
AcDbEntity
  8
DIM
 62
     6
370
    -2
100
AcDbLine
 10
426.4231181027043
 20
233.0966400830858
 30
0.0
 11
454.2622298907923
 21
233.0966400830857
 31
0.0
  0
LINE
  5
151D5
330
1510B
100
AcDbEntity
  8
DIM
 62
     6
370
    -2
100
AcDbLine
 10
426.1964507348276
 20
251.0966400830858
 30
0.0
 11
454.2622298907923
 21
251.0966400830858
 31
0.0
  0
LINE
  5
151D6
330
1510B
100
AcDbEntity
  8
DIM
 62
     1
370
    -2
100
AcDbLine
 10
453.7622298907924
 20
235.0966400830857
 30
0.0
 11
453.7622298907924
 21
249.0966400830858
 31
0.0
  0
SOLID
  5
151D7
330
1510B
100
AcDbEntity
  8
DIM
 62
     1
100
AcDbTrace
 10
453.428896557459
 20
235.0966400830857
 30
0.0
 11
454.0955632241256
 21
235.0966400830857
 31
0.0
 12
453.7622298907924
 22
233.0966400830857
 32
0.0
 13
453.7622298907924
 23
233.0966400830857
 33
0.0
  0
SOLID
  5
151D8
330
1510B
100
AcDbEntity
  8
DIM
 62
     1
100
AcDbTrace
 10
453.428896557459
 20
249.0966400830858
 30
0.0
 11
454.0955632241256
 21
249.0966400830858
 31
0.0
 12
453.7622298907924
 22
251.0966400830858
 32
0.0
 13
453.7622298907924
 23
251.0966400830858
 33
0.0
  0
MTEXT
  5
151D9
330
1510B
100
AcDbEntity
  8
DIM
 62
     4
100
AcDbMText
 10
452.2122298907921
 20
242.0966400830859
 30
0.0
 40
2.5
 41
0.0
 46
0.0
 71
     5
 72
     1
  1
\A1;%%C18
  7
Romans字体
 11
0.0000000000000001
 21
1.0
 31
0.0
 73
     1
 44
1.0
  0
POINT
  5
151DA
330
1510B
100
AcDbEntity
  8
Defpoints
 62
     0
100
AcDbPoint
 10
426.2231181027043
 20
233.0966400830858
 30
0.0
  0
POINT
  5
151DB
330
1510B
100
AcDbEntity
  8
Defpoints
 62
     0
100
AcDbPoint
 10
425.9964507348276
 20
251.0966400830858
 30
0.0
  0
POINT
  5
151DC
330
1510B
100
AcDbEntity
  8
Defpoints
 62
     0
100
AcDbPoint
 10
453.7622298907924
 20
251.0966400830858
 30
0.0
  0
ENDBLK
  5
1510D
330
1510B
100
AcDbEntity
  8
0
100
AcDbBlockEnd
  0
BLOCK
  5
15118
330
15117
100
AcDbEntity
  8
0
100
AcDbBlockBegin
  2
*D9
 70
     1
 10
0.0
 20
0.0
 30
0.0
  3
*D9
  1

  0
LINE
  5
151DD
330
15117
100
AcDbEntity
  8
DIM
 62
     6
370
    -2
100
AcDbLine
 10
435.1441788776547
 20
248.5966400830858
 30
0.0
 11
450.2240855748764
 21
248.5966400830858
 31
0.0
  0
LINE
  5
151DE
330
15117
100
AcDbEntity
  8
DIM
 62
     6
370
    -2
100
AcDbLine
 10
435.1441788776547
 20
235.5966400830862
 30
0.0
 11
450.2240855748764
 21
235.5966400830862
 31
0.0
  0
LINE
  5
151DF
330
15117
100
AcDbEntity
  8
DIM
 62
     1
370
    -2
100
AcDbLine
 10
449.7240855748763
 20
246.5966400830858
 30
0.0
 11
449.7240855748763
 21
237.5966400830862
 31
0.0
  0
SOLID
  5
151E0
330
15117
100
AcDbEntity
  8
DIM
 62
     1
100
AcDbTrace
 10
449.3907522415431
 20
246.5966400830858
 30
0.0
 11
450.0574189082096
 21
246.5966400830858
 31
0.0
 12
449.7240855748763
 22
248.5966400830858
 32
0.0
 13
449.7240855748763
 23
248.5966400830858
 33
0.0
  0
SOLID
  5
151E1
330
15117
100
AcDbEntity
  8
DIM
 62
     1
100
AcDbTrace
 10
449.3907522415431
 20
237.5966400830862
 30
0.0
 11
450.0574189082096
 21
237.5966400830862
 31
0.0
 12
449.7240855748763
 22
235.5966400830862
 32
0.0
 13
449.7240855748763
 23
235.5966400830862
 33
0.0
  0
MTEXT
  5
151E2
330
15117
100
AcDbEntity
  8
DIM
 62
     4
100
AcDbMText
 10
448.1740855748761
 20
242.0966400830861
 30
0.0
 40
2.5
 41
0.0
 46
0.0
 71
     5
 72
     1
  1
\A1;%%C13
  7
Romans字体
 11
0.0000000000000001
 21
1.0
 31
0.0
 73
     1
 44
1.0
  0
POINT
  5
151E3
330
15117
100
AcDbEntity
  8
Defpoints
 62
     0
100
AcDbPoint
 10
434.9441788776547
 20
248.5966400830858
 30
0.0
  0
POINT
  5
151E4
330
15117
100
AcDbEntity
  8
Defpoints
 62
     0
100
AcDbPoint
 10
434.9441788776547
 20
235.5966400830862
 30
0.0
  0
POINT
  5
151E5
330
15117
100
AcDbEntity
  8
Defpoints
 62
     0
100
AcDbPoint
 10
449.7240855748763
 20
235.5966400830862
 30
0.0
  0
ENDBLK
  5
15119
330
15117
100
AcDbEntity
  8
0
100
AcDbBlockEnd
  0
ENDSEC
  0
SECTION
  2
ENTITIES
  0
HATCH
  5
28AE
330
1F
100
AcDbEntity
  8
图层 1
 62
     7
100
AcDbHatch
 10
0.0
 20
0.0
 30
0.0
210
0.0
220
0.0
230
1.0
  2
SOLID
 70
     1
 71
     0
 91
        1
 92
        1
 93
        2
 72
     4
 94
        3
 73
     0
 74
     0
 95
       17
 96
       13
 40
0.0
 40
0.0
 40
0.0
 40
0.0
 40
0.3527780104152769
 40
0.3527780104152769
 40
0.3527780104152769
 40
0.7055560208305538
 40
0.7055560208305538
 40
0.7055560208305538
 40
1.058334031245828
 40
1.058334031245828
 40
1.058334031245828
 40
1.411112041661104
 40
1.411112041661104
 40
1.411112041661104
 40
1.411112041661104
 10
11.07013262565829
 20
29.50312817963231
 10
11.07013262565829
 20
29.50312817963231
 10
10.9431807732774
 20
29.50312817963231
 10
10.9431807732774
 20
29.50312817963231
 10
10.9431807732774
 20
29.50312817963231
 10
10.85843136843155
 20
29.22786486877117
 10
10.85843136843155
 20
29.22786486877117
 10
10.85843136843155
 20
29.22786486877117
 10
10.90080607085448
 20
29.2068497724476
 10
10.90080607085448
 20
29.2068497724476
 10
10.94455881238059
 20
29.31571486159919
 10
11.00346998404173
 20
29.40907701083995
 10
11.07013262565829
 20
29.50312817963231
 72
     1
 10
11.07013262565829
 20
29.50312817963231
 11
11.07013262565829
 21
29.50312817963231
 97
        0
 75
     0
 76
     1
 98
        0
450
        0
451
        0
460
0.0
461
0.0
452
        0
462
0.0
453
        0
470

  0
HATCH
  5
2C65
330
1F
100
AcDbEntity
  8
图层 1
 62
     7
100
AcDbHatch
 10
0.0
 20
0.0
 30
0.0
210
0.0
220
0.0
230
1.0
  2
SOLID
 70
     1
 71
     0
 91
        1
 92
        1
 93
        2
 72
     4
 94
        3
 73
     0
 74
     0
 95
       47
 96
       43
 40
0.0
 40
0.0
 40
0.0
 40
0.0
 40
0.3527780104152769
 40
0.3527780104152769
 40
0.3527780104152769
 40
0.7055560208305538
 40
0.7055560208305538
 40
0.7055560208305538
 40
1.058334031245828
 40
1.058334031245828
 40
1.058334031245828
 40
1.411112041661104
 40
1.411112041661104
 40
1.411112041661104
 40
1.763890052076384
 40
1.763890052076384
 40
1.763890052076384
 40
2.116668062491659
 40
2.116668062491659
 40
2.116668062491659
 40
2.469446072906936
 40
2.469446072906936
 40
2.469446072906936
 40
2.822224083322215
 40
2.822224083322215
 40
2.822224083322215
 40
3.175002093737492
 40
3.175002093737492
 40
3.175002093737492
 40
3.527780104152768
 40
3.527780104152768
 40
3.527780104152768
 40
3.880558114568044
 40
3.880558114568044
 40
3.880558114568044
 40
4.233336124983321
 40
4.233336124983321
 40
4.233336124983321
 40
4.586114135398599
 40
4.586114135398599
 40
4.586114135398599
 40
4.938892145813873
 40
4.938892145813873
 40
4.938892145813873
 40
4.938892145813873
 10
162.8986914070121
 20
257.4895347631509
 10
162.8986914070121
 20
257.4895347631509
 10
162.9200510131114
 20
257.4471600607279
 10
162.9200510131114
 20
257.4471600607279
 10
162.9200510131114
 20
257.4471600607279
 10
162.9200510131114
 20
257.404785358305
 10
162.9200510131114
 20
257.404785358305
 10
162.9200510131114
 20
257.404785358305
 10
162.8986914070121
 20
257.36258291077
 10
162.8986914070121
 20
257.36258291077
 10
162.8986914070121
 20
257.36258291077
 10
162.8986914070121
 20
257.320208208347
 10
162.8986914070121
 20
257.320208208347
 10
162.8986914070121
 20
257.320208208347
 10
162.8563167045891
 20
257.2990208571356
 10
162.8563167045891
 20
257.2990208571356
 10
162.8563167045891
 20
257.2990208571356
 10
162.8139420021662
 20
257.2563016449369
 10
162.8139420021662
 20
257.2563016449369
 10
162.8139420021662
 20
257.2563016449369
 10
162.7295371070961
 20
257.2563016449369
 10
162.7295371070961
 20
257.2563016449369
 10
162.7295371070961
 20
257.2563016449369
 10
162.6658027985738
 20
257.2778335059241
 10
162.6658027985738
 20
257.2778335059241
 10
162.6658027985738
 20
257.2778335059241
 10
162.6237726059267
 20
257.2990208571356
 10
162.6237726059267
 20
257.2990208571356
 10
162.6237726059267
 20
257.2990208571356
 10
162.5813979035038
 20
257.3413955595585
 10
162.5813979035038
 20
257.3413955595585
 10
162.5813979035038
 20
257.3413955595585
 10
162.5813979035038
 20
257.4895347631509
 10
162.5813979035038
 20
257.4895347631509
 10
162.5813979035038
 20
257.4895347631509
 10
162.6447877022503
 20
257.5525800521216
 10
162.6447877022503
 20
257.5525800521216
 10
162.6447877022503
 20
257.5525800521216
 10
162.7081775009967
 20
257.5525800521216
 10
162.7081775009967
 20
257.5525800521216
 10
162.8749202324821
 20
257.5424170137356
 10
162.7918933765152
 20
257.5939212252171
 10
162.8986914070121
 20
257.4895347631509
 72
     1
 10
162.8986914070121
 20
257.4895347631509
 11
162.8986914070121
 21
257.4895347631509
 97
        0
 75
     0
 76
     1
 98
        0
450
        0
451
        0
460
0.0
461
0.0
452
        0
462
0.0
453
        0
470

  0
HATCH
  5
2EE7
330
1F
100
AcDbEntity
  8
图层 1
 62
     7
100
AcDbHatch
 10
0.0
 20
0.0
 30
0.0
210
0.0
220
0.0
230
1.0
  2
SOLID
 70
     1
 71
     0
 91
        1
 92
        1
 93
        2
 72
     4
 94
        3
 73
     0
 74
     0
 95
       56
 96
       52
 40
0.0
 40
0.0
 40
0.0
 40
0.0
 40
0.3527780104152769
 40
0.3527780104152769
 40
0.3527780104152769
 40
0.7055560208305538
 40
0.7055560208305538
 40
0.7055560208305538
 40
1.058334031245828
 40
1.058334031245828
 40
1.058334031245828
 40
1.411112041661104
 40
1.411112041661104
 40
1.411112041661104
 40
1.763890052076384
 40
1.763890052076384
 40
1.763890052076384
 40
2.116668062491659
 40
2.116668062491659
 40
2.116668062491659
 40
2.469446072906936
 40
2.469446072906936
 40
2.469446072906936
 40
2.822224083322215
 40
2.822224083322215
 40
2.822224083322215
 40
3.175002093737492
 40
3.175002093737492
 40
3.175002093737492
 40
3.527780104152768
 40
3.527780104152768
 40
3.527780104152768
 40
3.880558114568044
 40
3.880558114568044
 40
3.880558114568044
 40
4.233336124983321
 40
4.233336124983321
 40
4.233336124983321
 40
4.586114135398599
 40
4.586114135398599
 40
4.586114135398599
 40
4.938892145813873
 40
4.938892145813873
 40
4.938892145813873
 40
5.291670156229153
 40
5.291670156229153
 40
5.291670156229153
 40
5.64444816664443
 40
5.64444816664443
 40
5.64444816664443
 40
5.997226177059705
 40
5.997226177059705
 40
5.997226177059705
 40
5.997226177059705
 10
185.4837187788815
 20
241.4451977396596
 10
185.4837187788815
 20
241.4451977396596
 10
185.4837187788815
 20
241.4028230372367
 10
185.4837187788815
 20
241.4028230372367
 10
185.4837187788815
 20
241.4028230372367
 10
185.5047338752051
 20
241.3604483348137
 10
185.5047338752051
 20
241.3604483348137
 10
185.4520238795082
 20
241.2782827532863
 10
185.4671823096433
 20
241.1897437409066
 10
185.335579575289
 20
241.2119646214456
 10
185.335579575289
 20
241.2119646214456
 10
185.2932048728662
 20
241.2119646214456
 10
185.2932048728662
 20
241.2119646214456
 10
185.2932048728662
 20
241.2119646214456
 10
185.2294705643439
 20
241.2334964824328
 10
185.2294705643439
 20
241.2334964824328
 10
185.2294705643439
 20
241.2334964824328
 10
185.1660807655974
 20
241.2543393238685
 10
185.1660807655974
 20
241.2543393238685
 10
185.1660807655974
 20
241.2543393238685
 10
185.1450656692739
 20
241.2758711848558
 10
185.1450656692739
 20
241.2758711848558
 10
185.1450656692739
 20
241.2758711848558
 10
185.1450656692739
 20
241.2967140262914
 10
185.1450656692739
 20
241.2967140262914
 10
185.1450656692739
 20
241.2967140262914
 10
185.1237060631745
 20
241.3604483348137
 10
185.1237060631745
 20
241.3604483348137
 10
185.1237060631745
 20
241.3604483348137
 10
185.1237060631745
 20
241.4028230372367
 10
185.1237060631745
 20
241.4028230372367
 10
185.1237060631745
 20
241.4028230372367
 10
185.1660807655974
 20
241.4875724420825
 10
185.1660807655974
 20
241.4875724420825
 10
185.1660807655974
 20
241.4875724420825
 10
185.2084554680203
 20
241.5085875384061
 10
185.2084554680203
 20
241.5085875384061
 10
185.2084554680203
 20
241.5085875384061
 10
185.2718452667668
 20
241.5297748896175
 10
185.2718452667668
 20
241.5297748896175
 10
185.2718452667668
 20
241.5297748896175
 10
185.3565946716127
 20
241.5297748896175
 10
185.3565946716127
 20
241.5297748896175
 10
185.3565946716127
 20
241.5297748896175
 10
185.4199844703592
 20
241.5085875384061
 10
185.4199844703592
 20
241.5085875384061
 10
185.4199844703592
 20
241.5085875384061
 10
185.4623591727821
 20
241.4875724420825
 10
185.4623591727821
 20
241.4875724420825
 10
185.4623591727821
 20
241.4875724420825
 10
185.4837187788815
 20
241.4451977396596
 10
185.4837187788815
 20
241.4451977396596
 72
     1
 10
185.4837187788815
 20
241.4451977396596
 11
185.4837187788815
 21
241.4451977396596
 97
        0
 75
     0
 76
     1
 98
        0
450
        0
451
        0
460
0.0
461
0.0
452
        0
462
0.0
453
        0
470

  0
HATCH
  5
2F93
330
1F
100
AcDbEntity
  8
图层 1
 62
     7
100
AcDbHatch
 10
0.0
 20
0.0
 30
0.0
210
0.0
220
0.0
230
1.0
  2
SOLID
 70
     1
 71
     0
 91
        1
 92
        1
 93
        2
 72
     4
 94
        3
 73
     0
 74
     0
 95
       38
 96
       34
 40
0.0
 40
0.0
 40
0.0
 40
0.0
 40
0.3527780104152769
 40
0.3527780104152769
 40
0.3527780104152769
 40
0.7055560208305538
 40
0.7055560208305538
 40
0.7055560208305538
 40
1.058334031245828
 40
1.058334031245828
 40
1.058334031245828
 40
1.411112041661104
 40
1.411112041661104
 40
1.411112041661104
 40
1.763890052076384
 40
1.763890052076384
 40
1.763890052076384
 40
2.116668062491659
 40
2.116668062491659
 40
2.116668062491659
 40
2.469446072906936
 40
2.469446072906936
 40
2.469446072906936
 40
2.822224083322215
 40
2.822224083322215
 40
2.822224083322215
 40
3.175002093737492
 40
3.175002093737492
 40
3.175002093737492
 40
3.527780104152768
 40
3.527780104152768
 40
3.527780104152768
 40
3.880558114568044
 40
3.880558114568044
 40
3.880558114568044
 40
3.880558114568044
 10
185.907121293335
 20
220.1937677098971
 10
185.9005756075949
 20
220.0449394867532
 10
185.9329595265197
 20
220.1136691870245
 10
185.864746590912
 20
219.9817219428946
 10
185.864746590912
 20
219.9817219428946
 10
185.822371888489
 20
219.9605345916831
 10
185.822371888489
 20
219.9605345916831
 10
185.822371888489
 20
219.9605345916831
 10
185.6528730787974
 20
219.9605345916831
 10
185.6528730787974
 20
219.9605345916831
 10
185.6528730787974
 20
219.9605345916831
 10
185.5894832800509
 20
220.002909294106
 10
185.5894832800509
 20
220.002909294106
 10
185.5894832800509
 20
220.002909294106
 10
185.5681236739515
 20
220.0240966453175
 10
185.5681236739515
 20
220.0240966453175
 10
185.5681236739515
 20
220.0240966453175
 10
185.5681236739515
 20
220.045283996529
 10
185.5681236739515
 20
220.045283996529
 10
185.5681236739515
 20
220.045283996529
 10
185.547108577628
 20
220.0876586989519
 10
185.547108577628
 20
220.0876586989519
 10
185.547108577628
 20
220.0876586989519
 10
185.547108577628
 20
220.1513930074742
 10
185.547108577628
 20
220.1513930074742
 10
185.547108577628
 20
220.1513930074742
 10
185.5894832800509
 20
220.23614241232
 10
185.5894832800509
 20
220.23614241232
 10
185.5894832800509
 20
220.23614241232
 10
185.6318579824738
 20
220.2573297635315
 10
185.6318579824738
 20
220.2573297635315
 10
185.7055830744942
 20
220.2566407439799
 10
185.8416644359337
 20
220.3310548555519
 10
185.907121293335
 20
220.1937677098971
 72
     1
 10
185.907121293335
 20
220.1937677098971
 11
185.907121293335
 21
220.1937677098971
 97
        0
 75
     0
 76
     1
 98
        0
450
        0
451
        0
460
0.0
461
0.0
452
        0
462
0.0
453
        0
470

  0
HATCH
  5
2FDE
330
1F
100
AcDbEntity
  8
图层 1
 62
     7
100
AcDbHatch
 10
0.0
 20
0.0
 30
0.0
210
0.0
220
0.0
230
1.0
  2
SOLID
 70
     1
 71
     0
 91
        1
 92
        1
 93
        2
 72
     4
 94
        3
 73
     0
 74
     0
 95
       50
 96
       46
 40
0.0
 40
0.0
 40
0.0
 40
0.0
 40
0.3527780104152769
 40
0.3527780104152769
 40
0.3527780104152769
 40
0.7055560208305538
 40
0.7055560208305538
 40
0.7055560208305538
 40
1.058334031245828
 40
1.058334031245828
 40
1.058334031245828
 40
1.411112041661104
 40
1.411112041661104
 40
1.411112041661104
 40
1.763890052076384
 40
1.763890052076384
 40
1.763890052076384
 40
2.116668062491659
 40
2.116668062491659
 40
2.116668062491659
 40
2.469446072906936
 40
2.469446072906936
 40
2.469446072906936
 40
2.822224083322215
 40
2.822224083322215
 40
2.822224083322215
 40
3.175002093737492
 40
3.175002093737492
 40
3.175002093737492
 40
3.527780104152768
 40
3.527780104152768
 40
3.527780104152768
 40
3.880558114568044
 40
3.880558114568044
 40
3.880558114568044
 40
4.233336124983321
 40
4.233336124983321
 40
4.233336124983321
 40
4.586114135398599
 40
4.586114135398599
 40
4.586114135398599
 40
4.938892145813873
 40
4.938892145813873
 40
4.938892145813873
 40
5.291670156229153
 40
5.291670156229153
 40
5.291670156229153
 40
5.291670156229153
 10
180.9117295442905
 20
208.9327766684477
 10
180.9117295442905
 20
208.9327766684477
 10
180.9117295442905
 20
208.7637946234197
 10
180.9117295442905
 20
208.7637946234197
 10
181.2273004989198
 20
208.6749111012643
 10
181.3833634273555
 20
208.6776671794706
 10
181.6948002646751
 20
208.5097186637701
 10
181.9542161258496
 20
208.4294478860095
 10
182.1388733656765
 20
208.2134402565853
 10
182.3297317814676
 20
208.02292635057
 10
182.3297317814676
 20
208.02292635057
 10
182.435496282637
 20
208.065301052993
 10
182.435496282637
 20
208.065301052993
 10
182.288390608372
 20
208.2733849575739
 10
182.3752070718726
 20
208.2134402565853
 10
182.1605774815516
 20
208.3824223016133
 10
182.1605774815516
 20
208.3824223016133
 10
182.1182027791287
 20
208.4247970040363
 10
182.1182027791287
 20
208.4247970040363
 10
182.1182027791287
 20
208.4247970040363
 10
182.0968431730294
 20
208.467516216235
 10
182.0968431730294
 20
208.467516216235
 10
182.0968431730294
 20
208.467516216235
 10
182.0544684706064
 20
208.4883590576707
 10
182.0544684706064
 20
208.4883590576707
 10
182.0544684706064
 20
208.4883590576707
 10
181.9910786718599
 20
208.5305615052057
 10
181.9910786718599
 20
208.5305615052057
 10
181.9910786718599
 20
208.5305615052057
 10
181.948703969437
 20
208.552093366193
 10
181.948703969437
 20
208.552093366193
 10
181.948703969437
 20
208.552093366193
 10
181.9063292670141
 20
208.5729362076286
 10
181.9063292670141
 20
208.5729362076286
 10
181.9063292670141
 20
208.5729362076286
 10
181.8639545645911
 20
208.6156554198274
 10
181.8639545645911
 20
208.6156554198274
 10
181.8639545645911
 20
208.6156554198274
 10
181.821924371944
 20
208.6368427710388
 10
181.821924371944
 20
208.6368427710388
 10
181.6637943848536
 20
208.6742220817127
 10
181.5452830219797
 20
208.8092699138248
 10
181.3771622513911
 20
208.8061693258427
 10
181.2803550043924
 20
208.8573290275484
 10
181.0126709085988
 20
208.8971199066528
 10
180.9117295442905
 20
208.9327766684477
 72
     1
 10
180.9117295442905
 20
208.9327766684477
 11
180.9117295442905
 21
208.9327766684477
 97
        0
 75
     0
 76
     1
 98
        0
450
        0
451
        0
460
0.0
461
0.0
452
        0
462
0.0
453
        0
470

  0
HATCH
  5
35C8
330
1F
100
AcDbEntity
  8
图层 1
 62
     7
100
AcDbHatch
 10
0.0
 20
0.0
 30
0.0
210
0.0
220
0.0
230
1.0
  2
SOLID
 70
     1
 71
     0
 91
        1
 92
        1
 93
        2
 72
     4
 94
        3
 73
     0
 74
     0
 95
       38
 96
       34
 40
0.0
 40
0.0
 40
0.0
 40
0.0
 40
0.3527780104152769
 40
0.3527780104152769
 40
0.3527780104152769
 40
0.7055560208305538
 40
0.7055560208305538
 40
0.7055560208305538
 40
1.058334031245828
 40
1.058334031245828
 40
1.058334031245828
 40
1.411112041661104
 40
1.411112041661104
 40
1.411112041661104
 40
1.763890052076384
 40
1.763890052076384
 40
1.763890052076384
 40
2.116668062491659
 40
2.116668062491659
 40
2.116668062491659
 40
2.469446072906936
 40
2.469446072906936
 40
2.469446072906936
 40
2.822224083322215
 40
2.822224083322215
 40
2.822224083322215
 40
3.175002093737492
 40
3.175002093737492
 40
3.175002093737492
 40
3.527780104152768
 40
3.527780104152768
 40
3.527780104152768
 40
3.880558114568044
 40
3.880558114568044
 40
3.880558114568044
 40
3.880558114568044
 10
189.145513185819
 20
166.8326485368285
 10
189.207869455238
 20
166.740492171803
 10
189.1317327947871
 20
166.6833035490209
 10
189.103138483396
 20
166.6209472796017
 10
189.103138483396
 20
166.6209472796017
 10
189.0607637809731
 20
166.5997599283903
 10
189.0607637809731
 20
166.5997599283903
 10
189.0607637809731
 20
166.5997599283903
 10
188.9973739822266
 20
166.5785725771788
 10
188.9973739822266
 20
166.5785725771788
 10
188.9973739822266
 20
166.5785725771788
 10
188.9549992798037
 20
166.5997599283903
 10
188.9549992798037
 20
166.5997599283903
 10
188.9549992798037
 20
166.5997599283903
 10
188.8916094810572
 20
166.5997599283903
 10
188.8916094810572
 20
166.5997599283903
 10
188.8916094810572
 20
166.5997599283903
 10
188.8492347786343
 20
166.6209472796017
 10
188.8492347786343
 20
166.6209472796017
 10
188.8492347786343
 20
166.6209472796017
 10
188.8278751725349
 20
166.6633219820247
 10
188.8278751725349
 20
166.6633219820247
 10
188.8278751725349
 20
166.6633219820247
 10
188.8068600762114
 20
166.6845093332361
 10
188.8068600762114
 20
166.6845093332361
 10
188.8068600762114
 20
166.6845093332361
 10
188.8068600762114
 20
166.8326485368285
 10
188.8068600762114
 20
166.8326485368285
 10
188.8068600762114
 20
166.8326485368285
 10
188.8702498749578
 20
166.896038335575
 10
188.8702498749578
 20
166.896038335575
 10
189.0228677056355
 20
166.8819134347673
 10
189.0686875058164
 20
166.9411691162043
 10
189.145513185819
 20
166.8326485368285
 72
     1
 10
189.145513185819
 20
166.8326485368285
 11
189.145513185819
 21
166.8326485368285
 97
        0
 75
     0
 76
     1
 98
        0
450
        0
451
        0
460
0.0
461
0.0
452
        0
462
0.0
453
        0
470

  0
HATCH
  5
35D8
330
1F
100
AcDbEntity
  8
图层 1
 62
     7
100
AcDbHatch
 10
0.0
 20
0.0
 30
0.0
210
0.0
220
0.0
230
1.0
  2
SOLID
 70
     1
 71
     0
 91
        1
 92
        1
 93
        2
 72
     4
 94
        3
 73
     0
 74
     0
 95
       68
 96
       64
 40
0.0
 40
0.0
 40
0.0
 40
0.0
 40
0.3527780104152769
 40
0.3527780104152769
 40
0.3527780104152769
 40
0.7055560208305538
 40
0.7055560208305538
 40
0.7055560208305538
 40
1.058334031245828
 40
1.058334031245828
 40
1.058334031245828
 40
1.411112041661104
 40
1.411112041661104
 40
1.411112041661104
 40
1.763890052076384
 40
1.763890052076384
 40
1.763890052076384
 40
2.116668062491659
 40
2.116668062491659
 40
2.116668062491659
 40
2.469446072906936
 40
2.469446072906936
 40
2.469446072906936
 40
2.822224083322215
 40
2.822224083322215
 40
2.822224083322215
 40
3.175002093737492
 40
3.175002093737492
 40
3.175002093737492
 40
3.527780104152768
 40
3.527780104152768
 40
3.527780104152768
 40
3.880558114568044
 40
3.880558114568044
 40
3.880558114568044
 40
4.233336124983321
 40
4.233336124983321
 40
4.233336124983321
 40
4.586114135398599
 40
4.586114135398599
 40
4.586114135398599
 40
4.938892145813873
 40
4.938892145813873
 40
4.938892145813873
 40
5.291670156229153
 40
5.291670156229153
 40
5.291670156229153
 40
5.64444816664443
 40
5.64444816664443
 40
5.64444816664443
 40
5.997226177059705
 40
5.997226177059705
 40
5.997226177059705
 40
6.350004187474984
 40
6.350004187474984
 40
6.350004187474984
 40
6.702782197890257
 40
6.702782197890257
 40
6.702782197890257
 40
7.055560208305537
 40
7.055560208305537
 40
7.055560208305537
 40
7.408338218720808
 40
7.408338218720808
 40
7.408338218720808
 40
7.408338218720808
 10
174.7732543591544
 20
135.4846705078077
 10
174.7732543591544
 20
135.4846705078077
 10
174.7732543591544
 20
135.3789060066383
 10
174.7732543591544
 20
135.3789060066383
 10
174.7732543591544
 20
135.3789060066383
 10
174.8156290615773
 20
135.3789060066383
 10
174.8156290615773
 20
135.3789060066383
 10
174.8156290615773
 20
135.3789060066383
 10
174.8580037640002
 20
135.3578909103147
 10
174.8580037640002
 20
135.3578909103147
 10
174.8580037640002
 20
135.3578909103147
 10
174.9213935627468
 20
135.3578909103147
 10
174.9213935627468
 20
135.3578909103147
 10
174.9213935627468
 20
135.3578909103147
 10
174.9637682651697
 20
135.3365313042154
 10
174.9637682651697
 20
135.3365313042154
 10
174.9637682651697
 20
135.3365313042154
 10
174.9847833614933
 20
135.3365313042154
 10
174.9847833614933
 20
135.3365313042154
 10
174.9847833614933
 20
135.3365313042154
 10
175.0271580639162
 20
135.3155162078918
 10
175.0271580639162
 20
135.3155162078918
 10
175.0271580639162
 20
135.3155162078918
 10
175.0485176700155
 20
135.2941566017924
 10
175.0485176700155
 20
135.2941566017924
 10
175.0485176700155
 20
135.2941566017924
 10
175.0695327663391
 20
135.2941566017924
 10
175.0695327663391
 20
135.2941566017924
 10
175.0695327663391
 20
135.2941566017924
 10
175.0908923724385
 20
135.2731415054689
 10
175.0908923724385
 20
135.2731415054689
 10
175.0908923724385
 20
135.2731415054689
 10
175.1332670748614
 20
135.2731415054689
 10
175.1332670748614
 20
135.2731415054689
 10
175.1332670748614
 20
135.2731415054689
 10
175.154282171185
 20
135.2517818993695
 10
175.154282171185
 20
135.2517818993695
 10
175.154282171185
 20
135.2517818993695
 10
175.154282171185
 20
135.3578909103147
 10
175.154282171185
 20
135.3578909103147
 10
175.154282171185
 20
135.3578909103147
 10
175.1332670748614
 20
135.3789060066383
 10
175.1332670748614
 20
135.3789060066383
 10
175.1332670748614
 20
135.3789060066383
 10
175.0908923724385
 20
135.3789060066383
 10
175.0908923724385
 20
135.3789060066383
 10
175.0908923724385
 20
135.3789060066383
 10
175.0908923724385
 20
135.3999211029619
 10
175.0908923724385
 20
135.3999211029619
 10
175.0908923724385
 20
135.3999211029619
 10
175.0695327663391
 20
135.3999211029619
 10
175.0695327663391
 20
135.3999211029619
 10
175.0695327663391
 20
135.3999211029619
 10
175.0271580639162
 20
135.4212807090612
 10
175.0271580639162
 20
135.4212807090612
 10
175.0271580639162
 20
135.4212807090612
 10
175.0061429675926
 20
135.4212807090612
 10
175.0061429675926
 20
135.4212807090612
 10
175.0061429675926
 20
135.4212807090612
 10
174.9637682651697
 20
135.4422958053848
 10
174.9637682651697
 20
135.4422958053848
 10
174.8996894468716
 20
135.4498750204523
 10
174.8394002361073
 20
135.4860485469109
 10
174.7732543591544
 20
135.4846705078077
 72
     1
 10
174.7732543591544
 20
135.4846705078077
 11
174.7732543591544
 21
135.4846705078077
 97
        0
 75
     0
 76
     1
 98
        0
450
        0
451
        0
460
0.0
461
0.0
452
        0
462
0.0
453
        0
470

  0
HATCH
  5
3807
330
1F
100
AcDbEntity
  8
图层 1
 62
     7
100
AcDbHatch
 10
0.0
 20
0.0
 30
0.0
210
0.0
220
0.0
230
1.0
  2
SOLID
 70
     1
 71
     0
 91
        1
 92
        1
 93
        2
 72
     4
 94
        3
 73
     0
 74
     0
 95
       29
 96
       25
 40
0.0
 40
0.0
 40
0.0
 40
0.0
 40
0.3527780104152769
 40
0.3527780104152769
 40
0.3527780104152769
 40
0.7055560208305538
 40
0.7055560208305538
 40
0.7055560208305538
 40
1.058334031245828
 40
1.058334031245828
 40
1.058334031245828
 40
1.411112041661104
 40
1.411112041661104
 40
1.411112041661104
 40
1.763890052076384
 40
1.763890052076384
 40
1.763890052076384
 40
2.116668062491659
 40
2.116668062491659
 40
2.116668062491659
 40
2.469446072906936
 40
2.469446072906936
 40
2.469446072906936
 40
2.822224083322215
 40
2.822224083322215
 40
2.822224083322215
 40
2.822224083322215
 10
175.4929352807925
 20
164.0174869039101
 10
175.4929352807925
 20
164.0174869039101
 10
175.5139503771161
 20
163.9751122014871
 10
175.5139503771161
 20
163.9751122014871
 10
175.5139503771161
 20
163.9751122014871
 10
175.5139503771161
 20
163.9327374990642
 10
175.5139503771161
 20
163.9327374990642
 10
175.5139503771161
 20
163.9327374990642
 10
175.4929352807925
 20
163.8903627966413
 10
175.4929352807925
 20
163.8903627966413
 10
175.4929352807925
 20
163.8903627966413
 10
175.471920184469
 20
163.8691754454298
 10
175.471920184469
 20
163.8691754454298
 10
175.471920184469
 20
163.8691754454298
 10
175.4505605783696
 20
163.8269729978948
 10
175.4505605783696
 20
163.8269729978948
 10
175.3571984291289
 20
163.7715069239916
 10
175.272449024283
 20
163.8195660377152
 10
175.1966568736079
 20
163.8691754454298
 10
175.208370205985
 20
163.9930267098286
 10
175.1563492298397
 20
164.0216210212197
 10
175.2600466723544
 20
164.0596893514451
 10
175.3330827448232
 20
164.1094710140476
 10
175.4357466580104
 20
164.0753645462439
 10
175.4929352807925
 20
164.0174869039101
 72
     1
 10
175.4929352807925
 20
164.0174869039101
 11
175.4929352807925
 21
164.0174869039101
 97
        0
 75
     0
 76
     1
 98
        0
450
        0
451
        0
460
0.0
461
0.0
452
        0
462
0.0
453
        0
470

  0
HATCH
  5
3895
330
1F
100
AcDbEntity
  8
图层 1
 62
     7
100
AcDbHatch
 10
0.0
 20
0.0
 30
0.0
210
0.0
220
0.0
230
1.0
  2
SOLID
 70
     1
 71
     0
 91
        1
 92
        1
 93
        2
 72
     4
 94
        3
 73
     0
 74
     0
 95
       11
 96
        7
 40
0.0
 40
0.0
 40
0.0
 40
0.0
 40
0.3527780104152769
 40
0.3527780104152769
 40
0.3527780104152769
 40
0.7055560208305538
 40
0.7055560208305538
 40
0.7055560208305538
 40
0.7055560208305538
 10
174.9213935627468
 20
174.5369206529582
 10
174.9213935627468
 20
174.5369206529582
 10
174.9213935627468
 20
174.3043765542958
 10
174.9213935627468
 20
174.3043765542958
 10
174.9213935627468
 20
174.3043765542958
 10
174.9213935627468
 20
174.5369206529582
 10
174.9213935627468
 20
174.5369206529582
 72
     1
 10
174.9213935627468
 20
174.5369206529582
 11
174.9213935627468
 21
174.5369206529582
 97
        0
 75
     0
 76
     1
 98
        0
450
        0
451
        0
460
0.0
461
0.0
452
        0
462
0.0
453
        0
470

  0
HATCH
  5
3943
330
1F
100
AcDbEntity
  8
图层 1
 62
     7
100
AcDbHatch
 10
0.0
 20
0.0
 30
0.0
210
0.0
220
0.0
230
1.0
  2
SOLID
 70
     1
 71
     0
 91
        1
 92
        1
 93
        2
 72
     4
 94
        3
 73
     0
 74
     0
 95
      131
 96
      127
 40
0.0
 40
0.0
 40
0.0
 40
0.0
 40
0.3527780104152769
 40
0.3527780104152769
 40
0.3527780104152769
 40
0.7055560208305538
 40
0.7055560208305538
 40
0.7055560208305538
 40
1.058334031245828
 40
1.058334031245828
 40
1.058334031245828
 40
1.411112041661104
 40
1.411112041661104
 40
1.411112041661104
 40
1.763890052076384
 40
1.763890052076384
 40
1.763890052076384
 40
2.116668062491659
 40
2.116668062491659
 40
2.116668062491659
 40
2.469446072906936
 40
2.469446072906936
 40
2.469446072906936
 40
2.822224083322215
 40
2.822224083322215
 40
2.822224083322215
 40
3.175002093737492
 40
3.175002093737492
 40
3.175002093737492
 40
3.527780104152768
 40
3.527780104152768
 40
3.527780104152768
 40
3.880558114568044
 40
3.880558114568044
 40
3.880558114568044
 40
4.233336124983321
 40
4.233336124983321
 40
4.233336124983321
 40
4.586114135398599
 40
4.586114135398599
 40
4.586114135398599
 40
4.938892145813873
 40
4.938892145813873
 40
4.938892145813873
 40
5.291670156229153
 40
5.291670156229153
 40
5.291670156229153
 40
5.64444816664443
 40
5.64444816664443
 40
5.64444816664443
 40
5.997226177059705
 40
5.997226177059705
 40
5.997226177059705
 40
6.350004187474984
 40
6.350004187474984
 40
6.350004187474984
 40
6.702782197890257
 40
6.702782197890257
 40
6.702782197890257
 40
7.055560208305537
 40
7.055560208305537
 40
7.055560208305537
 40
7.408338218720808
 40
7.408338218720808
 40
7.408338218720808
 40
7.76111622913609
 40
7.76111622913609
 40
7.76111622913609
 40
8.113894239551369
 40
8.113894239551369
 40
8.113894239551369
 40
8.466672249966642
 40
8.466672249966642
 40
8.466672249966642
 40
8.819450260381922
 40
8.819450260381922
 40
8.819450260381922
 40
9.172228270797198
 40
9.172228270797198
 40
9.172228270797198
 40
9.525006281212476
 40
9.525006281212476
 40
9.525006281212476
 40
9.877784291627751
 40
9.877784291627751
 40
9.877784291627751
 40
10.23056230204303
 40
10.23056230204303
 40
10.23056230204303
 40
10.58334031245831
 40
10.58334031245831
 40
10.58334031245831
 40
10.93611832287358
 40
10.93611832287358
 40
10.93611832287358
 40
11.28889633328886
 40
11.28889633328886
 40
11.28889633328886
 40
11.64167434370414
 40
11.64167434370414
 40
11.64167434370414
 40
11.99445235411941
 40
11.99445235411941
 40
11.99445235411941
 40
12.34723036453469
 40
12.34723036453469
 40
12.34723036453469
 40
12.70000837494997
 40
12.70000837494997
 40
12.70000837494997
 40
13.05278638536524
 40
13.05278638536524
 40
13.05278638536524
 40
13.40556439578052
 40
13.40556439578052
 40
13.40556439578052
 40
13.7583424061958
 40
13.7583424061958
 40
13.7583424061958
 40
14.11112041661107
 40
14.11112041661107
 40
14.11112041661107
 40
14.46389842702635
 40
14.46389842702635
 40
14.46389842702635
 40
14.81667643744163
 40
14.81667643744163
 40
14.81667643744163
 40
14.81667643744163
 10
173.3972823146245
 20
126.8274843518258
 10
173.3972823146245
 20
126.8274843518258
 10
173.3972823146245
 20
126.7217198506564
 10
173.3972823146245
 20
126.7217198506564
 10
173.3972823146245
 20
126.7217198506564
 10
173.4186419207238
 20
126.7217198506564
 10
173.4186419207238
 20
126.7217198506564
 10
173.4186419207238
 20
126.7217198506564
 10
173.4820317194703
 20
126.7007047543328
 10
173.4820317194703
 20
126.7007047543328
 10
173.4820317194703
 20
126.7007047543328
 10
173.5244064218933
 20
126.6793451482334
 10
173.5244064218933
 20
126.6793451482334
 10
173.5244064218933
 20
126.6793451482334
 10
173.5877962206398
 20
126.6793451482334
 10
173.5877962206398
 20
126.6793451482334
 10
173.5877962206398
 20
126.6793451482334
 10
173.6301709230627
 20
126.6583300519099
 10
173.6301709230627
 20
126.6583300519099
 10
173.7955356154449
 20
126.5911506456296
 10
173.759706598762
 20
126.6380039751379
 10
173.9478089363468
 20
126.5525655507404
 10
173.9478089363468
 20
126.5525655507404
 10
173.9688240326703
 20
126.4464565397952
 10
173.9688240326703
 20
126.4464565397952
 10
173.9688240326703
 20
126.4464565397952
 10
174.0325583411926
 20
126.5101908483175
 10
174.0325583411926
 20
126.5101908483175
 10
174.0325583411926
 20
126.5101908483175
 10
174.0749330436156
 20
126.5101908483175
 10
174.0749330436156
 20
126.5101908483175
 10
174.0749330436156
 20
126.5101908483175
 10
174.1593379386856
 20
126.4678161458946
 10
174.1593379386856
 20
126.4678161458946
 10
174.1593379386856
 20
126.4678161458946
 10
174.180697544785
 20
126.4464565397952
 10
174.180697544785
 20
126.4464565397952
 10
174.2464989119621
 20
126.3982251711837
 10
174.3298702777047
 20
126.3716979184474
 10
174.3922265471239
 20
126.3196769423022
 10
174.608234176548
 20
126.2059887162895
 10
174.7749769080334
 20
126.0278771622029
 10
174.9637682651697
 20
125.8749148217494
 10
174.9637682651697
 20
125.8749148217494
 10
175.0061429675926
 20
125.9172895241723
 10
175.0061429675926
 20
125.9172895241723
 10
174.961356696739
 20
125.9631093243532
 10
174.782211613325
 20
126.1246844092016
 10
174.7308796567315
 20
126.1501781326105
 10
174.7308796567315
 20
126.1501781326105
 10
174.6885049543085
 20
126.1925528350335
 10
174.6885049543085
 20
126.1925528350335
 10
174.6885049543085
 20
126.1925528350335
 10
174.667489857985
 20
126.2349275374564
 10
174.667489857985
 20
126.2349275374564
 10
174.667489857985
 20
126.2349275374564
 10
174.625115155562
 20
126.2559426337799
 10
174.625115155562
 20
126.2559426337799
 10
174.625115155562
 20
126.2559426337799
 10
174.5827404531391
 20
126.2983173362029
 10
174.5827404531391
 20
126.2983173362029
 10
174.5827404531391
 20
126.2983173362029
 10
174.5403657507162
 20
126.3196769423022
 10
174.5403657507162
 20
126.3196769423022
 10
174.5403657507162
 20
126.3196769423022
 10
174.4979910482932
 20
126.3620516447252
 10
174.4979910482932
 20
126.3620516447252
 10
174.4735308542117
 20
126.3875453681341
 10
174.3247026310678
 20
126.4695386947736
 10
174.2864620459544
 20
126.4888312422181
 10
174.2864620459544
 20
126.4888312422181
 10
174.2654469496308
 20
126.5101908483175
 10
174.2654469496308
 20
126.5101908483175
 10
174.2654469496308
 20
126.5101908483175
 10
174.2230722472079
 20
126.5312059446411
 10
174.2230722472079
 20
126.5312059446411
 10
174.2230722472079
 20
126.5312059446411
 10
174.2017126411085
 20
126.5525655507404
 10
174.2017126411085
 20
126.5525655507404
 10
174.2017126411085
 20
126.5525655507404
 10
174.1383228423621
 20
126.573580647064
 10
174.1383228423621
 20
126.573580647064
 10
174.1383228423621
 20
126.573580647064
 10
174.1169632362627
 20
126.5945957433876
 10
174.1169632362627
 20
126.5945957433876
 10
174.1169632362627
 20
126.5945957433876
 10
174.0959481399391
 20
126.7007047543328
 10
174.0959481399391
 20
126.7007047543328
 10
174.0959481399391
 20
126.7007047543328
 10
174.0325583411926
 20
126.6369704458105
 10
174.0325583411926
 20
126.6369704458105
 10
174.0325583411926
 20
126.6369704458105
 10
173.9901836387697
 20
126.6369704458105
 10
173.9901836387697
 20
126.6369704458105
 10
173.9901836387697
 20
126.6369704458105
 10
173.9054342339239
 20
126.6793451482334
 10
173.9054342339239
 20
126.6793451482334
 10
173.9054342339239
 20
126.6793451482334
 10
173.8420444351773
 20
126.7007047543328
 10
173.8420444351773
 20
126.7007047543328
 10
173.8420444351773
 20
126.7007047543328
 10
173.7996697327544
 20
126.7217198506564
 10
173.7996697327544
 20
126.7217198506564
 10
173.7996697327544
 20
126.7217198506564
 10
173.7572950303315
 20
126.7217198506564
 10
173.7572950303315
 20
126.7217198506564
 10
173.7572950303315
 20
126.7217198506564
 10
173.6725456254856
 20
126.7640945530793
 10
173.6725456254856
 20
126.7640945530793
 10
173.6725456254856
 20
126.7640945530793
 10
173.6515305291621
 20
126.7640945530793
 10
173.6515305291621
 20
126.7640945530793
 10
173.6515305291621
 20
126.7640945530793
 10
173.5667811243162
 20
126.7851096494029
 10
173.5667811243162
 20
126.7851096494029
 10
173.5667811243162
 20
126.7851096494029
 10
173.5033913255697
 20
126.8064692555022
 10
173.5033913255697
 20
126.8064692555022
 10
173.5033913255697
 20
126.8064692555022
 10
173.4396570170474
 20
126.8064692555022
 10
173.4396570170474
 20
126.8064692555022
 10
173.4396570170474
 20
126.8064692555022
 10
173.4186419207238
 20
126.8274843518258
 10
173.4186419207238
 20
126.8274843518258
 10
173.4186419207238
 20
126.8274843518258
 10
173.3972823146245
 20
126.8274843518258
 10
173.3972823146245
 20
126.8274843518258
 72
     1
 10
173.3972823146245
 20
126.8274843518258
 11
173.3972823146245
 21
126.8274843518258
 97
        0
 75
     0
 76
     1
 98
        0
450
        0
451
        0
460
0.0
461
0.0
452
        0
462
0.0
453
        0
470

  0
HATCH
  5
4842
330
1F
100
AcDbEntity
  8
图层 1
 62
     7
100
AcDbHatch
 10
0.0
 20
0.0
 30
0.0
210
0.0
220
0.0
230
1.0
  2
SOLID
 70
     1
 71
     0
 91
        1
 92
        1
 93
        2
 72
     4
 94
        3
 73
     0
 74
     0
 95
       47
 96
       43
 40
0.0
 40
0.0
 40
0.0
 40
0.0
 40
0.3527780104152769
 40
0.3527780104152769
 40
0.3527780104152769
 40
0.7055560208305538
 40
0.7055560208305538
 40
0.7055560208305538
 40
1.058334031245828
 40
1.058334031245828
 40
1.058334031245828
 40
1.411112041661104
 40
1.411112041661104
 40
1.411112041661104
 40
1.763890052076384
 40
1.763890052076384
 40
1.763890052076384
 40
2.116668062491659
 40
2.116668062491659
 40
2.116668062491659
 40
2.469446072906936
 40
2.469446072906936
 40
2.469446072906936
 40
2.822224083322215
 40
2.822224083322215
 40
2.822224083322215
 40
3.175002093737492
 40
3.175002093737492
 40
3.175002093737492
 40
3.527780104152768
 40
3.527780104152768
 40
3.527780104152768
 40
3.880558114568044
 40
3.880558114568044
 40
3.880558114568044
 40
4.233336124983321
 40
4.233336124983321
 40
4.233336124983321
 40
4.586114135398599
 40
4.586114135398599
 40
4.586114135398599
 40
4.938892145813873
 40
4.938892145813873
 40
4.938892145813873
 40
4.938892145813873
 10
180.1920486226523
 20
255.6479577566324
 10
180.1920486226523
 20
255.6479577566324
 10
180.2130637189759
 20
255.6055830542095
 10
180.2130637189759
 20
255.6055830542095
 10
180.2130637189759
 20
255.6055830542095
 10
180.2130637189759
 20
255.5210059042515
 10
180.2130637189759
 20
255.5210059042515
 10
180.2130637189759
 20
255.5210059042515
 10
180.1920486226523
 20
255.4786312018286
 10
180.1920486226523
 20
255.4786312018286
 10
180.1920486226523
 20
255.4786312018286
 10
180.1496739202294
 20
255.4359119896299
 10
180.1496739202294
 20
255.4359119896299
 10
180.1496739202294
 20
255.4359119896299
 10
180.1283143141301
 20
255.4147246384184
 10
180.1283143141301
 20
255.4147246384184
 10
180.1283143141301
 20
255.4147246384184
 10
180.0225498129606
 20
255.4147246384184
 10
180.0225498129606
 20
255.4147246384184
 10
180.0225498129606
 20
255.4147246384184
 10
179.9591600142141
 20
255.4359119896299
 10
179.9591600142141
 20
255.4359119896299
 10
179.9591600142141
 20
255.4359119896299
 10
179.9167853117912
 20
255.4570993408414
 10
179.9167853117912
 20
255.4570993408414
 10
179.9167853117912
 20
255.4570993408414
 10
179.8957702154676
 20
255.4786312018286
 10
179.8957702154676
 20
255.4786312018286
 10
179.8957702154676
 20
255.4786312018286
 10
179.8744106093683
 20
255.4994740432643
 10
179.8744106093683
 20
255.4994740432643
 10
179.8744106093683
 20
255.4994740432643
 10
179.8744106093683
 20
255.6479577566324
 10
179.8744106093683
 20
255.6479577566324
 10
179.9608825630931
 20
255.7323626517025
 10
180.045631967939
 20
255.7085914771726
 10
180.1496739202294
 20
255.7115198102668
 10
180.1496739202294
 20
255.7115198102668
 10
180.170689016553
 20
255.6688005980681
 10
180.170689016553
 20
255.6688005980681
 10
180.170689016553
 20
255.6688005980681
 10
180.1920486226523
 20
255.6479577566324
 10
180.1920486226523
 20
255.6479577566324
 72
     1
 10
180.1920486226523
 20
255.6479577566324
 11
180.1920486226523
 21
255.6479577566324
 97
        0
 75
     0
 76
     1
 98
        0
450
        0
451
        0
460
0.0
461
0.0
452
        0
462
0.0
453
        0
470

  0
LINE
  5
12B16
330
1F
100
AcDbEntity
  8
图框
370
    -3
100
AcDbLine
 10
386.2740871491218
 20
279.3691361588869
 30
0.0
 11
397.7343495513529
 21
279.369136158887
 31
0.0
  0
LINE
  5
12B17
330
1F
100
AcDbEntity
  8
图框
370
    -3
100
AcDbLine
 10
363.9652430640867
 20
276.6646917852564
 30
0.0
 11
431.8084998890229
 21
276.6646917852582
 31
0.0
  0
LINE
  5
12B18
330
1F
100
AcDbEntity
  8
图框
370
    -3
100
AcDbLine
 10
363.9652430640866
 20
273.9602474116241
 30
0.0
 11
431.8084998890228
 21
273.9602474116243
 31
0.0
  0
MTEXT
  5
12B19
330
1F
100
AcDbEntity
  8
图框
100
AcDbMText
 10
392.0042183502374
 20
280.721358345772
 30
0.0
 40
1.200004709114095
 41
11.46026240223124
 46
2.704444373770232
 71
     5
 72
     5
  1
{\fFangSong_GB2312|b0|i0|c134|p49;\C4;线径\Fromans|c134;/Wire Gauge}
  7
Romans字体
 73
     1
 44
1.0
1001
ACAD
1000
ACAD_MTEXT_DEFINED_HEIGHT_BEGIN
1070
    46
1040
2.704444373770232
1000
ACAD_MTEXT_DEFINED_HEIGHT_END
  0
LINE
  5
12B1A
330
1F
100
AcDbEntity
  8
图框
370
    -3
100
AcDbLine
 10
363.9652430640865
 20
271.255803037994
 30
0.0
 11
431.8084998890227
 21
271.2558030379938
 31
0.0
  0
MTEXT
  5
12B1C
330
1F
100
AcDbEntity
  8
图框
100
AcDbMText
 10
392.0042183495707
 20
278.0169139720722
 30
0.0
 40
1.200004709114095
 41
11.46026240356494
 46
2.704444373629286
 71
     5
 72
     5
  1
\A1;{\C4;mm\H0.7x;\S2^  ;}
  7
Romans字体
 73
     1
 44
1.0
1001
ACAD
1000
ACAD_MTEXT_DEFINED_HEIGHT_BEGIN
1070
    46
1040
2.704444373629286
1000
ACAD_MTEXT_DEFINED_HEIGHT_END
  0
MTEXT
  5
12B1D
330
1F
100
AcDbEntity
  8
图框
100
AcDbMText
 10
392.0042183495707
 20
275.3124695984408
 30
0.0
 40
1.200004709114095
 41
11.460262403565
 46
2.704444373632776
 71
     5
 72
     5
  1
{\C4;25}
  7
Romans字体
 73
     1
 44
1.0
1001
ACAD
1000
ACAD_MTEXT_DEFINED_HEIGHT_BEGIN
1070
    46
1040
2.704444373632776
1000
ACAD_MTEXT_DEFINED_HEIGHT_END
  0
MTEXT
  5
12B1E
330
1F
100
AcDbEntity
  8
图框
100
AcDbMText
 10
392.0042183495709
 20
272.6080252248091
 30
0.0
 40
1.200004709114095
 41
11.46026240356523
 46
2.704444373630173
 71
     5
 72
     5
  1
{\C4;35}
  7
Romans字体
 73
     1
 44
1.0
1001
ACAD
1000
ACAD_MTEXT_DEFINED_HEIGHT_BEGIN
1070
    46
1040
2.704444373630173
1000
ACAD_MTEXT_DEFINED_HEIGHT_END
  0
MTEXT
  5
12B21
330
1F
100
AcDbEntity
  8
图框
100
AcDbMText
 10
380.2072531496051
 20
279.3690560874694
 30
0.0
 40
1.200004709114095
 41
12.13366799636653
 46
5.408728604425681
 71
     5
 72
     5
  1
{\fFangSong_GB2312|b0|i0|c134|p49;\C4;产品料号\Fromans|c134;\PPart NO.}
  7
Romans字体
 73
     1
 44
1.0
1001
ACAD
1000
ACAD_MTEXT_DEFINED_HEIGHT_BEGIN
1070
    46
1040
5.408728604425681
1000
ACAD_MTEXT_DEFINED_HEIGHT_END
  0
MTEXT
  5
12B22
330
1F
100
AcDbEntity
  8
图框
100
AcDbMText
 10
400.1672532770824
 20
279.3690560874701
 30
0.0
 40
1.200004709114095
 41
4.86580745145943
 46
5.408728604424871
 71
     5
 72
     5
  1
{\C4;D1}
  7
Romans字体
 73
     1
 44
1.0
1001
ACAD
1000
ACAD_MTEXT_DEFINED_HEIGHT_BEGIN
1070
    46
1040
5.408728604424871
1000
ACAD_MTEXT_DEFINED_HEIGHT_END
  0
MTEXT
  5
12B23
330
1F
100
AcDbEntity
  8
图框
100
AcDbMText
 10
369.052831193928
 20
275.31246959844
 30
0.0
 40
1.200004709114095
 41
10.17517591498753
 46
2.7044443736324
 71
     5
 72
     5
  1
{\C4;CHSF200-25}
  7
Romans字体
 73
     1
 44
1.0
1001
ACAD
1000
ACAD_MTEXT_DEFINED_HEIGHT_BEGIN
1070
    46
1040
2.7044443736324
1000
ACAD_MTEXT_DEFINED_HEIGHT_END
  0
MTEXT
  5
12B24
330
1F
100
AcDbEntity
  8
图框
100
AcDbMText
 10
400.1672532770824
 20
275.3124695984408
 30
0.0
 40
1.200004709114095
 41
4.865807451458961
 46
2.704444373633339
 71
     5
 72
     5
  1
{\C4;10}
  7
Romans字体
 73
     1
 44
1.0
1001
ACAD
1000
ACAD_MTEXT_DEFINED_HEIGHT_BEGIN
1070
    46
1040
2.704444373633339
1000
ACAD_MTEXT_DEFINED_HEIGHT_END
  0
MTEXT
  5
12B25
330
1F
100
AcDbEntity
  8
图框
100
AcDbMText
 10
400.1672532770824
 20
272.6080252248089
 30
0.0
 40
1.200004709114095
 41
4.865807451458945
 46
2.704444373630395
 71
     5
 72
     5
  1
{\C4;12.5}
  7
Romans字体
 73
     1
 44
1.0
1001
ACAD
1000
ACAD_MTEXT_DEFINED_HEIGHT_BEGIN
1070
    46
1040
2.704444373630395
1000
ACAD_MTEXT_DEFINED_HEIGHT_END
  0
MTEXT
  5
12B28
330
1F
100
AcDbEntity
  8
图框
100
AcDbMText
 10
409.898868178
 20
279.36905608747
 30
0.0
 40
1.200004709114095
 41
4.865807450125148
 46
5.408728604424871
 71
     5
 72
     5
  1
{\C4;D3}
  7
Romans字体
 73
     1
 44
1.0
1001
ACAD
1000
ACAD_MTEXT_DEFINED_HEIGHT_BEGIN
1070
    46
1040
5.408728604424871
1000
ACAD_MTEXT_DEFINED_HEIGHT_END
  0
MTEXT
  5
12B29
330
1F
100
AcDbEntity
  8
图框
100
AcDbMText
 10
409.898868178
 20
272.6080252248088
 30
0.0
 40
1.200004709114095
 41
4.865807450125021
 46
2.704444373630395
 71
     5
 72
     5
  1
{\C4;10.2}
  7
Romans字体
 73
     1
 44
1.0
1001
ACAD
1000
ACAD_MTEXT_DEFINED_HEIGHT_BEGIN
1070
    46
1040
2.704444373630395
1000
ACAD_MTEXT_DEFINED_HEIGHT_END
  0
MTEXT
  5
12B34
330
1F
100
AcDbEntity
  8
图框
100
AcDbMText
 10
409.898868178
 20
275.3124695984409
 30
0.0
 40
1.200004709114095
 41
4.865807450125195
 46
2.70444437363364
 71
     5
 72
     5
  1
{\C4;9}
  7
Romans字体
 73
     1
 44
1.0
1001
ACAD
1000
ACAD_MTEXT_DEFINED_HEIGHT_BEGIN
1070
    46
1040
2.70444437363364
1000
ACAD_MTEXT_DEFINED_HEIGHT_END
  0
LINE
  5
12C15
330
1F
100
AcDbEntity
  8
图框
370
    35
380
     1
100
AcDbLine
 10
402.6001570028118
 20
282.073580532657
 30
0.0
 11
402.6001570028118
 21
268.5513586643633
 31
0.0
  0
LINE
  5
12C18
330
1F
100
AcDbEntity
  8
图框
370
    -3
100
AcDbLine
 10
374.1404191527553
 20
268.5513586643635
 30
0.0
 11
374.1404191527553
 21
279.3691561660223
 31
0.0
  0
LINE
  5
12C19
330
1F
100
AcDbEntity
  8
图框
370
    -3
100
AcDbLine
 10
386.2740871491218
 20
268.5513586643635
 30
0.0
 11
386.2740871491218
 21
282.0735805326567
 31
0.0
  0
MTEXT
  5
12C1B
330
1F
100
AcDbEntity
  8
图框
100
AcDbMText
 10
392.0042183502378
 20
269.9035808511787
 30
0.0
 40
1.19999583169232
 41
11.46026240223182
 46
2.704444373630331
 71
     5
 72
     5
  1
{\C4;50}
  7
Romans字体
 73
     1
 44
1.0
1001
ACAD
1000
ACAD_MTEXT_DEFINED_HEIGHT_BEGIN
1070
    46
1040
2.704444373630331
1000
ACAD_MTEXT_DEFINED_HEIGHT_END
  0
MTEXT
  5
12C1D
330
1F
100
AcDbEntity
  8
图框
100
AcDbMText
 10
400.1672532777496
 20
269.9035808511786
 30
0.0
 40
1.19999583169232
 41
4.865807450125251
 46
2.704444373630491
 71
     5
 72
     5
  1
{\C4;14.5}
  7
Romans字体
 73
     1
 44
1.0
1001
ACAD
1000
ACAD_MTEXT_DEFINED_HEIGHT_BEGIN
1070
    46
1040
2.704444373630491
1000
ACAD_MTEXT_DEFINED_HEIGHT_END
  0
MTEXT
  5
12C25
330
1F
100
AcDbEntity
  8
图框
100
AcDbMText
 10
409.898868178
 20
269.9035808511784
 30
0.0
 40
1.19999583169232
 41
4.865807450125076
 46
2.704444373630188
 71
     5
 72
     5
  1
{\C4;12}
  7
Romans字体
 73
     1
 44
1.0
1001
ACAD
1000
ACAD_MTEXT_DEFINED_HEIGHT_BEGIN
1070
    46
1040
2.704444373630188
1000
ACAD_MTEXT_DEFINED_HEIGHT_END
  0
LINE
  5
12C31
330
1F
100
AcDbEntity
  8
图框
370
    -3
100
AcDbLine
 10
397.7343495513529
 20
282.0734203896825
 30
0.0
 11
397.7343495513537
 21
268.5513586643634
 31
0.0
  0
LINE
  5
12C33
330
1F
100
AcDbEntity
  8
图框
370
    -3
100
AcDbLine
 10
374.1404191514217
 20
268.5513586643635
 30
0.0
 11
374.1404191514218
 21
282.0734203896823
 31
0.0
  0
LINE
  5
12C34
330
1F
100
AcDbEntity
  8
图框
370
    -3
100
AcDbLine
 10
423.9891773949699
 20
268.5513586643633
 30
0.0
 11
423.9891773949699
 21
282.0734203896837
 31
0.0
  0
LINE
  5
12C46
330
1F
100
AcDbEntity
  8
图框
370
    -3
100
AcDbLine
 10
363.9652430640865
 20
268.5513586643635
 30
0.0
 11
431.8084998890226
 21
268.5513586643633
 31
0.0
  0
MTEXT
  5
12C4B
102
{ACAD_XDICTIONARY
360
15355
102
}
330
1F
100
AcDbEntity
  8
打标文字
 62
     3
100
AcDbMText
 10
478.7914505606146
 20
251.836524932746
 30
0.0
 40
1.5
 41
43.12740902174065
 46
53.91180554791946
 71
     1
 72
     5
  3
\A1;{\f仿宋_GB2312|b0|i0|c134|p49;技术参数}:\P- {\f仿宋_GB2312|b0|i0|c134|p49;材料}: {\f仿宋_GB2312|b0|i0|c134|p49;铜合金}\P- {\f仿宋_GB2312|b0|i0|c134|p49;表面处理}: {\f仿宋_GB2312|b0|i0|c134|p49;镀银}\P- {\f仿宋_GB2312|b0|i0|c134|p49;额定电流}: 200A\P- {\f仿宋_GB2312|b0|i0|c134|p4
  3
9;接触电阻}: ≤0.3mΩ\P- {\f仿宋_GB2312|b0|i0|c134|p49;线径范围}: 25mm{\H0.7x;\S2^ ;}\P- {\f仿宋_GB2312|b0|i0|c134|p49;可插拔次数}: {\f仿宋_GB2312|b0|i0|c134|p49;≥}500\P\PTechnical specification:\P- Material: copper alloy\P- Surface: hard-silver plated\P- Rated current: 2
  1
00A\P- Contact resistance: ≤0.3mΩ\P- Wire gauge: 25mm{\H0.7x;\S2^ ;}\P- Mating cycles: {\f仿宋_GB2312|b0|i0|c134|p49;≥}500
  7
Romans字体
 73
     1
 44
1.0
1001
ACAD
1000
ACAD_MTEXT_DEFINED_HEIGHT_BEGIN
1070
    46
1040
53.91180554791946
1000
ACAD_MTEXT_DEFINED_HEIGHT_END
  0
MTEXT
  5
12C4D
330
1F
100
AcDbEntity
  8
图框
100
AcDbMText
 10
368.5204168638418
 20
279.3691461624544
 30
0.0
 40
1.200004709114095
 41
9.110347254814612
 46
5.408548454455798
 71
     5
 72
     5
  1
{\fFangSong_GB2312|b0|i0|c134|p49;\C4;产品代号\P\Fromans|c134;Part code}
  7
Romans字体
 73
     1
 44
1.0
1001
ACAD
1000
ACAD_MTEXT_DEFINED_HEIGHT_BEGIN
1070
    46
1040
5.408548454455798
1000
ACAD_MTEXT_DEFINED_HEIGHT_END
  0
MTEXT
  5
12C4E
330
1F
100
AcDbEntity
  8
图框
100
AcDbMText
 10
380.2072531509386
 20
275.3124695984401
 30
0.0
 40
1.200004709114095
 41
12.13366799636653
 46
2.704444373632686
 71
     5
 72
     5
  1
{\C4;1010271201601}
  7
Romans字体
 73
     1
 44
1.0
1001
ACAD
1000
ACAD_MTEXT_DEFINED_HEIGHT_BEGIN
1070
    46
1040
2.704444373632686
1000
ACAD_MTEXT_DEFINED_HEIGHT_END
  0
MTEXT
  5
12C4F
330
1F
100
AcDbEntity
  8
图框
100
AcDbMText
 10
380.2072531509386
 20
272.6080252248071
 30
0.0
 40
1.200004709114095
 41
12.13366799636653
 46
2.704444373632686
 71
     5
 72
     5
  1
{\C4;1010271201701}
  7
Romans字体
 73
     1
 44
1.0
1001
ACAD
1000
ACAD_MTEXT_DEFINED_HEIGHT_BEGIN
1070
    46
1040
2.704444373632686
1000
ACAD_MTEXT_DEFINED_HEIGHT_END
  0
MTEXT
  5
12C50
330
1F
100
AcDbEntity
  8
图框
100
AcDbMText
 10
380.2072531509386
 20
269.9035808511767
 30
0.0
 40
1.200004709114095
 41
12.13366799636653
 46
2.704444373632686
 71
     5
 72
     5
  1
{\C4;1010271201801}
  7
Romans字体
 73
     1
 44
1.0
1001
ACAD
1000
ACAD_MTEXT_DEFINED_HEIGHT_BEGIN
1070
    46
1040
2.704444373632686
1000
ACAD_MTEXT_DEFINED_HEIGHT_END
  0
MTEXT
  5
12C56
330
1F
100
AcDbEntity
  8
图框
100
AcDbMText
 10
427.8988386426632
 20
275.3124695984413
 30
0.0
 40
1.200004709114095
 41
7.819322492718905
 46
2.704444373633061
 71
     5
 72
     5
  1
{\C4;30.2}
  7
Romans字体
 73
     1
 44
1.0
1001
ACAD
1000
ACAD_MTEXT_DEFINED_HEIGHT_BEGIN
1070
    46
1040
2.704444373633061
1000
ACAD_MTEXT_DEFINED_HEIGHT_END
  0
MTEXT
  5
12C57
330
1F
100
AcDbEntity
  8
图框
100
AcDbMText
 10
427.8988386419966
 20
280.7212782742858
 30
0.0
 40
1.200004709114095
 41
7.819322494052769
 46
2.704284230795397
 71
     5
 72
     5
  1
{\fFangSong_GB2312|b0|i0|c134|p49;\C4;重量\Fromans|c134;/Weight}
  7
Romans字体
 73
     1
 44
1.0
1001
ACAD
1000
ACAD_MTEXT_DEFINED_HEIGHT_BEGIN
1070
    46
1040
2.704284230795397
1000
ACAD_MTEXT_DEFINED_HEIGHT_END
  0
MTEXT
  5
12C58
330
1F
100
AcDbEntity
  8
图框
100
AcDbMText
 10
427.8988386426633
 20
278.0169139720732
 30
0.0
 40
1.200004709114095
 41
7.819322492718762
 46
2.704444373629943
 71
     5
 72
     5
  1
{\C4;g}
  7
Romans字体
 73
     1
 44
1.0
1001
ACAD
1000
ACAD_MTEXT_DEFINED_HEIGHT_BEGIN
1070
    46
1040
2.704444373629943
1000
ACAD_MTEXT_DEFINED_HEIGHT_END
  0
LINE
  5
12C59
330
1F
100
AcDbEntity
  8
图框
370
    -3
100
AcDbLine
 10
431.8084998890229
 20
282.0734203896835
 30
0.0
 11
431.8084998890226
 21
268.5513586643633
 31
0.0
  0
MTEXT
  5
12C5A
330
1F
100
AcDbEntity
  8
图框
100
AcDbMText
 10
427.8988386426632
 20
272.6080252248083
 30
0.0
 40
1.200004709114095
 41
7.819322492718905
 46
2.704444373633061
 71
     5
 72
     5
  1
{\C4;32.6}
  7
Romans字体
 73
     1
 44
1.0
1001
ACAD
1000
ACAD_MTEXT_DEFINED_HEIGHT_BEGIN
1070
    46
1040
2.704444373633061
1000
ACAD_MTEXT_DEFINED_HEIGHT_END
  0
MTEXT
  5
12C5B
330
1F
100
AcDbEntity
  8
图框
100
AcDbMText
 10
427.8988386426632
 20
269.903580851178
 30
0.0
 40
1.200004709114095
 41
7.819322492718905
 46
2.704444373633061
 71
     5
 72
     5
  1
{\C4;33}
  7
Romans字体
 73
     1
 44
1.0
1001
ACAD
1000
ACAD_MTEXT_DEFINED_HEIGHT_BEGIN
1070
    46
1040
2.704444373633061
1000
ACAD_MTEXT_DEFINED_HEIGHT_END
  0
LINE
  5
12C63
330
1F
100
AcDbEntity
  8
图框
 62
     1
100
AcDbLine
 10
508.9730686188461
 20
282.0735805324943
 30
0.0
 11
508.9730686188461
 21
262.5438243029781
 31
0.0
  0
MTEXT
  5
13003
330
1F
100
AcDbEntity
  8
图框
100
AcDbMText
 10
418.1604746490161
 20
279.36905608747
 30
0.0
 40
1.199999999999999
 41
11.65740549190757
 46
5.408728604424518
 71
     5
 72
     5
  1
{\fFangSong_GB2312|b0|i0|c134|p49;\C4;剥线长度\Fromans|c134;\PStripping length}
  7
Romans字体
 73
     1
 44
1.0
1001
ACAD
1000
ACAD_MTEXT_DEFINED_HEIGHT_BEGIN
1070
    46
1040
5.408728604424518
1000
ACAD_MTEXT_DEFINED_HEIGHT_END
  0
LINE
  5
13093
330
1F
100
AcDbEntity
  8
图框
 62
     1
370
    18
100
AcDbLine
 10
362.2152432364329
 20
289.5734203896823
 30
0.0
 11
510.7146182042826
 21
289.5734203896823
 31
0.0
1001
AcDbBlockRepETag
1070
     1
1071
      143
1005
13093
  0
LINE
  5
1309A
330
1F
100
AcDbEntity
  8
图框
370
    35
380
     1
100
AcDbLine
 10
412.3317719030621
 20
282.0734203896824
 30
0.0
 11
412.3317719030621
 21
268.5513586643633
 31
0.0
  0
MTEXT
  5
1309B
330
1F
100
AcDbEntity
  8
图框
100
AcDbMText
 10
418.1604746490161
 20
275.3124695984411
 30
0.0
 40
1.200004709114095
 41
11.65740549190751
 46
2.70444437363364
 71
     5
 72
     5
  1
{\C4;22.5}
  7
Romans字体
 73
     1
 44
1.0
1001
ACAD
1000
ACAD_MTEXT_DEFINED_HEIGHT_BEGIN
1070
    46
1040
2.70444437363364
1000
ACAD_MTEXT_DEFINED_HEIGHT_END
  0
MTEXT
  5
1309C
330
1F
100
AcDbEntity
  8
图框
100
AcDbMText
 10
418.1604746490161
 20
272.6080252248074
 30
0.0
 40
1.200004709114095
 41
11.65740549190751
 46
2.704444373633473
 71
     5
 72
     5
  1
{\C4;22.5}
  7
Romans字体
 73
     1
 44
1.0
1001
ACAD
1000
ACAD_MTEXT_DEFINED_HEIGHT_BEGIN
1070
    46
1040
2.704444373633473
1000
ACAD_MTEXT_DEFINED_HEIGHT_END
  0
MTEXT
  5
1309D
330
1F
100
AcDbEntity
  8
图框
100
AcDbMText
 10
418.1604746490161
 20
269.9035808511769
 30
0.0
 40
1.200004709114095
 41
11.65740549190751
 46
2.704444373633473
 71
     5
 72
     5
  1
{\C4;22.5}
  7
Romans字体
 73
     1
 44
1.0
1001
ACAD
1000
ACAD_MTEXT_DEFINED_HEIGHT_BEGIN
1070
    46
1040
2.704444373633473
1000
ACAD_MTEXT_DEFINED_HEIGHT_END
  0
MTEXT
  5
13EBA
330
1F
100
AcDbEntity
  8
图框
 62
     3
100
AcDbMText
 10
500.5699706088269
 20
203.270449343129
 30
0.0
 40
1.492756789270166
 41
16.80619601594785
 46
4.343372757943781
 71
     5
 72
     5
  1
CHSF200-25
  7
Romans字体
 73
     1
 44
1.0
1001
ACAD
1000
ACAD_MTEXT_DEFINED_HEIGHT_BEGIN
1070
    46
1040
4.343372757943781
1000
ACAD_MTEXT_DEFINED_HEIGHT_END
  0
MTEXT
  5
13EBB
330
1F
100
AcDbEntity
  8
图框
 62
     3
100
AcDbMText
 10
500.5699706088269
 20
198.8807240745606
 30
0.0
 40
1.492756789270166
 41
16.80619601594785
 46
4.436077779192771
 71
     5
 72
     5
  1
1010271201601
  7
Romans字体
 73
     1
 44
1.0
1001
ACAD
1000
ACAD_MTEXT_DEFINED_HEIGHT_BEGIN
1070
    46
1040
4.436077779192771
1000
ACAD_MTEXT_DEFINED_HEIGHT_END
  0
MTEXT
  5
13EBC
330
1F
100
AcDbEntity
  8
图框
 62
     3
100
AcDbMText
 10
466.5431381035733
 20
192.2269065273738
 30
0.0
 40
1.492756789270166
 41
5.414674223554219
 46
3.943047305235955
 71
     5
 72
     5
  1
2:1 
  7
Romans字体
 73
     1
 44
1.0
1001
ACAD
1000
ACAD_MTEXT_DEFINED_HEIGHT_BEGIN
1070
    46
1040
3.943047305235955
1000
ACAD_MTEXT_DEFINED_HEIGHT_END
  0
MTEXT
  5
13EBD
330
1F
100
AcDbEntity
  8
图框
 62
     3
100
AcDbMText
 10
477.3724865506828
 20
192.2269065273739
 30
0.0
 40
1.492756789270166
 41
5.414674223555065
 46
3.943047305235904
 71
     5
 72
     5
  1
30.2g 
  7
Romans字体
 73
     1
 44
1.0
1001
ACAD
1000
ACAD_MTEXT_DEFINED_HEIGHT_BEGIN
1070
    46
1040
3.943047305235904
1000
ACAD_MTEXT_DEFINED_HEIGHT_END
  0
INSERT
  5
13EBE
330
1F
100
AcDbEntity
  8
DIM
100
AcDbBlockReference
  2
A4图框-NEW
 10
-54.49118335011199
 20
-55.69396471345189
 30
0.0
 41
0.5000000005871926
 42
0.5000000005871926
 43
0.5000000005871991
  0
MTEXT
  5
14A8A
330
1F
100
AcDbEntity
  8
图框
100
AcDbMText
 10
369.052831193928
 20
272.6080252248077
 30
0.0
 40
1.200004709114095
 41
10.17517591498753
 46
2.7044443736324
 71
     5
 72
     5
  1
{\C4;CHSF200-35}
  7
Romans字体
 73
     1
 44
1.0
1001
ACAD
1000
ACAD_MTEXT_DEFINED_HEIGHT_BEGIN
1070
    46
1040
2.7044443736324
1000
ACAD_MTEXT_DEFINED_HEIGHT_END
  0
MTEXT
  5
14A8B
330
1F
100
AcDbEntity
  8
图框
100
AcDbMText
 10
369.0528311939278
 20
269.9035808511776
 30
0.0
 40
1.200004709114095
 41
10.17517591498753
 46
2.7044443736324
 71
     5
 72
     5
  1
{\C4;CHSF200-50}
  7
Romans字体
 73
     1
 44
1.0
1001
ACAD
1000
ACAD_MTEXT_DEFINED_HEIGHT_BEGIN
1070
    46
1040
2.7044443736324
1000
ACAD_MTEXT_DEFINED_HEIGHT_END
  0
LINE
  5
14C5F
330
1F
100
AcDbEntity
  8
图框
370
    -3
100
AcDbLine
 10
423.9891773949699
 20
279.3691361588869
 30
0.0
 11
431.8084998890229
 21
279.3691361588869
 31
0.0
  0
LINE
  5
14C60
330
1F
100
AcDbEntity
  8
图框
370
    35
380
     1
100
AcDbLine
 10
407.4659644542711
 20
282.073580532657
 30
0.0
 11
407.4659644542711
 21
268.5513586643633
 31
0.0
  0
MTEXT
  5
14C61
330
1F
100
AcDbEntity
  8
图框
100
AcDbMText
 10
405.033060729209
 20
279.3690560874701
 30
0.0
 40
1.200004709114095
 41
4.865807450125148
 46
5.408728604424871
 71
     5
 72
     5
  1
{\C4;D2}
  7
Romans字体
 73
     1
 44
1.0
1001
ACAD
1000
ACAD_MTEXT_DEFINED_HEIGHT_BEGIN
1070
    46
1040
5.408728604424871
1000
ACAD_MTEXT_DEFINED_HEIGHT_END
  0
MTEXT
  5
14C62
330
1F
100
AcDbEntity
  8
图框
100
AcDbMText
 10
405.033060729209
 20
272.6080252248089
 30
0.0
 40
1.200004709114095
 41
4.865807450125021
 46
2.704444373630395
 71
     5
 72
     5
  1
{\C4;8.2}
  7
Romans字体
 73
     1
 44
1.0
1001
ACAD
1000
ACAD_MTEXT_DEFINED_HEIGHT_BEGIN
1070
    46
1040
2.704444373630395
1000
ACAD_MTEXT_DEFINED_HEIGHT_END
  0
MTEXT
  5
14C63
330
1F
100
AcDbEntity
  8
图框
100
AcDbMText
 10
405.033060729209
 20
275.312469598441
 30
0.0
 40
1.200004709114095
 41
4.865807450125195
 46
2.70444437363364
 71
     5
 72
     5
  1
{\C4;7}
  7
Romans字体
 73
     1
 44
1.0
1001
ACAD
1000
ACAD_MTEXT_DEFINED_HEIGHT_BEGIN
1070
    46
1040
2.70444437363364
1000
ACAD_MTEXT_DEFINED_HEIGHT_END
  0
MTEXT
  5
14C64
330
1F
100
AcDbEntity
  8
图框
100
AcDbMText
 10
405.033060729209
 20
269.9035808511785
 30
0.0
 40
1.19999583169232
 41
4.865807450125076
 46
2.704444373630188
 71
     5
 72
     5
  1
{\C4;10}
  7
Romans字体
 73
     1
 44
1.0
1001
ACAD
1000
ACAD_MTEXT_DEFINED_HEIGHT_BEGIN
1070
    46
1040
2.704444373630188
1000
ACAD_MTEXT_DEFINED_HEIGHT_END
  0
DIMENSION
  5
14F63
330
1F
100
AcDbEntity
  8
DIM
100
AcDbDimension
  2
*D2
 10
392.0229059607791
 20
236.0966400830858
 30
0.0
 11
390.4729059607788
 21
242.0966400830859
 31
0.0
 70
    32
  1
%%CD3
 71
     5
 42
12.0
 73
     0
 74
     0
 75
     0
  3
01
100
AcDbAlignedDimension
 13
399.4231181027051
 23
248.0966400830858
 33
0.0
 14
399.4231181027051
 24
236.0966400830858
 34
0.0
 50
90.0
100
AcDbRotatedDimension
  0
DIMENSION
  5
14F64
330
1F
100
AcDbEntity
  8
DIM
100
AcDbDimension
  2
*D3
 10
396.4480758573336
 20
237.0966400830858
 30
0.0
 11
394.8980758573334
 21
242.0966400830859
 31
0.0
 70
    32
  1
%%CD2
 71
     5
 42
10.0
 73
     0
 74
     0
 75
     0
  3
01
100
AcDbAlignedDimension
 13
401.5255376803906
 23
247.0966400830858
 33
0.0
 14
401.155168910306
 24
237.0966400830858
 34
0.0
 50
90.0
100
AcDbRotatedDimension
  0
DIMENSION
  5
14F65
330
1F
100
AcDbEntity
  8
DIM
100
AcDbDimension
  2
*D4
 10
410.3231181027165
 20
234.8466400830858
 30
0.0
 11
408.7731181027165
 21
242.0966400830859
 31
0.0
 70
    32
  1
%%CD1
 71
     5
 42
14.5
 73
     0
 74
     0
 75
     0
  3
01
100
AcDbAlignedDimension
 13
408.4940064431192
 23
249.3466400830858
 33
0.0
 14
410.3231181027048
 24
234.8466400830858
 34
0.0
 50
90.0
100
AcDbRotatedDimension
  0
LINE
  5
14F6E
330
1F
100
AcDbEntity
  8
CEN
 48
2.0
100
AcDbLine
 10
397.7225969293712
 20
242.0966400830858
 30
0.0
 11
406.6684406765051
 21
242.0966400830858
 31
0.0
  0
LINE
  5
14F6F
330
1F
100
AcDbEntity
  8
CEN
 48
2.0
100
AcDbLine
 10
410.4662045041957
 20
242.0966400830858
 30
0.0
 11
445.0231181027056
 21
242.0966400830858
 31
0.0
  0
LINE
  5
14F70
330
1F
100
AcDbEntity
  8
CEN
 48
2.0
100
AcDbLine
 10
420.9231181027051
 20
245.0457276364141
 30
0.0
 11
420.9231181027051
 21
251.4174143950827
 31
0.0
  0
LINE
  5
14F71
330
1F
100
AcDbEntity
  8
0
  6
Continuous
 62
     7
100
AcDbLine
 10
421.9231181027051
 20
247.0966400830858
 30
0.0
 11
421.9231181027051
 21
250.0466400830856
 31
0.0
  0
LINE
  5
14F72
330
1F
100
AcDbEntity
  8
0
  6
Continuous
 62
     7
100
AcDbLine
 10
421.9231181027051
 20
250.0466400830856
 30
0.0
 11
422.4231181027051
 21
250.0466400830856
 31
0.0
  0
LINE
  5
14F73
330
1F
100
AcDbEntity
  8
0
  6
Continuous
 62
     7
100
AcDbLine
 10
422.4231181027051
 20
251.0966400830858
 30
0.0
 11
422.4231181027051
 21
250.0466400830856
 31
0.0
  0
LINE
  5
14F74
330
1F
100
AcDbEntity
  8
0
  6
Continuous
 62
     7
100
AcDbLine
 10
422.4231181027051
 20
251.0966400830858
 30
0.0
 11
426.2231181027043
 21
251.0966400830858
 31
0.0
  0
LINE
  5
14F75
330
1F
100
AcDbEntity
  8
0
  6
Continuous
 62
     7
100
AcDbLine
 10
426.2231181027043
 20
251.0966400830858
 30
0.0
 11
427.2231181027044
 21
250.0966400830858
 31
0.0
  0
LINE
  5
14F76
330
1F
100
AcDbEntity
  8
0
  6
Continuous
 62
     7
100
AcDbLine
 10
427.2231181027044
 20
250.0966400830858
 30
0.0
 11
427.2231181027044
 21
248.5966400830858
 31
0.0
  0
LINE
  5
14F77
330
1F
100
AcDbEntity
  8
0
  6
Continuous
 62
     7
100
AcDbLine
 10
425.9231181027051
 20
247.0966400830858
 30
0.0
 11
427.2231181027044
 21
247.0966400830858
 31
0.0
  0
LINE
  5
14F78
330
1F
100
AcDbEntity
  8
0
  6
Continuous
 62
     7
100
AcDbLine
 10
424.7684175643541
 20
245.0966400830858
 30
0.0
 11
425.9231181027051
 21
247.0966400830858
 31
0.0
  0
LINE
  5
14F79
330
1F
100
AcDbEntity
  8
0
  6
Continuous
 62
     7
100
AcDbLine
 10
423.0778186411049
 20
245.0966400830858
 30
0.0
 11
424.7684175643541
 21
245.0966400830858
 31
0.0
  0
LINE
  5
14F7A
330
1F
100
AcDbEntity
  8
0
  6
Continuous
 62
     7
100
AcDbLine
 10
421.9231181027051
 20
247.0966400830858
 30
0.0
 11
423.0778186411049
 21
245.0966400830858
 31
0.0
  0
LINE
  5
14F7B
330
1F
100
AcDbEntity
  8
0
  6
Continuous
 62
     7
100
AcDbLine
 10
399.4231181027051
 20
233.3466400830858
 30
0.0
 11
400.4231181027051
 21
233.3466400830858
 31
0.0
  0
LINE
  5
14F7C
330
1F
100
AcDbEntity
  8
0
  6
Continuous
 62
     7
100
AcDbLine
 10
399.4231181027051
 20
236.0966400830858
 30
0.0
 11
399.4231181027051
 21
233.3466400830858
 31
0.0
  0
LINE
  5
14F7D
330
1F
100
AcDbEntity
  8
0
  6
Continuous
 62
     7
100
AcDbLine
 10
399.4231181027051
 20
236.0966400830858
 30
0.0
 11
401.1551689103042
 21
237.0966400830858
 31
0.0
  0
LINE
  5
14F7E
330
1F
100
AcDbEntity
  8
0
  6
Continuous
 62
     7
100
AcDbLine
 10
401.1551689103042
 20
237.0966400830858
 30
0.0
 11
421.9231181027051
 21
237.0966400830858
 31
0.0
  0
LINE
  5
14F7F
330
1F
100
AcDbEntity
  8
0
  6
Continuous
 62
     7
100
AcDbLine
 10
421.9231181027051
 20
237.0966400830858
 30
0.0
 11
423.0778186411049
 21
239.0966400830858
 31
0.0
  0
LINE
  5
14F80
330
1F
100
AcDbEntity
  8
0
  6
Continuous
 62
     7
100
AcDbLine
 10
423.0778186411049
 20
239.0966400830858
 30
0.0
 11
424.7684175643541
 21
239.0966400830858
 31
0.0
  0
LINE
  5
14F81
330
1F
100
AcDbEntity
  8
0
  6
Continuous
 62
     7
100
AcDbLine
 10
424.7684175643541
 20
239.0966400830858
 30
0.0
 11
425.9231181027051
 21
237.0966400830858
 31
0.0
  0
LINE
  5
14F82
330
1F
100
AcDbEntity
  8
0
  6
Continuous
 62
     7
100
AcDbLine
 10
425.9231181027051
 20
237.0966400830858
 30
0.0
 11
427.2231181027044
 21
237.0966400830858
 31
0.0
  0
LINE
  5
14F83
330
1F
100
AcDbEntity
  8
0
  6
Continuous
 62
     7
100
AcDbLine
 10
427.2231181027044
 20
235.5966400830858
 30
0.0
 11
427.2231181027044
 21
234.0966400830858
 31
0.0
  0
LINE
  5
14F84
330
1F
100
AcDbEntity
  8
0
  6
Continuous
 62
     7
100
AcDbLine
 10
426.2231181027043
 20
233.0966400830858
 30
0.0
 11
427.2231181027044
 21
234.0966400830858
 31
0.0
  0
LINE
  5
14F85
330
1F
100
AcDbEntity
  8
0
  6
Continuous
 62
     7
100
AcDbLine
 10
422.4231181027051
 20
233.0966400830858
 30
0.0
 11
426.2231181027043
 21
233.0966400830858
 31
0.0
  0
LINE
  5
14F86
330
1F
100
AcDbEntity
  8
0
  6
Continuous
 62
     7
100
AcDbLine
 10
422.4231181027051
 20
234.146640083086
 30
0.0
 11
422.4231181027051
 21
233.0966400830858
 31
0.0
  0
LINE
  5
14F87
330
1F
100
AcDbEntity
  8
0
  6
Continuous
 62
     7
100
AcDbLine
 10
419.4231181027051
 20
234.146640083086
 30
0.0
 11
422.4231181027051
 21
234.146640083086
 31
0.0
  0
LINE
  5
14F88
330
1F
100
AcDbEntity
  8
0
  6
Continuous
 62
     7
100
AcDbLine
 10
418.7231181027042
 20
234.8466400830858
 30
0.0
 11
419.4231181027051
 21
234.146640083086
 31
0.0
  0
LINE
  5
14F89
330
1F
100
AcDbEntity
  8
0
  6
Continuous
 62
     7
100
AcDbLine
 10
401.9231181027051
 20
234.8466400830858
 30
0.0
 11
418.7231181027042
 21
234.8466400830858
 31
0.0
  0
LINE
  5
14F8A
330
1F
100
AcDbEntity
  8
0
  6
Continuous
 62
     7
100
AcDbLine
 10
400.4231181027051
 20
233.3466400830858
 30
0.0
 11
401.9231181027051
 21
234.8466400830858
 31
0.0
  0
LINE
  5
14F8B
330
1F
100
AcDbEntity
  8
0
  6
Continuous
 62
     7
100
AcDbLine
 10
399.4231181027051
 20
250.8466400830858
 30
0.0
 11
399.4231181027051
 21
248.0966400830858
 31
0.0
  0
LINE
  5
14F8C
330
1F
100
AcDbEntity
  8
0
  6
Continuous
 62
     7
100
AcDbLine
 10
399.4231181027051
 20
250.8466400830858
 30
0.0
 11
400.4231181027051
 21
250.8466400830858
 31
0.0
  0
LINE
  5
14F8D
330
1F
100
AcDbEntity
  8
0
  6
Continuous
 62
     7
100
AcDbLine
 10
400.4231181027051
 20
250.8466400830858
 30
0.0
 11
401.9231181027051
 21
249.3466400830858
 31
0.0
  0
LINE
  5
14F8E
330
1F
100
AcDbEntity
  8
0
  6
Continuous
 62
     7
100
AcDbLine
 10
401.9231181027051
 20
249.3466400830858
 30
0.0
 11
418.7231181027042
 21
249.3466400830858
 31
0.0
  0
LINE
  5
14F8F
330
1F
100
AcDbEntity
  8
0
  6
Continuous
 62
     7
100
AcDbLine
 10
418.7231181027042
 20
249.3466400830858
 30
0.0
 11
419.4231181027051
 21
250.0466400830856
 31
0.0
  0
LINE
  5
14F90
330
1F
100
AcDbEntity
  8
0
  6
Continuous
 62
     7
100
AcDbLine
 10
419.4231181027051
 20
250.0466400830856
 30
0.0
 11
419.9231181027051
 21
250.0466400830856
 31
0.0
  0
LINE
  5
14F91
330
1F
100
AcDbEntity
  8
0
  6
Continuous
 62
     7
100
AcDbLine
 10
419.9231181027051
 20
247.0966400830858
 30
0.0
 11
419.9231181027051
 21
250.0466400830856
 31
0.0
  0
LINE
  5
14F92
330
1F
100
AcDbEntity
  8
0
  6
Continuous
 62
     7
100
AcDbLine
 10
401.1551689103042
 20
247.0966400830858
 30
0.0
 11
419.9231181027051
 21
247.0966400830858
 31
0.0
  0
LINE
  5
14F93
330
1F
100
AcDbEntity
  8
0
  6
Continuous
 62
     7
100
AcDbLine
 10
399.4231181027051
 20
248.0966400830858
 30
0.0
 11
401.1551689103042
 21
247.0966400830858
 31
0.0
  0
HATCH
  5
14F94
330
1F
100
AcDbEntity
  8
hat
100
AcDbHatch
 10
0.0
 20
0.0
 30
0.0
210
0.0
220
0.0
230
1.0
  2
ANSI31
 70
     0
 71
     1
 91
        3
 92
        5
 93
       24
 72
     1
 10
401.1551689103042
 20
237.0966400830858
 11
399.4231181027051
 21
236.0966400830858
 72
     1
 10
399.4231181027051
 20
236.0966400830858
 11
399.4231181027051
 21
233.3466400830858
 72
     1
 10
399.4231181027051
 20
233.3466400830858
 11
400.4231181027051
 21
233.3466400830858
 72
     1
 10
400.4231181027051
 20
233.3466400830858
 11
401.9231181027051
 21
234.8466400830858
 72
     1
 10
401.9231181027051
 20
234.8466400830858
 11
418.7231181027042
 21
234.8466400830858
 72
     1
 10
418.7231181027042
 20
234.8466400830858
 11
419.4231181027051
 21
234.146640083086
 72
     1
 10
419.4231181027051
 20
234.146640083086
 11
422.4231181027051
 21
234.146640083086
 72
     1
 10
422.4231181027051
 20
234.146640083086
 11
422.4231181027051
 21
233.0966400830858
 72
     1
 10
422.4231181027051
 20
233.0966400830858
 11
426.2231181027043
 21
233.0966400830858
 72
     1
 10
426.2231181027043
 20
233.0966400830858
 11
427.2231181027044
 21
234.0966400830859
 72
     1
 10
427.2231181027044
 20
234.0966400830859
 11
427.2231181027044
 21
235.5966400830862
 72
     1
 10
427.2231181027044
 20
235.5966400830862
 11
436.9125254748039
 21
235.5966400830862
 72
     1
 10
436.9125254748039
 20
235.5966400830862
 11
440.0649600169039
 21
235.7627305763859
 72
     1
 10
440.0649600169039
 20
235.7627305763859
 11
445.0231181027056
 21
236.2866400830863
 72
     1
 10
445.0231181027056
 20
236.2866400830863
 11
445.0231181027056
 21
236.5949908404861
 72
     1
 10
445.0231181027056
 20
236.5949908404861
 11
444.6574515233051
 21
236.9240545664863
 72
     4
 94
        3
 73
     1
 74
     0
 95
        8
 96
        4
 40
0.0
 40
0.0
 40
0.0
 40
0.0
 40
1.0
 40
1.0
 40
1.0
 40
1.0
 10
444.657451523305
 20
236.9240545664862
 42
1.0
 10
444.1225442758049
 20
237.405418141686
 42
0.9423259587
 10
443.4380631223056
 20
237.6275041733857
 42
0.9423259587
 10
442.7224384458049
 20
237.5518868644859
 42
1.0
 72
     1
 10
442.7224384458048
 20
237.5518868644859
 11
438.4140884713038
 21
237.0966400830862
 72
     1
 10
438.4140884713038
 20
237.0966400830862
 11
427.2231181027044
 21
237.0966400830862
 72
     1
 10
427.2231181027044
 20
237.0966400830862
 11
425.9231181027051
 21
237.0966400830858
 72
     1
 10
425.9231181027051
 20
237.0966400830858
 11
424.7684175643541
 21
239.0966400830858
 72
     1
 10
424.7684175643541
 20
239.0966400830858
 11
423.0778186411049
 21
239.0966400830858
 72
     1
 10
423.0778186411049
 20
239.0966400830858
 11
421.9231181027051
 21
237.0966400830858
 72
     1
 10
421.9231181027051
 20
237.0966400830858
 11
401.1551689103042
 21
237.0966400830858
 97
       24
330
14FF5
330
14FE5
330
14FBF
330
14FD0
330
14FD3
330
14FA1
330
14FAA
330
14FA4
330
14FAC
330
14FA0
330
14F9F
330
14F95
330
14F99
330
14F97
330
14F9D
330
14F9E
330
14F9A
330
14FA7
330
14F98
330
14FB7
330
14FDA
330
14FD2
330
14FD1
330
14FCF
 92
       23
 72
     0
 73
     1
 93
        9
 10
419.9231181027051
 20
247.0966400830858
 10
419.923118102705
 20
250.0466400830856
 10
419.4231181027051
 20
250.0466400830856
 10
418.7231181027042
 20
249.3466400830858
 10
401.923118102705
 20
249.3466400830858
 10
400.4231181027051
 20
250.8466400830858
 10
399.4231181027051
 20
250.8466400830859
 10
399.4231181027051
 20
248.0966400830858
 10
401.1551689103042
 20
247.0966400830858
 97
        9
330
14FB5
330
14F9C
330
14FB4
330
14F9B
330
14FB8
330
14F95
330
14FA2
330
14FB2
330
14FA3
 92
       23
 72
     1
 73
     1
 93
       18
 10
436.9125254752981
 20
248.5966400830862
 42
-0.0263249545303837
 10
440.0649600169042
 20
248.4305495898862
 42
0.0
 10
445.0231181027056
 20
247.9066400830863
 42
0.0
 10
445.0231181027056
 20
247.5982893257861
 42
0.0
 10
444.657451523305
 20
247.2692255996863
 42
-0.2126291699385958
 10
442.7224384458049
 20
246.6413933017862
 42
0.0
 10
438.414088471304
 20
247.0966400830858
 42
0.0
 10
427.2231181027044
 20
247.0966400830858
 42
0.0
 10
425.9231181027051
 20
247.0966400830858
 42
0.0
 10
424.7684175643541
 20
245.0966400830858
 42
0.0
 10
423.0778186411049
 20
245.0966400830858
 42
0.0
 10
421.9231181027049
 20
247.0966400830858
 42
0.0
 10
421.9231181027051
 20
250.0466400830856
 42
0.0
 10
422.4231181027051
 20
250.0466400830857
 42
0.0
 10
422.4231181027051
 20
251.0966400830858
 42
0.0
 10
426.2231181027043
 20
251.0966400830858
 42
0.0
 10
427.2231181027044
 20
250.0966400830858
 42
0.0
 10
427.2231181027042
 20
248.5966400830858
 42
0.0
 97
       18
330
14FBA
330
14FB9
330
14FA6
330
14FB6
330
14FA5
330
14FAE
330
14FAD
330
14FA9
330
14FB3
330
14FDD
330
14FDF
330
14FF9
330
14FE4
330
14FF4
330
14FE0
330
14FF7
330
14FDE
330
14FC6
 75
     0
 76
     1
 52
0.0
 41
8.0
 77
     0
 78
     1
 53
45.0
 43
80.15286494249858
 44
-68.89116280639649
 45
-0.7071067811865475
 46
0.7071067811865476
 79
     0
 47
0.0535288399502468
 98
        3
 10
419.5237850221626
 20
236.1336865167128
 10
417.5950899301885
 20
248.1241474291219
 10
424.6669666551651
 20
248.7129650797192
1001
ACAD
1010
0.0
1020
0.0
1030
0.0
  0
LINE
  5
14F95
102
{ACAD_REACTORS
330
14F94
330
150B9
102
}
330
1F
100
AcDbEntity
  8
0
  6
Continuous
 62
     7
100
AcDbLine
 10
399.4231181027051
 20
233.3466400830858
 30
0.0
 11
399.4231181027051
 21
250.8466400830858
 31
0.0
  0
LINE
  5
14F96
330
1F
100
AcDbEntity
  8
0
  6
Continuous
 62
     7
100
AcDbLine
 10
401.1551689103042
 20
237.0966400830858
 30
0.0
 11
401.1551689103042
 21
247.0966400830858
 31
0.0
  0
LINE
  5
14F97
102
{ACAD_REACTORS
330
14F94
102
}
330
1F
100
AcDbEntity
  8
0
  6
Continuous
 62
     7
100
AcDbLine
 10
400.4231181027051
 20
233.3466400830858
 30
0.0
 11
401.9231181027051
 21
234.8466400830858
 31
0.0
  0
LINE
  5
14F98
102
{ACAD_REACTORS
330
14F94
102
}
330
1F
100
AcDbEntity
  8
0
  6
Continuous
 62
     7
100
AcDbLine
 10
422.4231181027051
 20
233.0966400830858
 30
0.0
 11
426.2231181027043
 21
233.0966400830858
 31
0.0
  0
LINE
  5
14F99
102
{ACAD_REACTORS
330
14F94
330
150B6
102
}
330
1F
100
AcDbEntity
  8
0
  6
Continuous
 62
     7
100
AcDbLine
 10
399.4231181027051
 20
233.3466400830858
 30
0.0
 11
400.4231181027051
 21
233.3466400830858
 31
0.0
  0
LINE
  5
14F9A
102
{ACAD_REACTORS
330
14F94
102
}
330
1F
100
AcDbEntity
  8
0
  6
Continuous
 62
     7
100
AcDbLine
 10
419.4231181027051
 20
234.146640083086
 30
0.0
 11
422.4231181027051
 21
234.146640083086
 31
0.0
  0
LINE
  5
14F9B
102
{ACAD_REACTORS
330
14F94
102
}
330
1F
100
AcDbEntity
  8
0
  6
Continuous
 62
     7
100
AcDbLine
 10
400.4231181027051
 20
250.8466400830858
 30
0.0
 11
401.9231181027051
 21
249.3466400830858
 31
0.0
  0
LINE
  5
14F9C
102
{ACAD_REACTORS
330
14F94
102
}
330
1F
100
AcDbEntity
  8
0
  6
Continuous
 62
     7
100
AcDbLine
 10
418.7231181027042
 20
249.3466400830858
 30
0.0
 11
419.4231181027051
 21
250.0466400830856
 31
0.0
  0
LINE
  5
14F9D
102
{ACAD_REACTORS
330
14F94
102
}
330
1F
100
AcDbEntity
  8
0
  6
Continuous
 62
     7
100
AcDbLine
 10
401.9231181027051
 20
234.8466400830858
 30
0.0
 11
418.7231181027042
 21
234.8466400830858
 31
0.0
  0
LINE
  5
14F9E
102
{ACAD_REACTORS
330
14F94
102
}
330
1F
100
AcDbEntity
  8
0
  6
Continuous
 62
     7
100
AcDbLine
 10
418.7231181027042
 20
234.8466400830858
 30
0.0
 11
419.4231181027051
 21
234.146640083086
 31
0.0
  0
LINE
  5
14F9F
102
{ACAD_REACTORS
330
14F94
102
}
330
1F
100
AcDbEntity
  8
0
  6
Continuous
 62
     7
100
AcDbLine
 10
399.4231181027051
 20
236.0966400830858
 30
0.0
 11
401.1551689103042
 21
237.0966400830858
 31
0.0
  0
LINE
  5
14FA0
102
{ACAD_REACTORS
330
14F94
102
}
330
1F
100
AcDbEntity
  8
0
  6
Continuous
 62
     7
100
AcDbLine
 10
401.1551689103042
 20
237.0966400830858
 30
0.0
 11
421.9231181027051
 21
237.0966400830858
 31
0.0
  0
LINE
  5
14FA1
102
{ACAD_REACTORS
330
14F94
102
}
330
1F
100
AcDbEntity
  8
0
  6
Continuous
 62
     7
100
AcDbLine
 10
425.9231181027051
 20
237.0966400830858
 30
0.0
 11
427.2231181027044
 21
237.0966400830858
 31
0.0
  0
LINE
  5
14FA2
102
{ACAD_REACTORS
330
14F94
102
}
330
1F
100
AcDbEntity
  8
0
  6
Continuous
 62
     7
100
AcDbLine
 10
399.4231181027051
 20
248.0966400830858
 30
0.0
 11
401.1551689103042
 21
247.0966400830858
 31
0.0
  0
LINE
  5
14FA3
102
{ACAD_REACTORS
330
14F94
102
}
330
1F
100
AcDbEntity
  8
0
  6
Continuous
 62
     7
100
AcDbLine
 10
419.9231181027051
 20
247.0966400830858
 30
0.0
 11
419.9231181027051
 21
250.0466400830856
 31
0.0
  0
LINE
  5
14FA4
102
{ACAD_REACTORS
330
14F94
102
}
330
1F
100
AcDbEntity
  8
0
  6
Continuous
 62
     7
100
AcDbLine
 10
423.0778186411049
 20
239.0966400830858
 30
0.0
 11
424.7684175643541
 21
239.0966400830858
 31
0.0
  0
LINE
  5
14FA5
102
{ACAD_REACTORS
330
14F94
330
150B9
102
}
330
1F
100
AcDbEntity
  8
0
  6
Continuous
 62
     7
100
AcDbLine
 10
421.9231181027051
 20
237.0966400830858
 30
0.0
 11
421.9231181027051
 21
250.0466400830856
 31
0.0
  0
LINE
  5
14FA6
102
{ACAD_REACTORS
330
14F94
102
}
330
1F
100
AcDbEntity
  8
0
  6
Continuous
 62
     7
100
AcDbLine
 10
422.4231181027051
 20
251.0966400830858
 30
0.0
 11
422.4231181027051
 21
250.0466400830856
 31
0.0
  0
LINE
  5
14FA7
102
{ACAD_REACTORS
330
14F94
102
}
330
1F
100
AcDbEntity
  8
0
  6
Continuous
 62
     7
100
AcDbLine
 10
422.4231181027051
 20
234.146640083086
 30
0.0
 11
422.4231181027051
 21
233.0966400830858
 31
0.0
  0
LINE
  5
14FA8
330
1F
100
AcDbEntity
  8
0
  6
Continuous
 62
     7
100
AcDbLine
 10
423.0778186411049
 20
239.0966400830858
 30
0.0
 11
423.0778186411049
 21
245.0966400830858
 31
0.0
  0
LINE
  5
14FA9
102
{ACAD_REACTORS
330
14F94
102
}
330
1F
100
AcDbEntity
  8
0
  6
Continuous
 62
     7
100
AcDbLine
 10
424.7684175643541
 20
245.0966400830858
 30
0.0
 11
425.9231181027051
 21
247.0966400830858
 31
0.0
  0
LINE
  5
14FAA
102
{ACAD_REACTORS
330
14F94
102
}
330
1F
100
AcDbEntity
  8
0
  6
Continuous
 62
     7
100
AcDbLine
 10
424.7684175643541
 20
239.0966400830858
 30
0.0
 11
425.9231181027051
 21
237.0966400830858
 31
0.0
  0
LINE
  5
14FAB
330
1F
100
AcDbEntity
  8
0
  6
Continuous
 62
     7
100
AcDbLine
 10
424.7684175643541
 20
239.0966400830858
 30
0.0
 11
424.7684175643541
 21
245.0966400830858
 31
0.0
  0
LINE
  5
14FAC
102
{ACAD_REACTORS
330
14F94
102
}
330
1F
100
AcDbEntity
  8
0
  6
Continuous
 62
     7
100
AcDbLine
 10
421.9231181027051
 20
237.0966400830858
 30
0.0
 11
423.0778186411049
 21
239.0966400830858
 31
0.0
  0
LINE
  5
14FAD
102
{ACAD_REACTORS
330
14F94
102
}
330
1F
100
AcDbEntity
  8
0
  6
Continuous
 62
     7
100
AcDbLine
 10
423.0778186411049
 20
245.0966400830858
 30
0.0
 11
424.7684175643541
 21
245.0966400830858
 31
0.0
  0
LINE
  5
14FAE
102
{ACAD_REACTORS
330
14F94
102
}
330
1F
100
AcDbEntity
  8
0
  6
Continuous
 62
     7
100
AcDbLine
 10
421.9231181027051
 20
247.0966400830858
 30
0.0
 11
423.0778186411049
 21
245.0966400830858
 31
0.0
  0
LINE
  5
14FAF
330
1F
100
AcDbEntity
  8
0
  6
Continuous
 62
     7
100
AcDbLine
 10
425.9231181027051
 20
237.0966400830858
 30
0.0
 11
425.9231181027051
 21
247.0966400830858
 31
0.0
  0
LINE
  5
14FB0
330
1F
100
AcDbEntity
  8
0
  6
Continuous
 62
     7
100
AcDbLine
 10
427.2231181027044
 20
250.0966400830858
 30
0.0
 11
427.2231181027044
 21
248.5966400830858
 31
0.0
  0
LINE
  5
14FB1
330
1F
100
AcDbEntity
  8
0
  6
Continuous
 62
     7
100
AcDbLine
 10
427.2231181027044
 20
235.5966400830858
 30
0.0
 11
427.2231181027044
 21
234.0966400830858
 31
0.0
  0
LINE
  5
14FB2
102
{ACAD_REACTORS
330
14F94
102
}
330
1F
100
AcDbEntity
  8
0
  6
Continuous
 62
     7
100
AcDbLine
 10
401.1551689103042
 20
247.0966400830858
 30
0.0
 11
419.9231181027051
 21
247.0966400830858
 31
0.0
  0
LINE
  5
14FB3
102
{ACAD_REACTORS
330
14F94
102
}
330
1F
100
AcDbEntity
  8
0
  6
Continuous
 62
     7
100
AcDbLine
 10
425.9231181027051
 20
247.0966400830858
 30
0.0
 11
427.2231181027044
 21
247.0966400830858
 31
0.0
  0
LINE
  5
14FB4
102
{ACAD_REACTORS
330
14F94
102
}
330
1F
100
AcDbEntity
  8
0
  6
Continuous
 62
     7
100
AcDbLine
 10
401.9231181027051
 20
249.3466400830858
 30
0.0
 11
418.7231181027042
 21
249.3466400830858
 31
0.0
  0
LINE
  5
14FB5
102
{ACAD_REACTORS
330
14F94
102
}
330
1F
100
AcDbEntity
  8
0
  6
Continuous
 62
     7
100
AcDbLine
 10
419.4231181027051
 20
250.0466400830856
 30
0.0
 11
419.9231181027051
 21
250.0466400830856
 31
0.0
  0
LINE
  5
14FB6
102
{ACAD_REACTORS
330
14F94
102
}
330
1F
100
AcDbEntity
  8
0
  6
Continuous
 62
     7
100
AcDbLine
 10
421.9231181027051
 20
250.0466400830856
 30
0.0
 11
422.4231181027051
 21
250.0466400830856
 31
0.0
  0
LINE
  5
14FB7
102
{ACAD_REACTORS
330
14F94
330
150BF
102
}
330
1F
100
AcDbEntity
  8
0
  6
Continuous
 62
     7
100
AcDbLine
 10
426.2231181027043
 20
233.0966400830858
 30
0.0
 11
427.2231181027044
 21
234.0966400830858
 31
0.0
  0
LINE
  5
14FB8
102
{ACAD_REACTORS
330
14F94
330
150B6
102
}
330
1F
100
AcDbEntity
  8
0
  6
Continuous
 62
     7
100
AcDbLine
 10
399.4231181027051
 20
250.8466400830858
 30
0.0
 11
400.4231181027051
 21
250.8466400830858
 31
0.0
  0
LINE
  5
14FB9
102
{ACAD_REACTORS
330
14F94
330
150BF
102
}
330
1F
100
AcDbEntity
  8
0
  6
Continuous
 62
     7
100
AcDbLine
 10
422.4231181027051
 20
251.0966400830858
 30
0.0
 11
426.2231181027043
 21
251.0966400830858
 31
0.0
  0
LINE
  5
14FBA
102
{ACAD_REACTORS
330
14F94
102
}
330
1F
100
AcDbEntity
  8
0
  6
Continuous
 62
     7
100
AcDbLine
 10
426.2231181027043
 20
251.0966400830858
 30
0.0
 11
427.2231181027044
 21
250.0966400830858
 31
0.0
  0
ARC
  5
14FBB
330
1F
100
AcDbEntity
  8
0
  6
Continuous
 62
     7
100
AcDbCircle
 10
420.9231181027051
 20
257.9334962470858
 30
0.0
 40
7.9500000095
100
AcDbArc
 50
262.7738420208879
 51
277.2261579791121
  0
SPLINE
  5
14FBC
330
1F
100
AcDbEntity
  8
0
  6
Continuous
 62
     7
100
AcDbSpline
210
0.0
220
0.0
230
1.0
 70
     8
 71
     3
 72
    11
 73
     7
 74
     0
 42
0.0000000001
 43
0.0000000001
 40
0.0
 40
0.0
 40
0.0
 40
0.0
 40
0.1477077614
 40
0.5000365873
 40
0.8523175662000001
 40
1.0
 40
1.0
 40
1.0
 40
1.0
 10
421.9231181027051
 20
247.0966400830858
 30
0.0
 10
421.8260218431541
 20
247.0771547576861
 30
0.0
 10
421.4952573372547
 20
247.0203214852855
 30
0.0
 10
420.9230761542047
 20
246.9782238967355
 30
0.0
 10
420.3509134766543
 20
247.0203315611858
 30
0.0
 10
420.0201977374551
 20
247.0771581240861
 30
0.0
 10
419.9231181027051
 20
247.0966400830858
 30
0.0
  0
LINE
  5
14FBD
330
1F
100
AcDbEntity
  8
0
  6
Continuous
 62
     7
100
AcDbLine
 10
427.2231181027044
 20
237.0966400830862
 30
0.0
 11
438.414088471304
 21
237.0966400830862
 31
0.0
  0
LINE
  5
14FBE
330
1F
100
AcDbEntity
  8
0
  6
Continuous
 62
     7
100
AcDbLine
 10
438.414088471304
 20
237.0966400830862
 30
0.0
 11
442.7224384458049
 21
237.5518868644859
 31
0.0
  0
SPLINE
  5
14FBF
102
{ACAD_REACTORS
330
14F94
102
}
330
1F
100
AcDbEntity
  8
0
  6
Continuous
 62
     7
100
AcDbSpline
210
0.0
220
0.0
230
1.0
 70
    12
 71
     3
 72
     8
 73
     4
 74
     0
 42
0.0000000001
 43
0.0000000001
 40
0.0
 40
0.0
 40
0.0
 40
0.0
 40
1.0
 40
1.0
 40
1.0
 40
1.0
 10
444.657451523305
 20
236.9240545664862
 30
0.0
 41
1.0
 10
444.1225442758049
 20
237.405418141686
 30
0.0
 41
0.9423259587
 10
443.4380631223056
 20
237.6275041733857
 30
0.0
 41
0.9423259587
 10
442.7224384458049
 20
237.5518868644859
 30
0.0
 41
1.0
  0
LINE
  5
14FC0
330
1F
100
AcDbEntity
  8
0
  6
Continuous
 62
     7
100
AcDbLine
 10
444.657451523305
 20
236.9240545664862
 30
0.0
 11
445.0231181027056
 21
236.594990840486
 31
0.0
  0
LINE
  5
14FC1
330
1F
100
AcDbEntity
  8
0
  6
Continuous
 62
     7
100
AcDbLine
 10
445.0231181027056
 20
236.594990840486
 30
0.0
 11
445.0231181027056
 21
236.2866400830863
 31
0.0
  0
LINE
  5
14FC2
330
1F
100
AcDbEntity
  8
0
  6
Continuous
 62
     7
100
AcDbLine
 10
440.0649600169042
 20
235.7627305763859
 30
0.0
 11
445.0231181027056
 21
236.2866400830863
 31
0.0
  0
SPLINE
  5
14FC3
330
1F
100
AcDbEntity
  8
0
  6
Continuous
 62
     7
100
AcDbSpline
210
0.0
220
0.0
230
1.0
 70
    12
 71
     3
 72
     8
 73
     4
 74
     0
 42
0.0000000001
 43
0.0000000001
 40
0.0
 40
0.0
 40
0.0
 40
0.0
 40
1.0
 40
1.0
 40
1.0
 40
1.0
 10
436.9125254748038
 20
235.5966400830862
 30
0.0
 41
1.0
 10
437.9657669561047
 20
235.5966400830862
 30
0.0
 41
0.9990766355999999
 10
439.0175496488053
 20
235.6520547487863
 30
0.0
 41
0.9990766355999999
 10
440.0649600169042
 20
235.7627305763859
 30
0.0
 41
1.0
  0
LINE
  5
14FC4
330
1F
100
AcDbEntity
  8
0
  6
Continuous
 62
     7
100
AcDbLine
 10
427.2231181027044
 20
235.5966400830862
 30
0.0
 11
436.9125254748038
 21
235.5966400830862
 31
0.0
  0
LINE
  5
14FC5
330
1F
100
AcDbEntity
  8
0
  6
Continuous
 62
     7
100
AcDbLine
 10
427.2231181027044
 20
235.5966400830862
 30
0.0
 11
427.2231181027044
 21
234.0966400830863
 31
0.0
  0
LINE
  5
14FC6
102
{ACAD_REACTORS
330
14F94
102
}
330
1F
100
AcDbEntity
  8
0
  6
Continuous
 62
     7
100
AcDbLine
 10
427.2231181027044
 20
250.0966400830858
 30
0.0
 11
427.2231181027044
 21
248.5966400830858
 31
0.0
  0
LINE
  5
14FC7
330
1F
100
AcDbEntity
  8
0
  6
Continuous
 62
     7
100
AcDbLine
 10
427.2231181027044
 20
248.5966400830858
 30
0.0
 11
436.9125254748038
 21
248.5966400830858
 31
0.0
  0
SPLINE
  5
14FC8
330
1F
100
AcDbEntity
  8
0
  6
Continuous
 62
     7
100
AcDbSpline
210
0.0
220
0.0
230
1.0
 70
    12
 71
     3
 72
     8
 73
     4
 74
     0
 42
0.0000000001
 43
0.0000000001
 40
0.0
 40
0.0
 40
0.0
 40
0.0
 40
1.0
 40
1.0
 40
1.0
 40
1.0
 10
436.9125254748038
 20
248.5966400830858
 30
0.0
 41
1.0
 10
437.9657669561047
 20
248.5966400830858
 30
0.0
 41
0.9990766355999999
 10
439.0175496488053
 20
248.5412254174863
 30
0.0
 41
0.9990766355999999
 10
440.0649600169042
 20
248.4305495898862
 30
0.0
 41
1.0
  0
LINE
  5
14FC9
330
1F
100
AcDbEntity
  8
0
  6
Continuous
 62
     7
100
AcDbLine
 10
445.0231181027056
 20
247.9066400830862
 30
0.0
 11
440.0649600169042
 21
248.4305495898862
 31
0.0
  0
LINE
  5
14FCA
330
1F
100
AcDbEntity
  8
0
  6
Continuous
 62
     7
100
AcDbLine
 10
445.0231181027056
 20
247.9066400830862
 30
0.0
 11
445.0231181027056
 21
247.5982893257861
 31
0.0
  0
LINE
  5
14FCB
330
1F
100
AcDbEntity
  8
0
  6
Continuous
 62
     7
100
AcDbLine
 10
444.657451523305
 20
247.2692255996863
 30
0.0
 11
445.0231181027056
 21
247.5982893257861
 31
0.0
  0
SPLINE
  5
14FCC
330
1F
100
AcDbEntity
  8
0
  6
Continuous
 62
     7
100
AcDbSpline
210
0.0
220
0.0
230
1.0
 70
    12
 71
     3
 72
     8
 73
     4
 74
     0
 42
0.0000000001
 43
0.0000000001
 40
0.0
 40
0.0
 40
0.0
 40
0.0
 40
1.0
 40
1.0
 40
1.0
 40
1.0
 10
444.657451523305
 20
247.2692255996863
 30
0.0
 41
1.0
 10
444.1225442758049
 20
246.7878620244861
 30
0.0
 41
0.9423259587
 10
443.4380631223056
 20
246.5657759928864
 30
0.0
 41
0.9423259587
 10
442.7224384458049
 20
246.6413933017862
 30
0.0
 41
1.0
  0
LINE
  5
14FCD
330
1F
100
AcDbEntity
  8
0
  6
Continuous
 62
     7
100
AcDbLine
 10
438.414088471304
 20
247.0966400830858
 30
0.0
 11
442.7224384458049
 21
246.6413933017862
 31
0.0
  0
LINE
  5
14FCE
330
1F
100
AcDbEntity
  8
0
  6
Continuous
 62
     7
100
AcDbLine
 10
427.2231181027044
 20
247.0966400830858
 30
0.0
 11
438.414088471304
 21
247.0966400830858
 31
0.0
  0
LINE
  5
14FCF
102
{ACAD_REACTORS
330
14F94
102
}
330
1F
100
AcDbEntity
  8
0
  6
Continuous
 62
     7
100
AcDbLine
 10
440.0649600169042
 20
235.7627305763859
 30
0.0
 11
445.0231181027056
 21
236.2866400830863
 31
0.0
  0
LINE
  5
14FD0
102
{ACAD_REACTORS
330
14F94
102
}
330
1F
100
AcDbEntity
  8
0
  6
Continuous
 62
     7
100
AcDbLine
 10
438.414088471304
 20
237.0966400830862
 30
0.0
 11
442.7224384458049
 21
237.5518868644859
 31
0.0
  0
LINE
  5
14FD1
102
{ACAD_REACTORS
330
14F94
102
}
330
1F
100
AcDbEntity
  8
0
  6
Continuous
 62
     7
100
AcDbLine
 10
436.9125254748038
 20
235.5966400830862
 30
0.0
 11
440.0649600169042
 21
235.7627305763859
 31
0.0
  0
LINE
  5
14FD2
102
{ACAD_REACTORS
330
14F94
330
150C2
102
}
330
1F
100
AcDbEntity
  8
0
  6
Continuous
 62
     7
100
AcDbLine
 10
427.2231181027044
 20
235.5966400830862
 30
0.0
 11
436.9125254748038
 21
235.5966400830862
 31
0.0
  0
LINE
  5
14FD3
102
{ACAD_REACTORS
330
14F94
102
}
330
1F
100
AcDbEntity
  8
0
  6
Continuous
 62
     7
100
AcDbLine
 10
427.2231181027044
 20
237.0966400830862
 30
0.0
 11
438.414088471304
 21
237.0966400830862
 31
0.0
  0
LINE
  5
14FD4
330
1F
100
AcDbEntity
  8
0
  6
Continuous
 62
     7
100
AcDbLine
 10
432.0731181027048
 20
237.5382180981861
 30
0.0
 11
438.414088471304
 21
237.5382180981861
 31
0.0
  0
LINE
  5
14FD5
330
1F
100
AcDbEntity
  8
0
  6
Continuous
 62
     7
100
AcDbLine
 10
432.0731181027048
 20
238.0382180981861
 30
0.0
 11
438.414088471304
 21
238.0382180981861
 31
0.0
  0
LINE
  5
14FD6
330
1F
100
AcDbEntity
  8
0
  6
Continuous
 62
     7
100
AcDbLine
 10
438.4931181027048
 20
241.5966400830858
 30
0.0
 11
445.0231181027056
 21
241.896640083086
 31
0.0
  0
LINE
  5
14FD7
330
1F
100
AcDbEntity
  8
0
  6
Continuous
 62
     7
100
AcDbLine
 10
432.0731181027048
 20
241.5966400830858
 30
0.0
 11
438.4931181027048
 21
241.5966400830858
 31
0.0
  0
LINE
  5
14FD8
330
1F
100
AcDbEntity
  8
0
  6
Continuous
 62
     7
100
AcDbLine
 10
432.0731181027048
 20
242.5966400830858
 30
0.0
 11
438.4931181027048
 21
242.5966400830858
 31
0.0
  0
LINE
  5
14FD9
330
1F
100
AcDbEntity
  8
0
  6
Continuous
 62
     7
100
AcDbLine
 10
438.4931181027048
 20
242.5966400830858
 30
0.0
 11
445.0231181027056
 21
242.2966400830861
 31
0.0
  0
LINE
  5
14FDA
102
{ACAD_REACTORS
330
14F94
102
}
330
1F
100
AcDbEntity
  8
0
  6
Continuous
 62
     7
100
AcDbLine
 10
427.2231181027044
 20
235.5966400830862
 30
0.0
 11
427.2231181027044
 21
234.0966400830863
 31
0.0
  0
LINE
  5
14FDB
330
1F
100
AcDbEntity
  8
0
  6
Continuous
 62
     7
100
AcDbLine
 10
432.0731181027048
 20
246.155062067986
 30
0.0
 11
438.414088471304
 21
246.155062067986
 31
0.0
  0
LINE
  5
14FDC
330
1F
100
AcDbEntity
  8
0
  6
Continuous
 62
     7
100
AcDbLine
 10
432.0731181027048
 20
246.655062067986
 30
0.0
 11
438.414088471304
 21
246.655062067986
 31
0.0
  0
LINE
  5
14FDD
102
{ACAD_REACTORS
330
14F94
102
}
330
1F
100
AcDbEntity
  8
0
  6
Continuous
 62
     7
100
AcDbLine
 10
427.2231181027044
 20
247.0966400830858
 30
0.0
 11
438.414088471304
 21
247.0966400830858
 31
0.0
  0
LINE
  5
14FDE
102
{ACAD_REACTORS
330
14F94
330
150C2
102
}
330
1F
100
AcDbEntity
  8
0
  6
Continuous
 62
     7
100
AcDbLine
 10
427.2231181027044
 20
248.5966400830858
 30
0.0
 11
436.9125254748038
 21
248.5966400830858
 31
0.0
  0
LINE
  5
14FDF
102
{ACAD_REACTORS
330
14F94
102
}
330
1F
100
AcDbEntity
  8
0
  6
Continuous
 62
     7
100
AcDbLine
 10
438.414088471304
 20
247.0966400830858
 30
0.0
 11
442.7224384458049
 21
246.6413933017862
 31
0.0
  0
LINE
  5
14FE0
102
{ACAD_REACTORS
330
14F94
102
}
330
1F
100
AcDbEntity
  8
0
  6
Continuous
 62
     7
100
AcDbLine
 10
445.0231181027056
 20
247.9066400830862
 30
0.0
 11
440.0649600169042
 21
248.4305495898862
 31
0.0
  0
LINE
  5
14FE1
330
1F
100
AcDbEntity
  8
0
  6
Continuous
 62
     7
100
AcDbLine
 10
432.0731181027048
 20
237.5382180981861
 30
0.0
 11
432.0731181027048
 21
238.0382180981861
 31
0.0
  0
LINE
  5
14FE2
330
1F
100
AcDbEntity
  8
0
  6
Continuous
 62
     7
100
AcDbLine
 10
432.0731181027048
 20
241.5966400830858
 30
0.0
 11
432.0731181027048
 21
242.5966400830858
 31
0.0
  0
LINE
  5
14FE3
330
1F
100
AcDbEntity
  8
0
  6
Continuous
 62
     7
100
AcDbLine
 10
432.0731181027048
 20
246.155062067986
 30
0.0
 11
432.0731181027048
 21
246.655062067986
 31
0.0
  0
LINE
  5
14FE4
102
{ACAD_REACTORS
330
14F94
102
}
330
1F
100
AcDbEntity
  8
0
  6
Continuous
 62
     7
100
AcDbLine
 10
444.657451523305
 20
247.2692255996863
 30
0.0
 11
445.0231181027056
 21
247.5982893257861
 31
0.0
  0
LINE
  5
14FE5
102
{ACAD_REACTORS
330
14F94
102
}
330
1F
100
AcDbEntity
  8
0
  6
Continuous
 62
     7
100
AcDbLine
 10
444.657451523305
 20
236.9240545664862
 30
0.0
 11
445.0231181027056
 21
236.594990840486
 31
0.0
  0
LINE
  5
14FE6
330
1F
100
AcDbEntity
  8
0
  6
Continuous
 62
     7
100
AcDbLine
 10
438.414088471304
 20
247.0966400830858
 30
0.0
 11
438.414088471304
 21
246.655062067986
 31
0.0
  0
LINE
  5
14FE7
330
1F
100
AcDbEntity
  8
0
  6
Continuous
 62
     7
100
AcDbLine
 10
438.414088471304
 20
246.155062067986
 30
0.0
 11
438.414088471304
 21
242.5966400830858
 31
0.0
  0
LINE
  5
14FE8
330
1F
100
AcDbEntity
  8
0
  6
Continuous
 62
     7
100
AcDbLine
 10
438.414088471304
 20
237.0966400830862
 30
0.0
 11
438.414088471304
 21
237.5382180981861
 31
0.0
  0
LINE
  5
14FE9
330
1F
100
AcDbEntity
  8
0
  6
Continuous
 62
     7
100
AcDbLine
 10
438.414088471304
 20
238.0382180981861
 30
0.0
 11
438.414088471304
 21
241.5966400830858
 31
0.0
  0
LINE
  5
14FEA
330
1F
100
AcDbEntity
  8
0
  6
Continuous
 62
     7
100
AcDbLine
 10
438.4931181027048
 20
238.0454865609859
 30
0.0
 11
438.4931181027048
 21
237.5454865609859
 31
0.0
  0
LINE
  5
14FEB
330
1F
100
AcDbEntity
  8
0
  6
Continuous
 62
     7
100
AcDbLine
 10
438.4931181027048
 20
246.1477936052862
 30
0.0
 11
438.4931181027048
 21
246.6477936052862
 31
0.0
  0
LINE
  5
14FEC
330
1F
100
AcDbEntity
  8
0
  6
Continuous
 62
     7
100
AcDbLine
 10
442.7224384458049
 20
237.5518868644859
 30
0.0
 11
442.7224384458049
 21
238.0168335119861
 31
0.0
  0
LINE
  5
14FED
330
1F
100
AcDbEntity
  8
0
  6
Continuous
 62
     7
100
AcDbLine
 10
442.7224384458049
 20
238.3225308927859
 30
0.0
 11
442.7224384458049
 21
241.790942702286
 31
0.0
  0
LINE
  5
14FEE
330
1F
100
AcDbEntity
  8
0
  6
Continuous
 62
     7
100
AcDbLine
 10
442.7224384458049
 20
242.402337463986
 30
0.0
 11
442.7224384458049
 21
245.8707492733861
 31
0.0
  0
LINE
  5
14FEF
330
1F
100
AcDbEntity
  8
0
  6
Continuous
 62
     7
100
AcDbLine
 10
442.7224384458049
 20
246.1764466542859
 30
0.0
 11
442.7224384458049
 21
246.6413933017862
 31
0.0
  0
LINE
  5
14FF0
330
1F
100
AcDbEntity
  8
0
  6
Continuous
 62
     7
100
AcDbLine
 10
444.657451523305
 20
247.2692255996863
 30
0.0
 11
444.657451523305
 21
246.6806938292862
 31
0.0
  0
LINE
  5
14FF1
330
1F
100
AcDbEntity
  8
0
  6
Continuous
 62
     7
100
AcDbLine
 10
444.657451523305
 20
246.4638944458862
 30
0.0
 11
444.657451523305
 21
242.3134394665859
 31
0.0
  0
LINE
  5
14FF2
330
1F
100
AcDbEntity
  8
0
  6
Continuous
 62
     7
100
AcDbLine
 10
444.657451523305
 20
241.8798406996862
 30
0.0
 11
444.657451523305
 21
237.7293857203859
 31
0.0
  0
LINE
  5
14FF3
330
1F
100
AcDbEntity
  8
0
  6
Continuous
 62
     7
100
AcDbLine
 10
444.657451523305
 20
237.5125863368858
 30
0.0
 11
444.657451523305
 21
236.9240545664862
 31
0.0
  0
LINE
  5
14FF4
102
{ACAD_REACTORS
330
14F94
102
}
330
1F
100
AcDbEntity
  8
0
  6
Continuous
 62
     7
100
AcDbLine
 10
445.0231181027056
 20
247.9066400830862
 30
0.0
 11
445.0231181027056
 21
242.2966400830861
 31
0.0
  0
LINE
  5
14FF5
102
{ACAD_REACTORS
330
14F94
330
150BC
102
}
330
1F
100
AcDbEntity
  8
0
  6
Continuous
 62
     7
100
AcDbLine
 10
445.0231181027056
 20
236.2866400830863
 30
0.0
 11
445.0231181027056
 21
241.896640083086
 31
0.0
  0
ARC
  5
14FF6
330
1F
100
AcDbEntity
  8
0
  6
Continuous
 62
     7
100
AcDbCircle
 10
436.9125254748038
 20
265.5966400830858
 30
0.0
 40
30.0
100
AcDbArc
 50
270.0
 51
276.0318420580878
  0
ARC
  5
14FF7
102
{ACAD_REACTORS
330
14F94
102
}
330
1F
100
AcDbEntity
  8
0
  6
Continuous
 62
     7
100
AcDbCircle
 10
436.9125254748038
 20
218.5966400830862
 30
0.0
 40
30.0
100
AcDbArc
 50
83.96815794191217
 51
90.0
  0
ARC
  5
14FF8
330
1F
100
AcDbEntity
  8
0
  6
Continuous
 62
     7
100
AcDbCircle
 10
442.9851413243039
 20
235.065727738986
 30
0.0
 40
2.5
100
AcDbArc
 50
48.01592102908728
 51
96.0318420580878
  0
ARC
  5
14FF9
102
{ACAD_REACTORS
330
14F94
102
}
330
1F
100
AcDbEntity
  8
0
  6
Continuous
 62
     7
100
AcDbCircle
 10
442.9851413243039
 20
249.1275524272861
 30
0.0
 40
2.5
100
AcDbArc
 50
263.9681579419122
 51
311.9840789709127
  0
SPLINE
  5
14FFA
330
1F
100
AcDbEntity
  8
0
  6
Continuous
 62
     7
100
AcDbSpline
210
0.0
220
0.0
230
1.0
 70
     8
 71
     3
 72
     9
 73
     5
 74
     0
 42
0.0000000001
 43
0.0000000001
 40
0.0
 40
0.0
 40
0.0
 40
0.0
 40
0.4905071827000003
 40
1.0
 40
1.0
 40
1.0
 40
1.0
 10
444.657451523305
 20
237.5125863368858
 30
0.0
 10
444.3923019826041
 20
237.7137607903861
 30
0.0
 10
443.7597200294048
 20
238.0101910451859
 30
0.0
 10
443.066002088905
 20
238.0553146716862
 30
0.0
 10
442.7224384458049
 20
238.0168335119861
 30
0.0
  0
SPLINE
  5
14FFB
330
1F
100
AcDbEntity
  8
0
  6
Continuous
 62
     7
100
AcDbSpline
210
0.0
220
0.0
230
1.0
 70
     8
 71
     3
 72
     9
 73
     5
 74
     0
 42
0.0000000001
 43
0.0000000001
 40
0.0
 40
0.0
 40
0.0
 40
0.0
 40
0.5094930802000001
 40
1.0
 40
1.0
 40
1.0
 40
1.0
 10
442.7224384458049
 20
246.1764466542859
 30
0.0
 10
443.0660022663039
 20
246.1379654746862
 30
0.0
 10
443.7597202280038
 20
246.1830891675859
 30
0.0
 10
444.3923021246054
 20
246.4795194835861
 30
0.0
 10
444.657451523305
 20
246.6806938292862
 30
0.0
  0
LINE
  5
14FFC
330
1F
100
AcDbEntity
  8
0
  6
Continuous
 62
     7
100
AcDbLine
 10
444.657451523305
 20
237.5125863368858
 30
0.0
 11
445.0231181027056
 21
237.2352213563859
 31
0.0
  0
LINE
  5
14FFD
330
1F
100
AcDbEntity
  8
0
  6
Continuous
 62
     7
100
AcDbLine
 10
445.0231181027056
 20
246.9580588098862
 30
0.0
 11
444.657451523305
 21
246.6806938292862
 31
0.0
  0
SPLINE
  5
14FFE
330
1F
100
AcDbEntity
  8
0
  6
Continuous
 62
     7
100
AcDbSpline
210
0.0
220
0.0
230
1.0
 70
     8
 71
     3
 72
     8
 73
     4
 74
     0
 42
0.0000000001
 43
0.0000000001
 40
0.0
 40
0.0
 40
0.0
 40
0.0
 40
1.0
 40
1.0
 40
1.0
 40
1.0
 10
438.4931181027048
 20
237.5454865609859
 30
0.0
 10
439.9029705036053
 20
237.7018921526861
 30
0.0
 10
441.312751874705
 20
237.858940279486
 30
0.0
 10
442.7224384458049
 20
238.0168335119861
 30
0.0
  0
LINE
  5
14FFF
330
1F
100
AcDbEntity
  8
0
  6
Continuous
 62
     7
100
AcDbLine
 10
438.4931181027048
 20
237.5454865609859
 30
0.0
 11
438.414088471304
 21
237.5382180981861
 31
0.0
  0
LINE
  5
15000
330
1F
100
AcDbEntity
  8
0
  6
Continuous
 62
     7
100
AcDbLine
 10
438.414088471304
 20
246.655062067986
 30
0.0
 11
438.4931181027048
 21
246.6477936052862
 31
0.0
  0
SPLINE
  5
15001
330
1F
100
AcDbEntity
  8
0
  6
Continuous
 62
     7
100
AcDbSpline
210
0.0
220
0.0
230
1.0
 70
     8
 71
     3
 72
     8
 73
     4
 74
     0
 42
0.0000000001
 43
0.0000000001
 40
0.0
 40
0.0
 40
0.0
 40
0.0
 40
1.0
 40
1.0
 40
1.0
 40
1.0
 10
442.7224384458049
 20
246.1764466542859
 30
0.0
 10
441.312751874705
 20
246.3343398867861
 30
0.0
 10
439.9029705036053
 20
246.491388013586
 30
0.0
 10
438.4931181027048
 20
246.6477936052862
 30
0.0
  0
LINE
  5
15002
330
1F
100
AcDbEntity
  8
0
  6
Continuous
 62
     7
100
AcDbLine
 10
445.0231181027056
 20
237.4352213563862
 30
0.0
 11
444.7787564504039
 21
237.6317846546859
 31
0.0
  0
LINE
  5
15003
330
1F
100
AcDbEntity
  8
0
  6
Continuous
 62
     7
100
AcDbLine
 10
444.7787564504039
 20
237.6317846546859
 30
0.0
 11
444.7633381151052
 21
237.6441892134859
 31
0.0
  0
LINE
  5
15004
330
1F
100
AcDbEntity
  8
0
  6
Continuous
 62
     7
100
AcDbLine
 10
444.7633381151052
 20
237.6441892134859
 30
0.0
 11
444.657451523305
 21
237.7293857203859
 31
0.0
  0
LINE
  5
15005
330
1F
100
AcDbEntity
  8
0
  6
Continuous
 62
     7
100
AcDbLine
 10
444.657451523305
 20
246.4638944458862
 30
0.0
 11
444.7633381154053
 21
246.5490909529863
 31
0.0
  0
LINE
  5
15006
330
1F
100
AcDbEntity
  8
0
  6
Continuous
 62
     7
100
AcDbLine
 10
444.7633381154053
 20
246.5490909529863
 30
0.0
 11
444.7787505697041
 21
246.5614907803861
 31
0.0
  0
LINE
  5
15007
330
1F
100
AcDbEntity
  8
0
  6
Continuous
 62
     7
100
AcDbLine
 10
444.7787505697041
 20
246.5614907803861
 30
0.0
 11
445.0231181027056
 21
246.7580588098859
 31
0.0
  0
SPLINE
  5
15008
330
1F
100
AcDbEntity
  8
0
  6
Continuous
 62
     7
100
AcDbSpline
210
0.0
220
0.0
230
1.0
 70
     8
 71
     3
 72
     9
 73
     5
 74
     0
 42
0.0000000001
 43
0.0000000001
 40
0.0
 40
0.0
 40
0.0
 40
0.0
 40
0.4940496744
 40
1.0
 40
1.0
 40
1.0
 40
1.0
 10
444.657451523305
 20
246.4638944458862
 30
0.0
 10
444.3933256909049
 20
246.2513622830861
 30
0.0
 10
443.767188886405
 20
245.9275961316861
 30
0.0
 10
443.068866284605
 20
245.8478628276862
 30
0.0
 10
442.7224384458049
 20
245.8707492733861
 30
0.0
  0
SPLINE
  5
15009
330
1F
100
AcDbEntity
  8
0
  6
Continuous
 62
     7
100
AcDbSpline
210
0.0
220
0.0
230
1.0
 70
     8
 71
     3
 72
     9
 73
     5
 74
     0
 42
0.0000000001
 43
0.0000000001
 40
0.0
 40
0.0
 40
0.0
 40
0.0
 40
0.5059505890000003
 40
1.0
 40
1.0
 40
1.0
 40
1.0
 10
442.7224384458049
 20
238.3225308927859
 30
0.0
 10
443.068866465005
 20
238.3454173504861
 30
0.0
 10
443.7671890836053
 20
238.2656839773859
 30
0.0
 10
444.3933258316055
 20
237.941917769886
 30
0.0
 10
444.657451523305
 20
237.7293857203859
 30
0.0
  0
SPLINE
  5
1500A
330
1F
100
AcDbEntity
  8
0
  6
Continuous
 62
     7
100
AcDbSpline
210
0.0
220
0.0
230
1.0
 70
     8
 71
     3
 72
     8
 73
     4
 74
     0
 42
0.0000000001
 43
0.0000000001
 40
0.0
 40
0.0
 40
0.0
 40
0.0
 40
1.0
 40
1.0
 40
1.0
 40
1.0
 10
442.7224384458049
 20
238.3225308927859
 30
0.0
 10
441.3127165672038
 20
238.2293988761858
 30
0.0
 10
439.9029382556044
 20
238.137118889686
 30
0.0
 10
438.4931181027048
 20
238.0454865609859
 30
0.0
  0
LINE
  5
1500B
330
1F
100
AcDbEntity
  8
0
  6
Continuous
 62
     7
100
AcDbLine
 10
438.414088471304
 20
238.0382180981861
 30
0.0
 11
438.4931181027048
 21
238.0454865609859
 31
0.0
  0
LINE
  5
1500C
330
1F
100
AcDbEntity
  8
0
  6
Continuous
 62
     7
100
AcDbLine
 10
438.4931181027048
 20
246.1477936052862
 30
0.0
 11
438.414088471304
 21
246.155062067986
 31
0.0
  0
SPLINE
  5
1500D
330
1F
100
AcDbEntity
  8
0
  6
Continuous
 62
     7
100
AcDbSpline
210
0.0
220
0.0
230
1.0
 70
     8
 71
     3
 72
     8
 73
     4
 74
     0
 42
0.0000000001
 43
0.0000000001
 40
0.0
 40
0.0
 40
0.0
 40
0.0
 40
1.0
 40
1.0
 40
1.0
 40
1.0
 10
438.4931181027048
 20
246.1477936052862
 30
0.0
 10
439.9029382556044
 20
246.0561612764859
 30
0.0
 10
441.3127165672038
 20
245.9638812900863
 30
0.0
 10
442.7224384458049
 20
245.8707492733861
 30
0.0
  0
LINE
  5
1500E
330
1F
100
AcDbEntity
  8
02___PRT_ALL_AXES
  6
Continuous
 62
     7
100
AcDbLine
 10
396.532400697989
 20
192.3708743264201
 30
0.0
 11
399.9646375091788
 21
191.5255205981326
 31
0.0
  0
LINE
  5
1500F
330
1F
100
AcDbEntity
  8
0
  6
Continuous
 62
     7
100
AcDbLine
 10
384.1046614071174
 20
194.8415880071553
 30
0.0
 11
386.6373718167388
 21
193.9216920223721
 31
0.0
  0
LINE
  5
15010
330
1F
100
AcDbEntity
  8
0
  6
Continuous
 62
     7
100
AcDbLine
 10
369.1697992320032
 20
200.4575267293955
 30
0.0
 11
369.836301971357
 21
200.215448838652
 31
0.0
  0
LINE
  5
15011
330
1F
100
AcDbEntity
  8
0
  6
Continuous
 62
     7
100
AcDbLine
 10
382.3632409234115
 20
196.2784036389641
 30
0.0
 11
383.8714229466504
 21
195.7306226600914
 31
0.0
  0
LINE
  5
15012
330
1F
100
AcDbEntity
  8
0
  6
Continuous
 62
     7
100
AcDbLine
 10
374.284810447035
 20
211.9004673912038
 30
0.0
 11
374.7703803903887
 21
210.8175650018676
 31
0.0
  0
LINE
  5
15013
330
1F
100
AcDbEntity
  8
0
  6
Continuous
 62
     7
100
AcDbLine
 10
370.0504794348517
 20
200.2422642792523
 30
0.0
 11
371.1178244539961
 21
200.7611384112758
 31
0.0
  0
LINE
  5
15014
330
1F
100
AcDbEntity
  8
0
  6
Continuous
 62
     7
100
AcDbLine
 10
402.097795731627
 20
195.3150760410514
 30
0.0
 11
402.0571111712206
 21
195.3156413026119
 31
0.0
  0
LINE
  5
15015
330
1F
100
AcDbEntity
  8
0
  6
Continuous
 62
     7
100
AcDbLine
 10
400.5664919135806
 20
195.3363516114283
 30
0.0
 11
400.607176473987
 21
195.3357863498678
 31
0.0
  0
LINE
  5
15016
330
1F
100
AcDbEntity
  8
0
  6
Continuous
 62
     7
100
AcDbLine
 10
402.1931158812521
 20
195.5863087642848
 30
0.0
 11
402.1524313208455
 21
195.5868740258435
 31
0.0
  0
LINE
  5
15017
330
1F
100
AcDbEntity
  8
0
  6
Continuous
 62
     7
100
AcDbLine
 10
400.6618120632055
 20
195.6075843346599
 30
0.0
 11
400.7024966236121
 21
195.6070190730994
 31
0.0
  0
LINE
  5
15018
330
1F
100
AcDbEntity
  8
0
  6
Continuous
 62
     7
100
AcDbLine
 10
371.040538739092
 20
200.7892090579
 30
0.0
 11
382.0671886620758
 21
196.7842620449316
 31
0.0
  0
LINE
  5
15019
330
1F
100
AcDbEntity
  8
0
  6
Continuous
 62
     7
100
AcDbLine
 10
387.9183691618355
 20
195.3714759403007
 30
0.0
 11
394.3763857182048
 21
193.0258846412677
 31
0.0
  0
LINE
  5
1501A
330
1F
100
AcDbEntity
  8
0
  6
Continuous
 62
     7
100
AcDbLine
 10
382.0196111162904
 20
196.890367949428
 30
0.0
 11
382.2296389150843
 21
196.42197074278
 31
0.0
  0
LINE
  5
1501B
330
1F
100
AcDbEntity
  8
0
  6
Continuous
 62
     7
100
AcDbLine
 10
385.6151630500344
 20
206.7898478490762
 30
0.0
 11
386.0768310918274
 21
207.0142809987643
 31
0.0
  0
LINE
  5
1501C
330
1F
100
AcDbEntity
  8
0
  6
Continuous
 62
     7
100
AcDbLine
 10
396.2535028479151
 20
196.712156767756
 30
0.0
 11
396.0593516940289
 21
196.7148542576202
 31
0.0
  0
LINE
  5
1501D
330
1F
100
AcDbEntity
  8
0
  6
Continuous
 62
     7
100
AcDbLine
 10
397.563278796627
 20
196.6939590527323
 30
0.0
 11
397.7574299505168
 21
196.6912615628686
 31
0.0
  0
LINE
  5
1501E
330
1F
100
AcDbEntity
  8
0
  6
Continuous
 62
     7
100
AcDbLine
 10
390.981382930996
 20
194.6261368746042
 30
0.0
 11
394.2068612013892
 21
193.4546233455409
 31
0.0
  0
LINE
  5
1501F
330
1F
100
AcDbEntity
  8
0
  6
Continuous
 62
     7
100
AcDbLine
 10
390.9863391051394
 20
194.9667643630124
 30
0.0
 11
394.2118173756035
 21
193.7952508340196
 31
0.0
  0
LINE
  5
15020
330
1F
100
AcDbEntity
  8
0
  6
Continuous
 62
     7
100
AcDbLine
 10
391.9734485746348
 20
198.2663122021964
 30
0.0
 11
391.7748934918609
 21
198.2690708792438
 31
0.0
  0
LINE
  5
15021
330
1F
100
AcDbEntity
  8
0
  6
Continuous
 62
     7
100
AcDbLine
 10
393.2854378964448
 20
198.2480837351801
 30
0.0
 11
393.4839929792915
 21
198.245325058204
 31
0.0
  0
LINE
  5
15022
330
1F
100
AcDbEntity
  8
0
  6
Continuous
 62
     7
100
AcDbLine
 10
391.7748934918609
 20
198.2690708792438
 30
0.0
 11
395.0003717622522
 21
197.0975573502516
 31
0.0
  0
LINE
  5
15023
330
1F
100
AcDbEntity
  8
0
  6
Continuous
 62
     7
100
AcDbLine
 10
391.9734485746348
 20
198.2663122021964
 30
0.0
 11
396.1997226955255
 21
196.7313034702116
 31
0.0
  0
LINE
  5
15024
330
1F
100
AcDbEntity
  8
0
  6
Continuous
 62
     7
100
AcDbLine
 10
393.2854378964448
 20
198.2480837351801
 30
0.0
 11
397.5117120174045
 21
196.7130750031962
 31
0.0
  0
LINE
  5
15025
330
1F
100
AcDbEntity
  8
0
  6
Continuous
 62
     7
100
AcDbLine
 10
393.4839929792915
 20
198.245325058204
 30
0.0
 11
396.7094712496828
 21
197.0738115291398
 31
0.0
  0
LINE
  5
15026
330
1F
100
AcDbEntity
  8
0
  6
Continuous
 62
     7
100
AcDbLine
 10
392.013193865957
 20
198.9471526873241
 30
0.0
 11
395.238672136421
 21
197.7756391583321
 31
0.0
  0
LINE
  5
15027
330
1F
100
AcDbEntity
  8
0
  6
Continuous
 62
     7
100
AcDbLine
 10
393.5421039834519
 20
202.2391728774048
 30
0.0
 11
396.7675822539159
 21
201.0676593484119
 31
0.0
  0
LINE
  5
15028
330
1F
100
AcDbEntity
  8
0
  6
Continuous
 62
     7
100
AcDbLine
 10
393.7754481834027
 20
202.5766271970757
 30
0.0
 11
397.0009264538667
 21
201.4051136680847
 31
0.0
  0
LINE
  5
15029
330
1F
100
AcDbEntity
  8
0
  6
Continuous
 62
     7
100
AcDbLine
 10
391.1137411115333
 20
204.1691573452359
 30
0.0
 11
397.571757667899
 21
201.8235660462043
 31
0.0
  0
LINE
  5
1502A
330
1F
100
AcDbEntity
  8
0
  6
Continuous
 62
     7
100
AcDbLine
 10
374.6930946755556
 20
210.8456356484195
 30
0.0
 11
385.7197445984684
 21
206.8406886355234
 31
0.0
  0
LINE
  5
1502B
330
1F
100
AcDbEntity
  8
0
  6
Continuous
 62
     7
100
AcDbLine
 10
386.2714266158191
 20
207.0386447419489
 30
0.0
 11
387.7823236843951
 21
206.4898776418596
 31
0.0
  0
LINE
  5
1502C
330
1F
100
AcDbEntity
  8
02___PRT_ALL_AXES
  6
Continuous
 62
     7
100
AcDbLine
 10
399.6455848898213
 20
200.9422716801884
 30
0.0
 11
402.8203145811412
 21
199.387934573692
 31
0.0
  0
LINE
  5
1502D
330
1F
100
AcDbEntity
  8
0
  6
Continuous
 62
     7
100
AcDbLine
 10
373.4712614719965
 20
212.3005593898848
 30
0.0
 11
374.1377642113466
 21
212.05848149914
 31
0.0
  0
LINE
  5
1502E
330
1F
100
AcDbEntity
  8
0
  6
Continuous
 62
     7
100
AcDbLine
 10
388.5290225682993
 20
207.0229930293641
 30
0.0
 11
391.0617329779226
 21
206.1030970446524
 31
0.0
  0
LINE
  5
1502F
330
1F
100
AcDbEntity
  8
0
  6
Continuous
 62
     7
100
AcDbLine
 10
391.212980534573
 20
205.940568247852
 30
0.0
 11
391.6168801476278
 21
205.0398043889078
 31
0.0
  0
LINE
  5
15030
330
1F
100
AcDbEntity
  8
0
  6
Continuous
 62
     7
100
AcDbLine
 10
393.6826760501308
 20
202.1881162389888
 30
0.0
 11
393.7754481834027
 21
202.5766271970757
 31
0.0
  0
LINE
  5
15031
330
1F
100
AcDbEntity
  8
0
  6
Continuous
 62
     7
100
AcDbLine
 10
391.1174619934836
 20
194.9191397241875
 30
0.0
 11
390.981382930996
 21
194.6261368746042
 31
0.0
  0
LINE
  5
15032
330
1F
100
AcDbEntity
  8
0
  6
Continuous
 62
     7
100
AcDbLine
 10
386.8576686363385
 20
193.9492736185004
 30
0.0
 11
387.7454917935875
 21
194.3808758294446
 31
0.0
  0
LINE
  5
15033
330
1F
100
AcDbEntity
  8
0
  6
Continuous
 62
     7
100
AcDbLine
 10
397.9549361603322
 20
200.605970379244
 30
0.0
 11
398.0485264024601
 21
200.9979074121162
 31
0.0
  0
LINE
  5
15034
330
1F
100
AcDbEntity
  8
0
  6
Continuous
 62
     7
100
AcDbLine
 10
395.4096623923005
 20
193.3935353687563
 30
0.0
 11
395.2717105008751
 21
193.0964999793874
 31
0.0
  0
LINE
  5
15035
330
1F
100
AcDbEntity
  8
0
  6
Continuous
 62
     7
100
AcDbLine
 10
402.1486324546849
 20
198.8089777270121
 30
0.0
 11
402.1052992470513
 21
198.6275070051162
 31
0.0
  0
LINE
  5
15036
330
1F
100
AcDbEntity
  8
0
  6
Continuous
 62
     7
100
AcDbLine
 10
400.5176376601239
 20
191.97870092086
 30
0.0
 11
400.5609708677556
 21
192.1601716426836
 31
0.0
  0
LINE
  5
15037
330
1F
100
AcDbEntity
  8
0
  6
Continuous
 62
     7
100
AcDbLine
 10
402.2419701346361
 20
198.9439594548518
 30
0.0
 11
402.1986369270753
 21
198.7624887330282
 31
0.0
  0
LINE
  5
15038
330
1F
100
AcDbEntity
  8
0
  6
Continuous
 62
     7
100
AcDbLine
 10
400.6109753401477
 20
192.1136826486996
 30
0.0
 11
400.6543085477085
 21
192.295153370596
 31
0.0
  0
LINE
  5
15039
330
1F
100
AcDbEntity
  8
0
  6
Continuous
 62
     7
100
AcDbLine
 10
402.9619444385562
 20
198.9339563034761
 30
0.0
 11
402.877926670516
 21
198.7530508431397
 31
0.0
  0
LINE
  5
1503A
330
1F
100
AcDbEntity
  8
0
  6
Continuous
 62
     7
100
AcDbLine
 10
399.7996458259486
 20
192.1249550676281
 30
0.0
 11
399.883663593987
 21
192.3058605279639
 31
0.0
  0
LINE
  5
1503B
330
1F
100
AcDbEntity
  8
0
  6
Continuous
 62
     7
100
AcDbLine
 10
402.9599619688823
 20
198.7977053080837
 30
0.0
 11
402.8759442008438
 21
198.6167998477473
 31
0.0
  0
LINE
  5
1503C
330
1F
100
AcDbEntity
  8
0
  6
Continuous
 62
     7
100
AcDbLine
 10
399.7976633562748
 20
191.9887040722361
 30
0.0
 11
399.881681124315
 21
192.1696095325721
 31
0.0
  0
ARC
  5
1503D
330
1F
100
AcDbEntity
  8
0
  6
Continuous
 62
     7
100
AcDbCircle
 10
517.6082867947704
 20
590.6954882692117
 30
0.0
 40
412.3043579691358
100
AcDbArc
 50
252.8542209197022
 51
253.0113045121241
  0
ARC
  5
1503E
330
1F
100
AcDbEntity
  8
0
  6
Continuous
 62
     7
100
AcDbCircle
 10
283.5992036573798
 20
-166.6015849587555
 30
0.0
 40
380.806765911792
100
AcDbArc
 50
72.39008469977912
 51
72.55561420184587
  0
ARC
  5
1503F
330
1F
100
AcDbEntity
  8
0
  6
Continuous
 62
     7
100
AcDbCircle
 10
515.3356132300586
 20
528.4213907941481
 30
0.0
 40
352.499720492232
100
AcDbArc
 50
250.0392190478776
 51
250.2222424260974
  0
ARC
  5
15040
330
1F
100
AcDbEntity
  8
0
  6
Continuous
 62
     7
100
AcDbCircle
 10
515.1058355710602
 20
527.8042511809241
 30
0.0
 40
351.122516542872
100
AcDbArc
 50
250.0388601122949
 51
250.2226013616896
  0
ARC
  5
15041
330
1F
100
AcDbEntity
  8
0
  6
Continuous
 62
     7
100
AcDbCircle
 10
516.1859505964594
 20
487.7996261696686
 30
0.0
 40
314.18028229212
100
AcDbArc
 50
247.5677459960125
 51
247.7740004340931
  0
ARC
  5
15042
330
1F
100
AcDbEntity
  8
0
  6
Continuous
 62
     7
100
AcDbCircle
 10
368.1356674344288
 20
207.5357851434043
 30
0.0
 40
26.997226830216
100
AcDbArc
 50
339.871519266584
 51
340.2060161325088
  0
ARC
  5
15043
330
1F
100
AcDbEntity
  8
0
  6
Continuous
 62
     7
100
AcDbCircle
 10
417.2457656055403
 20
189.6986782198115
 30
0.0
 40
26.87409452556
100
AcDbArc
 50
159.8706394464936
 51
161.4030367308868
  0
ARC
  5
15044
330
1F
100
AcDbEntity
  8
0
  6
Continuous
 62
     7
100
AcDbCircle
 10
388.7245982609083
 20
176.8250767944279
 30
0.0
 40
25.510074081984
100
AcDbArc
 50
66.58282901375094
 51
69.12362857029058
  0
ARC
  5
15045
330
1F
100
AcDbEntity
  8
0
  6
Continuous
 62
     7
100
AcDbCircle
 10
388.146436539676
 20
177.3372943055561
 30
0.0
 40
25.247858889312
100
AcDbArc
 50
67.48327555506858
 51
70.03412132429213
  0
ARC
  5
15046
330
1F
100
AcDbEntity
  8
0
  6
Continuous
 62
     7
100
AcDbCircle
 10
388.4011897588361
 20
177.7298265792034
 30
0.0
 40
25.188781033656
100
AcDbArc
 50
67.48028367791684
 51
70.03711320157973
  0
ARC
  5
15047
330
1F
100
AcDbEntity
  8
0
  6
Continuous
 62
     7
100
AcDbCircle
 10
387.8743611955479
 20
177.9665750146843
 30
0.0
 40
25.178481083232
100
AcDbArc
 50
63.61796086027704
 51
66.16640107182546
  0
ARC
  5
15048
330
1F
100
AcDbEntity
  8
0
  6
Continuous
 62
     7
100
AcDbCircle
 10
402.8495644673085
 20
215.936681804356
 30
0.0
 40
23.739813106128
100
AcDbArc
 50
251.3978013377989
 51
254.1267567666332
  0
ARC
  5
15049
330
1F
100
AcDbEntity
  8
0
  6
Continuous
 62
     7
100
AcDbCircle
 10
402.232999589979
 20
215.557480629796
 30
0.0
 40
23.514999416568
100
AcDbArc
 50
250.0426871250799
 51
252.7803221963749
  0
ARC
  5
1504A
330
1F
100
AcDbEntity
  8
0
  6
Continuous
 62
     7
100
AcDbCircle
 10
402.2234598370841
 20
215.8550057147083
 30
0.0
 40
23.469537710088
100
AcDbArc
 50
250.0400351488285
 51
252.7829741726761
  0
ARC
  5
1504B
330
1F
100
AcDbEntity
  8
0
  6
Continuous
 62
     7
100
AcDbCircle
 10
401.7947913196358
 20
215.5695888373244
 30
0.0
 40
23.400647559072
100
AcDbArc
 50
253.8140018077293
 51
256.5509288335269
  0
ARC
  5
1504C
330
1F
100
AcDbEntity
  8
0
  6
Continuous
 62
     7
100
AcDbCircle
 10
401.5802906786691
 20
212.8622248638759
 30
0.0
 40
21.103948448208
100
AcDbArc
 50
250.0406468584797
 51
256.1611593491792
  0
ARC
  5
1504D
330
1F
100
AcDbEntity
  8
0
  6
Continuous
 62
     7
100
AcDbCircle
 10
390.3664821028351
 20
181.9877236356998
 30
0.0
 40
21.103948448208
100
AcDbArc
 50
63.91617542948679
 51
70.03668792028229
  0
ARC
  5
1504E
330
1F
100
AcDbEntity
  8
0
  6
Continuous
 62
     7
100
AcDbCircle
 10
373.8209503625067
 20
205.4708548354116
 30
0.0
 40
20.761375130856
100
AcDbArc
 50
339.6414042343733
 51
340.2563814043818
  0
ARC
  5
1504F
330
1F
100
AcDbEntity
  8
0
  6
Continuous
 62
     7
100
AcDbCircle
 10
411.561499080796
 20
191.763272180308
 30
0.0
 40
20.639313267624
100
AcDbArc
 50
159.8198056324985
 51
161.63434141009
  0
ARC
  5
15050
330
1F
100
AcDbEntity
  8
0
  6
Continuous
 62
     7
100
AcDbCircle
 10
378.3130034870674
 20
203.836427298868
 30
0.0
 40
20.477611119456
100
AcDbArc
 50
338.6046470731305
 51
339.6434897951954
  0
ARC
  5
15051
330
1F
100
AcDbEntity
  8
0
  6
Continuous
 62
     7
100
AcDbCircle
 10
382.7652778426827
 20
202.2213134540918
 30
0.0
 40
18.73970256038398
100
AcDbArc
 50
338.8783620612362
 51
339.7529083699119
  0
ARC
  5
15052
330
1F
100
AcDbEntity
  8
0
  6
Continuous
 62
     7
100
AcDbCircle
 10
401.8956406299866
 20
200.4582180930521
 30
0.0
 40
2.056407661799998
100
AcDbArc
 50
272.0161410304843
 51
288.3279732343053
  0
ARC
  5
15053
330
1F
100
AcDbEntity
  8
0
  6
Continuous
 62
     7
100
AcDbCircle
 10
401.978555182276
 20
200.590259110708
 30
0.0
 40
2.018143550232
100
AcDbArc
 50
272.716019214525
 51
273.6810201864762
  0
ARC
  5
15054
330
1F
100
AcDbEntity
  8
0
  6
Continuous
 62
     7
100
AcDbCircle
 10
385.54595183734
 20
203.8819190641958
 30
0.0
 40
0.576232206624
100
AcDbArc
 50
155.1108111865085
 51
179.2000452375026
  0
SPLINE
  5
15055
330
1F
100
AcDbEntity
  8
0
  6
Continuous
 62
     7
100
AcDbSpline
210
0.0
220
0.0
230
1.0
 70
     8
 71
     3
 72
    13
 73
     9
 74
     0
 42
0.0000000001
 43
0.0000000001
 40
0.0
 40
0.0
 40
0.0
 40
0.0
 40
0.3591638408
 40
0.6382898892000001
 40
0.7495289226000002
 40
0.8441918452999999
 40
0.9258029515
 40
1.0
 40
1.0
 40
1.0
 40
1.0
 10
368.9378692861474
 20
201.2487425632123
 30
0.0
 10
368.936364502636
 20
201.1453219372357
 30
0.0
 10
368.9407874333328
 20
200.9613777197802
 30
0.0
 10
368.9737854738278
 20
200.7465987559723
 30
0.0
 10
369.0204939680198
 20
200.6144846112285
 30
0.0
 10
369.0609659692354
 20
200.5416448861003
 30
0.0
 10
369.1100738415398
 20
200.4876826801243
 30
0.0
 10
369.1497849361722
 20
200.464812402916
 30
0.0
 10
369.1698692550282
 20
200.4575201880522
 30
0.0
  0
SPLINE
  5
15056
330
1F
100
AcDbEntity
  8
0
  6
Continuous
 62
     7
100
AcDbSpline
210
0.0
220
0.0
230
1.0
 70
     8
 71
     3
 72
    13
 73
     9
 74
     0
 42
0.0000000001
 43
0.0000000001
 40
0.0
 40
0.0
 40
0.0
 40
0.0
 40
0.3591895752
 40
0.6382868366
 40
0.7495249024
 40
0.8441855748
 40
0.9258008030999999
 40
1.0
 40
1.0
 40
1.0
 40
1.0
 10
383.8661048914373
 20
195.6554100077079
 30
0.0
 10
383.8645569811497
 20
195.5490253680997
 30
0.0
 10
383.8690975416985
 20
195.3598223658998
 30
0.0
 10
383.9030551647147
 20
195.1389088566522
 30
0.0
 10
383.9510895111152
 20
195.0030244296041
 30
0.0
 10
383.9927273384192
 20
194.9281066776999
 30
0.0
 10
384.0432373416761
 20
194.8726013029965
 30
0.0
 10
384.0840811293647
 20
194.8490678447321
 30
0.0
 10
384.1047403573493
 20
194.8415674489962
 30
0.0
  0
SPLINE
  5
15057
330
1F
100
AcDbEntity
  8
0
  6
Continuous
 62
     7
100
AcDbSpline
210
0.0
220
0.0
230
1.0
 70
     8
 71
     3
 72
    11
 73
     7
 74
     0
 42
0.0000000001
 43
0.0000000001
 40
0.0
 40
0.0
 40
0.0
 40
0.0
 40
0.3524574911
 40
0.5012342565
 40
0.6320953578000001
 40
1.0
 40
1.0
 40
1.0
 40
1.0
 10
402.9619444385562
 20
198.9339563034761
 30
0.0
 10
402.9611503267942
 20
198.991486925716
 30
0.0
 10
402.9569894457881
 20
199.0732438220435
 30
0.0
 10
402.9407564809471
 20
199.1757088098763
 30
0.0
 10
402.916024618108
 20
199.2767571537162
 30
0.0
 10
402.87424568002
 20
199.3615188192758
 30
0.0
 10
402.8203059665566
 20
199.3879278910114
 30
0.0
  0
LINE
  5
15058
330
1F
100
AcDbEntity
  8
0
  6
Continuous
 62
     7
100
AcDbLine
 10
397.3438381404039
 20
196.9632424620046
 30
0.0
 11
400.6618120632055
 21
195.6075843346599
 31
0.0
  0
SPLINE
  5
15059
330
1F
100
AcDbEntity
  8
0
  6
Continuous
 62
     7
100
AcDbSpline
210
0.0
220
0.0
230
1.0
 70
     8
 71
     3
 72
     8
 73
     4
 74
     0
 42
0.0000000001
 43
0.0000000001
 40
0.0
 40
0.0
 40
0.0
 40
0.0
 40
1.0
 40
1.0
 40
1.0
 40
1.0
 10
402.1486324546849
 20
198.8089777270121
 30
0.0
 10
401.0536590530928
 20
199.2846288062921
 30
0.0
 10
399.9583877019641
 20
199.7595943333969
 30
0.0
 10
398.8628862620199
 20
200.2340279900197
 30
0.0
  0
SPLINE
  5
1505A
330
1F
100
AcDbEntity
  8
0
  6
Continuous
 62
     7
100
AcDbSpline
210
0.0
220
0.0
230
1.0
 70
     8
 71
     3
 72
     8
 73
     4
 74
     0
 42
0.0000000001
 43
0.0000000001
 40
0.0
 40
0.0
 40
0.0
 40
0.0
 40
1.0
 40
1.0
 40
1.0
 40
1.0
 10
396.3564867193008
 20
193.1020881431791
 30
0.0
 10
397.5040202322753
 20
192.7757217487721
 30
0.0
 10
398.6517239522427
 20
192.4499528502525
 30
0.0
 10
399.7996458259486
 20
192.1249550676281
 30
0.0
  0
LINE
  5
1505B
330
1F
100
AcDbEntity
  8
0
  6
Continuous
 62
     7
100
AcDbLine
 10
400.7530677295953
 20
195.7420115040278
 30
0.0
 11
402.097795731627
 21
195.3150760410514
 31
0.0
  0
LINE
  5
1505C
330
1F
100
AcDbEntity
  8
0
  6
Continuous
 62
     7
100
AcDbLine
 10
400.6109753401477
 20
192.1136826486996
 30
0.0
 11
400.552377655659
 21
192.1308435351399
 31
0.0
  0
SPLINE
  5
1505D
330
1F
100
AcDbEntity
  8
0
  6
Continuous
 62
     7
100
AcDbSpline
210
0.0
220
0.0
230
1.0
 70
     8
 71
     3
 72
    12
 73
     8
 74
     0
 42
0.0000000001
 43
0.0000000001
 40
0.0
 40
0.0
 40
0.0
 40
0.0
 40
0.0929084846
 40
0.1982376651
 40
0.4402303688000001
 40
0.7126379601
 40
1.0
 40
1.0
 40
1.0
 40
1.0
 10
400.6109753401477
 20
192.1136826486996
 30
0.0
 10
400.6714438704756
 20
192.2044971675647
 30
0.0
 10
400.7944515579646
 20
192.4022852008599
 30
0.0
 10
401.0480198279083
 20
192.8529209709401
 30
0.0
 10
401.3703268032759
 20
193.5059927083959
 30
0.0
 10
401.7443778890436
 20
194.3703155005961
 30
0.0
 10
401.9792038774367
 20
194.984548579732
 30
0.0
 10
402.0931711824986
 20
195.302175831364
 30
0.0
  0
LINE
  5
1505E
330
1F
100
AcDbEntity
  8
0
  6
Continuous
 62
     7
100
AcDbLine
 10
402.0931711824986
 20
195.302175831364
 30
0.0
 11
402.097795731627
 21
195.3150760410514
 31
0.0
  0
SPLINE
  5
1505F
330
1F
100
AcDbEntity
  8
0
  6
Continuous
 62
     7
100
AcDbSpline
210
0.0
220
0.0
230
1.0
 70
     8
 71
     3
 72
    12
 73
     8
 74
     0
 42
0.0000000001
 43
0.0000000001
 40
0.0
 40
0.0
 40
0.0
 40
0.0
 40
0.3013151195
 40
0.5783896898
 40
0.8155324354000001
 40
0.9150143547
 40
1.0
 40
1.0
 40
1.0
 40
1.0
 10
402.1931158812521
 20
195.5863087642848
 30
0.0
 10
402.3014664644442
 20
195.9006389818361
 30
0.0
 10
402.497088405892
 20
196.50840755602
 30
0.0
 10
402.7329819320193
 20
197.3771084690681
 30
0.0
 10
402.8735048215467
 20
198.0402545029725
 30
0.0
 10
402.9391213656992
 20
198.5009725056285
 30
0.0
 10
402.9562392212673
 20
198.7040033973395
 30
0.0
 10
402.9599619688823
 20
198.7977053080837
 30
0.0
  0
LINE
  5
15060
330
1F
100
AcDbEntity
  8
0
  6
Continuous
 62
     7
100
AcDbLine
 10
402.9092693545488
 20
198.8205341675081
 30
0.0
 11
402.9599619688823
 21
198.7977053080837
 31
0.0
  0
LINE
  5
15061
330
1F
100
AcDbEntity
  8
0
  6
Continuous
 62
     7
100
AcDbLine
 10
399.1756333649563
 20
195.8192933005476
 30
0.0
 11
396.2535028479151
 21
196.712156767756
 31
0.0
  0
LINE
  5
15062
330
1F
100
AcDbEntity
  8
0
  6
Continuous
 62
     7
100
AcDbLine
 10
396.1997226955255
 20
196.7313034702116
 30
0.0
 11
396.2535028479151
 21
196.712156767756
 31
0.0
  0
SPLINE
  5
15063
330
1F
100
AcDbEntity
  8
0
  6
Continuous
 62
     7
100
AcDbSpline
210
0.0
220
0.0
230
1.0
 70
     8
 71
     3
 72
     9
 73
     5
 74
     0
 42
0.0000000001
 43
0.0000000001
 40
0.0
 40
0.0
 40
0.0
 40
0.0
 40
0.4198456970000001
 40
1.0
 40
1.0
 40
1.0
 40
1.0
 10
399.9424029544599
 20
191.8221802983404
 30
0.0
 10
399.9196636546121
 20
191.8663021646677
 30
0.0
 10
399.8901051793973
 20
191.9830488426047
 30
0.0
 10
399.8827441853801
 20
192.1010282382282
 30
0.0
 10
399.881681124315
 20
192.1696095325721
 30
0.0
  0
SPLINE
  5
15064
330
1F
100
AcDbEntity
  8
0
  6
Continuous
 62
     7
100
AcDbSpline
210
0.0
220
0.0
230
1.0
 70
     8
 71
     3
 72
    25
 73
    21
 74
     0
 42
0.0000000001
 43
0.0000000001
 40
0.0
 40
0.0
 40
0.0
 40
0.0
 40
0.0465601976
 40
0.104081773
 40
0.1712058585
 40
0.2462145526
 40
0.4117326665000001
 40
0.5829525111000003
 40
0.6649207477
 40
0.7414800906
 40
0.8105948382999999
 40
0.8704758782999999
 40
0.8964898014999999
 40
0.9196840798999998
 40
0.9399592748999999
 40
0.9572583529
 40
0.9716081603999999
 40
0.9831596023999999
 40
0.9923250062999999
 40
1.0
 40
1.0
 40
1.0
 40
1.0
 10
368.9378692861474
 20
201.2487425632123
 30
0.0
 10
368.9406319940435
 20
201.4386176980121
 30
0.0
 10
368.9759209692029
 20
201.8625136639245
 30
0.0
 10
369.0848380463803
 20
202.5525052239888
 30
0.0
 10
369.2543755761863
 20
203.3493012342762
 30
0.0
 10
369.5660312882182
 20
204.5649895193561
 30
0.0
 10
370.0679187787728
 20
206.1687715547083
 30
0.0
 10
370.6678519631068
 20
207.7686317582681
 30
0.0
 10
371.1965848287626
 20
209.00542289206
 30
0.0
 10
371.5900092390775
 20
209.8466205703241
 30
0.0
 10
371.9749091357308
 20
210.5916468743559
 30
0.0
 10
372.2926096185647
 20
211.138729686868
 30
0.0
 10
372.5367176740119
 20
211.5108348018527
 30
0.0
 10
372.7024699371642
 20
211.7408292020201
 30
0.0
 10
372.858394926724
 20
211.9336954611164
 30
0.0
 10
373.0035357635562
 20
212.0882470531239
 30
0.0
 10
373.1370494849789
 20
212.2039254046359
 30
0.0
 10
373.2588999106365
 20
212.280264659668
 30
0.0
 10
373.370504854228
 20
212.3173683816523
 30
0.0
 10
373.4417684299486
 20
212.3112488415155
 30
0.0
 10
373.4711914489717
 20
212.3005659312281
 30
0.0
  0
SPLINE
  5
15065
330
1F
100
AcDbEntity
  8
0
  6
Continuous
 62
     7
100
AcDbSpline
210
0.0
220
0.0
230
1.0
 70
     8
 71
     3
 72
    15
 73
    11
 74
     0
 42
0.0000000001
 43
0.0000000001
 40
0.0
 40
0.0
 40
0.0
 40
0.0
 40
0.1281880671
 40
0.257670033
 40
0.3868529095
 40
0.5145304595
 40
0.6399233772999999
 40
0.7625943045
 40
0.8824923145999999
 40
1.0
 40
1.0
 40
1.0
 40
1.0
 10
386.0707814466286
 20
203.3356262483564
 30
0.0
 10
386.0158961681091
 20
203.3038084459719
 30
0.0
 10
385.8972090766356
 20
203.2532753176116
 30
0.0
 10
385.7064755641723
 20
203.2221825324756
 30
0.0
 10
385.5139290761554
 20
203.2383376506283
 30
0.0
 10
385.3334418531621
 20
203.30171935906
 30
0.0
 10
385.1781332688524
 20
203.4079455842681
 30
0.0
 10
385.0591961079162
 20
203.5488862782046
 30
0.0
 10
384.9850246960605
 20
203.7134141005005
 30
0.0
 10
384.9689304275553
 20
203.8318149508601
 30
0.0
 10
384.9697757931636
 20
203.8899640672122
 30
0.0
  0
SPLINE
  5
15066
330
1F
100
AcDbEntity
  8
0
  6
Continuous
 62
     7
100
AcDbSpline
210
0.0
220
0.0
230
1.0
 70
     8
 71
     3
 72
    16
 73
    12
 74
     0
 42
0.0000000001
 43
0.0000000001
 40
0.0
 40
0.0
 40
0.0
 40
0.0
 40
0.037279083
 40
0.0801716585
 40
0.181411371
 40
0.3004516772
 40
0.4331070556000002
 40
0.5745980064000003
 40
0.7197703879000003
 40
0.8633175041999997
 40
1.0
 40
1.0
 40
1.0
 40
1.0
 10
383.8661048914373
 20
195.6554100077079
 30
0.0
 10
383.8676706302913
 20
195.7630199670763
 30
0.0
 10
383.8801994683718
 20
195.9943227881081
 30
0.0
 10
383.9367274509395
 20
196.5151424309084
 30
0.0
 10
384.0677032460198
 20
197.2642593198285
 30
0.0
 10
384.2981003004289
 20
198.2570756850761
 30
0.0
 10
384.6025487168437
 20
199.3509148063
 30
0.0
 10
384.9698046892836
 20
200.5046432244041
 30
0.0
 10
385.3863592387707
 20
201.6749353755642
 30
0.0
 10
385.8365651911727
 20
202.8177689412284
 30
0.0
 10
386.1595042362523
 20
203.5597698417643
 30
0.0
 10
386.3245636040202
 20
203.9181784090603
 30
0.0
  0
SPLINE
  5
15067
330
1F
100
AcDbEntity
  8
0
  6
Continuous
 62
     7
100
AcDbSpline
210
0.0
220
0.0
230
1.0
 70
     8
 71
     3
 72
    19
 73
    15
 74
     0
 42
0.0000000001
 43
0.0000000001
 40
0.0
 40
0.0
 40
0.0
 40
0.0
 40
0.2019664774
 40
0.3865816581
 40
0.5504900993000002
 40
0.6908635584000003
 40
0.7515411535
 40
0.805613965
 40
0.8529895584
 40
0.8936826943999999
 40
0.9279063317
 40
0.9561659004
 40
0.9795381037
 40
1.0
 40
1.0
 40
1.0
 40
1.0
 10
386.3245636040202
 20
203.9181784090603
 30
0.0
 10
386.435107176244
 20
204.1582118216435
 30
0.0
 10
386.6532317712509
 20
204.6146952665564
 30
0.0
 10
386.9858206398758
 20
205.2538034258202
 30
0.0
 10
387.3046515313481
 20
205.808614039876
 30
0.0
 10
387.5646762269071
 20
206.2096236325484
 30
0.0
 10
387.7629897996513
 20
206.4782780241163
 30
0.0
 10
387.897225974405
 20
206.642674521148
 30
0.0
 10
388.0236332205159
 20
206.7793100166283
 30
0.0
 10
388.141728098165
 20
206.8876303235326
 30
0.0
 10
388.2511254145475
 20
206.9674076680596
 30
0.0
 10
388.3520159307873
 20
207.0183718617883
 30
0.0
 10
388.4451945386927
 20
207.0399606209318
 30
0.0
 10
388.5037772971473
 20
207.0321502971644
 30
0.0
 10
388.5289436181401
 20
207.0230135875242
 30
0.0
  0
SPLINE
  5
15068
330
1F
100
AcDbEntity
  8
0
  6
Continuous
 62
     7
100
AcDbSpline
210
0.0
220
0.0
230
1.0
 70
     8
 71
     3
 72
    11
 73
     7
 74
     0
 42
0.0000000001
 43
0.0000000001
 40
0.0
 40
0.0
 40
0.0
 40
0.0
 40
0.2500267842
 40
0.5056095310000001
 40
0.7574080004000001
 40
1.0
 40
1.0
 40
1.0
 40
1.0
 10
386.0818415500133
 20
203.3664479580281
 30
0.0
 10
386.0183496310355
 20
203.4034701765878
 30
0.0
 10
385.8790191104682
 20
203.4606445336123
 30
0.0
 10
385.6564498558846
 20
203.4922963831965
 30
0.0
 10
385.4348904424123
 20
203.4679297889558
 30
0.0
 10
385.298113950771
 20
203.4115056146208
 30
0.0
 10
385.2374767306346
 20
203.373975452692
 30
0.0
  0
SPLINE
  5
15069
330
1F
100
AcDbEntity
  8
0
  6
Continuous
 62
     7
100
AcDbSpline
210
0.0
220
0.0
230
1.0
 70
     8
 71
     3
 72
    10
 73
     6
 74
     0
 42
0.0000000001
 43
0.0000000001
 40
0.0
 40
0.0
 40
0.0
 40
0.0
 40
0.1899962014
 40
0.4190426871000001
 40
1.0
 40
1.0
 40
1.0
 40
1.0
 10
391.6168466557474
 20
205.0398788389963
 30
0.0
 10
391.6320804693159
 20
205.0059186155555
 30
0.0
 10
391.6574308804111
 20
204.9273303361959
 30
0.0
 10
391.6917911427636
 20
204.7341667539642
 30
0.0
 10
391.6961438904518
 20
204.5746753449881
 30
0.0
 10
391.694488111204
 20
204.4608770966439
 30
0.0
  0
SPLINE
  5
1506A
330
1F
100
AcDbEntity
  8
0
  6
Continuous
 62
     7
100
AcDbSpline
210
0.0
220
0.0
230
1.0
 70
     8
 71
     3
 72
     9
 73
     5
 74
     0
 42
0.0000000001
 43
0.0000000001
 40
0.0
 40
0.0
 40
0.0
 40
0.0
 40
0.2505288112000001
 40
1.0
 40
1.0
 40
1.0
 40
1.0
 10
396.7094712496828
 20
197.0738115291398
 30
0.0
 10
396.7592325444521
 20
197.0557379210919
 30
0.0
 10
396.9578410880213
 20
196.9835506802675
 30
0.0
 10
397.1563835096667
 20
196.9111815150997
 30
0.0
 10
397.3051475044367
 20
196.8568394397158
 30
0.0
  0
SPLINE
  5
1506B
330
1F
100
AcDbEntity
  8
0
  6
Continuous
 62
     7
100
AcDbSpline
210
0.0
220
0.0
230
1.0
 70
     8
 71
     3
 72
     9
 73
     5
 74
     0
 42
0.0000000001
 43
0.0000000001
 40
0.0
 40
0.0
 40
0.0
 40
0.0
 40
0.2504652074
 40
1.0
 40
1.0
 40
1.0
 40
1.0
 10
397.3051475044367
 20
196.8568394397158
 30
0.0
 10
397.3429176324271
 20
196.8430423704523
 30
0.0
 10
397.4937077995718
 20
196.7879299610201
 30
0.0
 10
397.6444589626599
 20
196.7327108330438
 30
0.0
 10
397.7574299505168
 20
196.6912615628686
 30
0.0
  0
SPLINE
  5
1506C
330
1F
100
AcDbEntity
  8
0
  6
Continuous
 62
     7
100
AcDbSpline
210
0.0
220
0.0
230
1.0
 70
     8
 71
     3
 72
     9
 73
     5
 74
     0
 42
0.0000000001
 43
0.0000000001
 40
0.0
 40
0.0
 40
0.0
 40
0.0
 40
0.4518486497
 40
1.0
 40
1.0
 40
1.0
 40
1.0
 10
391.0617303712342
 20
206.1030898679798
 30
0.0
 10
391.0938097724456
 20
206.09142818962
 30
0.0
 10
391.1577076801959
 20
206.0451186748597
 30
0.0
 10
391.1960395720607
 20
205.978352787508
 30
0.0
 10
391.2129807423635
 20
205.9405687690602
 30
0.0
  0
SPLINE
  5
1506D
330
1F
100
AcDbEntity
  8
0
  6
Continuous
 62
     7
100
AcDbSpline
210
0.0
220
0.0
230
1.0
 70
     8
 71
     3
 72
     9
 73
     5
 74
     0
 42
0.0000000001
 43
0.0000000001
 40
0.0
 40
0.0
 40
0.0
 40
0.0
 40
0.5482047504
 40
1.0
 40
1.0
 40
1.0
 40
1.0
 10
386.0768282341478
 20
207.0142723004444
 30
0.0
 10
386.1097298976774
 20
207.0302635648119
 30
0.0
 10
386.1735369950683
 20
207.0537912556603
 30
0.0
 10
386.2430863716753
 20
207.0489288708042
 30
0.0
 10
386.2714211066677
 20
207.0386295742125
 30
0.0
  0
LINE
  5
1506E
330
1F
100
AcDbEntity
  8
0
  6
Continuous
 62
     7
100
AcDbLine
 10
402.1319760250833
 20
198.7392267282286
 30
0.0
 11
402.1986369270753
 21
198.7624887330282
 31
0.0
  0
SPLINE
  5
1506F
330
1F
100
AcDbEntity
  8
0
  6
Continuous
 62
     7
100
AcDbSpline
210
0.0
220
0.0
230
1.0
 70
     8
 71
     3
 72
    11
 73
     7
 74
     0
 42
0.0000000001
 43
0.0000000001
 40
0.0
 40
0.0
 40
0.0
 40
0.0
 40
0.3272198586
 40
0.6026819189000002
 40
0.8259961409
 40
1.0
 40
1.0
 40
1.0
 40
1.0
 10
402.1986369270753
 20
198.7624887330282
 30
0.0
 10
402.2362881668676
 20
198.8146280064994
 30
0.0
 10
402.30814418926
 20
198.9088957895079
 30
0.0
 10
402.4162338897395
 20
199.0303802723557
 30
0.0
 10
402.514527287786
 20
199.1191606452763
 30
0.0
 10
402.5812809052593
 20
199.1613864027636
 30
0.0
 10
402.6128023097799
 20
199.1746523525086
 30
0.0
  0
LINE
  5
15070
330
1F
100
AcDbEntity
  8
0
  6
Continuous
 62
     7
100
AcDbLine
 10
402.877926670516
 20
198.7530508431397
 30
0.0
 11
402.5444392495963
 21
198.6538234033483
 31
0.0
  0
SPLINE
  5
15071
330
1F
100
AcDbEntity
  8
0
  6
Continuous
 62
     7
100
AcDbSpline
210
0.0
220
0.0
230
1.0
 70
     8
 71
     3
 72
    11
 73
     7
 74
     0
 42
0.0000000001
 43
0.0000000001
 40
0.0
 40
0.0
 40
0.0
 40
0.0
 40
0.2871750659
 40
0.5595191084000001
 40
0.8015884809999999
 40
1.0
 40
1.0
 40
1.0
 40
1.0
 10
400.7024966236121
 20
195.6070190730994
 30
0.0
 10
400.8102936844833
 20
195.9076728792758
 30
0.0
 10
401.0324783881468
 20
196.489168779604
 30
0.0
 10
401.3863413752686
 20
197.3078391954283
 30
0.0
 10
401.7374280807626
 20
198.0189638120925
 30
0.0
 10
401.9831689548764
 20
198.4437124548518
 30
0.0
 10
402.1052992470513
 20
198.6275070051162
 30
0.0
  0
SPLINE
  5
15072
330
1F
100
AcDbEntity
  8
0
  6
Continuous
 62
     7
100
AcDbSpline
210
0.0
220
0.0
230
1.0
 70
     8
 71
     3
 72
    12
 73
     8
 74
     0
 42
0.0000000001
 43
0.0000000001
 40
0.0
 40
0.0
 40
0.0
 40
0.0
 40
0.0852062907
 40
0.1848034191
 40
0.4219265478
 40
0.6988092509000003
 40
1.0
 40
1.0
 40
1.0
 40
1.0
 10
399.883663593987
 20
192.3058605279639
 30
0.0
 10
399.8872884134662
 20
192.3941426908364
 30
0.0
 10
399.9035433389554
 20
192.5852763127
 30
0.0
 10
399.9653407454198
 20
193.0185560152123
 30
0.0
 10
400.0972002111166
 20
193.6416924569563
 30
0.0
 10
400.3183587618523
 20
194.4578525422359
 30
0.0
 10
400.5016700530841
 20
195.0288376447485
 30
0.0
 10
400.6031918152829
 20
195.3242037201641
 30
0.0
  0
LINE
  5
15073
330
1F
100
AcDbEntity
  8
0
  6
Continuous
 62
     7
100
AcDbLine
 10
400.6031918152829
 20
195.3242037201641
 30
0.0
 11
400.607176473987
 21
195.3357863498678
 31
0.0
  0
LINE
  5
15074
330
1F
100
AcDbEntity
  8
0
  6
Continuous
 62
     7
100
AcDbLine
 10
400.607176473987
 20
195.3357863498678
 30
0.0
 11
400.5387772609473
 21
195.3614167063961
 31
0.0
  0
LINE
  5
15075
330
1F
100
AcDbEntity
  8
0
  6
Continuous
 62
     7
100
AcDbLine
 10
400.5387772609473
 20
195.3614167063961
 30
0.0
 11
400.4029655506608
 21
195.4123102680529
 31
0.0
  0
LINE
  5
15076
330
1F
100
AcDbEntity
  8
0
  6
Continuous
 62
     7
100
AcDbLine
 10
400.3596758040993
 20
192.4370964979959
 30
0.0
 11
400.5609708677556
 21
192.1601716426836
 31
0.0
  0
LINE
  5
15077
330
1F
100
AcDbEntity
  8
0
  6
Continuous
 62
     7
100
AcDbLine
 10
399.881681124315
 20
192.1696095325721
 30
0.0
 11
399.8482444506035
 21
192.2295983469881
 31
0.0
  0
LINE
  5
15078
330
1F
100
AcDbEntity
  8
0
  6
Continuous
 62
     7
100
AcDbLine
 10
402.1524313208455
 20
195.5868740258435
 30
0.0
 11
401.8692066905305
 21
195.6873896961166
 31
0.0
  0
SPLINE
  5
15079
330
1F
100
AcDbEntity
  8
0
  6
Continuous
 62
     7
100
AcDbSpline
210
0.0
220
0.0
230
1.0
 70
     8
 71
     3
 72
     9
 73
     5
 74
     0
 42
0.0000000001
 43
0.0000000001
 40
0.0
 40
0.0
 40
0.0
 40
0.0
 40
0.4518363184
 40
1.0
 40
1.0
 40
1.0
 40
1.0
 10
374.1377581478691
 20
212.0584648050759
 30
0.0
 10
374.1689459161253
 20
212.0471284690117
 30
0.0
 10
374.2310823822527
 20
212.0021234250522
 30
0.0
 10
374.2683392090685
 20
211.9372023356679
 30
0.0
 10
374.2848103941879
 20
211.900467258724
 30
0.0
  0
SPLINE
  5
1507A
330
1F
100
AcDbEntity
  8
0
  6
Continuous
 62
     7
100
AcDbSpline
210
0.0
220
0.0
230
1.0
 70
     8
 71
     3
 72
     9
 73
     5
 74
     0
 42
0.0000000001
 43
0.0000000001
 40
0.0
 40
0.0
 40
0.0
 40
0.0
 40
0.2515889136
 40
1.0
 40
1.0
 40
1.0
 40
1.0
 10
402.1081234995407
 20
198.5762791106678
 30
0.0
 10
402.1452547957951
 20
198.57866804986
 30
0.0
 10
402.2925478989646
 20
198.5922388010919
 30
0.0
 10
402.4383552960999
 20
198.6222449743242
 30
0.0
 10
402.5444392495963
 20
198.6538234033483
 30
0.0
  0
SPLINE
  5
1507B
330
1F
100
AcDbEntity
  8
0
  6
Continuous
 62
     7
100
AcDbSpline
210
0.0
220
0.0
230
1.0
 70
     8
 71
     3
 72
     9
 73
     5
 74
     0
 42
0.0000000001
 43
0.0000000001
 40
0.0
 40
0.0
 40
0.0
 40
0.0
 40
0.5567581268000003
 40
1.0
 40
1.0
 40
1.0
 40
1.0
 10
399.1756333649563
 20
195.8192933005476
 30
0.0
 10
399.4051563139464
 20
195.7491702914441
 30
0.0
 10
399.8160956341953
 20
195.6189796079799
 30
0.0
 10
400.2240523904447
 20
195.4793579148046
 30
0.0
 10
400.4029655506608
 20
195.4123102680529
 30
0.0
  0
SPLINE
  5
1507C
330
1F
100
AcDbEntity
  8
0
  6
Continuous
 62
     7
100
AcDbSpline
210
0.0
220
0.0
230
1.0
 70
     8
 71
     3
 72
     9
 73
     5
 74
     0
 42
0.0000000001
 43
0.0000000001
 40
0.0
 40
0.0
 40
0.0
 40
0.0
 40
0.2470601527
 40
1.0
 40
1.0
 40
1.0
 40
1.0
 10
400.3596758040993
 20
192.4370964979959
 30
0.0
 10
400.3311008910759
 20
192.476416922356
 30
0.0
 10
400.2095668424926
 20
192.6312409188041
 30
0.0
 10
400.0654727644112
 20
192.7681607646042
 30
0.0
 10
399.9481979406983
 20
192.8586609696282
 30
0.0
  0
SPLINE
  5
1507D
330
1F
100
AcDbEntity
  8
0
  6
Continuous
 62
     7
100
AcDbSpline
210
0.0
220
0.0
230
1.0
 70
     8
 71
     3
 72
     9
 73
     5
 74
     0
 42
0.0000000001
 43
0.0000000001
 40
0.0
 40
0.0
 40
0.0
 40
0.0
 40
0.2620245921
 40
1.0
 40
1.0
 40
1.0
 40
1.0
 10
400.8751822615477
 20
196.0682344667322
 30
0.0
 10
400.9612844190749
 20
196.033144495828
 30
0.0
 10
401.2905945627162
 20
195.9009820483722
 30
0.0
 10
401.622420189148
 20
195.7749702307962
 30
0.0
 10
401.8692066905305
 20
195.6873896961166
 30
0.0
  0
SPLINE
  5
1507E
330
1F
100
AcDbEntity
  8
0
  6
Continuous
 62
     7
100
AcDbSpline
210
0.0
220
0.0
230
1.0
 70
     8
 71
     3
 72
    13
 73
     9
 74
     0
 42
0.0000000001
 43
0.0000000001
 40
0.0
 40
0.0
 40
0.0
 40
0.0
 40
0.0675081511
 40
0.145462893
 40
0.238999345
 40
0.3509536265
 40
0.6347079456
 40
1.0
 40
1.0
 40
1.0
 40
1.0
 10
399.9646874141081
 20
191.5255138018352
 30
0.0
 10
399.9809118448601
 20
191.5215202958444
 30
0.0
 10
400.0177832391154
 20
191.5200668360918
 30
0.0
 10
400.0752747244596
 20
191.5364178096521
 30
0.0
 10
400.1374922689238
 20
191.569607149108
 30
0.0
 10
400.2348983559632
 20
191.6420531860836
 30
0.0
 10
400.3664707311645
 20
191.7781530213634
 30
0.0
 10
400.4647903447721
 20
191.9053422036042
 30
0.0
 10
400.5176376601239
 20
191.97870092086
 30
0.0
  0
SPLINE
  5
1507F
330
1F
100
AcDbEntity
  8
0
  6
Continuous
 62
     7
100
AcDbSpline
210
0.0
220
0.0
230
1.0
 70
     8
 71
     3
 72
    11
 73
     7
 74
     0
 42
0.0000000001
 43
0.0000000001
 40
0.0
 40
0.0
 40
0.0
 40
0.0
 40
0.1700704656
 40
0.3927451533
 40
0.6697706317000001
 40
1.0
 40
1.0
 40
1.0
 40
1.0
 10
387.7455790398026
 20
194.3809255992279
 30
0.0
 10
387.7999862576917
 20
194.4073821368921
 30
0.0
 10
387.9147529856682
 20
194.4898463442283
 30
0.0
 10
388.0833390088365
 20
194.6586025290286
 30
0.0
 10
388.2697376370988
 20
194.8881350765556
 30
0.0
 10
388.3937689696841
 20
195.0651373909719
 30
0.0
 10
388.4588377031332
 20
195.1629414685959
 30
0.0
  0
SPLINE
  5
15080
330
1F
100
AcDbEntity
  8
0
  6
Continuous
 62
     7
100
AcDbSpline
210
0.0
220
0.0
230
1.0
 70
     8
 71
     3
 72
     9
 73
     5
 74
     0
 42
0.0000000001
 43
0.0000000001
 40
0.0
 40
0.0
 40
0.0
 40
0.0
 40
0.271900157
 40
1.0
 40
1.0
 40
1.0
 40
1.0
 10
391.6614889228103
 20
203.977073974396
 30
0.0
 10
391.6663319411082
 20
204.0207656652039
 30
0.0
 10
391.6826269147232
 20
204.1816060237003
 30
0.0
 10
391.6927755228035
 20
204.343174477876
 30
0.0
 10
391.694488111204
 20
204.4608770966439
 30
0.0
  0
SPLINE
  5
15081
330
1F
100
AcDbEntity
  8
0
  6
Continuous
 62
     7
100
AcDbSpline
210
0.0
220
0.0
230
1.0
 70
     8
 71
     3
 72
     9
 73
     5
 74
     0
 42
0.0000000001
 43
0.0000000001
 40
0.0
 40
0.0
 40
0.0
 40
0.0
 40
0.4517952496000003
 40
1.0
 40
1.0
 40
1.0
 40
1.0
 10
369.8363080349091
 20
200.215465532716
 30
0.0
 10
369.867494063933
 20
200.2041298288838
 30
0.0
 10
369.9440421199715
 20
200.1987781475079
 30
0.0
 10
370.0142700573406
 20
200.2246734047082
 30
0.0
 10
370.050482580099
 20
200.2422738528764
 30
0.0
  0
SPLINE
  5
15082
330
1F
100
AcDbEntity
  8
0
  6
Continuous
 62
     7
100
AcDbSpline
210
0.0
220
0.0
230
1.0
 70
     8
 71
     3
 72
     9
 73
     5
 74
     0
 42
0.0000000001
 43
0.0000000001
 40
0.0
 40
0.0
 40
0.0
 40
0.0
 40
0.4518196201000002
 40
1.0
 40
1.0
 40
1.0
 40
1.0
 10
386.637374423427
 20
193.9216991990444
 30
0.0
 10
386.6694522180996
 20
193.9100381046761
 30
0.0
 10
386.7481876175089
 20
193.904563828252
 30
0.0
 10
386.8204245186762
 20
193.9311730435003
 30
0.0
 10
386.8576692340838
 20
193.9492754380118
 30
0.0
  0
SPLINE
  5
15083
330
1F
100
AcDbEntity
  8
0
  6
Continuous
 62
     7
100
AcDbSpline
210
0.0
220
0.0
230
1.0
 70
     8
 71
     3
 72
     9
 73
     5
 74
     0
 42
0.0000000001
 43
0.0000000001
 40
0.0
 40
0.0
 40
0.0
 40
0.0
 40
0.5481636816
 40
1.0
 40
1.0
 40
1.0
 40
1.0
 10
382.2296389630363
 20
196.4219708631637
 30
0.0
 10
382.244604211276
 20
196.3885944218441
 30
0.0
 10
382.2784546996599
 20
196.3296089748766
 30
0.0
 10
382.3349101173871
 20
196.2887186777804
 30
0.0
 10
382.3632464326357
 20
196.2784188067723
 30
0.0
  0
SPLINE
  5
15084
330
1F
100
AcDbEntity
  8
0
  6
Continuous
 62
     7
100
AcDbSpline
210
0.0
220
0.0
230
1.0
 70
     8
 71
     3
 72
    25
 73
    21
 74
     0
 42
0.0000000001
 43
0.0000000001
 40
0.0
 40
0.0
 40
0.0
 40
0.0
 40
0.046561904
 40
0.1040836088
 40
0.1712099464
 40
0.2462202732
 40
0.4117423073
 40
0.5829651502000001
 40
0.6649341595
 40
0.7414936019000003
 40
0.8106076678
 40
0.8704871833
 40
0.8964986418
 40
0.9196929804999999
 40
0.9399653378
 40
0.9572641286999999
 40
0.9716110231999998
 40
0.9831618061
 40
0.9923252498
 40
1.0
 40
1.0
 40
1.0
 40
1.0
 10
386.3988153010605
 20
194.7355140229234
 30
0.0
 10
386.4016570637314
 20
194.9308224318762
 30
0.0
 10
386.4379539297397
 20
195.36684007306
 30
0.0
 10
386.549992243853
 20
196.0765657360599
 30
0.0
 10
386.7243762855387
 20
196.8961488283472
 30
0.0
 10
387.0449528358759
 20
198.1466083712913
 30
0.0
 10
387.5611972308279
 20
199.7962551357165
 30
0.0
 10
388.178293526259
 20
201.4418627226766
 30
0.0
 10
388.7221506303404
 20
202.714009335508
 30
0.0
 10
389.1268238368111
 20
203.5792446799721
 30
0.0
 10
389.5227313630357
 20
204.3455468561321
 30
0.0
 10
389.849498673676
 20
204.9082496985644
 30
0.0
 10
390.1006006802445
 20
205.2909561467556
 30
0.0
 10
390.2710664880515
 20
205.5275138878598
 30
0.0
 10
390.4314660235968
 20
205.7258584178677
 30
0.0
 10
390.5807264888927
 20
205.8848215663717
 30
0.0
 10
390.7180719019243
 20
206.0037572188363
 30
0.0
 10
390.8433815652743
 20
206.0822806432608
 30
0.0
 10
390.9581805409716
 20
206.1203807155718
 30
0.0
 10
391.0314718084837
 20
206.1140896252843
 30
0.0
 10
391.0617303712342
 20
206.1030898679798
 30
0.0
  0
SPLINE
  5
15085
330
1F
100
AcDbEntity
  8
0
  6
Continuous
 62
     7
100
AcDbSpline
210
0.0
220
0.0
230
1.0
 70
     8
 71
     3
 72
     9
 73
     5
 74
     0
 42
0.0000000001
 43
0.0000000001
 40
0.0
 40
0.0
 40
0.0
 40
0.0
 40
0.2615794977
 40
1.0
 40
1.0
 40
1.0
 40
1.0
 10
390.9863391051394
 20
194.9667643630124
 30
0.0
 10
390.9852749521223
 20
194.9509500353321
 30
0.0
 10
390.981554572948
 20
194.8904708670044
 30
0.0
 10
390.9792675884209
 20
194.8298974590999
 30
0.0
 10
390.9786166308759
 20
194.7851585040276
 30
0.0
  0
SPLINE
  5
15086
330
1F
100
AcDbEntity
  8
0
  6
Continuous
 62
     7
100
AcDbSpline
210
0.0
220
0.0
230
1.0
 70
     8
 71
     3
 72
     8
 73
     4
 74
     0
 42
0.0000000001
 43
0.0000000001
 40
0.0
 40
0.0
 40
0.0
 40
0.0
 40
1.0
 40
1.0
 40
1.0
 40
1.0
 10
399.0625293721487
 20
200.5227449580281
 30
0.0
 10
400.1226225011078
 20
199.9970464546123
 30
0.0
 10
401.1824610426036
 20
199.4708340532835
 30
0.0
 10
402.2419701346361
 20
198.9439594548518
 30
0.0
  0
SPLINE
  5
15087
330
1F
100
AcDbEntity
  8
0
  6
Continuous
 62
     7
100
AcDbSpline
210
0.0
220
0.0
230
1.0
 70
     8
 71
     3
 72
    25
 73
    21
 74
     0
 42
0.0000000001
 43
0.0000000001
 40
0.0
 40
0.0
 40
0.0
 40
0.0
 40
0.0465600179
 40
0.1040849724
 40
0.1712097612
 40
0.2462205249
 40
0.4117415889
 40
0.5829638369
 40
0.6649328936
 40
0.7414925641
 40
0.8106068388999998
 40
0.8704863786
 40
0.8964975779000001
 40
0.9196920860999997
 40
0.9399648232
 40
0.9572631340999999
 40
0.9716112342
 40
0.9831611221999999
 40
0.9923255806
 40
1.0
 40
1.0
 40
1.0
 40
1.0
 10
387.7460783449014
 20
195.9592362740683
 30
0.0
 10
387.748130644276
 20
196.1002865170121
 30
0.0
 10
387.7743492379241
 20
196.41519160258
 30
0.0
 10
387.8552579797952
 20
196.9277714381561
 30
0.0
 10
387.9812114016268
 20
197.5196968251886
 30
0.0
 10
388.2127321315957
 20
198.4228007298522
 30
0.0
 10
388.5855771303168
 20
199.6142072951558
 30
0.0
 10
389.0312533789702
 20
200.8026971119476
 30
0.0
 10
389.4240369250592
 20
201.7214686639478
 30
0.0
 10
389.7163001275722
 20
202.3463621877878
 30
0.0
 10
390.0022329393168
 20
202.8998039312916
 30
0.0
 10
390.238231261229
 20
203.3061998921318
 30
0.0
 10
390.4195822898191
 20
203.5825989973957
 30
0.0
 10
390.5426982381641
 20
203.7534452241877
 30
0.0
 10
390.6585369852282
 20
203.8966999366354
 30
0.0
 10
390.7663466766999
 20
204.0114980774203
 30
0.0
 10
390.865527245357
 20
204.0974167145083
 30
0.0
 10
390.9560416083159
 20
204.154102594444
 30
0.0
 10
391.038946704196
 20
204.1816599724363
 30
0.0
 10
391.0918764927401
 20
204.1770774834764
 30
0.0
 10
391.1137309914984
 20
204.1691392104518
 30
0.0
  0
SPLINE
  5
15088
330
1F
100
AcDbEntity
  8
0
  6
Continuous
 62
     7
100
AcDbSpline
210
0.0
220
0.0
230
1.0
 70
     8
 71
     3
 72
    14
 73
    10
 74
     0
 42
0.0000000001
 43
0.0000000001
 40
0.0
 40
0.0
 40
0.0
 40
0.0
 40
0.0704116773
 40
0.1491463328
 40
0.2421938903
 40
0.3530900917
 40
0.4837149117
 40
0.6349964777000002
 40
1.0
 40
1.0
 40
1.0
 40
1.0
 10
397.5717552980195
 20
201.8235595387002
 30
0.0
 10
397.555401833476
 20
201.8295012018286
 30
0.0
 10
397.5180750935788
 20
201.8353813459241
 30
0.0
 10
397.4584185045868
 20
201.8246707471714
 30
0.0
 10
397.3940558636923
 20
201.7964071076437
 30
0.0
 10
397.324643073388
 20
201.7510269194924
 30
0.0
 10
397.2500299356279
 20
201.6886914713556
 30
0.0
 10
397.1365974221562
 20
201.5758605299803
 30
0.0
 10
397.0555849366365
 20
201.4768614611563
 30
0.0
 10
397.0009264538667
 20
201.4051136680847
 30
0.0
  0
SPLINE
  5
15089
330
1F
100
AcDbEntity
  8
0
  6
Continuous
 62
     7
100
AcDbSpline
210
0.0
220
0.0
230
1.0
 70
     8
 71
     3
 72
    10
 73
     6
 74
     0
 42
0.0000000001
 43
0.0000000001
 40
0.0
 40
0.0
 40
0.0
 40
0.0
 40
0.5809372217000001
 40
0.8099895666
 40
1.0
 40
1.0
 40
1.0
 40
1.0
 10
382.1525160012525
 20
196.9972797394117
 30
0.0
 10
382.1508708551091
 20
196.8842122867483
 30
0.0
 10
382.1551951092288
 20
196.7257429035163
 30
0.0
 10
382.1893258574684
 20
196.5338115493729
 30
0.0
 10
382.2145069559565
 20
196.455719220484
 30
0.0
 10
382.2296389630363
 20
196.4219708631637
 30
0.0
  0
SPLINE
  5
1508A
330
1F
100
AcDbEntity
  8
0
  6
Continuous
 62
     7
100
AcDbSpline
210
0.0
220
0.0
230
1.0
 70
     8
 71
     3
 72
    10
 73
     6
 74
     0
 42
0.0000000001
 43
0.0000000001
 40
0.0
 40
0.0
 40
0.0
 40
0.0
 40
0.3756730589
 40
0.6538204035000002
 40
1.0
 40
1.0
 40
1.0
 40
1.0
 10
402.4284392831551
 20
199.0402046498199
 30
0.0
 10
402.4724981180923
 20
199.0130383296042
 30
0.0
 10
402.5143617420043
 20
198.9214750590523
 30
0.0
 10
402.5382195817227
 20
198.7882100216681
 30
0.0
 10
402.5434634195561
 20
198.701510650708
 30
0.0
 10
402.5444392495963
 20
198.6538234033483
 30
0.0
  0
SPLINE
  5
1508B
330
1F
100
AcDbEntity
  8
0
  6
Continuous
 62
     7
100
AcDbSpline
210
0.0
220
0.0
230
1.0
 70
     8
 71
     3
 72
    11
 73
     7
 74
     0
 42
0.0000000001
 43
0.0000000001
 40
0.0
 40
0.0
 40
0.0
 40
0.0
 40
0.20221351
 40
0.4444013782000001
 40
0.7148084735
 40
1.0
 40
1.0
 40
1.0
 40
1.0
 10
398.8628862620199
 20
200.2340279900197
 30
0.0
 10
398.7311010134917
 20
200.0293002159161
 30
0.0
 10
398.4656994445495
 20
199.563866020012
 30
0.0
 10
398.0856230334511
 20
198.7913487892362
 30
0.0
 10
397.702854711556
 20
197.9099681440363
 30
0.0
 10
397.4614807901554
 20
197.2858485117646
 30
0.0
 10
397.3438381404039
 20
196.9632424620046
 30
0.0
  0
SPLINE
  5
1508C
330
1F
100
AcDbEntity
  8
0
  6
Continuous
 62
     7
100
AcDbSpline
210
0.0
220
0.0
230
1.0
 70
     8
 71
     3
 72
     9
 73
     5
 74
     0
 42
0.0000000001
 43
0.0000000001
 40
0.0
 40
0.0
 40
0.0
 40
0.0
 40
0.230043059
 40
1.0
 40
1.0
 40
1.0
 40
1.0
 10
393.7754481834027
 20
202.5766271970757
 30
0.0
 10
393.7563801523256
 20
202.5515974289807
 30
0.0
 10
393.6749430079954
 20
202.441686927628
 30
0.0
 10
393.5987376762741
 20
202.3279646404359
 30
0.0
 10
393.5421039834519
 20
202.2391728774048
 30
0.0
  0
SPLINE
  5
1508D
330
1F
100
AcDbEntity
  8
0
  6
Continuous
 62
     7
100
AcDbSpline
210
0.0
220
0.0
230
1.0
 70
     8
 71
     3
 72
    13
 73
     9
 74
     0
 42
0.0000000001
 43
0.0000000001
 40
0.0
 40
0.0
 40
0.0
 40
0.0
 40
0.3591489788
 40
0.6382751847
 40
0.7495186897
 40
0.8441874486999999
 40
0.9258032119000001
 40
1.0
 40
1.0
 40
1.0
 40
1.0
 10
369.6043720254993
 20
201.0066646725405
 30
0.0
 10
369.602867421484
 20
200.9032563822522
 30
0.0
 10
369.6072891476206
 20
200.7193306815404
 30
0.0
 10
369.6402783817966
 20
200.5045712506841
 30
0.0
 10
369.6869734033489
 20
200.3724610192118
 30
0.0
 10
369.7274339644837
 20
200.299617852556
 30
0.0
 10
369.776527037403
 20
200.2456467717881
 30
0.0
 10
369.8162279714679
 20
200.2227643668286
 30
0.0
 10
369.8363080349091
 20
200.215465532716
 30
0.0
  0
SPLINE
  5
1508E
330
1F
100
AcDbEntity
  8
0
  6
Continuous
 62
     7
100
AcDbSpline
210
0.0
220
0.0
230
1.0
 70
     8
 71
     3
 72
    12
 73
     8
 74
     0
 42
0.0000000001
 43
0.0000000001
 40
0.0
 40
0.0
 40
0.0
 40
0.0
 40
0.2982511782999999
 40
0.5729528805
 40
0.8105856845999998
 40
0.9119150119
 40
1.0
 40
1.0
 40
1.0
 40
1.0
 10
397.1399546590374
 20
196.3830936469
 30
0.0
 10
397.0322732736522
 20
196.0647051182438
 30
0.0
 10
396.8371853470589
 20
195.4489677416683
 30
0.0
 10
396.5995301846189
 20
194.5666889070523
 30
0.0
 10
396.4551703978114
 20
193.8897665717801
 30
0.0
 10
396.383611361739
 20
193.413739813996
 30
0.0
 10
396.3625799603552
 20
193.2011656085556
 30
0.0
 10
396.3564867193008
 20
193.1020881431791
 30
0.0
  0
SPLINE
  5
1508F
330
1F
100
AcDbEntity
  8
0
  6
Continuous
 62
     7
100
AcDbSpline
210
0.0
220
0.0
230
1.0
 70
     8
 71
     3
 72
    13
 73
     9
 74
     0
 42
0.0000000001
 43
0.0000000001
 40
0.0
 40
0.0
 40
0.0
 40
0.0
 40
0.3591723319
 40
0.6382697735000003
 40
0.7495130256
 40
0.8441804719
 40
0.9258010978999999
 40
1.0
 40
1.0
 40
1.0
 40
1.0
 10
386.3988153010605
 20
194.7355140229234
 30
0.0
 10
386.3972676049716
 20
194.6291441070999
 30
0.0
 10
386.4018067299885
 20
194.4399632081071
 30
0.0
 10
386.4357538359645
 20
194.2190730090039
 30
0.0
 10
386.4837721095146
 20
194.0831932600842
 30
0.0
 10
386.525396262653
 20
194.0082713879084
 30
0.0
 10
386.5758886284993
 20
193.95275544346
 30
0.0
 10
386.6167202766273
 20
193.9292075067875
 30
0.0
 10
386.637374423427
 20
193.9216991990444
 30
0.0
  0
SPLINE
  5
15090
330
1F
100
AcDbEntity
  8
0
  6
Continuous
 62
     7
100
AcDbSpline
210
0.0
220
0.0
230
1.0
 70
     8
 71
     3
 72
    15
 73
    11
 74
     0
 42
0.0000000001
 43
0.0000000001
 40
0.0
 40
0.0
 40
0.0
 40
0.0
 40
0.2045986013
 40
0.3786727635
 40
0.5226004394000002
 40
0.6386148316
 40
0.7319939861
 40
0.8132892411
 40
0.8979901832999999
 40
1.0
 40
1.0
 40
1.0
 40
1.0
 10
387.3376221622375
 20
195.079756188964
 30
0.0
 10
387.3366386292046
 20
195.0121600233157
 30
0.0
 10
387.3383475651873
 20
194.8869334064199
 30
0.0
 10
387.3546472022437
 20
194.7147863296365
 30
0.0
 10
387.3844629092682
 20
194.5740364495238
 30
0.0
 10
387.4279400272599
 20
194.464870712644
 30
0.0
 10
387.4869708283941
 20
194.386656714628
 30
0.0
 10
387.5652485592281
 20
194.344358074348
 30
0.0
 10
387.6566451767076
 20
194.3442575871883
 30
0.0
 10
387.7152668194112
 20
194.3661857093322
 30
0.0
 10
387.7455790398026
 20
194.3809255992279
 30
0.0
  0
SPLINE
  5
15091
330
1F
100
AcDbEntity
  8
0
  6
Continuous
 62
     7
100
AcDbSpline
210
0.0
220
0.0
230
1.0
 70
     8
 71
     3
 72
    13
 73
     9
 74
     0
 42
0.0000000001
 43
0.0000000001
 40
0.0
 40
0.0
 40
0.0
 40
0.0
 40
0.3518376708
 40
0.6258013743000001
 40
0.7364580259000002
 40
0.8326331984999999
 40
0.9185099238999999
 40
1.0
 40
1.0
 40
1.0
 40
1.0
 10
396.3522463480595
 20
192.8106562960849
 30
0.0
 10
396.3548848404761
 20
192.7517399971963
 30
0.0
 10
396.3641831152354
 20
192.6471039449804
 30
0.0
 10
396.3935719981246
 20
192.5260881335321
 30
0.0
 10
396.4288764257791
 20
192.4532721915881
 30
0.0
 10
396.4582814269478
 20
192.4135289569473
 30
0.0
 10
396.4927532281718
 20
192.3850730161481
 30
0.0
 10
396.5191398809793
 20
192.3741480709479
 30
0.0
 10
396.532402336853
 20
192.370878884236
 30
0.0
  0
SPLINE
  5
15092
330
1F
100
AcDbEntity
  8
0
  6
Continuous
 62
     7
100
AcDbSpline
210
0.0
220
0.0
230
1.0
 70
     8
 71
     3
 72
    12
 73
     8
 74
     0
 42
0.0000000001
 43
0.0000000001
 40
0.0
 40
0.0
 40
0.0
 40
0.0
 40
0.0928816263
 40
0.1982144008
 40
0.4402659810000002
 40
0.7127185762999999
 40
1.0
 40
1.0
 40
1.0
 40
1.0
 10
402.1486324546849
 20
198.8089777270121
 30
0.0
 10
402.0879463052196
 20
198.7178363774684
 30
0.0
 10
401.9644954248279
 20
198.5192886950678
 30
0.0
 10
401.7100157654192
 20
198.0668096761007
 30
0.0
 10
401.3866050577717
 20
197.4109806749563
 30
0.0
 10
401.0114319545327
 20
196.5431217533802
 30
0.0
 10
400.7760085761629
 20
195.9264226314768
 30
0.0
 10
400.6618120632055
 20
195.6075843346599
 30
0.0
  0
SPLINE
  5
15093
330
1F
100
AcDbEntity
  8
0
  6
Continuous
 62
     7
100
AcDbSpline
210
0.0
220
0.0
230
1.0
 70
     8
 71
     3
 72
    28
 73
    24
 74
     0
 42
0.0000000001
 43
0.0000000001
 40
0.0
 40
0.0
 40
0.0
 40
0.0
 40
0.0491473659
 40
0.1104396418
 40
0.1822171687
 40
0.2623742535
 40
0.3484900293
 40
0.4379293176
 40
0.5279406648000001
 40
0.6157526782
 40
0.6986706769
 40
0.7741734508000003
 40
0.8400126904999998
 40
0.8687128373
 40
0.8943382676999998
 40
0.9167455284
 40
0.9358454764000001
 40
0.9516337509999999
 40
0.9642456292
 40
0.9741000602999999
 40
0.9821831675
 40
0.9902316868999999
 40
1.0
 40
1.0
 40
1.0
 40
1.0
 10
387.3376221622375
 20
195.079756188964
 30
0.0
 10
387.3403364505639
 20
195.2663035513007
 30
0.0
 10
387.3770705600446
 20
195.6848773223561
 30
0.0
 10
387.4894809523003
 20
196.3676625513164
 30
0.0
 10
387.6642128622762
 20
197.1583725299798
 30
0.0
 10
387.8961214117489
 20
198.0319699342841
 30
0.0
 10
388.178301181445
 20
198.960947698252
 30
0.0
 10
388.5019555582612
 20
199.9158589782757
 30
0.0
 10
388.8568999669469
 20
200.8664641136199
 30
0.0
 10
389.2318761466604
 20
201.7826594932364
 30
0.0
 10
389.6148953491001
 20
202.6355313795881
 30
0.0
 10
389.9937123853715
 20
203.3981575110753
 30
0.0
 10
390.3084345722918
 20
203.9622016988921
 30
0.0
 10
390.5513191152522
 20
204.3484383317802
 30
0.0
 10
390.7166539727323
 20
204.58837865506
 30
0.0
 10
390.8722853532754
 20
204.7903788124123
 30
0.0
 10
391.0170370540845
 20
204.9530175113088
 30
0.0
 10
391.1499465679235
 20
205.0755413104841
 30
0.0
 10
391.2707495882669
 20
205.1573890344527
 30
0.0
 10
391.3809700897246
 20
205.1990510932844
 30
0.0
 10
391.483775497155
 20
205.1932307605963
 30
0.0
 10
391.5672540129863
 20
205.1335205904999
 30
0.0
 10
391.6016698352205
 20
205.0737120098681
 30
0.0
 10
391.6168466557474
 20
205.0398788389963
 30
0.0
  0
LINE
  5
15094
330
1F
100
AcDbEntity
  8
0
  6
Continuous
 62
     7
100
AcDbLine
 10
397.563278796627
 20
196.6939590527323
 30
0.0
 11
397.5117120174045
 21
196.7130750031962
 31
0.0
  0
LINE
  5
15095
330
1F
100
AcDbEntity
  8
0
  6
Continuous
 62
     7
100
AcDbLine
 10
397.563278796627
 20
196.6939590527323
 30
0.0
 11
399.5323390042368
 21
196.069027174564
 31
0.0
  0
LINE
  5
15096
330
1F
100
AcDbEntity
  8
0
  6
Continuous
 62
     7
100
AcDbLine
 10
400.5664919135806
 20
195.3363516114283
 30
0.0
 11
397.1399546590374
 21
196.3830936469
 31
0.0
  0
SPLINE
  5
15097
330
1F
100
AcDbEntity
  8
0
  6
Continuous
 62
     7
100
AcDbSpline
210
0.0
220
0.0
230
1.0
 70
     8
 71
     3
 72
    12
 73
     8
 74
     0
 42
0.0000000001
 43
0.0000000001
 40
0.0
 40
0.0
 40
0.0
 40
0.0
 40
0.3013153798999999
 40
0.578389959
 40
0.815532617
 40
0.9150144269
 40
1.0
 40
1.0
 40
1.0
 40
1.0
 10
400.5664919135806
 20
195.3363516114283
 30
0.0
 10
400.4581412367158
 20
195.0220211222201
 30
0.0
 10
400.2625192135481
 20
194.4142522620515
 30
0.0
 10
400.0266256683397
 20
193.5455511444517
 30
0.0
 10
399.8861028950931
 20
192.8824053003405
 30
0.0
 10
399.8204863795227
 20
192.421687593028
 30
0.0
 10
399.8033685703949
 20
192.2186568987396
 30
0.0
 10
399.7996458259486
 20
192.1249550676281
 30
0.0
  0
SPLINE
  5
15098
330
1F
100
AcDbEntity
  8
0
  6
Continuous
 62
     7
100
AcDbSpline
210
0.0
220
0.0
230
1.0
 70
     8
 71
     3
 72
    11
 73
     7
 74
     0
 42
0.0000000001
 43
0.0000000001
 40
0.0
 40
0.0
 40
0.0
 40
0.0
 40
0.2033445885
 40
0.4455784195000003
 40
0.7154168707
 40
1.0
 40
1.0
 40
1.0
 40
1.0
 10
396.7675822539159
 20
201.0676593484119
 30
0.0
 10
396.6350743932281
 20
200.8599101097881
 30
0.0
 10
396.3681720225168
 20
200.3897850381397
 30
0.0
 10
395.985655980413
 20
199.6114913905
 30
0.0
 10
395.6005232150919
 20
198.7259219726439
 30
0.0
 10
395.3573457725315
 20
198.0994307589396
 30
0.0
 10
395.238672136421
 20
197.7756391583321
 30
0.0
  0
SPLINE
  5
15099
330
1F
100
AcDbEntity
  8
0
  6
Continuous
 62
     7
100
AcDbSpline
210
0.0
220
0.0
230
1.0
 70
     8
 71
     3
 72
     8
 73
     4
 74
     0
 42
0.0000000001
 43
0.0000000001
 40
0.0
 40
0.0
 40
0.0
 40
0.0
 40
1.0
 40
1.0
 40
1.0
 40
1.0
 10
399.7976633562748
 20
191.9887040722361
 30
0.0
 10
398.6490205340442
 20
192.2619725240448
 30
0.0
 10
397.5005616034114
 20
192.5360146128998
 30
0.0
 10
396.3522463480595
 20
192.8106562960849
 30
0.0
  0
SPLINE
  5
1509A
330
1F
100
AcDbEntity
  8
0
  6
Continuous
 62
     7
100
AcDbSpline
210
0.0
220
0.0
230
1.0
 70
     8
 71
     3
 72
    13
 73
     9
 74
     0
 42
0.0000000001
 43
0.0000000001
 40
0.0
 40
0.0
 40
0.0
 40
0.0
 40
0.3578985999
 40
0.6343524048
 40
0.7445412976000001
 40
0.8390020742
 40
0.9220295967
 40
1.0
 40
1.0
 40
1.0
 40
1.0
 10
399.7976633562748
 20
191.9887040722361
 30
0.0
 10
399.7985212462109
 20
191.9265529420837
 30
0.0
 10
399.8046454570604
 20
191.8164263288442
 30
0.0
 10
399.8302686162507
 20
191.6885842377157
 30
0.0
 10
399.8634862172194
 20
191.6115502958675
 30
0.0
 10
399.8916455196768
 20
191.5698040021476
 30
0.0
 10
399.9253026397464
 20
191.5400032454201
 30
0.0
 10
399.9515385781241
 20
191.5287502762841
 30
0.0
 10
399.9646874141081
 20
191.5255138018352
 30
0.0
  0
SPLINE
  5
1509B
330
1F
100
AcDbEntity
  8
0
  6
Continuous
 62
     7
100
AcDbSpline
210
0.0
220
0.0
230
1.0
 70
     8
 71
     3
 72
    16
 73
    12
 74
     0
 42
0.0000000001
 43
0.0000000001
 40
0.0
 40
0.0
 40
0.0
 40
0.0
 40
0.212030081
 40
0.3938521486
 40
0.5450525750000002
 40
0.666700669
 40
0.7620998334
 40
0.8391514077
 40
0.8755265198
 40
0.9132482637
 40
1.0
 40
1.0
 40
1.0
 40
1.0
 10
400.5609708677556
 20
192.1601716426836
 30
0.0
 10
400.5264828571716
 20
192.1124127952841
 30
0.0
 10
400.4602769593955
 20
192.0251954712281
 30
0.0
 10
400.3607236659635
 20
191.9108955790845
 30
0.0
 10
400.2690593125961
 20
191.823576370132
 30
0.0
 10
400.1855635000602
 20
191.7636889708844
 30
0.0
 10
400.1096409594273
 20
191.7307965847
 30
0.0
 10
400.0493998151076
 20
191.729062081588
 30
0.0
 10
400.009887926836
 20
191.744698578556
 30
0.0
 10
399.9734487883225
 20
191.7712466341242
 30
0.0
 10
399.9534447362921
 20
191.8007555391401
 30
0.0
 10
399.9424029544599
 20
191.8221802983404
 30
0.0
  0
LINE
  5
1509C
330
1F
100
AcDbEntity
  8
0
  6
Continuous
 62
     7
100
AcDbLine
 10
401.765879942116
 20
195.3933742602759
 30
0.0
 11
402.0571111712206
 21
195.3156413026119
 31
0.0
  0
SPLINE
  5
1509D
330
1F
100
AcDbEntity
  8
0
  6
Continuous
 62
     7
100
AcDbSpline
210
0.0
220
0.0
230
1.0
 70
     8
 71
     3
 72
    11
 73
     7
 74
     0
 42
0.0000000001
 43
0.0000000001
 40
0.0
 40
0.0
 40
0.0
 40
0.0
 40
0.2871752332
 40
0.5595193339
 40
0.8015886777
 40
1.0
 40
1.0
 40
1.0
 40
1.0
 10
402.0571111712206
 20
195.3156413026119
 30
0.0
 10
401.9493140474906
 20
195.0149873213319
 30
0.0
 10
401.7271292477079
 20
194.4334911890205
 30
0.0
 10
401.3732661492022
 20
193.6148205825399
 30
0.0
 10
401.0221794817962
 20
192.9036961540838
 30
0.0
 10
400.7764387188516
 20
192.4789477386281
 30
0.0
 10
400.6543085477085
 20
192.295153370596
 30
0.0
  0
SPLINE
  5
1509E
330
1F
100
AcDbEntity
  8
0
  6
Continuous
 62
     7
100
AcDbSpline
210
0.0
220
0.0
230
1.0
 70
     8
 71
     3
 72
    14
 73
    10
 74
     0
 42
0.0000000001
 43
0.0000000001
 40
0.0
 40
0.0
 40
0.0
 40
0.0
 40
0.0698553594
 40
0.1465850719
 40
0.2375287077
 40
0.3470172521
 40
0.4773101296
 40
0.6294805324000003
 40
1.0
 40
1.0
 40
1.0
 40
1.0
 10
399.6455820685724
 20
200.9422639898682
 30
0.0
 10
399.6297111138273
 20
200.9500345090843
 30
0.0
 10
399.5927753469632
 20
200.9597188186118
 30
0.0
 10
399.532115405068
 20
200.95251542878
 30
0.0
 10
399.466621487355
 20
200.9259952403078
 30
0.0
 10
399.3957630155319
 20
200.8809444958598
 30
0.0
 10
399.3193012553084
 20
200.8175296335163
 30
0.0
 10
399.2022393548913
 20
200.7007695506915
 30
0.0
 10
399.1188646354831
 20
200.5976549784997
 30
0.0
 10
399.0625293721487
 20
200.5227449580281
 30
0.0
  0
LINE
  5
1509F
330
1F
100
AcDbEntity
  8
0
  6
Continuous
 62
     7
100
AcDbLine
 10
400.6543085477085
 20
192.295153370596
 30
0.0
 11
400.4608535614598
 21
192.5834162748521
 31
0.0
  0
SPLINE
  5
150A0
330
1F
100
AcDbEntity
  8
0
  6
Continuous
 62
     7
100
AcDbSpline
210
0.0
220
0.0
230
1.0
 70
     8
 71
     3
 72
    13
 73
     9
 74
     0
 42
0.0000000001
 43
0.0000000001
 40
0.0
 40
0.0
 40
0.0
 40
0.0
 40
0.3591489788
 40
0.6382751847
 40
0.7495186897
 40
0.8441874486999999
 40
0.9258032119000001
 40
1.0
 40
1.0
 40
1.0
 40
1.0
 10
370.8435970822839
 20
201.4610643316115
 30
0.0
 10
370.8423194584839
 20
201.3732559206038
 30
0.0
 10
370.8460741357239
 20
201.2170767256117
 30
0.0
 10
370.8740867082278
 20
201.0347152889077
 30
0.0
 10
370.9137374522425
 20
200.9225348294445
 30
0.0
 10
370.9480942487326
 20
200.8606805748037
 30
0.0
 10
370.9897812809077
 20
200.814851417044
 30
0.0
 10
371.0234930455235
 20
200.7954209863475
 30
0.0
 10
371.0405438879562
 20
200.7892232335481
 30
0.0
  0
LINE
  5
150A1
330
1F
100
AcDbEntity
  8
0
  6
Continuous
 62
     7
100
AcDbLine
 10
402.5422902586131
 20
198.5061277443634
 30
0.0
 11
402.8759442008438
 21
198.6167998477473
 31
0.0
  0
SPLINE
  5
150A2
330
1F
100
AcDbEntity
  8
0
  6
Continuous
 62
     7
100
AcDbSpline
210
0.0
220
0.0
230
1.0
 70
     8
 71
     3
 72
    12
 73
     8
 74
     0
 42
0.0000000001
 43
0.0000000001
 40
0.0
 40
0.0
 40
0.0
 40
0.0
 40
0.0851675526
 40
0.1847576487
 40
0.4219275210000001
 40
0.6988615795000001
 40
1.0
 40
1.0
 40
1.0
 40
1.0
 10
402.8759442008438
 20
198.6167998477473
 30
0.0
 10
402.8723067671078
 20
198.5282104655559
 30
0.0
 10
402.8559645397481
 20
198.33637329958
 30
0.0
 10
402.7938117930506
 20
197.9014026685715
 30
0.0
 10
402.6611895993164
 20
197.27576602798
 30
0.0
 10
402.4388070796821
 20
196.4564392303483
 30
0.0
 10
402.2544967981001
 20
195.8832956015323
 30
0.0
 10
402.1524313208455
 20
195.5868740258435
 30
0.0
  0
SPLINE
  5
150A3
330
1F
100
AcDbEntity
  8
0
  6
Continuous
 62
     7
100
AcDbSpline
210
0.0
220
0.0
230
1.0
 70
     8
 71
     3
 72
    13
 73
     9
 74
     0
 42
0.0000000001
 43
0.0000000001
 40
0.0
 40
0.0
 40
0.0
 40
0.0
 40
0.3591194248
 40
0.638280576
 40
0.7495253478000003
 40
0.8441938788999998
 40
0.9258071409000001
 40
1.0
 40
1.0
 40
1.0
 40
1.0
 10
387.7460783449014
 20
195.9592362740683
 30
0.0
 10
387.7449607259814
 20
195.8824246596515
 30
0.0
 10
387.7482532148452
 20
195.7457932748686
 30
0.0
 10
387.7727474589656
 20
195.5862532265802
 30
0.0
 10
387.8074426841804
 20
195.4881075377558
 30
0.0
 10
387.8374993385542
 20
195.4339968205487
 30
0.0
 10
387.8739642736591
 20
195.3938998640925
 30
0.0
 10
387.9034621708115
 20
195.3769124606439
 30
0.0
 10
387.9183792818685
 20
195.3714940750839
 30
0.0
  0
SPLINE
  5
150A4
330
1F
100
AcDbEntity
  8
0
  6
Continuous
 62
     7
100
AcDbSpline
210
0.0
220
0.0
230
1.0
 70
     8
 71
     3
 72
    12
 73
     8
 74
     0
 42
0.0000000001
 43
0.0000000001
 40
0.0
 40
0.0
 40
0.0
 40
0.0
 40
0.2973706652
 40
0.5714147046
 40
0.8091959775000001
 40
0.9110454620999998
 40
1.0
 40
1.0
 40
1.0
 40
1.0
 10
395.0003717622522
 20
197.0975573502516
 30
0.0
 10
394.8928522466204
 20
196.77790131322
 30
0.0
 10
394.6978563378989
 20
196.1596451940524
 30
0.0
 10
394.4596089409724
 20
195.2731173928356
 30
0.0
 10
394.3140683247884
 20
194.5919425597964
 30
0.0
 10
394.2407613710666
 20
194.1113115552276
 30
0.0
 10
394.2185906664517
 20
193.8959083918841
 30
0.0
 10
394.2118173756035
 20
193.7952508340196
 30
0.0
  0
SPLINE
  5
150A5
330
1F
100
AcDbEntity
  8
0
  6
Continuous
 62
     7
100
AcDbSpline
210
0.0
220
0.0
230
1.0
 70
     8
 71
     3
 72
     9
 73
     5
 74
     0
 42
0.0000000001
 43
0.0000000001
 40
0.0
 40
0.0
 40
0.0
 40
0.0
 40
0.2634928694
 40
1.0
 40
1.0
 40
1.0
 40
1.0
 10
390.9786166308759
 20
194.7851585040276
 30
0.0
 10
390.978413378044
 20
194.7711893642683
 30
0.0
 10
390.9780321741882
 20
194.7181705501727
 30
0.0
 10
390.979263942053
 20
194.6651295816756
 30
0.0
 10
390.981382930996
 20
194.6261368746042
 30
0.0
  0
SPLINE
  5
150A6
330
1F
100
AcDbEntity
  8
0
  6
Continuous
 62
     7
100
AcDbSpline
210
0.0
220
0.0
230
1.0
 70
     8
 71
     3
 72
    15
 73
    11
 74
     0
 42
0.0000000001
 43
0.0000000001
 40
0.0
 40
0.0
 40
0.0
 40
0.0
 40
0.1021896344
 40
0.1893491277
 40
0.2740789524
 40
0.3699686525
 40
0.4866121158
 40
0.6291798623
 40
0.8000793134999998
 40
1.0
 40
1.0
 40
1.0
 40
1.0
 10
402.6128023097799
 20
199.1746523525086
 30
0.0
 10
402.6316112451885
 20
199.1825681924207
 30
0.0
 10
402.668285082028
 20
199.1938817517158
 30
0.0
 10
402.7244668980284
 20
199.1911182348273
 30
0.0
 10
402.7729097855326
 20
199.1647165117726
 30
0.0
 10
402.8108222701964
 20
199.1176748906443
 30
0.0
 10
402.8397766944281
 20
199.0524195631478
 30
0.0
 10
402.8607809922768
 20
198.9688450494276
 30
0.0
 10
402.8739761090665
 20
198.8670201238844
 30
0.0
 10
402.8773079056109
 20
198.7929692455724
 30
0.0
 10
402.877926670516
 20
198.7530508431397
 30
0.0
  0
SPLINE
  5
150A7
330
1F
100
AcDbEntity
  8
0
  6
Continuous
 62
     7
100
AcDbSpline
210
0.0
220
0.0
230
1.0
 70
     8
 71
     3
 72
    12
 73
     8
 74
     0
 42
0.0000000001
 43
0.0000000001
 40
0.0
 40
0.0
 40
0.0
 40
0.0
 40
0.3583252852
 40
0.6411668028000001
 40
0.7547512996
 40
0.8509438856999999
 40
1.0
 40
1.0
 40
1.0
 40
1.0
 10
400.3596758040993
 20
192.4370964979959
 30
0.0
 10
400.3155008135791
 20
192.3763492717241
 30
0.0
 10
400.2328356237148
 20
192.270197794756
 30
0.0
 10
400.1228274136129
 20
192.1557389152359
 30
0.0
 10
400.0407300070355
 20
192.0924346299158
 30
0.0
 10
399.9760531283308
 20
192.0546206252685
 30
0.0
 10
399.923580324149
 20
192.0398983709803
 30
0.0
 10
399.8924936437479
 20
192.0430362413559
 30
0.0
  0
SPLINE
  5
150A8
330
1F
100
AcDbEntity
  8
0
  6
Continuous
 62
     7
100
AcDbSpline
210
0.0
220
0.0
230
1.0
 70
     8
 71
     3
 72
     9
 73
     5
 74
     0
 42
0.0000000001
 43
0.0000000001
 40
0.0
 40
0.0
 40
0.0
 40
0.0
 40
0.2322937942
 40
1.0
 40
1.0
 40
1.0
 40
1.0
 10
401.765879942116
 20
195.3933742602759
 30
0.0
 10
401.6855216344837
 20
195.4148220301009
 30
0.0
 10
401.3401210734762
 20
195.5091450389801
 30
0.0
 10
400.9964769140924
 20
195.6098491753725
 30
0.0
 10
400.7335610739401
 20
195.6900365781886
 30
0.0
  0
SPLINE
  5
150A9
330
1F
100
AcDbEntity
  8
0
  6
Continuous
 62
     7
100
AcDbSpline
210
0.0
220
0.0
230
1.0
 70
     8
 71
     3
 72
    11
 73
     7
 74
     0
 42
0.0000000001
 43
0.0000000001
 40
0.0
 40
0.0
 40
0.0
 40
0.0
 40
0.2868257964
 40
0.5588191374
 40
0.8009057772
 40
1.0
 40
1.0
 40
1.0
 40
1.0
 10
401.765879942116
 20
195.3933742602759
 30
0.0
 10
401.6654535256355
 20
195.1141261051477
 30
0.0
 10
401.4586363841798
 20
194.5740143728123
 30
0.0
 10
401.1295037805146
 20
193.8131982414758
 30
0.0
 10
400.8029051639323
 20
193.1512666492114
 30
0.0
 10
400.5743971226212
 20
192.7552852756127
 30
0.0
 10
400.4608535614598
 20
192.5834162748521
 30
0.0
  0
SPLINE
  5
150AA
330
1F
100
AcDbEntity
  8
0
  6
Continuous
 62
     7
100
AcDbSpline
210
0.0
220
0.0
230
1.0
 70
     8
 71
     3
 72
     9
 73
     5
 74
     0
 42
0.0000000001
 43
0.0000000001
 40
0.0
 40
0.0
 40
0.0
 40
0.0
 40
0.2520726124
 40
1.0
 40
1.0
 40
1.0
 40
1.0
 10
399.986180298557
 20
193.0902899996923
 30
0.0
 10
400.0323830031166
 20
193.0544274836199
 30
0.0
 10
400.2100052054927
 20
192.905026419388
 30
0.0
 10
400.3641644891549
 20
192.7275244582357
 30
0.0
 10
400.4608535614598
 20
192.5834162748521
 30
0.0
  0
SPLINE
  5
150AB
330
1F
100
AcDbEntity
  8
0
  6
Continuous
 62
     7
100
AcDbSpline
210
0.0
220
0.0
230
1.0
 70
     8
 71
     3
 72
    12
 73
     8
 74
     0
 42
0.0000000001
 43
0.0000000001
 40
0.0
 40
0.0
 40
0.0
 40
0.0
 40
0.085690836
 40
0.1855922487
 40
0.4228412415
 40
0.6993719450000003
 40
1.0
 40
1.0
 40
1.0
 40
1.0
 10
402.5422902586131
 20
198.5061277443634
 30
0.0
 10
402.5385723160606
 20
198.4232257056762
 30
0.0
 10
402.5228559746201
 20
198.2440128528039
 30
0.0
 10
402.4643814944438
 20
197.8385909613882
 30
0.0
 10
402.3408942523245
 20
197.2566559108841
 30
0.0
 10
402.1344968743242
 20
196.4951996608121
 30
0.0
 10
401.9637228217733
 20
195.9627570113563
 30
0.0
 10
401.8692066905305
 20
195.6873896961166
 30
0.0
  0
SPLINE
  5
150AC
330
1F
100
AcDbEntity
  8
0
  6
Continuous
 62
     7
100
AcDbSpline
210
0.0
220
0.0
230
1.0
 70
     8
 71
     3
 72
    25
 73
    21
 74
     0
 42
0.0000000001
 43
0.0000000001
 40
0.0
 40
0.0
 40
0.0
 40
0.0
 40
0.0465611568
 40
0.1040841124
 40
0.1712098996
 40
0.2462204873
 40
0.4117423729
 40
0.5829649328000001
 40
0.6649337662
 40
0.7414930377
 40
0.8106069610999997
 40
0.8704863795000001
 40
0.8964991952
 40
0.9196921785999998
 40
0.9399659103999999
 40
0.957263389
 40
0.9716115271999999
 40
0.9831613541000001
 40
0.9923254718
 40
1.0
 40
1.0
 40
1.0
 40
1.0
 10
369.6043720254993
 20
201.0066646725405
 30
0.0
 10
369.6071348054675
 20
201.1965447615159
 30
0.0
 10
369.6424254405874
 20
201.6204525590439
 30
0.0
 10
369.751347325996
 20
202.3104639343725
 30
0.0
 10
369.9208922527242
 20
203.1072837081153
 30
0.0
 10
370.2325609233876
 20
204.3230068124682
 30
0.0
 10
370.7344670520752
 20
205.9268285486202
 30
0.0
 10
371.334420825172
 20
207.526721988964
 30
0.0
 10
371.8631694351416
 20
208.7635288199796
 30
0.0
 10
372.2566021022694
 20
209.6047269498996
 30
0.0
 10
372.6415072609007
 20
210.3497441897804
 30
0.0
 10
372.9592104299801
 20
210.8968128043958
 30
0.0
 10
373.2033190639495
 20
211.2689008679805
 30
0.0
 10
373.3690696727563
 20
211.498878980956
 30
0.0
 10
373.5249918734689
 20
211.6917264662685
 30
0.0
 10
373.6701288240265
 20
211.8462569393079
 30
0.0
 10
373.8036378361494
 20
211.9619121519642
 30
0.0
 10
373.9254831744283
 20
212.03822647138
 30
0.0
 10
374.0370851838752
 20
212.075302285372
 30
0.0
 10
374.1083405907639
 20
212.0691576930523
 30
0.0
 10
374.1377581478691
 20
212.0584648050759
 30
0.0
  0
SPLINE
  5
150AD
330
1F
100
AcDbEntity
  8
0
  6
Continuous
 62
     7
100
AcDbSpline
210
0.0
220
0.0
230
1.0
 70
     8
 71
     3
 72
    14
 73
    10
 74
     0
 42
0.0000000001
 43
0.0000000001
 40
0.0
 40
0.0
 40
0.0
 40
0.0
 40
0.0671869594
 40
0.1419315247
 40
0.2318624754
 40
0.3412609332
 40
0.4722338537
 40
0.6256997147
 40
1.0
 40
1.0
 40
1.0
 40
1.0
 10
402.8203059665566
 20
199.3879278910114
 30
0.0
 10
402.8048292779812
 20
199.395505331716
 30
0.0
 10
402.7683139258106
 20
199.4045405285557
 30
0.0
 10
402.7084822374263
 20
199.3954214929723
 30
0.0
 10
402.6438138840993
 20
199.366532708476
 30
0.0
 10
402.5736085021733
 20
199.3185913456833
 30
0.0
 10
402.4976477492682
 20
199.2517413127244
 30
0.0
 10
402.3810801107074
 20
199.1292393533082
 30
0.0
 10
402.2980839914916
 20
199.0218525423166
 30
0.0
 10
402.2419701346361
 20
198.9439594548518
 30
0.0
  0
SPLINE
  5
150AE
330
1F
100
AcDbEntity
  8
0
  6
Continuous
 62
     7
100
AcDbSpline
210
0.0
220
0.0
230
1.0
 70
     8
 71
     3
 72
    25
 73
    21
 74
     0
 42
0.0000000001
 43
0.0000000001
 40
0.0
 40
0.0
 40
0.0
 40
0.0
 40
0.0465611568
 40
0.1040841124
 40
0.1712098996
 40
0.2462204873
 40
0.4117423729
 40
0.5829649328000001
 40
0.6649337662
 40
0.7414930377
 40
0.8106069610999997
 40
0.8704863795000001
 40
0.8964991952
 40
0.9196921785999998
 40
0.9399659103999999
 40
0.957263389
 40
0.9716115271999999
 40
0.9831613541000001
 40
0.9923254718
 40
1.0
 40
1.0
 40
1.0
 40
1.0
 10
370.8435970822839
 20
201.4610643316115
 30
0.0
 10
370.8459430771481
 20
201.6222996529479
 30
0.0
 10
370.875909867892
 20
201.9822579312524
 30
0.0
 10
370.9684001088526
 20
202.5681761620127
 30
0.0
 10
371.1123679723705
 20
203.2447899813157
 30
0.0
 10
371.3770191978519
 20
204.277112571676
 30
0.0
 10
371.8032092019885
 20
205.6389863429564
 30
0.0
 10
372.3126556630132
 20
206.9975244301242
 30
0.0
 10
372.7616387683474
 20
208.0477501162601
 30
0.0
 10
373.0957193074128
 20
208.7620474997567
 30
0.0
 10
373.4225587735718
 20
209.3946735674914
 30
0.0
 10
373.6923341502761
 20
209.8592129739642
 30
0.0
 10
373.8996172531943
 20
210.1751688953556
 30
0.0
 10
374.0403631987257
 20
210.3704531672435
 30
0.0
 10
374.1727634217158
 20
210.5342082318999
 30
0.0
 10
374.2960054266523
 20
210.6654266793636
 30
0.0
 10
374.4093736506029
 20
210.7636344770441
 30
0.0
 10
374.5128377492447
 20
210.8284362362198
 30
0.0
 10
374.6076037984594
 20
210.859918898908
 30
0.0
 10
374.6681098182535
 20
210.8547012622363
 30
0.0
 10
374.6930895266914
 20
210.8456214727727
 30
0.0
  0
SPLINE
  5
150AF
330
1F
100
AcDbEntity
  8
0
  6
Continuous
 62
     7
100
AcDbSpline
210
0.0
220
0.0
230
1.0
 70
     8
 71
     3
 72
    22
 73
    18
 74
     0
 42
0.0000000001
 43
0.0000000001
 40
0.0
 40
0.0
 40
0.0
 40
0.0
 40
0.0439284694
 40
0.0976662423
 40
0.1601140073
 40
0.2298931089
 40
0.384846324
 40
0.5481063865
 40
0.7043309553000002
 40
0.7751830122
 40
0.8389597779
 40
0.8942355937999998
 40
0.9398641326999999
 40
0.9588163043999999
 40
0.9751226567999999
 40
0.9888099929
 40
1.0
 40
1.0
 40
1.0
 40
1.0
 10
381.9475327201008
 20
197.4280466720921
 30
0.0
 10
381.9497061635093
 20
197.5774228939478
 30
0.0
 10
381.97581955234
 20
197.9091482001886
 30
0.0
 10
382.0570548517963
 20
198.4477878260683
 30
0.0
 10
382.183671390244
 20
199.0676697922128
 30
0.0
 10
382.4176920227083
 20
200.0160496622926
 30
0.0
 10
382.7990936185715
 20
201.2801636234928
 30
0.0
 10
383.3468211911559
 20
202.7984648661401
 30
0.0
 10
383.8629696021172
 20
204.022429100428
 30
0.0
 10
384.2922771622589
 20
204.9137388447881
 30
0.0
 10
384.5951437164995
 20
205.4844098213086
 30
0.0
 10
384.8819555581732
 20
205.965695167276
 30
0.0
 10
385.1138275975237
 20
206.30166825946
 30
0.0
 10
385.288560141099
 20
206.514331010572
 30
0.0
 10
385.4033281373549
 20
206.6351895397481
 30
0.0
 10
385.5093455460765
 20
206.7270561871247
 30
0.0
 10
385.5809338722529
 20
206.7732045388845
 30
0.0
 10
385.6151603793396
 20
206.7898397197001
 30
0.0
  0
SPLINE
  5
150B0
330
1F
100
AcDbEntity
  8
0
  6
Continuous
 62
     7
100
AcDbSpline
210
0.0
220
0.0
230
1.0
 70
     8
 71
     3
 72
    15
 73
    11
 74
     0
 42
0.0000000001
 43
0.0000000001
 40
0.0
 40
0.0
 40
0.0
 40
0.0
 40
0.1197370129
 40
0.243206464
 40
0.3714361759
 40
0.5031152537
 40
0.6349252204
 40
0.7628769425000002
 40
0.8843922984999997
 40
1.0
 40
1.0
 40
1.0
 40
1.0
 10
385.0232380937077
 20
204.1244348330207
 30
0.0
 10
385.0517634158687
 20
204.1858550143476
 30
0.0
 10
385.1326965899307
 20
204.3010892625877
 30
0.0
 10
385.3062565203391
 20
204.425439474028
 30
0.0
 10
385.514926192348
 20
204.4946235028362
 30
0.0
 10
385.7387667111152
 20
204.5053175191962
 30
0.0
 10
385.9577375965719
 20
204.4589214070117
 30
0.0
 10
386.1523229200366
 20
204.3598241624442
 30
0.0
 10
386.3044031229156
 20
204.2155638870524
 30
0.0
 10
386.3677078068276
 20
204.0936662290366
 30
0.0
 10
386.3867091053553
 20
204.03110251498
 30
0.0
  0
SPLINE
  5
150B1
330
1F
100
AcDbEntity
  8
0
  6
Continuous
 62
     7
100
AcDbSpline
210
0.0
220
0.0
230
1.0
 70
     8
 71
     3
 72
    12
 73
     8
 74
     0
 42
0.0000000001
 43
0.0000000001
 40
0.0
 40
0.0
 40
0.0
 40
0.0
 40
0.3465413639
 40
0.6207222739000003
 40
0.7331186411
 40
0.8315655218000001
 40
1.0
 40
1.0
 40
1.0
 40
1.0
 10
394.2068612013892
 20
193.4546233455409
 30
0.0
 10
394.2098838490118
 20
193.3990019060444
 30
0.0
 10
394.2196114351473
 20
193.2995388970118
 30
0.0
 10
394.2477403363946
 20
193.1842298779963
 30
0.0
 10
394.2807587598045
 20
193.1132286236204
 30
0.0
 10
394.3150054013321
 20
193.0626887160279
 30
0.0
 10
394.3509412381
 20
193.0351366900119
 30
0.0
 10
394.37638808254
 20
193.0258911508605
 30
0.0
  0
SPLINE
  5
150B2
330
1F
100
AcDbEntity
  8
0
  6
Continuous
 62
     7
100
AcDbSpline
210
0.0
220
0.0
230
1.0
 70
     8
 71
     3
 72
    22
 73
    18
 74
     0
 42
0.0000000001
 43
0.0000000001
 40
0.0
 40
0.0
 40
0.0
 40
0.0
 40
0.0439284694
 40
0.0976662423
 40
0.1601140073
 40
0.2298931089
 40
0.384846324
 40
0.5481063865
 40
0.7043309553000002
 40
0.7751830122
 40
0.8389597779
 40
0.8942355937999998
 40
0.9398641326999999
 40
0.9588163043999999
 40
0.9751226567999999
 40
0.9888099929
 40
1.0
 40
1.0
 40
1.0
 40
1.0
 10
382.1525160012525
 20
196.9972797394117
 30
0.0
 10
382.1548415564675
 20
197.1571102863878
 30
0.0
 10
382.1827825310183
 20
197.5120518993882
 30
0.0
 10
382.2697032080914
 20
198.0883890495403
 30
0.0
 10
382.405181200108
 20
198.7516544103397
 30
0.0
 10
382.6555801271798
 20
199.7664081071085
 30
0.0
 10
383.0636747014369
 20
201.1189930319557
 30
0.0
 10
383.649735832324
 20
202.7435549268281
 30
0.0
 10
384.2020076851958
 20
204.0531801842918
 30
0.0
 10
384.6613609965416
 20
205.006869614596
 30
0.0
 10
384.9854241332678
 20
205.6174798789477
 30
0.0
 10
385.2923089437145
 20
206.1324487214685
 30
0.0
 10
385.5404089050272
 20
206.4919354082673
 30
0.0
 10
385.7273703750025
 20
206.7194816897801
 30
0.0
 10
385.8501705863555
 20
206.8487986893885
 30
0.0
 10
385.9636077867408
 20
206.9470947656197
 30
0.0
 10
386.0402063322754
 20
206.9964728808519
 30
0.0
 10
386.0768282341478
 20
207.0142723004444
 30
0.0
  0
SPLINE
  5
150B3
330
1F
100
AcDbEntity
  8
0
  6
Continuous
 62
     7
100
AcDbSpline
210
0.0
220
0.0
230
1.0
 70
     8
 71
     3
 72
    10
 73
     6
 74
     0
 42
0.0000000001
 43
0.0000000001
 40
0.0
 40
0.0
 40
0.0
 40
0.0
 40
0.5809372217000001
 40
0.8099895666
 40
1.0
 40
1.0
 40
1.0
 40
1.0
 10
381.9475327201008
 20
197.4280466720921
 30
0.0
 10
381.9459951810523
 20
197.3223748263641
 30
0.0
 10
381.9500365908762
 20
197.1742707361483
 30
0.0
 10
381.9819348876763
 20
196.9948933825004
 30
0.0
 10
382.0054689205726
 20
196.9219089795639
 30
0.0
 10
382.0196111611467
 20
196.8903680619643
 30
0.0
  0
DIMENSION
  5
150B4
102
{ACAD_XDICTIONARY
360
150B5
102
}
102
{ACAD_REACTORS
330
150B6
102
}
330
1F
100
AcDbEntity
  8
DIM
100
AcDbDimension
  2
*D5
 10
387.8874994331222
 20
233.3466400830858
 30
0.0
 11
386.3374994331222
 21
242.0966400830859
 31
0.0
 70
    32
  1
%%C<>
 71
     5
 42
17.5
 73
     0
 74
     0
 75
     0
  3
01
100
AcDbAlignedDimension
 13
399.4231181027051
 23
250.8466400830858
 33
0.0
 14
399.4231181027051
 24
233.3466400830858
 34
0.0
 50
90.0
100
AcDbRotatedDimension
  0
DIMENSION
  5
150B7
102
{ACAD_XDICTIONARY
360
150B8
102
}
102
{ACAD_REACTORS
330
150B9
102
}
330
1F
100
AcDbEntity
  8
DIM
100
AcDbDimension
  2
*D6
 10
421.9231181027051
 20
230.3016391734564
 30
0.0
 11
410.6731181027051
 21
231.8516391734564
 31
0.0
 70
    32
 71
     5
 42
22.5
 73
     0
 74
     0
 75
     0
  3
01
100
AcDbAlignedDimension
 13
399.4231181027051
 23
233.5874286317353
 33
0.0
 14
421.9231181027051
 24
237.7105677371356
 34
0.0
100
AcDbRotatedDimension
  0
DIMENSION
  5
150BA
102
{ACAD_XDICTIONARY
360
150BB
102
}
102
{ACAD_REACTORS
330
150BC
102
}
330
1F
100
AcDbEntity
  8
DIM
100
AcDbDimension
  2
*D7
 10
445.0231181027056
 20
225.1397912901445
 30
0.0
 11
422.2231181027053
 21
226.6897912901446
 31
0.0
 70
    32
 71
     5
 42
45.60000000000036
 73
     0
 74
     0
 75
     0
  3
01
100
AcDbAlignedDimension
 13
399.4231181027051
 23
231.6945339025957
 33
0.0
 14
445.0231181027056
 24
238.3708612108021
 34
0.0
100
AcDbRotatedDimension
  0
DIMENSION
  5
150BD
102
{ACAD_XDICTIONARY
360
150BE
102
}
102
{ACAD_REACTORS
330
150BF
102
}
330
1F
100
AcDbEntity
  8
DIM
100
AcDbDimension
  2
*D8
 10
453.7622298907924
 20
251.0966400830858
 30
0.0
 11
452.2122298907921
 21
242.0966400830859
 31
0.0
 70
    32
  1
%%C<>
 71
     5
 42
18.0
 73
     0
 74
     0
 75
     0
  3
01
100
AcDbAlignedDimension
 13
426.2231181027043
 23
233.0966400830858
 33
0.0
 14
425.9964507348276
 24
251.0966400830858
 34
0.0
 50
90.0
100
AcDbRotatedDimension
  0
DIMENSION
  5
150C0
102
{ACAD_XDICTIONARY
360
150C1
102
}
102
{ACAD_REACTORS
330
150C2
102
}
330
1F
100
AcDbEntity
  8
DIM
100
AcDbDimension
  2
*D9
 10
449.7240855748763
 20
235.5966400830862
 30
0.0
 11
448.1740855748761
 21
242.0966400830861
 31
0.0
 70
    32
  1
%%C<>
 71
     5
 42
12.99999999999954
 73
     0
 74
     0
 75
     0
  3
01
100
AcDbAlignedDimension
 13
434.9441788776547
 23
248.5966400830858
 33
0.0
 14
434.9441788776547
 24
235.5966400830862
 34
0.0
 50
90.0
100
AcDbRotatedDimension
  0
ENDSEC
  0
SECTION
  2
OBJECTS
  0
DICTIONARY
  5
C
330
0
100
AcDbDictionary
281
     1
  3
ACAD_COLOR
350
4FFE
  3
ACAD_GROUP
350
D
  3
ACAD_LAYOUT
350
1A
  3
ACAD_MATERIAL
350
4FE5
  3
ACAD_MLEADERSTYLE
350
5022
  3
ACAD_MLINESTYLE
350
17
  3
ACAD_PLOTSETTINGS
350
19
  3
ACAD_PLOTSTYLENAME
350
E
  3
ACAD_RENDER_PLOT_SETTINGS
350
6537
  3
ACAD_SCALELIST
350
5000
  3
ACAD_TABLESTYLE
350
4FE3
  3
ACAD_VISUALSTYLE
350
2A
  3
ACDB_RECOMPOSE_DATA
350
50EC
  3
AcDbVariableDictionary
350
5108
  3
ASE_INDEX_DICTIONARY
350
14143
  0
DICTIONARY
  5
50EE
330
8
100
AcDbDictionary
280
     1
281
     1
  0
DICTIONARY
  5
50B8
330
2
100
AcDbDictionary
280
     1
281
     1
  3
ACAD_LAYERFILTERS
360
146E2
  3
ACAD_LAYERSTATES
360
50B9
  3
ACLYDICTIONARY
360
146E1
  0
DICTIONARY
  5
50D0
330
10
100
AcDbDictionary
280
     1
281
     1
  3
ADSK_XREC_LAYER_RECONCILED
360
50D1
  0
DICTIONARY
  5
50D2
330
3B
100
AcDbDictionary
280
     1
281
     1
  3
ADSK_XREC_LAYER_RECONCILED
360
50D3
  0
DICTIONARY
  5
50AF
330
50AE
100
AcDbDictionary
280
     1
281
     1
  3
ADSK_XREC_LAYER_RECONCILED
360
50D4
  0
DICTIONARY
  5
67C0
330
1F
100
AcDbDictionary
280
     1
281
     1
  3
ACAD_SORTENTS
360
67C1
  0
DICTIONARY
  5
15326
330
13E17
100
AcDbDictionary
280
     1
281
     1
  0
DICTIONARY
  5
15357
330
15291
100
AcDbDictionary
280
     1
281
     1
  3
ACAD_MTEXT_2008_RT
360
15358
  0
DICTIONARY
  5
15359
330
152D5
100
AcDbDictionary
280
     1
281
     1
  3
ACAD_MTEXT_2008_RT
360
1535A
  0
DICTIONARY
  5
1535B
330
152D6
100
AcDbDictionary
280
     1
281
     1
  3
ACAD_MTEXT_2008_RT
360
1535C
  0
DICTIONARY
  5
1535D
330
152FB
100
AcDbDictionary
280
     1
281
     1
  3
ACAD_MTEXT_2008_RT
360
1535E
  0
DICTIONARY
  5
1535F
330
152FE
100
AcDbDictionary
280
     1
281
     1
  3
ACAD_MTEXT_2008_RT
360
15360
  0
DICTIONARY
  5
15361
330
152FF
100
AcDbDictionary
280
     1
281
     1
  3
ACAD_MTEXT_2008_RT
360
15362
  0
DICTIONARY
  5
15363
330
15309
100
AcDbDictionary
280
     1
281
     1
  3
ACAD_MTEXT_2008_RT
360
15364
  0
DICTIONARY
  5
15365
330
1530A
100
AcDbDictionary
280
     1
281
     1
  3
ACAD_MTEXT_2008_RT
360
15366
  0
DICTIONARY
  5
15367
330
1530B
100
AcDbDictionary
280
     1
281
     1
  3
ACAD_MTEXT_2008_RT
360
15368
  0
DICTIONARY
  5
15369
330
15319
100
AcDbDictionary
280
     1
281
     1
  3
ACAD_MTEXT_2008_RT
360
1536A
  0
DICTIONARY
  5
1536B
330
1531A
100
AcDbDictionary
280
     1
281
     1
  3
ACAD_MTEXT_2008_RT
360
1536C
  0
DICTIONARY
  5
1536D
330
1531B
100
AcDbDictionary
280
     1
281
     1
  3
ACAD_MTEXT_2008_RT
360
1536E
  0
DICTIONARY
  5
15355
330
12C4B
100
AcDbDictionary
280
     1
281
     1
  3
ACAD_MTEXT_2008_RT
360
15356
  0
DICTIONARY
  5
150B5
330
150B4
100
AcDbDictionary
280
     1
281
     1
  3
ACAD_DIMASSOC
360
150B6
  0
DICTIONARY
  5
150B8
330
150B7
100
AcDbDictionary
280
     1
281
     1
  3
ACAD_DIMASSOC
360
150B9
  0
DICTIONARY
  5
150BB
330
150BA
100
AcDbDictionary
280
     1
281
     1
  3
ACAD_DIMASSOC
360
150BC
  0
DICTIONARY
  5
150BE
330
150BD
100
AcDbDictionary
280
     1
281
     1
  3
ACAD_DIMASSOC
360
150BF
  0
DICTIONARY
  5
150C1
330
150C0
100
AcDbDictionary
280
     1
281
     1
  3
ACAD_DIMASSOC
360
150C2
  0
DICTIONARY
  5
4FFE
102
{ACAD_REACTORS
330
C
102
}
330
C
100
AcDbDictionary
281
     1
  0
DICTIONARY
  5
D
102
{ACAD_REACTORS
330
C
102
}
330
C
100
AcDbDictionary
281
     1
  0
DICTIONARY
  5
1A
102
{ACAD_REACTORS
330
C
102
}
330
C
100
AcDbDictionary
281
     1
  3
Layout1
350
1E
  3
Layout2
350
26
  3
Model
350
22
  0
DICTIONARY
  5
4FE5
102
{ACAD_REACTORS
330
C
102
}
330
C
100
AcDbDictionary
281
     1
  3
ByBlock
350
4FEE
  3
ByLayer
350
4FE6
  3
Global
350
4FF6
  0
DICTIONARY
  5
5022
102
{ACAD_REACTORS
330
C
102
}
330
C
100
AcDbDictionary
281
     1
  3
Standard
350
5023
  0
DICTIONARY
  5
17
102
{ACAD_REACTORS
330
C
102
}
330
C
100
AcDbDictionary
281
     1
  3
Standard
350
18
  0
DICTIONARY
  5
19
102
{ACAD_REACTORS
330
C
102
}
330
C
100
AcDbDictionary
281
     1
  0
ACDBDICTIONARYWDFLT
  5
E
102
{ACAD_REACTORS
330
C
102
}
330
C
100
AcDbDictionary
281
     1
  3
Normal
350
F
100
AcDbDictionaryWithDefault
340
F
  0
DICTIONARY
  5
6537
102
{ACAD_REACTORS
330
C
102
}
330
C
100
AcDbDictionary
281
     1
  3
{1DC63513-1B1A-422F-9880-65CFD2B8D533}
350
6538
  0
DICTIONARY
  5
5000
102
{ACAD_REACTORS
330
C
102
}
330
C
100
AcDbDictionary
281
     1
  3
A0
350
5001
  3
A1
350
5002
  3
A2
350
5003
  3
A3
350
5004
  3
A4
350
5005
  3
A5
350
5006
  3
A6
350
5007
  3
A7
350
5008
  3
A8
350
5009
  3
A9
350
500A
  3
B0
350
500B
  3
B1
350
500C
  3
B2
350
500D
  3
B3
350
500E
  3
B4
350
500F
  3
B5
350
5010
  3
B6
350
5011
  3
B7
350
5012
  3
B8
350
5013
  3
B9
350
5014
  3
C0
350
5015
  3
C1
350
5016
  3
C2
350
5017
  3
C3
350
5018
  3
C4
350
5019
  3
C5
350
501A
  3
C6
350
501B
  3
C7
350
501C
  3
C8
350
501D
  3
C9
350
501E
  3
D0
350
501F
  3
D1
350
5020
  3
D2
350
5021
  0
DICTIONARY
  5
4FE3
102
{ACAD_REACTORS
330
C
102
}
330
C
100
AcDbDictionary
281
     1
  3
Standard
350
4FFF
  0
DICTIONARY
  5
2A
102
{ACAD_REACTORS
330
C
102
}
330
C
100
AcDbDictionary
281
     1
  3
2dWireframe
350
2F
  3
3D Hidden
350
31
  3
3dWireframe
350
30
  3
Basic
350
32
  3
Brighten
350
36
  3
ColorChange
350
3A
  3
Conceptual
350
34
  3
Dim
350
35
  3
Facepattern
350
39
  3
Flat
350
2B
  3
FlatWithEdges
350
2C
  3
Gouraud
350
2D
  3
GouraudWithEdges
350
2E
  3
Linepattern
350
38
  3
Realistic
350
33
  3
Thicken
350
37
  0
XRECORD
  5
50EC
102
{ACAD_REACTORS
330
C
102
}
330
C
100
AcDbXrecord
280
     1
 90
        1
330
4FFF
330
12C4B
330
15291
330
152D5
330
152D6
330
152FB
330
152FE
330
152FF
330
15309
330
1530A
330
1530B
330
15319
330
1531A
330
1531B
  0
DICTIONARY
  5
5108
102
{ACAD_REACTORS
330
C
102
}
330
C
100
AcDbDictionary
281
     1
  3
CANNOSCALE
350
510B
  3
CMLEADERSTYLE
350
510A
  3
CTABLESTYLE
350
5109
  3
DIMASSOC
350
510E
  3
INDEXCTL
350
510D
  3
LIGHTINGUNITS
350
15346
  3
MSLTSCALE
350
15345
  3
SORTENTS
350
510C
  0
DICTIONARY
  5
14143
102
{ACAD_REACTORS
330
C
102
}
330
C
100
AcDbDictionary
281
     1
  3
ASEBlockHierarchyIndexRecord
350
14144
1001
DCO15
1040
1903428632.093
  0
DICTIONARY
  5
146E2
102
{ACAD_REACTORS
330
50B8
102
}
330
50B8
100
AcDbDictionary
281
     1
  0
DICTIONARY
  5
50B9
102
{ACAD_REACTORS
330
50B8
102
}
330
50B8
100
AcDbDictionary
281
     1
  0
DICTIONARY
  5
146E1
102
{ACAD_REACTORS
330
50B8
102
}
330
50B8
100
AcDbDictionary
281
     1
1001
ACAD
1000
<All
  0
XRECORD
  5
50D1
102
{ACAD_REACTORS
330
50D0
102
}
330
50D0
100
AcDbXrecord
280
     1
290
     1
  0
XRECORD
  5
50D3
102
{ACAD_REACTORS
330
50D2
102
}
330
50D2
100
AcDbXrecord
280
     1
290
     1
  0
XRECORD
  5
50D4
102
{ACAD_REACTORS
330
50AF
102
}
330
50AF
100
AcDbXrecord
280
     1
290
     1
  0
SORTENTSTABLE
  5
67C1
102
{ACAD_REACTORS
330
67C0
102
}
330
67C0
100
AcDbSortentsTable
330
1F
331
12C4D
  5
13082
331
13003
  5
1309A
331
13093
  5
12B2B
331
1309B
  5
1309C
331
12B1C
  5
12BB2
331
2C65
  5
2EE7
331
14C5F
  5
12BAC
331
12B24
  5
12BBA
331
12C18
  5
1304F
331
12C4E
  5
13083
331
12C56
  5
1308B
331
1309C
  5
1309D
331
13EBA
  5
13EBB
331
28AE
  5
2A38
331
12B1D
  5
12BB3
331
12B25
  5
12BBD
331
12C19
  5
13051
331
12C4F
  5
13084
331
12C57
  5
1308C
331
12C31
  5
13069
331
1309D
  5
13EBA
331
4842
  5
4E94
331
13EBB
  5
13EBC
331
12B16
  5
12BAA
331
12B34
  5
1304B
331
12B1E
  5
12BB6
331
2EE7
  5
2F93
331
12C50
  5
1308A
331
3943
  5
4842
331
12C58
  5
1308D
331
14A8A
  5
14A8B
331
13EBC
  5
13EBD
331
2FDE
  5
35C8
331
12B17
  5
12BAD
331
12C15
  5
1304E
331
12C1B
  5
13053
331
12C33
  5
1306A
331
12C59
  5
1308E
331
14A8B
  5
14C5F
331
13EBD
  5
13EBE
331
12B18
  5
12BAE
331
3895
  5
3943
331
12C34
  5
1307C
331
12C5A
  5
1308F
331
13EBE
  5
14313
331
35C8
  5
35D8
331
12B19
  5
12BAF
331
35D8
  5
3807
331
12B21
  5
12BB7
331
12C4B
  5
13081
331
12C1D
  5
1305B
331
12C25
  5
13067
331
12C5B
  5
13097
331
12B28
  5
12BBE
331
12C63
  5
13098
331
12B1A
  5
12BB1
331
12B22
  5
12BB8
331
2F93
  5
2FDE
331
3807
  5
3895
331
1309A
  5
1309B
331
12B29
  5
12BC9
331
12C46
  5
1307F
331
12B23
  5
12BB9
  0
XRECORD
  5
15358
102
{ACAD_REACTORS
330
15357
102
}
330
15357
100
AcDbXrecord
280
     1
 40
1527.0
  1
\pxqc;BQ LUO
  0
XRECORD
  5
1535A
102
{ACAD_REACTORS
330
15359
102
}
330
15359
100
AcDbXrecord
280
     1
 40
1262561.0
  1
\pxqc;档案员{\H0.7x;\P\Fromans|c134;Filing Clerk\fFangSong_GB2312|b0|i0|c134|p49; }
  0
XRECORD
  5
1535C
102
{ACAD_REACTORS
330
1535B
102
}
330
1535B
100
AcDbXrecord
280
     1
 40
650528.0
  1
\pxqc;日期{\Fromans|c134;/Date}
  0
XRECORD
  5
1535E
102
{ACAD_REACTORS
330
1535D
102
}
330
1535D
100
AcDbXrecord
280
     1
 40
1836818.0
  1
\pxsm0.7;{\fFangSong_GB2312|b0|i0|c134|p49;标准化}\PStand.
  0
XRECORD
  5
15360
102
{ACAD_REACTORS
330
1535F
102
}
330
1535F
100
AcDbXrecord
280
     1
 40
118135.0
  1
\pxsm0.7;签名\P{\Fromans|c134;Signature} 
  0
XRECORD
  5
15362
102
{ACAD_REACTORS
330
15361
102
}
330
15361
100
AcDbXrecord
280
     1
 40
108939.0
  1
\pxsm0.7,qc;处数\P{\Fromans|c134;Number }
  0
XRECORD
  5
15364
102
{ACAD_REACTORS
330
15363
102
}
330
15363
100
AcDbXrecord
280
     1
 40
125762.0
  1
\pxsm0.7;标记\P{\Fromans|c134;Mark}
  0
XRECORD
  5
15366
102
{ACAD_REACTORS
330
15365
102
}
330
15365
100
AcDbXrecord
280
     1
 40
111973.0
  1
\pxsm0.7;审核\P{\Fromans|c134;Checked}
  0
XRECORD
  5
15368
102
{ACAD_REACTORS
330
15367
102
}
330
15367
100
AcDbXrecord
280
     1
 40
137968.0
  1
\pxsm0.7;绘图\P{\Fromans|c134;Drawn\Ftxt|c134; }
  0
XRECORD
  5
1536A
102
{ACAD_REACTORS
330
15369
102
}
330
15369
100
AcDbXrecord
280
     1
 40
106320.0
  1
\pxsm0.7;批准\P{\Fromans|c134;Approved}
  0
XRECORD
  5
1536C
102
{ACAD_REACTORS
330
1536B
102
}
330
1536B
100
AcDbXrecord
280
     1
 40
127283.0
  1
\pxsm0.7;工艺\P{\Fromans|c134;Process}
  0
XRECORD
  5
1536E
102
{ACAD_REACTORS
330
1536D
102
}
330
1536D
100
AcDbXrecord
280
     1
 40
106220.0
  1
\pxsm0.7;日期\P{\Fromans|c134;Date}
  0
XRECORD
  5
15356
102
{ACAD_REACTORS
330
15355
102
}
330
15355
100
AcDbXrecord
280
     1
 40
320578541.0
  1
\A1;\pxql;{\f仿宋_GB2312|b0|i0|c134|p49;技术参数}:\P\pq*;- {\f仿宋_GB2312|b0|i0|c134|p49;材料}: {\f仿宋_GB2312|b0|i0|c134|p49;铜合金}\P- {\f仿宋_GB2312|b0|i0|c134|p49;表面处理}: {\f仿宋_GB2312|b0|i0|c134|p49;镀银}\P\pql;- {\f仿宋_GB2312|b0|i0|c134|p49;额定电流}: 200A\P- {\f仿宋_GB23
  1
12|b0|i0|c134|p49;接触电阻}: ≤0.3mΩ\P\pq*;- {\f仿宋_GB2312|b0|i0|c134|p49;线径范围}: 25mm{\H0.7x;\S2^ ;}\P- {\f仿宋_GB2312|b0|i0|c134|p49;可插拔次数}: {\f仿宋_GB2312|b0|i0|c134|p49;≥}500\P\P\pql;Technical specification:\P- Material: copper alloy\P- Surface: hard-silver 
  1
plated\P- Rated current: 200A\P- Contact resistance: ≤0.3mΩ\P- Wire gauge: 25mm{\H0.7x;\S2^ ;}\P- Mating cycles: {\f仿宋_GB2312|b0|i0|c134|p49;≥}500
  0
DIMASSOC
  5
150B6
102
{ACAD_REACTORS
330
150B5
102
}
330
150B5
100
AcDbDimAssoc
330
150B4
 90
        3
 70
     0
 71
     0
  1
AcDbOsnapPointRef
 72
    13
331
14FB8
 73
     2
 91
        0
 40
0.0
 10
0.0
 20
0.0
 30
2.000000000000000E+50
 75
     0
  1
AcDbOsnapPointRef
 72
    13
331
14F99
 73
     2
 91
        0
 40
0.0
 10
0.0
 20
0.0
 30
2.000000000000000E+50
 75
     0
  0
DIMASSOC
  5
150B9
102
{ACAD_REACTORS
330
150B8
102
}
330
150B8
100
AcDbDimAssoc
330
150B7
 90
        3
 70
     0
 71
     0
  1
AcDbOsnapPointRef
 72
    10
331
14F95
 73
     2
 91
        0
 40
0.0137593456371178
 10
0.0
 20
0.0
 30
0.0
 75
     0
  1
AcDbOsnapPointRef
 72
    10
331
14FA5
 73
     2
 91
        0
 40
0.0474075408532673
 10
0.0
 20
0.0
 30
0.0
 75
     0
  0
DIMASSOC
  5
150BC
102
{ACAD_REACTORS
330
150BB
102
}
330
150BB
100
AcDbDimAssoc
330
150BA
 90
        2
 70
     0
 71
     0
  1
AcDbOsnapPointRef
 72
    10
331
14FF5
 73
     2
 91
        0
 40
0.3715189175964324
 10
0.0
 20
0.0
 30
0.0
 75
     0
  0
DIMASSOC
  5
150BF
102
{ACAD_REACTORS
330
150BE
102
}
330
150BE
100
AcDbDimAssoc
330
150BD
 90
        3
 70
     0
 71
     0
  1
AcDbOsnapPointRef
 72
    13
331
14FB7
 73
     2
 91
        0
 40
0.0
 10
0.0
 20
0.0
 30
2.000000000000000E+50
 75
     0
  1
AcDbOsnapPointRef
 72
    10
331
14FB9
 73
     2
 91
        0
 40
0.9403506926639696
 10
0.0
 20
0.0
 30
0.0
 75
     0
  0
DIMASSOC
  5
150C2
102
{ACAD_REACTORS
330
150C1
102
}
330
150C1
100
AcDbDimAssoc
330
150C0
 90
        3
 70
     0
 71
     0
  1
AcDbOsnapPointRef
 72
    10
331
14FDE
 73
     2
 91
        0
 40
0.7968558321928827
 10
0.0
 20
0.0
 30
0.0
 75
     0
  1
AcDbOsnapPointRef
 72
     8
331
14FD2
 73
     2
 91
        0
 40
0.7968558321928827
 10
0.0
 20
0.0
 30
0.0
 75
     1
  1
AcDbOsnapPointRef
 72
    10
331
14FDE
 73
     2
 91
        0
 40
0.7968558321928827
 10
0.0
 20
0.0
 30
0.0
 75
     0
  0
LAYOUT
  5
1E
102
{ACAD_REACTORS
330
1A
102
}
330
1A
100
AcDbPlotSettings
  1

  2
none_device
  4

  6

 40
0.0
 41
0.0
 42
0.0
 43
0.0
 44
0.0
 45
0.0
 46
0.0
 47
0.0
 48
0.0
 49
0.0
140
0.0
141
0.0
142
1.0
143
1.0
 70
   688
 72
     0
 73
     0
 74
     5
  7

 75
    16
147
1.0
 76
     0
 77
     2
 78
   300
148
0.0
149
0.0
100
AcDbLayout
  1
Layout1
 70
     1
 71
     1
 10
0.0
 20
0.0
 11
12.0
 21
9.0
 12
0.0
 22
0.0
 32
0.0
 14
1.000000000000000E+20
 24
1.000000000000000E+20
 34
1.000000000000000E+20
 15
-1.000000000000000E+20
 25
-1.000000000000000E+20
 35
-1.000000000000000E+20
146
0.0
 13
0.0
 23
0.0
 33
0.0
 16
1.0
 26
0.0
 36
0.0
 17
0.0
 27
1.0
 37
0.0
 76
     0
330
1B
  0
LAYOUT
  5
26
102
{ACAD_REACTORS
330
1A
102
}
330
1A
100
AcDbPlotSettings
  1

  2
none_device
  4

  6

 40
0.0
 41
0.0
 42
0.0
 43
0.0
 44
0.0
 45
0.0
 46
0.0
 47
0.0
 48
0.0
 49
0.0
140
0.0
141
0.0
142
1.0
143
1.0
 70
   688
 72
     0
 73
     0
 74
     5
  7

 75
    16
147
1.0
 76
     0
 77
     2
 78
   300
148
0.0
149
0.0
100
AcDbLayout
  1
Layout2
 70
     1
 71
     2
 10
0.0
 20
0.0
 11
0.0
 21
0.0
 12
0.0
 22
0.0
 32
0.0
 14
0.0
 24
0.0
 34
0.0
 15
0.0
 25
0.0
 35
0.0
146
0.0
 13
0.0
 23
0.0
 33
0.0
 16
1.0
 26
0.0
 36
0.0
 17
0.0
 27
1.0
 37
0.0
 76
     0
330
23
  0
LAYOUT
  5
22
102
{ACAD_REACTORS
330
1A
102
}
330
1A
100
AcDbPlotSettings
  1

  2
Adobe PDF Converter.pc3
  4
A4
  6

 40
3.174999952316281
 41
3.174999952316281
 42
3.17498779296875
 43
3.175003051757812
 44
297.0318298339844
 45
209.9733276367186
 46
0.0000000000000076
 47
1.630241740247063
 48
246.9897427644609
 49
39.36804549891383
140
544.952097801264
141
244.7492402188181
142
1.0
143
1.025046328645055
 70
  3764
 72
     1
 73
     0
 74
     4
  7
monochrome.ctb
 75
     0
147
0.9755656618192436
 76
     1
 77
     2
 78
   300
148
-246.9897427644609
149
-39.36804549891383
100
AcDbLayout
  1
Model
 70
     1
 71
     0
 10
0.0
 20
0.0
 11
12.0
 21
9.0
 12
0.0
 22
0.0
 32
0.0
 14
1.000000000000000E+20
 24
1.000000000000000E+20
 34
1.000000000000000E+20
 15
-1.000000000000000E+20
 25
-1.000000000000000E+20
 35
-1.000000000000000E+20
146
0.0
 13
0.0
 23
0.0
 33
0.0
 16
1.0
 26
0.0
 36
0.0
 17
0.0
 27
1.0
 37
0.0
 76
     0
330
1F
331
29
1001
ACAD_PSEXT
1000
Adobe PDF Converter.pc3
1000
Adobe PDF Converter
1000
桌面\*.pdf
1000

1070
     0
  0
MATERIAL
  5
4FEE
102
{ACAD_XDICTIONARY
360
4FEF
102
}
102
{ACAD_REACTORS
330
4FE5
102
}
330
4FE5
100
AcDbMaterial
  1
ByBlock
 72
     0
 43
0.0208333333333333
 43
0.0
 43
0.0
 43
0.0
 43
0.0
 43
0.0208333333333333
 43
0.0
 43
0.0
 43
0.0
 43
0.0
 43
1.0
 43
0.0
 43
0.0
 43
0.0
 43
0.0
 43
1.0
 77
     0
 47
0.0208333333333333
 47
0.0
 47
0.0
 47
0.0
 47
0.0
 47
0.0208333333333333
 47
0.0
 47
0.0
 47
0.0
 47
0.0
 47
1.0
 47
0.0
 47
0.0
 47
0.0
 47
0.0
 47
1.0
171
     0
 49
0.0208333333333333
 49
0.0
 49
0.0
 49
0.0
 49
0.0
 49
0.0208333333333333
 49
0.0
 49
0.0
 49
0.0
 49
0.0
 49
1.0
 49
0.0
 49
0.0
 49
0.0
 49
0.0
 49
1.0
175
     0
142
0.0208333333333333
142
0.0
142
0.0
142
0.0
142
0.0
142
0.0208333333333333
142
0.0
142
0.0
142
0.0
142
0.0
142
1.0
142
0.0
142
0.0
142
0.0
142
0.0
142
1.0
179
     0
144
0.0208333333333333
144
0.0
144
0.0
144
0.0
144
0.0
144
0.0208333333333333
144
0.0
144
0.0
144
0.0
144
0.0
144
1.0
144
0.0
144
0.0
144
0.0
144
0.0
144
1.0
147
0.0208333333333333
147
0.0
147
0.0
147
0.0
147
0.0
147
0.0208333333333333
147
0.0
147
0.0
147
0.0
147
0.0
147
1.0
147
0.0
147
0.0
147
0.0
147
0.0
147
1.0
  0
MATERIAL
  5
4FE6
102
{ACAD_XDICTIONARY
360
4FE7
102
}
102
{ACAD_REACTORS
330
4FE5
102
}
330
4FE5
100
AcDbMaterial
  1
ByLayer
 72
     0
 43
0.0208333333333333
 43
0.0
 43
0.0
 43
0.0
 43
0.0
 43
0.0208333333333333
 43
0.0
 43
0.0
 43
0.0
 43
0.0
 43
1.0
 43
0.0
 43
0.0
 43
0.0
 43
0.0
 43
1.0
 77
     0
 47
0.0208333333333333
 47
0.0
 47
0.0
 47
0.0
 47
0.0
 47
0.0208333333333333
 47
0.0
 47
0.0
 47
0.0
 47
0.0
 47
1.0
 47
0.0
 47
0.0
 47
0.0
 47
0.0
 47
1.0
171
     0
 49
0.0208333333333333
 49
0.0
 49
0.0
 49
0.0
 49
0.0
 49
0.0208333333333333
 49
0.0
 49
0.0
 49
0.0
 49
0.0
 49
1.0
 49
0.0
 49
0.0
 49
0.0
 49
0.0
 49
1.0
175
     0
142
0.0208333333333333
142
0.0
142
0.0
142
0.0
142
0.0
142
0.0208333333333333
142
0.0
142
0.0
142
0.0
142
0.0
142
1.0
142
0.0
142
0.0
142
0.0
142
0.0
142
1.0
179
     0
144
0.0208333333333333
144
0.0
144
0.0
144
0.0
144
0.0
144
0.0208333333333333
144
0.0
144
0.0
144
0.0
144
0.0
144
1.0
144
0.0
144
0.0
144
0.0
144
0.0
144
1.0
147
0.0208333333333333
147
0.0
147
0.0
147
0.0
147
0.0
147
0.0208333333333333
147
0.0
147
0.0
147
0.0
147
0.0
147
1.0
147
0.0
147
0.0
147
0.0
147
0.0
147
1.0
  0
MATERIAL
  5
4FF6
102
{ACAD_XDICTIONARY
360
4FF7
102
}
102
{ACAD_REACTORS
330
4FE5
102
}
330
4FE5
100
AcDbMaterial
  1
Global
 72
     0
 43
0.0208333333333333
 43
0.0
 43
0.0
 43
0.0
 43
0.0
 43
0.0208333333333333
 43
0.0
 43
0.0
 43
0.0
 43
0.0
 43
1.0
 43
0.0
 43
0.0
 43
0.0
 43
0.0
 43
1.0
 77
     0
 47
0.0208333333333333
 47
0.0
 47
0.0
 47
0.0
 47
0.0
 47
0.0208333333333333
 47
0.0
 47
0.0
 47
0.0
 47
0.0
 47
1.0
 47
0.0
 47
0.0
 47
0.0
 47
0.0
 47
1.0
171
     0
 49
0.0208333333333333
 49
0.0
 49
0.0
 49
0.0
 49
0.0
 49
0.0208333333333333
 49
0.0
 49
0.0
 49
0.0
 49
0.0
 49
1.0
 49
0.0
 49
0.0
 49
0.0
 49
0.0
 49
1.0
175
     0
142
0.0208333333333333
142
0.0
142
0.0
142
0.0
142
0.0
142
0.0208333333333333
142
0.0
142
0.0
142
0.0
142
0.0
142
1.0
142
0.0
142
0.0
142
0.0
142
0.0
142
1.0
179
     0
144
0.0208333333333333
144
0.0
144
0.0
144
0.0
144
0.0
144
0.0208333333333333
144
0.0
144
0.0
144
0.0
144
0.0
144
1.0
144
0.0
144
0.0
144
0.0
144
0.0
144
1.0
147
0.0208333333333333
147
0.0
147
0.0
147
0.0
147
0.0
147
0.0208333333333333
147
0.0
147
0.0
147
0.0
147
0.0
147
1.0
147
0.0
147
0.0
147
0.0
147
0.0
147
1.0
  0
MLEADERSTYLE
  5
5023
102
{ACAD_REACTORS
330
5022
102
}
330
5022
100
AcDbMLeaderStyle
170
     2
171
     1
172
     0
 90
        2
 40
0.0
 41
0.0
173
     1
 91
-1056964608
340
14
 92
       -2
290
     1
 42
0.09
291
     1
 43
0.36
  3
Standard
 44
0.18
300

342
11
174
     1
178
     6
175
     1
176
     0
 93
-1056964608
 45
0.18
292
     0
297
     0
 46
0.18
 94
-1056964608
 47
1.0
 49
1.0
140
1.0
293
     1
141
0.0
294
     1
177
     0
142
1.0
295
     0
296
     0
143
0.125
1001
ACAD_MLEADERVER
1070
     2
  0
MLINESTYLE
  5
18
102
{ACAD_REACTORS
330
17
102
}
330
17
100
AcDbMlineStyle
  2
STANDARD
 70
     0
  3

 62
   256
 51
90.0
 52
90.0
 71
     2
 49
0.5
 62
   256
  6
BYLAYER
 49
-0.5
 62
   256
  6
BYLAYER
  0
ACDBPLACEHOLDER
  5
F
102
{ACAD_REACTORS
330
E
102
}
330
E
  0
MENTALRAYRENDERSETTINGS
  5
6538
102
{ACAD_REACTORS
330
6537
102
}
330
6537
100
AcDbRenderSettings
 90
        2
  1
中
290
     1
290
     1
290
     1
290
     1
  1

  1
渲染质量好于“低级”。包括纹理过滤并且强制双面处于激活状态。处理中等级反锯齿和 5 反射/折射的光线跟踪深度。
 90
        0
100
AcDbMentalRayRenderSettings
 90
        2
 90
        0
 90
        1
 70
     2
 40
3.0
 40
3.0
 40
0.0500000007450581
 40
0.0500000007450581
 40
0.0500000007450581
 40
0.0500000007450581
 70
     0
290
     0
290
     1
 90
        5
 90
        5
 90
        5
290
     0
 90
      500
290
     0
 40
1.0
 90
    10000
 90
        5
 90
        5
 90
        5
290
     0
 90
      200
290
     0
290
     0
290
     0
 40
0.1
 40
1.0
 40
1500.0
 70
     0
 70
     0
 40
10.0
 70
     0
 70
     0
290
     0
  1

 90
       32
 70
     0
 90
     1048
290
     0
 40
1.0
  0
SCALE
  5
5001
102
{ACAD_REACTORS
330
5000
102
}
330
5000
100
AcDbScale
 70
     0
300
1:1
140
1.0
141
1.0
290
     1
  0
SCALE
  5
5002
102
{ACAD_REACTORS
330
5000
102
}
330
5000
100
AcDbScale
 70
     0
300
1:2
140
1.0
141
2.0
290
     0
  0
SCALE
  5
5003
102
{ACAD_REACTORS
330
5000
102
}
330
5000
100
AcDbScale
 70
     0
300
1:4
140
1.0
141
4.0
290
     0
  0
SCALE
  5
5004
102
{ACAD_REACTORS
330
5000
102
}
330
5000
100
AcDbScale
 70
     0
300
1:5
140
1.0
141
5.0
290
     0
  0
SCALE
  5
5005
102
{ACAD_REACTORS
330
5000
102
}
330
5000
100
AcDbScale
 70
     0
300
1:8
140
1.0
141
8.0
290
     0
  0
SCALE
  5
5006
102
{ACAD_REACTORS
330
5000
102
}
330
5000
100
AcDbScale
 70
     0
300
1:10
140
1.0
141
10.0
290
     0
  0
SCALE
  5
5007
102
{ACAD_REACTORS
330
5000
102
}
330
5000
100
AcDbScale
 70
     0
300
1:16
140
1.0
141
16.0
290
     0
  0
SCALE
  5
5008
102
{ACAD_REACTORS
330
5000
102
}
330
5000
100
AcDbScale
 70
     0
300
1:20
140
1.0
141
20.0
290
     0
  0
SCALE
  5
5009
102
{ACAD_REACTORS
330
5000
102
}
330
5000
100
AcDbScale
 70
     0
300
1:30
140
1.0
141
30.0
290
     0
  0
SCALE
  5
500A
102
{ACAD_REACTORS
330
5000
102
}
330
5000
100
AcDbScale
 70
     0
300
1:40
140
1.0
141
40.0
290
     0
  0
SCALE
  5
500B
102
{ACAD_REACTORS
330
5000
102
}
330
5000
100
AcDbScale
 70
     0
300
1:50
140
1.0
141
50.0
290
     0
  0
SCALE
  5
500C
102
{ACAD_REACTORS
330
5000
102
}
330
5000
100
AcDbScale
 70
     0
300
1:100
140
1.0
141
100.0
290
     0
  0
SCALE
  5
500D
102
{ACAD_REACTORS
330
5000
102
}
330
5000
100
AcDbScale
 70
     0
300
2:1
140
2.0
141
1.0
290
     0
  0
SCALE
  5
500E
102
{ACAD_REACTORS
330
5000
102
}
330
5000
100
AcDbScale
 70
     0
300
4:1
140
4.0
141
1.0
290
     0
  0
SCALE
  5
500F
102
{ACAD_REACTORS
330
5000
102
}
330
5000
100
AcDbScale
 70
     0
300
8:1
140
8.0
141
1.0
290
     0
  0
SCALE
  5
5010
102
{ACAD_REACTORS
330
5000
102
}
330
5000
100
AcDbScale
 70
     0
300
10:1
140
10.0
141
1.0
290
     0
  0
SCALE
  5
5011
102
{ACAD_REACTORS
330
5000
102
}
330
5000
100
AcDbScale
 70
     0
300
100:1
140
100.0
141
1.0
290
     0
  0
SCALE
  5
5012
102
{ACAD_REACTORS
330
5000
102
}
330
5000
100
AcDbScale
 70
     0
300
1/128" = 1'-0"
140
0.0078125
141
12.0
290
     0
  0
SCALE
  5
5013
102
{ACAD_REACTORS
330
5000
102
}
330
5000
100
AcDbScale
 70
     0
300
1/64" = 1'-0"
140
0.015625
141
12.0
290
     0
  0
SCALE
  5
5014
102
{ACAD_REACTORS
330
5000
102
}
330
5000
100
AcDbScale
 70
     0
300
1/32" = 1'-0"
140
0.03125
141
12.0
290
     0
  0
SCALE
  5
5015
102
{ACAD_REACTORS
330
5000
102
}
330
5000
100
AcDbScale
 70
     0
300
1/16" = 1'-0"
140
0.0625
141
12.0
290
     0
  0
SCALE
  5
5016
102
{ACAD_REACTORS
330
5000
102
}
330
5000
100
AcDbScale
 70
     0
300
3/32" = 1'-0"
140
0.09375
141
12.0
290
     0
  0
SCALE
  5
5017
102
{ACAD_REACTORS
330
5000
102
}
330
5000
100
AcDbScale
 70
     0
300
1/8" = 1'-0"
140
0.125
141
12.0
290
     0
  0
SCALE
  5
5018
102
{ACAD_REACTORS
330
5000
102
}
330
5000
100
AcDbScale
 70
     0
300
3/16" = 1'-0"
140
0.1875
141
12.0
290
     0
  0
SCALE
  5
5019
102
{ACAD_REACTORS
330
5000
102
}
330
5000
100
AcDbScale
 70
     0
300
1/4" = 1'-0"
140
0.25
141
12.0
290
     0
  0
SCALE
  5
501A
102
{ACAD_REACTORS
330
5000
102
}
330
5000
100
AcDbScale
 70
     0
300
3/8" = 1'-0"
140
0.375
141
12.0
290
     0
  0
SCALE
  5
501B
102
{ACAD_REACTORS
330
5000
102
}
330
5000
100
AcDbScale
 70
     0
300
1/2" = 1'-0"
140
0.5
141
12.0
290
     0
  0
SCALE
  5
501C
102
{ACAD_REACTORS
330
5000
102
}
330
5000
100
AcDbScale
 70
     0
300
3/4" = 1'-0"
140
0.75
141
12.0
290
     0
  0
SCALE
  5
501D
102
{ACAD_REACTORS
330
5000
102
}
330
5000
100
AcDbScale
 70
     0
300
1" = 1'-0"
140
1.0
141
12.0
290
     0
  0
SCALE
  5
501E
102
{ACAD_REACTORS
330
5000
102
}
330
5000
100
AcDbScale
 70
     0
300
1-1/2" = 1'-0"
140
1.5
141
12.0
290
     0
  0
SCALE
  5
501F
102
{ACAD_REACTORS
330
5000
102
}
330
5000
100
AcDbScale
 70
     0
300
3" = 1'-0"
140
3.0
141
12.0
290
     0
  0
SCALE
  5
5020
102
{ACAD_REACTORS
330
5000
102
}
330
5000
100
AcDbScale
 70
     0
300
6" = 1'-0"
140
6.0
141
12.0
290
     0
  0
SCALE
  5
5021
102
{ACAD_REACTORS
330
5000
102
}
330
5000
100
AcDbScale
 70
     0
300
1'-0" = 1'-0"
140
12.0
141
12.0
290
     0
  0
TABLESTYLE
  5
4FFF
102
{ACAD_XDICTIONARY
360
50D6
102
}
102
{ACAD_REACTORS
330
4FE3
102
}
330
4FE3
100
AcDbTableStyle
  3
Standard
 70
     0
 71
     0
 40
0.06
 41
0.06
280
     0
281
     0
  7
Standard
140
0.18
170
     2
 62
     0
 63
     7
283
     0
 90
      512
 91
        0
  1

274
    -2
284
     1
 64
     0
275
    -2
285
     1
 65
     0
276
    -2
286
     1
 66
     0
277
    -2
287
     1
 67
     0
278
    -2
288
     1
 68
     0
279
    -2
289
     1
 69
     0
  7
Standard
140
0.25
170
     5
 62
     0
 63
     7
283
     0
 90
      512
 91
        0
  1

274
    -2
284
     1
 64
     0
275
    -2
285
     1
 65
     0
276
    -2
286
     1
 66
     0
277
    -2
287
     1
 67
     0
278
    -2
288
     1
 68
     0
279
    -2
289
     1
 69
     0
  7
Standard
140
0.18
170
     5
 62
     0
 63
     7
283
     0
 90
      512
 91
        0
  1

274
    -2
284
     1
 64
     0
275
    -2
285
     1
 65
     0
276
    -2
286
     1
 66
     0
277
    -2
287
     1
 67
     0
278
    -2
288
     1
 68
     0
279
    -2
289
     1
 69
     0
  0
VISUALSTYLE
  5
2F
102
{ACAD_REACTORS
330
2A
102
}
330
2A
100
AcDbVisualStyle
  2
2dWireframe
 70
     4
 71
     0
 72
     2
 73
     0
 90
        0
 40
-0.6
 41
-30.0
 62
     5
 63
     7
 74
     1
 91
        4
 64
     7
 65
   257
 75
     1
175
     1
 42
1.0
 92
        0
 66
   257
 43
1.0
 76
     1
 77
     6
 78
     2
 67
     7
 79
     5
170
     0
171
     0
290
     0
174
     0
 93
        1
 44
0.0
173
     0
291
     0
 45
0.0
1001
ACAD
1000
AcDbSavedByObjectVersion
1070
     0
1000
AcDbSavedByObjectVersion
1070
     0
1000
AcDbSavedByObjectVersion
1070
     0
1000
AcDbSavedByObjectVersion
1070
     0
1000
AcDbSavedByObjectVersion
1070
     0
1000
AcDbSavedByObjectVersion
1070
     0
1000
AcDbSavedByObjectVersion
1070
     0
1000
AcDbSavedByObjectVersion
1070
     0
1000
AcDbSavedByObjectVersion
1070
     0
1000
AcDbSavedByObjectVersion
1070
     0
1000
AcDbSavedByObjectVersion
1070
     0
1000
AcDbSavedByObjectVersion
1070
     0
1000
AcDbSavedByObjectVersion
1070
     0
1000
AcDbSavedByObjectVersion
1070
     0
1000
AcDbSavedByObjectVersion
1070
     0
1000
AcDbSavedByObjectVersion
1070
     0
1000
AcDbSavedByObjectVersion
1070
     0
1000
AcDbSavedByObjectVersion
1070
     0
1000
AcDbSavedByObjectVersion
1070
     0
1000
AcDbSavedByObjectVersion
1070
     0
1000
AcDbSavedByObjectVersion
1070
     0
1000
AcDbSavedByObjectVersion
1070
     0
1000
AcDbSavedByObjectVersion
1070
     0
1000
AcDbSavedByObjectVersion
1070
     0
1000
AcDbSavedByObjectVersion
1070
     0
1000
AcDbSavedByObjectVersion
1070
     0
1000
AcDbSavedByObjectVersion
1070
     0
1000
AcDbSavedByObjectVersion
1070
     0
1000
AcDbSavedByObjectVersion
1070
     0
1000
AcDbSavedByObjectVersion
1070
     0
1000
AcDbSavedByObjectVersion
1070
     0
1000
AcDbSavedByObjectVersion
1070
     0
1000
AcDbSavedByObjectVersion
1070
     0
1000
AcDbSavedByObjectVersion
1070
     0
1000
AcDbSavedByObjectVersion
1070
     0
1000
AcDbSavedByObjectVersion
1070
     0
1000
AcDbSavedByObjectVersion
1070
     0
1000
AcDbSavedByObjectVersion
1070
     0
1000
AcDbSavedByObjectVersion
1070
     0
1000
AcDbSavedByObjectVersion
1070
     0
1000
AcDbSavedByObjectVersion
1070
     0
1000
AcDbSavedByObjectVersion
1070
     0
1000
AcDbSavedByObjectVersion
1070
     0
1000
AcDbSavedByObjectVersion
1070
     0
1000
AcDbSavedByObjectVersion
1070
     0
1000
AcDbSavedByObjectVersion
1070
     0
1000
AcDbSavedByObjectVersion
1070
     0
1000
AcDbSavedByObjectVersion
1070
     0
1000
AcDbSavedByObjectVersion
1070
     0
1000
AcDbSavedByObjectVersion
1070
     0
1000
AcDbSavedByObjectVersion
1070
     0
1000
AcDbSavedByObjectVersion
1070
     0
1000
AcDbSavedByObjectVersion
1070
     0
1000
AcDbSavedByObjectVersion
1070
     0
1000
AcDbSavedByObjectVersion
1070
     0
1000
AcDbSavedByObjectVersion
1070
     0
1000
AcDbSavedByObjectVersion
1070
     0
  0
VISUALSTYLE
  5
31
102
{ACAD_REACTORS
330
2A
102
}
330
2A
100
AcDbVisualStyle
  2
3D Hidden
 70
     6
 71
     1
 72
     2
 73
     2
 90
        0
 40
-0.6
 41
-30.0
 62
     5
 63
     7
 74
     2
 91
        2
 64
     7
 65
   257
 75
     2
175
     1
 42
40.0
 92
        0
 66
   257
 43
1.0
 76
     1
 77
     6
 78
     2
 67
     7
 79
     3
170
     0
171
     0
290
     0
174
     0
 93
        1
 44
0.0
173
     0
291
     0
 45
0.0
1001
ACAD
1000
AcDbSavedByObjectVersion
1070
     0
1000
AcDbSavedByObjectVersion
1070
     0
1000
AcDbSavedByObjectVersion
1070
     0
1000
AcDbSavedByObjectVersion
1070
     0
1000
AcDbSavedByObjectVersion
1070
     0
1000
AcDbSavedByObjectVersion
1070
     0
1000
AcDbSavedByObjectVersion
1070
     0
1000
AcDbSavedByObjectVersion
1070
     0
1000
AcDbSavedByObjectVersion
1070
     0
1000
AcDbSavedByObjectVersion
1070
     0
1000
AcDbSavedByObjectVersion
1070
     0
1000
AcDbSavedByObjectVersion
1070
     0
1000
AcDbSavedByObjectVersion
1070
     0
1000
AcDbSavedByObjectVersion
1070
     0
1000
AcDbSavedByObjectVersion
1070
     0
1000
AcDbSavedByObjectVersion
1070
     0
1000
AcDbSavedByObjectVersion
1070
     0
1000
AcDbSavedByObjectVersion
1070
     0
1000
AcDbSavedByObjectVersion
1070
     0
1000
AcDbSavedByObjectVersion
1070
     0
1000
AcDbSavedByObjectVersion
1070
     0
1000
AcDbSavedByObjectVersion
1070
     0
1000
AcDbSavedByObjectVersion
1070
     0
1000
AcDbSavedByObjectVersion
1070
     0
1000
AcDbSavedByObjectVersion
1070
     0
1000
AcDbSavedByObjectVersion
1070
     0
1000
AcDbSavedByObjectVersion
1070
     0
1000
AcDbSavedByObjectVersion
1070
     0
1000
AcDbSavedByObjectVersion
1070
     0
1000
AcDbSavedByObjectVersion
1070
     0
1000
AcDbSavedByObjectVersion
1070
     0
1000
AcDbSavedByObjectVersion
1070
     0
1000
AcDbSavedByObjectVersion
1070
     0
1000
AcDbSavedByObjectVersion
1070
     0
1000
AcDbSavedByObjectVersion
1070
     0
1000
AcDbSavedByObjectVersion
1070
     0
1000
AcDbSavedByObjectVersion
1070
     0
1000
AcDbSavedByObjectVersion
1070
     0
1000
AcDbSavedByObjectVersion
1070
     0
1000
AcDbSavedByObjectVersion
1070
     0
1000
AcDbSavedByObjectVersion
1070
     0
1000
AcDbSavedByObjectVersion
1070
     0
1000
AcDbSavedByObjectVersion
1070
     0
1000
AcDbSavedByObjectVersion
1070
     0
1000
AcDbSavedByObjectVersion
1070
     0
1000
AcDbSavedByObjectVersion
1070
     0
1000
AcDbSavedByObjectVersion
1070
     0
1000
AcDbSavedByObjectVersion
1070
     0
1000
AcDbSavedByObjectVersion
1070
     0
1000
AcDbSavedByObjectVersion
1070
     0
1000
AcDbSavedByObjectVersion
1070
     0
1000
AcDbSavedByObjectVersion
1070
     0
1000
AcDbSavedByObjectVersion
1070
     0
1000
AcDbSavedByObjectVersion
1070
     0
1000
AcDbSavedByObjectVersion
1070
     0
1000
AcDbSavedByObjectVersion
1070
     0
1000
AcDbSavedByObjectVersion
1070
     0
  0
VISUALSTYLE
  5
30
102
{ACAD_REACTORS
330
2A
102
}
330
2A
100
AcDbVisualStyle
  2
3dWireframe
 70
     5
 71
     0
 72
     2
 73
     0
 90
        0
 40
-0.6
 41
-30.0
 62
     5
 63
     7
 74
     1
 91
        4
 64
     7
 65
   257
 75
     1
175
     1
 42
1.0
 92
        0
 66
   257
 43
1.0
 76
     1
 77
     6
 78
     2
 67
     7
 79
     5
170
     0
171
     0
290
     0
174
     0
 93
        1
 44
0.0
173
     0
291
     0
 45
0.0
1001
ACAD
1000
AcDbSavedByObjectVersion
1070
     0
1000
AcDbSavedByObjectVersion
1070
     0
1000
AcDbSavedByObjectVersion
1070
     0
1000
AcDbSavedByObjectVersion
1070
     0
1000
AcDbSavedByObjectVersion
1070
     0
1000
AcDbSavedByObjectVersion
1070
     0
1000
AcDbSavedByObjectVersion
1070
     0
1000
AcDbSavedByObjectVersion
1070
     0
1000
AcDbSavedByObjectVersion
1070
     0
1000
AcDbSavedByObjectVersion
1070
     0
1000
AcDbSavedByObjectVersion
1070
     0
1000
AcDbSavedByObjectVersion
1070
     0
1000
AcDbSavedByObjectVersion
1070
     0
1000
AcDbSavedByObjectVersion
1070
     0
1000
AcDbSavedByObjectVersion
1070
     0
1000
AcDbSavedByObjectVersion
1070
     0
1000
AcDbSavedByObjectVersion
1070
     0
1000
AcDbSavedByObjectVersion
1070
     0
1000
AcDbSavedByObjectVersion
1070
     0
1000
AcDbSavedByObjectVersion
1070
     0
1000
AcDbSavedByObjectVersion
1070
     0
1000
AcDbSavedByObjectVersion
1070
     0
1000
AcDbSavedByObjectVersion
1070
     0
1000
AcDbSavedByObjectVersion
1070
     0
1000
AcDbSavedByObjectVersion
1070
     0
1000
AcDbSavedByObjectVersion
1070
     0
1000
AcDbSavedByObjectVersion
1070
     0
1000
AcDbSavedByObjectVersion
1070
     0
1000
AcDbSavedByObjectVersion
1070
     0
1000
AcDbSavedByObjectVersion
1070
     0
1000
AcDbSavedByObjectVersion
1070
     0
1000
AcDbSavedByObjectVersion
1070
     0
1000
AcDbSavedByObjectVersion
1070
     0
1000
AcDbSavedByObjectVersion
1070
     0
1000
AcDbSavedByObjectVersion
1070
     0
1000
AcDbSavedByObjectVersion
1070
     0
1000
AcDbSavedByObjectVersion
1070
     0
1000
AcDbSavedByObjectVersion
1070
     0
1000
AcDbSavedByObjectVersion
1070
     0
1000
AcDbSavedByObjectVersion
1070
     0
1000
AcDbSavedByObjectVersion
1070
     0
1000
AcDbSavedByObjectVersion
1070
     0
1000
AcDbSavedByObjectVersion
1070
     0
1000
AcDbSavedByObjectVersion
1070
     0
1000
AcDbSavedByObjectVersion
1070
     0
1000
AcDbSavedByObjectVersion
1070
     0
1000
AcDbSavedByObjectVersion
1070
     0
1000
AcDbSavedByObjectVersion
1070
     0
1000
AcDbSavedByObjectVersion
1070
     0
1000
AcDbSavedByObjectVersion
1070
     0
1000
AcDbSavedByObjectVersion
1070
     0
1000
AcDbSavedByObjectVersion
1070
     0
1000
AcDbSavedByObjectVersion
1070
     0
1000
AcDbSavedByObjectVersion
1070
     0
1000
AcDbSavedByObjectVersion
1070
     0
1000
AcDbSavedByObjectVersion
1070
     0
1000
AcDbSavedByObjectVersion
1070
     0
  0
VISUALSTYLE
  5
32
102
{ACAD_REACTORS
330
2A
102
}
330
2A
100
AcDbVisualStyle
  2
Basic
 70
     7
 71
     1
 72
     0
 73
     1
 90
        0
 40
-0.6
 41
-30.0
 62
     5
 63
     7
 74
     0
 91
        4
 64
     7
 65
   257
 75
     1
175
     1
 42
1.0
 92
        8
 66
     7
 43
1.0
 76
     1
 77
     6
 78
     2
 67
     7
 79
     5
170
     0
171
     0
290
     0
174
     0
 93
        1
 44
0.0
173
     0
291
     1
 45
0.0
1001
ACAD
1000
AcDbSavedByObjectVersion
1070
     0
1000
AcDbSavedByObjectVersion
1070
     0
1000
AcDbSavedByObjectVersion
1070
     0
1000
AcDbSavedByObjectVersion
1070
     0
1000
AcDbSavedByObjectVersion
1070
     0
1000
AcDbSavedByObjectVersion
1070
     0
1000
AcDbSavedByObjectVersion
1070
     0
1000
AcDbSavedByObjectVersion
1070
     0
1000
AcDbSavedByObjectVersion
1070
     0
1000
AcDbSavedByObjectVersion
1070
     0
1000
AcDbSavedByObjectVersion
1070
     0
1000
AcDbSavedByObjectVersion
1070
     0
1000
AcDbSavedByObjectVersion
1070
     0
1000
AcDbSavedByObjectVersion
1070
     0
1000
AcDbSavedByObjectVersion
1070
     0
1000
AcDbSavedByObjectVersion
1070
     0
1000
AcDbSavedByObjectVersion
1070
     0
1000
AcDbSavedByObjectVersion
1070
     0
1000
AcDbSavedByObjectVersion
1070
     0
1000
AcDbSavedByObjectVersion
1070
     0
1000
AcDbSavedByObjectVersion
1070
     0
1000
AcDbSavedByObjectVersion
1070
     0
1000
AcDbSavedByObjectVersion
1070
     0
1000
AcDbSavedByObjectVersion
1070
     0
1000
AcDbSavedByObjectVersion
1070
     0
1000
AcDbSavedByObjectVersion
1070
     0
1000
AcDbSavedByObjectVersion
1070
     0
1000
AcDbSavedByObjectVersion
1070
     0
1000
AcDbSavedByObjectVersion
1070
     0
1000
AcDbSavedByObjectVersion
1070
     0
1000
AcDbSavedByObjectVersion
1070
     0
1000
AcDbSavedByObjectVersion
1070
     0
1000
AcDbSavedByObjectVersion
1070
     0
1000
AcDbSavedByObjectVersion
1070
     0
1000
AcDbSavedByObjectVersion
1070
     0
1000
AcDbSavedByObjectVersion
1070
     0
1000
AcDbSavedByObjectVersion
1070
     0
1000
AcDbSavedByObjectVersion
1070
     0
1000
AcDbSavedByObjectVersion
1070
     0
1000
AcDbSavedByObjectVersion
1070
     0
1000
AcDbSavedByObjectVersion
1070
     0
1000
AcDbSavedByObjectVersion
1070
     0
1000
AcDbSavedByObjectVersion
1070
     0
1000
AcDbSavedByObjectVersion
1070
     0
1000
AcDbSavedByObjectVersion
1070
     0
1000
AcDbSavedByObjectVersion
1070
     0
1000
AcDbSavedByObjectVersion
1070
     0
1000
AcDbSavedByObjectVersion
1070
     0
1000
AcDbSavedByObjectVersion
1070
     0
1000
AcDbSavedByObjectVersion
1070
     0
1000
AcDbSavedByObjectVersion
1070
     0
1000
AcDbSavedByObjectVersion
1070
     0
1000
AcDbSavedByObjectVersion
1070
     0
1000
AcDbSavedByObjectVersion
1070
     0
1000
AcDbSavedByObjectVersion
1070
     0
1000
AcDbSavedByObjectVersion
1070
     0
1000
AcDbSavedByObjectVersion
1070
     0
  0
VISUALSTYLE
  5
36
102
{ACAD_REACTORS
330
2A
102
}
330
2A
100
AcDbVisualStyle
  2
Brighten
 70
    12
 71
     2
 72
     2
 73
     0
 90
        0
 40
-0.6
 41
-30.0
 62
     5
 63
     7
 74
     1
 91
        4
 64
     7
 65
   257
 75
     1
175
     1
 42
1.0
 92
        8
 66
     7
 43
1.0
 76
     1
 77
     6
 78
     2
 67
     7
 79
     5
170
     0
171
     0
290
     0
174
     0
 93
        1
 44
50.0
173
     0
291
     1
 45
0.0
1001
ACAD
1000
AcDbSavedByObjectVersion
1070
     0
1000
AcDbSavedByObjectVersion
1070
     0
1000
AcDbSavedByObjectVersion
1070
     0
1000
AcDbSavedByObjectVersion
1070
     0
1000
AcDbSavedByObjectVersion
1070
     0
1000
AcDbSavedByObjectVersion
1070
     0
1000
AcDbSavedByObjectVersion
1070
     0
1000
AcDbSavedByObjectVersion
1070
     0
1000
AcDbSavedByObjectVersion
1070
     0
1000
AcDbSavedByObjectVersion
1070
     0
1000
AcDbSavedByObjectVersion
1070
     0
1000
AcDbSavedByObjectVersion
1070
     0
1000
AcDbSavedByObjectVersion
1070
     0
1000
AcDbSavedByObjectVersion
1070
     0
1000
AcDbSavedByObjectVersion
1070
     0
1000
AcDbSavedByObjectVersion
1070
     0
1000
AcDbSavedByObjectVersion
1070
     0
1000
AcDbSavedByObjectVersion
1070
     0
1000
AcDbSavedByObjectVersion
1070
     0
1000
AcDbSavedByObjectVersion
1070
     0
1000
AcDbSavedByObjectVersion
1070
     0
1000
AcDbSavedByObjectVersion
1070
     0
1000
AcDbSavedByObjectVersion
1070
     0
1000
AcDbSavedByObjectVersion
1070
     0
1000
AcDbSavedByObjectVersion
1070
     0
1000
AcDbSavedByObjectVersion
1070
     0
1000
AcDbSavedByObjectVersion
1070
     0
1000
AcDbSavedByObjectVersion
1070
     0
1000
AcDbSavedByObjectVersion
1070
     0
1000
AcDbSavedByObjectVersion
1070
     0
1000
AcDbSavedByObjectVersion
1070
     0
1000
AcDbSavedByObjectVersion
1070
     0
1000
AcDbSavedByObjectVersion
1070
     0
1000
AcDbSavedByObjectVersion
1070
     0
1000
AcDbSavedByObjectVersion
1070
     0
1000
AcDbSavedByObjectVersion
1070
     0
1000
AcDbSavedByObjectVersion
1070
     0
1000
AcDbSavedByObjectVersion
1070
     0
1000
AcDbSavedByObjectVersion
1070
     0
1000
AcDbSavedByObjectVersion
1070
     0
1000
AcDbSavedByObjectVersion
1070
     0
1000
AcDbSavedByObjectVersion
1070
     0
1000
AcDbSavedByObjectVersion
1070
     0
1000
AcDbSavedByObjectVersion
1070
     0
1000
AcDbSavedByObjectVersion
1070
     0
1000
AcDbSavedByObjectVersion
1070
     0
1000
AcDbSavedByObjectVersion
1070
     0
1000
AcDbSavedByObjectVersion
1070
     0
1000
AcDbSavedByObjectVersion
1070
     0
1000
AcDbSavedByObjectVersion
1070
     0
1000
AcDbSavedByObjectVersion
1070
     0
1000
AcDbSavedByObjectVersion
1070
     0
1000
AcDbSavedByObjectVersion
1070
     0
1000
AcDbSavedByObjectVersion
1070
     0
1000
AcDbSavedByObjectVersion
1070
     0
1000
AcDbSavedByObjectVersion
1070
     0
1000
AcDbSavedByObjectVersion
1070
     0
  0
VISUALSTYLE
  5
3A
102
{ACAD_REACTORS
330
2A
102
}
330
2A
100
AcDbVisualStyle
  2
ColorChange
 70
    16
 71
     2
 72
     2
 73
     3
 90
        0
 40
-0.6
 41
-30.0
 62
     5
 63
     8
 74
     1
 91
        4
 64
     7
 65
   257
 75
     1
175
     1
 42
1.0
 92
        8
 66
     8
 43
1.0
 76
     1
 77
     6
 78
     2
 67
     7
 79
     5
170
     0
171
     0
290
     0
174
     0
 93
        1
 44
0.0
173
     0
291
     1
 45
0.0
1001
ACAD
1000
AcDbSavedByObjectVersion
1070
     0
1000
AcDbSavedByObjectVersion
1070
     0
1000
AcDbSavedByObjectVersion
1070
     0
1000
AcDbSavedByObjectVersion
1070
     0
1000
AcDbSavedByObjectVersion
1070
     0
1000
AcDbSavedByObjectVersion
1070
     0
1000
AcDbSavedByObjectVersion
1070
     0
1000
AcDbSavedByObjectVersion
1070
     0
1000
AcDbSavedByObjectVersion
1070
     0
1000
AcDbSavedByObjectVersion
1070
     0
1000
AcDbSavedByObjectVersion
1070
     0
1000
AcDbSavedByObjectVersion
1070
     0
1000
AcDbSavedByObjectVersion
1070
     0
1000
AcDbSavedByObjectVersion
1070
     0
1000
AcDbSavedByObjectVersion
1070
     0
1000
AcDbSavedByObjectVersion
1070
     0
1000
AcDbSavedByObjectVersion
1070
     0
1000
AcDbSavedByObjectVersion
1070
     0
1000
AcDbSavedByObjectVersion
1070
     0
1000
AcDbSavedByObjectVersion
1070
     0
1000
AcDbSavedByObjectVersion
1070
     0
1000
AcDbSavedByObjectVersion
1070
     0
1000
AcDbSavedByObjectVersion
1070
     0
1000
AcDbSavedByObjectVersion
1070
     0
1000
AcDbSavedByObjectVersion
1070
     0
1000
AcDbSavedByObjectVersion
1070
     0
1000
AcDbSavedByObjectVersion
1070
     0
1000
AcDbSavedByObjectVersion
1070
     0
1000
AcDbSavedByObjectVersion
1070
     0
1000
AcDbSavedByObjectVersion
1070
     0
1000
AcDbSavedByObjectVersion
1070
     0
1000
AcDbSavedByObjectVersion
1070
     0
1000
AcDbSavedByObjectVersion
1070
     0
1000
AcDbSavedByObjectVersion
1070
     0
1000
AcDbSavedByObjectVersion
1070
     0
1000
AcDbSavedByObjectVersion
1070
     0
1000
AcDbSavedByObjectVersion
1070
     0
1000
AcDbSavedByObjectVersion
1070
     0
1000
AcDbSavedByObjectVersion
1070
     0
1000
AcDbSavedByObjectVersion
1070
     0
1000
AcDbSavedByObjectVersion
1070
     0
1000
AcDbSavedByObjectVersion
1070
     0
1000
AcDbSavedByObjectVersion
1070
     0
1000
AcDbSavedByObjectVersion
1070
     0
1000
AcDbSavedByObjectVersion
1070
     0
1000
AcDbSavedByObjectVersion
1070
     0
1000
AcDbSavedByObjectVersion
1070
     0
1000
AcDbSavedByObjectVersion
1070
     0
1000
AcDbSavedByObjectVersion
1070
     0
1000
AcDbSavedByObjectVersion
1070
     0
1000
AcDbSavedByObjectVersion
1070
     0
1000
AcDbSavedByObjectVersion
1070
     0
1000
AcDbSavedByObjectVersion
1070
     0
1000
AcDbSavedByObjectVersion
1070
     0
1000
AcDbSavedByObjectVersion
1070
     0
1000
AcDbSavedByObjectVersion
1070
     0
1000
AcDbSavedByObjectVersion
1070
     0
  0
VISUALSTYLE
  5
34
102
{ACAD_REACTORS
330
2A
102
}
330
2A
100
AcDbVisualStyle
  2
Conceptual
 70
     9
 71
     3
 72
     2
 73
     0
 90
        0
 40
-0.6
 41
-30.0
 62
     5
 63
     7
 74
     2
 91
        2
 64
     7
 65
   257
 75
     1
175
     1
 42
40.0
 92
        8
 66
     7
 43
1.0
 76
     1
 77
     6
 78
     2
 67
     7
 79
     3
170
     0
171
     0
290
     0
174
     0
 93
        1
 44
0.0
173
     0
291
     0
 45
0.0
1001
ACAD
1000
AcDbSavedByObjectVersion
1070
     0
1000
AcDbSavedByObjectVersion
1070
     0
1000
AcDbSavedByObjectVersion
1070
     0
1000
AcDbSavedByObjectVersion
1070
     0
1000
AcDbSavedByObjectVersion
1070
     0
1000
AcDbSavedByObjectVersion
1070
     0
1000
AcDbSavedByObjectVersion
1070
     0
1000
AcDbSavedByObjectVersion
1070
     0
1000
AcDbSavedByObjectVersion
1070
     0
1000
AcDbSavedByObjectVersion
1070
     0
1000
AcDbSavedByObjectVersion
1070
     0
1000
AcDbSavedByObjectVersion
1070
     0
1000
AcDbSavedByObjectVersion
1070
     0
1000
AcDbSavedByObjectVersion
1070
     0
1000
AcDbSavedByObjectVersion
1070
     0
1000
AcDbSavedByObjectVersion
1070
     0
1000
AcDbSavedByObjectVersion
1070
     0
1000
AcDbSavedByObjectVersion
1070
     0
1000
AcDbSavedByObjectVersion
1070
     0
1000
AcDbSavedByObjectVersion
1070
     0
1000
AcDbSavedByObjectVersion
1070
     0
1000
AcDbSavedByObjectVersion
1070
     0
1000
AcDbSavedByObjectVersion
1070
     0
1000
AcDbSavedByObjectVersion
1070
     0
1000
AcDbSavedByObjectVersion
1070
     0
1000
AcDbSavedByObjectVersion
1070
     0
1000
AcDbSavedByObjectVersion
1070
     0
1000
AcDbSavedByObjectVersion
1070
     0
1000
AcDbSavedByObjectVersion
1070
     0
1000
AcDbSavedByObjectVersion
1070
     0
1000
AcDbSavedByObjectVersion
1070
     0
1000
AcDbSavedByObjectVersion
1070
     0
1000
AcDbSavedByObjectVersion
1070
     0
1000
AcDbSavedByObjectVersion
1070
     0
1000
AcDbSavedByObjectVersion
1070
     0
1000
AcDbSavedByObjectVersion
1070
     0
1000
AcDbSavedByObjectVersion
1070
     0
1000
AcDbSavedByObjectVersion
1070
     0
1000
AcDbSavedByObjectVersion
1070
     0
1000
AcDbSavedByObjectVersion
1070
     0
1000
AcDbSavedByObjectVersion
1070
     0
1000
AcDbSavedByObjectVersion
1070
     0
1000
AcDbSavedByObjectVersion
1070
     0
1000
AcDbSavedByObjectVersion
1070
     0
1000
AcDbSavedByObjectVersion
1070
     0
1000
AcDbSavedByObjectVersion
1070
     0
1000
AcDbSavedByObjectVersion
1070
     0
1000
AcDbSavedByObjectVersion
1070
     0
1000
AcDbSavedByObjectVersion
1070
     0
1000
AcDbSavedByObjectVersion
1070
     0
1000
AcDbSavedByObjectVersion
1070
     0
1000
AcDbSavedByObjectVersion
1070
     0
1000
AcDbSavedByObjectVersion
1070
     0
1000
AcDbSavedByObjectVersion
1070
     0
1000
AcDbSavedByObjectVersion
1070
     0
1000
AcDbSavedByObjectVersion
1070
     0
1000
AcDbSavedByObjectVersion
1070
     0
  0
VISUALSTYLE
  5
35
102
{ACAD_REACTORS
330
2A
102
}
330
2A
100
AcDbVisualStyle
  2
Dim
 70
    11
 71
     2
 72
     2
 73
     0
 90
        0
 40
-0.6
 41
-30.0
 62
     5
 63
     7
 74
     1
 91
        4
 64
     7
 65
   257
 75
     1
175
     1
 42
1.0
 92
        8
 66
     7
 43
1.0
 76
     1
 77
     6
 78
     2
 67
     7
 79
     5
170
     0
171
     0
290
     0
174
     0
 93
        1
 44
-50.0
173
     0
291
     1
 45
0.0
1001
ACAD
1000
AcDbSavedByObjectVersion
1070
     0
1000
AcDbSavedByObjectVersion
1070
     0
1000
AcDbSavedByObjectVersion
1070
     0
1000
AcDbSavedByObjectVersion
1070
     0
1000
AcDbSavedByObjectVersion
1070
     0
1000
AcDbSavedByObjectVersion
1070
     0
1000
AcDbSavedByObjectVersion
1070
     0
1000
AcDbSavedByObjectVersion
1070
     0
1000
AcDbSavedByObjectVersion
1070
     0
1000
AcDbSavedByObjectVersion
1070
     0
1000
AcDbSavedByObjectVersion
1070
     0
1000
AcDbSavedByObjectVersion
1070
     0
1000
AcDbSavedByObjectVersion
1070
     0
1000
AcDbSavedByObjectVersion
1070
     0
1000
AcDbSavedByObjectVersion
1070
     0
1000
AcDbSavedByObjectVersion
1070
     0
1000
AcDbSavedByObjectVersion
1070
     0
1000
AcDbSavedByObjectVersion
1070
     0
1000
AcDbSavedByObjectVersion
1070
     0
1000
AcDbSavedByObjectVersion
1070
     0
1000
AcDbSavedByObjectVersion
1070
     0
1000
AcDbSavedByObjectVersion
1070
     0
1000
AcDbSavedByObjectVersion
1070
     0
1000
AcDbSavedByObjectVersion
1070
     0
1000
AcDbSavedByObjectVersion
1070
     0
1000
AcDbSavedByObjectVersion
1070
     0
1000
AcDbSavedByObjectVersion
1070
     0
1000
AcDbSavedByObjectVersion
1070
     0
1000
AcDbSavedByObjectVersion
1070
     0
1000
AcDbSavedByObjectVersion
1070
     0
1000
AcDbSavedByObjectVersion
1070
     0
1000
AcDbSavedByObjectVersion
1070
     0
1000
AcDbSavedByObjectVersion
1070
     0
1000
AcDbSavedByObjectVersion
1070
     0
1000
AcDbSavedByObjectVersion
1070
     0
1000
AcDbSavedByObjectVersion
1070
     0
1000
AcDbSavedByObjectVersion
1070
     0
1000
AcDbSavedByObjectVersion
1070
     0
1000
AcDbSavedByObjectVersion
1070
     0
1000
AcDbSavedByObjectVersion
1070
     0
1000
AcDbSavedByObjectVersion
1070
     0
1000
AcDbSavedByObjectVersion
1070
     0
1000
AcDbSavedByObjectVersion
1070
     0
1000
AcDbSavedByObjectVersion
1070
     0
1000
AcDbSavedByObjectVersion
1070
     0
1000
AcDbSavedByObjectVersion
1070
     0
1000
AcDbSavedByObjectVersion
1070
     0
1000
AcDbSavedByObjectVersion
1070
     0
1000
AcDbSavedByObjectVersion
1070
     0
1000
AcDbSavedByObjectVersion
1070
     0
1000
AcDbSavedByObjectVersion
1070
     0
1000
AcDbSavedByObjectVersion
1070
     0
1000
AcDbSavedByObjectVersion
1070
     0
1000
AcDbSavedByObjectVersion
1070
     0
1000
AcDbSavedByObjectVersion
1070
     0
1000
AcDbSavedByObjectVersion
1070
     0
1000
AcDbSavedByObjectVersion
1070
     0
  0
VISUALSTYLE
  5
39
102
{ACAD_REACTORS
330
2A
102
}
330
2A
100
AcDbVisualStyle
  2
Facepattern
 70
    15
 71
     2
 72
     2
 73
     0
 90
        0
 40
-0.6
 41
-30.0
 62
     5
 63
     7
 74
     1
 91
        4
 64
     7
 65
   257
 75
     1
175
     1
 42
1.0
 92
        8
 66
     7
 43
1.0
 76
     1
 77
     6
 78
     2
 67
     7
 79
     5
170
     0
171
     0
290
     0
174
     0
 93
        1
 44
0.0
173
     0
291
     1
 45
0.0
1001
ACAD
1000
AcDbSavedByObjectVersion
1070
     0
1000
AcDbSavedByObjectVersion
1070
     0
1000
AcDbSavedByObjectVersion
1070
     0
1000
AcDbSavedByObjectVersion
1070
     0
1000
AcDbSavedByObjectVersion
1070
     0
1000
AcDbSavedByObjectVersion
1070
     0
1000
AcDbSavedByObjectVersion
1070
     0
1000
AcDbSavedByObjectVersion
1070
     0
1000
AcDbSavedByObjectVersion
1070
     0
1000
AcDbSavedByObjectVersion
1070
     0
1000
AcDbSavedByObjectVersion
1070
     0
1000
AcDbSavedByObjectVersion
1070
     0
1000
AcDbSavedByObjectVersion
1070
     0
1000
AcDbSavedByObjectVersion
1070
     0
1000
AcDbSavedByObjectVersion
1070
     0
1000
AcDbSavedByObjectVersion
1070
     0
1000
AcDbSavedByObjectVersion
1070
     0
1000
AcDbSavedByObjectVersion
1070
     0
1000
AcDbSavedByObjectVersion
1070
     0
1000
AcDbSavedByObjectVersion
1070
     0
1000
AcDbSavedByObjectVersion
1070
     0
1000
AcDbSavedByObjectVersion
1070
     0
1000
AcDbSavedByObjectVersion
1070
     0
1000
AcDbSavedByObjectVersion
1070
     0
1000
AcDbSavedByObjectVersion
1070
     0
1000
AcDbSavedByObjectVersion
1070
     0
1000
AcDbSavedByObjectVersion
1070
     0
1000
AcDbSavedByObjectVersion
1070
     0
1000
AcDbSavedByObjectVersion
1070
     0
1000
AcDbSavedByObjectVersion
1070
     0
1000
AcDbSavedByObjectVersion
1070
     0
1000
AcDbSavedByObjectVersion
1070
     0
1000
AcDbSavedByObjectVersion
1070
     0
1000
AcDbSavedByObjectVersion
1070
     0
1000
AcDbSavedByObjectVersion
1070
     0
1000
AcDbSavedByObjectVersion
1070
     0
1000
AcDbSavedByObjectVersion
1070
     0
1000
AcDbSavedByObjectVersion
1070
     0
1000
AcDbSavedByObjectVersion
1070
     0
1000
AcDbSavedByObjectVersion
1070
     0
1000
AcDbSavedByObjectVersion
1070
     0
1000
AcDbSavedByObjectVersion
1070
     0
1000
AcDbSavedByObjectVersion
1070
     0
1000
AcDbSavedByObjectVersion
1070
     0
1000
AcDbSavedByObjectVersion
1070
     0
1000
AcDbSavedByObjectVersion
1070
     0
1000
AcDbSavedByObjectVersion
1070
     0
1000
AcDbSavedByObjectVersion
1070
     0
1000
AcDbSavedByObjectVersion
1070
     0
1000
AcDbSavedByObjectVersion
1070
     0
1000
AcDbSavedByObjectVersion
1070
     0
1000
AcDbSavedByObjectVersion
1070
     0
1000
AcDbSavedByObjectVersion
1070
     0
1000
AcDbSavedByObjectVersion
1070
     0
1000
AcDbSavedByObjectVersion
1070
     0
1000
AcDbSavedByObjectVersion
1070
     0
1000
AcDbSavedByObjectVersion
1070
     0
  0
VISUALSTYLE
  5
2B
102
{ACAD_REACTORS
330
2A
102
}
330
2A
100
AcDbVisualStyle
  2
Flat
 70
     0
 71
     2
 72
     1
 73
     1
 90
        2
 40
-0.6
 41
30.0
 62
     5
 63
     7
 74
     0
 91
        4
 64
     7
 65
   257
 75
     1
175
     1
 42
1.0
 92
        8
 66
     7
 43
1.0
 76
     1
 77
     6
 78
     2
 67
     7
 79
     5
170
     0
171
     0
290
     0
174
     0
 93
       13
 44
0.0
173
     0
291
     1
 45
0.0
1001
ACAD
1000
AcDbSavedByObjectVersion
1070
     0
1000
AcDbSavedByObjectVersion
1070
     0
1000
AcDbSavedByObjectVersion
1070
     0
1000
AcDbSavedByObjectVersion
1070
     0
1000
AcDbSavedByObjectVersion
1070
     0
1000
AcDbSavedByObjectVersion
1070
     0
1000
AcDbSavedByObjectVersion
1070
     0
1000
AcDbSavedByObjectVersion
1070
     0
1000
AcDbSavedByObjectVersion
1070
     0
1000
AcDbSavedByObjectVersion
1070
     0
1000
AcDbSavedByObjectVersion
1070
     0
1000
AcDbSavedByObjectVersion
1070
     0
1000
AcDbSavedByObjectVersion
1070
     0
1000
AcDbSavedByObjectVersion
1070
     0
1000
AcDbSavedByObjectVersion
1070
     0
1000
AcDbSavedByObjectVersion
1070
     0
1000
AcDbSavedByObjectVersion
1070
     0
1000
AcDbSavedByObjectVersion
1070
     0
1000
AcDbSavedByObjectVersion
1070
     0
1000
AcDbSavedByObjectVersion
1070
     0
1000
AcDbSavedByObjectVersion
1070
     0
1000
AcDbSavedByObjectVersion
1070
     0
1000
AcDbSavedByObjectVersion
1070
     0
1000
AcDbSavedByObjectVersion
1070
     0
1000
AcDbSavedByObjectVersion
1070
     0
1000
AcDbSavedByObjectVersion
1070
     0
1000
AcDbSavedByObjectVersion
1070
     0
1000
AcDbSavedByObjectVersion
1070
     0
1000
AcDbSavedByObjectVersion
1070
     0
1000
AcDbSavedByObjectVersion
1070
     0
1000
AcDbSavedByObjectVersion
1070
     0
1000
AcDbSavedByObjectVersion
1070
     0
1000
AcDbSavedByObjectVersion
1070
     0
1000
AcDbSavedByObjectVersion
1070
     0
1000
AcDbSavedByObjectVersion
1070
     0
1000
AcDbSavedByObjectVersion
1070
     0
1000
AcDbSavedByObjectVersion
1070
     0
1000
AcDbSavedByObjectVersion
1070
     0
1000
AcDbSavedByObjectVersion
1070
     0
1000
AcDbSavedByObjectVersion
1070
     0
1000
AcDbSavedByObjectVersion
1070
     0
1000
AcDbSavedByObjectVersion
1070
     0
1000
AcDbSavedByObjectVersion
1070
     0
1000
AcDbSavedByObjectVersion
1070
     0
1000
AcDbSavedByObjectVersion
1070
     0
1000
AcDbSavedByObjectVersion
1070
     0
1000
AcDbSavedByObjectVersion
1070
     0
1000
AcDbSavedByObjectVersion
1070
     0
1000
AcDbSavedByObjectVersion
1070
     0
1000
AcDbSavedByObjectVersion
1070
     0
1000
AcDbSavedByObjectVersion
1070
     0
1000
AcDbSavedByObjectVersion
1070
     0
1000
AcDbSavedByObjectVersion
1070
     0
1000
AcDbSavedByObjectVersion
1070
     0
1000
AcDbSavedByObjectVersion
1070
     0
1000
AcDbSavedByObjectVersion
1070
     0
1000
AcDbSavedByObjectVersion
1070
     0
  0
VISUALSTYLE
  5
2C
102
{ACAD_REACTORS
330
2A
102
}
330
2A
100
AcDbVisualStyle
  2
FlatWithEdges
 70
     1
 71
     2
 72
     1
 73
     1
 90
        2
 40
-0.6
 41
30.0
 62
     5
 63
     7
 74
     1
 91
        4
 64
     7
 65
   257
 75
     1
175
     1
 42
1.0
 92
        0
 66
   257
 43
1.0
 76
     1
 77
     6
 78
     2
 67
     7
 79
     5
170
     0
171
     0
290
     0
174
     0
 93
       13
 44
0.0
173
     0
291
     1
 45
0.0
1001
ACAD
1000
AcDbSavedByObjectVersion
1070
     0
1000
AcDbSavedByObjectVersion
1070
     0
1000
AcDbSavedByObjectVersion
1070
     0
1000
AcDbSavedByObjectVersion
1070
     0
1000
AcDbSavedByObjectVersion
1070
     0
1000
AcDbSavedByObjectVersion
1070
     0
1000
AcDbSavedByObjectVersion
1070
     0
1000
AcDbSavedByObjectVersion
1070
     0
1000
AcDbSavedByObjectVersion
1070
     0
1000
AcDbSavedByObjectVersion
1070
     0
1000
AcDbSavedByObjectVersion
1070
     0
1000
AcDbSavedByObjectVersion
1070
     0
1000
AcDbSavedByObjectVersion
1070
     0
1000
AcDbSavedByObjectVersion
1070
     0
1000
AcDbSavedByObjectVersion
1070
     0
1000
AcDbSavedByObjectVersion
1070
     0
1000
AcDbSavedByObjectVersion
1070
     0
1000
AcDbSavedByObjectVersion
1070
     0
1000
AcDbSavedByObjectVersion
1070
     0
1000
AcDbSavedByObjectVersion
1070
     0
1000
AcDbSavedByObjectVersion
1070
     0
1000
AcDbSavedByObjectVersion
1070
     0
1000
AcDbSavedByObjectVersion
1070
     0
1000
AcDbSavedByObjectVersion
1070
     0
1000
AcDbSavedByObjectVersion
1070
     0
1000
AcDbSavedByObjectVersion
1070
     0
1000
AcDbSavedByObjectVersion
1070
     0
1000
AcDbSavedByObjectVersion
1070
     0
1000
AcDbSavedByObjectVersion
1070
     0
1000
AcDbSavedByObjectVersion
1070
     0
1000
AcDbSavedByObjectVersion
1070
     0
1000
AcDbSavedByObjectVersion
1070
     0
1000
AcDbSavedByObjectVersion
1070
     0
1000
AcDbSavedByObjectVersion
1070
     0
1000
AcDbSavedByObjectVersion
1070
     0
1000
AcDbSavedByObjectVersion
1070
     0
1000
AcDbSavedByObjectVersion
1070
     0
1000
AcDbSavedByObjectVersion
1070
     0
1000
AcDbSavedByObjectVersion
1070
     0
1000
AcDbSavedByObjectVersion
1070
     0
1000
AcDbSavedByObjectVersion
1070
     0
1000
AcDbSavedByObjectVersion
1070
     0
1000
AcDbSavedByObjectVersion
1070
     0
1000
AcDbSavedByObjectVersion
1070
     0
1000
AcDbSavedByObjectVersion
1070
     0
1000
AcDbSavedByObjectVersion
1070
     0
1000
AcDbSavedByObjectVersion
1070
     0
1000
AcDbSavedByObjectVersion
1070
     0
1000
AcDbSavedByObjectVersion
1070
     0
1000
AcDbSavedByObjectVersion
1070
     0
1000
AcDbSavedByObjectVersion
1070
     0
1000
AcDbSavedByObjectVersion
1070
     0
1000
AcDbSavedByObjectVersion
1070
     0
1000
AcDbSavedByObjectVersion
1070
     0
1000
AcDbSavedByObjectVersion
1070
     0
1000
AcDbSavedByObjectVersion
1070
     0
1000
AcDbSavedByObjectVersion
1070
     0
  0
VISUALSTYLE
  5
2D
102
{ACAD_REACTORS
330
2A
102
}
330
2A
100
AcDbVisualStyle
  2
Gouraud
 70
     2
 71
     2
 72
     2
 73
     1
 90
        2
 40
-0.6
 41
30.0
 62
     5
 63
     7
 74
     0
 91
        4
 64
     7
 65
   257
 75
     1
175
     1
 42
1.0
 92
        0
 66
     7
 43
1.0
 76
     1
 77
     6
 78
     2
 67
     7
 79
     5
170
     0
171
     0
290
     0
174
     0
 93
       13
 44
0.0
173
     0
291
     1
 45
0.0
1001
ACAD
1000
AcDbSavedByObjectVersion
1070
     0
1000
AcDbSavedByObjectVersion
1070
     0
1000
AcDbSavedByObjectVersion
1070
     0
1000
AcDbSavedByObjectVersion
1070
     0
1000
AcDbSavedByObjectVersion
1070
     0
1000
AcDbSavedByObjectVersion
1070
     0
1000
AcDbSavedByObjectVersion
1070
     0
1000
AcDbSavedByObjectVersion
1070
     0
1000
AcDbSavedByObjectVersion
1070
     0
1000
AcDbSavedByObjectVersion
1070
     0
1000
AcDbSavedByObjectVersion
1070
     0
1000
AcDbSavedByObjectVersion
1070
     0
1000
AcDbSavedByObjectVersion
1070
     0
1000
AcDbSavedByObjectVersion
1070
     0
1000
AcDbSavedByObjectVersion
1070
     0
1000
AcDbSavedByObjectVersion
1070
     0
1000
AcDbSavedByObjectVersion
1070
     0
1000
AcDbSavedByObjectVersion
1070
     0
1000
AcDbSavedByObjectVersion
1070
     0
1000
AcDbSavedByObjectVersion
1070
     0
1000
AcDbSavedByObjectVersion
1070
     0
1000
AcDbSavedByObjectVersion
1070
     0
1000
AcDbSavedByObjectVersion
1070
     0
1000
AcDbSavedByObjectVersion
1070
     0
1000
AcDbSavedByObjectVersion
1070
     0
1000
AcDbSavedByObjectVersion
1070
     0
1000
AcDbSavedByObjectVersion
1070
     0
1000
AcDbSavedByObjectVersion
1070
     0
1000
AcDbSavedByObjectVersion
1070
     0
1000
AcDbSavedByObjectVersion
1070
     0
1000
AcDbSavedByObjectVersion
1070
     0
1000
AcDbSavedByObjectVersion
1070
     0
1000
AcDbSavedByObjectVersion
1070
     0
1000
AcDbSavedByObjectVersion
1070
     0
1000
AcDbSavedByObjectVersion
1070
     0
1000
AcDbSavedByObjectVersion
1070
     0
1000
AcDbSavedByObjectVersion
1070
     0
1000
AcDbSavedByObjectVersion
1070
     0
1000
AcDbSavedByObjectVersion
1070
     0
1000
AcDbSavedByObjectVersion
1070
     0
1000
AcDbSavedByObjectVersion
1070
     0
1000
AcDbSavedByObjectVersion
1070
     0
1000
AcDbSavedByObjectVersion
1070
     0
1000
AcDbSavedByObjectVersion
1070
     0
1000
AcDbSavedByObjectVersion
1070
     0
1000
AcDbSavedByObjectVersion
1070
     0
1000
AcDbSavedByObjectVersion
1070
     0
1000
AcDbSavedByObjectVersion
1070
     0
1000
AcDbSavedByObjectVersion
1070
     0
1000
AcDbSavedByObjectVersion
1070
     0
1000
AcDbSavedByObjectVersion
1070
     0
1000
AcDbSavedByObjectVersion
1070
     0
1000
AcDbSavedByObjectVersion
1070
     0
1000
AcDbSavedByObjectVersion
1070
     0
1000
AcDbSavedByObjectVersion
1070
     0
1000
AcDbSavedByObjectVersion
1070
     0
1000
AcDbSavedByObjectVersion
1070
     0
  0
VISUALSTYLE
  5
2E
102
{ACAD_REACTORS
330
2A
102
}
330
2A
100
AcDbVisualStyle
  2
GouraudWithEdges
 70
     3
 71
     2
 72
     2
 73
     1
 90
        2
 40
-0.6
 41
30.0
 62
     5
 63
     7
 74
     1
 91
        4
 64
     7
 65
   257
 75
     1
175
     1
 42
1.0
 92
        0
 66
   257
 43
1.0
 76
     1
 77
     6
 78
     2
 67
     7
 79
     5
170
     0
171
     0
290
     0
174
     0
 93
       13
 44
0.0
173
     0
291
     1
 45
0.0
1001
ACAD
1000
AcDbSavedByObjectVersion
1070
     0
1000
AcDbSavedByObjectVersion
1070
     0
1000
AcDbSavedByObjectVersion
1070
     0
1000
AcDbSavedByObjectVersion
1070
     0
1000
AcDbSavedByObjectVersion
1070
     0
1000
AcDbSavedByObjectVersion
1070
     0
1000
AcDbSavedByObjectVersion
1070
     0
1000
AcDbSavedByObjectVersion
1070
     0
1000
AcDbSavedByObjectVersion
1070
     0
1000
AcDbSavedByObjectVersion
1070
     0
1000
AcDbSavedByObjectVersion
1070
     0
1000
AcDbSavedByObjectVersion
1070
     0
1000
AcDbSavedByObjectVersion
1070
     0
1000
AcDbSavedByObjectVersion
1070
     0
1000
AcDbSavedByObjectVersion
1070
     0
1000
AcDbSavedByObjectVersion
1070
     0
1000
AcDbSavedByObjectVersion
1070
     0
1000
AcDbSavedByObjectVersion
1070
     0
1000
AcDbSavedByObjectVersion
1070
     0
1000
AcDbSavedByObjectVersion
1070
     0
1000
AcDbSavedByObjectVersion
1070
     0
1000
AcDbSavedByObjectVersion
1070
     0
1000
AcDbSavedByObjectVersion
1070
     0
1000
AcDbSavedByObjectVersion
1070
     0
1000
AcDbSavedByObjectVersion
1070
     0
1000
AcDbSavedByObjectVersion
1070
     0
1000
AcDbSavedByObjectVersion
1070
     0
1000
AcDbSavedByObjectVersion
1070
     0
1000
AcDbSavedByObjectVersion
1070
     0
1000
AcDbSavedByObjectVersion
1070
     0
1000
AcDbSavedByObjectVersion
1070
     0
1000
AcDbSavedByObjectVersion
1070
     0
1000
AcDbSavedByObjectVersion
1070
     0
1000
AcDbSavedByObjectVersion
1070
     0
1000
AcDbSavedByObjectVersion
1070
     0
1000
AcDbSavedByObjectVersion
1070
     0
1000
AcDbSavedByObjectVersion
1070
     0
1000
AcDbSavedByObjectVersion
1070
     0
1000
AcDbSavedByObjectVersion
1070
     0
1000
AcDbSavedByObjectVersion
1070
     0
1000
AcDbSavedByObjectVersion
1070
     0
1000
AcDbSavedByObjectVersion
1070
     0
1000
AcDbSavedByObjectVersion
1070
     0
1000
AcDbSavedByObjectVersion
1070
     0
1000
AcDbSavedByObjectVersion
1070
     0
1000
AcDbSavedByObjectVersion
1070
     0
1000
AcDbSavedByObjectVersion
1070
     0
1000
AcDbSavedByObjectVersion
1070
     0
1000
AcDbSavedByObjectVersion
1070
     0
1000
AcDbSavedByObjectVersion
1070
     0
1000
AcDbSavedByObjectVersion
1070
     0
1000
AcDbSavedByObjectVersion
1070
     0
1000
AcDbSavedByObjectVersion
1070
     0
1000
AcDbSavedByObjectVersion
1070
     0
1000
AcDbSavedByObjectVersion
1070
     0
1000
AcDbSavedByObjectVersion
1070
     0
1000
AcDbSavedByObjectVersion
1070
     0
  0
VISUALSTYLE
  5
38
102
{ACAD_REACTORS
330
2A
102
}
330
2A
100
AcDbVisualStyle
  2
Linepattern
 70
    14
 71
     2
 72
     2
 73
     0
 90
        0
 40
-0.6
 41
-30.0
 62
     5
 63
     7
 74
     1
 91
        4
 64
     7
 65
   257
 75
     7
175
     7
 42
1.0
 92
        8
 66
     7
 43
1.0
 76
     1
 77
     6
 78
     2
 67
     7
 79
     5
170
     0
171
     0
290
     0
174
     0
 93
        1
 44
0.0
173
     0
291
     1
 45
0.0
1001
ACAD
1000
AcDbSavedByObjectVersion
1070
     0
1000
AcDbSavedByObjectVersion
1070
     0
1000
AcDbSavedByObjectVersion
1070
     0
1000
AcDbSavedByObjectVersion
1070
     0
1000
AcDbSavedByObjectVersion
1070
     0
1000
AcDbSavedByObjectVersion
1070
     0
1000
AcDbSavedByObjectVersion
1070
     0
1000
AcDbSavedByObjectVersion
1070
     0
1000
AcDbSavedByObjectVersion
1070
     0
1000
AcDbSavedByObjectVersion
1070
     0
1000
AcDbSavedByObjectVersion
1070
     0
1000
AcDbSavedByObjectVersion
1070
     0
1000
AcDbSavedByObjectVersion
1070
     0
1000
AcDbSavedByObjectVersion
1070
     0
1000
AcDbSavedByObjectVersion
1070
     0
1000
AcDbSavedByObjectVersion
1070
     0
1000
AcDbSavedByObjectVersion
1070
     0
1000
AcDbSavedByObjectVersion
1070
     0
1000
AcDbSavedByObjectVersion
1070
     0
1000
AcDbSavedByObjectVersion
1070
     0
1000
AcDbSavedByObjectVersion
1070
     0
1000
AcDbSavedByObjectVersion
1070
     0
1000
AcDbSavedByObjectVersion
1070
     0
1000
AcDbSavedByObjectVersion
1070
     0
1000
AcDbSavedByObjectVersion
1070
     0
1000
AcDbSavedByObjectVersion
1070
     0
1000
AcDbSavedByObjectVersion
1070
     0
1000
AcDbSavedByObjectVersion
1070
     0
1000
AcDbSavedByObjectVersion
1070
     0
1000
AcDbSavedByObjectVersion
1070
     0
1000
AcDbSavedByObjectVersion
1070
     0
1000
AcDbSavedByObjectVersion
1070
     0
1000
AcDbSavedByObjectVersion
1070
     0
1000
AcDbSavedByObjectVersion
1070
     0
1000
AcDbSavedByObjectVersion
1070
     0
1000
AcDbSavedByObjectVersion
1070
     0
1000
AcDbSavedByObjectVersion
1070
     0
1000
AcDbSavedByObjectVersion
1070
     0
1000
AcDbSavedByObjectVersion
1070
     0
1000
AcDbSavedByObjectVersion
1070
     0
1000
AcDbSavedByObjectVersion
1070
     0
1000
AcDbSavedByObjectVersion
1070
     0
1000
AcDbSavedByObjectVersion
1070
     0
1000
AcDbSavedByObjectVersion
1070
     0
1000
AcDbSavedByObjectVersion
1070
     0
1000
AcDbSavedByObjectVersion
1070
     0
1000
AcDbSavedByObjectVersion
1070
     0
1000
AcDbSavedByObjectVersion
1070
     0
1000
AcDbSavedByObjectVersion
1070
     0
1000
AcDbSavedByObjectVersion
1070
     0
1000
AcDbSavedByObjectVersion
1070
     0
1000
AcDbSavedByObjectVersion
1070
     0
1000
AcDbSavedByObjectVersion
1070
     0
1000
AcDbSavedByObjectVersion
1070
     0
1000
AcDbSavedByObjectVersion
1070
     0
1000
AcDbSavedByObjectVersion
1070
     0
1000
AcDbSavedByObjectVersion
1070
     0
  0
VISUALSTYLE
  5
33
102
{ACAD_REACTORS
330
2A
102
}
330
2A
100
AcDbVisualStyle
  2
Realistic
 70
     8
 71
     2
 72
     2
 73
     0
 90
        0
 40
-0.6
 41
-30.0
 62
     5
 63
     7
 74
     1
 91
        0
 64
     7
 65
   257
 75
     1
175
     1
 42
1.0
 92
        8
 66
     8
 43
1.0
 76
     1
 77
     6
 78
     2
 67
     7
 79
     5
170
     0
171
     0
290
     0
174
     0
 93
       13
 44
0.0
173
     0
291
     0
 45
0.0
1001
ACAD
1000
AcDbSavedByObjectVersion
1070
     0
1000
AcDbSavedByObjectVersion
1070
     0
1000
AcDbSavedByObjectVersion
1070
     0
1000
AcDbSavedByObjectVersion
1070
     0
1000
AcDbSavedByObjectVersion
1070
     0
1000
AcDbSavedByObjectVersion
1070
     0
1000
AcDbSavedByObjectVersion
1070
     0
1000
AcDbSavedByObjectVersion
1070
     0
1000
AcDbSavedByObjectVersion
1070
     0
1000
AcDbSavedByObjectVersion
1070
     0
1000
AcDbSavedByObjectVersion
1070
     0
1000
AcDbSavedByObjectVersion
1070
     0
1000
AcDbSavedByObjectVersion
1070
     0
1000
AcDbSavedByObjectVersion
1070
     0
1000
AcDbSavedByObjectVersion
1070
     0
1000
AcDbSavedByObjectVersion
1070
     0
1000
AcDbSavedByObjectVersion
1070
     0
1000
AcDbSavedByObjectVersion
1070
     0
1000
AcDbSavedByObjectVersion
1070
     0
1000
AcDbSavedByObjectVersion
1070
     0
1000
AcDbSavedByObjectVersion
1070
     0
1000
AcDbSavedByObjectVersion
1070
     0
1000
AcDbSavedByObjectVersion
1070
     0
1000
AcDbSavedByObjectVersion
1070
     0
1000
AcDbSavedByObjectVersion
1070
     0
1000
AcDbSavedByObjectVersion
1070
     0
1000
AcDbSavedByObjectVersion
1070
     0
1000
AcDbSavedByObjectVersion
1070
     0
1000
AcDbSavedByObjectVersion
1070
     0
1000
AcDbSavedByObjectVersion
1070
     0
1000
AcDbSavedByObjectVersion
1070
     0
1000
AcDbSavedByObjectVersion
1070
     0
1000
AcDbSavedByObjectVersion
1070
     0
1000
AcDbSavedByObjectVersion
1070
     0
1000
AcDbSavedByObjectVersion
1070
     0
1000
AcDbSavedByObjectVersion
1070
     0
1000
AcDbSavedByObjectVersion
1070
     0
1000
AcDbSavedByObjectVersion
1070
     0
1000
AcDbSavedByObjectVersion
1070
     0
1000
AcDbSavedByObjectVersion
1070
     0
1000
AcDbSavedByObjectVersion
1070
     0
1000
AcDbSavedByObjectVersion
1070
     0
1000
AcDbSavedByObjectVersion
1070
     0
1000
AcDbSavedByObjectVersion
1070
     0
1000
AcDbSavedByObjectVersion
1070
     0
1000
AcDbSavedByObjectVersion
1070
     0
1000
AcDbSavedByObjectVersion
1070
     0
1000
AcDbSavedByObjectVersion
1070
     0
1000
AcDbSavedByObjectVersion
1070
     0
1000
AcDbSavedByObjectVersion
1070
     0
1000
AcDbSavedByObjectVersion
1070
     0
1000
AcDbSavedByObjectVersion
1070
     0
1000
AcDbSavedByObjectVersion
1070
     0
1000
AcDbSavedByObjectVersion
1070
     0
1000
AcDbSavedByObjectVersion
1070
     0
1000
AcDbSavedByObjectVersion
1070
     0
1000
AcDbSavedByObjectVersion
1070
     0
  0
VISUALSTYLE
  5
37
102
{ACAD_REACTORS
330
2A
102
}
330
2A
100
AcDbVisualStyle
  2
Thicken
 70
    13
 71
     2
 72
     2
 73
     0
 90
        0
 40
-0.6
 41
-30.0
 62
     5
 63
     7
 74
     1
 91
        4
 64
     7
 65
   257
 75
     1
175
     1
 42
1.0
 92
       12
 66
     7
 43
1.0
 76
     1
 77
     6
 78
     2
 67
     7
 79
     5
170
     0
171
     0
290
     0
174
     0
 93
        1
 44
0.0
173
     0
291
     1
 45
0.0
1001
ACAD
1000
AcDbSavedByObjectVersion
1070
     0
1000
AcDbSavedByObjectVersion
1070
     0
1000
AcDbSavedByObjectVersion
1070
     0
1000
AcDbSavedByObjectVersion
1070
     0
1000
AcDbSavedByObjectVersion
1070
     0
1000
AcDbSavedByObjectVersion
1070
     0
1000
AcDbSavedByObjectVersion
1070
     0
1000
AcDbSavedByObjectVersion
1070
     0
1000
AcDbSavedByObjectVersion
1070
     0
1000
AcDbSavedByObjectVersion
1070
     0
1000
AcDbSavedByObjectVersion
1070
     0
1000
AcDbSavedByObjectVersion
1070
     0
1000
AcDbSavedByObjectVersion
1070
     0
1000
AcDbSavedByObjectVersion
1070
     0
1000
AcDbSavedByObjectVersion
1070
     0
1000
AcDbSavedByObjectVersion
1070
     0
1000
AcDbSavedByObjectVersion
1070
     0
1000
AcDbSavedByObjectVersion
1070
     0
1000
AcDbSavedByObjectVersion
1070
     0
1000
AcDbSavedByObjectVersion
1070
     0
1000
AcDbSavedByObjectVersion
1070
     0
1000
AcDbSavedByObjectVersion
1070
     0
1000
AcDbSavedByObjectVersion
1070
     0
1000
AcDbSavedByObjectVersion
1070
     0
1000
AcDbSavedByObjectVersion
1070
     0
1000
AcDbSavedByObjectVersion
1070
     0
1000
AcDbSavedByObjectVersion
1070
     0
1000
AcDbSavedByObjectVersion
1070
     0
1000
AcDbSavedByObjectVersion
1070
     0
1000
AcDbSavedByObjectVersion
1070
     0
1000
AcDbSavedByObjectVersion
1070
     0
1000
AcDbSavedByObjectVersion
1070
     0
1000
AcDbSavedByObjectVersion
1070
     0
1000
AcDbSavedByObjectVersion
1070
     0
1000
AcDbSavedByObjectVersion
1070
     0
1000
AcDbSavedByObjectVersion
1070
     0
1000
AcDbSavedByObjectVersion
1070
     0
1000
AcDbSavedByObjectVersion
1070
     0
1000
AcDbSavedByObjectVersion
1070
     0
1000
AcDbSavedByObjectVersion
1070
     0
1000
AcDbSavedByObjectVersion
1070
     0
1000
AcDbSavedByObjectVersion
1070
     0
1000
AcDbSavedByObjectVersion
1070
     0
1000
AcDbSavedByObjectVersion
1070
     0
1000
AcDbSavedByObjectVersion
1070
     0
1000
AcDbSavedByObjectVersion
1070
     0
1000
AcDbSavedByObjectVersion
1070
     0
1000
AcDbSavedByObjectVersion
1070
     0
1000
AcDbSavedByObjectVersion
1070
     0
1000
AcDbSavedByObjectVersion
1070
     0
1000
AcDbSavedByObjectVersion
1070
     0
1000
AcDbSavedByObjectVersion
1070
     0
1000
AcDbSavedByObjectVersion
1070
     0
1000
AcDbSavedByObjectVersion
1070
     0
1000
AcDbSavedByObjectVersion
1070
     0
1000
AcDbSavedByObjectVersion
1070
     0
1000
AcDbSavedByObjectVersion
1070
     0
  0
DICTIONARYVAR
  5
510B
102
{ACAD_REACTORS
330
5108
102
}
330
5108
100
DictionaryVariables
280
     0
  1
1:1
  0
DICTIONARYVAR
  5
510A
102
{ACAD_REACTORS
330
5108
102
}
330
5108
100
DictionaryVariables
280
     0
  1
STANDARD
  0
DICTIONARYVAR
  5
5109
102
{ACAD_REACTORS
330
5108
102
}
330
5108
100
DictionaryVariables
280
     0
  1
STANDARD
  0
DICTIONARYVAR
  5
510E
102
{ACAD_REACTORS
330
5108
102
}
330
5108
100
DictionaryVariables
280
     0
  1
1
  0
DICTIONARYVAR
  5
510D
102
{ACAD_REACTORS
330
5108
102
}
330
5108
100
DictionaryVariables
280
     0
  1
0
  0
DICTIONARYVAR
  5
15346
102
{ACAD_REACTORS
330
5108
102
}
330
5108
100
DictionaryVariables
280
     0
  1
0
  0
DICTIONARYVAR
  5
15345
102
{ACAD_REACTORS
330
5108
102
}
330
5108
100
DictionaryVariables
280
     0
  1
0
  0
DICTIONARYVAR
  5
510C
102
{ACAD_REACTORS
330
5108
102
}
330
5108
100
DictionaryVariables
280
     0
  1
127
  0
XRECORD
  5
14144
102
{ACAD_REACTORS
330
14143
102
}
330
14143
100
AcDbXrecord
280
     1
330
13EBE
  0
DICTIONARY
  5
4FEF
330
4FEE
100
AcDbDictionary
280
     1
281
     1
  3
ACAD_XREC_ROUNDTRIP
360
7C2C
  3
BUMPTILE
360
4FF1
  3
DIFFUSETILE
360
4FF0
  3
OPACITYTILE
360
4FF4
  3
REFLECTIONTILE
360
4FF3
  3
REFRACTIONTILE
360
4FF5
  3
SPECULARTILE
360
4FF2
  0
DICTIONARY
  5
4FE7
330
4FE6
100
AcDbDictionary
280
     1
281
     1
  3
ACAD_XREC_ROUNDTRIP
360
7C2B
  3
BUMPTILE
360
4FE9
  3
DIFFUSETILE
360
4FE8
  3
OPACITYTILE
360
4FEC
  3
REFLECTIONTILE
360
4FEB
  3
REFRACTIONTILE
360
4FED
  3
SPECULARTILE
360
4FEA
  0
DICTIONARY
  5
4FF7
330
4FF6
100
AcDbDictionary
280
     1
281
     1
  3
ACAD_XREC_ROUNDTRIP
360
7C2D
  3
BUMPTILE
360
4FF9
  3
DIFFUSETILE
360
4FF8
  3
OPACITYTILE
360
4FFC
  3
REFLECTIONTILE
360
4FFB
  3
REFRACTIONTILE
360
4FFD
  3
SPECULARTILE
360
4FFA
  0
DICTIONARY
  5
50D6
330
4FFF
100
AcDbDictionary
280
     1
281
     1
  3
ACAD_ROUNDTRIP_2008_TABLESTYLE_CELLSTYLEMAP
360
15354
  0
XRECORD
  5
7C2C
102
{ACAD_REACTORS
330
4FEF
102
}
330
4FEF
100
AcDbXrecord
280
     1
102
MATERIAL
148
0.0
149
0.0
149
0.0
 93
        0
 94
      127
282
     0
 72
     0
 77
     0
171
     0
175
     0
179
     0
273
     0
  0
XRECORD
  5
4FF1
102
{ACAD_REACTORS
330
4FEF
102
}
330
4FEF
100
AcDbXrecord
280
     1
270
     1
271
     1
  0
XRECORD
  5
4FF0
102
{ACAD_REACTORS
330
4FEF
102
}
330
4FEF
100
AcDbXrecord
280
     1
270
     1
271
     1
  0
XRECORD
  5
4FF4
102
{ACAD_REACTORS
330
4FEF
102
}
330
4FEF
100
AcDbXrecord
280
     1
270
     1
271
     1
  0
XRECORD
  5
4FF3
102
{ACAD_REACTORS
330
4FEF
102
}
330
4FEF
100
AcDbXrecord
280
     1
270
     1
271
     1
  0
XRECORD
  5
4FF5
102
{ACAD_REACTORS
330
4FEF
102
}
330
4FEF
100
AcDbXrecord
280
     1
270
     1
271
     1
  0
XRECORD
  5
4FF2
102
{ACAD_REACTORS
330
4FEF
102
}
330
4FEF
100
AcDbXrecord
280
     1
270
     1
271
     1
  0
XRECORD
  5
7C2B
102
{ACAD_REACTORS
330
4FE7
102
}
330
4FE7
100
AcDbXrecord
280
     1
102
MATERIAL
148
0.0
149
0.0
149
0.0
 93
        0
 94
      127
282
     0
 72
     0
 77
     0
171
     0
175
     0
179
     0
273
     0
  0
XRECORD
  5
4FE9
102
{ACAD_REACTORS
330
4FE7
102
}
330
4FE7
100
AcDbXrecord
280
     1
270
     1
271
     1
  0
XRECORD
  5
4FE8
102
{ACAD_REACTORS
330
4FE7
102
}
330
4FE7
100
AcDbXrecord
280
     1
270
     1
271
     1
  0
XRECORD
  5
4FEC
102
{ACAD_REACTORS
330
4FE7
102
}
330
4FE7
100
AcDbXrecord
280
     1
270
     1
271
     1
  0
XRECORD
  5
4FEB
102
{ACAD_REACTORS
330
4FE7
102
}
330
4FE7
100
AcDbXrecord
280
     1
270
     1
271
     1
  0
XRECORD
  5
4FED
102
{ACAD_REACTORS
330
4FE7
102
}
330
4FE7
100
AcDbXrecord
280
     1
270
     1
271
     1
  0
XRECORD
  5
4FEA
102
{ACAD_REACTORS
330
4FE7
102
}
330
4FE7
100
AcDbXrecord
280
     1
270
     1
271
     1
  0
XRECORD
  5
7C2D
102
{ACAD_REACTORS
330
4FF7
102
}
330
4FF7
100
AcDbXrecord
280
     1
102
MATERIAL
148
0.0
149
0.0
149
0.0
 93
        0
 94
      127
282
     0
 72
     0
 77
     0
171
     0
175
     0
179
     0
273
     0
  0
XRECORD
  5
4FF9
102
{ACAD_REACTORS
330
4FF7
102
}
330
4FF7
100
AcDbXrecord
280
     1
270
     1
271
     1
  0
XRECORD
  5
4FF8
102
{ACAD_REACTORS
330
4FF7
102
}
330
4FF7
100
AcDbXrecord
280
     1
270
     1
271
     1
  0
XRECORD
  5
4FFC
102
{ACAD_REACTORS
330
4FF7
102
}
330
4FF7
100
AcDbXrecord
280
     1
270
     1
271
     1
  0
XRECORD
  5
4FFB
102
{ACAD_REACTORS
330
4FF7
102
}
330
4FF7
100
AcDbXrecord
280
     1
270
     1
271
     1
  0
XRECORD
  5
4FFD
102
{ACAD_REACTORS
330
4FF7
102
}
330
4FF7
100
AcDbXrecord
280
     1
270
     1
271
     1
  0
XRECORD
  5
4FFA
102
{ACAD_REACTORS
330
4FF7
102
}
330
4FF7
100
AcDbXrecord
280
     1
270
     1
271
     1
  0
CELLSTYLEMAP
  5
15354
102
{ACAD_REACTORS
330
50D6
102
}
330
50D6
100
AcDbCellStyleMap
 90
        3
300
CELLSTYLE
  1
TABLEFORMAT_BEGIN
 90
        5
170
     1
 91
        0
 92
    32768
 62
   257
 93
        1
300
CONTENTFORMAT
  1
CONTENTFORMAT_BEGIN
 90
        0
 91
        0
 92
      512
 93
        0
300

 40
0.0
140
1.0
 94
        5
 62
     0
340
11
144
0.25
309
CONTENTFORMAT_END
171
     1
301
MARGIN
  1
CELLMARGIN_BEGIN
 40
0.06
 40
0.06
 40
0.06
 40
0.06
 40
0.18
 40
0.18
309
CELLMARGIN_END
 94
        6
 95
        1
302
GRIDFORMAT
  1
GRIDFORMAT_BEGIN
 90
        0
 91
        1
 62
     0
 92
       -2
340
0
 93
        0
 40
0.045
309
GRIDFORMAT_END
 95
        2
302
GRIDFORMAT
  1
GRIDFORMAT_BEGIN
 90
        0
 91
        1
 62
     0
 92
       -2
340
0
 93
        0
 40
0.045
309
GRIDFORMAT_END
 95
        4
302
GRIDFORMAT
  1
GRIDFORMAT_BEGIN
 90
        0
 91
        1
 62
     0
 92
       -2
340
0
 93
        0
 40
0.045
309
GRIDFORMAT_END
 95
        8
302
GRIDFORMAT
  1
GRIDFORMAT_BEGIN
 90
        0
 91
        1
 62
     0
 92
       -2
340
0
 93
        0
 40
0.045
309
GRIDFORMAT_END
 95
       16
302
GRIDFORMAT
  1
GRIDFORMAT_BEGIN
 90
        0
 91
        1
 62
     0
 92
       -2
340
0
 93
        0
 40
0.045
309
GRIDFORMAT_END
 95
       32
302
GRIDFORMAT
  1
GRIDFORMAT_BEGIN
 90
        0
 91
        1
 62
     0
 92
       -2
340
0
 93
        0
 40
0.045
309
GRIDFORMAT_END
309
TABLEFORMAT_END
  1
CELLSTYLE_BEGIN
 90
        1
 91
        1
300
_TITLE
309
CELLSTYLE_END
300
CELLSTYLE
  1
TABLEFORMAT_BEGIN
 90
        5
170
     1
 91
        0
 92
        0
 62
   257
 93
        1
300
CONTENTFORMAT
  1
CONTENTFORMAT_BEGIN
 90
        0
 91
        0
 92
      512
 93
        0
300

 40
0.0
140
1.0
 94
        5
 62
     0
340
11
144
0.18
309
CONTENTFORMAT_END
171
     1
301
MARGIN
  1
CELLMARGIN_BEGIN
 40
0.06
 40
0.06
 40
0.06
 40
0.06
 40
0.18
 40
0.18
309
CELLMARGIN_END
 94
        6
 95
        1
302
GRIDFORMAT
  1
GRIDFORMAT_BEGIN
 90
        0
 91
        1
 62
     0
 92
       -2
340
0
 93
        0
 40
0.045
309
GRIDFORMAT_END
 95
        2
302
GRIDFORMAT
  1
GRIDFORMAT_BEGIN
 90
        0
 91
        1
 62
     0
 92
       -2
340
0
 93
        0
 40
0.045
309
GRIDFORMAT_END
 95
        4
302
GRIDFORMAT
  1
GRIDFORMAT_BEGIN
 90
        0
 91
        1
 62
     0
 92
       -2
340
0
 93
        0
 40
0.045
309
GRIDFORMAT_END
 95
        8
302
GRIDFORMAT
  1
GRIDFORMAT_BEGIN
 90
        0
 91
        1
 62
     0
 92
       -2
340
0
 93
        0
 40
0.045
309
GRIDFORMAT_END
 95
       16
302
GRIDFORMAT
  1
GRIDFORMAT_BEGIN
 90
        0
 91
        1
 62
     0
 92
       -2
340
0
 93
        0
 40
0.045
309
GRIDFORMAT_END
 95
       32
302
GRIDFORMAT
  1
GRIDFORMAT_BEGIN
 90
        0
 91
        1
 62
     0
 92
       -2
340
0
 93
        0
 40
0.045
309
GRIDFORMAT_END
309
TABLEFORMAT_END
  1
CELLSTYLE_BEGIN
 90
        2
 91
        1
300
_HEADER
309
CELLSTYLE_END
300
CELLSTYLE
  1
TABLEFORMAT_BEGIN
 90
        5
170
     1
 91
        0
 92
        0
 62
   257
 93
        1
300
CONTENTFORMAT
  1
CONTENTFORMAT_BEGIN
 90
        0
 91
        0
 92
      512
 93
        0
300

 40
0.0
140
1.0
 94
        2
 62
     0
340
11
144
0.18
309
CONTENTFORMAT_END
171
     1
301
MARGIN
  1
CELLMARGIN_BEGIN
 40
0.06
 40
0.06
 40
0.06
 40
0.06
 40
0.18
 40
0.18
309
CELLMARGIN_END
 94
        6
 95
        1
302
GRIDFORMAT
  1
GRIDFORMAT_BEGIN
 90
        0
 91
        1
 62
     0
 92
       -2
340
0
 93
        0
 40
0.045
309
GRIDFORMAT_END
 95
        2
302
GRIDFORMAT
  1
GRIDFORMAT_BEGIN
 90
        0
 91
        1
 62
     0
 92
       -2
340
0
 93
        0
 40
0.045
309
GRIDFORMAT_END
 95
        4
302
GRIDFORMAT
  1
GRIDFORMAT_BEGIN
 90
        0
 91
        1
 62
     0
 92
       -2
340
0
 93
        0
 40
0.045
309
GRIDFORMAT_END
 95
        8
302
GRIDFORMAT
  1
GRIDFORMAT_BEGIN
 90
        0
 91
        1
 62
     0
 92
       -2
340
0
 93
        0
 40
0.045
309
GRIDFORMAT_END
 95
       16
302
GRIDFORMAT
  1
GRIDFORMAT_BEGIN
 90
        0
 91
        1
 62
     0
 92
       -2
340
0
 93
        0
 40
0.045
309
GRIDFORMAT_END
 95
       32
302
GRIDFORMAT
  1
GRIDFORMAT_BEGIN
 90
        0
 91
        1
 62
     0
 92
       -2
340
0
 93
        0
 40
0.045
309
GRIDFORMAT_END
309
TABLEFORMAT_END
  1
CELLSTYLE_BEGIN
 90
        3
 91
        2
300
_DATA
309
CELLSTYLE_END
  0
ENDSEC
  0
EOF
