  0
SECTION
  2
HEADER
  9
$ACADVER
  1
AC1021
  9
$ACADMAINTVER
 70
    25
  9
$DWGCODEPAGE
  3
ANSI_936
  9
$LASTSAVEDBY
  1
zb.ye
  9
$INSBASE
 10
0.0
 20
0.0
 30
0.0
  9
$EXTMIN
 10
766.8602622199273
 20
184.191117995745
 30
-0.0000000000112498
  9
$EXTMAX
 10
841.1806152053177
 20
236.716002941042
 30
0.0000000000002956
  9
$LIMMIN
 10
0.0
 20
0.0
  9
$LIMMAX
 10
12.0
 20
9.0
  9
$ORTHOMODE
 70
     0
  9
$REGENMODE
 70
     1
  9
$FILLMODE
 70
     1
  9
$QTEXTMODE
 70
     0
  9
$MIRRTEXT
 70
     1
  9
$LTSCALE
 40
1.0
  9
$ATTMODE
 70
     1
  9
$TEXTSIZE
 40
0.2
  9
$TRACEWID
 40
0.05
  9
$TEXTSTYLE
  7
Standard
  9
$CLAYER
  8
0
  9
$CELTYPE
  6
ByLayer
  9
$CECOLOR
 62
   256
  9
$CELTSCALE
 40
1.0
  9
$DISPSILH
 70
     0
  9
$DIMSCALE
 40
1.0
  9
$DIMASZ
 40
1.5
  9
$DIMEXO
 40
0.2
  9
$DIMDLI
 40
0.2
  9
$DIMRND
 40
0.0
  9
$DIMDLE
 40
0.0
  9
$DIMEXE
 40
0.5
  9
$DIMTP
 40
0.0
  9
$DIMTM
 40
0.0
  9
$DIMTXT
 40
2.0
  9
$DIMCEN
 40
0.0
  9
$DIMTSZ
 40
0.0
  9
$DIMTOL
 70
     0
  9
$DIMLIM
 70
     0
  9
$DIMTIH
 70
     0
  9
$DIMTOH
 70
     0
  9
$DIMSE1
 70
     0
  9
$DIMSE2
 70
     0
  9
$DIMTAD
 70
     1
  9
$DIMZIN
 70
     8
  9
$DIMBLK
  1

  9
$DIMASO
 70
     1
  9
$DIMSHO
 70
     1
  9
$DIMPOST
  1

  9
$DIMAPOST
  1

  9
$DIMALT
 70
     0
  9
$DIMALTD
 70
     2
  9
$DIMALTF
 40
25.4
  9
$DIMLFAC
 40
1.0
  9
$DIMTOFL
 70
     0
  9
$DIMTVP
 40
0.0
  9
$DIMTIX
 70
     0
  9
$DIMSOXD
 70
     0
  9
$DIMSAH
 70
     0
  9
$DIMBLK1
  1

  9
$DIMBLK2
  1

  9
$DIMSTYLE
  2
01
  9
$DIMCLRD
 70
     1
  9
$DIMCLRE
 70
     6
  9
$DIMCLRT
 70
     4
  9
$DIMTFAC
 40
1.0
  9
$DIMGAP
 40
0.5
  9
$DIMJUST
 70
     0
  9
$DIMSD1
 70
     0
  9
$DIMSD2
 70
     0
  9
$DIMTOLJ
 70
     1
  9
$DIMTZIN
 70
     0
  9
$DIMALTZ
 70
     0
  9
$DIMALTTZ
 70
     0
  9
$DIMUPT
 70
     0
  9
$DIMDEC
 70
     1
  9
$DIMTDEC
 70
     1
  9
$DIMALTU
 70
     2
  9
$DIMALTTD
 70
     2
  9
$DIMTXSTY
  7
Romans字体
  9
$DIMAUNIT
 70
     0
  9
$DIMADEC
 70
     2
  9
$DIMALTRND
 40
0.0
  9
$DIMAZIN
 70
     2
  9
$DIMDSEP
 70
    46
  9
$DIMATFIT
 70
     3
  9
$DIMFRAC
 70
     0
  9
$DIMLDRBLK
  1

  9
$DIMLUNIT
 70
     2
  9
$DIMLWD
 70
    -2
  9
$DIMLWE
 70
    -2
  9
$DIMTMOVE
 70
     0
  9
$DIMFXL
 40
1.0
  9
$DIMFXLON
 70
     0
  9
$DIMJOGANG
 40
0.7853981633974483
  9
$DIMTFILL
 70
     0
  9
$DIMTFILLCLR
 70
     0
  9
$DIMARCSYM
 70
     0
  9
$DIMLTYPE
  6

  9
$DIMLTEX1
  6

  9
$DIMLTEX2
  6

  9
$LUNITS
 70
     2
  9
$LUPREC
 70
     4
  9
$SKETCHINC
 40
0.1
  9
$FILLETRAD
 40
0.5
  9
$AUNITS
 70
     0
  9
$AUPREC
 70
     0
  9
$MENU
  1
.
  9
$ELEVATION
 40
0.0
  9
$PELEVATION
 40
0.0
  9
$THICKNESS
 40
0.0
  9
$LIMCHECK
 70
     0
  9
$CHAMFERA
 40
0.5
  9
$CHAMFERB
 40
0.5
  9
$CHAMFERC
 40
1.0
  9
$CHAMFERD
 40
0.0
  9
$SKPOLY
 70
     0
  9
$TDCREATE
 40
2456524.383632987
  9
$TDUCREATE
 40
2456524.050299653
  9
$TDUPDATE
 40
2460286.789360671
  9
$TDUUPDATE
 40
2460286.456027338
  9
$TDINDWG
 40
1.2125944560
  9
$TDUSRTIMER
 40
1.2125754745
  9
$USRTIMER
 70
     1
  9
$ANGBASE
 50
0.0
  9
$ANGDIR
 70
     0
  9
$PDMODE
 70
     0
  9
$PDSIZE
 40
0.0
  9
$PLINEWID
 40
0.0
  9
$SPLFRAME
 70
     0
  9
$SPLINETYPE
 70
     6
  9
$SPLINESEGS
 70
     8
  9
$HANDSEED
  5
9C8
  9
$SURFTAB1
 70
     6
  9
$SURFTAB2
 70
     6
  9
$SURFTYPE
 70
     6
  9
$SURFU
 70
     6
  9
$SURFV
 70
     6
  9
$UCSBASE
  2

  9
$UCSNAME
  2

  9
$UCSORG
 10
0.0
 20
0.0
 30
0.0
  9
$UCSXDIR
 10
1.0
 20
0.0
 30
0.0
  9
$UCSYDIR
 10
0.0
 20
1.0
 30
0.0
  9
$UCSORTHOREF
  2

  9
$UCSORTHOVIEW
 70
     0
  9
$UCSORGTOP
 10
0.0
 20
0.0
 30
0.0
  9
$UCSORGBOTTOM
 10
0.0
 20
0.0
 30
0.0
  9
$UCSORGLEFT
 10
0.0
 20
0.0
 30
0.0
  9
$UCSORGRIGHT
 10
0.0
 20
0.0
 30
0.0
  9
$UCSORGFRONT
 10
0.0
 20
0.0
 30
0.0
  9
$UCSORGBACK
 10
0.0
 20
0.0
 30
0.0
  9
$PUCSBASE
  2

  9
$PUCSNAME
  2

  9
$PUCSORG
 10
0.0
 20
0.0
 30
0.0
  9
$PUCSXDIR
 10
1.0
 20
0.0
 30
0.0
  9
$PUCSYDIR
 10
0.0
 20
1.0
 30
0.0
  9
$PUCSORTHOREF
  2

  9
$PUCSORTHOVIEW
 70
     0
  9
$PUCSORGTOP
 10
0.0
 20
0.0
 30
0.0
  9
$PUCSORGBOTTOM
 10
0.0
 20
0.0
 30
0.0
  9
$PUCSORGLEFT
 10
0.0
 20
0.0
 30
0.0
  9
$PUCSORGRIGHT
 10
0.0
 20
0.0
 30
0.0
  9
$PUCSORGFRONT
 10
0.0
 20
0.0
 30
0.0
  9
$PUCSORGBACK
 10
0.0
 20
0.0
 30
0.0
  9
$USERI1
 70
     0
  9
$USERI2
 70
     0
  9
$USERI3
 70
     0
  9
$USERI4
 70
     0
  9
$USERI5
 70
     0
  9
$USERR1
 40
0.0
  9
$USERR2
 40
0.0
  9
$USERR3
 40
0.0
  9
$USERR4
 40
0.0
  9
$USERR5
 40
0.0
  9
$WORLDVIEW
 70
     1
  9
$SHADEDGE
 70
     3
  9
$SHADEDIF
 70
    70
  9
$TILEMODE
 70
     1
  9
$MAXACTVP
 70
    64
  9
$PINSBASE
 10
0.0
 20
0.0
 30
0.0
  9
$PLIMCHECK
 70
     0
  9
$PEXTMIN
 10
1.000000000000000E+20
 20
1.000000000000000E+20
 30
1.000000000000000E+20
  9
$PEXTMAX
 10
-1.000000000000000E+20
 20
-1.000000000000000E+20
 30
-1.000000000000000E+20
  9
$PLIMMIN
 10
0.0
 20
0.0
  9
$PLIMMAX
 10
12.0
 20
9.0
  9
$UNITMODE
 70
     0
  9
$VISRETAIN
 70
     1
  9
$PLINEGEN
 70
     0
  9
$PSLTSCALE
 70
     1
  9
$TREEDEPTH
 70
  3020
  9
$CMLSTYLE
  2
Standard
  9
$CMLJUST
 70
     0
  9
$CMLSCALE
 40
1.0
  9
$PROXYGRAPHICS
 70
     1
  9
$MEASUREMENT
 70
     0
  9
$CELWEIGHT
370
    -1
  9
$ENDCAPS
280
     0
  9
$JOINSTYLE
280
     0
  9
$LWDISPLAY
290
     0
  9
$INSUNITS
 70
     4
  9
$HYPERLINKBASE
  1

  9
$STYLESHEET
  1
MONOCHROME.CTB
  9
$XEDIT
290
     1
  9
$CEPSNTYPE
380
     0
  9
$PSTYLEMODE
290
     1
  9
$FINGERPRINTGUID
  2
{276F49B5-67E4-4652-B41F-240DEB903663}
  9
$VERSIONGUID
  2
{6237832B-840E-4C4B-B523-2FD555FA725E}
  9
$EXTNAMES
290
     1
  9
$PSVPSCALE
 40
0.0
  9
$OLESTARTUP
290
     0
  9
$SORTENTS
280
   127
  9
$INDEXCTL
280
     0
  9
$HIDETEXT
280
     1
  9
$XCLIPFRAME
290
     0
  9
$HALOGAP
280
     0
  9
$OBSCOLOR
 70
   257
  9
$OBSLTYPE
280
     0
  9
$INTERSECTIONDISPLAY
280
     0
  9
$INTERSECTIONCOLOR
 70
   257
  9
$DIMASSOC
280
     1
  9
$PROJECTNAME
  1

  9
$CAMERADISPLAY
290
     0
  9
$LENSLENGTH
 40
50.0
  9
$CAMERAHEIGHT
 40
0.0
  9
$STEPSPERSEC
 40
2.0
  9
$STEPSIZE
 40
6.0
  9
$3DDWFPREC
 40
2.0
  9
$PSOLWIDTH
 40
0.25
  9
$PSOLHEIGHT
 40
4.0
  9
$LOFTANG1
 40
1.570795999999999
  9
$LOFTANG2
 40
1.570795999999999
  9
$LOFTMAG1
 40
0.0
  9
$LOFTMAG2
 40
0.0
  9
$LOFTPARAM
 70
     7
  9
$LOFTNORMALS
280
     1
  9
$LATITUDE
 40
37.795
  9
$LONGITUDE
 40
-122.394
  9
$NORTHDIRECTION
 40
0.0
  9
$TIMEZONE
 70
 -8000
  9
$LIGHTGLYPHDISPLAY
280
     1
  9
$TILEMODELIGHTSYNCH
280
     1
  9
$CMATERIAL
347
20E
  9
$SOLIDHIST
280
     1
  9
$SHOWHIST
280
     1
  9
$DWFFRAME
280
     2
  9
$DGNFRAME
280
     0
  9
$REALWORLDSCALE
290
     1
  9
$INTERFERECOLOR
 62
     1
  9
$INTERFEREOBJVS
345
224
  9
$INTERFEREVPVS
346
225
  9
$CSHADOW
280
     0
  9
$SHADOWPLANELOCATION
 40
0.0
  0
ENDSEC
  0
SECTION
  2
CLASSES
  0
CLASS
  1
ACDBDICTIONARYWDFLT
  2
AcDbDictionaryWithDefault
  3
ObjectDBX Classes
 90
        0
 91
        1
280
     0
281
     0
  0
CLASS
  1
VISUALSTYLE
  2
AcDbVisualStyle
  3
ObjectDBX Classes
 90
     4095
 91
       16
280
     0
281
     0
  0
CLASS
  1
MATERIAL
  2
AcDbMaterial
  3
ObjectDBX Classes
 90
     1153
 91
        3
280
     0
281
     0
  0
CLASS
  1
TABLESTYLE
  2
AcDbTableStyle
  3
ObjectDBX Classes
 90
     4095
 91
        1
280
     0
281
     0
  0
CLASS
  1
SCALE
  2
AcDbScale
  3
ObjectDBX Classes
 90
     1153
 91
       33
280
     0
281
     0
  0
CLASS
  1
MLEADERSTYLE
  2
AcDbMLeaderStyle
  3
ACDB_MLEADERSTYLE_CLASS
 90
     4095
 91
        1
280
     0
281
     0
  0
CLASS
  1
CELLSTYLEMAP
  2
AcDbCellStyleMap
  3
ObjectDBX Classes
 90
     1152
 91
        2
280
     0
281
     0
  0
CLASS
  1
DICTIONARYVAR
  2
AcDbDictionaryVar
  3
ObjectDBX Classes
 90
        0
 91
        9
280
     0
281
     0
  0
CLASS
  1
SORTENTSTABLE
  2
AcDbSortentsTable
  3
ObjectDBX Classes
 90
        0
 91
        1
280
     0
281
     0
  0
CLASS
  1
ACAD_EVALUATION_GRAPH
  2
AcDbEvalGraph
  3
ObjectDBX Classes
 90
     1153
 91
        0
280
     0
281
     0
  0
CLASS
  1
ACAECUSTOBJ
  2
AcAeEditorObj
  3
AcAeEditorObj
 90
     1024
 91
        0
280
     1
281
     0
  0
CLASS
  1
ACDB_DYNAMICBLOCKPURGEPREVENTER_VERSION
  2
AcDbDynamicBlockPurgePreventer
  3
ObjectDBX Classes
 90
     1153
 91
        0
280
     0
281
     0
  0
CLASS
  1
MENTALRAYRENDERSETTINGS
  2
AcDbMentalRayRenderSettings
  3
SCENEOE
 90
     1024
 91
        0
280
     0
281
     0
  0
CLASS
  1
ACDB_BLOCKREPRESENTATION_DATA
  2
AcDbBlockRepresentationData
  3
ObjectDBX Classes
 90
     1153
 91
        0
280
     0
281
     0
  0
CLASS
  1
DIMASSOC
  2
AcDbDimAssoc
  3
"AcDbDimAssoc|Product Desc:     AcDim ARX App For Dimension|Company:          Autodesk, Inc.|WEB Address:      www.autodesk.com"
 90
        0
 91
        6
280
     0
281
     0
  0
CLASS
  1
ACDB_MTEXTOBJECTCONTEXTDATA_CLASS
  2
AcDbMTextObjectContextData
  3
ObjectDBX Classes
 90
     1153
 91
        1
280
     0
281
     0
  0
ENDSEC
  0
SECTION
  2
TABLES
  0
TABLE
  2
VPORT
  5
202
102
{ACAD_XDICTIONARY
360
206
102
}
330
0
100
AcDbSymbolTable
 70
     1
  0
VPORT
  5
203
330
202
100
AcDbSymbolTableRecord
100
AcDbViewportTableRecord
  2
*Active
 70
     0
 10
0.0
 20
0.0
 11
1.0
 21
1.0
 12
699.0549418407139
 22
61.95132969979574
 13
0.0
 23
0.0
 14
0.5
 24
0.5
 15
0.5
 25
0.5
 16
0.0
 26
0.0
 36
1.0
 17
104.9654968719086
 27
148.5022307685978
 37
0.0
 40
53.05723175217502
 41
2.426395939086294
 42
50.0
 43
0.0
 44
0.0
 50
0.0
 51
0.0
 71
     0
 72
   100
 73
     1
 74
     3
 75
     0
 76
     0
 77
     0
 78
     0
281
     0
 65
     1
110
0.0
120
0.0
130
0.0
111
1.0
121
0.0
131
0.0
112
0.0
122
1.0
132
0.0
 79
     0
146
0.0
348
204
 60
     3
 61
     5
292
     1
282
     1
141
0.0
142
0.0
 63
   250
421
  3355443
  0
ENDTAB
  0
TABLE
  2
LTYPE
  5
1FD
330
0
100
AcDbSymbolTable
 70
     2
  0
LTYPE
  5
1FE
330
1FD
100
AcDbSymbolTableRecord
100
AcDbLinetypeTableRecord
  2
ByBlock
 70
     0
  3

 72
    65
 73
     0
 40
0.0
  0
LTYPE
  5
1FF
330
1FD
100
AcDbSymbolTableRecord
100
AcDbLinetypeTableRecord
  2
ByLayer
 70
     0
  3

 72
    65
 73
     0
 40
0.0
  0
LTYPE
  5
15
330
1FD
100
AcDbSymbolTableRecord
100
AcDbLinetypeTableRecord
  2
Continuous
 70
     0
  3
Solid line
 72
    65
 73
     0
 40
0.0
  0
LTYPE
  5
126
330
1FD
100
AcDbSymbolTableRecord
100
AcDbLinetypeTableRecord
  2
CENTER
 70
     0
  3
Center ____ _ ____ _ ____ _ ____ _ ____ _ ____
 72
    65
 73
     4
 40
2.0
 49
1.25
 74
     0
 49
-0.25
 74
     0
 49
0.25
 74
     0
 49
-0.25
 74
     0
  0
ENDTAB
  0
TABLE
  2
LAYER
  5
1F6
102
{ACAD_XDICTIONARY
360
1F7
102
}
330
0
100
AcDbSymbolTable
 70
    10
  0
LAYER
  5
6
102
{ACAD_XDICTIONARY
360
7
102
}
330
1F6
100
AcDbSymbolTableRecord
100
AcDbLayerTableRecord
  2
0
 70
     0
 62
     7
  6
Continuous
370
    25
390
9
347
C
  0
LAYER
  5
17
102
{ACAD_XDICTIONARY
360
18
102
}
330
1F6
100
AcDbSymbolTableRecord
100
AcDbLayerTableRecord
  2
图层 1
 70
     0
 62
     7
  6
Continuous
370
    -3
390
9
347
C
  0
LAYER
  5
25
102
{ACAD_XDICTIONARY
360
26
102
}
330
1F6
100
AcDbSymbolTableRecord
100
AcDbLayerTableRecord
  2
图框
 70
     0
 62
     7
  6
Continuous
370
    20
390
9
347
C
  0
LAYER
  5
181
330
1F6
100
AcDbSymbolTableRecord
100
AcDbLayerTableRecord
  2
Defpoints
 70
     0
 62
     7
  6
Continuous
290
     0
370
    -3
390
9
347
C
  0
LAYER
  5
176
330
1F6
100
AcDbSymbolTableRecord
100
AcDbLayerTableRecord
  2
DIM
 70
     0
 62
     3
  6
Continuous
370
    15
390
9
347
C
1001
AcAecLayerStandard
1000

1000

  0
LAYER
  5
D3
330
1F6
100
AcDbSymbolTableRecord
100
AcDbLayerTableRecord
  2
打标文字
 70
     0
 62
     3
  6
Continuous
370
    20
390
9
347
C
  0
LAYER
  5
125
330
1F6
100
AcDbSymbolTableRecord
100
AcDbLayerTableRecord
  2
CEN
 70
     0
 62
     1
  6
CENTER
370
    15
390
9
347
C
1001
AcAecLayerStandard
1000

1000

  0
LAYER
  5
129
330
1F6
100
AcDbSymbolTableRecord
100
AcDbLayerTableRecord
  2
hat
 70
     0
 62
     6
  6
Continuous
370
    15
390
9
347
C
1001
AcAecLayerStandard
1000

1000

  0
LAYER
  5
9AA
102
{ACAD_XDICTIONARY
360
9AB
102
}
330
1F6
100
AcDbSymbolTableRecord
100
AcDbLayerTableRecord
  2
图框 @ 1
 70
     0
 62
     7
  6
Continuous
370
    20
390
9
347
C
1001
AcadAnnotativeDecomposition
1000
AnnotativeData
1002
{
1070
     1
1070
     1
1002
}
  0
ENDTAB
  0
TABLE
  2
STYLE
  5
1FB
330
0
100
AcDbSymbolTable
 70
     4
  0
STYLE
  5
42
330
1FB
100
AcDbSymbolTableRecord
100
AcDbTextStyleTableRecord
  2
Standard
 70
     0
 40
0.0
 41
0.75
 50
0.0
 71
     0
 42
0.2
  3
SIMFANG.TTF
  4

1001
ACAD
1000
FangSong_GB2312
1071
    34353
  0
STYLE
  5
28
330
1FB
100
AcDbSymbolTableRecord
100
AcDbTextStyleTableRecord
  2
Romans字体
 70
     0
 40
0.0
 41
0.75
 50
0.0
 71
     0
 42
0.2
  3
romans.shx
  4

  0
STYLE
  5
44
330
1FB
100
AcDbSymbolTableRecord
100
AcDbTextStyleTableRecord
  2
工程字
 70
     0
 40
0.0
 41
1.0
 50
0.0
 71
     0
 42
3.5
  3
gbenor.shx
  4
gbcbig.shx
  0
STYLE
  5
46
330
1FB
100
AcDbSymbolTableRecord
100
AcDbTextStyleTableRecord
  2
Chinese
 70
     0
 40
0.0
 41
1.0
 50
0.0
 71
     0
 42
2.5
  3
PMingLiU.ttf
  4

1001
ACAD
1000
PMingLiU
1071
    34834
  0
ENDTAB
  0
TABLE
  2
VIEW
  5
200
330
0
100
AcDbSymbolTable
 70
     0
  0
ENDTAB
  0
TABLE
  2
UCS
  5
201
330
0
100
AcDbSymbolTable
 70
     0
  0
ENDTAB
  0
TABLE
  2
APPID
  5
207
330
0
100
AcDbSymbolTable
 70
    12
  0
APPID
  5
29
330
207
100
AcDbSymbolTableRecord
100
AcDbRegAppTableRecord
  2
ACAD
 70
     0
  0
APPID
  5
31
330
207
100
AcDbSymbolTableRecord
100
AcDbRegAppTableRecord
  2
AcDbBlockRepETag
 70
     0
  0
APPID
  5
1ED
330
207
100
AcDbSymbolTableRecord
100
AcDbRegAppTableRecord
  2
ACAD_PSEXT
 70
     0
  0
APPID
  5
127
330
207
100
AcDbSymbolTableRecord
100
AcDbRegAppTableRecord
  2
AcAecLayerStandard
 70
     0
  0
APPID
  5
186
330
207
100
AcDbSymbolTableRecord
100
AcDbRegAppTableRecord
  2
ACAD_DSTYLE_DIMJAG
 70
     0
  0
APPID
  5
187
330
207
100
AcDbSymbolTableRecord
100
AcDbRegAppTableRecord
  2
ACAD_DSTYLE_DIMTALN
 70
     0
  0
APPID
  5
282
330
207
100
AcDbSymbolTableRecord
100
AcDbRegAppTableRecord
  2
ACAD_MLEADERVER
 70
     0
  0
APPID
  5
374
330
207
100
AcDbSymbolTableRecord
100
AcDbRegAppTableRecord
  2
AcDbDynamicBlockGUID
 70
     0
  0
APPID
  5
71B
330
207
100
AcDbSymbolTableRecord
100
AcDbRegAppTableRecord
  2
ACAUTHENVIRON
 70
     0
  0
APPID
  5
71E
330
207
100
AcDbSymbolTableRecord
100
AcDbRegAppTableRecord
  2
AcDbDynamicBlockTrueName
 70
     0
  0
APPID
  5
896
330
207
100
AcDbSymbolTableRecord
100
AcDbRegAppTableRecord
  2
AcadAnnotative
 70
     0
  0
APPID
  5
97F
330
207
100
AcDbSymbolTableRecord
100
AcDbRegAppTableRecord
  2
AcadAnnotativeDecomposition
 70
     0
  0
ENDTAB
  0
TABLE
  2
DIMSTYLE
  5
208
330
0
100
AcDbSymbolTable
 70
     2
100
AcDbDimStyleTable
 71
     2
340
185
340
209
  0
DIMSTYLE
105
209
330
208
100
AcDbSymbolTableRecord
100
AcDbDimStyleTableRecord
  2
Standard
 70
     0
340
42
  0
DIMSTYLE
105
185
102
{ACAD_REACTORS
330
173
330
188
330
1A5
330
1B4
330
1C3
330
1D3
102
}
330
208
100
AcDbSymbolTableRecord
100
AcDbDimStyleTableRecord
  2
01
 70
     0
 41
1.5
 42
0.2
 43
0.2
 44
0.5
 73
     0
 74
     0
 77
     1
 78
     8
 79
     2
140
2.0
141
0.0
147
0.5
176
     1
177
     6
178
     4
179
     2
271
     1
272
     1
340
28
1001
ACAD_DSTYLE_DIMJAG
1070
   388
1040
1.5
1001
ACAD_DSTYLE_DIMTALN
1070
   392
1070
     0
  0
ENDTAB
  0
TABLE
  2
BLOCK_RECORD
  5
1
330
0
100
AcDbSymbolTable
 70
    26
  0
BLOCK_RECORD
  5
2
102
{ACAD_XDICTIONARY
360
3
102
}
330
1
100
AcDbSymbolTableRecord
100
AcDbBlockTableRecord
  2
*Model_Space
340
1EB
 70
     0
280
     1
281
     0
  0
BLOCK_RECORD
  5
1EE
330
1
100
AcDbSymbolTableRecord
100
AcDbBlockTableRecord
  2
*Paper_Space
340
1F1
 70
     0
280
     1
281
     0
  0
BLOCK_RECORD
  5
1F2
330
1
100
AcDbSymbolTableRecord
100
AcDbBlockTableRecord
  2
*Paper_Space0
340
1F5
 70
     0
280
     1
281
     0
  0
BLOCK_RECORD
  5
177
330
1
100
AcDbSymbolTableRecord
100
AcDbBlockTableRecord
  2
*D1
340
0
 70
     0
280
     1
281
     0
  0
BLOCK_RECORD
  5
18B
330
1
100
AcDbSymbolTableRecord
100
AcDbBlockTableRecord
  2
*D2
340
0
 70
     0
280
     1
281
     0
  0
BLOCK_RECORD
  5
1A8
330
1
100
AcDbSymbolTableRecord
100
AcDbBlockTableRecord
  2
*D3
340
0
 70
     0
280
     1
281
     0
  0
BLOCK_RECORD
  5
1B7
330
1
100
AcDbSymbolTableRecord
100
AcDbBlockTableRecord
  2
*D4
340
0
 70
     0
280
     1
281
     0
  0
BLOCK_RECORD
  5
1C6
330
1
100
AcDbSymbolTableRecord
100
AcDbBlockTableRecord
  2
*D5
340
0
 70
     0
280
     1
281
     0
  0
BLOCK_RECORD
  5
1D6
330
1
100
AcDbSymbolTableRecord
100
AcDbBlockTableRecord
  2
*D6
340
0
 70
     0
280
     1
281
     0
  0
BLOCK_RECORD
  5
290
102
{ACAD_XDICTIONARY
360
934
102
}
330
1
100
AcDbSymbolTableRecord
100
AcDbBlockTableRecord
  2
A4图框-NEW
340
0
310
2800000020000000200000000100080000000000000400000000000000000000000000000000000000000000000080000080000000808000800000008000800080800000C0C0C000C0DCC000F0CAA6000020400000206000002080000020A0000020C0000020E00000400000004020000040400000406000004080000040A0
310
000040C0000040E00000600000006020000060400000606000006080000060A0000060C0000060E00000800000008020000080400000806000008080000080A0000080C0000080E00000A0000000A0200000A0400000A0600000A0800000A0A00000A0C00000A0E00000C0000000C0200000C0400000C0600000C0800000C0
310
A00000C0C00000C0E00000E0000000E0200000E0400000E0600000E0800000E0A00000E0C00000E0E00040000000400020004000400040006000400080004000A0004000C0004000E00040200000402020004020400040206000402080004020A0004020C0004020E000404000004040200040404000404060004040800040
310
40A0004040C0004040E00040600000406020004060400040606000406080004060A0004060C0004060E00040800000408020004080400040806000408080004080A0004080C0004080E00040A0000040A0200040A0400040A0600040A0800040A0A00040A0C00040A0E00040C0000040C0200040C0400040C0600040C08000
310
40C0A00040C0C00040C0E00040E0000040E0200040E0400040E0600040E0800040E0A00040E0C00040E0E00080000000800020008000400080006000800080008000A0008000C0008000E00080200000802020008020400080206000802080008020A0008020C0008020E00080400000804020008040400080406000804080
310
008040A0008040C0008040E00080600000806020008060400080606000806080008060A0008060C0008060E00080800000808020008080400080806000808080008080A0008080C0008080E00080A0000080A0200080A0400080A0600080A0800080A0A00080A0C00080A0E00080C0000080C0200080C0400080C0600080C0
310
800080C0A00080C0C00080C0E00080E0000080E0200080E0400080E0600080E0800080E0A00080E0C00080E0E000C0000000C0002000C0004000C0006000C0008000C000A000C000C000C000E000C0200000C0202000C0204000C0206000C0208000C020A000C020C000C020E000C0400000C0402000C0404000C0406000C0
310
408000C040A000C040C000C040E000C0600000C0602000C0604000C0606000C0608000C060A000C060C000C060E000C0800000C0802000C0804000C0806000C0808000C080A000C080C000C080E000C0A00000C0A02000C0A04000C0A06000C0A08000C0A0A000C0A0C000C0A0E000C0C00000C0C02000C0C04000C0C06000
310
C0C08000C0C0A000F0FBFF00A4A0A000808080000000FF0000FF000000FFFF00FF000000FF00FF00FFFF0000FFFFFF0000000000000000000000000000000000000000000000000000000000000000000000000000000000000000000000000000000000000000000000000000000000000000000000000000000000000000
310
000000000000000000000000000000000000000000000000000000000000000000000000000000000000000000000000000000000000000000000000000000000000000000000000000000000000000000000000000000000000000000000000000000000000000000000000000000000000F9F9F9F9F9F9F9F9F9F9F9F9F9
310
F9F9F9F9F9F9F9F9F9F9F9F9F9F9FF00000000F9FF000000000000000000FFFFFFFFFFFFFFFFFFFFFFFFF9FAFAFAFF00000000F9FF000000000000000000FFFFFFFFFFFFFFFFFFFFFFFFFFFFFFFFFF00000000F9FD000000000000000000FFFFFFFFFFFFFFFFFFFFFFFFFFFFFFFFFF00000000F9FF000000000000000000FF
310
FFFFFFFFFFFFFFFFFFFFFFFFFFFFFFFF00000000F9FD000000000000000000FFFFFFFFFFFFFFFFFFFFFFFFFFFFFFFFFF00000000F9FF00000000000000000000000000000000000000000000000000FF00000000F9FD00000000000000000000000000000000000000000000000000FF00000000F9FF000000000000000000
310
00000000000000000000000000000000FF00000000F9FD00000000000000000000000000000000000000000000000000FF00000000F9FF00000000000000000000000000000000000000000000000000FF00000000F9FD00000000000000000000000000000000000000000000000000FF00000000F9FD0000000000000000
310
0000000000000000000000000000000000FF00000000F9FF00000000000000000000000000000000000000000000000000FF00000000F9FD00000000000000000000000000000000000000000000000000FF00000000F9FF00000000000000000000000000000000000000000000000000FF00000000F9FD00000000000000
310
000000000000000000000000000000000000FF00000000F9FF00000000000000000000000000000000000000000000000000FF00000000F9FFFFFFFFFFFFFFFFFFFFFFFFFFFFFFFFFFFFFFFFFFFFFFFFFFFFFF00000000F9FFFFFFF9F9F9F9F9F9F9F9F9F9F9F9F9F9F9F9F9F9F9F9F9F9F9F9000000000000000000000000
310
00000000000000000000000000000000000000000000000000000000000000000000000000000000000000000000000000000000000000000000000000000000000000000000000000000000000000000000000000000000000000000000000000000000000000000000000000000000000000000000000000000000000000
310
0000000000000000000000000000000000000000000000000000000000000000000000000000000000000000000000000000000000000000
102
{BLKREFS
331
4BA
102
}
 70
     4
280
     1
281
     0
1001
AcDbDynamicBlockGUID
1000
{1A083142-7436-4273-ADA3-64C349427175}
1001
AcDbBlockRepETag
1070
     1
1071
      149
  0
BLOCK_RECORD
  5
329
330
1
100
AcDbSymbolTableRecord
100
AcDbBlockTableRecord
  2
*D8
340
0
 70
     0
280
     1
281
     0
  0
BLOCK_RECORD
  5
335
330
1
100
AcDbSymbolTableRecord
100
AcDbBlockTableRecord
  2
*D9
340
0
 70
     0
280
     1
281
     0
  0
BLOCK_RECORD
  5
342
330
1
100
AcDbSymbolTableRecord
100
AcDbBlockTableRecord
  2
*D10
340
0
 70
     0
280
     1
281
     0
  0
BLOCK_RECORD
  5
34E
330
1
100
AcDbSymbolTableRecord
100
AcDbBlockTableRecord
  2
*D11
340
0
 70
     0
280
     1
281
     0
  0
BLOCK_RECORD
  5
35B
330
1
100
AcDbSymbolTableRecord
100
AcDbBlockTableRecord
  2
*D12
340
0
 70
     0
280
     1
281
     0
  0
BLOCK_RECORD
  5
368
330
1
100
AcDbSymbolTableRecord
100
AcDbBlockTableRecord
  2
*D13
340
0
 70
     0
280
     1
281
     0
  0
BLOCK_RECORD
  5
4BD
330
1
100
AcDbSymbolTableRecord
100
AcDbBlockTableRecord
  2
*D14
340
0
 70
     0
280
     1
281
     0
  0
BLOCK_RECORD
  5
4C9
330
1
100
AcDbSymbolTableRecord
100
AcDbBlockTableRecord
  2
*D15
340
0
 70
     0
280
     1
281
     0
  0
BLOCK_RECORD
  5
4D6
330
1
100
AcDbSymbolTableRecord
100
AcDbBlockTableRecord
  2
*D16
340
0
 70
     0
280
     1
281
     0
  0
BLOCK_RECORD
  5
4E2
330
1
100
AcDbSymbolTableRecord
100
AcDbBlockTableRecord
  2
*D17
340
0
 70
     0
280
     1
281
     0
  0
BLOCK_RECORD
  5
4EF
330
1
100
AcDbSymbolTableRecord
100
AcDbBlockTableRecord
  2
*D18
340
0
 70
     0
280
     1
281
     0
  0
BLOCK_RECORD
  5
4FC
330
1
100
AcDbSymbolTableRecord
100
AcDbBlockTableRecord
  2
*D19
340
0
 70
     0
280
     1
281
     0
  0
BLOCK_RECORD
  5
543
330
1
100
AcDbSymbolTableRecord
100
AcDbBlockTableRecord
  2
*D20
340
0
 70
     0
280
     1
281
     0
  0
BLOCK_RECORD
  5
550
330
1
100
AcDbSymbolTableRecord
100
AcDbBlockTableRecord
  2
*D21
340
0
 70
     0
280
     1
281
     0
  0
BLOCK_RECORD
  5
55D
330
1
100
AcDbSymbolTableRecord
100
AcDbBlockTableRecord
  2
*D22
340
0
 70
     0
280
     1
281
     0
  0
BLOCK_RECORD
  5
569
330
1
100
AcDbSymbolTableRecord
100
AcDbBlockTableRecord
  2
*D23
340
0
 70
     0
280
     1
281
     0
  0
BLOCK_RECORD
  5
575
330
1
100
AcDbSymbolTableRecord
100
AcDbBlockTableRecord
  2
*D24
340
0
 70
     0
280
     1
281
     0
  0
BLOCK_RECORD
  5
582
330
1
100
AcDbSymbolTableRecord
100
AcDbBlockTableRecord
  2
*D25
340
0
 70
     0
280
     1
281
     0
  0
ENDTAB
  0
ENDSEC
  0
SECTION
  2
BLOCKS
  0
BLOCK
  5
5
330
2
100
AcDbEntity
  8
0
100
AcDbBlockBegin
  2
*Model_Space
 70
     0
 10
0.0
 20
0.0
 30
0.0
  3
*Model_Space
  1

  0
ENDBLK
  5
1EA
330
2
100
AcDbEntity
  8
0
100
AcDbBlockEnd
  0
BLOCK
  5
1EF
330
1EE
100
AcDbEntity
 67
     1
  8
0
100
AcDbBlockBegin
  2
*Paper_Space
 70
     0
 10
0.0
 20
0.0
 30
0.0
  3
*Paper_Space
  1

  0
ENDBLK
  5
1F0
330
1EE
100
AcDbEntity
 67
     1
  8
0
100
AcDbBlockEnd
  0
BLOCK
  5
1F3
330
1F2
100
AcDbEntity
 67
     1
  8
0
100
AcDbBlockBegin
  2
*Paper_Space0
 70
     0
 10
0.0
 20
0.0
 30
0.0
  3
*Paper_Space0
  1

  0
ENDBLK
  5
1F4
330
1F2
100
AcDbEntity
 67
     1
  8
0
100
AcDbBlockEnd
  0
BLOCK
  5
178
330
177
100
AcDbEntity
  8
0
100
AcDbBlockBegin
  2
*D1
 70
     1
 10
0.0
 20
0.0
 30
0.0
  3
*D1
  1

  0
LINE
  5
179
330
177
100
AcDbEntity
  8
DIM
 62
     6
370
    -2
100
AcDbLine
 10
709.1960041931703
 20
210.267025893577
 30
0.0
 11
707.3482211898221
 21
210.267025893577
 31
0.0
  0
LINE
  5
17A
330
177
100
AcDbEntity
  8
DIM
 62
     6
370
    -2
100
AcDbLine
 10
709.1960041931703
 20
209.2670258935765
 30
0.0
 11
707.3482211898221
 21
209.2670258935765
 31
0.0
  0
LINE
  5
17B
330
177
100
AcDbEntity
  8
DIM
 62
     1
370
    -2
100
AcDbLine
 10
707.5482211898222
 20
211.067025893577
 30
0.0
 11
707.5482211898222
 21
211.867025893577
 31
0.0
  0
LINE
  5
17C
330
177
100
AcDbEntity
  8
DIM
 62
     1
370
    -2
100
AcDbLine
 10
707.5482211898222
 20
208.4670258935765
 30
0.0
 11
707.5482211898222
 21
206.3027401792908
 31
0.0
  0
SOLID
  5
17D
330
177
100
AcDbEntity
  8
DIM
 62
     1
100
AcDbTrace
 10
707.4148878564888
 20
211.067025893577
 30
0.0
 11
707.6815545231552
 21
211.067025893577
 31
0.0
 12
707.5482211898222
 22
210.267025893577
 32
0.0
 13
707.5482211898222
 23
210.267025893577
 33
0.0
  0
SOLID
  5
17E
330
177
100
AcDbEntity
  8
DIM
 62
     1
100
AcDbTrace
 10
707.4148878564888
 20
208.4670258935765
 30
0.0
 11
707.6815545231552
 21
208.4670258935765
 31
0.0
 12
707.5482211898222
 22
209.2670258935765
 32
0.0
 13
707.5482211898222
 23
209.2670258935765
 33
0.0
  0
MTEXT
  5
17F
330
177
100
AcDbEntity
  8
DIM
 62
     4
100
AcDbMText
 10
706.8482211898222
 20
206.9848830364338
 30
0.0
 40
1.0
 41
0.0
 46
0.0
 71
     5
 72
     1
  1
\A1;%%C1
  7
Romans字体
 11
0.0000000000000001
 21
1.0
 31
0.0
 73
     1
 44
1.0
1001
ACAD
1000
MTEXTBEGIN
1070
    73
1070
     1
1070
    44
1040
1.0
1070
    74
1070
     0
1000
MTEXTEND
  0
POINT
  5
180
330
177
100
AcDbEntity
  8
Defpoints
 62
     0
100
AcDbPoint
 10
709.3960041931703
 20
210.267025893577
 30
0.0
  0
POINT
  5
182
330
177
100
AcDbEntity
  8
Defpoints
 62
     0
100
AcDbPoint
 10
709.3960041931703
 20
209.2670258935765
 30
0.0
  0
POINT
  5
183
330
177
100
AcDbEntity
  8
Defpoints
 62
     0
100
AcDbPoint
 10
707.5482211898222
 20
209.2670258935765
 30
0.0
  0
ENDBLK
  5
184
330
177
100
AcDbEntity
  8
0
100
AcDbBlockEnd
  0
BLOCK
  5
18C
330
18B
100
AcDbEntity
  8
0
100
AcDbBlockBegin
  2
*D2
 70
     1
 10
0.0
 20
0.0
 30
0.0
  3
*D2
  1

  0
LINE
  5
18D
330
18B
100
AcDbEntity
  8
DIM
 62
     6
370
    -2
100
AcDbLine
 10
723.6278423750039
 20
210.6420257850102
 30
0.0
 11
726.8669103975691
 21
210.6420257850102
 31
0.0
  0
LINE
  5
18E
330
18B
100
AcDbEntity
  8
DIM
 62
     6
370
    -2
100
AcDbLine
 10
723.6278423750039
 20
208.8920257850107
 30
0.0
 11
726.8669103975691
 21
208.8920257850107
 31
0.0
  0
LINE
  5
18F
330
18B
100
AcDbEntity
  8
DIM
 62
     1
370
    -2
100
AcDbLine
 10
726.6669103975687
 20
211.4420257850102
 30
0.0
 11
726.6669103975687
 21
212.2420257850102
 31
0.0
  0
LINE
  5
190
330
18B
100
AcDbEntity
  8
DIM
 62
     1
370
    -2
100
AcDbLine
 10
726.6669103975687
 20
208.0920257850106
 30
0.0
 11
726.6669103975687
 21
203.9277400707249
 31
0.0
  0
SOLID
  5
191
330
18B
100
AcDbEntity
  8
DIM
 62
     1
100
AcDbTrace
 10
726.5335770642357
 20
211.4420257850102
 30
0.0
 11
726.8002437309022
 21
211.4420257850102
 31
0.0
 12
726.6669103975687
 22
210.6420257850102
 32
0.0
 13
726.6669103975687
 23
210.6420257850102
 33
0.0
  0
SOLID
  5
192
330
18B
100
AcDbEntity
  8
DIM
 62
     1
100
AcDbTrace
 10
726.5335770642357
 20
208.0920257850106
 30
0.0
 11
726.8002437309022
 21
208.0920257850106
 31
0.0
 12
726.6669103975687
 22
208.8920257850107
 32
0.0
 13
726.6669103975687
 23
208.8920257850107
 33
0.0
  0
MTEXT
  5
193
330
18B
100
AcDbEntity
  8
DIM
 62
     4
100
AcDbMText
 10
725.9669103975688
 20
205.6098829278679
 30
0.0
 40
1.0
 41
0.0
 46
0.0
 71
     5
 72
     1
  1
\A1;%%C1.75
  7
Romans字体
 11
0.0000000000000001
 21
1.0
 31
0.0
 73
     1
 44
1.0
1001
ACAD
1000
MTEXTBEGIN
1070
    73
1070
     1
1070
    44
1040
1.0
1070
    74
1070
     0
1000
MTEXTEND
  0
POINT
  5
194
330
18B
100
AcDbEntity
  8
Defpoints
 62
     0
100
AcDbPoint
 10
723.4278423750038
 20
210.6420257850102
 30
0.0
  0
POINT
  5
195
330
18B
100
AcDbEntity
  8
Defpoints
 62
     0
100
AcDbPoint
 10
723.4278423750038
 20
208.8920257850107
 30
0.0
  0
POINT
  5
196
330
18B
100
AcDbEntity
  8
Defpoints
 62
     0
100
AcDbPoint
 10
726.6669103975687
 20
208.8920257850107
 30
0.0
  0
ENDBLK
  5
197
330
18B
100
AcDbEntity
  8
0
100
AcDbBlockEnd
  0
BLOCK
  5
1A9
330
1A8
100
AcDbEntity
  8
0
100
AcDbBlockBegin
  2
*D3
 70
     1
 10
0.0
 20
0.0
 30
0.0
  3
*D3
  1

  0
LINE
  5
1AA
330
1A8
100
AcDbEntity
  8
DIM
 62
     6
370
    -2
100
AcDbLine
 10
708.6278423925372
 20
209.9670258935766
 30
0.0
 11
708.6278423925372
 21
214.6097718250639
 31
0.0
  0
LINE
  5
1AB
330
1A8
100
AcDbEntity
  8
DIM
 62
     6
370
    -2
100
AcDbLine
 10
723.4278423750038
 20
210.8420257850102
 30
0.0
 11
723.4278423750038
 21
214.6097718250639
 31
0.0
  0
LINE
  5
1AC
330
1A8
100
AcDbEntity
  8
DIM
 62
     1
370
    -2
100
AcDbLine
 10
709.4278423925377
 20
214.4097718250639
 30
0.0
 11
722.6278423750038
 21
214.4097718250639
 31
0.0
  0
SOLID
  5
1AD
330
1A8
100
AcDbEntity
  8
DIM
 62
     1
100
AcDbTrace
 10
709.4278423925377
 20
214.5431051583972
 30
0.0
 11
709.4278423925377
 21
214.2764384917306
 31
0.0
 12
708.6278423925372
 22
214.4097718250639
 32
0.0
 13
708.6278423925372
 23
214.4097718250639
 33
0.0
  0
SOLID
  5
1AE
330
1A8
100
AcDbEntity
  8
DIM
 62
     1
100
AcDbTrace
 10
722.6278423750038
 20
214.5431051583972
 30
0.0
 11
722.6278423750038
 21
214.2764384917306
 31
0.0
 12
723.4278423750038
 22
214.4097718250639
 32
0.0
 13
723.4278423750038
 23
214.4097718250639
 33
0.0
  0
MTEXT
  5
1AF
330
1A8
100
AcDbEntity
  8
DIM
 62
     4
100
AcDbMText
 10
716.0278423837707
 20
215.1097718250639
 30
0.0
 40
1.0
 41
0.0
 46
0.0
 71
     5
 72
     1
  1
\A1;14.8
  7
Romans字体
 73
     1
 44
1.0
1001
ACAD
1000
MTEXTBEGIN
1070
    73
1070
     1
1070
    44
1040
1.0
1070
    74
1070
     0
1000
MTEXTEND
  0
POINT
  5
1B0
330
1A8
100
AcDbEntity
  8
Defpoints
 62
     0
100
AcDbPoint
 10
708.6278423925372
 20
209.7670258935766
 30
0.0
  0
POINT
  5
1B1
330
1A8
100
AcDbEntity
  8
Defpoints
 62
     0
100
AcDbPoint
 10
723.4278423750038
 20
210.6420257850103
 30
0.0
  0
POINT
  5
1B2
330
1A8
100
AcDbEntity
  8
Defpoints
 62
     0
100
AcDbPoint
 10
723.4278423750038
 20
214.4097718250639
 30
0.0
  0
ENDBLK
  5
1B3
330
1A8
100
AcDbEntity
  8
0
100
AcDbBlockEnd
  0
BLOCK
  5
1B8
330
1B7
100
AcDbEntity
  8
0
100
AcDbBlockBegin
  2
*D4
 70
     1
 10
0.0
 20
0.0
 30
0.0
  3
*D4
  1

  0
LINE
  5
1B9
330
1B7
100
AcDbEntity
  8
DIM
 62
     6
370
    -2
100
AcDbLine
 10
719.4278423750038
 20
210.6420258935768
 30
0.0
 11
719.4278423750038
 21
212.5921822995715
 31
0.0
  0
LINE
  5
1BA
330
1B7
100
AcDbEntity
  8
DIM
 62
     6
370
    -2
100
AcDbLine
 10
723.4278423750038
 20
211.2199015666388
 30
0.0
 11
723.4278423750038
 21
212.5921822995715
 31
0.0
  0
LINE
  5
1BB
330
1B7
100
AcDbEntity
  8
DIM
 62
     1
370
    -2
100
AcDbLine
 10
720.2278423750035
 20
212.3921822995715
 30
0.0
 11
722.6278423750038
 21
212.3921822995715
 31
0.0
  0
SOLID
  5
1BC
330
1B7
100
AcDbEntity
  8
DIM
 62
     1
100
AcDbTrace
 10
720.2278423750035
 20
212.5255156329048
 30
0.0
 11
720.2278423750035
 21
212.2588489662382
 31
0.0
 12
719.4278423750038
 22
212.3921822995715
 32
0.0
 13
719.4278423750038
 23
212.3921822995715
 33
0.0
  0
SOLID
  5
1BD
330
1B7
100
AcDbEntity
  8
DIM
 62
     1
100
AcDbTrace
 10
722.6278423750038
 20
212.5255156329048
 30
0.0
 11
722.6278423750038
 21
212.2588489662382
 31
0.0
 12
723.4278423750038
 22
212.3921822995715
 32
0.0
 13
723.4278423750038
 23
212.3921822995715
 33
0.0
  0
MTEXT
  5
1BE
330
1B7
100
AcDbEntity
  8
DIM
 62
     4
100
AcDbMText
 10
721.4278423750037
 20
213.0921822995715
 30
0.0
 40
1.0
 41
0.0
 46
0.0
 71
     5
 72
     1
  1
\A1;4
  7
Romans字体
 73
     1
 44
1.0
1001
ACAD
1000
MTEXTBEGIN
1070
    73
1070
     1
1070
    44
1040
1.0
1070
    74
1070
     0
1000
MTEXTEND
  0
POINT
  5
1BF
330
1B7
100
AcDbEntity
  8
Defpoints
 62
     0
100
AcDbPoint
 10
719.4278423750038
 20
210.4420258935768
 30
0.0
  0
POINT
  5
1C0
330
1B7
100
AcDbEntity
  8
Defpoints
 62
     0
100
AcDbPoint
 10
723.4278423750038
 20
211.0199015666388
 30
0.0
  0
POINT
  5
1C1
330
1B7
100
AcDbEntity
  8
Defpoints
 62
     0
100
AcDbPoint
 10
723.4278423750038
 20
212.3921822995715
 30
0.0
  0
ENDBLK
  5
1C2
330
1B7
100
AcDbEntity
  8
0
100
AcDbBlockEnd
  0
BLOCK
  5
1C7
330
1C6
100
AcDbEntity
  8
0
100
AcDbBlockBegin
  2
*D5
 70
     1
 10
0.0
 20
0.0
 30
0.0
  3
*D5
  1

  0
LINE
  5
1C8
330
1C6
100
AcDbEntity
  8
DIM
 62
     6
370
    -2
100
AcDbLine
 10
723.4778423750059
 20
210.4420258935763
 30
0.0
 11
725.1991129756308
 21
210.4420258935763
 31
0.0
  0
LINE
  5
1C9
330
1C6
100
AcDbEntity
  8
DIM
 62
     6
370
    -2
100
AcDbLine
 10
723.4778423750059
 20
209.0920258935764
 30
0.0
 11
725.1991129756308
 21
209.0920258935764
 31
0.0
  0
LINE
  5
1CA
330
1C6
100
AcDbEntity
  8
DIM
 62
     1
370
    -2
100
AcDbLine
 10
724.9991129756308
 20
211.2420258935763
 30
0.0
 11
724.9991129756308
 21
212.0420258935763
 31
0.0
  0
LINE
  5
1CB
330
1C6
100
AcDbEntity
  8
DIM
 62
     1
370
    -2
100
AcDbLine
 10
724.9991129756308
 20
208.2920258935764
 30
0.0
 11
724.9991129756308
 21
204.1277401792907
 31
0.0
  0
SOLID
  5
1CC
330
1C6
100
AcDbEntity
  8
DIM
 62
     1
100
AcDbTrace
 10
724.8657796422974
 20
211.2420258935763
 30
0.0
 11
725.1324463089639
 21
211.2420258935763
 31
0.0
 12
724.9991129756308
 22
210.4420258935763
 32
0.0
 13
724.9991129756308
 23
210.4420258935763
 33
0.0
  0
SOLID
  5
1CD
330
1C6
100
AcDbEntity
  8
DIM
 62
     1
100
AcDbTrace
 10
724.8657796422974
 20
208.2920258935764
 30
0.0
 11
725.1324463089639
 21
208.2920258935764
 31
0.0
 12
724.9991129756308
 22
209.0920258935764
 32
0.0
 13
724.9991129756308
 23
209.0920258935764
 33
0.0
  0
MTEXT
  5
1CE
330
1C6
100
AcDbEntity
  8
DIM
 62
     4
100
AcDbMText
 10
724.2991129756306
 20
205.8098830364337
 30
0.0
 40
1.0
 41
0.0
 46
0.0
 71
     5
 72
     1
  1
\A1;%%C1.35
  7
Romans字体
 11
0.0000000000000001
 21
1.0
 31
0.0
 73
     1
 44
1.0
1001
ACAD
1000
MTEXTBEGIN
1070
    73
1070
     1
1070
    44
1040
1.0
1070
    74
1070
     0
1000
MTEXTEND
  0
POINT
  5
1CF
330
1C6
100
AcDbEntity
  8
Defpoints
 62
     0
100
AcDbPoint
 10
723.2778423750056
 20
210.4420258935763
 30
0.0
  0
POINT
  5
1D0
330
1C6
100
AcDbEntity
  8
Defpoints
 62
     0
100
AcDbPoint
 10
723.2778423750056
 20
209.0920258935764
 30
0.0
  0
POINT
  5
1D1
330
1C6
100
AcDbEntity
  8
Defpoints
 62
     0
100
AcDbPoint
 10
724.9991129756308
 20
209.0920258935764
 30
0.0
  0
ENDBLK
  5
1D2
330
1C6
100
AcDbEntity
  8
0
100
AcDbBlockEnd
  0
BLOCK
  5
1D7
330
1D6
100
AcDbEntity
  8
0
100
AcDbBlockBegin
  2
*D6
 70
     1
 10
0.0
 20
0.0
 30
0.0
  3
*D6
  1

  0
LINE
  5
1D8
330
1D6
100
AcDbEntity
  8
DIM
 62
     6
370
    -2
100
AcDbLine
 10
708.6278423925372
 20
211.5177961964782
 30
0.0
 11
708.6278423925372
 21
212.5921822995715
 31
0.0
  0
LINE
  5
1D9
330
1D6
100
AcDbEntity
  8
DIM
 62
     6
370
    -2
100
AcDbLine
 10
716.8278423925364
 20
210.7170258935757
 30
0.0
 11
716.8278423925364
 21
212.5921822995715
 31
0.0
  0
LINE
  5
1DA
330
1D6
100
AcDbEntity
  8
DIM
 62
     1
370
    -2
100
AcDbLine
 10
709.4278423925377
 20
212.3921822995715
 30
0.0
 11
716.0278423925366
 21
212.3921822995715
 31
0.0
  0
SOLID
  5
1DB
330
1D6
100
AcDbEntity
  8
DIM
 62
     1
100
AcDbTrace
 10
709.4278423925377
 20
212.5255156329048
 30
0.0
 11
709.4278423925377
 21
212.2588489662382
 31
0.0
 12
708.6278423925372
 22
212.3921822995715
 32
0.0
 13
708.6278423925372
 23
212.3921822995715
 33
0.0
  0
SOLID
  5
1DC
330
1D6
100
AcDbEntity
  8
DIM
 62
     1
100
AcDbTrace
 10
716.0278423925366
 20
212.5255156329048
 30
0.0
 11
716.0278423925366
 21
212.2588489662382
 31
0.0
 12
716.8278423925364
 22
212.3921822995715
 32
0.0
 13
716.8278423925364
 23
212.3921822995715
 33
0.0
  0
MTEXT
  5
1DD
330
1D6
100
AcDbEntity
  8
DIM
 62
     4
100
AcDbMText
 10
712.7278423925371
 20
213.0921822995715
 30
0.0
 40
1.0
 41
0.0
 46
0.0
 71
     5
 72
     1
  1
\A1;8.23
  7
Romans字体
 73
     1
 44
1.0
1001
ACAD
1000
MTEXTBEGIN
1070
    73
1070
     1
1070
    44
1040
1.0
1070
    74
1070
     0
1000
MTEXTEND
  0
POINT
  5
1DE
330
1D6
100
AcDbEntity
  8
Defpoints
 62
     0
100
AcDbPoint
 10
708.6278423925372
 20
211.3177961964782
 30
0.0
  0
POINT
  5
1DF
330
1D6
100
AcDbEntity
  8
Defpoints
 62
     0
100
AcDbPoint
 10
716.8278423925364
 20
210.5170258935757
 30
0.0
  0
POINT
  5
1E0
330
1D6
100
AcDbEntity
  8
Defpoints
 62
     0
100
AcDbPoint
 10
716.8278423925364
 20
212.3921822995715
 30
0.0
  0
ENDBLK
  5
1E1
330
1D6
100
AcDbEntity
  8
0
100
AcDbBlockEnd
  0
BLOCK
  5
292
330
290
100
AcDbEntity
  8
0
100
AcDbBlockBegin
  2
A4图框-NEW
 70
     0
 10
0.0
 20
0.0
 30
0.0
  3
A4图框-NEW
  1

  0
MTEXT
  5
89F
102
{ACAD_XDICTIONARY
360
9B0
102
}
330
290
100
AcDbEntity
  8
图框
 62
     3
100
AcDbMText
 10
967.6594956750133
 20
499.7664151964293
 30
0.0
 40
2.985513575034151
 41
15.50176341157864
 46
6.292658374511018
 71
     5
 72
     5
  1
YL GAO
  7
Romans字体
 73
     1
 44
1.0
1001
AcDbBlockRepETag
1070
     1
1071
        0
1005
89F
1001
ACAD
1000
MTEXTBEGIN
1070
    73
1070
     1
1070
    44
1040
1.0
1070
    74
1070
     0
1000
MTEXTEND
1000
ACAD_MTEXT_DEFINED_HEIGHT_BEGIN
1070
    46
1040
6.292658374511018
1000
ACAD_MTEXT_DEFINED_HEIGHT_END
  0
MTEXT
  5
8A0
330
290
100
AcDbEntity
  8
图框
 62
     3
100
AcDbMText
 10
983.041569333247
 20
499.7664151964293
 30
0.0
 40
2.487927979195124
 41
15.26238390489062
 46
6.292658374511042
 71
     5
 72
     5
  1
{\W0.7;15.09.2023}
  7
Romans字体
 73
     1
 44
1.0
1001
AcDbBlockRepETag
1070
     1
1071
        1
1005
8A0
1001
ACAD
1000
MTEXTBEGIN
1070
    73
1070
     1
1070
    44
1040
1.0
1070
    74
1070
     0
1000
MTEXTEND
1000
ACAD_MTEXT_DEFINED_HEIGHT_BEGIN
1070
    46
1040
6.292658374511042
1000
ACAD_MTEXT_DEFINED_HEIGHT_END
  0
MTEXT
  5
8A1
330
290
100
AcDbEntity
  8
图框
 62
     3
100
AcDbMText
 10
1012.477254728976
 20
487.1810984474071
 30
0.0
 40
2.799999999999998
 41
17.64876416884615
 46
6.292658374511455
 71
     5
 72
     5
  1
HQ ZHANG
  7
Romans字体
 73
     1
 44
1.0
1001
AcDbBlockRepETag
1070
     1
1071
        2
1005
8A1
1001
ACAD
1000
MTEXTBEGIN
1070
    73
1070
     1
1070
    44
1040
1.0
1070
    74
1070
     0
1000
MTEXTEND
1000
ACAD_MTEXT_DEFINED_HEIGHT_BEGIN
1070
    46
1040
6.292658374511455
1000
ACAD_MTEXT_DEFINED_HEIGHT_END
  0
MTEXT
  5
8A2
330
290
100
AcDbEntity
  8
图框
 62
     3
100
AcDbMText
 10
1028.977802139886
 20
487.1810984474071
 30
0.0
 40
2.487927979195124
 41
15.35233065297276
 46
6.292658374511495
 71
     5
 72
     5
  1
{\W0.7;15.09.2023}
  7
Romans字体
 73
     1
 44
1.0
1001
AcDbBlockRepETag
1070
     1
1071
        3
1005
8A2
1001
ACAD
1000
MTEXTBEGIN
1070
    73
1070
     1
1070
    44
1040
1.0
1070
    74
1070
     0
1000
MTEXTEND
1000
ACAD_MTEXT_DEFINED_HEIGHT_BEGIN
1070
    46
1040
6.292658374511495
1000
ACAD_MTEXT_DEFINED_HEIGHT_END
  0
MTEXT
  5
8A3
330
290
100
AcDbEntity
  8
图框
 62
     3
100
AcDbMText
 10
1063.722665487208
 20
525.4145966538831
 30
0.0
 40
2.985513575034151
 41
32.4973914334545
 46
11.82914190181707
 71
     5
 72
     5
  1
-
  7
Romans字体
 73
     1
 44
1.0
1001
AcDbBlockRepETag
1070
     1
1071
        4
1005
8A3
1001
ACAD
1000
MTEXTBEGIN
1070
    73
1070
     1
1070
    44
1040
1.0
1070
    74
1070
     0
1000
MTEXTEND
1000
ACAD_MTEXT_DEFINED_HEIGHT_BEGIN
1070
    46
1040
11.82914190181707
1000
ACAD_MTEXT_DEFINED_HEIGHT_END
  0
MTEXT
  5
8A4
330
290
100
AcDbEntity
  8
图框
 62
     3
100
AcDbMText
 10
1063.727338552349
 20
513.5854547520641
 30
0.0
 40
2.985513575034151
 41
32.48804530317308
 46
11.82914190182139
 71
     5
 72
     5
  1
-
  7
Romans字体
 73
     1
 44
1.0
1001
AcDbBlockRepETag
1070
     1
1071
        5
1005
8A4
1001
ACAD
1000
MTEXTBEGIN
1070
    73
1070
     1
1070
    44
1040
1.0
1070
    74
1070
     0
1000
MTEXTEND
1000
ACAD_MTEXT_DEFINED_HEIGHT_BEGIN
1070
    46
1040
11.82914190182139
1000
ACAD_MTEXT_DEFINED_HEIGHT_END
  0
MTEXT
  5
8A5
330
290
100
AcDbEntity
  8
图框
 62
     3
100
AcDbMText
 10
1110.122306614152
 20
526.8006839312707
 30
0.0
 40
2.985513575034151
 41
33.61239199242139
 46
9.05696734704178
 71
     5
 72
     5
  1
-
  7
Romans字体
 73
     1
 44
1.0
1001
AcDbBlockRepETag
1070
     1
1071
        6
1005
8A5
1001
ACAD
1000
MTEXTBEGIN
1070
    73
1070
     1
1070
    44
1040
1.0
1070
    74
1070
     0
1000
MTEXTEND
1000
ACAD_MTEXT_DEFINED_HEIGHT_BEGIN
1070
    46
1040
9.05696734704178
1000
ACAD_MTEXT_DEFINED_HEIGHT_END
  0
MTEXT
  5
8A6
330
290
100
AcDbEntity
  8
图框
 62
     3
100
AcDbMText
 10
1110.122306614152
 20
500.2775205517162
 30
0.0
 40
2.985513575034151
 41
33.61239199242139
 46
8.871557304763419
 71
     5
 72
     5
  1
-
  7
Romans字体
 73
     1
 44
1.0
1001
AcDbBlockRepETag
1070
     1
1071
        7
1005
8A6
1001
ACAD
1000
MTEXTBEGIN
1070
    73
1070
     1
1070
    44
1040
1.0
1070
    74
1070
     0
1000
MTEXTEND
1000
ACAD_MTEXT_DEFINED_HEIGHT_BEGIN
1070
    46
1040
8.871557304763419
1000
ACAD_MTEXT_DEFINED_HEIGHT_END
  0
MTEXT
  5
8A7
330
290
100
AcDbEntity
  8
图框
 62
     3
100
AcDbMText
 10
967.6594956750133
 20
493.4737568219182
 30
0.0
 40
2.985513575034151
 41
15.50176341157864
 46
6.292658374510335
 71
     5
 72
     5
  1
Q GAO
  7
Romans字体
 73
     1
 44
1.0
1001
AcDbBlockRepETag
1070
     1
1071
        8
1005
8A7
1001
ACAD
1000
MTEXTBEGIN
1070
    73
1070
     1
1070
    44
1040
1.0
1070
    74
1070
     0
1000
MTEXTEND
1000
ACAD_MTEXT_DEFINED_HEIGHT_BEGIN
1070
    46
1040
6.292658374510335
1000
ACAD_MTEXT_DEFINED_HEIGHT_END
  0
MTEXT
  5
8A8
330
290
100
AcDbEntity
  8
图框
 62
     3
100
AcDbMText
 10
983.041569333247
 20
493.2441970450405
 30
0.0
 40
2.487927979195124
 41
15.26238390489051
 46
6.751777928266487
 71
     5
 72
     5
  1
{\W0.7;15.09.2023}
  7
Romans字体
 73
     1
 44
1.0
1001
AcDbBlockRepETag
1070
     1
1071
        9
1005
8A8
1001
ACAD
1000
MTEXTBEGIN
1070
    73
1070
     1
1070
    44
1040
1.0
1070
    74
1070
     0
1000
MTEXTEND
1000
ACAD_MTEXT_DEFINED_HEIGHT_BEGIN
1070
    46
1040
6.751777928266487
1000
ACAD_MTEXT_DEFINED_HEIGHT_END
  0
MTEXT
  5
8A9
330
290
100
AcDbEntity
  8
图框
 62
     3
100
AcDbMText
 10
1012.477254728976
 20
499.7664151964291
 30
0.0
 40
2.985513575034151
 41
17.64876416884615
 46
6.292658374511397
 71
     5
 72
     5
  1
-
  7
Romans字体
 73
     1
 44
1.0
1001
AcDbBlockRepETag
1070
     1
1071
       10
1005
8A9
1001
ACAD
1000
MTEXTBEGIN
1070
    73
1070
     1
1070
    44
1040
1.0
1070
    74
1070
     0
1000
MTEXTEND
1000
ACAD_MTEXT_DEFINED_HEIGHT_BEGIN
1070
    46
1040
6.292658374511397
1000
ACAD_MTEXT_DEFINED_HEIGHT_END
  0
MTEXT
  5
8AA
330
290
100
AcDbEntity
  8
图框
 62
     3
100
AcDbMText
 10
1028.977802139886
 20
499.7664151964289
 30
0.0
 40
2.487927979195124
 41
15.35233065297265
 46
6.292658374511382
 71
     5
 72
     5
  1
-
  7
Romans字体
 73
     1
 44
1.0
1001
AcDbBlockRepETag
1070
     1
1071
       11
1005
8AA
1001
ACAD
1000
MTEXTBEGIN
1070
    73
1070
     1
1070
    44
1040
1.0
1070
    74
1070
     0
1000
MTEXTEND
1000
ACAD_MTEXT_DEFINED_HEIGHT_BEGIN
1070
    46
1040
6.292658374511382
1000
ACAD_MTEXT_DEFINED_HEIGHT_END
  0
MTEXT
  5
8AB
330
290
100
AcDbEntity
  8
图框
 62
     3
100
AcDbMText
 10
967.6594956750133
 20
487.1810984474071
 30
0.0
 40
2.985513575034151
 41
15.50176341157863
 46
6.292658374511478
 71
     5
 72
     5
  1
-
  7
Romans字体
 73
     1
 44
1.0
1001
AcDbBlockRepETag
1070
     1
1071
       12
1005
8AB
1001
ACAD
1000
MTEXTBEGIN
1070
    73
1070
     1
1070
    44
1040
1.0
1070
    74
1070
     0
1000
MTEXTEND
1000
ACAD_MTEXT_DEFINED_HEIGHT_BEGIN
1070
    46
1040
6.292658374511478
1000
ACAD_MTEXT_DEFINED_HEIGHT_END
  0
MTEXT
  5
8AC
330
290
100
AcDbEntity
  8
图框
 62
     3
100
AcDbMText
 10
983.041569333247
 20
487.1810984474071
 30
0.0
 40
2.487927979195124
 41
15.26238390489062
 46
6.292658374511495
 71
     5
 72
     5
  1
-
  7
Romans字体
 73
     1
 44
1.0
1001
AcDbBlockRepETag
1070
     1
1071
       13
1005
8AC
1001
ACAD
1000
MTEXTBEGIN
1070
    73
1070
     1
1070
    44
1040
1.0
1070
    74
1070
     0
1000
MTEXTEND
1000
ACAD_MTEXT_DEFINED_HEIGHT_BEGIN
1070
    46
1040
6.292658374511495
1000
ACAD_MTEXT_DEFINED_HEIGHT_END
  0
MTEXT
  5
8AD
330
290
100
AcDbEntity
  8
图框
 62
     3
100
AcDbMText
 10
1074.556686986741
 20
495.8417418993361
 30
0.0
 40
2.985513575034151
 41
10.82934843438978
 46
7.886094601210427
 71
     5
 72
     5
  1
-
  7
Romans字体
 73
     1
 44
1.0
1001
AcDbBlockRepETag
1070
     1
1071
       14
1005
8AD
1001
ACAD
1000
MTEXTBEGIN
1070
    73
1070
     1
1070
    44
1040
1.0
1070
    74
1070
     0
1000
MTEXTEND
1000
ACAD_MTEXT_DEFINED_HEIGHT_BEGIN
1070
    46
1040
7.886094601210427
1000
ACAD_MTEXT_DEFINED_HEIGHT_END
  0
LINE
  5
8AE
330
290
100
AcDbEntity
  8
图框
370
    -3
100
AcDbLine
 10
1036.653967466372
 20
499.7847891999413
 30
0.0
 11
1079.971361203936
 21
499.7847891999413
 31
0.0
1001
AcDbBlockRepETag
1070
     1
1071
       15
1005
8AE
  0
MTEXT
  5
8AF
330
290
100
AcDbEntity
  8
图框
 62
     1
370
    20
100
AcDbMText
 10
1108.26336443907
 20
491.5162596080882
 30
0.0
 40
2.699054613030988
 41
82.30831305643079
 46
0.0
 71
     5
 72
     5
  1
{\fSimHei|b0|i0|c134|p2;厦门唯恩电气有限公司}
 73
     1
 44
1.0
1001
AcDbBlockRepETag
1070
     1
1071
       16
1005
8AF
1001
ACAD
1000
MTEXTBEGIN
1070
    73
1070
     1
1070
    44
1040
1.0
1070
    74
1070
     0
1000
MTEXTEND
  0
MTEXT
  5
8B0
330
290
100
AcDbEntity
  8
图框
 62
     3
370
    20
100
AcDbMText
 10
1108.435451459908
 20
487.298967726064
 30
0.0
 40
1.652482416141417
 41
68.08558693693567
 46
0.0
 71
     5
 72
     5
  1
{\fArial Narrow|b0|i0|c0|p34;XIAMEN WAIN ELECTRICAL CO.LTD}
  7
工程字
 73
     1
 44
1.0
1001
AcDbBlockRepETag
1070
     1
1071
       17
1005
8B0
1001
ACAD
1000
MTEXTBEGIN
1070
    73
1070
     1
1070
    44
1040
1.0
1070
    74
1070
     0
1000
MTEXTEND
  0
MTEXT
  5
8B1
330
290
100
AcDbEntity
  8
图框
 62
     1
370
    20
100
AcDbMText
 10
1085.711816899387
 20
491.0944802995856
 30
0.0
 40
2.005930044038334
 41
5.047240019334847
 46
0.0
 71
     1
 72
     5
  1
{\fArial|b0|i0|c0|p34;A}
  7
Chinese
 73
     1
 44
1.0
1001
AcDbBlockRepETag
1070
     1
1071
       18
1005
8B1
1001
ACAD
1000
MTEXTBEGIN
1070
    73
1070
     1
1070
    44
1040
1.0
1070
    74
1070
     0
1000
MTEXTEND
  0
MTEXT
  5
8B2
330
290
100
AcDbEntity
  8
图框
 62
     1
370
    20
100
AcDbMText
 10
1088.213485935716
 20
491.0944802995856
 30
0.0
 40
2.005930044038334
 41
5.047240019334847
 46
0.0
 71
     1
 72
     5
  1
{\fArial|b0|i0|c0|p34;I}
  7
Chinese
 73
     1
 44
1.0
1001
AcDbBlockRepETag
1070
     1
1071
       19
1005
8B2
1001
ACAD
1000
MTEXTBEGIN
1070
    73
1070
     1
1070
    44
1040
1.0
1070
    74
1070
     0
1000
MTEXTEND
  0
MTEXT
  5
8B3
330
290
100
AcDbEntity
  8
图框
 62
     1
370
    20
100
AcDbMText
 10
1089.142375222864
 20
491.0822866326808
 30
0.0
 40
2.005930044038334
 41
5.047240019334847
 46
0.0
 71
     1
 72
     5
  1
{\fArial|b0|i0|c0|p34;N}
  7
Chinese
 73
     1
 44
1.0
1001
AcDbBlockRepETag
1070
     1
1071
       20
1005
8B3
1001
ACAD
1000
MTEXTBEGIN
1070
    73
1070
     1
1070
    44
1040
1.0
1070
    74
1070
     0
1000
MTEXTEND
  0
MTEXT
  5
8B4
330
290
100
AcDbEntity
  8
图框
100
AcDbMText
 10
1069.142012769545
 20
487.9667319294409
 30
0.0
 40
2.252848170144607
 41
21.65869686878327
 46
7.863925338579296
 71
     5
 72
     5
  1
{\W0.5;\C1;All Dimensions in mm\POriginal Size DIN A 4}
  7
Romans字体
 73
     1
 44
1.0
1001
AcDbBlockRepETag
1070
     1
1071
       21
1005
8B4
1001
ACAD
1000
MTEXTBEGIN
1070
    73
1070
     1
1070
    44
1040
1.0
1070
    74
1070
     0
1000
MTEXTEND
1000
ACAD_MTEXT_DEFINED_HEIGHT_BEGIN
1070
    46
1040
7.863925338579296
1000
ACAD_MTEXT_DEFINED_HEIGHT_END
  0
MTEXT
  5
8B5
330
290
100
AcDbEntity
  8
图框
  6
ByBlock
 62
     6
370
    18
100
AcDbMText
 10
1127.40434942308
 20
508.7896535755975
 30
0.0
 40
2.651776162684904
 41
2.557913877927211
 46
0.0
 71
     1
 72
     5
  1
A
  7
Romans字体
 11
0.0000000000000001
 21
1.0
 31
0.0
 73
     1
 44
1.0
1001
AcDbBlockRepETag
1070
     1
1071
       22
1005
8B5
1001
ACAD
1000
MTEXTBEGIN
1070
    73
1070
     1
1070
    44
1040
1.0
1070
    74
1070
     0
1000
MTEXTEND
  0
MTEXT
  5
8B6
330
290
100
AcDbEntity
  8
图框
 62
     6
100
AcDbMText
 10
1127.40434942308
 20
556.3746573232886
 30
0.0
 40
2.651776162684904
 41
2.557913877927211
 46
0.0
 71
     1
 72
     5
  1
B
  7
Romans字体
 11
0.0000000000000001
 21
1.0
 31
0.0
 73
     1
 44
1.0
1001
AcDbBlockRepETag
1070
     1
1071
       23
1005
8B6
1001
ACAD
1000
MTEXTBEGIN
1070
    73
1070
     1
1070
    44
1040
1.0
1070
    74
1070
     0
1000
MTEXTEND
  0
MTEXT
  5
8B7
330
290
100
AcDbEntity
  8
图框
 62
     6
100
AcDbMText
 10
1127.40434942308
 20
607.5539372630998
 30
0.0
 40
2.651776162684904
 41
2.557913877927211
 46
0.0
 71
     1
 72
     5
  1
C
  7
Romans字体
 11
0.0000000000000001
 21
1.0
 31
0.0
 73
     1
 44
1.0
1001
AcDbBlockRepETag
1070
     1
1071
       24
1005
8B7
1001
ACAD
1000
MTEXTBEGIN
1070
    73
1070
     1
1070
    44
1040
1.0
1070
    74
1070
     0
1000
MTEXTEND
  0
MTEXT
  5
8B8
330
290
100
AcDbEntity
  8
图框
 62
     6
100
AcDbMText
 10
1127.40434942308
 20
658.7332172029115
 30
0.0
 40
2.651776162684904
 41
2.557913877927211
 46
0.0
 71
     1
 72
     5
  1
D
  7
Romans字体
 11
0.0000000000000001
 21
1.0
 31
0.0
 73
     1
 44
1.0
1001
AcDbBlockRepETag
1070
     1
1071
       25
1005
8B8
1001
ACAD
1000
MTEXTBEGIN
1070
    73
1070
     1
1070
    44
1040
1.0
1070
    74
1070
     0
1000
MTEXTEND
  0
LINE
  5
8B9
330
290
100
AcDbEntity
  8
图框
 62
     6
100
AcDbLine
 10
1130.411601781241
 20
634.0726090796082
 30
0.0
 11
1126.928502610363
 21
634.0726090796082
 31
0.0
1001
AcDbBlockRepETag
1070
     1
1071
       26
1005
8B9
  0
LINE
  5
8BA
330
290
100
AcDbEntity
  8
图框
 62
     6
100
AcDbLine
 10
1130.411601781241
 20
582.89332913979
 30
0.0
 11
1126.928502610363
 21
582.89332913979
 31
0.0
1001
AcDbBlockRepETag
1070
     1
1071
       27
1005
8BA
  0
MTEXT
  5
8BB
330
290
100
AcDbEntity
  8
图框
 62
     6
100
AcDbMText
 10
1105.329704038389
 20
483.6164543011163
 30
0.0
 40
2.651776162684904
 41
2.557913877927211
 46
0.0
 71
     1
 72
     5
  1
6
  7
Romans字体
 73
     1
 44
1.0
1001
AcDbBlockRepETag
1070
     1
1071
       28
1005
8BB
1001
ACAD
1000
MTEXTBEGIN
1070
    73
1070
     1
1070
    44
1040
1.0
1070
    74
1070
     0
1000
MTEXTEND
  0
LINE
  5
8BC
330
290
100
AcDbEntity
  8
图框
 62
     6
100
AcDbLine
 10
1081.088565155284
 20
484.0347692601515
 30
0.0
 11
1081.088565155284
 21
480.5347692601475
 31
0.0
1001
AcDbBlockRepETag
1070
     1
1071
       29
1005
8BC
  0
MTEXT
  5
8BD
330
290
100
AcDbEntity
  8
图框
 62
     6
100
AcDbMText
 10
1055.900596365941
 20
483.520053108993
 30
0.0
 40
2.651776162684904
 41
2.557913877927211
 46
0.0
 71
     1
 72
     5
  1
5
  7
Romans字体
 73
     1
 44
1.0
1001
AcDbBlockRepETag
1070
     1
1071
       30
1005
8BD
1001
ACAD
1000
MTEXTBEGIN
1070
    73
1070
     1
1070
    44
1040
1.0
1070
    74
1070
     0
1000
MTEXTEND
  0
LINE
  5
8BE
330
290
100
AcDbEntity
  8
图框
 62
     6
100
AcDbLine
 10
1031.553386436349
 20
484.0347692601515
 30
0.0
 11
1031.553386436349
 21
480.5347692601475
 31
0.0
1001
AcDbBlockRepETag
1070
     1
1071
       31
1005
8BE
  0
MTEXT
  5
8BF
330
290
100
AcDbEntity
  8
图框
 62
     6
100
AcDbMText
 10
1006.383180575197
 20
483.5687958215896
 30
0.0
 40
2.651776162684904
 41
2.557913877927211
 46
0.0
 71
     1
 72
     5
  1
4
  7
Romans字体
 73
     1
 44
1.0
1001
AcDbBlockRepETag
1070
     1
1071
       32
1005
8BF
1001
ACAD
1000
MTEXTBEGIN
1070
    73
1070
     1
1070
    44
1040
1.0
1070
    74
1070
     0
1000
MTEXTEND
  0
LINE
  5
8C0
330
290
100
AcDbEntity
  8
图框
 62
     6
100
AcDbLine
 10
982.0182077173887
 20
484.0347692601515
 30
0.0
 11
982.0182077173887
 21
480.5347692601475
 31
0.0
1001
AcDbBlockRepETag
1070
     1
1071
       33
1005
8C0
  0
MTEXT
  5
8C1
330
290
100
AcDbEntity
  8
图框
 62
     6
100
AcDbMText
 10
956.8302389280352
 20
483.5989680297948
 30
0.0
 40
2.651776162684904
 41
2.557913877927211
 46
0.0
 71
     1
 72
     5
  1
3
  7
Romans字体
 73
     1
 44
1.0
1001
AcDbBlockRepETag
1070
     1
1071
       34
1005
8C1
1001
ACAD
1000
MTEXTBEGIN
1070
    73
1070
     1
1070
    44
1040
1.0
1070
    74
1070
     0
1000
MTEXTEND
  0
LINE
  5
8C2
330
290
100
AcDbEntity
  8
图框
 62
     6
100
AcDbLine
 10
932.4830289984245
 20
484.0347692601515
 30
0.0
 11
932.4830289984245
 21
480.5347692601475
 31
0.0
1001
AcDbBlockRepETag
1070
     1
1071
       35
1005
8C2
  0
MTEXT
  5
8C3
330
290
100
AcDbEntity
  8
图框
 62
     6
100
AcDbMText
 10
906.0252349826365
 20
483.6475250013156
 30
0.0
 40
2.651776162684904
 41
2.557913877927211
 46
0.0
 71
     1
 72
     5
  1
2
  7
Romans字体
 73
     1
 44
1.0
1001
AcDbBlockRepETag
1070
     1
1071
       36
1005
8C3
1001
ACAD
1000
MTEXTBEGIN
1070
    73
1070
     1
1070
    44
1040
1.0
1070
    74
1070
     0
1000
MTEXTEND
  0
LINE
  5
8C4
330
290
100
AcDbEntity
  8
图框
 62
     6
100
AcDbLine
 10
882.9478502794648
 20
484.0347692601515
 30
0.0
 11
882.9478502794648
 21
480.5347692601475
 31
0.0
1001
AcDbBlockRepETag
1070
     1
1071
       37
1005
8C4
  0
MTEXT
  5
8C5
330
290
100
AcDbEntity
  8
图框
 62
     6
100
AcDbMText
 10
857.7598814901191
 20
483.651829494754
 30
0.0
 40
2.651776162684904
 41
2.557913877927211
 46
0.0
 71
     1
 72
     5
  1
1
  7
Romans字体
 73
     1
 44
1.0
1001
AcDbBlockRepETag
1070
     1
1071
       38
1005
8C5
1001
ACAD
1000
MTEXTBEGIN
1070
    73
1070
     1
1070
    44
1040
1.0
1070
    74
1070
     0
1000
MTEXTEND
  0
LINE
  5
8C6
330
290
100
AcDbEntity
  8
图框
370
    50
100
AcDbLine
 10
836.8548209370597
 20
484.0347692601515
 30
0.0
 11
1126.928502610363
 21
484.0347692601515
 31
0.0
1001
AcDbBlockRepETag
1070
     1
1071
       39
1005
8C6
  0
LINE
  5
8C7
330
290
100
AcDbEntity
  8
图框
370
    50
100
AcDbLine
 10
836.9128518455362
 20
484.0178684310246
 30
0.0
 11
836.9128518455394
 21
675.0207195125422
 31
0.0
1001
AcDbBlockRepETag
1070
     1
1071
       40
1005
8C7
  0
MTEXT
  5
8C8
330
290
100
AcDbEntity
  8
图框
 62
     6
100
AcDbMText
 10
833.8475685789031
 20
658.7332172029115
 30
0.0
 40
2.651776162684904
 41
2.557913877927211
 46
0.0
 71
     1
 72
     5
  1
D
  7
Romans字体
 11
0.0000000000000001
 21
1.0
 31
0.0
 73
     1
 44
1.0
1001
AcDbBlockRepETag
1070
     1
1071
       41
1005
8C8
1001
ACAD
1000
MTEXTBEGIN
1070
    73
1070
     1
1070
    44
1040
1.0
1070
    74
1070
     0
1000
MTEXTEND
  0
LINE
  5
8C9
330
290
100
AcDbEntity
  8
图框
 62
     6
100
AcDbLine
 10
836.9128518455386
 20
634.0726090796082
 30
0.0
 11
833.4128518455365
 21
634.0726090796082
 31
0.0
1001
AcDbBlockRepETag
1070
     1
1071
       42
1005
8C9
  0
MTEXT
  5
8CA
330
290
100
AcDbEntity
  8
图框
 62
     6
100
AcDbMText
 10
833.9039177480142
 20
607.5539372630998
 30
0.0
 40
2.651776162684904
 41
2.557913877927211
 46
0.0
 71
     1
 72
     5
  1
C
  7
Romans字体
 11
0.0000000000000001
 21
1.0
 31
0.0
 73
     1
 44
1.0
1001
AcDbBlockRepETag
1070
     1
1071
       43
1005
8CA
1001
ACAD
1000
MTEXTBEGIN
1070
    73
1070
     1
1070
    44
1040
1.0
1070
    74
1070
     0
1000
MTEXTEND
  0
LINE
  5
8CB
330
290
100
AcDbEntity
  8
图框
 62
     6
100
AcDbLine
 10
836.9128518455378
 20
582.89332913979
 30
0.0
 11
833.4128518455365
 21
582.89332913979
 31
0.0
1001
AcDbBlockRepETag
1070
     1
1071
       44
1005
8CB
  0
MTEXT
  5
8CC
330
290
100
AcDbEntity
  8
图框
 62
     6
100
AcDbMText
 10
833.9039177480142
 20
556.3746573232886
 30
0.0
 40
2.651776162684904
 41
2.557913877927211
 46
0.0
 71
     1
 72
     5
  1
B
  7
Romans字体
 11
0.0000000000000001
 21
1.0
 31
0.0
 73
     1
 44
1.0
1001
AcDbBlockRepETag
1070
     1
1071
       45
1005
8CC
1001
ACAD
1000
MTEXTBEGIN
1070
    73
1070
     1
1070
    44
1040
1.0
1070
    74
1070
     0
1000
MTEXTEND
  0
LINE
  5
8CD
330
290
100
AcDbEntity
  8
图框
 62
     6
100
AcDbLine
 10
836.9128518455367
 20
531.714049199969
 30
0.0
 11
833.4128518455365
 21
531.714049199969
 31
0.0
1001
AcDbBlockRepETag
1070
     1
1071
       46
1005
8CD
  0
MTEXT
  5
8CE
330
290
100
AcDbEntity
  8
图框
 62
     6
100
AcDbMText
 10
833.9039177480142
 20
508.7896535755975
 30
0.0
 40
2.651776162684904
 41
2.557913877927211
 46
0.0
 71
     1
 72
     5
  1
A
  7
Romans字体
 11
0.0000000000000001
 21
1.0
 31
0.0
 73
     1
 44
1.0
1001
AcDbBlockRepETag
1070
     1
1071
       47
1005
8CE
1001
ACAD
1000
MTEXTBEGIN
1070
    73
1070
     1
1070
    44
1040
1.0
1070
    74
1070
     0
1000
MTEXTEND
  0
LINE
  5
8CF
330
290
100
AcDbEntity
  8
图框
370
    -3
100
AcDbLine
 10
836.9128518455394
 20
675.0207195125422
 30
0.0
 11
836.9128518455394
 21
684.5021384922564
 31
0.0
1001
AcDbBlockRepETag
1070
     1
1071
       48
1005
8CF
  0
LINE
  5
8D0
330
290
100
AcDbEntity
  8
图框
370
    -3
100
AcDbLine
 10
842.6237321475781
 20
675.5347692601515
 30
0.0
 11
842.6237321475781
 21
685.0161882398658
 31
0.0
1001
AcDbBlockRepETag
1070
     1
1071
       49
1005
8D0
  0
LINE
  5
8D1
330
290
100
AcDbEntity
  8
图框
370
    -3
100
AcDbLine
 10
848.3346124496179
 20
675.5347692601515
 30
0.0
 11
848.3346124496179
 21
685.0161882398658
 31
0.0
1001
AcDbBlockRepETag
1070
     1
1071
       50
1005
8D1
  0
LINE
  5
8D2
330
290
100
AcDbEntity
  8
图框
370
    -3
100
AcDbLine
 10
854.0454927516588
 20
675.5347692601515
 30
0.0
 11
854.0454927516588
 21
685.0161882398658
 31
0.0
1001
AcDbBlockRepETag
1070
     1
1071
       51
1005
8D2
  0
LINE
  5
8D3
330
290
100
AcDbEntity
  8
图框
370
    -3
100
AcDbLine
 10
861.5351874539182
 20
675.5347692601515
 30
0.0
 11
861.5351874539182
 21
686.7901958362482
 31
0.0
1001
AcDbBlockRepETag
1070
     1
1071
       52
1005
8D3
  0
MTEXT
  5
8D4
330
290
100
AcDbEntity
  8
图框
 62
     6
100
AcDbMText
 10
1105.329704038389
 20
678.859919059449
 30
0.0
 40
2.651776162684904
 41
2.557913877927211
 46
0.0
 71
     1
 72
     5
  1
6
  7
Romans字体
 73
     1
 44
1.0
1001
AcDbBlockRepETag
1070
     1
1071
       53
1005
8D4
1001
ACAD
1000
MTEXTBEGIN
1070
    73
1070
     1
1070
    44
1040
1.0
1070
    74
1070
     0
1000
MTEXTEND
  0
LINE
  5
8D5
330
290
100
AcDbEntity
  8
图框
 62
     6
100
AcDbLine
 10
1081.088565155284
 20
679.0347692601516
 30
0.0
 11
1081.088565155284
 21
675.5347692601515
 31
0.0
1001
AcDbBlockRepETag
1070
     1
1071
       54
1005
8D5
  0
MTEXT
  5
8D6
330
290
100
AcDbEntity
  8
图框
 62
     6
100
AcDbMText
 10
1055.900596365941
 20
678.859919059449
 30
0.0
 40
2.651776162684904
 41
2.557913877927211
 46
0.0
 71
     1
 72
     5
  1
5
  7
Romans字体
 73
     1
 44
1.0
1001
AcDbBlockRepETag
1070
     1
1071
       55
1005
8D6
1001
ACAD
1000
MTEXTBEGIN
1070
    73
1070
     1
1070
    44
1040
1.0
1070
    74
1070
     0
1000
MTEXTEND
  0
LINE
  5
8D7
330
290
100
AcDbEntity
  8
图框
 62
     6
100
AcDbLine
 10
1031.553386436349
 20
679.0347692601516
 30
0.0
 11
1031.553386436349
 21
675.5347692601515
 31
0.0
1001
AcDbBlockRepETag
1070
     1
1071
       56
1005
8D7
  0
MTEXT
  5
8D8
330
290
100
AcDbEntity
  8
图框
 62
     6
100
AcDbMText
 10
1006.36541764698
 20
678.7312083656147
 30
0.0
 40
2.651776162684904
 41
2.557913877927211
 46
0.0
 71
     1
 72
     5
  1
4
  7
Romans字体
 73
     1
 44
1.0
1001
AcDbBlockRepETag
1070
     1
1071
       57
1005
8D8
1001
ACAD
1000
MTEXTBEGIN
1070
    73
1070
     1
1070
    44
1040
1.0
1070
    74
1070
     0
1000
MTEXTEND
  0
LINE
  5
8D9
330
290
100
AcDbEntity
  8
图框
 62
     6
100
AcDbLine
 10
982.0182077173887
 20
679.0347692601516
 30
0.0
 11
982.0182077173887
 21
675.5347692601515
 31
0.0
1001
AcDbBlockRepETag
1070
     1
1071
       58
1005
8D9
  0
MTEXT
  5
8DA
330
290
100
AcDbEntity
  8
图框
 62
     6
100
AcDbMText
 10
956.8302389280352
 20
678.859919059449
 30
0.0
 40
2.651776162684904
 41
2.557913877927211
 46
0.0
 71
     1
 72
     5
  1
3
  7
Romans字体
 73
     1
 44
1.0
1001
AcDbBlockRepETag
1070
     1
1071
       59
1005
8DA
1001
ACAD
1000
MTEXTBEGIN
1070
    73
1070
     1
1070
    44
1040
1.0
1070
    74
1070
     0
1000
MTEXTEND
  0
LINE
  5
8DB
330
290
100
AcDbEntity
  8
图框
 62
     6
100
AcDbLine
 10
932.4830289984245
 20
679.0347692601516
 30
0.0
 11
932.4830289984245
 21
675.5347692601515
 31
0.0
1001
AcDbBlockRepETag
1070
     1
1071
       60
1005
8DB
  0
MTEXT
  5
8DC
330
290
100
AcDbEntity
  8
图框
 62
     6
100
AcDbMText
 10
907.295060209082
 20
678.859919059449
 30
0.0
 40
2.651776162684904
 41
2.557913877927211
 46
0.0
 71
     1
 72
     5
  1
2
  7
Romans字体
 73
     1
 44
1.0
1001
AcDbBlockRepETag
1070
     1
1071
       61
1005
8DC
1001
ACAD
1000
MTEXTBEGIN
1070
    73
1070
     1
1070
    44
1040
1.0
1070
    74
1070
     0
1000
MTEXTEND
  0
LINE
  5
8DD
330
290
100
AcDbEntity
  8
图框
 62
     6
100
AcDbLine
 10
882.9478502794648
 20
678.7962435131815
 30
0.0
 11
882.9478502794648
 21
675.5347692601515
 31
0.0
1001
AcDbBlockRepETag
1070
     1
1071
       62
1005
8DD
  0
MTEXT
  5
8DE
330
290
100
AcDbEntity
  8
图框
 62
     6
100
AcDbMText
 10
862.6286629643733
 20
678.859919059449
 30
0.0
 40
2.651776162684904
 41
2.557913877927211
 46
0.0
 71
     1
 72
     5
  1
1
  7
Romans字体
 73
     1
 44
1.0
1001
AcDbBlockRepETag
1070
     1
1071
       63
1005
8DE
1001
ACAD
1000
MTEXTBEGIN
1070
    73
1070
     1
1070
    44
1040
1.0
1070
    74
1070
     0
1000
MTEXTEND
  0
LINE
  5
8DF
330
290
100
AcDbEntity
  8
图框
370
    -3
100
AcDbLine
 10
836.9128518455394
 20
675.0207195125422
 30
0.0
 11
836.9128518455394
 21
686.7901958362482
 31
0.0
1001
AcDbBlockRepETag
1070
     1
1071
       64
1005
8DF
  0
LINE
  5
8E0
330
290
100
AcDbEntity
  8
图框
370
    50
100
AcDbLine
 10
836.9128518455394
 20
675.5347692601515
 30
0.0
 11
1126.928502610363
 21
675.5347692601515
 31
0.0
1001
AcDbBlockRepETag
1070
     1
1071
       65
1005
8E0
  0
LINE
  5
8E1
330
290
100
AcDbEntity
  8
图框
370
    -3
100
AcDbLine
 10
842.6237321475781
 20
675.5347692601515
 30
0.0
 11
842.6237321475781
 21
686.7901958362482
 31
0.0
1001
AcDbBlockRepETag
1070
     1
1071
       66
1005
8E1
  0
LINE
  5
8E2
330
290
100
AcDbEntity
  8
图框
370
    -3
100
AcDbLine
 10
848.3346124496179
 20
675.5347692601515
 30
0.0
 11
848.3346124496179
 21
686.7901958362482
 31
0.0
1001
AcDbBlockRepETag
1070
     1
1071
       67
1005
8E2
  0
MTEXT
  5
8E3
102
{ACAD_XDICTIONARY
360
9B2
102
}
330
290
100
AcDbEntity
  8
图框
100
AcDbMText
 10
857.7903401027889
 20
686.7901958362482
 30
0.0
 40
1.958998408821398
 41
11.25542657609672
 46
7.489694702258906
 71
     4
 72
     5
  1
\pi2.6646;{\fSimSun|b0|i0|c134|p2;档案员\fFangSong_GB2312|b0|i0|c134|p49;\H0.7x;\P\pi1.4159;\Fromans|c134;Filing Clerk\fFangSong_GB2312|b0|i0|c134|p49; }
 11
-0.0000000000000002
 21
-1.0
 31
0.0
 73
     1
 44
1.0
1001
AcDbBlockRepETag
1070
     1
1071
       68
1005
8E3
1001
ACAD
1000
MTEXTBEGIN
1070
    73
1070
     1
1070
    44
1040
1.0
1070
    74
1070
     0
1000
MTEXTEND
1000
ACAD_MTEXT_DEFINED_HEIGHT_BEGIN
1070
    46
1040
7.489694702258906
1000
ACAD_MTEXT_DEFINED_HEIGHT_END
  0
MTEXT
  5
8E4
102
{ACAD_XDICTIONARY
360
9B4
102
}
330
290
100
AcDbEntity
  8
图框
100
AcDbMText
 10
845.479172298598
 20
686.7901958362482
 30
0.0
 40
1.958998408821398
 41
11.25542657609672
 46
5.710880302039671
 71
     4
 72
     5
  1
\pi0.63465;{\fSimSun|b0|i0|c134|p2;日期\Fromans|c134;/Date}
 11
-0.0000000000000002
 21
-1.0
 31
0.0
 73
     1
 44
1.0
1001
AcDbBlockRepETag
1070
     1
1071
       69
1005
8E4
1001
ACAD
1000
MTEXTBEGIN
1070
    73
1070
     1
1070
    44
1040
1.0
1070
    74
1070
     0
1000
MTEXTEND
1000
ACAD_MTEXT_DEFINED_HEIGHT_BEGIN
1070
    46
1040
5.710880302039671
1000
ACAD_MTEXT_DEFINED_HEIGHT_END
  0
LINE
  5
8E5
330
290
100
AcDbEntity
  8
图框
370
    -3
100
AcDbLine
 10
854.0454927516588
 20
675.5347692601515
 30
0.0
 11
854.0454927516588
 21
686.7901958362482
 31
0.0
1001
AcDbBlockRepETag
1070
     1
1071
       70
1005
8E5
  0
LINE
  5
8E6
330
290
100
AcDbEntity
  8
图框
370
    -3
100
AcDbLine
 10
1036.653967466372
 20
531.3291676047914
 30
0.0
 11
1036.653967466372
 21
484.0126019753161
 31
0.0
1001
AcDbBlockRepETag
1070
     1
1071
       71
1005
8E6
  0
LINE
  5
8E7
330
290
100
AcDbEntity
  8
图框
370
    -3
100
AcDbLine
 10
1047.483315900763
 20
507.6708838011533
 30
0.0
 11
1047.483315900763
 21
491.8986945987308
 31
0.0
1001
AcDbBlockRepETag
1070
     1
1071
       72
1005
8E7
  0
LINE
  5
8E8
330
290
100
AcDbEntity
  8
图框
370
    -3
100
AcDbLine
 10
1058.312664335153
 20
507.6708838011533
 30
0.0
 11
1058.312664335153
 21
484.0347692601515
 31
0.0
1001
AcDbBlockRepETag
1070
     1
1071
       73
1005
8E8
  0
LINE
  5
8E9
330
290
100
AcDbEntity
  8
图框
370
    25
100
AcDbLine
 10
1048.474135214456
 20
488.1095628329926
 30
0.0
 11
1054.946420288459
 21
488.1095628329926
 31
0.0
1001
AcDbBlockRepETag
1070
     1
1071
       74
1005
8E9
  0
LINE
  5
8EA
330
290
100
AcDbEntity
  8
图框
370
    25
100
AcDbLine
 10
1054.232527365989
 20
487.0761716842634
 30
0.0
 11
1049.156490914508
 21
486.4576273751
 31
0.0
1001
AcDbBlockRepETag
1070
     1
1071
       75
1005
8EA
  0
LINE
  5
8EB
330
290
100
AcDbEntity
  8
图框
370
    25
100
AcDbLine
 10
1054.232527365989
 20
489.1429539817209
 30
0.0
 11
1049.156490914508
 21
489.7614982908846
 31
0.0
1001
AcDbBlockRepETag
1070
     1
1071
       76
1005
8EB
  0
LINE
  5
8EC
330
290
100
AcDbEntity
  8
图框
370
    25
100
AcDbLine
 10
1049.156490914508
 20
489.7614982908846
 30
0.0
 11
1049.156490914508
 21
486.4576273751
 31
0.0
1001
AcDbBlockRepETag
1070
     1
1071
       77
1005
8EC
  0
LINE
  5
8ED
330
290
100
AcDbEntity
  8
图框
370
    25
100
AcDbLine
 10
1054.232527365989
 20
489.1429539817209
 30
0.0
 11
1054.232527365989
 21
487.0761716842634
 31
0.0
1001
AcDbBlockRepETag
1070
     1
1071
       78
1005
8ED
  0
CIRCLE
  5
8EE
330
290
100
AcDbEntity
  8
图框
370
    25
100
AcDbCircle
 10
1042.502700458579
 20
488.1095628329926
 30
0.0
 40
1.651935457891863
1001
AcDbBlockRepETag
1070
     1
1071
       79
1005
8EE
  0
CIRCLE
  5
8EF
330
290
100
AcDbEntity
  8
图框
370
    25
100
AcDbCircle
 10
1042.502700458579
 20
488.1095628329926
 30
0.0
 40
1.033391148728775
1001
AcDbBlockRepETag
1070
     1
1071
       80
1005
8EF
  0
LINE
  5
8F0
330
290
100
AcDbEntity
  8
图框
370
    25
100
AcDbLine
 10
1040.136872078216
 20
488.1095628329926
 30
0.0
 11
1044.868528838943
 21
488.1095628329926
 31
0.0
1001
AcDbBlockRepETag
1070
     1
1071
       81
1005
8F0
  0
LINE
  5
8F1
330
290
100
AcDbEntity
  8
图框
370
    25
100
AcDbLine
 10
1042.502700458579
 20
490.475391213355
 30
0.0
 11
1042.502700458579
 21
485.743734452629
 31
0.0
1001
AcDbBlockRepETag
1070
     1
1071
       82
1005
8F1
  0
LINE
  5
8F2
330
290
100
AcDbEntity
  8
图框
370
    -3
100
AcDbLine
 10
1069.142012769546
 20
507.6708838011533
 30
0.0
 11
1069.142012769546
 21
491.8986945987308
 31
0.0
1001
AcDbBlockRepETag
1070
     1
1071
       83
1005
8F2
  0
MTEXT
  5
8F3
330
290
100
AcDbEntity
  8
图框
100
AcDbMText
 10
1086.643735910939
 20
526.8006839312707
 30
0.0
 40
2.154898249703542
 41
13.34474941400573
 46
9.056967347041775
 71
     5
 72
     5
  1
图号{\Ftxt|c134;\P\Fromans|c134;\W0.65;Drawing No.}
 73
     1
 44
1.0
1001
AcDbBlockRepETag
1070
     1
1071
       84
1005
8F3
1001
ACAD
1000
MTEXTBEGIN
1070
    73
1070
     1
1070
    44
1040
1.0
1070
    74
1070
     0
1000
MTEXTEND
1000
ACAD_MTEXT_DEFINED_HEIGHT_BEGIN
1070
    46
1040
9.056967347041775
1000
ACAD_MTEXT_DEFINED_HEIGHT_END
  0
LINE
  5
8F4
330
290
100
AcDbEntity
  8
图框
370
    -3
100
AcDbLine
 10
1093.316110617942
 20
531.3291676047914
 30
0.0
 11
1093.316110617942
 21
495.8417418993347
 31
0.0
1001
AcDbBlockRepETag
1070
     1
1071
       85
1005
8F4
  0
LINE
  5
8F5
330
290
100
AcDbEntity
  8
图框
370
    -3
100
AcDbLine
 10
1047.473969770481
 20
531.3291676047914
 30
0.0
 11
1047.473969770481
 21
507.6708838011533
 31
0.0
1001
AcDbBlockRepETag
1070
     1
1071
       86
1005
8F5
  0
MTEXT
  5
8F6
330
290
100
AcDbEntity
  8
图框
100
AcDbMText
 10
1063.72733855235
 20
503.7278365005473
 30
0.0
 40
2.252848170144607
 41
10.82934843439208
 46
7.886094601212128
 71
     5
 72
     5
  1
重量\P{\Fromans|c134;Weight}
 73
     1
 44
1.0
1001
AcDbBlockRepETag
1070
     1
1071
       87
1005
8F6
1001
ACAD
1000
MTEXTBEGIN
1070
    73
1070
     1
1070
    44
1040
1.0
1070
    74
1070
     0
1000
MTEXTEND
1000
ACAD_MTEXT_DEFINED_HEIGHT_BEGIN
1070
    46
1040
7.886094601212128
1000
ACAD_MTEXT_DEFINED_HEIGHT_END
  0
LINE
  5
8F7
330
290
100
AcDbEntity
  8
图框
370
    -3
100
AcDbLine
 10
1036.653967466372
 20
519.5000257029746
 30
0.0
 11
1079.971361203936
 21
519.5000257029746
 31
0.0
1001
AcDbBlockRepETag
1070
     1
1071
       88
1005
8F7
  0
MTEXT
  5
8F8
330
290
100
AcDbEntity
  8
图框
100
AcDbMText
 10
1074.556686986741
 20
503.7278365005473
 30
0.0
 40
2.252848170144607
 41
10.82934843438984
 46
7.886094601212141
 71
     5
 72
     5
  1
数量\P{\Fromans|c134;Qty.}
 73
     1
 44
1.0
1001
AcDbBlockRepETag
1070
     1
1071
       89
1005
8F8
1001
ACAD
1000
MTEXTBEGIN
1070
    73
1070
     1
1070
    44
1040
1.0
1070
    74
1070
     0
1000
MTEXTEND
1000
ACAD_MTEXT_DEFINED_HEIGHT_BEGIN
1070
    46
1040
7.886094601212141
1000
ACAD_MTEXT_DEFINED_HEIGHT_END
  0
LINE
  5
8F9
330
290
100
AcDbEntity
  8
图框
370
    -3
100
AcDbLine
 10
1079.971361203936
 20
495.8417418993347
 30
0.0
 11
1126.928502610363
 21
495.8417418993342
 31
0.0
1001
AcDbBlockRepETag
1070
     1
1071
       90
1005
8F9
  0
LINE
  5
8FA
330
290
100
AcDbEntity
  8
图框
370
    -3
100
AcDbLine
 10
1079.971361203936
 20
504.7132992040975
 30
0.0
 11
1126.928502610363
 21
504.7132992040975
 31
0.0
1001
AcDbBlockRepETag
1070
     1
1071
       91
1005
8FA
  0
MTEXT
  5
8FB
330
290
100
AcDbEntity
  8
图框
100
AcDbMText
 10
1052.893317052817
 20
503.7278365005473
 30
0.0
 40
2.252848170144607
 41
10.83869456467139
 46
7.886094601212101
 71
     5
 72
     5
  1
版本\P{\Fromans|c134;REV.}
 73
     1
 44
1.0
1001
AcDbBlockRepETag
1070
     1
1071
       92
1005
8FB
1001
ACAD
1000
MTEXTBEGIN
1070
    73
1070
     1
1070
    44
1040
1.0
1070
    74
1070
     0
1000
MTEXTEND
1000
ACAD_MTEXT_DEFINED_HEIGHT_BEGIN
1070
    46
1040
7.886094601212101
1000
ACAD_MTEXT_DEFINED_HEIGHT_END
  0
MTEXT
  5
8FC
330
290
100
AcDbEntity
  8
图框
100
AcDbMText
 10
1042.068641683568
 20
503.7278365005473
 30
0.0
 40
2.252848170144607
 41
10.8293484343908
 46
7.886094601212136
 71
     5
 72
     5
  1
比例\P{\Fromans|c134;Scale}
 73
     1
 44
1.0
1001
AcDbBlockRepETag
1070
     1
1071
       93
1005
8FC
1001
ACAD
1000
MTEXTBEGIN
1070
    73
1070
     1
1070
    44
1040
1.0
1070
    74
1070
     0
1000
MTEXTEND
1000
ACAD_MTEXT_DEFINED_HEIGHT_BEGIN
1070
    46
1040
7.886094601212136
1000
ACAD_MTEXT_DEFINED_HEIGHT_END
  0
LINE
  5
8FD
330
290
100
AcDbEntity
  8
图框
370
    -3
100
AcDbLine
 10
1036.653967466372
 20
507.6708838011533
 30
0.0
 11
1079.971361203936
 21
507.6708838011533
 31
0.0
1001
AcDbBlockRepETag
1070
     1
1071
       94
1005
8FD
  0
LINE
  5
8FE
330
290
100
AcDbEntity
  8
图框
370
    -3
100
AcDbLine
 10
1036.653967466372
 20
491.8986945987308
 30
0.0
 11
1079.971361203936
 21
491.8986945987308
 31
0.0
1001
AcDbBlockRepETag
1070
     1
1071
       95
1005
8FE
  0
LINE
  5
8FF
330
290
100
AcDbEntity
  8
图框
370
    -3
100
AcDbLine
 10
1079.971361203936
 20
531.3291676047914
 30
0.0
 11
1079.971361203936
 21
484.0125999975168
 31
0.0
1001
AcDbBlockRepETag
1070
     1
1071
       96
1005
8FF
  0
MTEXT
  5
900
330
290
100
AcDbEntity
  8
图框
100
AcDbMText
 10
1042.063968618426
 20
525.4145966538832
 30
0.0
 40
2.252848170144607
 41
10.82000230410933
 46
11.82914190181708
 71
     5
 72
     5
  1
表面处理\P{\Fromans|c134;Finish}
 73
     1
 44
1.0
1001
AcDbBlockRepETag
1070
     1
1071
       97
1005
900
1001
ACAD
1000
MTEXTBEGIN
1070
    73
1070
     1
1070
    44
1040
1.0
1070
    74
1070
     0
1000
MTEXTEND
1000
ACAD_MTEXT_DEFINED_HEIGHT_BEGIN
1070
    46
1040
11.82914190181708
1000
ACAD_MTEXT_DEFINED_HEIGHT_END
  0
MTEXT
  5
901
330
290
100
AcDbEntity
  8
图框
100
AcDbMText
 10
1042.063968618426
 20
513.5854547520639
 30
0.0
 40
2.252848170144607
 41
10.82000230410933
 46
11.8291419018212
 71
     5
 72
     5
  1
材料\P{\Fromans|c134;Material}
 73
     1
 44
1.0
1001
AcDbBlockRepETag
1070
     1
1071
       98
1005
901
1001
ACAD
1000
MTEXTBEGIN
1070
    73
1070
     1
1070
    44
1040
1.0
1070
    74
1070
     0
1000
MTEXTEND
1000
ACAD_MTEXT_DEFINED_HEIGHT_BEGIN
1070
    46
1040
11.8291419018212
1000
ACAD_MTEXT_DEFINED_HEIGHT_END
  0
LINE
  5
902
330
290
100
AcDbEntity
  8
图框
370
    -3
100
AcDbLine
 10
1079.971361203936
 20
522.27220025775
 30
0.0
 11
1126.928502610363
 21
522.27220025775
 31
0.0
1001
AcDbBlockRepETag
1070
     1
1071
       99
1005
902
  0
LINE
  5
903
330
290
100
AcDbEntity
  8
图框
370
    -3
100
AcDbLine
 10
1079.971361203936
 20
513.5854547520641
 30
0.0
 11
1126.928502610363
 21
513.5854547520639
 31
0.0
1001
AcDbBlockRepETag
1070
     1
1071
      100
1005
903
  0
MTEXT
  5
904
330
290
100
AcDbEntity
  8
图框
100
AcDbMText
 10
1086.643735910939
 20
517.9288275049072
 30
0.0
 40
1.958998408821398
 41
13.34474941400573
 46
8.686745505685811
 71
     5
 72
     5
  1
产品代号\P{\Fromans|c134;Part Code}
 73
     1
 44
1.0
1001
AcDbBlockRepETag
1070
     1
1071
      101
1005
904
1001
ACAD
1000
MTEXTBEGIN
1070
    73
1070
     1
1070
    44
1040
1.0
1070
    74
1070
     0
1000
MTEXTEND
1000
ACAD_MTEXT_DEFINED_HEIGHT_BEGIN
1070
    46
1040
8.686745505685811
1000
ACAD_MTEXT_DEFINED_HEIGHT_END
  0
LINE
  5
905
330
290
100
AcDbEntity
  8
图框
370
    -3
100
AcDbLine
 10
946.9285026103634
 20
525.7982263931411
 30
0.0
 11
1036.653967466372
 21
525.7982263931411
 31
0.0
1001
AcDbBlockRepETag
1070
     1
1071
      102
1005
905
  0
LINE
  5
906
330
290
100
AcDbEntity
  8
图框
370
    -3
100
AcDbLine
 10
946.9285026103634
 20
520.2672851814959
 30
0.0
 11
1036.653967466372
 21
520.2672851814959
 31
0.0
1001
AcDbBlockRepETag
1070
     1
1071
      103
1005
906
  0
LINE
  5
907
330
290
100
AcDbEntity
  8
图框
370
    35
100
AcDbLine
 10
946.9285026103634
 20
531.3291676047914
 30
0.0
 11
1126.928502610363
 21
531.3291676047914
 31
0.0
1001
AcDbBlockRepETag
1070
     1
1071
      104
1005
907
  0
LINE
  5
908
330
290
100
AcDbEntity
  8
图框
370
    -3
100
AcDbLine
 10
990.6727612856927
 20
509.2054027581959
 30
0.0
 11
990.6727612856927
 21
484.0347692601515
 31
0.0
1001
AcDbBlockRepETag
1070
     1
1071
      105
1005
908
  0
MTEXT
  5
909
102
{ACAD_XDICTIONARY
360
9B6
102
}
330
290
100
AcDbEntity
  8
图框
100
AcDbMText
 10
997.1628169651232
 20
499.816589978722
 30
0.0
 40
2.252848170144607
 41
12.98011135886052
 46
6.19230880992475
 71
     5
 72
     5
  1
{\fSimSun|b0|i0|c134|p2;标准化}\PStand.
  7
Romans字体
 73
     1
 44
1.0
1001
AcDbBlockRepETag
1070
     1
1071
      106
1005
909
1001
ACAD
1000
MTEXTBEGIN
1070
    73
1070
     1
1070
    44
1040
1.0
1070
    74
1070
     0
1000
MTEXTEND
1000
ACAD_MTEXT_DEFINED_HEIGHT_BEGIN
1070
    46
1040
6.19230880992475
1000
ACAD_MTEXT_DEFINED_HEIGHT_END
  0
LINE
  5
90A
330
290
100
AcDbEntity
  8
图框
370
    -3
100
AcDbLine
 10
975.4103773808022
 20
509.2054027581959
 30
0.0
 11
975.4103773808022
 21
484.0347692601515
 31
0.0
1001
AcDbBlockRepETag
1070
     1
1071
      107
1005
90A
  0
MTEXT
  5
90B
330
290
100
AcDbEntity
  8
图框
100
AcDbMText
 10
984.5089229802068
 20
511.9708733640202
 30
0.0
 40
2.448748011026752
 41
38.287899328693
 46
5.530941211648832
 71
     5
 72
     5
  1
  变更描述{\Fromans|c134;/Description}
 73
     1
 44
1.0
1001
AcDbBlockRepETag
1070
     1
1071
      108
1005
90B
1001
ACAD
1000
MTEXTBEGIN
1070
    73
1070
     1
1070
    44
1040
1.0
1070
    74
1070
     0
1000
MTEXTEND
1000
ACAD_MTEXT_DEFINED_HEIGHT_BEGIN
1070
    46
1040
5.530941211648832
1000
ACAD_MTEXT_DEFINED_HEIGHT_END
  0
MTEXT
  5
90C
102
{ACAD_XDICTIONARY
360
9B8
102
}
330
290
100
AcDbEntity
  8
图框
100
AcDbMText
 10
1012.466086049227
 20
511.9708733640202
 30
0.0
 40
1.958998408821398
 41
17.6264268093469
 46
5.530941211648825
 71
     5
 72
     5
  1
{\fSimSun|b0|i0|c134|p2;签名\P\Fromans|c134;Signature} 
 73
     1
 44
1.0
1001
AcDbBlockRepETag
1070
     1
1071
      109
1005
90C
1001
ACAD
1000
MTEXTBEGIN
1070
    73
1070
     1
1070
    44
1040
1.0
1070
    74
1070
     0
1000
MTEXTEND
1000
ACAD_MTEXT_DEFINED_HEIGHT_BEGIN
1070
    46
1040
5.530941211648825
1000
ACAD_MTEXT_DEFINED_HEIGHT_END
  0
MTEXT
  5
90D
102
{ACAD_XDICTIONARY
360
9BA
102
}
330
290
100
AcDbEntity
  8
图框
100
AcDbMText
 10
960.7558556394856
 20
511.9708733640202
 30
0.0
 40
1.958998408821398
 41
9.218235352749283
 46
5.530941211648841
 71
     5
 72
     5
  1
{\fSimSun|b0|i0|c134|p2;处数\P\Fromans|c134;Number }
 73
     1
 44
1.0
1001
AcDbBlockRepETag
1070
     1
1071
      110
1005
90D
1001
ACAD
1000
MTEXTBEGIN
1070
    73
1070
     1
1070
    44
1040
1.0
1070
    74
1070
     0
1000
MTEXTEND
1000
ACAD_MTEXT_DEFINED_HEIGHT_BEGIN
1070
    46
1040
5.530941211648841
1000
ACAD_MTEXT_DEFINED_HEIGHT_END
  0
LINE
  5
90E
330
290
100
AcDbEntity
  8
图框
370
    -3
100
AcDbLine
 10
946.9285026103634
 20
514.7363439698449
 30
0.0
 11
1036.653967466372
 21
514.7363439698449
 31
0.0
1001
AcDbBlockRepETag
1070
     1
1071
      111
1005
90E
  0
LINE
  5
90F
330
290
100
AcDbEntity
  8
图框
370
    -3
100
AcDbLine
 10
946.9285026103634
 20
509.2054027581959
 30
0.0
 11
1036.653967466372
 21
509.2054027581959
 31
0.0
1001
AcDbBlockRepETag
1070
     1
1071
      112
1005
90F
  0
LINE
  5
910
330
290
100
AcDbEntity
  8
图框
370
    -3
100
AcDbLine
 10
946.9285026103634
 20
502.9127443836848
 30
0.0
 11
1036.653967466372
 21
502.9127443836848
 31
0.0
1001
AcDbBlockRepETag
1070
     1
1071
      113
1005
910
  0
LINE
  5
911
330
290
100
AcDbEntity
  8
图框
370
    -3
100
AcDbLine
 10
946.9285026103634
 20
496.620086009173
 30
0.0
 11
1036.653967466372
 21
496.620086009173
 31
0.0
1001
AcDbBlockRepETag
1070
     1
1071
      114
1005
911
  0
LINE
  5
912
330
290
100
AcDbEntity
  8
图框
370
    35
380
     1
100
AcDbLine
 10
946.9285026103634
 20
531.3291676047914
 30
0.0
 11
946.9285026103634
 21
484.0347692601515
 31
0.0
1001
AcDbBlockRepETag
1070
     1
1071
      115
1005
912
  0
LINE
  5
913
330
290
100
AcDbEntity
  8
图框
370
    -3
100
AcDbLine
 10
1021.301636813399
 20
531.3291676047914
 30
0.0
 11
1021.301636813399
 21
484.0347692601515
 31
0.0
1001
AcDbBlockRepETag
1070
     1
1071
      116
1005
913
  0
LINE
  5
914
330
290
100
AcDbEntity
  8
图框
370
    -3
100
AcDbLine
 10
1003.652872644553
 20
531.3291676047914
 30
0.0
 11
1003.652872644553
 21
484.0347692601515
 31
0.0
1001
AcDbBlockRepETag
1070
     1
1071
      117
1005
914
  0
LINE
  5
915
330
290
100
AcDbEntity
  8
图框
370
    -3
100
AcDbLine
 10
965.3649733158603
 20
531.3291676047914
 30
0.0
 11
965.3649733158603
 21
509.2054027581959
 31
0.0
1001
AcDbBlockRepETag
1070
     1
1071
      118
1005
915
  0
LINE
  5
916
330
290
100
AcDbEntity
  8
图框
370
    -3
100
AcDbLine
 10
956.1467379631109
 20
531.3291676047914
 30
0.0
 11
956.1467379631109
 21
509.2054027581959
 31
0.0
1001
AcDbBlockRepETag
1070
     1
1071
      119
1005
916
  0
MTEXT
  5
917
102
{ACAD_XDICTIONARY
360
9BC
102
}
330
290
100
AcDbEntity
  8
图框
100
AcDbMText
 10
951.537620286737
 20
511.9708733640202
 30
0.0
 40
1.958998408821398
 41
9.218235352747692
 46
5.530941211648832
 71
     5
 72
     5
  1
{\fSimSun|b0|i0|c134|p2;标记\P\Fromans|c134;Mark}
 73
     1
 44
1.0
1001
AcDbBlockRepETag
1070
     1
1071
      120
1005
917
1001
ACAD
1000
MTEXTBEGIN
1070
    73
1070
     1
1070
    44
1040
1.0
1070
    74
1070
     0
1000
MTEXTEND
1000
ACAD_MTEXT_DEFINED_HEIGHT_BEGIN
1070
    46
1040
5.530941211648832
1000
ACAD_MTEXT_DEFINED_HEIGHT_END
  0
MTEXT
  5
918
102
{ACAD_XDICTIONARY
360
9BE
102
}
330
290
100
AcDbEntity
  8
图框
100
AcDbMText
 10
953.4185582897936
 20
493.4737568219182
 30
0.0
 40
2.252848170144607
 41
12.98011135886041
 46
6.292658374510382
 71
     5
 72
     5
  1
{\fSimSun|b0|i0|c134|p2;审核\P\Fromans|c134;Checked}
 73
     1
 44
1.0
1001
AcDbBlockRepETag
1070
     1
1071
      121
1005
918
1001
ACAD
1000
MTEXTBEGIN
1070
    73
1070
     1
1070
    44
1040
1.0
1070
    74
1070
     0
1000
MTEXTEND
1000
ACAD_MTEXT_DEFINED_HEIGHT_BEGIN
1070
    46
1040
6.292658374510382
1000
ACAD_MTEXT_DEFINED_HEIGHT_END
  0
MTEXT
  5
919
102
{ACAD_XDICTIONARY
360
9C0
102
}
330
290
100
AcDbEntity
  8
图框
100
AcDbMText
 10
953.4185582897936
 20
499.8775635376777
 30
0.0
 40
2.252848170144607
 41
12.98011135886041
 46
6.070361692014189
 71
     5
 72
     5
  1
{\fSimSun|b0|i0|c134|p2;绘图\P\Fromans|c134;Drawn\Ftxt|c134; }
 73
     1
 44
1.0
1001
AcDbBlockRepETag
1070
     1
1071
      122
1005
919
1001
ACAD
1000
MTEXTBEGIN
1070
    73
1070
     1
1070
    44
1040
1.0
1070
    74
1070
     0
1000
MTEXTEND
1000
ACAD_MTEXT_DEFINED_HEIGHT_BEGIN
1070
    46
1040
6.070361692014189
1000
ACAD_MTEXT_DEFINED_HEIGHT_END
  0
ARC
  5
91A
330
290
100
AcDbEntity
  8
图框
 62
     4
370
    35
100
AcDbCircle
 10
1086.900627017421
 20
490.0179944151195
 30
0.0
 40
4.063310408393665
100
AcDbArc
 50
18.95237904564806
 51
161.0476209543519
1001
AcDbBlockRepETag
1070
     1
1071
      123
1005
91A
  0
ARC
  5
91B
330
290
100
AcDbEntity
  8
图框
 62
     4
370
    35
100
AcDbCircle
 10
1086.900627017421
 20
490.0179944151195
 30
0.0
 40
4.063310408393665
100
AcDbArc
 50
198.952379045648
 51
341.0476209543519
1001
AcDbBlockRepETag
1070
     1
1071
      124
1005
91B
  0
LINE
  5
91C
330
290
100
AcDbEntity
  8
图框
 62
     4
370
    35
100
AcDbLine
 10
1083.057593369548
 20
488.6983035966752
 30
0.0
 11
1090.74366066529
 21
488.6983035966752
 31
0.0
1001
AcDbBlockRepETag
1070
     1
1071
      125
1005
91C
  0
LINE
  5
91D
330
290
100
AcDbEntity
  8
图框
 62
     4
370
    35
100
AcDbLine
 10
1083.057593369548
 20
491.3376852335652
 30
0.0
 11
1090.74366066529
 21
491.3376852335652
 31
0.0
1001
AcDbBlockRepETag
1070
     1
1071
      126
1005
91D
  0
MTEXT
  5
91E
330
290
100
AcDbEntity
  8
图框
 62
     1
370
    20
100
AcDbMText
 10
1083.034582879669
 20
491.0506288081688
 30
0.0
 40
2.005930044038334
 41
5.047240019334847
 46
0.0
 71
     1
 72
     5
  1
{\fArial|b0|i0|c0|p34;W}
  7
Chinese
 73
     1
 44
1.0
1001
AcDbBlockRepETag
1070
     1
1071
      127
1005
91E
1001
ACAD
1000
MTEXTBEGIN
1070
    73
1070
     1
1070
    44
1040
1.0
1070
    74
1070
     0
1000
MTEXTEND
  0
LINE
  5
91F
330
290
100
AcDbEntity
  8
图框
370
    -3
100
AcDbLine
 10
946.9285026103634
 20
490.327427634663
 30
0.0
 11
1036.653967466372
 21
490.327427634663
 31
0.0
1001
AcDbBlockRepETag
1070
     1
1071
      128
1005
91F
  0
LINE
  5
920
330
290
100
AcDbEntity
  8
图框
370
    -3
100
AcDbLine
 10
959.9086139692238
 20
509.2054027581959
 30
0.0
 11
959.9086139692238
 21
484.0347692601515
 31
0.0
1001
AcDbBlockRepETag
1070
     1
1071
      129
1005
920
  0
MTEXT
  5
921
330
290
100
AcDbEntity
  8
图框
100
AcDbMText
 10
967.6594956750129
 20
506.0590735709403
 30
0.0
 40
2.252848170144607
 41
15.50176341157869
 46
6.292658374511246
 71
     5
 72
     5
  1
姓名{\Fromans|c134;/Name\Ftxt|c134; }
 73
     1
 44
1.0
1001
AcDbBlockRepETag
1070
     1
1071
      130
1005
921
1001
ACAD
1000
MTEXTBEGIN
1070
    73
1070
     1
1070
    44
1040
1.0
1070
    74
1070
     0
1000
MTEXTEND
1000
ACAD_MTEXT_DEFINED_HEIGHT_BEGIN
1070
    46
1040
6.292658374511246
1000
ACAD_MTEXT_DEFINED_HEIGHT_END
  0
MTEXT
  5
922
330
290
100
AcDbEntity
  8
图框
100
AcDbMText
 10
983.0415693332477
 20
506.0590735709403
 30
0.0
 40
2.252848170144607
 41
15.26238390489042
 46
6.2926583745112
 71
     5
 72
     5
  1
日期{\Fromans|c134;/Date}
 73
     1
 44
1.0
1001
AcDbBlockRepETag
1070
     1
1071
      131
1005
922
1001
ACAD
1000
MTEXTBEGIN
1070
    73
1070
     1
1070
    44
1040
1.0
1070
    74
1070
     0
1000
MTEXTEND
1000
ACAD_MTEXT_DEFINED_HEIGHT_BEGIN
1070
    46
1040
6.2926583745112
1000
ACAD_MTEXT_DEFINED_HEIGHT_END
  0
LINE
  5
923
330
290
100
AcDbEntity
  8
图框
370
    -3
100
AcDbLine
 10
946.9285026103634
 20
509.2054027581959
 30
0.0
 11
959.9086139692238
 21
502.9127443836848
 31
0.0
1001
AcDbBlockRepETag
1070
     1
1071
      132
1005
923
  0
MTEXT
  5
924
330
290
100
AcDbEntity
  8
图框
100
AcDbMText
 10
1012.931405110086
 20
506.0185715840725
 30
0.0
 40
2.252848170144607
 41
16.93492221063566
 46
0.0
 71
     5
 72
     5
  1
姓名{\Fromans|c134;/Name}
 73
     1
 44
1.0
1001
AcDbBlockRepETag
1070
     1
1071
      133
1005
924
1001
ACAD
1000
MTEXTBEGIN
1070
    73
1070
     1
1070
    44
1040
1.0
1070
    74
1070
     0
1000
MTEXTEND
  0
MTEXT
  5
925
330
290
100
AcDbEntity
  8
图框
100
AcDbMText
 10
1028.977802139886
 20
506.0590735709403
 30
0.0
 40
2.252848170144607
 41
15.35233065297283
 46
6.292658374511256
 71
     5
 72
     5
  1
日期{\Fromans|c134;/Date}
 73
     1
 44
1.0
1001
AcDbBlockRepETag
1070
     1
1071
      134
1005
925
1001
ACAD
1000
MTEXTBEGIN
1070
    73
1070
     1
1070
    44
1040
1.0
1070
    74
1070
     0
1000
MTEXTEND
1000
ACAD_MTEXT_DEFINED_HEIGHT_BEGIN
1070
    46
1040
6.292658374511256
1000
ACAD_MTEXT_DEFINED_HEIGHT_END
  0
LINE
  5
926
330
290
100
AcDbEntity
  8
图框
370
    -3
100
AcDbLine
 10
1003.652872644553
 20
502.9127443836848
 30
0.0
 11
990.6727612856927
 21
509.2054027581959
 31
0.0
1001
AcDbBlockRepETag
1070
     1
1071
      135
1005
926
  0
MTEXT
  5
927
102
{ACAD_XDICTIONARY
360
9C2
102
}
330
290
100
AcDbEntity
  8
图框
100
AcDbMText
 10
997.1628169651232
 20
487.1810984474071
 30
0.0
 40
2.252848170144607
 41
12.98011135886052
 46
6.292658374511517
 71
     5
 72
     5
  1
{\fSimSun|b0|i0|c134|p2;批准\P\Fromans|c134;Approved}
 73
     1
 44
1.0
1001
AcDbBlockRepETag
1070
     1
1071
      136
1005
927
1001
ACAD
1000
MTEXTBEGIN
1070
    73
1070
     1
1070
    44
1040
1.0
1070
    74
1070
     0
1000
MTEXTEND
1000
ACAD_MTEXT_DEFINED_HEIGHT_BEGIN
1070
    46
1040
6.292658374511517
1000
ACAD_MTEXT_DEFINED_HEIGHT_END
  0
MTEXT
  5
928
102
{ACAD_XDICTIONARY
360
9C4
102
}
330
290
100
AcDbEntity
  8
图框
100
AcDbMText
 10
953.4185582897936
 20
487.1810984474071
 30
0.0
 40
2.252848170144607
 41
12.98011135886041
 46
6.292658374511495
 71
     5
 72
     5
  1
{\fSimSun|b0|i0|c134|p2;工艺\P\Fromans|c134;Process}
 73
     1
 44
1.0
1001
AcDbBlockRepETag
1070
     1
1071
      137
1005
928
1001
ACAD
1000
MTEXTBEGIN
1070
    73
1070
     1
1070
    44
1040
1.0
1070
    74
1070
     0
1000
MTEXTEND
1000
ACAD_MTEXT_DEFINED_HEIGHT_BEGIN
1070
    46
1040
6.292658374511495
1000
ACAD_MTEXT_DEFINED_HEIGHT_END
  0
MTEXT
  5
929
102
{ACAD_XDICTIONARY
360
9C6
102
}
330
290
100
AcDbEntity
  8
图框
100
AcDbMText
 10
1028.977802139886
 20
511.8287965307664
 30
0.0
 40
1.958998408821398
 41
15.3523306529728
 46
5.246787545140668
 71
     5
 72
     5
  1
{\fSimSun|b0|i0|c134|p2;日期\P\Fromans|c134;Date}
 73
     1
 44
1.0
1001
AcDbBlockRepETag
1070
     1
1071
      138
1005
929
1001
ACAD
1000
MTEXTBEGIN
1070
    73
1070
     1
1070
    44
1040
1.0
1070
    74
1070
     0
1000
MTEXTEND
1000
ACAD_MTEXT_DEFINED_HEIGHT_BEGIN
1070
    46
1040
5.246787545140668
1000
ACAD_MTEXT_DEFINED_HEIGHT_END
  0
MTEXT
  5
92A
330
290
100
AcDbEntity
  8
图框
100
AcDbMText
 10
1086.643735910939
 20
509.1493769780809
 30
0.0
 40
2.154898249703542
 41
13.34474941400573
 46
8.87215554796615
 71
     5
 72
     5
  1
产品料号\P{\Fromans|c134;Part No.}
 73
     1
 44
1.0
1001
AcDbBlockRepETag
1070
     1
1071
      139
1005
92A
1001
ACAD
1000
MTEXTBEGIN
1070
    73
1070
     1
1070
    44
1040
1.0
1070
    74
1070
     0
1000
MTEXTEND
1000
ACAD_MTEXT_DEFINED_HEIGHT_BEGIN
1070
    46
1040
8.87215554796615
1000
ACAD_MTEXT_DEFINED_HEIGHT_END
  0
MTEXT
  5
92B
330
290
100
AcDbEntity
  8
图框
100
AcDbMText
 10
1086.643735910939
 20
500.2775205517163
 30
0.0
 40
1.958998408821398
 41
13.34474941400573
 46
8.871557304763321
 71
     5
 72
     5
  1
产品名称\P{\Fromans|c134;Part Name}
 73
     1
 44
1.0
1001
AcDbBlockRepETag
1070
     1
1071
      140
1005
92B
1001
ACAD
1000
MTEXTBEGIN
1070
    73
1070
     1
1070
    44
1040
1.0
1070
    74
1070
     0
1000
MTEXTEND
1000
ACAD_MTEXT_DEFINED_HEIGHT_BEGIN
1070
    46
1040
8.871557304763321
1000
ACAD_MTEXT_DEFINED_HEIGHT_END
  0
LINE
  5
92C
330
290
100
AcDbEntity
  8
图框
 62
     1
370
    18
100
AcDbLine
 10
833.4128518455365
 20
690.5347692601515
 30
0.0
 11
833.4128518455365
 21
480.5347692601515
 31
0.0
1001
AcDbBlockRepETag
1070
     1
1071
      141
1005
92C
  0
LINE
  5
92D
330
290
100
AcDbEntity
  8
图框
 62
     1
370
    18
100
AcDbLine
 10
833.4128518455365
 20
480.5347692601515
 30
0.0
 11
1130.411601781236
 21
480.5347692601515
 31
0.0
1001
AcDbBlockRepETag
1070
     1
1071
      142
1005
92D
  0
LINE
  5
92E
330
290
100
AcDbEntity
  8
图框
 62
     1
370
    18
100
AcDbLine
 10
833.4128518455365
 20
690.5347692601515
 30
0.0
 11
1130.411601781236
 21
690.5347692601515
 31
0.0
1001
AcDbBlockRepETag
1070
     1
1071
      143
1005
92E
  0
LINE
  5
92F
330
290
100
AcDbEntity
  8
图框
 62
     1
370
    18
100
AcDbLine
 10
1130.411601781236
 20
480.5347692601515
 30
0.0
 11
1130.411601781236
 21
690.5347692601515
 31
0.0
1001
AcDbBlockRepETag
1070
     1
1071
      144
1005
92F
  0
LINE
  5
930
330
290
100
AcDbEntity
  8
图框
370
    18
100
AcDbLine
 10
836.9128518455394
 20
686.7901958362482
 30
0.0
 11
861.5351874539182
 21
686.7901958362482
 31
0.0
1001
AcDbBlockRepETag
1070
     1
1071
      145
1005
930
  0
LINE
  5
931
330
290
100
AcDbEntity
  8
图框
370
    50
100
AcDbLine
 10
1126.928502610363
 20
484.3410054693078
 30
0.0
 11
1126.928502610363
 21
675.5347692601515
 31
0.0
1001
AcDbBlockRepETag
1070
     1
1071
      146
1005
931
  0
MTEXT
  5
932
330
290
100
AcDbEntity
  8
图框
 62
     3
100
AcDbMText
 10
1052.897990117958
 20
495.8417418993364
 30
0.0
 40
2.985513575034151
 41
10.82934843439114
 46
7.886094601211307
 71
     5
 72
     5
  1
V1.2
  7
Romans字体
 73
     1
 44
1.0
1001
AcDbBlockRepETag
1070
     1
1071
      147
1005
932
1001
ACAD
1000
MTEXTBEGIN
1070
    73
1070
     1
1070
    44
1040
1.0
1070
    74
1070
     0
1000
MTEXTEND
1000
ACAD_MTEXT_DEFINED_HEIGHT_BEGIN
1070
    46
1040
7.886094601211307
1000
ACAD_MTEXT_DEFINED_HEIGHT_END
  0
LINE
  5
933
330
290
100
AcDbEntity
  8
图框
 62
     6
100
AcDbLine
 10
1126.911601781236
 20
531.714049199969
 30
0.0
 11
1130.411601781236
 21
531.714049199969
 31
0.0
1001
AcDbBlockRepETag
1070
     1
1071
      148
1005
933
  0
ENDBLK
  5
328
330
290
100
AcDbEntity
  8
0
100
AcDbBlockEnd
  0
BLOCK
  5
32A
330
329
100
AcDbEntity
  8
0
100
AcDbBlockBegin
  2
*D8
 70
     1
 10
0.0
 20
0.0
 30
0.0
  3
*D8
  1

  0
LINE
  5
32B
330
329
100
AcDbEntity
  8
0
 62
     6
370
    -2
100
AcDbLine
 10
732.1628122257934
 20
205.8104318175403
 30
0.0
 11
732.1628122257934
 21
202.1210822032429
 31
0.0
  0
LINE
  5
32C
330
329
100
AcDbEntity
  8
0
 62
     6
370
    -2
100
AcDbLine
 10
746.9628122257947
 20
204.9068051117728
 30
0.0
 11
746.9628122257947
 21
202.1210822032429
 31
0.0
  0
LINE
  5
32D
330
329
100
AcDbEntity
  8
0
 62
     1
370
    -2
100
AcDbLine
 10
732.9628122257936
 20
202.3210822032429
 30
0.0
 11
746.1628122257947
 21
202.3210822032429
 31
0.0
  0
SOLID
  5
32E
330
329
100
AcDbEntity
  8
0
 62
     1
100
AcDbTrace
 10
732.9628122257936
 20
202.4544155365763
 30
0.0
 11
732.9628122257936
 21
202.1877488699096
 31
0.0
 12
732.1628122257934
 22
202.3210822032429
 32
0.0
 13
732.1628122257934
 23
202.3210822032429
 33
0.0
  0
SOLID
  5
32F
330
329
100
AcDbEntity
  8
0
 62
     1
100
AcDbTrace
 10
746.1628122257947
 20
202.4544155365763
 30
0.0
 11
746.1628122257947
 21
202.1877488699096
 31
0.0
 12
746.9628122257947
 22
202.3210822032429
 32
0.0
 13
746.9628122257947
 23
202.3210822032429
 33
0.0
  0
MTEXT
  5
330
330
329
100
AcDbEntity
  8
0
 62
     4
100
AcDbMText
 10
739.5455976660846
 20
203.0210822032429
 30
0.0
 40
1.0
 41
0.0
 46
0.0
 71
     5
 72
     1
  1
\A1;14.8
  7
Romans字体
 73
     1
 44
1.0
1001
ACAD
1000
MTEXTBEGIN
1070
    73
1070
     1
1070
    44
1040
1.0
1070
    74
1070
     0
1000
MTEXTEND
  0
POINT
  5
331
330
329
100
AcDbEntity
  8
Defpoints
 62
     0
100
AcDbPoint
 10
732.1628122257934
 20
206.0104318175403
 30
0.0
  0
POINT
  5
332
330
329
100
AcDbEntity
  8
Defpoints
 62
     0
100
AcDbPoint
 10
746.9628122257947
 20
205.1068051117728
 30
0.0
  0
POINT
  5
333
330
329
100
AcDbEntity
  8
Defpoints
 62
     0
100
AcDbPoint
 10
746.9628122257947
 20
202.3210822032429
 30
0.0
  0
ENDBLK
  5
334
330
329
100
AcDbEntity
  8
0
100
AcDbBlockEnd
  0
BLOCK
  5
336
330
335
100
AcDbEntity
  8
0
100
AcDbBlockBegin
  2
*D9
 70
     1
 10
0.0
 20
0.0
 30
0.0
  3
*D9
  1

  0
LINE
  5
337
330
335
100
AcDbEntity
  8
0
 62
     6
370
    -2
100
AcDbLine
 10
732.4628122257936
 20
205.5104318175403
 30
0.0
 11
730.1952271335809
 21
205.5104318175403
 31
0.0
  0
LINE
  5
338
330
335
100
AcDbEntity
  8
0
 62
     6
370
    -2
100
AcDbLine
 10
732.4628122257936
 20
206.5104318175403
 30
0.0
 11
730.1952271335809
 21
206.5104318175403
 31
0.0
  0
LINE
  5
339
330
335
100
AcDbEntity
  8
0
 62
     1
370
    -2
100
AcDbLine
 10
730.3952271335807
 20
204.7104318175402
 30
0.0
 11
730.3952271335807
 21
203.9104318175403
 31
0.0
  0
LINE
  5
33A
330
335
100
AcDbEntity
  8
0
 62
     1
370
    -2
100
AcDbLine
 10
730.3952271335807
 20
207.3104318175403
 30
0.0
 11
730.3952271335807
 21
209.474717531826
 31
0.0
  0
SOLID
  5
33B
330
335
100
AcDbEntity
  8
0
 62
     1
100
AcDbTrace
 10
730.2618938002475
 20
204.7104318175402
 30
0.0
 11
730.5285604669141
 21
204.7104318175402
 31
0.0
 12
730.3952271335807
 22
205.5104318175403
 32
0.0
 13
730.3952271335807
 23
205.5104318175403
 33
0.0
  0
SOLID
  5
33C
330
335
100
AcDbEntity
  8
0
 62
     1
100
AcDbTrace
 10
730.2618938002475
 20
207.3104318175403
 30
0.0
 11
730.5285604669141
 21
207.3104318175403
 31
0.0
 12
730.3952271335807
 22
206.5104318175403
 32
0.0
 13
730.3952271335807
 23
206.5104318175403
 33
0.0
  0
MTEXT
  5
33D
330
335
100
AcDbEntity
  8
0
 62
     4
100
AcDbMText
 10
729.6952271335809
 20
208.7925746746833
 30
0.0
 40
1.0
 41
0.0
 46
0.0
 71
     5
 72
     1
  1
\A1;%%C1
  7
Romans字体
 11
0.0000000000000001
 21
1.0
 31
0.0
 73
     1
 44
1.0
1001
ACAD
1000
MTEXTBEGIN
1070
    73
1070
     1
1070
    44
1040
1.0
1070
    74
1070
     0
1000
MTEXTEND
  0
POINT
  5
33E
330
335
100
AcDbEntity
  8
Defpoints
 62
     0
100
AcDbPoint
 10
732.6628122257933
 20
205.5104318175403
 30
0.0
  0
POINT
  5
33F
330
335
100
AcDbEntity
  8
Defpoints
 62
     0
100
AcDbPoint
 10
732.6628122257933
 20
206.5104318175403
 30
0.0
  0
POINT
  5
340
330
335
100
AcDbEntity
  8
Defpoints
 62
     0
100
AcDbPoint
 10
730.3952271335807
 20
206.5104318175403
 30
0.0
  0
ENDBLK
  5
341
330
335
100
AcDbEntity
  8
0
100
AcDbBlockEnd
  0
BLOCK
  5
343
330
342
100
AcDbEntity
  8
0
100
AcDbBlockBegin
  2
*D10
 70
     1
 10
0.0
 20
0.0
 30
0.0
  3
*D10
  1

  0
LINE
  5
344
330
342
100
AcDbEntity
  8
0
 62
     6
370
    -2
100
AcDbLine
 10
732.1628122257934
 20
206.2104318175403
 30
0.0
 11
732.1628122257934
 21
208.9854306895288
 31
0.0
  0
LINE
  5
345
330
342
100
AcDbEntity
  8
0
 62
     6
370
    -2
100
AcDbLine
 10
740.262812225794
 20
207.11543181754
 30
0.0
 11
740.262812225794
 21
208.9854306895288
 31
0.0
  0
LINE
  5
346
330
342
100
AcDbEntity
  8
0
 62
     1
370
    -2
100
AcDbLine
 10
732.9628122257936
 20
208.7854306895288
 30
0.0
 11
739.4628122257941
 21
208.7854306895288
 31
0.0
  0
SOLID
  5
347
330
342
100
AcDbEntity
  8
0
 62
     1
100
AcDbTrace
 10
732.9628122257936
 20
208.9187640228622
 30
0.0
 11
732.9628122257936
 21
208.6520973561955
 31
0.0
 12
732.1628122257934
 22
208.7854306895288
 32
0.0
 13
732.1628122257934
 23
208.7854306895288
 33
0.0
  0
SOLID
  5
348
330
342
100
AcDbEntity
  8
0
 62
     1
100
AcDbTrace
 10
739.4628122257941
 20
208.9187640228622
 30
0.0
 11
739.4628122257941
 21
208.6520973561955
 31
0.0
 12
740.262812225794
 22
208.7854306895288
 32
0.0
 13
740.262812225794
 23
208.7854306895288
 33
0.0
  0
MTEXT
  5
349
330
342
100
AcDbEntity
  8
0
 62
     4
100
AcDbMText
 10
736.0381538125023
 20
209.4854306895288
 30
0.0
 40
1.0
 41
0.0
 46
0.0
 71
     5
 72
     1
  1
\A1;8.1
  7
Romans字体
 73
     1
 44
1.0
1001
ACAD
1000
MTEXTBEGIN
1070
    73
1070
     1
1070
    44
1040
1.0
1070
    74
1070
     0
1000
MTEXTEND
  0
POINT
  5
34A
330
342
100
AcDbEntity
  8
Defpoints
 62
     0
100
AcDbPoint
 10
732.1628122257934
 20
206.0104318175403
 30
0.0
  0
POINT
  5
34B
330
342
100
AcDbEntity
  8
Defpoints
 62
     0
100
AcDbPoint
 10
740.262812225794
 20
206.9154318175399
 30
0.0
  0
POINT
  5
34C
330
342
100
AcDbEntity
  8
Defpoints
 62
     0
100
AcDbPoint
 10
740.262812225794
 20
208.7854306895288
 30
0.0
  0
ENDBLK
  5
34D
330
342
100
AcDbEntity
  8
0
100
AcDbBlockEnd
  0
BLOCK
  5
34F
330
34E
100
AcDbEntity
  8
0
100
AcDbBlockBegin
  2
*D11
 70
     1
 10
0.0
 20
0.0
 30
0.0
  3
*D11
  1

  0
LINE
  5
350
330
34E
100
AcDbEntity
  8
0
 62
     6
370
    -2
100
AcDbLine
 10
747.1488651940741
 20
205.1804318175403
 30
0.0
 11
751.4999798583735
 21
205.1804318175403
 31
0.0
  0
LINE
  5
351
330
34E
100
AcDbEntity
  8
0
 62
     6
370
    -2
100
AcDbLine
 10
747.1628122257945
 20
206.8404318175402
 30
0.0
 11
751.4999798583735
 21
206.8404318175402
 31
0.0
  0
LINE
  5
352
330
34E
100
AcDbEntity
  8
0
 62
     1
370
    -2
100
AcDbLine
 10
751.2999798583737
 20
204.3804318175403
 30
0.0
 11
751.2999798583737
 21
203.5804318175403
 31
0.0
  0
LINE
  5
353
330
34E
100
AcDbEntity
  8
0
 62
     1
370
    -2
100
AcDbLine
 10
751.2999798583737
 20
207.6404318175402
 30
0.0
 11
751.2999798583737
 21
211.8047175318259
 31
0.0
  0
SOLID
  5
354
330
34E
100
AcDbEntity
  8
0
 62
     1
100
AcDbTrace
 10
751.1666465250404
 20
204.3804318175403
 30
0.0
 11
751.433313191707
 21
204.3804318175403
 31
0.0
 12
751.2999798583737
 22
205.1804318175403
 32
0.0
 13
751.2999798583737
 23
205.1804318175403
 33
0.0
  0
SOLID
  5
355
330
34E
100
AcDbEntity
  8
0
 62
     1
100
AcDbTrace
 10
751.1666465250404
 20
207.6404318175402
 30
0.0
 11
751.433313191707
 21
207.6404318175402
 31
0.0
 12
751.2999798583737
 22
206.8404318175402
 32
0.0
 13
751.2999798583737
 23
206.8404318175402
 33
0.0
  0
MTEXT
  5
356
330
34E
100
AcDbEntity
  8
0
 62
     4
100
AcDbMText
 10
750.5999798583737
 20
210.1225746746831
 30
0.0
 40
1.0
 41
0.0
 46
0.0
 71
     5
 72
     1
  1
\A1;%%C1.66
  7
Romans字体
 11
0.0000000000000001
 21
1.0
 31
0.0
 73
     1
 44
1.0
1001
ACAD
1000
MTEXTBEGIN
1070
    73
1070
     1
1070
    44
1040
1.0
1070
    74
1070
     0
1000
MTEXTEND
  0
POINT
  5
357
330
34E
100
AcDbEntity
  8
Defpoints
 62
     0
100
AcDbPoint
 10
746.9488651940738
 20
205.1804318175403
 30
0.0
  0
POINT
  5
358
330
34E
100
AcDbEntity
  8
Defpoints
 62
     0
100
AcDbPoint
 10
746.9628122257947
 20
206.8404318175402
 30
0.0
  0
POINT
  5
359
330
34E
100
AcDbEntity
  8
Defpoints
 62
     0
100
AcDbPoint
 10
751.2999798583737
 20
206.8404318175402
 30
0.0
  0
ENDBLK
  5
35A
330
34E
100
AcDbEntity
  8
0
100
AcDbBlockEnd
  0
BLOCK
  5
35C
330
35B
100
AcDbEntity
  8
0
100
AcDbBlockBegin
  2
*D12
 70
     1
 10
0.0
 20
0.0
 30
0.0
  3
*D12
  1

  0
LINE
  5
35D
330
35B
100
AcDbEntity
  8
0
 62
     6
370
    -2
100
AcDbLine
 10
747.0128122257932
 20
205.56043181754
 30
0.0
 11
749.5313960420842
 21
205.56043181754
 31
0.0
  0
LINE
  5
35E
330
35B
100
AcDbEntity
  8
0
 62
     6
370
    -2
100
AcDbLine
 10
747.0128122257932
 20
206.4604318175406
 30
0.0
 11
749.5313960420842
 21
206.4604318175406
 31
0.0
  0
LINE
  5
35F
330
35B
100
AcDbEntity
  8
0
 62
     1
370
    -2
100
AcDbLine
 10
749.3313960420845
 20
204.76043181754
 30
0.0
 11
749.3313960420845
 21
203.96043181754
 31
0.0
  0
LINE
  5
360
330
35B
100
AcDbEntity
  8
0
 62
     1
370
    -2
100
AcDbLine
 10
749.3313960420845
 20
207.2604318175406
 30
0.0
 11
749.3313960420845
 21
209.5675746746834
 31
0.0
  0
SOLID
  5
361
330
35B
100
AcDbEntity
  8
0
 62
     1
100
AcDbTrace
 10
749.1980627087512
 20
204.76043181754
 30
0.0
 11
749.4647293754177
 21
204.76043181754
 31
0.0
 12
749.3313960420845
 22
205.56043181754
 32
0.0
 13
749.3313960420845
 23
205.56043181754
 33
0.0
  0
SOLID
  5
362
330
35B
100
AcDbEntity
  8
0
 62
     1
100
AcDbTrace
 10
749.1980627087512
 20
207.2604318175406
 30
0.0
 11
749.4647293754177
 21
207.2604318175406
 31
0.0
 12
749.3313960420845
 22
206.4604318175406
 32
0.0
 13
749.3313960420845
 23
206.4604318175406
 33
0.0
  0
MTEXT
  5
363
330
35B
100
AcDbEntity
  8
0
 62
     4
100
AcDbMText
 10
748.6313960420845
 20
208.8140032461121
 30
0.0
 40
1.0
 41
0.0
 46
0.0
 71
     5
 72
     1
  1
\A1;%%Cd
  7
Romans字体
 11
0.0000000000000001
 21
1.0
 31
0.0
 73
     1
 44
1.0
1001
ACAD
1000
MTEXTBEGIN
1070
    73
1070
     1
1070
    44
1040
1.0
1070
    74
1070
     0
1000
MTEXTEND
  0
POINT
  5
364
330
35B
100
AcDbEntity
  8
Defpoints
 62
     0
100
AcDbPoint
 10
746.8128122257933
 20
205.56043181754
 30
0.0
  0
POINT
  5
365
330
35B
100
AcDbEntity
  8
Defpoints
 62
     0
100
AcDbPoint
 10
746.8128122257933
 20
206.4604318175406
 30
0.0
  0
POINT
  5
366
330
35B
100
AcDbEntity
  8
Defpoints
 62
     0
100
AcDbPoint
 10
749.3313960420845
 20
206.4604318175406
 30
0.0
  0
ENDBLK
  5
367
330
35B
100
AcDbEntity
  8
0
100
AcDbBlockEnd
  0
BLOCK
  5
369
330
368
100
AcDbEntity
  8
0
100
AcDbBlockBegin
  2
*D13
 70
     1
 10
0.0
 20
0.0
 30
0.0
  3
*D13
  1

  0
LINE
  5
36A
330
368
100
AcDbEntity
  8
0
 62
     6
370
    -2
100
AcDbLine
 10
742.9628122257945
 20
206.6604318175406
 30
0.0
 11
742.9628122257945
 21
209.0178486271116
 31
0.0
  0
LINE
  5
36B
330
368
100
AcDbEntity
  8
0
 62
     6
370
    -2
100
AcDbLine
 10
746.9628122257947
 20
207.0404318175401
 30
0.0
 11
746.9628122257947
 21
209.0178486271116
 31
0.0
  0
LINE
  5
36C
330
368
100
AcDbEntity
  8
0
 62
     1
370
    -2
100
AcDbLine
 10
743.7628122257947
 20
208.8178486271116
 30
0.0
 11
746.1628122257947
 21
208.8178486271116
 31
0.0
  0
SOLID
  5
36D
330
368
100
AcDbEntity
  8
0
 62
     1
100
AcDbTrace
 10
743.7628122257947
 20
208.9511819604449
 30
0.0
 11
743.7628122257947
 21
208.6845152937783
 31
0.0
 12
742.9628122257945
 22
208.8178486271116
 32
0.0
 13
742.9628122257945
 23
208.8178486271116
 33
0.0
  0
SOLID
  5
36E
330
368
100
AcDbEntity
  8
0
 62
     1
100
AcDbTrace
 10
746.1628122257947
 20
208.9511819604449
 30
0.0
 11
746.1628122257947
 21
208.6845152937783
 31
0.0
 12
746.9628122257947
 22
208.8178486271116
 32
0.0
 13
746.9628122257947
 23
208.8178486271116
 33
0.0
  0
MTEXT
  5
36F
330
368
100
AcDbEntity
  8
0
 62
     4
100
AcDbMText
 10
744.9628122257945
 20
209.5178486271116
 30
0.0
 40
1.0
 41
0.0
 46
0.0
 71
     5
 72
     1
  1
\A1;4
  7
Romans字体
 73
     1
 44
1.0
1001
ACAD
1000
MTEXTBEGIN
1070
    73
1070
     1
1070
    44
1040
1.0
1070
    74
1070
     0
1000
MTEXTEND
  0
POINT
  5
370
330
368
100
AcDbEntity
  8
Defpoints
 62
     0
100
AcDbPoint
 10
742.9628122257945
 20
206.4604318175406
 30
0.0
  0
POINT
  5
371
330
368
100
AcDbEntity
  8
Defpoints
 62
     0
100
AcDbPoint
 10
746.9628122257947
 20
206.8404318175402
 30
0.0
  0
POINT
  5
372
330
368
100
AcDbEntity
  8
Defpoints
 62
     0
100
AcDbPoint
 10
746.9628122257947
 20
208.8178486271116
 30
0.0
  0
ENDBLK
  5
373
330
368
100
AcDbEntity
  8
0
100
AcDbBlockEnd
  0
BLOCK
  5
4BE
330
4BD
100
AcDbEntity
  8
0
100
AcDbBlockBegin
  2
*D14
 70
     1
 10
0.0
 20
0.0
 30
0.0
  3
*D14
  1

  0
LINE
  5
508
330
4BD
100
AcDbEntity
  8
0
 62
     6
370
    -2
100
AcDbLine
 10
784.0918246915402
 20
205.5723397196064
 30
0.0
 11
784.0918246915402
 21
201.882990105309
 31
0.0
  0
LINE
  5
509
330
4BD
100
AcDbEntity
  8
0
 62
     6
370
    -2
100
AcDbLine
 10
798.8918246915414
 20
204.6687130138389
 30
0.0
 11
798.8918246915414
 21
201.882990105309
 31
0.0
  0
LINE
  5
50A
330
4BD
100
AcDbEntity
  8
0
 62
     1
370
    -2
100
AcDbLine
 10
784.8918246915403
 20
202.082990105309
 30
0.0
 11
798.0918246915414
 21
202.082990105309
 31
0.0
  0
SOLID
  5
50B
330
4BD
100
AcDbEntity
  8
0
 62
     1
100
AcDbTrace
 10
784.8918246915403
 20
202.2163234386423
 30
0.0
 11
784.8918246915403
 21
201.9496567719757
 31
0.0
 12
784.0918246915402
 22
202.082990105309
 32
0.0
 13
784.0918246915402
 23
202.082990105309
 33
0.0
  0
SOLID
  5
50C
330
4BD
100
AcDbEntity
  8
0
 62
     1
100
AcDbTrace
 10
798.0918246915414
 20
202.2163234386423
 30
0.0
 11
798.0918246915414
 21
201.9496567719757
 31
0.0
 12
798.8918246915414
 22
202.082990105309
 32
0.0
 13
798.8918246915414
 23
202.082990105309
 33
0.0
  0
MTEXT
  5
50D
330
4BD
100
AcDbEntity
  8
0
 62
     4
100
AcDbMText
 10
791.4746101318312
 20
202.782990105309
 30
0.0
 40
1.0
 41
0.0
 46
0.0
 71
     5
 72
     1
  1
\A1;14.8
  7
Romans字体
 73
     1
 44
1.0
1001
ACAD
1000
MTEXTBEGIN
1070
    73
1070
     1
1070
    44
1040
1.0
1070
    74
1070
     0
1000
MTEXTEND
  0
POINT
  5
50E
330
4BD
100
AcDbEntity
  8
Defpoints
 62
     0
100
AcDbPoint
 10
784.0918246915402
 20
205.7723397196064
 30
0.0
  0
POINT
  5
50F
330
4BD
100
AcDbEntity
  8
Defpoints
 62
     0
100
AcDbPoint
 10
798.8918246915414
 20
204.8687130138389
 30
0.0
  0
POINT
  5
510
330
4BD
100
AcDbEntity
  8
Defpoints
 62
     0
100
AcDbPoint
 10
798.8918246915414
 20
202.082990105309
 30
0.0
  0
ENDBLK
  5
4BF
330
4BD
100
AcDbEntity
  8
0
100
AcDbBlockEnd
  0
BLOCK
  5
4CA
330
4C9
100
AcDbEntity
  8
0
100
AcDbBlockBegin
  2
*D15
 70
     1
 10
0.0
 20
0.0
 30
0.0
  3
*D15
  1

  0
LINE
  5
511
330
4C9
100
AcDbEntity
  8
0
 62
     6
370
    -2
100
AcDbLine
 10
784.3918246915404
 20
205.2723397196063
 30
0.0
 11
782.1242395993277
 21
205.2723397196063
 31
0.0
  0
LINE
  5
512
330
4C9
100
AcDbEntity
  8
0
 62
     6
370
    -2
100
AcDbLine
 10
784.3918246915404
 20
206.2723397196064
 30
0.0
 11
782.1242395993277
 21
206.2723397196064
 31
0.0
  0
LINE
  5
513
330
4C9
100
AcDbEntity
  8
0
 62
     1
370
    -2
100
AcDbLine
 10
782.3242395993275
 20
204.4723397196063
 30
0.0
 11
782.3242395993275
 21
203.6723397196063
 31
0.0
  0
LINE
  5
514
330
4C9
100
AcDbEntity
  8
0
 62
     1
370
    -2
100
AcDbLine
 10
782.3242395993275
 20
207.0723397196064
 30
0.0
 11
782.3242395993275
 21
209.2366254338921
 31
0.0
  0
SOLID
  5
515
330
4C9
100
AcDbEntity
  8
0
 62
     1
100
AcDbTrace
 10
782.1909062659941
 20
204.4723397196063
 30
0.0
 11
782.4575729326607
 21
204.4723397196063
 31
0.0
 12
782.3242395993275
 22
205.2723397196063
 32
0.0
 13
782.3242395993275
 23
205.2723397196063
 33
0.0
  0
SOLID
  5
516
330
4C9
100
AcDbEntity
  8
0
 62
     1
100
AcDbTrace
 10
782.1909062659941
 20
207.0723397196064
 30
0.0
 11
782.4575729326607
 21
207.0723397196064
 31
0.0
 12
782.3242395993275
 22
206.2723397196064
 32
0.0
 13
782.3242395993275
 23
206.2723397196064
 33
0.0
  0
MTEXT
  5
517
330
4C9
100
AcDbEntity
  8
0
 62
     4
100
AcDbMText
 10
781.6242395993277
 20
208.5544825767493
 30
0.0
 40
1.0
 41
0.0
 46
0.0
 71
     5
 72
     1
  1
\A1;%%C1
  7
Romans字体
 11
0.0000000000000001
 21
1.0
 31
0.0
 73
     1
 44
1.0
1001
ACAD
1000
MTEXTBEGIN
1070
    73
1070
     1
1070
    44
1040
1.0
1070
    74
1070
     0
1000
MTEXTEND
  0
POINT
  5
518
330
4C9
100
AcDbEntity
  8
Defpoints
 62
     0
100
AcDbPoint
 10
784.5918246915402
 20
205.2723397196063
 30
0.0
  0
POINT
  5
519
330
4C9
100
AcDbEntity
  8
Defpoints
 62
     0
100
AcDbPoint
 10
784.5918246915402
 20
206.2723397196064
 30
0.0
  0
POINT
  5
51A
330
4C9
100
AcDbEntity
  8
Defpoints
 62
     0
100
AcDbPoint
 10
782.3242395993275
 20
206.2723397196064
 30
0.0
  0
ENDBLK
  5
4CB
330
4C9
100
AcDbEntity
  8
0
100
AcDbBlockEnd
  0
BLOCK
  5
4D7
330
4D6
100
AcDbEntity
  8
0
100
AcDbBlockBegin
  2
*D16
 70
     1
 10
0.0
 20
0.0
 30
0.0
  3
*D16
  1

  0
LINE
  5
51B
330
4D6
100
AcDbEntity
  8
0
 62
     6
370
    -2
100
AcDbLine
 10
784.0918246915402
 20
205.9723397196064
 30
0.0
 11
784.0918246915402
 21
208.7473385915949
 31
0.0
  0
LINE
  5
51C
330
4D6
100
AcDbEntity
  8
0
 62
     6
370
    -2
100
AcDbLine
 10
792.1918246915407
 20
206.8773397196061
 30
0.0
 11
792.1918246915407
 21
208.7473385915949
 31
0.0
  0
LINE
  5
51D
330
4D6
100
AcDbEntity
  8
0
 62
     1
370
    -2
100
AcDbLine
 10
784.8918246915403
 20
208.5473385915949
 30
0.0
 11
791.3918246915407
 21
208.5473385915949
 31
0.0
  0
SOLID
  5
51E
330
4D6
100
AcDbEntity
  8
0
 62
     1
100
AcDbTrace
 10
784.8918246915403
 20
208.6806719249282
 30
0.0
 11
784.8918246915403
 21
208.4140052582616
 31
0.0
 12
784.0918246915402
 22
208.5473385915949
 32
0.0
 13
784.0918246915402
 23
208.5473385915949
 33
0.0
  0
SOLID
  5
51F
330
4D6
100
AcDbEntity
  8
0
 62
     1
100
AcDbTrace
 10
791.3918246915407
 20
208.6806719249282
 30
0.0
 11
791.3918246915407
 21
208.4140052582616
 31
0.0
 12
792.1918246915407
 22
208.5473385915949
 32
0.0
 13
792.1918246915407
 23
208.5473385915949
 33
0.0
  0
MTEXT
  5
520
330
4D6
100
AcDbEntity
  8
0
 62
     4
100
AcDbMText
 10
787.967166278249
 20
209.2473385915949
 30
0.0
 40
1.0
 41
0.0
 46
0.0
 71
     5
 72
     1
  1
\A1;8.1
  7
Romans字体
 73
     1
 44
1.0
1001
ACAD
1000
MTEXTBEGIN
1070
    73
1070
     1
1070
    44
1040
1.0
1070
    74
1070
     0
1000
MTEXTEND
  0
POINT
  5
521
330
4D6
100
AcDbEntity
  8
Defpoints
 62
     0
100
AcDbPoint
 10
784.0918246915402
 20
205.7723397196064
 30
0.0
  0
POINT
  5
522
330
4D6
100
AcDbEntity
  8
Defpoints
 62
     0
100
AcDbPoint
 10
792.1918246915407
 20
206.6773397196061
 30
0.0
  0
POINT
  5
523
330
4D6
100
AcDbEntity
  8
Defpoints
 62
     0
100
AcDbPoint
 10
792.1918246915407
 20
208.5473385915949
 30
0.0
  0
ENDBLK
  5
4D8
330
4D6
100
AcDbEntity
  8
0
100
AcDbBlockEnd
  0
BLOCK
  5
4E3
330
4E2
100
AcDbEntity
  8
0
100
AcDbBlockBegin
  2
*D17
 70
     1
 10
0.0
 20
0.0
 30
0.0
  3
*D17
  1

  0
LINE
  5
524
330
4E2
100
AcDbEntity
  8
0
 62
     6
370
    -2
100
AcDbLine
 10
799.0778776598207
 20
204.9423397196064
 30
0.0
 11
803.4289923241205
 21
204.9423397196064
 31
0.0
  0
LINE
  5
525
330
4E2
100
AcDbEntity
  8
0
 62
     6
370
    -2
100
AcDbLine
 10
799.0918246915414
 20
206.6023397196063
 30
0.0
 11
803.4289923241205
 21
206.6023397196063
 31
0.0
  0
LINE
  5
526
330
4E2
100
AcDbEntity
  8
0
 62
     1
370
    -2
100
AcDbLine
 10
803.2289923241203
 20
204.1423397196064
 30
0.0
 11
803.2289923241203
 21
203.3423397196064
 31
0.0
  0
LINE
  5
527
330
4E2
100
AcDbEntity
  8
0
 62
     1
370
    -2
100
AcDbLine
 10
803.2289923241203
 20
207.4023397196063
 30
0.0
 11
803.2289923241203
 21
211.5666254338919
 31
0.0
  0
SOLID
  5
528
330
4E2
100
AcDbEntity
  8
0
 62
     1
100
AcDbTrace
 10
803.0956589907871
 20
204.1423397196064
 30
0.0
 11
803.3623256574538
 21
204.1423397196064
 31
0.0
 12
803.2289923241203
 22
204.9423397196064
 32
0.0
 13
803.2289923241203
 23
204.9423397196064
 33
0.0
  0
SOLID
  5
529
330
4E2
100
AcDbEntity
  8
0
 62
     1
100
AcDbTrace
 10
803.0956589907871
 20
207.4023397196063
 30
0.0
 11
803.3623256574538
 21
207.4023397196063
 31
0.0
 12
803.2289923241203
 22
206.6023397196063
 32
0.0
 13
803.2289923241203
 23
206.6023397196063
 33
0.0
  0
MTEXT
  5
52A
330
4E2
100
AcDbEntity
  8
0
 62
     4
100
AcDbMText
 10
802.5289923241198
 20
209.8844825767492
 30
0.0
 40
1.0
 41
0.0
 46
0.0
 71
     5
 72
     1
  1
\A1;%%C1.66
  7
Romans字体
 11
0.0000000000000001
 21
1.0
 31
0.0
 73
     1
 44
1.0
1001
ACAD
1000
MTEXTBEGIN
1070
    73
1070
     1
1070
    44
1040
1.0
1070
    74
1070
     0
1000
MTEXTEND
  0
POINT
  5
52B
330
4E2
100
AcDbEntity
  8
Defpoints
 62
     0
100
AcDbPoint
 10
798.8778776598207
 20
204.9423397196064
 30
0.0
  0
POINT
  5
52C
330
4E2
100
AcDbEntity
  8
Defpoints
 62
     0
100
AcDbPoint
 10
798.8918246915414
 20
206.6023397196063
 30
0.0
  0
POINT
  5
52D
330
4E2
100
AcDbEntity
  8
Defpoints
 62
     0
100
AcDbPoint
 10
803.2289923241203
 20
206.6023397196063
 30
0.0
  0
ENDBLK
  5
4E4
330
4E2
100
AcDbEntity
  8
0
100
AcDbBlockEnd
  0
BLOCK
  5
4F0
330
4EF
100
AcDbEntity
  8
0
100
AcDbBlockBegin
  2
*D18
 70
     1
 10
0.0
 20
0.0
 30
0.0
  3
*D18
  1

  0
LINE
  5
52E
330
4EF
100
AcDbEntity
  8
0
 62
     6
370
    -2
100
AcDbLine
 10
798.9418246915398
 20
205.322339719606
 30
0.0
 11
801.4604085078312
 21
205.322339719606
 31
0.0
  0
LINE
  5
52F
330
4EF
100
AcDbEntity
  8
0
 62
     6
370
    -2
100
AcDbLine
 10
798.9418246915398
 20
206.2223397196067
 30
0.0
 11
801.4604085078312
 21
206.2223397196067
 31
0.0
  0
LINE
  5
530
330
4EF
100
AcDbEntity
  8
0
 62
     1
370
    -2
100
AcDbLine
 10
801.2604085078312
 20
204.522339719606
 30
0.0
 11
801.2604085078312
 21
203.722339719606
 31
0.0
  0
LINE
  5
531
330
4EF
100
AcDbEntity
  8
0
 62
     1
370
    -2
100
AcDbLine
 10
801.2604085078312
 20
207.0223397196067
 30
0.0
 11
801.2604085078312
 21
209.3294825767495
 31
0.0
  0
SOLID
  5
532
330
4EF
100
AcDbEntity
  8
0
 62
     1
100
AcDbTrace
 10
801.1270751744977
 20
204.522339719606
 30
0.0
 11
801.3937418411645
 21
204.522339719606
 31
0.0
 12
801.2604085078312
 22
205.322339719606
 32
0.0
 13
801.2604085078312
 23
205.322339719606
 33
0.0
  0
SOLID
  5
533
330
4EF
100
AcDbEntity
  8
0
 62
     1
100
AcDbTrace
 10
801.1270751744977
 20
207.0223397196067
 30
0.0
 11
801.3937418411645
 21
207.0223397196067
 31
0.0
 12
801.2604085078312
 22
206.2223397196067
 32
0.0
 13
801.2604085078312
 23
206.2223397196067
 33
0.0
  0
MTEXT
  5
534
330
4EF
100
AcDbEntity
  8
0
 62
     4
100
AcDbMText
 10
800.5604085078314
 20
208.5759111481781
 30
0.0
 40
1.0
 41
0.0
 46
0.0
 71
     5
 72
     1
  1
\A1;%%Cd
  7
Romans字体
 11
0.0000000000000001
 21
1.0
 31
0.0
 73
     1
 44
1.0
1001
ACAD
1000
MTEXTBEGIN
1070
    73
1070
     1
1070
    44
1040
1.0
1070
    74
1070
     0
1000
MTEXTEND
  0
POINT
  5
535
330
4EF
100
AcDbEntity
  8
Defpoints
 62
     0
100
AcDbPoint
 10
798.74182469154
 20
205.322339719606
 30
0.0
  0
POINT
  5
536
330
4EF
100
AcDbEntity
  8
Defpoints
 62
     0
100
AcDbPoint
 10
798.74182469154
 20
206.2223397196067
 30
0.0
  0
POINT
  5
537
330
4EF
100
AcDbEntity
  8
Defpoints
 62
     0
100
AcDbPoint
 10
801.2604085078312
 20
206.2223397196067
 30
0.0
  0
ENDBLK
  5
4F1
330
4EF
100
AcDbEntity
  8
0
100
AcDbBlockEnd
  0
BLOCK
  5
4FD
330
4FC
100
AcDbEntity
  8
0
100
AcDbBlockBegin
  2
*D19
 70
     1
 10
0.0
 20
0.0
 30
0.0
  3
*D19
  1

  0
LINE
  5
538
330
4FC
100
AcDbEntity
  8
0
 62
     6
370
    -2
100
AcDbLine
 10
794.8918246915414
 20
206.4223397196067
 30
0.0
 11
794.8918246915414
 21
208.7797565291777
 31
0.0
  0
LINE
  5
539
330
4FC
100
AcDbEntity
  8
0
 62
     6
370
    -2
100
AcDbLine
 10
798.8918246915414
 20
206.8023397196063
 30
0.0
 11
798.8918246915414
 21
208.7797565291777
 31
0.0
  0
LINE
  5
53A
330
4FC
100
AcDbEntity
  8
0
 62
     1
370
    -2
100
AcDbLine
 10
795.6918246915415
 20
208.5797565291777
 30
0.0
 11
798.0918246915414
 21
208.5797565291777
 31
0.0
  0
SOLID
  5
53B
330
4FC
100
AcDbEntity
  8
0
 62
     1
100
AcDbTrace
 10
795.6918246915415
 20
208.713089862511
 30
0.0
 11
795.6918246915415
 21
208.4464231958444
 31
0.0
 12
794.8918246915414
 22
208.5797565291777
 32
0.0
 13
794.8918246915414
 23
208.5797565291777
 33
0.0
  0
SOLID
  5
53C
330
4FC
100
AcDbEntity
  8
0
 62
     1
100
AcDbTrace
 10
798.0918246915414
 20
208.713089862511
 30
0.0
 11
798.0918246915414
 21
208.4464231958444
 31
0.0
 12
798.8918246915414
 22
208.5797565291777
 32
0.0
 13
798.8918246915414
 23
208.5797565291777
 33
0.0
  0
MTEXT
  5
53D
330
4FC
100
AcDbEntity
  8
0
 62
     4
100
AcDbMText
 10
796.8918246915412
 20
209.2797565291777
 30
0.0
 40
1.0
 41
0.0
 46
0.0
 71
     5
 72
     1
  1
\A1;4
  7
Romans字体
 73
     1
 44
1.0
1001
ACAD
1000
MTEXTBEGIN
1070
    73
1070
     1
1070
    44
1040
1.0
1070
    74
1070
     0
1000
MTEXTEND
  0
POINT
  5
53E
330
4FC
100
AcDbEntity
  8
Defpoints
 62
     0
100
AcDbPoint
 10
794.8918246915414
 20
206.2223397196067
 30
0.0
  0
POINT
  5
53F
330
4FC
100
AcDbEntity
  8
Defpoints
 62
     0
100
AcDbPoint
 10
798.8918246915414
 20
206.6023397196063
 30
0.0
  0
POINT
  5
540
330
4FC
100
AcDbEntity
  8
Defpoints
 62
     0
100
AcDbPoint
 10
798.8918246915414
 20
208.5797565291777
 30
0.0
  0
ENDBLK
  5
4FE
330
4FC
100
AcDbEntity
  8
0
100
AcDbBlockEnd
  0
BLOCK
  5
544
330
543
100
AcDbEntity
  8
0
100
AcDbBlockBegin
  2
*D20
 70
     1
 10
0.0
 20
0.0
 30
0.0
  3
*D20
  1

  0
LINE
  5
611
330
543
100
AcDbEntity
  8
DIM
 62
     6
370
    -2
100
AcDbLine
 10
789.3306783914334
 20
211.2626179686373
 30
0.0
 11
787.4828953880858
 21
211.2626179686373
 31
0.0
  0
LINE
  5
612
330
543
100
AcDbEntity
  8
DIM
 62
     6
370
    -2
100
AcDbLine
 10
789.3306783914334
 20
210.262617968637
 30
0.0
 11
787.4828953880858
 21
210.262617968637
 31
0.0
  0
LINE
  5
613
330
543
100
AcDbEntity
  8
DIM
 62
     1
370
    -2
100
AcDbLine
 10
787.6828953880857
 20
212.0626179686373
 30
0.0
 11
787.6828953880857
 21
212.8626179686373
 31
0.0
  0
LINE
  5
614
330
543
100
AcDbEntity
  8
DIM
 62
     1
370
    -2
100
AcDbLine
 10
787.6828953880857
 20
209.462617968637
 30
0.0
 11
787.6828953880857
 21
207.2983322543513
 31
0.0
  0
SOLID
  5
615
330
543
100
AcDbEntity
  8
DIM
 62
     1
100
AcDbTrace
 10
787.5495620547525
 20
212.0626179686373
 30
0.0
 11
787.816228721419
 21
212.0626179686373
 31
0.0
 12
787.6828953880857
 22
211.2626179686373
 32
0.0
 13
787.6828953880857
 23
211.2626179686373
 33
0.0
  0
SOLID
  5
616
330
543
100
AcDbEntity
  8
DIM
 62
     1
100
AcDbTrace
 10
787.5495620547525
 20
209.462617968637
 30
0.0
 11
787.816228721419
 21
209.462617968637
 31
0.0
 12
787.6828953880857
 22
210.262617968637
 32
0.0
 13
787.6828953880857
 23
210.262617968637
 33
0.0
  0
MTEXT
  5
617
330
543
100
AcDbEntity
  8
DIM
 62
     4
100
AcDbMText
 10
786.9828953880857
 20
207.9804751114942
 30
0.0
 40
1.0
 41
0.0
 46
0.0
 71
     5
 72
     1
  1
\A1;%%C1
  7
Romans字体
 11
0.0000000000000001
 21
1.0
 31
0.0
 73
     1
 44
1.0
1001
ACAD
1000
MTEXTBEGIN
1070
    73
1070
     1
1070
    44
1040
1.0
1070
    74
1070
     0
1000
MTEXTEND
  0
POINT
  5
618
330
543
100
AcDbEntity
  8
Defpoints
 62
     0
100
AcDbPoint
 10
789.5306783914334
 20
211.2626179686373
 30
0.0
  0
POINT
  5
619
330
543
100
AcDbEntity
  8
Defpoints
 62
     0
100
AcDbPoint
 10
789.5306783914334
 20
210.262617968637
 30
0.0
  0
POINT
  5
61A
330
543
100
AcDbEntity
  8
Defpoints
 62
     0
100
AcDbPoint
 10
787.6828953880857
 20
210.262617968637
 30
0.0
  0
ENDBLK
  5
545
330
543
100
AcDbEntity
  8
0
100
AcDbBlockEnd
  0
BLOCK
  5
551
330
550
100
AcDbEntity
  8
0
100
AcDbBlockBegin
  2
*D21
 70
     1
 10
0.0
 20
0.0
 30
0.0
  3
*D21
  1

  0
LINE
  5
5E2
330
550
100
AcDbEntity
  8
DIM
 62
     6
370
    -2
100
AcDbLine
 10
803.7625165732668
 20
211.6376178600706
 30
0.0
 11
807.0015845958319
 21
211.6376178600706
 31
0.0
  0
LINE
  5
5E3
330
550
100
AcDbEntity
  8
DIM
 62
     6
370
    -2
100
AcDbLine
 10
803.7625165732668
 20
209.887617860071
 30
0.0
 11
807.0015845958319
 21
209.887617860071
 31
0.0
  0
LINE
  5
5E4
330
550
100
AcDbEntity
  8
DIM
 62
     1
370
    -2
100
AcDbLine
 10
806.8015845958322
 20
212.4376178600706
 30
0.0
 11
806.8015845958322
 21
213.2376178600706
 31
0.0
  0
LINE
  5
5E5
330
550
100
AcDbEntity
  8
DIM
 62
     1
370
    -2
100
AcDbLine
 10
806.8015845958322
 20
209.0876178600709
 30
0.0
 11
806.8015845958322
 21
204.9233321457851
 31
0.0
  0
SOLID
  5
5E6
330
550
100
AcDbEntity
  8
DIM
 62
     1
100
AcDbTrace
 10
806.6682512624989
 20
212.4376178600706
 30
0.0
 11
806.9349179291656
 21
212.4376178600706
 31
0.0
 12
806.8015845958322
 22
211.6376178600706
 32
0.0
 13
806.8015845958322
 23
211.6376178600706
 33
0.0
  0
SOLID
  5
5E7
330
550
100
AcDbEntity
  8
DIM
 62
     1
100
AcDbTrace
 10
806.6682512624989
 20
209.0876178600709
 30
0.0
 11
806.9349179291656
 21
209.0876178600709
 31
0.0
 12
806.8015845958322
 22
209.887617860071
 32
0.0
 13
806.8015845958322
 23
209.887617860071
 33
0.0
  0
MTEXT
  5
5E8
330
550
100
AcDbEntity
  8
DIM
 62
     4
100
AcDbMText
 10
806.1015845958319
 20
206.6054750029282
 30
0.0
 40
1.0
 41
0.0
 46
0.0
 71
     5
 72
     1
  1
\A1;%%C1.75
  7
Romans字体
 11
0.0000000000000001
 21
1.0
 31
0.0
 73
     1
 44
1.0
1001
ACAD
1000
MTEXTBEGIN
1070
    73
1070
     1
1070
    44
1040
1.0
1070
    74
1070
     0
1000
MTEXTEND
  0
POINT
  5
5E9
330
550
100
AcDbEntity
  8
Defpoints
 62
     0
100
AcDbPoint
 10
803.5625165732668
 20
211.6376178600706
 30
0.0
  0
POINT
  5
5EA
330
550
100
AcDbEntity
  8
Defpoints
 62
     0
100
AcDbPoint
 10
803.5625165732668
 20
209.887617860071
 30
0.0
  0
POINT
  5
5EB
330
550
100
AcDbEntity
  8
Defpoints
 62
     0
100
AcDbPoint
 10
806.8015845958322
 20
209.887617860071
 30
0.0
  0
ENDBLK
  5
552
330
550
100
AcDbEntity
  8
0
100
AcDbBlockEnd
  0
BLOCK
  5
55E
330
55D
100
AcDbEntity
  8
0
100
AcDbBlockBegin
  2
*D22
 70
     1
 10
0.0
 20
0.0
 30
0.0
  3
*D22
  1

  0
LINE
  5
5EC
330
55D
100
AcDbEntity
  8
DIM
 62
     6
370
    -2
100
AcDbLine
 10
788.7625165908008
 20
210.9626179686368
 30
0.0
 11
788.7625165908008
 21
215.6053639001242
 31
0.0
  0
LINE
  5
5ED
330
55D
100
AcDbEntity
  8
DIM
 62
     6
370
    -2
100
AcDbLine
 10
803.5625165732668
 20
211.8376178600706
 30
0.0
 11
803.5625165732668
 21
215.6053639001242
 31
0.0
  0
LINE
  5
5EE
330
55D
100
AcDbEntity
  8
DIM
 62
     1
370
    -2
100
AcDbLine
 10
789.5625165908008
 20
215.4053639001242
 30
0.0
 11
802.7625165732668
 21
215.4053639001242
 31
0.0
  0
SOLID
  5
5EF
330
55D
100
AcDbEntity
  8
DIM
 62
     1
100
AcDbTrace
 10
789.5625165908008
 20
215.5386972334575
 30
0.0
 11
789.5625165908008
 21
215.2720305667909
 31
0.0
 12
788.7625165908008
 22
215.4053639001242
 32
0.0
 13
788.7625165908008
 23
215.4053639001242
 33
0.0
  0
SOLID
  5
5F0
330
55D
100
AcDbEntity
  8
DIM
 62
     1
100
AcDbTrace
 10
802.7625165732668
 20
215.5386972334575
 30
0.0
 11
802.7625165732668
 21
215.2720305667909
 31
0.0
 12
803.5625165732668
 22
215.4053639001242
 32
0.0
 13
803.5625165732668
 23
215.4053639001242
 33
0.0
  0
MTEXT
  5
5F1
330
55D
100
AcDbEntity
  8
DIM
 62
     4
100
AcDbMText
 10
796.1625165820337
 20
216.1053639001242
 30
0.0
 40
1.0
 41
0.0
 46
0.0
 71
     5
 72
     1
  1
\A1;14.8
  7
Romans字体
 73
     1
 44
1.0
1001
ACAD
1000
MTEXTBEGIN
1070
    73
1070
     1
1070
    44
1040
1.0
1070
    74
1070
     0
1000
MTEXTEND
  0
POINT
  5
5F2
330
55D
100
AcDbEntity
  8
Defpoints
 62
     0
100
AcDbPoint
 10
788.7625165908008
 20
210.7626179686369
 30
0.0
  0
POINT
  5
5F3
330
55D
100
AcDbEntity
  8
Defpoints
 62
     0
100
AcDbPoint
 10
803.5625165732668
 20
211.6376178600706
 30
0.0
  0
POINT
  5
5F4
330
55D
100
AcDbEntity
  8
Defpoints
 62
     0
100
AcDbPoint
 10
803.5625165732668
 20
215.4053639001242
 30
0.0
  0
ENDBLK
  5
55F
330
55D
100
AcDbEntity
  8
0
100
AcDbBlockEnd
  0
BLOCK
  5
56A
330
569
100
AcDbEntity
  8
0
100
AcDbBlockBegin
  2
*D23
 70
     1
 10
0.0
 20
0.0
 30
0.0
  3
*D23
  1

  0
LINE
  5
5F5
330
569
100
AcDbEntity
  8
DIM
 62
     6
370
    -2
100
AcDbLine
 10
799.5625165732668
 20
211.637617968637
 30
0.0
 11
799.5625165732668
 21
213.5877743746317
 31
0.0
  0
LINE
  5
5F6
330
569
100
AcDbEntity
  8
DIM
 62
     6
370
    -2
100
AcDbLine
 10
803.5625165732668
 20
212.2154936416991
 30
0.0
 11
803.5625165732668
 21
213.5877743746317
 31
0.0
  0
LINE
  5
5F7
330
569
100
AcDbEntity
  8
DIM
 62
     1
370
    -2
100
AcDbLine
 10
800.3625165732668
 20
213.3877743746317
 30
0.0
 11
802.7625165732668
 21
213.3877743746317
 31
0.0
  0
SOLID
  5
5F8
330
569
100
AcDbEntity
  8
DIM
 62
     1
100
AcDbTrace
 10
800.3625165732668
 20
213.5211077079651
 30
0.0
 11
800.3625165732668
 21
213.2544410412984
 31
0.0
 12
799.5625165732668
 22
213.3877743746317
 32
0.0
 13
799.5625165732668
 23
213.3877743746317
 33
0.0
  0
SOLID
  5
5F9
330
569
100
AcDbEntity
  8
DIM
 62
     1
100
AcDbTrace
 10
802.7625165732668
 20
213.5211077079651
 30
0.0
 11
802.7625165732668
 21
213.2544410412984
 31
0.0
 12
803.5625165732668
 22
213.3877743746317
 32
0.0
 13
803.5625165732668
 23
213.3877743746317
 33
0.0
  0
MTEXT
  5
5FA
330
569
100
AcDbEntity
  8
DIM
 62
     4
100
AcDbMText
 10
801.5625165732668
 20
214.0877743746317
 30
0.0
 40
1.0
 41
0.0
 46
0.0
 71
     5
 72
     1
  1
\A1;4
  7
Romans字体
 73
     1
 44
1.0
1001
ACAD
1000
MTEXTBEGIN
1070
    73
1070
     1
1070
    44
1040
1.0
1070
    74
1070
     0
1000
MTEXTEND
  0
POINT
  5
5FB
330
569
100
AcDbEntity
  8
Defpoints
 62
     0
100
AcDbPoint
 10
799.5625165732668
 20
211.4376179686371
 30
0.0
  0
POINT
  5
5FC
330
569
100
AcDbEntity
  8
Defpoints
 62
     0
100
AcDbPoint
 10
803.5625165732668
 20
212.015493641699
 30
0.0
  0
POINT
  5
5FD
330
569
100
AcDbEntity
  8
Defpoints
 62
     0
100
AcDbPoint
 10
803.5625165732668
 20
213.3877743746317
 30
0.0
  0
ENDBLK
  5
56B
330
569
100
AcDbEntity
  8
0
100
AcDbBlockEnd
  0
BLOCK
  5
576
330
575
100
AcDbEntity
  8
0
100
AcDbBlockBegin
  2
*D24
 70
     1
 10
0.0
 20
0.0
 30
0.0
  3
*D24
  1

  0
LINE
  5
5FE
330
575
100
AcDbEntity
  8
DIM
 62
     6
370
    -2
100
AcDbLine
 10
803.6125165732688
 20
211.4376179686367
 30
0.0
 11
805.3337871738937
 21
211.4376179686367
 31
0.0
  0
LINE
  5
5FF
330
575
100
AcDbEntity
  8
DIM
 62
     6
370
    -2
100
AcDbLine
 10
803.6125165732688
 20
210.0876179686367
 30
0.0
 11
805.3337871738937
 21
210.0876179686367
 31
0.0
  0
LINE
  5
600
330
575
100
AcDbEntity
  8
DIM
 62
     1
370
    -2
100
AcDbLine
 10
805.1337871738937
 20
212.2376179686367
 30
0.0
 11
805.1337871738937
 21
213.0376179686367
 31
0.0
  0
LINE
  5
601
330
575
100
AcDbEntity
  8
DIM
 62
     1
370
    -2
100
AcDbLine
 10
805.1337871738937
 20
209.2876179686367
 30
0.0
 11
805.1337871738937
 21
205.1233322543509
 31
0.0
  0
SOLID
  5
602
330
575
100
AcDbEntity
  8
DIM
 62
     1
100
AcDbTrace
 10
805.0004538405604
 20
212.2376179686367
 30
0.0
 11
805.267120507227
 21
212.2376179686367
 31
0.0
 12
805.1337871738937
 22
211.4376179686367
 32
0.0
 13
805.1337871738937
 23
211.4376179686367
 33
0.0
  0
SOLID
  5
603
330
575
100
AcDbEntity
  8
DIM
 62
     1
100
AcDbTrace
 10
805.0004538405604
 20
209.2876179686367
 30
0.0
 11
805.267120507227
 21
209.2876179686367
 31
0.0
 12
805.1337871738937
 22
210.0876179686367
 32
0.0
 13
805.1337871738937
 23
210.0876179686367
 33
0.0
  0
MTEXT
  5
604
330
575
100
AcDbEntity
  8
DIM
 62
     4
100
AcDbMText
 10
804.4337871738937
 20
206.8054751114939
 30
0.0
 40
1.0
 41
0.0
 46
0.0
 71
     5
 72
     1
  1
\A1;%%C1.35
  7
Romans字体
 11
0.0000000000000001
 21
1.0
 31
0.0
 73
     1
 44
1.0
1001
ACAD
1000
MTEXTBEGIN
1070
    73
1070
     1
1070
    44
1040
1.0
1070
    74
1070
     0
1000
MTEXTEND
  0
POINT
  5
605
330
575
100
AcDbEntity
  8
Defpoints
 62
     0
100
AcDbPoint
 10
803.4125165732687
 20
211.4376179686367
 30
0.0
  0
POINT
  5
606
330
575
100
AcDbEntity
  8
Defpoints
 62
     0
100
AcDbPoint
 10
803.4125165732687
 20
210.0876179686367
 30
0.0
  0
POINT
  5
607
330
575
100
AcDbEntity
  8
Defpoints
 62
     0
100
AcDbPoint
 10
805.1337871738937
 20
210.0876179686367
 30
0.0
  0
ENDBLK
  5
577
330
575
100
AcDbEntity
  8
0
100
AcDbBlockEnd
  0
BLOCK
  5
583
330
582
100
AcDbEntity
  8
0
100
AcDbBlockBegin
  2
*D25
 70
     1
 10
0.0
 20
0.0
 30
0.0
  3
*D25
  1

  0
LINE
  5
608
330
582
100
AcDbEntity
  8
DIM
 62
     6
370
    -2
100
AcDbLine
 10
788.7625165908008
 20
212.5133882715385
 30
0.0
 11
788.7625165908008
 21
213.5877743746317
 31
0.0
  0
LINE
  5
609
330
582
100
AcDbEntity
  8
DIM
 62
     6
370
    -2
100
AcDbLine
 10
796.9625165907995
 20
211.712617968636
 30
0.0
 11
796.9625165907995
 21
213.5877743746317
 31
0.0
  0
LINE
  5
60A
330
582
100
AcDbEntity
  8
DIM
 62
     1
370
    -2
100
AcDbLine
 10
789.5625165908008
 20
213.3877743746317
 30
0.0
 11
796.1625165907997
 21
213.3877743746317
 31
0.0
  0
SOLID
  5
60B
330
582
100
AcDbEntity
  8
DIM
 62
     1
100
AcDbTrace
 10
789.5625165908008
 20
213.5211077079651
 30
0.0
 11
789.5625165908008
 21
213.2544410412984
 31
0.0
 12
788.7625165908008
 22
213.3877743746317
 32
0.0
 13
788.7625165908008
 23
213.3877743746317
 33
0.0
  0
SOLID
  5
60C
330
582
100
AcDbEntity
  8
DIM
 62
     1
100
AcDbTrace
 10
796.1625165907997
 20
213.5211077079651
 30
0.0
 11
796.1625165907997
 21
213.2544410412984
 31
0.0
 12
796.9625165907995
 22
213.3877743746317
 32
0.0
 13
796.9625165907995
 23
213.3877743746317
 33
0.0
  0
MTEXT
  5
60D
330
582
100
AcDbEntity
  8
DIM
 62
     4
100
AcDbMText
 10
792.8625165908003
 20
214.0877743746317
 30
0.0
 40
1.0
 41
0.0
 46
0.0
 71
     5
 72
     1
  1
\A1;8.23
  7
Romans字体
 73
     1
 44
1.0
1001
ACAD
1000
MTEXTBEGIN
1070
    73
1070
     1
1070
    44
1040
1.0
1070
    74
1070
     0
1000
MTEXTEND
  0
POINT
  5
60E
330
582
100
AcDbEntity
  8
Defpoints
 62
     0
100
AcDbPoint
 10
788.7625165908008
 20
212.3133882715385
 30
0.0
  0
POINT
  5
60F
330
582
100
AcDbEntity
  8
Defpoints
 62
     0
100
AcDbPoint
 10
796.9625165907995
 20
211.512617968636
 30
0.0
  0
POINT
  5
610
330
582
100
AcDbEntity
  8
Defpoints
 62
     0
100
AcDbPoint
 10
796.9625165907995
 20
213.3877743746317
 30
0.0
  0
ENDBLK
  5
584
330
582
100
AcDbEntity
  8
0
100
AcDbBlockEnd
  0
ENDSEC
  0
SECTION
  2
ENTITIES
  0
HATCH
  5
16
330
2
100
AcDbEntity
  8
图层 1
 62
     7
100
AcDbHatch
 10
0.0
 20
0.0
 30
0.0
210
0.0
220
0.0
230
1.0
  2
SOLID
 70
     1
 71
     0
 91
        1
 92
        1
 93
        2
 72
     4
 94
        3
 73
     0
 74
     0
 95
       17
 96
       13
 40
0.0
 40
0.0
 40
0.0
 40
0.0
 40
0.3527780104152769
 40
0.3527780104152769
 40
0.3527780104152769
 40
0.7055560208305538
 40
0.7055560208305538
 40
0.7055560208305538
 40
1.058334031245828
 40
1.058334031245828
 40
1.058334031245828
 40
1.411112041661104
 40
1.411112041661104
 40
1.411112041661104
 40
1.411112041661104
 10
11.07013262565829
 20
29.50312817963231
 10
11.07013262565829
 20
29.50312817963231
 10
10.9431807732774
 20
29.50312817963231
 10
10.9431807732774
 20
29.50312817963231
 10
10.9431807732774
 20
29.50312817963231
 10
10.85843136843155
 20
29.22786486877117
 10
10.85843136843155
 20
29.22786486877117
 10
10.85843136843155
 20
29.22786486877117
 10
10.90080607085448
 20
29.2068497724476
 10
10.90080607085448
 20
29.2068497724476
 10
10.94455881238059
 20
29.31571486159919
 10
11.00346998404173
 20
29.40907701083995
 10
11.07013262565829
 20
29.50312817963231
 72
     1
 10
11.07013262565829
 20
29.50312817963231
 11
11.07013262565829
 21
29.50312817963231
 97
        0
 75
     0
 76
     1
 98
        0
450
        0
451
        0
460
0.0
461
0.0
452
        0
462
0.0
453
        0
470

  0
HATCH
  5
1A
330
2
100
AcDbEntity
  8
图层 1
 62
     7
100
AcDbHatch
 10
0.0
 20
0.0
 30
0.0
210
0.0
220
0.0
230
1.0
  2
SOLID
 70
     1
 71
     0
 91
        1
 92
        1
 93
        2
 72
     4
 94
        3
 73
     0
 74
     0
 95
       47
 96
       43
 40
0.0
 40
0.0
 40
0.0
 40
0.0
 40
0.3527780104152769
 40
0.3527780104152769
 40
0.3527780104152769
 40
0.7055560208305538
 40
0.7055560208305538
 40
0.7055560208305538
 40
1.058334031245828
 40
1.058334031245828
 40
1.058334031245828
 40
1.411112041661104
 40
1.411112041661104
 40
1.411112041661104
 40
1.763890052076384
 40
1.763890052076384
 40
1.763890052076384
 40
2.116668062491659
 40
2.116668062491659
 40
2.116668062491659
 40
2.469446072906936
 40
2.469446072906936
 40
2.469446072906936
 40
2.822224083322215
 40
2.822224083322215
 40
2.822224083322215
 40
3.175002093737492
 40
3.175002093737492
 40
3.175002093737492
 40
3.527780104152768
 40
3.527780104152768
 40
3.527780104152768
 40
3.880558114568044
 40
3.880558114568044
 40
3.880558114568044
 40
4.233336124983321
 40
4.233336124983321
 40
4.233336124983321
 40
4.586114135398599
 40
4.586114135398599
 40
4.586114135398599
 40
4.938892145813873
 40
4.938892145813873
 40
4.938892145813873
 40
4.938892145813873
 10
162.8986914070121
 20
257.4895347631509
 10
162.8986914070121
 20
257.4895347631509
 10
162.9200510131114
 20
257.4471600607279
 10
162.9200510131114
 20
257.4471600607279
 10
162.9200510131114
 20
257.4471600607279
 10
162.9200510131114
 20
257.404785358305
 10
162.9200510131114
 20
257.404785358305
 10
162.9200510131114
 20
257.404785358305
 10
162.8986914070121
 20
257.36258291077
 10
162.8986914070121
 20
257.36258291077
 10
162.8986914070121
 20
257.36258291077
 10
162.8986914070121
 20
257.320208208347
 10
162.8986914070121
 20
257.320208208347
 10
162.8986914070121
 20
257.320208208347
 10
162.8563167045891
 20
257.2990208571356
 10
162.8563167045891
 20
257.2990208571356
 10
162.8563167045891
 20
257.2990208571356
 10
162.8139420021662
 20
257.2563016449369
 10
162.8139420021662
 20
257.2563016449369
 10
162.8139420021662
 20
257.2563016449369
 10
162.7295371070961
 20
257.2563016449369
 10
162.7295371070961
 20
257.2563016449369
 10
162.7295371070961
 20
257.2563016449369
 10
162.6658027985738
 20
257.2778335059241
 10
162.6658027985738
 20
257.2778335059241
 10
162.6658027985738
 20
257.2778335059241
 10
162.6237726059267
 20
257.2990208571356
 10
162.6237726059267
 20
257.2990208571356
 10
162.6237726059267
 20
257.2990208571356
 10
162.5813979035038
 20
257.3413955595585
 10
162.5813979035038
 20
257.3413955595585
 10
162.5813979035038
 20
257.3413955595585
 10
162.5813979035038
 20
257.4895347631509
 10
162.5813979035038
 20
257.4895347631509
 10
162.5813979035038
 20
257.4895347631509
 10
162.6447877022503
 20
257.5525800521216
 10
162.6447877022503
 20
257.5525800521216
 10
162.6447877022503
 20
257.5525800521216
 10
162.7081775009967
 20
257.5525800521216
 10
162.7081775009967
 20
257.5525800521216
 10
162.8749202324821
 20
257.5424170137356
 10
162.7918933765152
 20
257.5939212252171
 10
162.8986914070121
 20
257.4895347631509
 72
     1
 10
162.8986914070121
 20
257.4895347631509
 11
162.8986914070121
 21
257.4895347631509
 97
        0
 75
     0
 76
     1
 98
        0
450
        0
451
        0
460
0.0
461
0.0
452
        0
462
0.0
453
        0
470

  0
HATCH
  5
1B
330
2
100
AcDbEntity
  8
图层 1
 62
     7
100
AcDbHatch
 10
0.0
 20
0.0
 30
0.0
210
0.0
220
0.0
230
1.0
  2
SOLID
 70
     1
 71
     0
 91
        1
 92
        1
 93
        2
 72
     4
 94
        3
 73
     0
 74
     0
 95
       56
 96
       52
 40
0.0
 40
0.0
 40
0.0
 40
0.0
 40
0.3527780104152769
 40
0.3527780104152769
 40
0.3527780104152769
 40
0.7055560208305538
 40
0.7055560208305538
 40
0.7055560208305538
 40
1.058334031245828
 40
1.058334031245828
 40
1.058334031245828
 40
1.411112041661104
 40
1.411112041661104
 40
1.411112041661104
 40
1.763890052076384
 40
1.763890052076384
 40
1.763890052076384
 40
2.116668062491659
 40
2.116668062491659
 40
2.116668062491659
 40
2.469446072906936
 40
2.469446072906936
 40
2.469446072906936
 40
2.822224083322215
 40
2.822224083322215
 40
2.822224083322215
 40
3.175002093737492
 40
3.175002093737492
 40
3.175002093737492
 40
3.527780104152768
 40
3.527780104152768
 40
3.527780104152768
 40
3.880558114568044
 40
3.880558114568044
 40
3.880558114568044
 40
4.233336124983321
 40
4.233336124983321
 40
4.233336124983321
 40
4.586114135398599
 40
4.586114135398599
 40
4.586114135398599
 40
4.938892145813873
 40
4.938892145813873
 40
4.938892145813873
 40
5.291670156229153
 40
5.291670156229153
 40
5.291670156229153
 40
5.64444816664443
 40
5.64444816664443
 40
5.64444816664443
 40
5.997226177059705
 40
5.997226177059705
 40
5.997226177059705
 40
5.997226177059705
 10
185.4837187788815
 20
241.4451977396596
 10
185.4837187788815
 20
241.4451977396596
 10
185.4837187788815
 20
241.4028230372367
 10
185.4837187788815
 20
241.4028230372367
 10
185.4837187788815
 20
241.4028230372367
 10
185.5047338752051
 20
241.3604483348137
 10
185.5047338752051
 20
241.3604483348137
 10
185.4520238795082
 20
241.2782827532863
 10
185.4671823096433
 20
241.1897437409066
 10
185.335579575289
 20
241.2119646214456
 10
185.335579575289
 20
241.2119646214456
 10
185.2932048728662
 20
241.2119646214456
 10
185.2932048728662
 20
241.2119646214456
 10
185.2932048728662
 20
241.2119646214456
 10
185.2294705643439
 20
241.2334964824328
 10
185.2294705643439
 20
241.2334964824328
 10
185.2294705643439
 20
241.2334964824328
 10
185.1660807655974
 20
241.2543393238685
 10
185.1660807655974
 20
241.2543393238685
 10
185.1660807655974
 20
241.2543393238685
 10
185.1450656692739
 20
241.2758711848558
 10
185.1450656692739
 20
241.2758711848558
 10
185.1450656692739
 20
241.2758711848558
 10
185.1450656692739
 20
241.2967140262914
 10
185.1450656692739
 20
241.2967140262914
 10
185.1450656692739
 20
241.2967140262914
 10
185.1237060631745
 20
241.3604483348137
 10
185.1237060631745
 20
241.3604483348137
 10
185.1237060631745
 20
241.3604483348137
 10
185.1237060631745
 20
241.4028230372367
 10
185.1237060631745
 20
241.4028230372367
 10
185.1237060631745
 20
241.4028230372367
 10
185.1660807655974
 20
241.4875724420825
 10
185.1660807655974
 20
241.4875724420825
 10
185.1660807655974
 20
241.4875724420825
 10
185.2084554680203
 20
241.5085875384061
 10
185.2084554680203
 20
241.5085875384061
 10
185.2084554680203
 20
241.5085875384061
 10
185.2718452667668
 20
241.5297748896175
 10
185.2718452667668
 20
241.5297748896175
 10
185.2718452667668
 20
241.5297748896175
 10
185.3565946716127
 20
241.5297748896175
 10
185.3565946716127
 20
241.5297748896175
 10
185.3565946716127
 20
241.5297748896175
 10
185.4199844703592
 20
241.5085875384061
 10
185.4199844703592
 20
241.5085875384061
 10
185.4199844703592
 20
241.5085875384061
 10
185.4623591727821
 20
241.4875724420825
 10
185.4623591727821
 20
241.4875724420825
 10
185.4623591727821
 20
241.4875724420825
 10
185.4837187788815
 20
241.4451977396596
 10
185.4837187788815
 20
241.4451977396596
 72
     1
 10
185.4837187788815
 20
241.4451977396596
 11
185.4837187788815
 21
241.4451977396596
 97
        0
 75
     0
 76
     1
 98
        0
450
        0
451
        0
460
0.0
461
0.0
452
        0
462
0.0
453
        0
470

  0
HATCH
  5
1C
330
2
100
AcDbEntity
  8
图层 1
 62
     7
100
AcDbHatch
 10
0.0
 20
0.0
 30
0.0
210
0.0
220
0.0
230
1.0
  2
SOLID
 70
     1
 71
     0
 91
        1
 92
        1
 93
        2
 72
     4
 94
        3
 73
     0
 74
     0
 95
       38
 96
       34
 40
0.0
 40
0.0
 40
0.0
 40
0.0
 40
0.3527780104152769
 40
0.3527780104152769
 40
0.3527780104152769
 40
0.7055560208305538
 40
0.7055560208305538
 40
0.7055560208305538
 40
1.058334031245828
 40
1.058334031245828
 40
1.058334031245828
 40
1.411112041661104
 40
1.411112041661104
 40
1.411112041661104
 40
1.763890052076384
 40
1.763890052076384
 40
1.763890052076384
 40
2.116668062491659
 40
2.116668062491659
 40
2.116668062491659
 40
2.469446072906936
 40
2.469446072906936
 40
2.469446072906936
 40
2.822224083322215
 40
2.822224083322215
 40
2.822224083322215
 40
3.175002093737492
 40
3.175002093737492
 40
3.175002093737492
 40
3.527780104152768
 40
3.527780104152768
 40
3.527780104152768
 40
3.880558114568044
 40
3.880558114568044
 40
3.880558114568044
 40
3.880558114568044
 10
185.907121293335
 20
220.1937677098971
 10
185.9005756075949
 20
220.0449394867532
 10
185.9329595265197
 20
220.1136691870245
 10
185.864746590912
 20
219.9817219428946
 10
185.864746590912
 20
219.9817219428946
 10
185.822371888489
 20
219.9605345916831
 10
185.822371888489
 20
219.9605345916831
 10
185.822371888489
 20
219.9605345916831
 10
185.6528730787974
 20
219.9605345916831
 10
185.6528730787974
 20
219.9605345916831
 10
185.6528730787974
 20
219.9605345916831
 10
185.5894832800509
 20
220.002909294106
 10
185.5894832800509
 20
220.002909294106
 10
185.5894832800509
 20
220.002909294106
 10
185.5681236739515
 20
220.0240966453175
 10
185.5681236739515
 20
220.0240966453175
 10
185.5681236739515
 20
220.0240966453175
 10
185.5681236739515
 20
220.045283996529
 10
185.5681236739515
 20
220.045283996529
 10
185.5681236739515
 20
220.045283996529
 10
185.547108577628
 20
220.0876586989519
 10
185.547108577628
 20
220.0876586989519
 10
185.547108577628
 20
220.0876586989519
 10
185.547108577628
 20
220.1513930074742
 10
185.547108577628
 20
220.1513930074742
 10
185.547108577628
 20
220.1513930074742
 10
185.5894832800509
 20
220.23614241232
 10
185.5894832800509
 20
220.23614241232
 10
185.5894832800509
 20
220.23614241232
 10
185.6318579824738
 20
220.2573297635315
 10
185.6318579824738
 20
220.2573297635315
 10
185.7055830744942
 20
220.2566407439799
 10
185.8416644359337
 20
220.3310548555519
 10
185.907121293335
 20
220.1937677098971
 72
     1
 10
185.907121293335
 20
220.1937677098971
 11
185.907121293335
 21
220.1937677098971
 97
        0
 75
     0
 76
     1
 98
        0
450
        0
451
        0
460
0.0
461
0.0
452
        0
462
0.0
453
        0
470

  0
HATCH
  5
1D
330
2
100
AcDbEntity
  8
图层 1
 62
     7
100
AcDbHatch
 10
0.0
 20
0.0
 30
0.0
210
0.0
220
0.0
230
1.0
  2
SOLID
 70
     1
 71
     0
 91
        1
 92
        1
 93
        2
 72
     4
 94
        3
 73
     0
 74
     0
 95
       50
 96
       46
 40
0.0
 40
0.0
 40
0.0
 40
0.0
 40
0.3527780104152769
 40
0.3527780104152769
 40
0.3527780104152769
 40
0.7055560208305538
 40
0.7055560208305538
 40
0.7055560208305538
 40
1.058334031245828
 40
1.058334031245828
 40
1.058334031245828
 40
1.411112041661104
 40
1.411112041661104
 40
1.411112041661104
 40
1.763890052076384
 40
1.763890052076384
 40
1.763890052076384
 40
2.116668062491659
 40
2.116668062491659
 40
2.116668062491659
 40
2.469446072906936
 40
2.469446072906936
 40
2.469446072906936
 40
2.822224083322215
 40
2.822224083322215
 40
2.822224083322215
 40
3.175002093737492
 40
3.175002093737492
 40
3.175002093737492
 40
3.527780104152768
 40
3.527780104152768
 40
3.527780104152768
 40
3.880558114568044
 40
3.880558114568044
 40
3.880558114568044
 40
4.233336124983321
 40
4.233336124983321
 40
4.233336124983321
 40
4.586114135398599
 40
4.586114135398599
 40
4.586114135398599
 40
4.938892145813873
 40
4.938892145813873
 40
4.938892145813873
 40
5.291670156229153
 40
5.291670156229153
 40
5.291670156229153
 40
5.291670156229153
 10
180.9117295442905
 20
208.9327766684477
 10
180.9117295442905
 20
208.9327766684477
 10
180.9117295442905
 20
208.7637946234197
 10
180.9117295442905
 20
208.7637946234197
 10
181.2273004989198
 20
208.6749111012643
 10
181.3833634273555
 20
208.6776671794706
 10
181.6948002646751
 20
208.5097186637701
 10
181.9542161258496
 20
208.4294478860095
 10
182.1388733656765
 20
208.2134402565853
 10
182.3297317814676
 20
208.02292635057
 10
182.3297317814676
 20
208.02292635057
 10
182.435496282637
 20
208.065301052993
 10
182.435496282637
 20
208.065301052993
 10
182.288390608372
 20
208.2733849575739
 10
182.3752070718726
 20
208.2134402565853
 10
182.1605774815516
 20
208.3824223016133
 10
182.1605774815516
 20
208.3824223016133
 10
182.1182027791287
 20
208.4247970040363
 10
182.1182027791287
 20
208.4247970040363
 10
182.1182027791287
 20
208.4247970040363
 10
182.0968431730294
 20
208.467516216235
 10
182.0968431730294
 20
208.467516216235
 10
182.0968431730294
 20
208.467516216235
 10
182.0544684706064
 20
208.4883590576707
 10
182.0544684706064
 20
208.4883590576707
 10
182.0544684706064
 20
208.4883590576707
 10
181.9910786718599
 20
208.5305615052057
 10
181.9910786718599
 20
208.5305615052057
 10
181.9910786718599
 20
208.5305615052057
 10
181.948703969437
 20
208.552093366193
 10
181.948703969437
 20
208.552093366193
 10
181.948703969437
 20
208.552093366193
 10
181.9063292670141
 20
208.5729362076286
 10
181.9063292670141
 20
208.5729362076286
 10
181.9063292670141
 20
208.5729362076286
 10
181.8639545645911
 20
208.6156554198274
 10
181.8639545645911
 20
208.6156554198274
 10
181.8639545645911
 20
208.6156554198274
 10
181.821924371944
 20
208.6368427710388
 10
181.821924371944
 20
208.6368427710388
 10
181.6637943848536
 20
208.6742220817127
 10
181.5452830219797
 20
208.8092699138248
 10
181.3771622513911
 20
208.8061693258427
 10
181.2803550043924
 20
208.8573290275484
 10
181.0126709085988
 20
208.8971199066528
 10
180.9117295442905
 20
208.9327766684477
 72
     1
 10
180.9117295442905
 20
208.9327766684477
 11
180.9117295442905
 21
208.9327766684477
 97
        0
 75
     0
 76
     1
 98
        0
450
        0
451
        0
460
0.0
461
0.0
452
        0
462
0.0
453
        0
470

  0
HATCH
  5
1E
330
2
100
AcDbEntity
  8
图层 1
 62
     7
100
AcDbHatch
 10
0.0
 20
0.0
 30
0.0
210
0.0
220
0.0
230
1.0
  2
SOLID
 70
     1
 71
     0
 91
        1
 92
        1
 93
        2
 72
     4
 94
        3
 73
     0
 74
     0
 95
       38
 96
       34
 40
0.0
 40
0.0
 40
0.0
 40
0.0
 40
0.3527780104152769
 40
0.3527780104152769
 40
0.3527780104152769
 40
0.7055560208305538
 40
0.7055560208305538
 40
0.7055560208305538
 40
1.058334031245828
 40
1.058334031245828
 40
1.058334031245828
 40
1.411112041661104
 40
1.411112041661104
 40
1.411112041661104
 40
1.763890052076384
 40
1.763890052076384
 40
1.763890052076384
 40
2.116668062491659
 40
2.116668062491659
 40
2.116668062491659
 40
2.469446072906936
 40
2.469446072906936
 40
2.469446072906936
 40
2.822224083322215
 40
2.822224083322215
 40
2.822224083322215
 40
3.175002093737492
 40
3.175002093737492
 40
3.175002093737492
 40
3.527780104152768
 40
3.527780104152768
 40
3.527780104152768
 40
3.880558114568044
 40
3.880558114568044
 40
3.880558114568044
 40
3.880558114568044
 10
189.145513185819
 20
166.8326485368285
 10
189.207869455238
 20
166.740492171803
 10
189.1317327947871
 20
166.6833035490209
 10
189.103138483396
 20
166.6209472796017
 10
189.103138483396
 20
166.6209472796017
 10
189.0607637809731
 20
166.5997599283903
 10
189.0607637809731
 20
166.5997599283903
 10
189.0607637809731
 20
166.5997599283903
 10
188.9973739822266
 20
166.5785725771788
 10
188.9973739822266
 20
166.5785725771788
 10
188.9973739822266
 20
166.5785725771788
 10
188.9549992798037
 20
166.5997599283903
 10
188.9549992798037
 20
166.5997599283903
 10
188.9549992798037
 20
166.5997599283903
 10
188.8916094810572
 20
166.5997599283903
 10
188.8916094810572
 20
166.5997599283903
 10
188.8916094810572
 20
166.5997599283903
 10
188.8492347786343
 20
166.6209472796017
 10
188.8492347786343
 20
166.6209472796017
 10
188.8492347786343
 20
166.6209472796017
 10
188.8278751725349
 20
166.6633219820247
 10
188.8278751725349
 20
166.6633219820247
 10
188.8278751725349
 20
166.6633219820247
 10
188.8068600762114
 20
166.6845093332361
 10
188.8068600762114
 20
166.6845093332361
 10
188.8068600762114
 20
166.6845093332361
 10
188.8068600762114
 20
166.8326485368285
 10
188.8068600762114
 20
166.8326485368285
 10
188.8068600762114
 20
166.8326485368285
 10
188.8702498749578
 20
166.896038335575
 10
188.8702498749578
 20
166.896038335575
 10
189.0228677056355
 20
166.8819134347673
 10
189.0686875058164
 20
166.9411691162043
 10
189.145513185819
 20
166.8326485368285
 72
     1
 10
189.145513185819
 20
166.8326485368285
 11
189.145513185819
 21
166.8326485368285
 97
        0
 75
     0
 76
     1
 98
        0
450
        0
451
        0
460
0.0
461
0.0
452
        0
462
0.0
453
        0
470

  0
HATCH
  5
1F
330
2
100
AcDbEntity
  8
图层 1
 62
     7
100
AcDbHatch
 10
0.0
 20
0.0
 30
0.0
210
0.0
220
0.0
230
1.0
  2
SOLID
 70
     1
 71
     0
 91
        1
 92
        1
 93
        2
 72
     4
 94
        3
 73
     0
 74
     0
 95
       68
 96
       64
 40
0.0
 40
0.0
 40
0.0
 40
0.0
 40
0.3527780104152769
 40
0.3527780104152769
 40
0.3527780104152769
 40
0.7055560208305538
 40
0.7055560208305538
 40
0.7055560208305538
 40
1.058334031245828
 40
1.058334031245828
 40
1.058334031245828
 40
1.411112041661104
 40
1.411112041661104
 40
1.411112041661104
 40
1.763890052076384
 40
1.763890052076384
 40
1.763890052076384
 40
2.116668062491659
 40
2.116668062491659
 40
2.116668062491659
 40
2.469446072906936
 40
2.469446072906936
 40
2.469446072906936
 40
2.822224083322215
 40
2.822224083322215
 40
2.822224083322215
 40
3.175002093737492
 40
3.175002093737492
 40
3.175002093737492
 40
3.527780104152768
 40
3.527780104152768
 40
3.527780104152768
 40
3.880558114568044
 40
3.880558114568044
 40
3.880558114568044
 40
4.233336124983321
 40
4.233336124983321
 40
4.233336124983321
 40
4.586114135398599
 40
4.586114135398599
 40
4.586114135398599
 40
4.938892145813873
 40
4.938892145813873
 40
4.938892145813873
 40
5.291670156229153
 40
5.291670156229153
 40
5.291670156229153
 40
5.64444816664443
 40
5.64444816664443
 40
5.64444816664443
 40
5.997226177059705
 40
5.997226177059705
 40
5.997226177059705
 40
6.350004187474984
 40
6.350004187474984
 40
6.350004187474984
 40
6.702782197890257
 40
6.702782197890257
 40
6.702782197890257
 40
7.055560208305537
 40
7.055560208305537
 40
7.055560208305537
 40
7.408338218720808
 40
7.408338218720808
 40
7.408338218720808
 40
7.408338218720808
 10
174.7732543591544
 20
135.4846705078077
 10
174.7732543591544
 20
135.4846705078077
 10
174.7732543591544
 20
135.3789060066383
 10
174.7732543591544
 20
135.3789060066383
 10
174.7732543591544
 20
135.3789060066383
 10
174.8156290615773
 20
135.3789060066383
 10
174.8156290615773
 20
135.3789060066383
 10
174.8156290615773
 20
135.3789060066383
 10
174.8580037640002
 20
135.3578909103147
 10
174.8580037640002
 20
135.3578909103147
 10
174.8580037640002
 20
135.3578909103147
 10
174.9213935627468
 20
135.3578909103147
 10
174.9213935627468
 20
135.3578909103147
 10
174.9213935627468
 20
135.3578909103147
 10
174.9637682651697
 20
135.3365313042154
 10
174.9637682651697
 20
135.3365313042154
 10
174.9637682651697
 20
135.3365313042154
 10
174.9847833614933
 20
135.3365313042154
 10
174.9847833614933
 20
135.3365313042154
 10
174.9847833614933
 20
135.3365313042154
 10
175.0271580639162
 20
135.3155162078918
 10
175.0271580639162
 20
135.3155162078918
 10
175.0271580639162
 20
135.3155162078918
 10
175.0485176700155
 20
135.2941566017924
 10
175.0485176700155
 20
135.2941566017924
 10
175.0485176700155
 20
135.2941566017924
 10
175.0695327663391
 20
135.2941566017924
 10
175.0695327663391
 20
135.2941566017924
 10
175.0695327663391
 20
135.2941566017924
 10
175.0908923724385
 20
135.2731415054689
 10
175.0908923724385
 20
135.2731415054689
 10
175.0908923724385
 20
135.2731415054689
 10
175.1332670748614
 20
135.2731415054689
 10
175.1332670748614
 20
135.2731415054689
 10
175.1332670748614
 20
135.2731415054689
 10
175.154282171185
 20
135.2517818993695
 10
175.154282171185
 20
135.2517818993695
 10
175.154282171185
 20
135.2517818993695
 10
175.154282171185
 20
135.3578909103147
 10
175.154282171185
 20
135.3578909103147
 10
175.154282171185
 20
135.3578909103147
 10
175.1332670748614
 20
135.3789060066383
 10
175.1332670748614
 20
135.3789060066383
 10
175.1332670748614
 20
135.3789060066383
 10
175.0908923724385
 20
135.3789060066383
 10
175.0908923724385
 20
135.3789060066383
 10
175.0908923724385
 20
135.3789060066383
 10
175.0908923724385
 20
135.3999211029619
 10
175.0908923724385
 20
135.3999211029619
 10
175.0908923724385
 20
135.3999211029619
 10
175.0695327663391
 20
135.3999211029619
 10
175.0695327663391
 20
135.3999211029619
 10
175.0695327663391
 20
135.3999211029619
 10
175.0271580639162
 20
135.4212807090612
 10
175.0271580639162
 20
135.4212807090612
 10
175.0271580639162
 20
135.4212807090612
 10
175.0061429675926
 20
135.4212807090612
 10
175.0061429675926
 20
135.4212807090612
 10
175.0061429675926
 20
135.4212807090612
 10
174.9637682651697
 20
135.4422958053848
 10
174.9637682651697
 20
135.4422958053848
 10
174.8996894468716
 20
135.4498750204523
 10
174.8394002361073
 20
135.4860485469109
 10
174.7732543591544
 20
135.4846705078077
 72
     1
 10
174.7732543591544
 20
135.4846705078077
 11
174.7732543591544
 21
135.4846705078077
 97
        0
 75
     0
 76
     1
 98
        0
450
        0
451
        0
460
0.0
461
0.0
452
        0
462
0.0
453
        0
470

  0
HATCH
  5
20
330
2
100
AcDbEntity
  8
图层 1
 62
     7
100
AcDbHatch
 10
0.0
 20
0.0
 30
0.0
210
0.0
220
0.0
230
1.0
  2
SOLID
 70
     1
 71
     0
 91
        1
 92
        1
 93
        2
 72
     4
 94
        3
 73
     0
 74
     0
 95
       29
 96
       25
 40
0.0
 40
0.0
 40
0.0
 40
0.0
 40
0.3527780104152769
 40
0.3527780104152769
 40
0.3527780104152769
 40
0.7055560208305538
 40
0.7055560208305538
 40
0.7055560208305538
 40
1.058334031245828
 40
1.058334031245828
 40
1.058334031245828
 40
1.411112041661104
 40
1.411112041661104
 40
1.411112041661104
 40
1.763890052076384
 40
1.763890052076384
 40
1.763890052076384
 40
2.116668062491659
 40
2.116668062491659
 40
2.116668062491659
 40
2.469446072906936
 40
2.469446072906936
 40
2.469446072906936
 40
2.822224083322215
 40
2.822224083322215
 40
2.822224083322215
 40
2.822224083322215
 10
175.4929352807925
 20
164.0174869039101
 10
175.4929352807925
 20
164.0174869039101
 10
175.5139503771161
 20
163.9751122014871
 10
175.5139503771161
 20
163.9751122014871
 10
175.5139503771161
 20
163.9751122014871
 10
175.5139503771161
 20
163.9327374990642
 10
175.5139503771161
 20
163.9327374990642
 10
175.5139503771161
 20
163.9327374990642
 10
175.4929352807925
 20
163.8903627966413
 10
175.4929352807925
 20
163.8903627966413
 10
175.4929352807925
 20
163.8903627966413
 10
175.471920184469
 20
163.8691754454298
 10
175.471920184469
 20
163.8691754454298
 10
175.471920184469
 20
163.8691754454298
 10
175.4505605783696
 20
163.8269729978948
 10
175.4505605783696
 20
163.8269729978948
 10
175.3571984291289
 20
163.7715069239916
 10
175.272449024283
 20
163.8195660377152
 10
175.1966568736079
 20
163.8691754454298
 10
175.208370205985
 20
163.9930267098286
 10
175.1563492298397
 20
164.0216210212197
 10
175.2600466723544
 20
164.0596893514451
 10
175.3330827448232
 20
164.1094710140476
 10
175.4357466580104
 20
164.0753645462439
 10
175.4929352807925
 20
164.0174869039101
 72
     1
 10
175.4929352807925
 20
164.0174869039101
 11
175.4929352807925
 21
164.0174869039101
 97
        0
 75
     0
 76
     1
 98
        0
450
        0
451
        0
460
0.0
461
0.0
452
        0
462
0.0
453
        0
470

  0
HATCH
  5
21
330
2
100
AcDbEntity
  8
图层 1
 62
     7
100
AcDbHatch
 10
0.0
 20
0.0
 30
0.0
210
0.0
220
0.0
230
1.0
  2
SOLID
 70
     1
 71
     0
 91
        1
 92
        1
 93
        2
 72
     4
 94
        3
 73
     0
 74
     0
 95
       11
 96
        7
 40
0.0
 40
0.0
 40
0.0
 40
0.0
 40
0.3527780104152769
 40
0.3527780104152769
 40
0.3527780104152769
 40
0.7055560208305538
 40
0.7055560208305538
 40
0.7055560208305538
 40
0.7055560208305538
 10
174.9213935627468
 20
174.5369206529582
 10
174.9213935627468
 20
174.5369206529582
 10
174.9213935627468
 20
174.3043765542958
 10
174.9213935627468
 20
174.3043765542958
 10
174.9213935627468
 20
174.3043765542958
 10
174.9213935627468
 20
174.5369206529582
 10
174.9213935627468
 20
174.5369206529582
 72
     1
 10
174.9213935627468
 20
174.5369206529582
 11
174.9213935627468
 21
174.5369206529582
 97
        0
 75
     0
 76
     1
 98
        0
450
        0
451
        0
460
0.0
461
0.0
452
        0
462
0.0
453
        0
470

  0
HATCH
  5
22
330
2
100
AcDbEntity
  8
图层 1
 62
     7
100
AcDbHatch
 10
0.0
 20
0.0
 30
0.0
210
0.0
220
0.0
230
1.0
  2
SOLID
 70
     1
 71
     0
 91
        1
 92
        1
 93
        2
 72
     4
 94
        3
 73
     0
 74
     0
 95
      131
 96
      127
 40
0.0
 40
0.0
 40
0.0
 40
0.0
 40
0.3527780104152769
 40
0.3527780104152769
 40
0.3527780104152769
 40
0.7055560208305538
 40
0.7055560208305538
 40
0.7055560208305538
 40
1.058334031245828
 40
1.058334031245828
 40
1.058334031245828
 40
1.411112041661104
 40
1.411112041661104
 40
1.411112041661104
 40
1.763890052076384
 40
1.763890052076384
 40
1.763890052076384
 40
2.116668062491659
 40
2.116668062491659
 40
2.116668062491659
 40
2.469446072906936
 40
2.469446072906936
 40
2.469446072906936
 40
2.822224083322215
 40
2.822224083322215
 40
2.822224083322215
 40
3.175002093737492
 40
3.175002093737492
 40
3.175002093737492
 40
3.527780104152768
 40
3.527780104152768
 40
3.527780104152768
 40
3.880558114568044
 40
3.880558114568044
 40
3.880558114568044
 40
4.233336124983321
 40
4.233336124983321
 40
4.233336124983321
 40
4.586114135398599
 40
4.586114135398599
 40
4.586114135398599
 40
4.938892145813873
 40
4.938892145813873
 40
4.938892145813873
 40
5.291670156229153
 40
5.291670156229153
 40
5.291670156229153
 40
5.64444816664443
 40
5.64444816664443
 40
5.64444816664443
 40
5.997226177059705
 40
5.997226177059705
 40
5.997226177059705
 40
6.350004187474984
 40
6.350004187474984
 40
6.350004187474984
 40
6.702782197890257
 40
6.702782197890257
 40
6.702782197890257
 40
7.055560208305537
 40
7.055560208305537
 40
7.055560208305537
 40
7.408338218720808
 40
7.408338218720808
 40
7.408338218720808
 40
7.76111622913609
 40
7.76111622913609
 40
7.76111622913609
 40
8.113894239551369
 40
8.113894239551369
 40
8.113894239551369
 40
8.466672249966642
 40
8.466672249966642
 40
8.466672249966642
 40
8.819450260381922
 40
8.819450260381922
 40
8.819450260381922
 40
9.172228270797198
 40
9.172228270797198
 40
9.172228270797198
 40
9.525006281212476
 40
9.525006281212476
 40
9.525006281212476
 40
9.877784291627751
 40
9.877784291627751
 40
9.877784291627751
 40
10.23056230204303
 40
10.23056230204303
 40
10.23056230204303
 40
10.58334031245831
 40
10.58334031245831
 40
10.58334031245831
 40
10.93611832287358
 40
10.93611832287358
 40
10.93611832287358
 40
11.28889633328886
 40
11.28889633328886
 40
11.28889633328886
 40
11.64167434370414
 40
11.64167434370414
 40
11.64167434370414
 40
11.99445235411941
 40
11.99445235411941
 40
11.99445235411941
 40
12.34723036453469
 40
12.34723036453469
 40
12.34723036453469
 40
12.70000837494997
 40
12.70000837494997
 40
12.70000837494997
 40
13.05278638536524
 40
13.05278638536524
 40
13.05278638536524
 40
13.40556439578052
 40
13.40556439578052
 40
13.40556439578052
 40
13.7583424061958
 40
13.7583424061958
 40
13.7583424061958
 40
14.11112041661107
 40
14.11112041661107
 40
14.11112041661107
 40
14.46389842702635
 40
14.46389842702635
 40
14.46389842702635
 40
14.81667643744163
 40
14.81667643744163
 40
14.81667643744163
 40
14.81667643744163
 10
173.3972823146245
 20
126.8274843518258
 10
173.3972823146245
 20
126.8274843518258
 10
173.3972823146245
 20
126.7217198506564
 10
173.3972823146245
 20
126.7217198506564
 10
173.3972823146245
 20
126.7217198506564
 10
173.4186419207238
 20
126.7217198506564
 10
173.4186419207238
 20
126.7217198506564
 10
173.4186419207238
 20
126.7217198506564
 10
173.4820317194703
 20
126.7007047543328
 10
173.4820317194703
 20
126.7007047543328
 10
173.4820317194703
 20
126.7007047543328
 10
173.5244064218933
 20
126.6793451482334
 10
173.5244064218933
 20
126.6793451482334
 10
173.5244064218933
 20
126.6793451482334
 10
173.5877962206398
 20
126.6793451482334
 10
173.5877962206398
 20
126.6793451482334
 10
173.5877962206398
 20
126.6793451482334
 10
173.6301709230627
 20
126.6583300519099
 10
173.6301709230627
 20
126.6583300519099
 10
173.7955356154449
 20
126.5911506456296
 10
173.759706598762
 20
126.6380039751379
 10
173.9478089363468
 20
126.5525655507404
 10
173.9478089363468
 20
126.5525655507404
 10
173.9688240326703
 20
126.4464565397952
 10
173.9688240326703
 20
126.4464565397952
 10
173.9688240326703
 20
126.4464565397952
 10
174.0325583411926
 20
126.5101908483175
 10
174.0325583411926
 20
126.5101908483175
 10
174.0325583411926
 20
126.5101908483175
 10
174.0749330436156
 20
126.5101908483175
 10
174.0749330436156
 20
126.5101908483175
 10
174.0749330436156
 20
126.5101908483175
 10
174.1593379386856
 20
126.4678161458946
 10
174.1593379386856
 20
126.4678161458946
 10
174.1593379386856
 20
126.4678161458946
 10
174.180697544785
 20
126.4464565397952
 10
174.180697544785
 20
126.4464565397952
 10
174.2464989119621
 20
126.3982251711837
 10
174.3298702777047
 20
126.3716979184474
 10
174.3922265471239
 20
126.3196769423022
 10
174.608234176548
 20
126.2059887162895
 10
174.7749769080334
 20
126.0278771622029
 10
174.9637682651697
 20
125.8749148217494
 10
174.9637682651697
 20
125.8749148217494
 10
175.0061429675926
 20
125.9172895241723
 10
175.0061429675926
 20
125.9172895241723
 10
174.961356696739
 20
125.9631093243532
 10
174.782211613325
 20
126.1246844092016
 10
174.7308796567315
 20
126.1501781326105
 10
174.7308796567315
 20
126.1501781326105
 10
174.6885049543085
 20
126.1925528350335
 10
174.6885049543085
 20
126.1925528350335
 10
174.6885049543085
 20
126.1925528350335
 10
174.667489857985
 20
126.2349275374564
 10
174.667489857985
 20
126.2349275374564
 10
174.667489857985
 20
126.2349275374564
 10
174.625115155562
 20
126.2559426337799
 10
174.625115155562
 20
126.2559426337799
 10
174.625115155562
 20
126.2559426337799
 10
174.5827404531391
 20
126.2983173362029
 10
174.5827404531391
 20
126.2983173362029
 10
174.5827404531391
 20
126.2983173362029
 10
174.5403657507162
 20
126.3196769423022
 10
174.5403657507162
 20
126.3196769423022
 10
174.5403657507162
 20
126.3196769423022
 10
174.4979910482932
 20
126.3620516447252
 10
174.4979910482932
 20
126.3620516447252
 10
174.4735308542117
 20
126.3875453681341
 10
174.3247026310678
 20
126.4695386947736
 10
174.2864620459544
 20
126.4888312422181
 10
174.2864620459544
 20
126.4888312422181
 10
174.2654469496308
 20
126.5101908483175
 10
174.2654469496308
 20
126.5101908483175
 10
174.2654469496308
 20
126.5101908483175
 10
174.2230722472079
 20
126.5312059446411
 10
174.2230722472079
 20
126.5312059446411
 10
174.2230722472079
 20
126.5312059446411
 10
174.2017126411085
 20
126.5525655507404
 10
174.2017126411085
 20
126.5525655507404
 10
174.2017126411085
 20
126.5525655507404
 10
174.1383228423621
 20
126.573580647064
 10
174.1383228423621
 20
126.573580647064
 10
174.1383228423621
 20
126.573580647064
 10
174.1169632362627
 20
126.5945957433876
 10
174.1169632362627
 20
126.5945957433876
 10
174.1169632362627
 20
126.5945957433876
 10
174.0959481399391
 20
126.7007047543328
 10
174.0959481399391
 20
126.7007047543328
 10
174.0959481399391
 20
126.7007047543328
 10
174.0325583411926
 20
126.6369704458105
 10
174.0325583411926
 20
126.6369704458105
 10
174.0325583411926
 20
126.6369704458105
 10
173.9901836387697
 20
126.6369704458105
 10
173.9901836387697
 20
126.6369704458105
 10
173.9901836387697
 20
126.6369704458105
 10
173.9054342339239
 20
126.6793451482334
 10
173.9054342339239
 20
126.6793451482334
 10
173.9054342339239
 20
126.6793451482334
 10
173.8420444351773
 20
126.7007047543328
 10
173.8420444351773
 20
126.7007047543328
 10
173.8420444351773
 20
126.7007047543328
 10
173.7996697327544
 20
126.7217198506564
 10
173.7996697327544
 20
126.7217198506564
 10
173.7996697327544
 20
126.7217198506564
 10
173.7572950303315
 20
126.7217198506564
 10
173.7572950303315
 20
126.7217198506564
 10
173.7572950303315
 20
126.7217198506564
 10
173.6725456254856
 20
126.7640945530793
 10
173.6725456254856
 20
126.7640945530793
 10
173.6725456254856
 20
126.7640945530793
 10
173.6515305291621
 20
126.7640945530793
 10
173.6515305291621
 20
126.7640945530793
 10
173.6515305291621
 20
126.7640945530793
 10
173.5667811243162
 20
126.7851096494029
 10
173.5667811243162
 20
126.7851096494029
 10
173.5667811243162
 20
126.7851096494029
 10
173.5033913255697
 20
126.8064692555022
 10
173.5033913255697
 20
126.8064692555022
 10
173.5033913255697
 20
126.8064692555022
 10
173.4396570170474
 20
126.8064692555022
 10
173.4396570170474
 20
126.8064692555022
 10
173.4396570170474
 20
126.8064692555022
 10
173.4186419207238
 20
126.8274843518258
 10
173.4186419207238
 20
126.8274843518258
 10
173.4186419207238
 20
126.8274843518258
 10
173.3972823146245
 20
126.8274843518258
 10
173.3972823146245
 20
126.8274843518258
 72
     1
 10
173.3972823146245
 20
126.8274843518258
 11
173.3972823146245
 21
126.8274843518258
 97
        0
 75
     0
 76
     1
 98
        0
450
        0
451
        0
460
0.0
461
0.0
452
        0
462
0.0
453
        0
470

  0
HATCH
  5
23
330
2
100
AcDbEntity
  8
图层 1
 62
     7
100
AcDbHatch
 10
0.0
 20
0.0
 30
0.0
210
0.0
220
0.0
230
1.0
  2
SOLID
 70
     1
 71
     0
 91
        1
 92
        1
 93
        2
 72
     4
 94
        3
 73
     0
 74
     0
 95
       47
 96
       43
 40
0.0
 40
0.0
 40
0.0
 40
0.0
 40
0.3527780104152769
 40
0.3527780104152769
 40
0.3527780104152769
 40
0.7055560208305538
 40
0.7055560208305538
 40
0.7055560208305538
 40
1.058334031245828
 40
1.058334031245828
 40
1.058334031245828
 40
1.411112041661104
 40
1.411112041661104
 40
1.411112041661104
 40
1.763890052076384
 40
1.763890052076384
 40
1.763890052076384
 40
2.116668062491659
 40
2.116668062491659
 40
2.116668062491659
 40
2.469446072906936
 40
2.469446072906936
 40
2.469446072906936
 40
2.822224083322215
 40
2.822224083322215
 40
2.822224083322215
 40
3.175002093737492
 40
3.175002093737492
 40
3.175002093737492
 40
3.527780104152768
 40
3.527780104152768
 40
3.527780104152768
 40
3.880558114568044
 40
3.880558114568044
 40
3.880558114568044
 40
4.233336124983321
 40
4.233336124983321
 40
4.233336124983321
 40
4.586114135398599
 40
4.586114135398599
 40
4.586114135398599
 40
4.938892145813873
 40
4.938892145813873
 40
4.938892145813873
 40
4.938892145813873
 10
180.1920486226523
 20
255.6479577566324
 10
180.1920486226523
 20
255.6479577566324
 10
180.2130637189759
 20
255.6055830542095
 10
180.2130637189759
 20
255.6055830542095
 10
180.2130637189759
 20
255.6055830542095
 10
180.2130637189759
 20
255.5210059042515
 10
180.2130637189759
 20
255.5210059042515
 10
180.2130637189759
 20
255.5210059042515
 10
180.1920486226523
 20
255.4786312018286
 10
180.1920486226523
 20
255.4786312018286
 10
180.1920486226523
 20
255.4786312018286
 10
180.1496739202294
 20
255.4359119896299
 10
180.1496739202294
 20
255.4359119896299
 10
180.1496739202294
 20
255.4359119896299
 10
180.1283143141301
 20
255.4147246384184
 10
180.1283143141301
 20
255.4147246384184
 10
180.1283143141301
 20
255.4147246384184
 10
180.0225498129606
 20
255.4147246384184
 10
180.0225498129606
 20
255.4147246384184
 10
180.0225498129606
 20
255.4147246384184
 10
179.9591600142141
 20
255.4359119896299
 10
179.9591600142141
 20
255.4359119896299
 10
179.9591600142141
 20
255.4359119896299
 10
179.9167853117912
 20
255.4570993408414
 10
179.9167853117912
 20
255.4570993408414
 10
179.9167853117912
 20
255.4570993408414
 10
179.8957702154676
 20
255.4786312018286
 10
179.8957702154676
 20
255.4786312018286
 10
179.8957702154676
 20
255.4786312018286
 10
179.8744106093683
 20
255.4994740432643
 10
179.8744106093683
 20
255.4994740432643
 10
179.8744106093683
 20
255.4994740432643
 10
179.8744106093683
 20
255.6479577566324
 10
179.8744106093683
 20
255.6479577566324
 10
179.9608825630931
 20
255.7323626517025
 10
180.045631967939
 20
255.7085914771726
 10
180.1496739202294
 20
255.7115198102668
 10
180.1496739202294
 20
255.7115198102668
 10
180.170689016553
 20
255.6688005980681
 10
180.170689016553
 20
255.6688005980681
 10
180.170689016553
 20
255.6688005980681
 10
180.1920486226523
 20
255.6479577566324
 10
180.1920486226523
 20
255.6479577566324
 72
     1
 10
180.1920486226523
 20
255.6479577566324
 11
180.1920486226523
 21
255.6479577566324
 97
        0
 75
     0
 76
     1
 98
        0
450
        0
451
        0
460
0.0
461
0.0
452
        0
462
0.0
453
        0
470

  0
MTEXT
  5
24
330
2
100
AcDbEntity
  8
图框
100
AcDbMText
 10
770.0396436447142
 20
229.572703928204
 30
0.0
 40
0.6000023545570477
 41
4.555173628074112
 46
1.3522221868162
 71
     5
 72
     5
  1
{\C4;CSSM-0.82}
  7
Romans字体
 73
     1
 44
1.0
1001
ACAD
1000
MTEXTBEGIN
1070
    73
1070
     1
1070
    44
1040
1.0
1070
    74
1070
     0
1000
MTEXTEND
1000
ACAD_MTEXT_DEFINED_HEIGHT_BEGIN
1070
    46
1040
1.3522221868162
1000
ACAD_MTEXT_DEFINED_HEIGHT_END
  0
MTEXT
  5
2A
330
2
100
AcDbEntity
  8
图框
100
AcDbMText
 10
775.350647457843
 20
229.572703928204
 30
0.0
 40
0.6000023545570477
 41
6.066833998183262
 46
1.352222186816343
 71
     5
 72
     5
  1
{\C4;1010141100701}
  7
Romans字体
 73
     1
 44
1.0
1001
ACAD
1000
MTEXTBEGIN
1070
    73
1070
     1
1070
    44
1040
1.0
1070
    74
1070
     0
1000
MTEXTEND
1000
ACAD_MTEXT_DEFINED_HEIGHT_BEGIN
1070
    46
1040
1.352222186816343
1000
ACAD_MTEXT_DEFINED_HEIGHT_END
  0
LINE
  5
C6
330
2
100
AcDbEntity
  8
图框
370
    -3
100
AcDbLine
 10
778.3840644562676
 20
231.6010372084275
 30
0.0
 11
785.2436303812925
 21
231.6010372084275
 31
0.0
  0
LINE
  5
C7
330
2
100
AcDbEntity
  8
图框
370
    -3
100
AcDbLine
 10
767.762056830677
 20
230.2488150216122
 30
0.0
 11
789.3532924125038
 21
230.2488150216127
 31
0.0
  0
LINE
  5
C8
330
2
100
AcDbEntity
  8
图框
370
    -3
100
AcDbLine
 10
767.762056830677
 20
228.8965928347962
 30
0.0
 11
789.3532924131707
 21
228.8965928347962
 31
0.0
  0
MTEXT
  5
C9
330
2
100
AcDbEntity
  8
图框
100
AcDbMText
 10
781.8139064911747
 20
232.27714830187
 30
0.0
 40
0.6000023545570477
 41
6.859684067146692
 46
1.352222186885061
 71
     5
 72
     5
  1
{\f仿宋_GB2312|b0|i0|c134|p49;\C4;线径\Fromans|c134;/Wire Gauge}
  7
Romans字体
 73
     1
 44
1.0
1001
ACAD
1000
MTEXTBEGIN
1070
    73
1070
     1
1070
    44
1040
1.0
1070
    74
1070
     0
1000
MTEXTEND
1000
ACAD_MTEXT_DEFINED_HEIGHT_BEGIN
1070
    46
1040
1.352222186885061
1000
ACAD_MTEXT_DEFINED_HEIGHT_END
  0
MTEXT
  5
CA
330
2
100
AcDbEntity
  8
图框
100
AcDbMText
 10
783.7686780422931
 20
230.9248910810608
 30
0.0
 40
0.6000023545570477
 41
2.949904677997924
 46
1.352152118895874
 71
     5
 72
     5
  1
{\C4;AWG}
  7
Romans字体
 73
     1
 44
1.0
1001
ACAD
1000
MTEXTBEGIN
1070
    73
1070
     1
1070
    44
1040
1.0
1070
    74
1070
     0
1000
MTEXTEND
1000
ACAD_MTEXT_DEFINED_HEIGHT_BEGIN
1070
    46
1040
1.352152118895874
1000
ACAD_MTEXT_DEFINED_HEIGHT_END
  0
MTEXT
  5
CB
330
2
100
AcDbEntity
  8
图框
100
AcDbMText
 10
780.3388950801143
 20
230.9249261150201
 30
0.0
 40
0.6000023545570477
 41
3.909661246359366
 46
1.352222186814757
 71
     5
 72
     5
  1
\A1;{\C4;mm\H0.7x;\S2^  ;}
  7
Romans字体
 73
     1
 44
1.0
1001
ACAD
1000
MTEXTBEGIN
1070
    73
1070
     1
1070
    44
1040
1.0
1070
    74
1070
     0
1000
MTEXTEND
1000
ACAD_MTEXT_DEFINED_HEIGHT_BEGIN
1070
    46
1040
1.352222186814757
1000
ACAD_MTEXT_DEFINED_HEIGHT_END
  0
MTEXT
  5
CC
102
{ACAD_XDICTIONARY
360
897
102
}
330
2
100
AcDbEntity
  8
图框 @ 1
100
AcDbMText
 10
775.3506474571763
 20
231.6009971727187
 30
0.0
 40
0.6000023545570477
 41
6.066833998183262
 46
2.704364302212839
 71
     5
 72
     5
  1
{\f仿宋_GB2312|b0|i0|c134|p49;\C4;产品料号\Fromans|c134;\PPart NO.}
  7
Romans字体
 73
     1
 44
1.0
1001
AcadAnnotative
1000
AnnotativeData
1002
{
1070
     1
1070
     0
1002
}
1001
ACAD
1000
MTEXTBEGIN
1070
    73
1070
     1
1070
    44
1040
1.0
1070
    74
1070
     0
1000
MTEXTEND
1000
ACAD_MTEXT_DEFINED_HEIGHT_BEGIN
1070
    46
1040
2.704364302212839
1000
ACAD_MTEXT_DEFINED_HEIGHT_END
  0
LINE
  5
CD
330
2
100
AcDbEntity
  8
图框
370
    -3
100
AcDbLine
 10
785.2436303819581
 20
232.9532593953125
 30
0.0
 11
785.2436303819587
 21
228.8965928347962
 31
0.0
  0
LINE
  5
CE
330
2
100
AcDbEntity
  8
图框
370
    -3
100
AcDbLine
 10
782.2937257039606
 20
231.6010472119959
 30
0.0
 11
782.2937257039606
 21
228.8965928347962
 31
0.0
  0
LINE
  5
CF
330
2
100
AcDbEntity
  8
图框
370
    -3
100
AcDbLine
 10
785.2436303812918
 20
232.9531793238252
 30
0.0
 11
785.2436303812924
 21
228.8965928347962
 31
0.0
  0
LINE
  5
D0
330
2
100
AcDbEntity
  8
图框
370
    -3
100
AcDbLine
 10
782.2937257032939
 20
231.6009671405086
 30
0.0
 11
782.2937257032939
 21
228.8965928347962
 31
0.0
  0
LINE
  5
D1
330
2
100
AcDbEntity
  8
图框
370
    35
380
     1
100
AcDbLine
 10
791.0723331272464
 20
232.9531793238254
 30
0.0
 11
791.0723331272464
 21
228.8965928347962
 31
0.0
  0
MTEXT
  5
D4
330
2
100
AcDbEntity
  8
图框
100
AcDbMText
 10
770.0396436443809
 20
231.6010422102112
 30
0.0
 40
0.6000023545570477
 41
4.555173627407302
 46
2.704274227227899
 71
     5
 72
     5
  1
{\f仿宋_GB2312|b0|i0|c134|p49;\C4;产品代号\fFangSong_GB2312|b0|i0|c134|p49;\P\Fromans|c134;Part Code}
  7
Romans字体
 73
     1
 44
1.0
1001
ACAD
1000
MTEXTBEGIN
1070
    73
1070
     1
1070
    44
1040
1.0
1070
    74
1070
     0
1000
MTEXTEND
1000
ACAD_MTEXT_DEFINED_HEIGHT_BEGIN
1070
    46
1040
2.704274227227899
1000
ACAD_MTEXT_DEFINED_HEIGHT_END
  0
LINE
  5
D7
330
2
100
AcDbEntity
  8
图框
370
    -3
100
AcDbLine
 10
778.3840644569346
 20
232.9531793238252
 30
0.0
 11
778.3840644569345
 21
228.8965928347962
 31
0.0
  0
MTEXT
  5
DA
330
2
100
AcDbEntity
  8
图框
100
AcDbMText
 10
788.1579817542691
 20
231.6009971727191
 30
0.0
 40
0.6000023545570477
 41
5.828702745953783
 46
2.704364302212259
 71
     5
 72
     5
  1
{\f仿宋_GB2312|b0|i0|c134|p49;\C4;剥线长度\Fromans|c134;\PStripping Length}
  7
Romans字体
 73
     1
 44
1.0
1001
ACAD
1000
MTEXTBEGIN
1070
    73
1070
     1
1070
    44
1040
1.0
1070
    74
1070
     0
1000
MTEXTEND
1000
ACAD_MTEXT_DEFINED_HEIGHT_BEGIN
1070
    46
1040
2.704364302212259
1000
ACAD_MTEXT_DEFINED_HEIGHT_END
  0
LINE
  5
DB
330
2
100
AcDbEntity
  8
图框
370
    35
380
     1
100
AcDbLine
 10
785.2436303812924
 20
232.9531793238253
 30
0.0
 11
785.2436303812924
 21
228.8965928347962
 31
0.0
  0
MTEXT
  5
DC
330
2
100
AcDbEntity
  8
图框
100
AcDbMText
 10
788.1579817542691
 20
229.5727039282045
 30
0.0
 40
0.6000023545570477
 41
5.828702745953751
 46
1.35222218681682
 71
     5
 72
     5
  1
{\C4;5}
  7
Romans字体
 73
     1
 44
1.0
1001
ACAD
1000
MTEXTBEGIN
1070
    73
1070
     1
1070
    44
1040
1.0
1070
    74
1070
     0
1000
MTEXTEND
1000
ACAD_MTEXT_DEFINED_HEIGHT_BEGIN
1070
    46
1040
1.35222218681682
1000
ACAD_MTEXT_DEFINED_HEIGHT_END
  0
LINE
  5
DE
330
2
100
AcDbEntity
  8
0
100
AcDbLine
 10
773.9835854682675
 20
194.1452785408472
 30
0.0
 11
773.4746152193946
 21
193.1255412236418
 31
0.0
  0
LINE
  5
DF
330
2
100
AcDbEntity
  8
0
100
AcDbLine
 10
773.414364269234
 20
192.47252333575
 30
0.0
 11
771.7886725711203
 21
189.2150211183948
 31
0.0
  0
LINE
  5
E0
330
2
100
AcDbEntity
  8
0
100
AcDbLine
 10
773.7887947776506
 20
192.9687465189737
 30
0.0
 11
773.7431223696992
 21
192.8772297993598
 31
0.0
  0
LINE
  5
E1
330
2
100
AcDbEntity
  8
0
100
AcDbLine
 10
773.452926080627
 20
192.531192821248
 30
0.0
 11
773.414364269234
 21
192.47252333575
 31
0.0
  0
LINE
  5
E2
330
2
100
AcDbEntity
  8
0
100
AcDbLine
 10
777.7639852442622
 20
200.389702678705
 30
0.0
 11
774.9459795935072
 21
194.7430848957027
 31
0.0
  0
LINE
  5
E3
330
2
100
AcDbEntity
  8
0
100
AcDbLine
 10
773.7631464737361
 20
192.9011070183
 30
0.0
 11
773.452926080627
 21
192.531192821248
 31
0.0
  0
LINE
  5
E4
330
2
100
AcDbEntity
  8
0
100
AcDbLine
 10
775.1518882407476
 20
192.2080404260695
 30
0.0
 11
775.0427959650196
 21
191.737751066913
 31
0.0
  0
LINE
  5
E5
330
2
100
AcDbEntity
  8
0
100
AcDbLine
 10
774.8169938819983
 20
194.7469331524107
 30
0.0
 11
774.6380731978827
 21
194.7347838580807
 31
0.0
  0
LINE
  5
E6
330
2
100
AcDbEntity
  8
0
100
AcDbLine
 10
775.9933075178175
 20
194.159881115879
 30
0.0
 11
776.0911665123301
 21
194.0096019295728
 31
0.0
  0
LINE
  5
E7
330
2
100
AcDbEntity
  8
0
100
AcDbLine
 10
778.7306915776341
 20
199.9072574318126
 30
0.0
 11
775.9143683703947
 21
194.2640108677126
 31
0.0
  0
LINE
  5
E8
330
2
100
AcDbEntity
  8
0
100
AcDbLine
 10
775.1905189616983
 20
192.2692009104951
 30
0.0
 11
775.1448465529939
 21
192.1776841919333
 31
0.0
  0
LINE
  5
E9
330
2
100
AcDbEntity
  8
0
100
AcDbLine
 10
775.0190967830075
 20
191.6716642257314
 30
0.0
 11
773.3934050850438
 21
188.4141620092783
 31
0.0
  0
LINE
  5
EA
330
2
100
AcDbEntity
  8
0
100
AcDbLine
 10
776.0139234242674
 20
193.1328894256041
 30
0.0
 11
775.5046985199527
 21
192.1124062058264
 31
0.0
  0
SPLINE
  5
EB
330
2
100
AcDbEntity
  8
0
100
AcDbSpline
210
0.0
220
0.0
230
1.0
 70
     8
 71
     3
 72
    17
 73
    13
 74
    11
 42
0.0000000001
 43
0.0000000001
 44
0.0000000001
 12
-0.4465411880528515
 22
-0.894763078905443
 32
0.0
 13
-0.2926830427334254
 23
0.9562095149580473
 33
0.0
 40
0.0
 40
0.0
 40
0.0
 40
0.0
 40
0.0695227110319205
 40
0.1453422052874658
 40
0.2268243615263867
 40
0.312003404997442
 40
0.3971750045927283
 40
0.4783023762660294
 40
0.5514447978508925
 40
0.614982628602233
 40
0.6698013787836076
 40
0.7062647916432488
 40
0.7062647916432488
 40
0.7062647916432488
 40
0.7062647916432488
 10
774.0632376921191
 20
192.0151275871812
 30
0.0
 10
774.0528894407922
 20
191.9943921355223
 30
0.0
 10
774.0235371936892
 20
191.9545934606718
 30
0.0
 10
773.9616480407008
 20
191.9095915155028
 30
0.0
 10
773.8862772309153
 20
191.8787787961869
 30
0.0
 10
773.803716267545
 20
191.861678721187
 30
0.0
 10
773.7197399866447
 20
191.8570520706548
 30
0.0
 10
773.6399386164812
 20
191.8637098810501
 30
0.0
 10
773.569001125445
 20
191.8807750601852
 30
0.0
 10
773.5106234821479
 20
191.9079307702062
 30
0.0
 10
773.4714336337995
 20
191.9434963175137
 30
0.0
 10
773.4580499528948
 20
191.9714834672298
 30
0.0
 10
773.4544925453534
 20
191.9831056880046
 30
0.0
 11
774.0632376921191
 21
192.0151275871812
 31
0.0
 11
774.0224511113669
 21
191.9588260580744
 31
0.0
 11
773.9618050599609
 21
191.9133216389699
 31
0.0
 11
773.8867487815248
 21
191.8816057619891
 31
0.0
 11
773.8034544237506
 21
191.863786687669
 31
0.0
 11
773.7184178249049
 21
191.8589931259061
 31
0.0
 11
773.6376013096836
 21
191.866088286377
 31
0.0
 11
773.5666888385377
 21
191.8840113238227
 31
0.0
 11
773.5097294338568
 21
191.9121659354339
 31
0.0
 11
773.4702938218556
 21
191.9502438539372
 31
0.0
 11
773.4544925453534
 21
191.9831056880046
 31
0.0
  0
SPLINE
  5
EC
330
2
100
AcDbEntity
  8
0
100
AcDbSpline
210
0.0
220
0.0
230
1.0
 70
     8
 71
     3
 72
     9
 73
     5
 74
     0
 42
0.0000000001
 43
0.0000000001
 40
0.0547068889208802
 40
0.0547068889208802
 40
0.0547068889208802
 40
0.0547068889208802
 40
0.0869164544657175
 40
0.1094352324667788
 40
0.1094352324667788
 40
0.1094352324667788
 40
0.1094352324667788
 10
776.1343916535572
 20
193.8680112824887
 30
0.0
 10
776.1394876630165
 20
193.927627561463
 30
0.0
 10
776.1207425785568
 20
193.9625025973203
 30
0.0
 10
776.1000281048122
 20
193.9960170877888
 30
0.0
 10
776.0911833218422
 20
194.0096128648111
 30
0.0
  0
SPLINE
  5
ED
330
2
100
AcDbEntity
  8
0
100
AcDbSpline
210
0.0
220
0.0
230
1.0
 70
     8
 71
     3
 72
    10
 73
     6
 74
     4
 42
0.0000000001
 43
0.0000000001
 44
0.0000000001
 12
0.2886058970824028
 22
-0.9574479809207712
 32
0.0
 13
-0.4465411887354377
 23
-0.8947630785647909
 33
0.0
 40
0.0
 40
0.0
 40
0.0
 40
0.0
 40
0.0290387439215387
 40
0.0988444837998272
 40
0.1663863392506027
 40
0.1663863392506027
 40
0.1663863392506027
 40
0.1663863392506027
 10
774.0750672855652
 20
192.1701953622295
 30
0.0
 10
774.0778608698117
 20
192.1609276666507
 30
0.0
 10
774.0847799793843
 20
192.1285183309693
 30
0.0
 10
774.0817356059483
 20
192.0724161547154
 30
0.0
 10
774.0695961836362
 20
192.027556599795
 30
0.0
 10
774.0595427768287
 20
192.0074119469567
 30
0.0
 11
774.0750672855652
 21
192.1701953622295
 31
0.0
 11
774.0811730242901
 21
192.1418057760549
 31
0.0
 11
774.079207601799
 21
192.0720277104871
 31
0.0
 11
774.0595427768287
 21
192.0074119469567
 31
0.0
  0
LINE
  5
EE
330
2
100
AcDbEntity
  8
0
100
AcDbLine
 10
774.0656892530227
 20
192.0209690658725
 30
0.0
 11
774.053079496525
 21
192.0302860593513
 31
0.0
  0
SPLINE
  5
EF
330
2
100
AcDbEntity
  8
0
100
AcDbSpline
210
0.0
220
0.0
230
1.0
 70
     8
 71
     3
 72
    16
 73
    12
 74
    10
 42
0.0000000001
 43
0.0000000001
 44
0.0000000001
 12
-0.8223317821705954
 22
0.5690082952226023
 32
0.0
 13
-0.56829197968231
 23
-0.8228269719866753
 33
0.0
 40
0.0
 40
0.0
 40
0.0
 40
0.0
 40
0.0722317969734883
 40
0.1410701526593557
 40
0.2090123787123473
 40
0.2733193979393715
 40
0.3329190569304475
 40
0.3897303684233887
 40
0.4461746248694441
 40
0.5028834696255606
 40
0.5213870628742898
 40
0.5213870628742898
 40
0.5213870628742898
 40
0.5213870628742898
 10
774.053079496525
 20
192.0302860593513
 30
0.0
 10
774.0332799957468
 20
192.0439862232369
 30
0.0
 10
773.9903974976823
 20
192.0653261555758
 30
0.0
 10
773.920470266283
 20
192.0758544155853
 30
0.0
 10
773.853287661602
 20
192.0662882740642
 30
0.0
 10
773.7934809660499
 20
192.0423915348342
 30
0.0
 10
773.7422320749558
 20
192.010284906064
 30
0.0
 10
773.6979156410627
 20
191.9732460655665
 30
0.0
 10
773.6586102685465
 20
191.9323168781923
 30
0.0
 10
773.631225129385
 20
191.8979465838867
 30
0.0
 10
773.6166979934545
 20
191.8775114343233
 30
0.0
 10
773.6131928455749
 20
191.8724363491221
 30
0.0
 11
774.053079496525
 21
192.0302860593513
 31
0.0
 11
773.9882349578139
 21
192.0621077232513
 31
0.0
 11
773.9201865331952
 21
192.0725063347184
 31
0.0
 11
773.8528535451286
 21
192.0634280750251
 31
0.0
 11
773.7929531299402
 21
192.0400329263373
 31
0.0
 11
773.7422714946092
 21
192.0086722632061
 31
0.0
 11
773.6985374675429
 21
191.9724112650109
 31
0.0
 11
773.6593261521155
 21
191.9318104420119
 31
0.0
 11
773.6239134875748
 21
191.88751782114
 31
0.0
 11
773.6131928455749
 21
191.8724363491221
 31
0.0
  0
SPLINE
  5
F0
330
2
100
AcDbEntity
  8
0
100
AcDbSpline
210
0.0
220
0.0
230
1.0
 70
     8
 71
     3
 72
    15
 73
    11
 74
     9
 42
0.0000000001
 43
0.0000000001
 44
0.0000000001
 12
0.9976900866533318
 22
0.067930044852533
 32
0.0
 13
0.5448902220931418
 23
-0.8385073916593023
 33
0.0
 40
0.0
 40
0.0
 40
0.0
 40
0.0
 40
0.1179750992927326
 40
0.2540963655214155
 40
0.3973322822054066
 40
0.5437575912478981
 40
0.690478163267162
 40
0.8336571703211479
 40
0.9676031749349276
 40
1.045438198965115
 40
1.045438198965115
 40
1.045438198965115
 40
1.045438198965115
 10
772.2665906655087
 20
189.2902779575474
 30
0.0
 10
772.3058248611875
 20
189.2929493088095
 30
0.0
 10
772.3909191015764
 20
189.2911112420424
 30
0.0
 10
772.5218868835836
 20
189.2688364083631
 30
0.0
 10
772.6578465268567
 20
189.2268097835021
 30
0.0
 10
772.7909231967105
 20
189.1672418519632
 30
0.0
 10
772.9160031386068
 20
189.0923266995514
 30
0.0
 10
773.0275718295756
 20
189.0050189227137
 30
0.0
 10
773.1102103740298
 20
188.9196928909682
 30
0.0
 10
773.1522574252815
 20
188.8627934913551
 30
0.0
 10
773.1663946064584
 20
188.841038410362
 30
0.0
 11
772.2665906655087
 21
189.2902779575474
 31
0.0
 11
772.3845533718364
 21
189.2885679958604
 31
0.0
 11
772.5188585548112
 21
189.2664068373662
 31
0.0
 11
772.65581081542
 21
189.2244472598846
 31
0.0
 11
772.7894956133147
 21
189.1647082781387
 31
0.0
 11
772.9152780078574
 21
189.0891720916002
 31
0.0
 11
773.0277520137221
 21
189.0005728474402
 31
0.0
 11
773.1203703013577
 21
188.9038082622479
 31
0.0
 11
773.1663946064584
 21
188.841038410362
 31
0.0
  0
SPLINE
  5
F1
330
2
100
AcDbEntity
  8
0
100
AcDbSpline
210
0.0
220
0.0
230
1.0
 70
     8
 71
     3
 72
    10
 73
     6
 74
     4
 42
0.0000000001
 43
0.0000000001
 44
0.0000000001
 12
0.2888463021603698
 22
-0.9573754821010826
 32
0.0
 13
-0.4470682475060784
 23
-0.8944998502357861
 33
0.0
 40
0.0
 40
0.0
 40
0.0
 40
0.0
 40
0.0643599396930692
 40
0.1244683358620597
 40
0.1475037734405606
 40
0.1475037734405606
 40
0.1475037734405606
 40
0.1475037734405606
 10
773.1120024549127
 20
188.9003580983648
 30
0.0
 10
773.1181991651086
 20
188.8798192222676
 30
0.0
 10
773.1257583023744
 20
188.8384573812927
 30
0.0
 10
773.1192481997689
 20
188.788642373422
 30
0.0
 10
773.1085943676251
 20
188.7629495486832
 30
0.0
 10
773.1051615633888
 20
188.7560811501952
 30
0.0
 11
773.1120024549127
 21
188.9003580983648
 31
0.0
 11
773.1225266331711
 21
188.836864449003
 31
0.0
 11
773.1139616587601
 21
188.7773694029626
 31
0.0
 11
773.1051615633888
 21
188.7560811501952
 31
0.0
  0
SPLINE
  5
F2
330
2
100
AcDbEntity
  8
0
100
AcDbSpline
210
0.0
220
0.0
230
1.0
 70
     8
 71
     3
 72
    19
 73
    15
 74
    13
 42
0.0000000001
 43
0.0000000001
 44
0.0000000001
 12
-0.2888463103129685
 22
0.9573754796413913
 32
0.0
 13
-0.4465411879185204
 23
-0.8947630789724824
 33
0.0
 40
0.0
 40
0.0
 40
0.0
 40
0.0
 40
0.1174006505648868
 40
0.2359906837214857
 40
0.3447105055493344
 40
0.443087058491591
 40
0.536788883607928
 40
0.6301436191659348
 40
0.7294464196447356
 40
0.8341521281057941
 40
0.9426656346595521
 40
1.05594424047371
 40
1.166342020297869
 40
1.286581087732248
 40
1.286581087732248
 40
1.286581087732248
 40
1.286581087732248
 10
778.764514946808
 20
200.3045155265548
 30
0.0
 10
778.7532113652266
 20
200.3419810279364
 30
0.0
 10
778.7221669491578
 20
200.415056699373
 30
0.0
 10
778.6547948689214
 20
200.5092454750212
 30
0.0
 10
778.57401717215
 20
200.5828879586101
 30
0.0
 10
778.4879211289554
 20
200.6353449054377
 30
0.0
 10
778.3987427367516
 20
200.6698559872124
 30
0.0
 10
778.3046510486792
 20
200.6885284197924
 30
0.0
 10
778.2049826484631
 20
200.6902599574211
 30
0.0
 10
778.1016926389286
 20
200.6723417696197
 30
0.0
 10
777.9995195731357
 20
200.6327844295783
 30
0.0
 10
777.9059009319328
 20
200.5720937771595
 30
0.0
 10
777.8240657682224
 20
200.4907557157733
 30
0.0
 10
777.7818824762643
 20
200.4255645047685
 30
0.0
 10
777.7639852442622
 20
200.389702678705
 30
0.0
 11
778.764514946808
 21
200.3045155265548
 31
0.0
 11
778.7185915953523
 21
200.4125616210892
 31
0.0
 11
778.6496128244293
 21
200.5090267708897
 31
0.0
 11
778.5692714109964
 21
200.5822746851663
 31
0.0
 11
778.485262674871
 21
200.6334652939087
 31
0.0
 11
778.3978763793546
 21
200.6672834456329
 31
0.0
 11
778.3063071317813
 21
200.6854542890358
 31
0.0
 11
778.2070192528151
 21
200.6871757051201
 31
0.0
 11
778.1038544597833
 21
200.6692784745235
 31
0.0
 11
778.0026626099505
 21
200.63009441358
 31
0.0
 11
777.9076058911093
 21
200.568480594202
 31
0.0
 11
777.8293166707697
 21
200.4906444344257
 31
0.0
 11
777.7639852442622
 21
200.389702678705
 31
0.0
  0
LINE
  5
F3
330
2
100
AcDbEntity
  8
0
100
AcDbLine
 10
773.1040783643536
 20
188.9231826355241
 30
0.0
 11
773.1120024549127
 21
188.9003580983648
 31
0.0
  0
SPLINE
  5
F4
330
2
100
AcDbEntity
  8
0
100
AcDbSpline
210
0.0
220
0.0
230
1.0
 70
     8
 71
     3
 72
     9
 73
     5
 74
     3
 42
0.0000000001
 43
0.0000000001
 44
0.0000000001
 12
0.4470967599044047
 22
0.8944855992596993
 32
0.0
 13
0.8315904848785354
 23
0.5553892918120428
 33
0.0
 40
0.0
 40
0.0
 40
0.0
 40
0.0
 40
0.0362326552553533
 40
0.0907904396493967
 40
0.0907904396493967
 40
0.0907904396493967
 40
0.0907904396493967
 10
772.2351338945172
 20
189.1901273322094
 30
0.0
 10
772.240533728773
 20
189.2009305283256
 30
0.0
 10
772.2571049795708
 20
189.226577376457
 30
0.0
 10
772.2803267522332
 20
189.2468558477738
 30
0.0
 10
772.2954499970259
 20
189.2569561175197
 30
0.0
 11
772.2351338945172
 21
189.1901273322094
 31
0.0
 11
772.2548194354483
 21
189.2205458263388
 31
0.0
 11
772.2954499970259
 21
189.2569561175197
 31
0.0
  0
SPLINE
  5
F5
330
2
100
AcDbEntity
  8
0
100
AcDbSpline
210
0.0
220
0.0
230
1.0
 70
     8
 71
     3
 72
    10
 73
     6
 74
     4
 42
0.0000000001
 43
0.0000000001
 44
0.0000000001
 12
0.831590489549846
 22
0.555389284817638
 32
0.0
 13
0.9606653433482145
 23
0.2777086568504066
 33
0.0
 40
0.0
 40
0.0
 40
0.0
 40
0.0
 40
0.007764933819532
 40
0.0764749938461207
 40
0.0778965669855964
 40
0.0778965669855964
 40
0.0778965669855964
 40
0.0778965669855964
 10
772.2954499970259
 20
189.2569561175197
 30
0.0
 10
772.2976024120646
 20
189.2583936378665
 30
0.0
 10
772.3190570914783
 20
189.272160062094
 30
0.0
 10
772.3434474168615
 20
189.2823137738962
 30
0.0
 10
772.365888080763
 20
189.2888548921786
 30
0.0
 10
772.3663432994458
 20
189.2889864865677
 30
0.0
 11
772.2954499970259
 21
189.2569561175197
 31
0.0
 11
772.3019849153517
 21
189.2611500464291
 31
0.0
 11
772.3649785309802
 21
189.2885886458631
 31
0.0
 11
772.3663432994458
 21
189.2889864865677
 31
0.0
  0
SPLINE
  5
F6
330
2
100
AcDbEntity
  8
0
100
AcDbSpline
210
0.0
220
0.0
230
1.0
 70
     8
 71
     3
 72
    10
 73
     6
 74
     4
 42
0.0000000001
 43
0.0000000001
 44
0.0000000001
 12
-0.448255807570564
 22
-0.8939053255123058
 32
0.0
 13
0.2888463090118564
 23
-0.9573754800339454
 33
0.0
 40
0.0
 40
0.0
 40
0.0
 40
0.0
 40
0.0236016744014467
 40
0.1414648990584924
 40
0.2718420603919677
 40
0.2718420603919677
 40
0.2718420603919677
 40
0.2718420603919677
 10
771.7886682990775
 20
189.2149190397373
 30
0.0
 10
771.7851417698711
 20
189.2078864855911
 30
0.0
 10
771.7656879072558
 20
189.1648883193774
 30
0.0
 10
771.7492144658852
 20
189.0733196104668
 30
0.0
 10
771.7635096859345
 20
188.9903804022092
 30
0.0
 10
771.7760626732114
 20
188.9487737697368
 30
0.0
 11
771.7886682990775
 21
189.2149190397373
 31
0.0
 11
771.7789533713458
 21
189.1934095252444
 31
0.0
 11
771.7565865617654
 21
189.0776880252725
 31
0.0
 11
771.7760626732114
 21
188.9487737697368
 31
0.0
  0
SPLINE
  5
F7
330
2
100
AcDbEntity
  8
0
100
AcDbSpline
210
0.0
220
0.0
230
1.0
 70
     8
 71
     3
 72
    11
 73
     7
 74
     5
 42
0.0000000001
 43
0.0000000001
 44
0.0000000001
 12
-0.4482558078474181
 22
-0.8939053253734751
 32
0.0
 13
-0.9919900211228247
 23
-0.1263162617905467
 33
0.0
 40
0.0
 40
0.0
 40
0.0
 40
0.0
 40
0.1166754581356415
 40
0.2738749013380716
 40
0.451840334727311
 40
0.5222463970585079
 40
0.5222463970585079
 40
0.5222463970585079
 40
0.5222463970585079
 10
775.5047039243891
 20
192.1125353424293
 30
0.0
 10
775.4872704404751
 20
192.0777697379733
 30
0.0
 10
775.4332628233417
 20
192.0020887023567
 30
0.0
 10
775.3071585678088
 20
191.9144554336674
 30
0.0
 10
775.1769490156152
 20
191.872657483147
 30
0.0
 10
775.0952449702617
 20
191.8591428127703
 30
0.0
 10
775.0719642665086
 20
191.8561783359033
 30
0.0
 11
775.5047039243891
 21
192.1125353424293
 31
0.0
 11
775.4371835636247
 21
192.0173819745783
 31
0.0
 11
775.3098602887416
 21
191.9251840970746
 31
0.0
 11
775.1414085901492
 21
191.8677757290192
 31
0.0
 11
775.0719642665086
 21
191.8561783359033
 31
0.0
  0
SPLINE
  5
F8
330
2
100
AcDbEntity
  8
0
100
AcDbSpline
210
0.0
220
0.0
230
1.0
 70
     8
 71
     3
 72
     8
 73
     4
 74
     2
 42
0.0000000001
 43
0.0000000001
 44
0.0000000001
 12
-0.4968751833403542
 22
0.8678220164183953
 32
0.0
 13
-0.2888463119372964
 23
0.9573754791513213
 33
0.0
 40
0.0
 40
0.0
 40
0.0
 40
0.0
 40
0.1793694767841665
 40
0.1793694767841665
 40
0.1793694767841665
 40
0.1793694767841665
 10
773.5307489659065
 20
192.6244754805359
 30
0.0
 10
773.5010408853521
 20
192.6763624075448
 30
0.0
 10
773.4759330094986
 20
192.7314809755229
 30
0.0
 10
773.4586629388842
 20
192.78872228845
 30
0.0
 11
773.5307489659065
 21
192.6244754805359
 31
0.0
 11
773.4586629388842
 21
192.78872228845
 31
0.0
  0
SPLINE
  5
F9
330
2
100
AcDbEntity
  8
0
100
AcDbSpline
210
0.0
220
0.0
230
1.0
 70
     8
 71
     3
 72
    10
 73
     6
 74
     4
 42
0.0000000001
 43
0.0000000001
 44
0.0000000001
 12
-0.4482558076352574
 22
-0.8939053254798649
 32
0.0
 13
0.2888463112287508
 23
-0.9573754793650941
 33
0.0
 40
0.0
 40
0.0
 40
0.0
 40
0.0
 40
0.0298575385246889
 40
0.1789616185783467
 40
0.3438965813681279
 40
0.3438965813681279
 40
0.3438965813681279
 40
0.3438965813681279
 10
773.4746098149599
 20
193.1254120870391
 30
0.0
 10
773.4701485432781
 20
193.1165154828081
 30
0.0
 10
773.4455382352813
 20
193.0621202124865
 30
0.0
 10
773.4246983403335
 20
192.9462802798502
 30
0.0
 10
773.4427826536861
 20
192.841357184805
 30
0.0
 10
773.4586629388842
 20
192.78872228845
 30
0.0
 11
773.4746098149599
 21
193.1254120870391
 31
0.0
 11
773.4623198467143
 21
193.0982012567086
 31
0.0
 11
773.4340244852859
 21
192.9518065873716
 31
0.0
 11
773.4586629388842
 21
192.78872228845
 31
0.0
  0
SPLINE
  5
FA
330
2
100
AcDbEntity
  8
0
100
AcDbSpline
210
0.0
220
0.0
230
1.0
 70
     8
 71
     3
 72
    15
 73
    11
 74
     9
 42
0.0000000001
 43
0.0000000001
 44
0.0000000001
 12
-0.5451945872077536
 22
0.838309526415731
 32
0.0
 13
-0.9977272053725572
 23
-0.0673826658679172
 33
0.0
 40
0.0
 40
0.0
 40
0.0
 40
0.0
 40
0.1322918255287913
 40
0.3204316437201789
 40
0.5203258641669448
 40
0.725668233529523
 40
0.9295865449938743
 40
1.125353500768355
 40
1.307113889691539
 40
1.366447294976817
 40
1.366447294976817
 40
1.366447294976817
 40
1.366447294976817
 10
775.9933872913469
 20
194.1597882452363
 30
0.0
 10
775.9693456956102
 20
194.1967554111055
 30
0.0
 10
775.9040771007842
 20
194.281796089585
 30
0.0
 10
775.7791276470316
 20
194.4030492879536
 30
0.0
 10
775.6187649524679
 20
194.519834583542
 30
0.0
 10
775.4401047650178
 20
194.6174699978352
 30
0.0
 10
775.251782521649
 20
194.6912165410228
 30
0.0
 10
775.062974638348
 20
194.7375094110724
 30
0.0
 10
774.9172196726632
 20
194.7508974206718
 30
0.0
 10
774.836840326885
 20
194.7482896603981
 30
0.0
 10
774.8171074760049
 20
194.7469569793904
 30
0.0
 11
775.9933872913469
 21
194.1597882452363
 31
0.0
 11
775.9134621002162
 21
194.2652068912362
 31
0.0
 11
775.7792029705009
 21
194.3970062739252
 31
0.0
 11
775.6179657841713
 21
194.5151598566576
 31
0.0
 11
775.4378356448817
 21
194.613742926071
 31
0.0
 11
775.2478450322212
 21
194.6878121156937
 31
0.0
 11
775.0575208666313
 21
194.7336532867707
 31
0.0
 11
774.8764067989052
 21
194.7489677718493
 31
0.0
 11
774.8171074760049
 21
194.7469569793904
 31
0.0
  0
SPLINE
  5
FB
330
2
100
AcDbEntity
  8
0
100
AcDbSpline
210
0.0
220
0.0
230
1.0
 70
     8
 71
     3
 72
     9
 73
     5
 74
     3
 42
0.0000000001
 43
0.0000000001
 44
0.0000000001
 12
-0.2249755181266356
 22
-0.9743644165524786
 32
0.0
 13
-0.4485388529040787
 23
-0.8937633341301786
 33
0.0
 40
0.0
 40
0.0
 40
0.0
 40
0.0
 40
0.0466177187232353
 40
0.0703124665109258
 40
0.0703124665109258
 40
0.0703124665109258
 40
0.0703124665109258
 10
775.0427585974041
 20
191.7377596945715
 30
0.0
 10
775.0392626489295
 20
191.7226188124699
 30
0.0
 10
775.0322739032574
 20
191.7001155419151
 30
0.0
 10
775.0226019579831
 20
191.6787422091363
 30
0.0
 10
775.019059286319
 20
191.6716830435416
 30
0.0
 11
775.0427585974041
 21
191.7377596945715
 31
0.0
 11
775.0288159827817
 21
191.693275818881
 31
0.0
 11
775.019059286319
 21
191.6716830435416
 31
0.0
  0
SPLINE
  5
FC
330
2
100
AcDbEntity
  8
0
100
AcDbSpline
210
0.0
220
0.0
230
1.0
 70
     8
 71
     3
 72
     8
 73
     4
 74
     0
 42
0.0000000001
 43
0.0000000001
 40
0.0
 40
0.0
 40
0.0
 40
0.0
 40
0.0400575474859764
 40
0.0400575474859764
 40
0.0400575474859764
 40
0.0400575474859764
 10
774.638071853952
 20
194.7348037135215
 30
0.0
 10
774.609285448995
 20
194.7328556607355
 30
0.0
 10
774.5750966927198
 20
194.7175247697485
 30
0.0
 10
774.5168045284384
 20
194.6545938022337
 30
0.0
  0
SPLINE
  5
FD
330
2
100
AcDbEntity
  8
0
100
AcDbSpline
210
0.0
220
0.0
230
1.0
 70
     8
 71
     3
 72
    19
 73
    15
 74
    13
 42
0.0000000001
 43
0.0000000001
 44
0.0000000001
 12
-0.4482558069825017
 22
-0.8939053258071943
 32
0.0
 13
-0.2888463103755651
 23
0.9573754796225058
 33
0.0
 40
0.0
 40
0.0
 40
0.0
 40
0.0
 40
0.0922291718712322
 40
0.2164915878984065
 40
0.3571690261165147
 40
0.5169239686945409
 40
0.6944076433220569
 40
0.885568317228785
 40
1.08468855103643
 40
1.285199335111643
 40
1.480390162459865
 40
1.664103161399334
 40
1.831491827734276
 40
1.979951090569642
 40
1.979951090569642
 40
1.979951090569642
 40
1.979951090569642
 10
773.393409357086
 20
188.4142640879359
 30
0.0
 10
773.3796286031312
 20
188.3867827052924
 30
0.0
 10
773.336941191701
 20
188.326959296314
 30
0.0
 10
773.2372324168694
 20
188.2576833422513
 30
0.0
 10
773.1010035211069
 20
188.2139324975303
 30
0.0
 10
772.941246156037
 20
188.2001742279271
 30
0.0
 10
772.7650985420386
 20
188.2163734248722
 30
0.0
 10
772.5806886313185
 20
188.2615753587274
 30
0.0
 10
772.3968103720194
 20
188.3335868683005
 30
0.0
 10
772.2223499587546
 20
188.428926069646
 30
0.0
 10
772.0657632992932
 20
188.5429591289399
 30
0.0
 10
771.9345716220284
 20
188.6702782975813
 30
0.0
 10
771.8350607365244
 20
188.8047846781731
 30
0.0
 10
771.7903566433151
 20
188.9013966837497
 30
0.0
 10
771.7760626732114
 20
188.9487737697368
 30
0.0
 11
773.393409357086
 21
188.4142640879359
 31
0.0
 11
773.3400361185905
 21
188.3390476166244
 31
0.0
 11
773.2393901021241
 21
188.2661673901816
 31
0.0
 11
773.1062330449691
 21
188.2207874413779
 31
0.0
 11
772.947241998653
 21
188.2051833114949
 31
0.0
 11
772.7703894375943
 21
188.220137454943
 31
0.0
 11
772.584543488432
 21
188.2649000110412
 31
0.0
 11
772.3990232426704
 21
188.3372263957439
 31
0.0
 11
772.2231314600206
 21
188.4334898640313
 31
0.0
 11
772.0656880893252
 21
188.5488633623096
 31
0.0
 11
771.9345879976158
 21
188.6775615827057
 31
0.0
 11
771.8364050920038
 21
188.8131310581158
 31
0.0
 11
771.7760626732114
 21
188.9487737697368
 31
0.0
  0
SPLINE
  5
FE
330
2
100
AcDbEntity
  8
0
100
AcDbSpline
210
0.0
220
0.0
230
1.0
 70
     8
 71
     3
 72
    10
 73
     6
 74
     4
 42
0.0000000001
 43
0.0000000001
 44
0.0000000001
 12
0.4465411878301483
 22
0.8947630790165852
 32
0.0
 13
-0.2888463092468242
 23
0.957375479963054
 33
0.0
 40
0.0
 40
0.0
 40
0.0
 40
0.0
 40
0.1344457727416903
 40
0.2704322767601027
 40
0.4072689015632222
 40
0.4072689015632222
 40
0.4072689015632222
 40
0.4072689015632222
 10
778.7306915776341
 20
199.9072574318126
 30
0.0
 10
778.7507034359871
 20
199.9473564696723
 30
0.0
 10
778.7809898886759
 20
200.0334484720371
 30
0.0
 10
778.7929261847745
 20
200.1700019709935
 30
0.0
 10
778.7776898648226
 20
200.2608475167723
 30
0.0
 10
778.764514946808
 20
200.3045155265548
 30
0.0
 11
778.7306915776341
 21
199.9072574318126
 31
0.0
 11
778.7752907078107
 21
200.0340903273705
 31
0.0
 11
778.7871293439892
 21
200.1695605306204
 31
0.0
 11
778.764514946808
 21
200.3045155265548
 31
0.0
  0
SPLINE
  5
FF
330
2
100
AcDbEntity
  8
0
100
AcDbSpline
210
0.0
220
0.0
230
1.0
 70
     8
 71
     3
 72
    17
 73
    13
 74
    11
 42
0.0000000001
 43
0.0000000001
 44
0.0000000001
 12
0.4465411874491487
 22
0.8947630792067274
 32
0.0
 13
0.2886058957697489
 23
-0.9574479813164478
 33
0.0
 40
0.0
 40
0.0
 40
0.0
 40
0.0
 40
0.0730750028615353
 40
0.1556502455392038
 40
0.2420473508900828
 40
0.3280717293014073
 40
0.411059238257321
 40
0.4904098944713109
 40
0.5664170028499164
 40
0.6409225701420292
 40
0.7146958289828019
 40
0.7665624575106379
 40
0.7665624575106379
 40
0.7665624575106379
 40
0.7665624575106379
 10
773.4740983037402
 20
192.1121267720543
 30
0.0
 10
773.4849753032571
 20
192.1339217102454
 30
0.0
 10
773.5134415455966
 20
192.1777550423125
 30
0.0
 10
773.568655465555
 20
192.2370663770992
 30
0.0
 10
773.636666076295
 20
192.2888141833064
 30
0.0
 10
773.7134340619763
 20
192.3269671937122
 30
0.0
 10
773.794616341446
 20
192.3468545225993
 30
0.0
 10
773.8750587695842
 20
192.3454234473561
 30
0.0
 10
773.9492089553228
 20
192.3220641094738
 30
0.0
 10
774.0116270542463
 20
192.2789002392864
 30
0.0
 10
774.0534454209696
 20
192.225584444151
 30
0.0
 10
774.0700776139695
 20
192.1867485618234
 30
0.0
 10
774.0750672855652
 20
192.1701953622295
 30
0.0
 11
773.4740983037402
 21
192.1121267720543
 31
0.0
 11
773.5132556759046
 21
192.1738248777658
 31
0.0
 11
773.5693412934828
 21
192.2344307702529
 31
0.0
 11
773.6382312281786
 21
192.286571317916
 31
0.0
 11
773.7154984503273
 21
192.3243862628781
 31
0.0
 11
773.7962562371444
 21
192.3434940233729
 31
0.0
 11
773.8755825348675
 21
192.3415280297019
 31
0.0
 11
773.9479934814522
 21
192.3184253169001
 31
0.0
 11
774.0092343478107
 21
192.2759914171834
 31
0.0
 11
774.0547061483023
 21
192.2178983101909
 31
0.0
 11
774.0750672855652
 21
192.1701953622295
 31
0.0
  0
SPLINE
  5
100
330
2
100
AcDbEntity
  8
0
100
AcDbSpline
210
0.0
220
0.0
230
1.0
 70
     8
 71
     3
 72
    17
 73
    13
 74
    11
 42
0.0000000001
 43
0.0000000001
 44
0.0000000001
 12
-0.28884631010259
 22
0.9573754797048639
 32
0.0
 13
-0.5140215608411573
 23
-0.8577772642069854
 33
0.0
 40
0.0
 40
0.0
 40
0.0
 40
0.0
 40
0.1053846729151419
 40
0.2260500206926404
 40
0.3589058696568742
 40
0.4987252912340681
 40
0.6392518972675707
 40
0.7741308204093384
 40
0.8978241109316343
 40
1.006662675141895
 40
1.100232342738484
 40
1.178501261964449
 40
1.178501261964449
 40
1.178501261964449
 40
1.178501261964449
 10
778.7382879017143
 20
200.0676474011217
 30
0.0
 10
778.7281412437433
 20
200.1012783017169
 30
0.0
 10
778.6943851796836
 20
200.1698661610494
 30
0.0
 10
778.6183533298894
 20
200.2631053235996
 30
0.0
 10
778.5182885569039
 20
200.3487911549707
 30
0.0
 10
778.4006243623196
 20
200.4213575114607
 30
0.0
 10
778.2729750225336
 20
200.4761676932727
 30
0.0
 10
778.1436353660134
 20
200.5096389627683
 30
0.0
 10
778.0208341646365
 20
200.5196053291738
 30
0.0
 10
777.9120433597005
 20
200.5051353313997
 30
0.0
 10
777.8248646709267
 20
200.4666224404808
 30
0.0
 10
777.7838853576662
 20
200.4239302811481
 30
0.0
 10
777.7704747203243
 20
200.4015511813461
 30
0.0
 11
778.7382879017143
 21
200.0676474011217
 31
0.0
 11
778.6935957368828
 21
200.163086070895
 31
0.0
 11
778.6184918734767
 21
200.2575293652877
 31
0.0
 11
778.5180945150766
 21
200.3445411290343
 31
0.0
 11
778.3992455747026
 21
200.4181916553199
 31
0.0
 11
778.2700444130348
 21
200.4734617813103
 31
0.0
 11
778.1392958747407
 21
200.5065849400037
 31
0.0
 11
778.0159102561801
 21
200.5153038420357
 31
0.0
 11
777.9082960848387
 21
200.4990243093067
 31
0.0
 11
777.823787086951
 21
200.4588557647706
 31
0.0
 11
777.7704747203243
 21
200.4015511813461
 31
0.0
  0
LINE
  5
101
330
2
100
AcDbEntity
  8
0
100
AcDbLine
 10
777.7704747203243
 20
200.4015511813461
 30
0.0
 11
777.7639983704724
 21
200.3896961696311
 31
0.0
  0
SPLINE
  5
102
330
2
100
AcDbEntity
  8
0
100
AcDbSpline
210
0.0
220
0.0
230
1.0
 70
     8
 71
     3
 72
    19
 73
    15
 74
    13
 42
0.0000000001
 43
0.0000000001
 44
0.0000000001
 12
-0.2888463101438107
 22
0.9573754796924273
 32
0.0
 13
-0.640823256510945
 23
-0.7676884484702815
 33
0.0
 40
0.0
 40
0.0
 40
0.0
 40
0.0
 40
0.1484592628332296
 40
0.315847929170025
 40
0.4995609281083774
 40
0.6947517554581318
 40
0.8952625395333988
 40
1.094382773531199
 40
1.285543447370064
 40
1.463027121927887
 40
1.62278206474022
 40
1.763459502958481
 40
1.887721919629051
 40
1.909849036281031
 40
1.909849036281031
 40
1.909849036281031
 40
1.909849036281031
 10
775.0317066809164
 20
191.9379115743889
 30
0.0
 10
775.0174127108244
 20
191.9852886603788
 30
0.0
 10
774.9727086170971
 20
192.0819006653771
 30
0.0
 10
774.8731977341788
 20
192.2164070489209
 30
0.0
 10
774.7420060460913
 20
192.343726205178
 30
0.0
 10
774.5854194305437
 20
192.4577593147365
 30
0.0
 10
774.4109588475177
 20
192.5530983218634
 30
0.0
 10
774.2270812119941
 20
192.6251105454838
 30
0.0
 10
774.0426691211415
 20
192.6703099865182
 30
0.0
 10
773.866528771794
 20
192.686517486129
 30
0.0
 10
773.706748212611
 20
192.6727327136034
 30
0.0
 10
773.5705914254376
 20
192.6290642586611
 30
0.0
 10
773.4902812542694
 20
192.5731893838695
 30
0.0
 10
773.4576895581373
 20
192.5368242173256
 30
0.0
 10
773.4529630344873
 20
192.5311619733751
 30
0.0
 11
775.0317066809164
 21
191.9379115743889
 31
0.0
 11
774.9713642621249
 21
192.073554286008
 31
0.0
 11
774.8731813565123
 21
192.20912376142
 31
0.0
 11
774.742081264803
 21
192.3378219818146
 31
0.0
 11
774.5846378941068
 21
192.4531954800944
 31
0.0
 11
774.408746111457
 21
192.5494589483819
 31
0.0
 11
774.2232258658438
 21
192.6217853339887
 31
0.0
 11
774.0373799165336
 21
192.666547889183
 31
0.0
 11
773.8605273556212
 21
192.6815020335343
 31
0.0
 11
773.7015363091582
 21
192.6658979027479
 31
0.0
 11
773.5683792520031
 21
192.6205179539441
 31
0.0
 11
773.4677332346342
 21
192.5476377276507
 31
0.0
 11
773.4529630344873
 21
192.5311619733751
 31
0.0
  0
SPLINE
  5
103
330
2
100
AcDbEntity
  8
0
100
AcDbSpline
210
0.0
220
0.0
230
1.0
 70
     8
 71
     3
 72
    10
 73
     6
 74
     4
 42
0.0000000001
 43
0.0000000001
 44
0.0000000001
 12
0.4295170562596557
 22
-0.9030587458089534
 32
0.0
 13
0.7159334795520845
 23
-0.6981684989001188
 33
0.0
 40
0.0
 40
0.0
 40
0.0
 40
0.0
 40
0.047217852682518
 40
0.1558166652056647
 40
0.174566234972232
 40
0.174566234972232
 40
0.174566234972232
 40
0.174566234972232
 10
773.7487221741497
 20
192.0130760695984
 30
0.0
 10
773.7554824651788
 20
191.9988625713239
 30
0.0
 10
773.7808915203502
 20
191.9534229265268
 30
0.0
 10
773.8179813272767
 20
191.9079031908402
 30
0.0
 10
773.8479416320294
 20
191.8778469462695
 30
0.0
 10
773.8524161136037
 20
191.8734834932765
 30
0.0
 11
773.7487221741497
 21
192.0130760695984
 31
0.0
 11
773.7715889360031
 21
191.9717646085459
 31
0.0
 11
773.8391824124353
 21
191.8867656436978
 31
0.0
 11
773.8524161136037
 21
191.8734834932765
 31
0.0
  0
SPLINE
  5
104
330
2
100
AcDbEntity
  8
0
100
AcDbSpline
210
0.0
220
0.0
230
1.0
 70
     8
 71
     3
 72
    10
 73
     6
 74
     4
 42
0.0000000001
 43
0.0000000001
 44
0.0000000001
 12
-0.2888463186829405
 22
0.9573754771161173
 32
0.0
 13
0.4470967591335424
 23
0.8944855996450044
 33
0.0
 40
0.0
 40
0.0
 40
0.0
 40
0.0
 40
0.0643350849077058
 40
0.1244682094868893
 40
0.147502145475098
 40
0.147502145475098
 40
0.147502145475098
 40
0.147502145475098
 10
772.2282933718945
 20
189.0458568757504
 30
0.0
 10
772.2220990544152
 20
189.0663878199533
 30
0.0
 10
772.2145128385729
 20
189.1077454891611
 30
0.0
 10
772.2210420943057
 20
189.1575612188542
 30
0.0
 10
772.2317010951403
 20
189.1832594908612
 30
0.0
 10
772.2351338945172
 20
189.1901273322094
 30
0.0
 11
772.2282933718945
 21
189.0458568757504
 31
0.0
 11
772.2177554838617
 21
189.1093230562396
 31
0.0
 11
772.2263320914737
 21
189.1688414103291
 31
0.0
 11
772.2351338945172
 21
189.1901273322094
 31
0.0
  0
SPLINE
  5
105
330
2
100
AcDbEntity
  8
0
100
AcDbSpline
210
0.0
220
0.0
230
1.0
 70
     8
 71
     3
 72
     9
 73
     5
 74
     3
 42
0.0000000001
 43
0.0000000001
 44
0.0000000001
 12
0.5448902206679506
 22
-0.8385073925854394
 32
0.0
 13
0.2888462724176057
 23
-0.9573754910746641
 33
0.0
 40
0.0
 40
0.0
 40
0.0
 40
0.0
 40
0.0422950895297226
 40
0.1460629867685556
 40
0.1460629867685556
 40
0.1460629867685556
 40
0.1460629867685556
 10
773.1663946064584
 20
188.841038410362
 30
0.0
 10
773.1740766666807
 20
188.8292168286151
 30
0.0
 10
773.1992566324249
 20
188.787552480622
 30
0.0
 10
773.2192821760633
 20
188.7426240606376
 30
0.0
 10
773.229273166168
 20
188.7095091134454
 30
0.0
 11
773.1663946064584
 21
188.841038410362
 31
0.0
 11
773.1882270698413
 21
188.8048138587297
 31
0.0
 11
773.229273166168
 21
188.7095091134454
 31
0.0
  0
SPLINE
  5
106
330
2
100
AcDbEntity
  8
0
100
AcDbSpline
210
0.0
220
0.0
230
1.0
 70
     8
 71
     3
 72
    18
 73
    14
 74
    12
 42
0.0000000001
 43
0.0000000001
 44
0.0000000001
 12
-0.2888463101949989
 22
0.9573754796769836
 32
0.0
 13
-0.6419559337717024
 23
-0.7667415334356824
 33
0.0
 40
0.0
 40
0.0
 40
0.0
 40
0.0
 40
0.1403014462438734
 40
0.2996541139825577
 40
0.4748908912667094
 40
0.6603927471599285
 40
0.8492153843668514
 40
1.034018823598789
 40
1.207943870470867
 40
1.36555354995578
 40
1.503988160381481
 40
1.624488654963059
 40
1.667958764045768
 40
1.667958764045768
 40
1.667958764045768
 40
1.667958764045768
 10
775.1422018174269
 20
192.3828794244932
 30
0.0
 10
775.1286932990726
 20
192.4276531459589
 30
0.0
 10
775.0852035367968
 20
192.5189750108668
 30
0.0
 10
774.9877682801127
 20
192.6447713024435
 30
0.0
 10
774.8593287716539
 20
192.7623223308261
 30
0.0
 10
774.7069730526921
 20
192.8651096403111
 30
0.0
 10
774.5391525517927
 20
192.9475041085924
 30
0.0
 10
774.3652395177784
 20
193.0048807089865
 30
0.0
 10
774.1948869951069
 20
193.0340629042567
 30
0.0
 10
774.0372273960582
 20
193.0333030693386
 30
0.0
 10
773.9005384933551
 20
193.0022789252506
 30
0.0
 10
773.8109043336408
 20
192.9514037046692
 30
0.0
 10
773.7725229015636
 20
192.9121547875964
 30
0.0
 10
773.7632209367411
 20
192.9010446748975
 30
0.0
 11
775.1422018174269
 21
192.3828794244932
 31
0.0
 11
775.0840243793792
 21
192.5105504138382
 31
0.0
 11
774.9878563124369
 21
192.6376132943974
 31
0.0
 11
774.8592865553131
 21
192.7566836335507
 31
0.0
 11
774.7057871152605
 21
192.8608414966401
 31
0.0
 11
774.536278822139
 21
192.9440336049487
 31
0.0
 11
774.3606128803991
 21
193.0014251379878
 31
0.0
 11
774.1889983567586
 21
193.0296807074404
 31
0.0
 11
774.0314088646141
 21
193.0271582021391
 31
0.0
 11
773.8970029310836
 21
192.9940042220536
 31
0.0
 11
773.7935917404207
 21
192.9321455537842
 31
0.0
 11
773.7632209367411
 21
192.9010446748975
 31
0.0
  0
SPLINE
  5
107
330
2
100
AcDbEntity
  8
0
100
AcDbSpline
210
0.0
220
0.0
230
1.0
 70
     8
 71
     3
 72
    18
 73
    14
 74
    12
 42
0.0000000001
 43
0.0000000001
 44
0.0000000001
 12
-0.2888463100933794
 22
0.9573754797076428
 32
0.0
 13
-0.4475179580533766
 23
-0.8942749449804217
 33
0.0
 40
0.0
 40
0.0
 40
0.0
 40
0.0
 40
0.1403014462438567
 40
0.299654114613769
 40
0.4748908918982088
 40
0.6603927474072198
 40
0.8492153848764711
 40
1.03401882410945
 40
1.207943870980717
 40
1.365553550468228
 40
1.503988161252176
 40
1.624488655244733
 40
1.728854409631274
 40
1.728854409631274
 40
1.728854409631274
 40
1.728854409631274
 10
775.201533631195
 20
192.5017663662506
 30
0.0
 10
775.1880251128455
 20
192.5465400877177
 30
0.0
 10
775.1445353479429
 20
192.6378619500184
 30
0.0
 10
775.0471001041811
 20
192.7636582562283
 30
0.0
 10
774.9186605443948
 20
192.8812092265734
 30
0.0
 10
774.766305031215
 20
192.9839967695802
 30
0.0
 10
774.5984837440292
 20
193.0663903442102
 30
0.0
 10
774.4245735399451
 20
193.1237701631307
 30
0.0
 10
774.2542114045757
 20
193.1529414255832
 30
0.0
 10
774.0965827592775
 20
193.1522167955933
 30
0.0
 10
773.9597981173106
 20
193.1210837637327
 30
0.0
 10
773.8524053287386
 20
193.0602948137521
 30
0.0
 10
773.8043477755129
 20
192.9998161464109
 30
0.0
 10
773.7887792590817
 20
192.968705586657
 30
0.0
 11
775.201533631195
 21
192.5017663662506
 31
0.0
 11
775.1433561931476
 21
192.6294373555957
 31
0.0
 11
775.0471881263532
 21
192.7565002370586
 31
0.0
 11
774.9186183692288
 21
192.8755705762116
 31
0.0
 11
774.7651189290287
 21
192.9797284383994
 31
0.0
 11
774.595610636057
 21
193.0629205476085
 31
0.0
 11
774.4199446943157
 21
193.1203120806468
 31
0.0
 11
774.2483301706761
 21
193.1485676500999
 31
0.0
 11
774.090740678529
 21
193.1460451447997
 31
0.0
 11
773.9563347448522
 21
193.1128911638115
 31
0.0
 11
773.8529235543367
 21
193.051032496443
 31
0.0
 11
773.7887792590817
 21
192.968705586657
 31
0.0
  0
SPLINE
  5
108
330
2
100
AcDbEntity
  8
0
100
AcDbSpline
210
0.0
220
0.0
230
1.0
 70
     8
 71
     3
 72
    10
 73
     6
 74
     4
 42
0.0000000001
 43
0.0000000001
 44
0.0000000001
 12
0.2888463121415422
 22
-0.9573754790896991
 32
0.0
 13
-0.4475179592057142
 23
-0.8942749444037627
 33
0.0
 40
0.0
 40
0.0
 40
0.0
 40
0.0
 40
0.1220221678919917
 40
0.2320517558080091
 40
0.2372151711626652
 40
0.2372151711626652
 40
0.2372151711626652
 40
0.2372151711626652
 10
775.201533631195
 20
192.5017663662506
 30
0.0
 10
775.21328218226
 20
192.4628260224355
 30
0.0
 10
775.2260641909547
 20
192.3849397672312
 30
0.0
 10
775.2081297858516
 20
192.3052926717551
 30
0.0
 10
775.1913047206326
 20
192.2707810138042
 30
0.0
 10
775.1905344802652
 20
192.2692418428112
 30
0.0
 11
775.201533631195
 21
192.5017663662506
 31
0.0
 11
775.2183393796707
 21
192.38090704193
 31
0.0
 11
775.1927967486415
 21
192.2738832865433
 31
0.0
 11
775.1905344802652
 21
192.2692418428112
 31
0.0
  0
SPLINE
  5
109
330
2
100
AcDbEntity
  8
0
100
AcDbSpline
210
0.0
220
0.0
230
1.0
 70
     8
 71
     3
 72
    19
 73
    15
 74
    13
 42
0.0000000001
 43
0.0000000001
 44
0.0000000001
 12
-0.2888463103438352
 22
0.9573754796320788
 32
0.0
 13
-0.4482558073311438
 23
-0.8939053256323651
 33
0.0
 40
0.0
 40
0.0
 40
0.0
 40
0.0
 40
0.1878099107655577
 40
0.3995666579966542
 40
0.6319746677911184
 40
0.8789028232814589
 40
1.132561043883655
 40
1.384460134554456
 40
1.626289903284537
 40
1.850817443177366
 40
2.052917069862163
 40
2.23088250325374
 40
2.388081946454172
 40
2.504757404589744
 40
2.504757404589744
 40
2.504757404589744
 40
2.504757404589744
 10
775.5206508004627
 20
192.4492251410181
 30
0.0
 10
775.5025680672059
 20
192.5091600088177
 30
0.0
 10
775.4460146957853
 20
192.6313800158206
 30
0.0
 10
775.3201274318278
 20
192.8015386906181
 30
0.0
 10
775.1541620558209
 20
192.9626051075935
 30
0.0
 10
774.9560705001221
 20
193.1068637987509
 30
0.0
 10
774.735367566388
 20
193.2274736291672
 30
0.0
 10
774.5027504927072
 20
193.3185725304948
 30
0.0
 10
774.2694608457648
 20
193.3757556960212
 30
0.0
 10
774.0466235028109
 20
193.3962486596889
 30
0.0
 10
773.8445208122989
 20
193.3788436166645
 30
0.0
 10
773.6721830520701
 20
193.3234961640394
 30
0.0
 10
773.5460454443599
 20
193.2358579090737
 30
0.0
 10
773.4920432988539
 20
193.1601776915051
 30
0.0
 10
773.4746098149599
 20
193.1254120870391
 30
0.0
 11
775.5206508004627
 21
192.4492251410181
 31
0.0
 11
775.4443140054526
 21
192.6208213423436
 31
0.0
 11
775.320106715069
 21
192.7923248962818
 31
0.0
 11
775.1542572017005
 21
192.95513589693
 31
0.0
 11
774.9550818533307
 21
193.1010903232954
 31
0.0
 11
774.732568152138
 21
193.2228694087764
 31
0.0
 11
774.4978738661317
 21
193.3143666436897
 31
0.0
 11
774.2627675440727
 21
193.3709939725331
 31
0.0
 11
774.0390384009685
 21
193.3899118660775
 31
0.0
 11
773.8379051491996
 21
193.3701717004495
 31
0.0
 11
773.6694534506051
 21
193.3127633323932
 31
0.0
 11
773.5421301757237
 21
193.2205654548905
 31
0.0
 11
773.4746098149599
 21
193.1254120870391
 31
0.0
  0
SPLINE
  5
10A
330
2
100
AcDbEntity
  8
0
100
AcDbSpline
210
0.0
220
0.0
230
1.0
 70
     8
 71
     3
 72
    14
 73
    10
 74
     8
 42
0.0000000001
 43
0.0000000001
 44
0.0000000001
 12
-0.2888463012262448
 22
0.9573754823829141
 32
0.0
 13
0.9976900865969986
 23
0.0679300456799007
 33
0.0
 40
0.0
 40
0.0
 40
0.0
 40
0.0
 40
0.0926498811167664
 40
0.1795229920248824
 40
0.2648136354037132
 40
0.3547095802690421
 40
0.4539820962245757
 40
0.5655025751755244
 40
0.572277255225841
 40
0.572277255225841
 40
0.572277255225841
 40
0.572277255225841
 10
771.9528044899956
 20
188.9196740142276
 30
0.0
 10
771.9438839648391
 20
188.9492409224365
 30
0.0
 10
771.9330015570173
 20
189.0089260317401
 30
0.0
 10
771.9444892193178
 20
189.0982145343477
 30
0.0
 10
771.9877680362558
 20
189.1765652962085
 30
0.0
 10
772.0593446651036
 20
189.2363446885388
 30
0.0
 10
772.152903160081
 20
189.2753099341897
 30
0.0
 10
772.2250153409533
 20
189.2872440143564
 30
0.0
 10
772.2643376551332
 20
189.2901245561056
 30
0.0
 10
772.2665906655087
 20
189.2902779575474
 30
0.0
 11
771.9528044899956
 21
188.9196740142276
 31
0.0
 11
771.9376241359545
 21
189.0110718113681
 31
0.0
 11
771.9498956884477
 21
189.0970738252879
 31
0.0
 11
771.9909789778609
 21
189.1718177693835
 31
0.0
 11
772.0590505227112
 21
189.2305335737714
 31
0.0
 11
772.1500413118242
 21
189.2702287714751
 31
0.0
 11
772.2598341059033
 21
189.2897827888053
 31
0.0
 11
772.2665906655087
 21
189.2902779575474
 31
0.0
  0
SPLINE
  5
10B
330
2
100
AcDbEntity
  8
0
100
AcDbSpline
210
0.0
220
0.0
230
1.0
 70
     8
 71
     3
 72
    20
 73
    16
 74
    14
 42
0.0000000001
 43
0.0000000001
 44
0.0000000001
 12
-0.4470682485023498
 22
-0.8944998497378529
 32
0.0
 13
-0.2888463375377896
 23
0.9573754714274882
 33
0.0
 40
0.0
 40
0.0
 40
0.0
 40
0.0
 40
0.0362383903779737
 40
0.0984595741254842
 40
0.1671718844518448
 40
0.2443548543587623
 40
0.3306651864042927
 40
0.4248462030888187
 40
0.5239368833008723
 40
0.6252365627838909
 40
0.7267500659895144
 40
0.8258300403745336
 40
0.9185443170228513
 40
1.001640728624529
 40
1.073723721166504
 40
1.073723721166504
 40
1.073723721166504
 40
1.073723721166504
 10
773.1051615633888
 20
188.7560811501952
 30
0.0
 10
773.0997612188172
 20
188.7452760719459
 30
0.0
 10
773.0817721500974
 20
188.7174526392842
 30
0.0
 10
773.0380927434379
 20
188.6810392921652
 30
0.0
 10
772.9733267504665
 20
188.6541173037256
 30
0.0
 10
772.8964366752161
 20
188.6414040088725
 30
0.0
 10
772.8101756061443
 20
188.6429554962627
 30
0.0
 10
772.7180023607063
 20
188.6586384085159
 30
0.0
 10
772.6239460926481
 20
188.6877101142376
 30
0.0
 10
772.5318723245526
 20
188.7289113575314
 30
0.0
 10
772.4453270474221
 20
188.7807350210268
 30
0.0
 10
772.3680878305473
 20
188.8411217490001
 30
0.0
 10
772.3040949035225
 20
188.9071801155299
 30
0.0
 10
772.2564621725974
 20
188.9751605353646
 30
0.0
 10
772.2352336746927
 20
189.0228533794281
 30
0.0
 10
772.2282933718945
 20
189.0458568757504
 30
0.0
 11
773.1051615633888
 21
188.7560811501952
 31
0.0
 11
773.0854712753433
 21
188.7256588969277
 31
0.0
 11
773.0383128350911
 21
188.6850687845859
 31
0.0
 11
772.9753179090779
 21
188.6576275585386
 31
0.0
 11
772.8993264342035
 21
188.6441180585454
 31
0.0
 11
772.8130203542422
 21
188.6449747845914
 31
0.0
 11
772.7200975358337
 21
188.6603179825224
 31
0.0
 11
772.6253531711311
 21
188.6893432863449
 31
0.0
 11
772.5328635481495
 21
188.730662709188
 31
0.0
 11
772.4458282806176
 21
188.7829107095204
 31
0.0
 11
772.3679748873088
 21
188.8441943980063
 31
0.0
 11
772.3038431473041
 21
188.9111500327086
 31
0.0
 11
772.2568088589349
 21
188.9796539693742
 31
0.0
 11
772.2282933718945
 21
189.0458568757504
 31
0.0
  0
SPLINE
  5
10C
330
2
100
AcDbEntity
  8
0
100
AcDbSpline
210
0.0
220
0.0
230
1.0
 70
     8
 71
     3
 72
    10
 73
     6
 74
     4
 42
0.0000000001
 43
0.0000000001
 44
0.0000000001
 12
-0.2926830412250633
 22
0.9562095154197368
 32
0.0
 13
0.4465411881986648
 23
0.8947630788326732
 33
0.0
 40
0.0
 40
0.0
 40
0.0
 40
0.0
 40
0.0149017509625798
 40
0.0701943165110837
 40
0.1331636298892029
 40
0.1331636298892029
 40
0.1331636298892029
 40
0.1331636298892029
 10
773.4544925453534
 20
191.9831056880046
 30
0.0
 10
773.4530387154229
 20
191.9878554200268
 30
0.0
 10
773.4475580684793
 20
192.0106782448419
 30
0.0
 10
773.4504039762859
 20
192.0562073388681
 30
0.0
 10
773.4647255064015
 20
192.0933458998176
 30
0.0
 10
773.4740983037402
 20
192.1121267720543
 30
0.0
 11
773.4544925453534
 21
191.9831056880046
 31
0.0
 11
773.4510263238806
 21
191.9975987032344
 31
0.0
 11
773.4528180648619
 21
192.0528622307113
 31
0.0
 11
773.4740983037402
 21
192.1121267720543
 31
0.0
  0
SPLINE
  5
10D
330
2
100
AcDbEntity
  8
0
100
AcDbSpline
210
0.0
220
0.0
230
1.0
 70
     8
 71
     3
 72
    22
 73
    18
 74
    16
 42
0.0000000001
 43
0.0000000001
 44
0.0000000001
 12
0.2888463010311674
 22
-0.9573754824417704
 32
0.0
 13
-0.2888462701612778
 23
0.9573754917554126
 33
0.0
 40
0.0
 40
0.0
 40
0.0
 40
0.0
 40
0.0926498811162422
 40
0.1795229920062682
 40
0.264813635381917
 40
0.3547095802487971
 40
0.4539820954368713
 40
0.5655025752512721
 40
0.6902277563146763
 40
0.8263490234572332
 40
0.9695849392326746
 40
1.116010248043381
 40
1.262730820401628
 40
1.405909827453267
 40
1.539855832069844
 40
1.659874301300343
 40
1.763642198539134
 40
1.763642198539134
 40
1.763642198539134
 40
1.763642198539134
 10
773.229273166168
 20
188.7095091134454
 30
0.0
 10
773.2381936913184
 20
188.6799422052347
 30
0.0
 10
773.2490759991153
 20
188.6202570885365
 30
0.0
 10
773.2375887610957
 20
188.5309686173377
 30
0.0
 10
773.1943084050146
 20
188.4526177427443
 30
0.0
 10
773.1227380096245
 20
188.3928388068023
 30
0.0
 10
773.0291525139407
 20
188.3538715849207
 30
0.0
 10
772.9180657088488
 20
188.3354764123593
 30
0.0
 10
772.7934056472604
 20
188.3376954548814
 30
0.0
 10
772.6601842529931
 20
188.3603461534587
 30
0.0
 10
772.5242330150805
 20
188.4023734341835
 30
0.0
 10
772.3911537283339
 20
188.4619415140855
 30
0.0
 10
772.2660755187931
 20
188.5368553886286
 30
0.0
 10
772.1545027159167
 20
188.6241679163079
 30
0.0
 10
772.0620567362896
 20
188.719618063338
 30
0.0
 10
771.9934323152615
 20
188.8177968332276
 30
0.0
 10
771.9627954800222
 20
188.8865590670118
 30
0.0
 10
771.9528044899956
 20
188.9196740142276
 30
0.0
 11
773.229273166168
 21
188.7095091134454
 31
0.0
 11
773.2444535202107
 21
188.6181113163057
 31
0.0
 11
773.2321819668112
 21
188.5321093025335
 31
0.0
 11
773.1910986774019
 21
188.4573653584394
 31
0.0
 11
773.1230271325499
 21
188.3986495540511
 31
0.0
 11
773.0320363443385
 21
188.3589543561999
 31
0.0
 11
772.9222435493563
 21
188.3394003390162
 31
0.0
 11
772.7975242843257
 21
188.3406151318142
 31
0.0
 11
772.663219100449
 21
188.362776290456
 31
0.0
 11
772.5262668407449
 21
188.404735867789
 31
0.0
 11
772.3925820427008
 21
188.4644748486325
 31
0.0
 11
772.2667996483055
 21
188.5400110360748
 31
0.0
 11
772.1543256424429
 21
188.6286102802336
 31
0.0
 11
772.0617073548041
 21
188.7253748654267
 31
0.0
 11
771.9938505863217
 21
188.8243692689431
 31
0.0
 11
771.9528044899956
 21
188.9196740142276
 31
0.0
  0
SPLINE
  5
10E
330
2
100
AcDbEntity
  8
0
100
AcDbSpline
210
0.0
220
0.0
230
1.0
 70
     8
 71
     3
 72
    19
 73
    15
 74
    13
 42
0.0000000001
 43
0.0000000001
 44
0.0000000001
 12
-0.2888463103755651
 22
0.9573754796225058
 32
0.0
 13
-0.4482558069825017
 23
-0.8939053258071943
 33
0.0
 40
0.0
 40
0.0
 40
0.0
 40
0.0
 40
0.1484592628354953
 40
0.3158479291701602
 40
0.4995609273606494
 40
0.6947517547099097
 40
0.8952625387867795
 40
1.094382772593234
 40
1.285543446499132
 40
1.463027121127714
 40
1.622782063706059
 40
1.763459501924312
 40
1.887721918594512
 40
1.979951090064448
 40
1.979951090064448
 40
1.979951090064448
 40
1.979951090064448
 10
773.40601498205
 20
188.6804093580856
 30
0.0
 10
773.3917210119463
 20
188.7277864440727
 30
0.0
 10
773.3470169187628
 20
188.8243984496766
 30
0.0
 10
773.2475060332689
 20
188.9589048299233
 30
0.0
 10
773.1163143568233
 20
189.0862239990397
 30
0.0
 10
772.9597276973643
 20
189.200257057981
 30
0.0
 10
772.7852672841548
 20
189.2955962593875
 30
0.0
 10
772.6013890248434
 20
189.3676077689386
 30
0.0
 10
772.4169791141148
 20
189.4128097028119
 30
0.0
 10
772.2408315001588
 20
189.4290088997124
 30
0.0
 10
772.0810741349501
 20
189.4152506302572
 30
0.0
 10
771.9448452394135
 20
189.3714997849984
 30
0.0
 10
771.8451364632717
 20
189.3022238322062
 30
0.0
 10
771.8024490529723
 20
189.2424004222612
 30
0.0
 10
771.7886682990775
 20
189.2149190397373
 30
0.0
 11
773.40601498205
 21
188.6804093580856
 31
0.0
 11
773.3456725632565
 21
188.8160520697063
 31
0.0
 11
773.2474896576456
 21
188.9516215451168
 31
0.0
 11
773.1163895668396
 21
189.0803197653641
 31
0.0
 11
772.9589461961424
 21
189.1956932636415
 31
0.0
 11
772.7830544134916
 21
189.2919567319307
 31
0.0
 11
772.5975341677306
 21
189.3642831166316
 31
0.0
 11
772.4116882185692
 21
189.40904567273
 31
0.0
 11
772.2348356575096
 21
189.42399981618
 31
0.0
 11
772.0758446111934
 21
189.4083956862949
 31
0.0
 11
771.9426875540382
 21
189.3630157374911
 31
0.0
 11
771.8420415366697
 21
189.2901355111977
 31
0.0
 11
771.7886682990775
 21
189.2149190397373
 31
0.0
  0
SPLINE
  5
10F
330
2
100
AcDbEntity
  8
0
100
AcDbSpline
210
0.0
220
0.0
230
1.0
 70
     8
 71
     3
 72
     9
 73
     5
 74
     3
 42
0.0000000001
 43
0.0000000001
 44
0.0000000001
 12
0.2888463087982713
 22
-0.9573754800983852
 32
0.0
 13
-0.4442592924035094
 23
-0.8958982537727893
 33
0.0
 40
0.0
 40
0.0
 40
0.0
 40
0.0
 40
0.0906291093148929
 40
0.1635591190471939
 40
0.1635591190471939
 40
0.1635591190471939
 40
0.1635591190471939
 10
778.7382879017143
 20
200.0676474011217
 30
0.0
 10
778.7470138629461
 20
200.0387253721079
 30
0.0
 10
778.7555303505478
 20
199.983413825243
 30
0.0
 10
778.7414783962637
 20
199.9290432303423
 30
0.0
 10
778.7306784514242
 20
199.9072639408867
 30
0.0
 11
778.7382879017143
 21
200.0676474011217
 31
0.0
 11
778.7495226689423
 21
199.9777173424063
 31
0.0
 11
778.7306784514242
 21
199.9072639408867
 31
0.0
  0
SPLINE
  5
110
330
2
100
AcDbEntity
  8
0
100
AcDbSpline
210
0.0
220
0.0
230
1.0
 70
     8
 71
     3
 72
    10
 73
     6
 74
     4
 42
0.0000000001
 43
0.0000000001
 44
0.0000000001
 12
0.2888463090118564
 22
-0.9573754800339454
 32
0.0
 13
-0.448255807570564
 23
-0.8939053255123058
 33
0.0
 40
0.0
 40
0.0
 40
0.0
 40
0.0
 40
0.1303771613337955
 40
0.2482403859908032
 40
0.2718420601564033
 40
0.2718420601564033
 40
0.2718420601564033
 40
0.2718420601564033
 10
773.40601498205
 20
188.6804093580856
 30
0.0
 10
773.4185679693268
 20
188.6388027256131
 30
0.0
 10
773.4328631903211
 20
188.5558635169287
 30
0.0
 10
773.4163897460588
 20
188.4642948094093
 30
0.0
 10
773.396935886257
 20
188.4212966420118
 30
0.0
 10
773.393409357086
 20
188.4142640879359
 30
0.0
 11
773.40601498205
 21
188.6804093580856
 31
0.0
 11
773.4254910934959
 21
188.5514951025496
 31
0.0
 11
773.4031242839148
 21
188.4357736025778
 31
0.0
 11
773.393409357086
 21
188.4142640879359
 31
0.0
  0
SPLINE
  5
111
330
2
100
AcDbEntity
  8
0
100
AcDbSpline
210
0.0
220
0.0
230
1.0
 70
     8
 71
     3
 72
     9
 73
     5
 74
     3
 42
0.0000000001
 43
0.0000000001
 44
0.0000000001
 12
0.2888463102239181
 22
-0.9573754796682585
 32
0.0
 13
-0.2249755140458558
 23
-0.9743644174947087
 33
0.0
 40
0.0
 40
0.0
 40
0.0
 40
0.0
 40
0.1303771613335315
 40
0.2021111572768237
 40
0.2021111572768237
 40
0.2021111572768237
 40
0.2021111572768237
 10
775.0317066809164
 20
191.9379115743889
 30
0.0
 10
775.0442596682459
 20
191.8963049419324
 30
0.0
 10
775.0558542689076
 20
191.8285438533837
 30
0.0
 10
775.0481380616081
 20
191.7610580456288
 30
0.0
 10
775.0427585974041
 20
191.7377596945715
 30
0.0
 11
775.0317066809164
 21
191.9379115743889
 31
0.0
 11
775.0511827923624
 21
191.8089973188532
 31
0.0
 11
775.0427585974041
 21
191.7377596945715
 31
0.0
  0
SPLINE
  5
112
330
2
100
AcDbEntity
  8
0
100
AcDbSpline
210
0.0
220
0.0
230
1.0
 70
     8
 71
     3
 72
     9
 73
     5
 74
     3
 42
0.0000000001
 43
0.0000000001
 44
0.0000000001
 12
-0.545314581370893
 22
0.8382314759923346
 32
0.0
 13
-0.6628816319301322
 23
0.7487242096056765
 33
0.0
 40
0.0
 40
0.0
 40
0.0
 40
0.0
 40
0.1632698016142935
 40
0.1767013822432779
 40
0.1767013822432779
 40
0.1767013822432779
 40
0.1767013822432779
 10
776.0911833218422
 20
194.0096128648111
 30
0.0
 10
776.0615055206695
 20
194.0552321604084
 30
0.0
 10
776.025472462993
 20
194.1021722041972
 30
0.0
 10
775.9866477054043
 20
194.1464581856368
 30
0.0
 10
775.9836798560422
 20
194.1498103688336
 30
0.0
 11
776.0911833218422
 21
194.0096128648111
 31
0.0
 11
775.9925339382124
 21
194.1397102407594
 31
0.0
 11
775.9836798560422
 21
194.1498103688336
 31
0.0
  0
SPLINE
  5
113
330
2
100
AcDbEntity
  8
0
100
AcDbSpline
210
0.0
220
0.0
230
1.0
 70
     8
 71
     3
 72
    13
 73
     9
 74
     7
 42
0.0000000001
 43
0.0000000001
 44
0.0000000001
 12
-0.6628816334992616
 22
0.7487242082164506
 32
0.0
 13
-0.9967670660970341
 23
0.0803456031423666
 33
0.0
 40
0.0
 40
0.0
 40
0.0
 40
0.0
 40
0.2190163835178481
 40
0.4659445390070574
 40
0.719602759607569
 40
0.9715018509866455
 40
1.213331618868251
 40
1.333506861145758
 40
1.333506861145758
 40
1.333506861145758
 40
1.333506861145758
 10
775.9836798560422
 20
194.1498103688336
 30
0.0
 10
775.9352858766857
 20
194.2044713249455
 30
0.0
 10
775.8229553111826
 20
194.3126436113317
 30
0.0
 10
775.6285033564202
 20
194.454243859015
 30
0.0
 10
775.4077882628888
 20
194.5748611005271
 30
0.0
 10
775.1751976058929
 20
194.6659547768212
 30
0.0
 10
774.975726566801
 20
194.7148408965585
 30
0.0
 10
774.8558543333597
 20
194.7298887650491
 30
0.0
 10
774.8159254254723
 20
194.7331072824903
 30
0.0
 11
775.9836798560422
 21
194.1498103688336
 31
0.0
 11
775.8266844249913
 21
194.3025212423115
 31
0.0
 11
775.6275090766234
 21
194.4484756686775
 31
0.0
 11
775.4049953754315
 21
194.5702547541566
 31
0.0
 11
775.1703010883711
 21
194.661751988316
 31
0.0
 11
774.9351947673665
 21
194.7183793179134
 31
0.0
 11
774.8159254254723
 21
194.7331072824903
 31
0.0
  0
SPLINE
  5
114
330
2
100
AcDbEntity
  8
0
100
AcDbSpline
210
0.0
220
0.0
230
1.0
 70
     8
 71
     3
 72
     9
 73
     5
 74
     3
 42
0.0000000001
 43
0.0000000001
 44
0.0000000001
 12
-0.9967670663026446
 22
0.0803456005915655
 32
0.0
 13
-0.9977180399059577
 23
-0.0675182408406353
 33
0.0
 40
0.0
 40
0.0
 40
0.0
 40
0.0
 40
0.1045437975081851
 40
0.1779799127767688
 40
0.1779799127767688
 40
0.1779799127767688
 40
0.1779799127767688
 10
774.8159254254723
 20
194.7331072824903
 30
0.0
 10
774.7811901540249
 20
194.7359071605566
 30
0.0
 10
774.7218344032914
 20
194.7383838644569
 30
0.0
 10
774.6624946996133
 20
194.7364564726272
 30
0.0
 10
774.638071853952
 20
194.7348037135215
 30
0.0
 11
774.8159254254723
 21
194.7331072824903
 31
0.0
 11
774.7114656241119
 21
194.7372972105552
 31
0.0
 11
774.638071853952
 21
194.7348037135215
 31
0.0
  0
SPLINE
  5
115
330
2
100
AcDbEntity
  8
0
100
AcDbSpline
210
0.0
220
0.0
230
1.0
 70
     8
 71
     3
 72
     9
 73
     5
 74
     3
 42
0.0000000001
 43
0.0000000001
 44
0.0000000001
 12
0.2888463100124711
 22
-0.9573754797320534
 32
0.0
 13
-0.2255310930678845
 23
-0.9742359704196951
 33
0.0
 40
0.0
 40
0.0
 40
0.0
 40
0.0
 40
0.1220221687646443
 40
0.1764621028495738
 40
0.1764621028495738
 40
0.1764621028495738
 40
0.1764621028495738
 10
775.1422018174269
 20
192.3828794244932
 30
0.0
 10
775.1539503684893
 20
192.3439390803735
 30
0.0
 10
775.1636099635297
 20
192.2844092734852
 30
0.0
 10
775.1559074903008
 20
192.2257365282619
 30
0.0
 10
775.1518148576872
 20
192.2080574142577
 30
0.0
 11
775.1422018174269
 21
192.3828794244932
 31
0.0
 11
775.1590075657542
 21
192.2620200992709
 31
0.0
 11
775.1518148576872
 21
192.2080574142577
 31
0.0
  0
SPLINE
  5
116
330
2
100
AcDbEntity
  8
0
100
AcDbSpline
210
0.0
220
0.0
230
1.0
 70
     8
 71
     3
 72
    10
 73
     6
 74
     4
 42
0.0000000001
 43
0.0000000001
 44
0.0000000001
 12
0.2888463112287508
 22
-0.9573754793650941
 32
0.0
 13
-0.4482558076352574
 23
-0.8939053254798649
 33
0.0
 40
0.0
 40
0.0
 40
0.0
 40
0.0
 40
0.1649349627898117
 40
0.3140390428425363
 40
0.3438965813675425
 40
0.3438965813675425
 40
0.3438965813675425
 40
0.3438965813675425
 10
775.5206508004627
 20
192.4492251410181
 30
0.0
 10
775.536531085661
 20
192.3965902446631
 30
0.0
 10
775.5546153990212
 20
192.291667149617
 30
0.0
 10
775.5337755040585
 20
192.175827216986
 30
0.0
 10
775.5091651960711
 20
192.1214319466604
 30
0.0
 10
775.5047039243891
 20
192.1125353424293
 30
0.0
 11
775.5206508004627
 21
192.4492251410181
 31
0.0
 11
775.5452892540634
 21
192.2861408420968
 31
0.0
 11
775.5169938926322
 21
192.1397461727613
 31
0.0
 11
775.5047039243891
 21
192.1125353424293
 31
0.0
  0
SPLINE
  5
117
330
2
100
AcDbEntity
  8
0
100
AcDbSpline
210
0.0
220
0.0
230
1.0
 70
     8
 71
     3
 72
     9
 73
     5
 74
     3
 42
0.0000000001
 43
0.0000000001
 44
0.0000000001
 12
-0.288846311663658
 22
0.9573754792338798
 32
0.0
 13
-0.5453145828373904
 23
0.8382314750382992
 33
0.0
 40
0.0
 40
0.0
 40
0.0
 40
0.0
 40
0.1878099107677142
 40
0.2364687028564939
 40
0.2364687028564939
 40
0.2364687028564939
 40
0.2364687028564939
 10
776.0295736125911
 20
193.4689862639367
 30
0.0
 10
776.0114908792513
 20
193.5289211317121
 30
0.0
 10
775.9779445215452
 20
193.6013770226018
 30
0.0
 10
775.936523694549
 20
193.6683928651777
 30
0.0
 10
775.9276789115792
 20
193.6819886421998
 30
0.0
 11
776.0295736125911
 21
193.4689862639367
 31
0.0
 11
775.9532368175777
 21
193.6405824652632
 31
0.0
 11
775.9276789115792
 21
193.6819886421998
 31
0.0
  0
SPLINE
  5
118
330
2
100
AcDbEntity
  8
0
100
AcDbSpline
210
0.0
220
0.0
230
1.0
 70
     8
 71
     3
 72
    10
 73
     6
 74
     4
 42
0.0000000001
 43
0.0000000001
 44
0.0000000001
 12
0.2888463096886602
 22
-0.9573754798297493
 32
0.0
 13
-0.4485388505891099
 23
-0.8937633352919554
 33
0.0
 40
0.0
 40
0.0
 40
0.0
 40
0.0
 40
0.1649349630707356
 40
0.3140390431237238
 40
0.3440143261776483
 40
0.3440143261776483
 40
0.3440143261776483
 40
0.3440143261776483
 10
776.0295736125911
 20
193.4689862639367
 30
0.0
 10
776.0454538977316
 20
193.4163513674665
 30
0.0
 10
776.0635381782815
 20
193.3114281654985
 30
0.0
 10
776.0426912528139
 20
193.1955489003126
 30
0.0
 10
776.0180555901406
 20
193.1411214038153
 30
0.0
 10
776.0135738971382
 20
193.1321911341624
 30
0.0
 11
776.0295736125911
 21
193.4689862639367
 31
0.0
 11
776.0542120670906
 21
193.3059019648671
 31
0.0
 11
776.0259167056622
 21
193.1595072955308
 31
0.0
 11
776.0135738971382
 21
193.1321911341624
 31
0.0
  0
SPLINE
  5
119
330
2
100
AcDbEntity
  8
0
100
AcDbSpline
210
0.0
220
0.0
230
1.0
 70
     8
 71
     3
 72
    11
 73
     7
 74
     5
 42
0.0000000001
 43
0.0000000001
 44
0.0000000001
 12
-0.9977180399453677
 22
-0.0675182402582719
 32
0.0
 13
-0.4485388503166
 23
-0.8937633354287155
 33
0.0
 40
0.0
 40
0.0
 40
0.0
 40
0.0
 40
0.1288984975485854
 40
0.3068639309377485
 40
0.4640633741383148
 40
0.5806223532979659
 40
0.5806223532979659
 40
0.5806223532979659
 40
0.5806223532979659
 10
774.4745674436882
 20
194.4071794909099
 30
0.0
 10
774.4316993249128
 20
194.4042784910011
 30
0.0
 10
774.3299912479899
 20
194.3910679183137
 30
0.0
 10
774.1810983671841
 20
194.3432563247185
 30
0.0
 10
774.0550019528365
 20
194.2556413784618
 30
0.0
 10
774.0010125451029
 20
194.1800039215098
 30
0.0
 10
773.9835854682675
 20
194.1452785408472
 30
0.0
 11
774.4745674436882
 21
194.4071794909099
 31
0.0
 11
774.3468279622277
 21
194.3899328232176
 31
0.0
 11
774.1783762636348
 21
194.3325244551641
 31
0.0
 11
774.0510529887532
 21
194.2403265776615
 31
0.0
 11
773.9835854682675
 21
194.1452785408472
 31
0.0
  0
SPLINE
  5
11A
330
2
100
AcDbEntity
  8
0
100
AcDbSpline
210
0.0
220
0.0
230
1.0
 70
     8
 71
     3
 72
     9
 73
     5
 74
     3
 42
0.0000000001
 43
0.0000000001
 44
0.0000000001
 12
-0.545314581370893
 22
0.8382314759923346
 32
0.0
 13
-0.662881631930132
 23
0.7487242096056766
 33
0.0
 40
0.0
 40
0.0
 40
0.0
 40
0.0
 40
0.1632698016141109
 40
0.1767013822431165
 40
0.1767013822431165
 40
0.1767013822431165
 40
0.1767013822431165
 10
775.9276789115792
 20
193.6819886421998
 30
0.0
 10
775.8980011104066
 20
193.7276079377971
 30
0.0
 10
775.8619680527305
 20
193.7745479815859
 30
0.0
 10
775.8231432951417
 20
193.8188339630255
 30
0.0
 10
775.8201754457794
 20
193.8221861462223
 30
0.0
 11
775.9276789115792
 21
193.6819886421998
 31
0.0
 11
775.8290295279497
 21
193.8120860181481
 31
0.0
 11
775.8201754457794
 21
193.8221861462223
 31
0.0
  0
SPLINE
  5
11B
330
2
100
AcDbEntity
  8
0
100
AcDbSpline
210
0.0
220
0.0
230
1.0
 70
     8
 71
     3
 72
    13
 73
     9
 74
     7
 42
0.0000000001
 43
0.0000000001
 44
0.0000000001
 12
-0.6628816334992616
 22
0.7487242082164506
 32
0.0
 13
-0.9967670660970341
 23
0.0803456031423666
 33
0.0
 40
0.0
 40
0.0
 40
0.0
 40
0.0
 40
0.2190163835179913
 40
0.4659445390074435
 40
0.7196027596080192
 40
0.9715018509866435
 40
1.213331618868535
 40
1.333506861146277
 40
1.333506861146277
 40
1.333506861146277
 40
1.333506861146277
 10
775.8201754457794
 20
193.8221861462223
 30
0.0
 10
775.7717814664228
 20
193.8768471023342
 30
0.0
 10
775.6594509009194
 20
193.9850193887203
 30
0.0
 10
775.4649989461573
 20
194.126619636404
 30
0.0
 10
775.2442838526262
 20
194.2472368779164
 30
0.0
 10
775.0116931956299
 20
194.3383305542102
 30
0.0
 10
774.8122221565379
 20
194.3872166739472
 30
0.0
 10
774.6923499230967
 20
194.4022645424379
 30
0.0
 10
774.6524210152091
 20
194.4054830598791
 30
0.0
 11
775.8201754457794
 21
193.8221861462223
 31
0.0
 11
775.6631800147284
 21
193.9748970197002
 31
0.0
 11
775.4640046663603
 21
194.1208514460664
 31
0.0
 11
775.2414909651686
 21
194.2426305315459
 31
0.0
 11
775.0067966781085
 21
194.3341277657049
 31
0.0
 11
774.7716903571036
 21
194.3907550953021
 31
0.0
 11
774.6524210152091
 21
194.4054830598791
 31
0.0
  0
SPLINE
  5
11C
330
2
100
AcDbEntity
  8
0
100
AcDbSpline
210
0.0
220
0.0
230
1.0
 70
     8
 71
     3
 72
     9
 73
     5
 74
     3
 42
0.0000000001
 43
0.0000000001
 44
0.0000000001
 12
-0.9967670663026446
 22
0.0803456005915655
 32
0.0
 13
-0.9977180399059577
 23
-0.0675182408406353
 33
0.0
 40
0.0
 40
0.0
 40
0.0
 40
0.0
 40
0.1045437975078409
 40
0.1779799127774568
 40
0.1779799127774568
 40
0.1779799127774568
 40
0.1779799127774568
 10
774.6524210152091
 20
194.4054830598791
 30
0.0
 10
774.6176857437618
 20
194.4082829379454
 30
0.0
 10
774.5583299930281
 20
194.4107596418457
 30
0.0
 10
774.4989902893498
 20
194.4088322500156
 30
0.0
 10
774.4745674436882
 20
194.4071794909099
 30
0.0
 11
774.6524210152091
 21
194.4054830598791
 31
0.0
 11
774.5479612138491
 21
194.4096729879439
 31
0.0
 11
774.4745674436882
 21
194.4071794909099
 31
0.0
  0
LINE
  5
11D
330
2
100
AcDbEntity
  8
0
100
AcDbLine
 10
774.5168045284384
 20
194.6545938022337
 30
0.0
 11
774.3568412641317
 21
194.3919597503844
 31
0.0
  0
LINE
  5
11E
330
2
100
AcDbEntity
  8
0
100
AcDbLine
 10
776.134391653573
 20
193.8680112825208
 30
0.0
 11
776.004417529331
 21
193.5386896497155
 31
0.0
  0
LINE
  5
11F
330
2
100
AcDbEntity
  8
0
100
AcDbLine
 10
798.6625165908003
 20
209.6976179686373
 30
0.0
 11
798.6625165908003
 21
211.8276179686374
 31
0.0
  0
LINE
  5
120
330
2
100
AcDbEntity
  8
0
100
AcDbLine
 10
798.8125165908009
 20
210.037617968637
 30
0.0
 11
798.8125165908003
 21
211.4876179686364
 31
0.0
  0
LINE
  5
121
330
2
100
AcDbEntity
  8
0
100
AcDbLine
 10
797.9125165908023
 20
209.6976179686369
 30
0.0
 11
797.9125165908009
 21
211.827617968637
 31
0.0
  0
LINE
  5
122
330
2
100
AcDbEntity
  8
0
100
AcDbLine
 10
796.9625165908005
 20
211.512617968636
 30
0.0
 11
796.9625165908005
 21
210.0126179686351
 31
0.0
  0
ARC
  5
123
330
2
100
AcDbEntity
  8
0
100
AcDbCircle
 10
789.2625165908008
 20
210.7626179686369
 30
0.0
 40
0.5
100
AcDbArc
 50
90.0
 51
180.0
  0
LINE
  5
124
330
2
100
AcDbEntity
  8
CEN
 48
0.8
370
    13
100
AcDbLine
 10
804.1090432661363
 20
210.7626179686369
 30
0.0
 11
788.1938836336144
 21
210.7626179686369
 31
0.0
  0
LINE
  5
128
330
2
100
AcDbEntity
  8
hat
100
AcDbLine
 10
798.9221339189631
 20
211.4570198545682
 30
0.0
 11
799.0053127715404
 21
211.5401987071457
 31
0.0
1001
ACAD
1010
0.0
1020
0.0
1030
0.0
  0
LINE
  5
12A
330
2
100
AcDbEntity
  8
hat
100
AcDbLine
 10
798.9269445596331
 20
211.2850537999422
 30
0.0
 11
799.2483806616015
 21
211.60648990191
 31
0.0
1001
ACAD
1010
0.0
1020
0.0
1030
0.0
  0
LINE
  5
12B
330
2
100
AcDbEntity
  8
hat
100
AcDbLine
 10
798.9890728165369
 20
211.1704053615492
 30
0.0
 11
799.4562853150592
 21
211.6376178600714
 31
0.0
1001
ACAD
1010
0.0
1020
0.0
1030
0.0
  0
LINE
  5
12C
330
2
100
AcDbEntity
  8
hat
100
AcDbLine
 10
799.0582067178243
 20
211.0627625675395
 30
0.0
 11
799.6330620103557
 21
211.6376178600714
 31
0.0
1001
ACAD
1010
0.0
1020
0.0
1030
0.0
  0
LINE
  5
12D
330
2
100
AcDbEntity
  8
hat
100
AcDbLine
 10
799.0917631563275
 20
210.9195423107464
 30
0.0
 11
799.4978731899631
 21
211.3256523443816
 31
0.0
1001
ACAD
1010
0.0
1020
0.0
1030
0.0
  0
LINE
  5
12E
330
2
100
AcDbEntity
  8
hat
100
AcDbLine
 10
799.6098388142187
 20
211.4376179686371
 30
0.0
 11
799.8098387056532
 21
211.6376178600714
 31
0.0
1001
ACAD
1010
0.0
1020
0.0
1030
0.0
  0
LINE
  5
12F
330
2
100
AcDbEntity
  8
hat
100
AcDbLine
 10
798.9607756409392
 20
210.6117781000609
 30
0.0
 11
799.2563917333932
 21
210.9073941925151
 31
0.0
1001
ACAD
1010
0.0
1020
0.0
1030
0.0
  0
LINE
  5
130
330
2
100
AcDbEntity
  8
hat
100
AcDbLine
 10
799.7866155095147
 20
211.4376179686371
 30
0.0
 11
799.9866154009493
 21
211.637617860071
 31
0.0
1001
ACAD
1010
0.0
1020
0.0
1030
0.0
  0
LINE
  5
131
330
2
100
AcDbEntity
  8
hat
100
AcDbLine
 10
798.9482781812172
 20
210.4225039450426
 30
0.0
 11
799.2151129430616
 21
210.6893387068874
 31
0.0
1001
ACAD
1010
0.0
1020
0.0
1030
0.0
  0
LINE
  5
132
330
2
100
AcDbEntity
  8
hat
100
AcDbLine
 10
799.9633922048117
 20
211.4376179686371
 30
0.0
 11
800.1633920962454
 21
211.6376178600714
 31
0.0
1001
ACAD
1010
0.0
1020
0.0
1030
0.0
  0
LINE
  5
133
330
2
100
AcDbEntity
  8
hat
100
AcDbLine
 10
799.016760967236
 20
210.3142100357643
 30
0.0
 11
799.2798177043375
 21
210.5772667728663
 31
0.0
1001
ACAD
1010
0.0
1020
0.0
1030
0.0
  0
LINE
  5
134
330
2
100
AcDbEntity
  8
hat
100
AcDbLine
 10
800.1401689001081
 20
211.4376179686371
 30
0.0
 11
800.3401687915426
 21
211.637617860071
 31
0.0
1001
ACAD
1010
0.0
1020
0.0
1030
0.0
  0
LINE
  5
135
330
2
100
AcDbEntity
  8
hat
100
AcDbLine
 10
799.094731517274
 20
210.2154038905057
 30
0.0
 11
799.3445224656133
 21
210.4651948388448
 31
0.0
1001
ACAD
1010
0.0
1020
0.0
1030
0.0
  0
LINE
  5
136
330
2
100
AcDbEntity
  8
hat
100
AcDbLine
 10
800.3169455954045
 20
211.4376179686367
 30
0.0
 11
800.5169454868397
 21
211.6376178600714
 31
0.0
1001
ACAD
1010
0.0
1020
0.0
1030
0.0
  0
LINE
  5
137
330
2
100
AcDbEntity
  8
hat
100
AcDbLine
 10
799.1541750471701
 20
210.0980707251067
 30
0.0
 11
799.4092272268876
 21
210.353122904825
 31
0.0
1001
ACAD
1010
0.0
1020
0.0
1030
0.0
  0
LINE
  5
138
330
2
100
AcDbEntity
  8
hat
100
AcDbLine
 10
800.4937222907015
 20
211.4376179686371
 30
0.0
 11
800.6937221821356
 21
211.637617860071
 31
0.0
1001
ACAD
1010
0.0
1020
0.0
1030
0.0
  0
LINE
  5
139
330
2
100
AcDbEntity
  8
hat
100
AcDbLine
 10
799.1723598455031
 20
209.9394788281422
 30
0.0
 11
799.4739319881642
 21
210.2410509708031
 31
0.0
1001
ACAD
1010
0.0
1020
0.0
1030
0.0
  0
LINE
  5
13A
330
2
100
AcDbEntity
  8
hat
100
AcDbLine
 10
800.6704989859978
 20
211.4376179686367
 30
0.0
 11
800.8704988774322
 21
211.637617860071
 31
0.0
1001
ACAD
1010
0.0
1020
0.0
1030
0.0
  0
LINE
  5
13B
330
2
100
AcDbEntity
  8
hat
100
AcDbLine
 10
799.3112557988365
 20
209.9015980861787
 30
0.0
 11
799.53863674944
 21
210.128979036782
 31
0.0
1001
ACAD
1010
0.0
1020
0.0
1030
0.0
  0
LINE
  5
13C
330
2
100
AcDbEntity
  8
hat
100
AcDbLine
 10
800.8472756812947
 20
211.4376179686371
 30
0.0
 11
801.0472755727292
 21
211.637617860071
 31
0.0
1001
ACAD
1010
0.0
1020
0.0
1030
0.0
  0
LINE
  5
13D
330
2
100
AcDbEntity
  8
hat
100
AcDbLine
 10
799.4740522680252
 20
209.887617860071
 30
0.0
 11
799.6740523765907
 21
210.0876179686363
 31
0.0
1001
ACAD
1010
0.0
1020
0.0
1030
0.0
  0
LINE
  5
13E
330
2
100
AcDbEntity
  8
hat
100
AcDbLine
 10
801.0240523765912
 20
211.4376179686371
 30
0.0
 11
801.2240522680254
 21
211.637617860071
 31
0.0
1001
ACAD
1010
0.0
1020
0.0
1030
0.0
  0
LINE
  5
13F
330
2
100
AcDbEntity
  8
hat
100
AcDbLine
 10
799.6508289633212
 20
209.8876178600705
 30
0.0
 11
799.8508290718874
 21
210.0876179686367
 31
0.0
1001
ACAD
1010
0.0
1020
0.0
1030
0.0
  0
LINE
  5
140
330
2
100
AcDbEntity
  8
hat
100
AcDbLine
 10
801.2008290718878
 20
211.4376179686371
 30
0.0
 11
801.4008289633224
 21
211.6376178600714
 31
0.0
1001
ACAD
1010
0.0
1020
0.0
1030
0.0
  0
LINE
  5
141
330
2
100
AcDbEntity
  8
hat
100
AcDbLine
 10
799.8276056586187
 20
209.887617860071
 30
0.0
 11
799.8625165732678
 21
209.9225287747197
 31
0.0
1001
ACAD
1010
0.0
1020
0.0
1030
0.0
  0
LINE
  5
142
330
2
100
AcDbEntity
  8
hat
100
AcDbLine
 10
801.3776057671844
 20
211.4376179686371
 30
0.0
 11
801.5776056586187
 21
211.637617860071
 31
0.0
1001
ACAD
1010
0.0
1020
0.0
1030
0.0
  0
LINE
  5
143
330
2
100
AcDbEntity
  8
hat
100
AcDbLine
 10
801.5543824624815
 20
211.4376179686371
 30
0.0
 11
801.7543823539151
 21
211.637617860071
 31
0.0
1001
ACAD
1010
0.0
1020
0.0
1030
0.0
  0
LINE
  5
144
330
2
100
AcDbEntity
  8
hat
100
AcDbLine
 10
801.7311591577776
 20
211.4376179686367
 30
0.0
 11
801.9311590492119
 21
211.637617860071
 31
0.0
1001
ACAD
1010
0.0
1020
0.0
1030
0.0
  0
LINE
  5
145
330
2
100
AcDbEntity
  8
hat
100
AcDbLine
 10
801.9079358530749
 20
211.4376179686371
 30
0.0
 11
802.107935744508
 21
211.6376178600706
 31
0.0
1001
ACAD
1010
0.0
1020
0.0
1030
0.0
  0
LINE
  5
146
330
2
100
AcDbEntity
  8
hat
100
AcDbLine
 10
800.5347124398053
 20
209.887617860071
 30
0.0
 11
800.7347125483706
 21
210.0876179686367
 31
0.0
1001
ACAD
1010
0.0
1020
0.0
1030
0.0
  0
LINE
  5
147
330
2
100
AcDbEntity
  8
hat
100
AcDbLine
 10
802.0847125483708
 20
211.4376179686367
 30
0.0
 11
802.2847124398053
 21
211.637617860071
 31
0.0
1001
ACAD
1010
0.0
1020
0.0
1030
0.0
  0
LINE
  5
148
330
2
100
AcDbEntity
  8
hat
100
AcDbLine
 10
800.7114891351019
 20
209.8876178600705
 30
0.0
 11
800.9114892436677
 21
210.0876179686367
 31
0.0
1001
ACAD
1010
0.0
1020
0.0
1030
0.0
  0
LINE
  5
149
330
2
100
AcDbEntity
  8
hat
100
AcDbLine
 10
802.261489243668
 20
211.4376179686371
 30
0.0
 11
802.4614891351017
 21
211.6376178600706
 31
0.0
1001
ACAD
1010
0.0
1020
0.0
1030
0.0
  0
LINE
  5
14A
330
2
100
AcDbEntity
  8
hat
100
AcDbLine
 10
800.8882658303985
 20
209.887617860071
 30
0.0
 11
801.0882659389638
 21
210.0876179686367
 31
0.0
1001
ACAD
1010
0.0
1020
0.0
1030
0.0
  0
LINE
  5
14B
330
2
100
AcDbEntity
  8
hat
100
AcDbLine
 10
802.4382659389644
 20
211.4376179686367
 30
0.0
 11
802.6382658303985
 21
211.637617860071
 31
0.0
1001
ACAD
1010
0.0
1020
0.0
1030
0.0
  0
LINE
  5
14C
330
2
100
AcDbEntity
  8
hat
100
AcDbLine
 10
801.0650425256951
 20
209.8876178600705
 30
0.0
 11
801.2650426342613
 21
210.0876179686367
 31
0.0
1001
ACAD
1010
0.0
1020
0.0
1030
0.0
  0
LINE
  5
14D
330
2
100
AcDbEntity
  8
hat
100
AcDbLine
 10
802.6150426342615
 20
211.4376179686371
 30
0.0
 11
802.8150425256949
 21
211.6376178600706
 31
0.0
1001
ACAD
1010
0.0
1020
0.0
1030
0.0
  0
LINE
  5
14E
330
2
100
AcDbEntity
  8
hat
100
AcDbLine
 10
801.2418192209921
 20
209.887617860071
 30
0.0
 11
801.4418193295574
 21
210.0876179686367
 31
0.0
1001
ACAD
1010
0.0
1020
0.0
1030
0.0
  0
LINE
  5
14F
330
2
100
AcDbEntity
  8
hat
100
AcDbLine
 10
802.7918193295576
 20
211.4376179686367
 30
0.0
 11
802.9918192209912
 21
211.6376178600706
 31
0.0
1001
ACAD
1010
0.0
1020
0.0
1030
0.0
  0
LINE
  5
150
330
2
100
AcDbEntity
  8
hat
100
AcDbLine
 10
801.4185959162883
 20
209.8876178600705
 30
0.0
 11
801.6185960248545
 21
210.0876179686367
 31
0.0
1001
ACAD
1010
0.0
1020
0.0
1030
0.0
  0
LINE
  5
151
330
2
100
AcDbEntity
  8
hat
100
AcDbLine
 10
802.9685960248547
 20
211.4376179686371
 30
0.0
 11
803.1685959162881
 21
211.6376178600706
 31
0.0
1001
ACAD
1010
0.0
1020
0.0
1030
0.0
  0
LINE
  5
152
330
2
100
AcDbEntity
  8
hat
100
AcDbLine
 10
801.5953726115855
 20
209.887617860071
 30
0.0
 11
801.7953727201506
 21
210.0876179686367
 31
0.0
1001
ACAD
1010
0.0
1020
0.0
1030
0.0
  0
LINE
  5
153
330
2
100
AcDbEntity
  8
hat
100
AcDbLine
 10
803.145372720151
 20
211.4376179686367
 30
0.0
 11
803.3453726115848
 21
211.6376178600706
 31
0.0
1001
ACAD
1010
0.0
1020
0.0
1030
0.0
  0
LINE
  5
154
330
2
100
AcDbEntity
  8
hat
100
AcDbLine
 10
801.7721493068815
 20
209.8876178600705
 30
0.0
 11
801.9721494154477
 21
210.0876179686367
 31
0.0
1001
ACAD
1010
0.0
1020
0.0
1030
0.0
  0
LINE
  5
155
330
2
100
AcDbEntity
  8
hat
100
AcDbLine
 10
803.3221494154483
 20
211.4376179686371
 30
0.0
 11
803.5221493068814
 21
211.637617860071
 31
0.0
1001
ACAD
1010
0.0
1020
0.0
1030
0.0
  0
LINE
  5
156
330
2
100
AcDbEntity
  8
hat
100
AcDbLine
 10
801.9489260021785
 20
209.887617860071
 30
0.0
 11
802.148926110744
 21
210.0876179686367
 31
0.0
1001
ACAD
1010
0.0
1020
0.0
1030
0.0
  0
LINE
  5
157
330
2
100
AcDbEntity
  8
hat
100
AcDbLine
 10
802.1257026974748
 20
209.887617860071
 30
0.0
 11
802.3257028060411
 21
210.0876179686367
 31
0.0
1001
ACAD
1010
0.0
1020
0.0
1030
0.0
  0
LINE
  5
158
330
2
100
AcDbEntity
  8
hat
100
AcDbLine
 10
802.3024793927712
 20
209.887617860071
 30
0.0
 11
802.5024795013374
 21
210.0876179686367
 31
0.0
1001
ACAD
1010
0.0
1020
0.0
1030
0.0
  0
LINE
  5
159
330
2
100
AcDbEntity
  8
hat
100
AcDbLine
 10
802.4792560880682
 20
209.887617860071
 30
0.0
 11
802.6792561966344
 21
210.0876179686367
 31
0.0
1001
ACAD
1010
0.0
1020
0.0
1030
0.0
  0
LINE
  5
15A
330
2
100
AcDbEntity
  8
hat
100
AcDbLine
 10
802.6560327833646
 20
209.887617860071
 30
0.0
 11
802.8560328919306
 21
210.0876179686367
 31
0.0
1001
ACAD
1010
0.0
1020
0.0
1030
0.0
  0
LINE
  5
15B
330
2
100
AcDbEntity
  8
hat
100
AcDbLine
 10
802.8328094786616
 20
209.887617860071
 30
0.0
 11
803.0328095872276
 21
210.0876179686372
 31
0.0
1001
ACAD
1010
0.0
1020
0.0
1030
0.0
  0
LINE
  5
15C
330
2
100
AcDbEntity
  8
hat
100
AcDbLine
 10
803.0095861739578
 20
209.887617860071
 30
0.0
 11
803.2095862825242
 21
210.0876179686367
 31
0.0
1001
ACAD
1010
0.0
1020
0.0
1030
0.0
  0
LINE
  5
15D
330
2
100
AcDbEntity
  8
hat
100
AcDbLine
 10
803.1863628692546
 20
209.887617860071
 30
0.0
 11
803.3863629778212
 21
210.0876179686372
 31
0.0
1001
ACAD
1010
0.0
1020
0.0
1030
0.0
  0
LINE
  5
15E
330
2
100
AcDbEntity
  8
hat
100
AcDbLine
 10
803.3631395645508
 20
209.887617860071
 30
0.0
 11
803.4878281231927
 21
210.0123064187125
 31
0.0
1001
ACAD
1010
0.0
1020
0.0
1030
0.0
  0
LINE
  5
15F
102
{ACAD_REACTORS
330
1C5
102
}
330
2
100
AcDbEntity
  8
0
100
AcDbLine
 10
803.412516573268
 20
210.0876179686367
 30
0.0
 11
800.4625165732665
 21
210.0876179686367
 31
0.0
  0
LINE
  5
160
330
2
100
AcDbEntity
  8
0
100
AcDbLine
 10
799.8625165732678
 20
210.0876179686367
 30
0.0
 11
799.5625165732668
 21
210.0876179686367
 31
0.0
  0
LINE
  5
161
102
{ACAD_REACTORS
330
1B6
330
1C5
102
}
330
2
100
AcDbEntity
  8
0
100
AcDbLine
 10
803.4125165732687
 20
211.4376179686367
 30
0.0
 11
799.5625165732668
 21
211.4376179686371
 31
0.0
  0
LINE
  5
162
330
2
100
AcDbEntity
  8
0
100
AcDbLine
 10
798.8125165908009
 20
210.0376179686375
 30
0.0
 11
798.6625165908003
 21
210.0376179686375
 31
0.0
  0
LINE
  5
163
330
2
100
AcDbEntity
  8
0
100
AcDbLine
 10
798.8125165907993
 20
211.4876179686369
 30
0.0
 11
798.6625165908003
 21
211.4876179686369
 31
0.0
  0
LINE
  5
164
330
2
100
AcDbEntity
  8
0
100
AcDbLine
 10
797.9125165908009
 20
209.8626179686364
 30
0.0
 11
797.1425165907999
 21
209.8626179686359
 31
0.0
  0
LINE
  5
165
330
2
100
AcDbEntity
  8
0
100
AcDbLine
 10
797.9125165908009
 20
211.6626179686366
 30
0.0
 11
797.1425165907999
 21
211.6626179686366
 31
0.0
  0
LINE
  5
166
330
2
100
AcDbEntity
  8
0
100
AcDbLine
 10
798.6625165908003
 20
209.6976179686373
 30
0.0
 11
797.9125165908023
 21
209.6976179686369
 31
0.0
  0
LINE
  5
167
330
2
100
AcDbEntity
  8
0
100
AcDbLine
 10
798.6625165908003
 20
211.8276179686374
 30
0.0
 11
797.9125165908009
 21
211.827617968637
 31
0.0
  0
LINE
  5
168
102
{ACAD_REACTORS
330
175
102
}
330
2
100
AcDbEntity
  8
0
100
AcDbLine
 10
789.2625165908008
 20
210.2626179686369
 30
0.0
 11
796.9625165908005
 21
210.2626179686365
 31
0.0
  0
LINE
  5
169
102
{ACAD_REACTORS
330
175
102
}
330
2
100
AcDbEntity
  8
0
100
AcDbLine
 10
796.9625165908005
 20
211.2626179686369
 30
0.0
 11
789.2625165908008
 21
211.2626179686373
 31
0.0
  0
LINE
  5
16A
330
2
100
AcDbEntity
  8
0
100
AcDbLine
 10
797.1425165907999
 20
211.6626179686366
 30
0.0
 11
797.1425165907999
 21
209.8626179686364
 31
0.0
  0
LINE
  5
16B
102
{ACAD_REACTORS
330
1D5
102
}
330
2
100
AcDbEntity
  8
0
100
AcDbLine
 10
796.9625165907995
 20
211.512617968636
 30
0.0
 11
797.1425165907999
 21
211.6626179686366
 31
0.0
  0
LINE
  5
16C
330
2
100
AcDbEntity
  8
0
100
AcDbLine
 10
797.1425165907999
 20
209.8626179686364
 30
0.0
 11
796.9625165908005
 21
210.0126179686351
 31
0.0
  0
ARC
  5
16D
330
2
100
AcDbEntity
  8
0
100
AcDbCircle
 10
789.2625165908008
 20
210.7626179686369
 30
0.0
 40
0.5
100
AcDbArc
 50
180.0
 51
270.0
  0
LINE
  5
16E
102
{ACAD_REACTORS
330
18A
102
}
330
2
100
AcDbEntity
  8
0
100
AcDbLine
 10
803.5625165732668
 20
209.887617860071
 30
0.0
 11
803.5625165732668
 21
211.6376178600706
 31
0.0
  0
LINE
  5
16F
102
{ACAD_REACTORS
330
18A
102
}
330
2
100
AcDbEntity
  8
0
100
AcDbLine
 10
799.5625165732668
 20
210.0876179686363
 30
0.0
 11
799.5625165732668
 21
211.4376179686367
 31
0.0
  0
LINE
  5
170
330
2
100
AcDbEntity
  8
0
100
AcDbLine
 10
803.5625165732668
 20
209.887617860071
 30
0.0
 11
800.4625165732656
 21
209.8876178600705
 31
0.0
  0
LINE
  5
171
330
2
100
AcDbEntity
  8
0
100
AcDbLine
 10
799.8625165732661
 20
209.8876178600705
 30
0.0
 11
799.3625165732667
 21
209.8876178600705
 31
0.0
  0
LINE
  5
172
102
{ACAD_REACTORS
330
1A7
102
}
330
2
100
AcDbEntity
  8
0
100
AcDbLine
 10
803.5625165732668
 20
211.6376178600706
 30
0.0
 11
799.3625165732667
 21
211.637617860071
 31
0.0
  0
DIMENSION
  5
173
102
{ACAD_XDICTIONARY
360
174
102
}
102
{ACAD_REACTORS
330
175
102
}
330
2
100
AcDbEntity
  8
DIM
100
AcDbDimension
  2
*D20
 10
787.6828953880857
 20
210.262617968637
 30
0.0
 11
786.9828953880857
 21
207.9804751114942
 31
0.0
 70
    32
  1
%%C<>
 71
     5
 42
1.000000000000369
 73
     0
 74
     0
 75
     0
  3
01
100
AcDbAlignedDimension
 13
789.5306783914334
 23
211.2626179686373
 33
0.0
 14
789.5306783914334
 24
210.262617968637
 34
0.0
 50
90.0
100
AcDbRotatedDimension
1001
ACAD
1000
DSTYLE
1002
{
1070
    44
1040
0.2
1070
   147
1040
0.2
1070
   140
1040
1.0
1070
    41
1040
0.8
1070
   271
1070
     2
1002
}
  0
DIMENSION
  5
188
102
{ACAD_XDICTIONARY
360
189
102
}
102
{ACAD_REACTORS
330
18A
102
}
330
2
100
AcDbEntity
  8
DIM
100
AcDbDimension
  2
*D21
 10
806.8015845958322
 20
209.887617860071
 30
0.0
 11
806.1015845958319
 21
206.6054750029282
 31
0.0
 70
    32
  1
%%C<>
 71
     5
 42
1.749999999999601
 73
     0
 74
     0
 75
     0
  3
01
100
AcDbAlignedDimension
 13
803.5625165732668
 23
211.6376178600706
 33
0.0
 14
803.5625165732668
 24
209.887617860071
 34
0.0
 50
90.0
100
AcDbRotatedDimension
1001
ACAD
1000
DSTYLE
1002
{
1070
    44
1040
0.2
1070
   147
1040
0.2
1070
   140
1040
1.0
1070
    41
1040
0.8
1070
   271
1070
     2
1002
}
  0
LINE
  5
198
330
2
100
AcDbEntity
  8
0
100
AcDbLine
 10
803.412516573268
 20
210.0876179686363
 30
0.0
 11
803.412516573268
 21
211.4376179686376
 31
0.0
  0
LINE
  5
199
330
2
100
AcDbEntity
  8
CEN
 48
0.3
370
    13
100
AcDbLine
 10
800.1625165732651
 20
210.5957334696343
 30
0.0
 11
800.162516573266
 21
209.3275186653184
 31
0.0
  0
ARC
  5
19A
330
2
100
AcDbEntity
  8
0
100
AcDbCircle
 10
800.1625165732663
 20
209.3165812939984
 30
0.0
 40
0.6450447734779711
100
AcDbArc
 50
62.28434182416877
 51
117.715658175775
  0
ARC
  5
19B
330
2
100
AcDbEntity
  8
0
100
AcDbCircle
 10
800.1625165732672
 20
209.6401058838459
 30
0.0
 40
0.5387643882381786
100
AcDbArc
 50
56.16316895366797
 51
123.8368310462621
  0
LINE
  5
19C
330
2
100
AcDbEntity
  8
0
100
AcDbLine
 10
799.5625165732668
 20
211.4376179686367
 30
0.0
 11
799.1728051415654
 21
210.7626179686369
 31
0.0
  0
LINE
  5
19D
330
2
100
AcDbEntity
  8
0
100
AcDbLine
 10
799.5625165732668
 20
210.0876179686367
 30
0.0
 11
799.1728051415654
 21
210.7626179686365
 31
0.0
  0
LINE
  5
19E
330
2
100
AcDbEntity
  8
0
100
AcDbLine
 10
799.8625165732678
 20
210.0876179686367
 30
0.0
 11
799.8625165732678
 21
209.887617860071
 31
0.0
  0
LINE
  5
19F
330
2
100
AcDbEntity
  8
0
100
AcDbLine
 10
800.4625165732674
 20
210.0876179686363
 30
0.0
 11
800.4625165732665
 21
209.88761786007
 31
0.0
  0
LINE
  5
1A0
330
2
100
AcDbEntity
  8
0
100
AcDbLine
 10
803.5625165732678
 20
209.9376179686389
 30
0.0
 11
803.412516573268
 21
210.0876179686363
 31
0.0
  0
LINE
  5
1A1
330
2
100
AcDbEntity
  8
0
100
AcDbLine
 10
803.5625165732678
 20
211.5876179686349
 30
0.0
 11
803.412516573268
 21
211.4376179686376
 31
0.0
  0
LINE
  5
1A2
330
2
100
AcDbEntity
  8
0
100
AcDbLine
 10
799.3625165908001
 20
211.637617860071
 30
0.0
 11
798.8125165908003
 21
211.4876179686364
 31
0.0
  0
LINE
  5
1A3
330
2
100
AcDbEntity
  8
0
100
AcDbLine
 10
799.3625165908001
 20
209.8876178600705
 30
0.0
 11
798.8125165908009
 21
210.0376179686375
 31
0.0
  0
SPLINE
  5
1A4
330
2
100
AcDbEntity
  8
hat
100
AcDbSpline
210
0.0
220
0.0
230
1.0
 70
     8
 71
     3
 72
    12
 73
     8
 74
     0
 42
0.0000000001
 43
0.0000000001
 40
0.2584910620922088
 40
0.2584910620922088
 40
0.2584910620922088
 40
0.2584910620922088
 40
0.5171270727895352
 40
0.8713620481964841
 40
1.39214830400103
 40
1.80396236944958
 40
1.988129783458008
 40
1.988129783458008
 40
1.988129783458008
 40
1.988129783458008
 10
798.9420284146448
 20
211.5229393495752
 30
0.0
 10
798.9113516054117
 20
211.4395266397457
 30
0.0
 10
798.8852107404449
 20
211.2464314130872
 30
0.0
 10
799.2450637341613
 20
210.9292558677195
 30
0.0
 10
798.755539935169
 20
210.4823691956437
 30
0.0
 10
799.1785746733307
 20
210.1911910581927
 30
0.0
 10
799.1612195759246
 20
210.0063149707986
 30
0.0
 10
799.1426442693307
 20
209.9475830820545
 30
0.0
  0
DIMENSION
  5
1A5
102
{ACAD_XDICTIONARY
360
1A6
102
}
102
{ACAD_REACTORS
330
1A7
102
}
330
2
100
AcDbEntity
  8
DIM
100
AcDbDimension
  2
*D22
 10
803.5625165732668
 20
215.4053639001242
 30
0.0
 11
796.1625165820337
 21
216.1053639001242
 31
0.0
 70
    32
 71
     5
 42
14.79999998246603
 73
     0
 74
     0
 75
     0
  3
01
100
AcDbAlignedDimension
 13
788.7625165908008
 23
210.7626179686369
 33
0.0
 14
803.5625165732668
 24
211.6376178600706
 34
0.0
100
AcDbRotatedDimension
1001
ACAD
1000
DSTYLE
1002
{
1070
    44
1040
0.2
1070
   147
1040
0.2
1070
   140
1040
1.0
1070
    41
1040
0.8
1070
   271
1070
     2
1002
}
  0
DIMENSION
  5
1B4
102
{ACAD_XDICTIONARY
360
1B5
102
}
102
{ACAD_REACTORS
330
1B6
102
}
330
2
100
AcDbEntity
  8
DIM
100
AcDbDimension
  2
*D23
 10
803.5625165732668
 20
213.3877743746317
 30
0.0
 11
801.5625165732668
 21
214.0877743746317
 31
0.0
 70
    32
 71
     5
 42
3.999999999999883
 73
     0
 74
     0
 75
     0
  3
01
100
AcDbAlignedDimension
 13
799.5625165732668
 23
211.4376179686371
 33
0.0
 14
803.5625165732668
 24
212.015493641699
 34
0.0
100
AcDbRotatedDimension
1001
ACAD
1000
DSTYLE
1002
{
1070
    44
1040
0.2
1070
   147
1040
0.2
1070
   140
1040
1.0
1070
    41
1040
0.8
1070
   271
1070
     2
1002
}
  0
DIMENSION
  5
1C3
102
{ACAD_XDICTIONARY
360
1C4
102
}
102
{ACAD_REACTORS
330
1C5
102
}
330
2
100
AcDbEntity
  8
DIM
100
AcDbDimension
  2
*D24
 10
805.1337871738937
 20
210.0876179686367
 30
0.0
 11
804.4337871738937
 21
206.8054751114939
 31
0.0
 70
    32
  1
%%C<>
 71
     5
 42
1.350000000000022
 73
     0
 74
     0
 75
     0
  3
01
100
AcDbAlignedDimension
 13
803.4125165732687
 23
211.4376179686367
 33
0.0
 14
803.4125165732687
 24
210.0876179686367
 34
0.0
 50
90.0
100
AcDbRotatedDimension
1001
ACAD
1000
DSTYLE
1002
{
1070
    44
1040
0.2
1070
   147
1040
0.2
1070
   140
1040
1.0
1070
    41
1040
0.8
1070
   271
1070
     2
1002
}
  0
DIMENSION
  5
1D3
102
{ACAD_XDICTIONARY
360
1D4
102
}
102
{ACAD_REACTORS
330
1D5
102
}
330
2
100
AcDbEntity
  8
DIM
100
AcDbDimension
  2
*D25
 10
796.9625165907995
 20
213.3877743746317
 30
0.0
 11
792.8625165908003
 21
214.0877743746317
 31
0.0
 70
    32
  1
<>3
 71
     5
 42
8.199999999998905
 73
     0
 74
     0
 75
     0
  3
01
100
AcDbAlignedDimension
 13
788.7625165908008
 23
212.3133882715385
 33
0.0
 14
796.9625165907995
 24
211.512617968636
 34
0.0
100
AcDbRotatedDimension
1001
ACAD
1000
DSTYLE
1002
{
1070
    44
1040
0.2
1070
   147
1040
0.2
1070
   140
1040
1.0
1070
    41
1040
0.8
1070
   271
1070
     2
1002
}
  0
LINE
  5
1E2
330
2
100
AcDbEntity
  8
图框
370
    -3
100
AcDbLine
 10
772.3172304580844
 20
228.8965928347962
 30
0.0
 11
772.3172304580844
 21
232.9531793238252
 31
0.0
  0
LINE
  5
1E3
330
2
100
AcDbEntity
  8
图框
370
    -3
100
AcDbLine
 10
772.3172304587514
 20
228.8965928347962
 30
0.0
 11
772.3172304587514
 21
231.6010472119952
 31
0.0
  0
LINE
  5
1E4
330
2
100
AcDbEntity
  8
图框
370
    -3
100
AcDbLine
 10
785.0436295964401
 20
228.8965928347962
 30
0.0
 11
791.0723331272462
 21
228.8965928347962
 31
0.0
  0
LINE
  5
1E5
330
2
100
AcDbEntity
  8
图框
370
    -3
100
AcDbLine
 10
785.0436295964401
 20
230.2488150216129
 30
0.0
 11
791.0723331272462
 21
230.248815021613
 31
0.0
  0
MTEXT
  5
1E6
330
2
100
AcDbEntity
  8
图框
100
AcDbMText
 10
780.3388950804477
 20
229.5727039282037
 30
0.0
 40
0.6000023545570477
 41
3.909661247026225
 46
1.352222186815229
 71
     5
 72
     5
  1
{\C4;0.52-0.82}
  7
Romans字体
 73
     1
 44
1.0
1001
ACAD
1000
MTEXTBEGIN
1070
    73
1070
     1
1070
    44
1040
1.0
1070
    74
1070
     0
1000
MTEXTEND
1000
ACAD_MTEXT_DEFINED_HEIGHT_BEGIN
1070
    46
1040
1.352222186815229
1000
ACAD_MTEXT_DEFINED_HEIGHT_END
  0
MTEXT
  5
1E7
330
2
100
AcDbEntity
  8
图框
100
AcDbMText
 10
783.7686780429597
 20
229.5727039282037
 30
0.0
 40
0.6000023545570477
 41
2.949904677998123
 46
1.352222186815164
 71
     5
 72
     5
  1
{\C4;20-18}
  7
Romans字体
 73
     1
 44
1.0
1001
ACAD
1000
MTEXTBEGIN
1070
    73
1070
     1
1070
    44
1040
1.0
1070
    74
1070
     0
1000
MTEXTEND
1000
ACAD_MTEXT_DEFINED_HEIGHT_BEGIN
1070
    46
1040
1.352222186815164
1000
ACAD_MTEXT_DEFINED_HEIGHT_END
  0
LINE
  5
1E8
330
2
100
AcDbEntity
  8
图框
370
    -3
100
AcDbLine
 10
778.3840644562676
 20
228.8965928347962
 30
0.0
 11
778.3840644562676
 21
232.9531793238252
 31
0.0
  0
LINE
  5
1E9
330
2
100
AcDbEntity
  8
图框
370
    -3
100
AcDbLine
 10
778.3840644569346
 20
228.8965928347962
 30
0.0
 11
778.3840644569346
 21
232.9532593953123
 31
0.0
  0
MTEXT
  5
441
102
{ACAD_XDICTIONARY
360
9AE
102
}
330
2
100
AcDbEntity
  8
打标文字
 62
     3
100
AcDbMText
 10
820.3367042291377
 20
219.6110201290944
 30
0.0
 40
0.75
 41
21.56370451087032
 46
26.95590277395973
 71
     1
 72
     5
  3
\A1;{\f仿宋_GB2312|b0|i0|c134|p49;技术参数}:\P- {\f仿宋_GB2312|b0|i0|c134|p49;材料}: {\f仿宋_GB2312|b0|i0|c134|p49;铜合金}\P- {\f仿宋_GB2312|b0|i0|c134|p49;表面处理}: {\f仿宋_GB2312|b0|i0|c134|p49;镀银}\P- {\f仿宋_GB2312|b0|i0|c134|p49;额定电流}: 5A\P- {\f仿宋_GB2312|b0|i0|c134|p49;
  3
接触电阻}: ≤3mΩ\P- {\f仿宋_GB2312|b0|i0|c134|p49;线径范围}: 0.52-0.82mm{\H0.7x;\S2^ ;}(20-18 AWG)\P- {\f仿宋_GB2312|b0|i0|c134|p49;可插拔次数}: {\f仿宋_GB2312|b0|i0|c134|p49;≥}500\P\PTechnical specification:\P- Material: copper alloy\P- Surface: hard-silver plated\P- Ra
  1
ted current: 5A\P- Contact resistance: ≤3mΩ\P- Wire gauge: 0.52-0.82mm{\H0.7x;\S2^ ;}(20-18 AWG)\P- Mating cycles: {\f仿宋_GB2312|b0|i0|c134|p49;≥}500
  7
Romans字体
 73
     1
 44
1.0
1001
ACAD
1000
MTEXTBEGIN
1070
    73
1070
     1
1070
    44
1040
1.0
1070
    74
1070
     0
1000
MTEXTEND
1000
ACAD_MTEXT_DEFINED_HEIGHT_BEGIN
1070
    46
1040
26.95590277395973
1000
ACAD_MTEXT_DEFINED_HEIGHT_END
  0
INSERT
  5
4BA
330
2
100
AcDbEntity
  8
DIM
100
AcDbBlockReference
  2
A4图框-NEW
 10
558.5338438692922
 20
64.06948700878729
 30
0.0
 41
0.25
 42
0.25
 43
0.25
  0
MTEXT
  5
4BB
330
2
100
AcDbEntity
  8
图框
 62
     3
100
AcDbMText
 10
824.4656786678783
 20
187.8960863582678
 30
0.0
 40
0.746378394635083
 41
2.707336787601192
 46
1.971523801091308
 71
     5
 72
     5
  1
0.13g
  7
Romans字体
 73
     1
 44
1.0
1001
ACAD
1000
MTEXTBEGIN
1070
    73
1070
     1
1070
    44
1040
1.0
1070
    74
1070
     0
1000
MTEXTEND
1000
ACAD_MTEXT_DEFINED_HEIGHT_BEGIN
1070
    46
1040
1.971523801091308
1000
ACAD_MTEXT_DEFINED_HEIGHT_END
  0
MTEXT
  5
4BC
330
2
100
AcDbEntity
  8
图框
 62
     3
100
AcDbMText
 10
819.0510042901841
 20
188.0299224836211
 30
0.0
 40
0.7463783937585367
 41
2.707337108597616
 46
1.971523650302624
 71
     5
 72
     5
  1
4:1
  7
Romans字体
 73
     1
 44
1.0
1001
ACAD
1000
MTEXTBEGIN
1070
    73
1070
     1
1070
    44
1040
1.0
1070
    74
1070
     0
1000
MTEXTEND
1000
ACAD_MTEXT_DEFINED_HEIGHT_BEGIN
1070
    46
1040
1.971523650302624
1000
ACAD_MTEXT_DEFINED_HEIGHT_END
  0
MTEXT
  5
541
330
2
100
AcDbEntity
  8
图框
 62
     3
100
AcDbMText
 10
836.0644205228304
 20
193.5516938850141
 30
0.0
 40
0.7463783937585367
 41
8.403097998105339
 46
2.171686376421464
 71
     5
 72
     5
  1
CSSM-0.82
  7
Romans字体
 73
     1
 44
1.0
1001
ACAD
1000
MTEXTBEGIN
1070
    73
1070
     1
1070
    44
1040
1.0
1070
    74
1070
     0
1000
MTEXTEND
1000
ACAD_MTEXT_DEFINED_HEIGHT_BEGIN
1070
    46
1040
2.171686376421464
1000
ACAD_MTEXT_DEFINED_HEIGHT_END
  0
MTEXT
  5
542
330
2
100
AcDbEntity
  8
图框
 62
     3
100
AcDbMText
 10
836.0644205228304
 20
191.3568312533076
 30
0.0
 40
0.7463783937585367
 41
8.403097998105339
 46
2.218038886991525
 71
     5
 72
     5
  1
1010141100701
  7
Romans字体
 73
     1
 44
1.0
1001
ACAD
1000
MTEXTBEGIN
1070
    73
1070
     1
1070
    44
1040
1.0
1070
    74
1070
     0
1000
MTEXTEND
1000
ACAD_MTEXT_DEFINED_HEIGHT_BEGIN
1070
    46
1040
2.218038886991525
1000
ACAD_MTEXT_DEFINED_HEIGHT_END
  0
ENDSEC
  0
SECTION
  2
OBJECTS
  0
DICTIONARY
  5
B
330
0
100
AcDbDictionary
281
     1
  3
ACAD_COLOR
350
21E
  3
ACAD_GROUP
350
20B
  3
ACAD_LAYOUT
350
1EC
  3
ACAD_MATERIAL
350
D
  3
ACAD_MLEADERSTYLE
350
280
  3
ACAD_MLINESTYLE
350
20C
  3
ACAD_PLOTSETTINGS
350
20D
  3
ACAD_PLOTSTYLENAME
350
A
  3
ACAD_SCALELIST
350
21F
  3
ACAD_TABLESTYLE
350
220
  3
ACAD_VISUALSTYLE
350
205
  3
ACDB_RECOMPOSE_DATA
350
270
  3
AcDbVariableDictionary
350
248
  0
DICTIONARY
  5
206
330
202
100
AcDbDictionary
280
     1
281
     1
  0
DICTIONARY
  5
1F7
330
1F6
100
AcDbDictionary
280
     1
281
     1
  3
ACAD_LAYERFILTERS
360
1F8
  3
ACAD_LAYERSTATES
360
1F9
  3
ACLYDICTIONARY
360
1FA
  0
DICTIONARY
  5
7
330
6
100
AcDbDictionary
280
     1
281
     1
  3
ADSK_XREC_LAYER_RECONCILED
360
8
  0
DICTIONARY
  5
18
330
17
100
AcDbDictionary
280
     1
281
     1
  3
ADSK_XREC_LAYER_RECONCILED
360
19
  0
DICTIONARY
  5
26
330
25
100
AcDbDictionary
280
     1
281
     1
  3
ADSK_XREC_LAYER_RECONCILED
360
27
  0
DICTIONARY
  5
9AB
330
9AA
100
AcDbDictionary
280
     1
281
     1
  3
ASDK_XREC_ANNO_SCALE_INFO
360
9AC
  0
DICTIONARY
  5
3
330
2
100
AcDbDictionary
280
     1
281
     1
  3
ACAD_SORTENTS
360
247
  0
DICTIONARY
  5
934
330
290
100
AcDbDictionary
280
     1
281
     1
  0
DICTIONARY
  5
9B0
330
89F
100
AcDbDictionary
280
     1
281
     1
  3
ACAD_MTEXT_2008_RT
360
9B1
  0
DICTIONARY
  5
9B2
330
8E3
100
AcDbDictionary
280
     1
281
     1
  3
ACAD_MTEXT_2008_RT
360
9B3
  0
DICTIONARY
  5
9B4
330
8E4
100
AcDbDictionary
280
     1
281
     1
  3
ACAD_MTEXT_2008_RT
360
9B5
  0
DICTIONARY
  5
9B6
330
909
100
AcDbDictionary
280
     1
281
     1
  3
ACAD_MTEXT_2008_RT
360
9B7
  0
DICTIONARY
  5
9B8
330
90C
100
AcDbDictionary
280
     1
281
     1
  3
ACAD_MTEXT_2008_RT
360
9B9
  0
DICTIONARY
  5
9BA
330
90D
100
AcDbDictionary
280
     1
281
     1
  3
ACAD_MTEXT_2008_RT
360
9BB
  0
DICTIONARY
  5
9BC
330
917
100
AcDbDictionary
280
     1
281
     1
  3
ACAD_MTEXT_2008_RT
360
9BD
  0
DICTIONARY
  5
9BE
330
918
100
AcDbDictionary
280
     1
281
     1
  3
ACAD_MTEXT_2008_RT
360
9BF
  0
DICTIONARY
  5
9C0
330
919
100
AcDbDictionary
280
     1
281
     1
  3
ACAD_MTEXT_2008_RT
360
9C1
  0
DICTIONARY
  5
9C2
330
927
100
AcDbDictionary
280
     1
281
     1
  3
ACAD_MTEXT_2008_RT
360
9C3
  0
DICTIONARY
  5
9C4
330
928
100
AcDbDictionary
280
     1
281
     1
  3
ACAD_MTEXT_2008_RT
360
9C5
  0
DICTIONARY
  5
9C6
330
929
100
AcDbDictionary
280
     1
281
     1
  3
ACAD_MTEXT_2008_RT
360
9C7
  0
DICTIONARY
  5
897
330
CC
100
AcDbDictionary
280
     1
281
     1
  3
AcDbContextDataManager
360
898
  0
DICTIONARY
  5
174
330
173
100
AcDbDictionary
280
     1
281
     1
  3
ACAD_DIMASSOC
360
175
  0
DICTIONARY
  5
189
330
188
100
AcDbDictionary
280
     1
281
     1
  3
ACAD_DIMASSOC
360
18A
  0
DICTIONARY
  5
1A6
330
1A5
100
AcDbDictionary
280
     1
281
     1
  3
ACAD_DIMASSOC
360
1A7
  0
DICTIONARY
  5
1B5
330
1B4
100
AcDbDictionary
280
     1
281
     1
  3
ACAD_DIMASSOC
360
1B6
  0
DICTIONARY
  5
1C4
330
1C3
100
AcDbDictionary
280
     1
281
     1
  3
ACAD_DIMASSOC
360
1C5
  0
DICTIONARY
  5
1D4
330
1D3
100
AcDbDictionary
280
     1
281
     1
  3
ACAD_DIMASSOC
360
1D5
  0
DICTIONARY
  5
9AE
330
441
100
AcDbDictionary
280
     1
281
     1
  3
ACAD_MTEXT_2008_RT
360
9AF
  0
DICTIONARY
  5
21E
102
{ACAD_REACTORS
330
B
102
}
330
B
100
AcDbDictionary
281
     1
  0
DICTIONARY
  5
20B
102
{ACAD_REACTORS
330
B
102
}
330
B
100
AcDbDictionary
281
     1
  0
DICTIONARY
  5
1EC
102
{ACAD_REACTORS
330
B
102
}
330
B
100
AcDbDictionary
281
     1
  3
Layout1
350
1F1
  3
Layout2
350
1F5
  3
Model
350
1EB
  0
DICTIONARY
  5
D
102
{ACAD_REACTORS
330
B
102
}
330
B
100
AcDbDictionary
281
     1
  3
ByBlock
350
216
  3
ByLayer
350
20E
  3
Global
350
C
  0
DICTIONARY
  5
280
102
{ACAD_REACTORS
330
B
102
}
330
B
100
AcDbDictionary
281
     1
  3
Standard
350
281
  0
DICTIONARY
  5
20C
102
{ACAD_REACTORS
330
B
102
}
330
B
100
AcDbDictionary
281
     1
  3
Standard
350
221
  0
DICTIONARY
  5
20D
102
{ACAD_REACTORS
330
B
102
}
330
B
100
AcDbDictionary
281
     1
  0
ACDBDICTIONARYWDFLT
  5
A
102
{ACAD_REACTORS
330
B
102
}
330
B
100
AcDbDictionary
281
     1
  3
Normal
350
9
100
AcDbDictionaryWithDefault
340
9
  0
DICTIONARY
  5
21F
102
{ACAD_REACTORS
330
B
102
}
330
B
100
AcDbDictionary
281
     1
  3
A0
350
226
  3
A1
350
227
  3
A2
350
228
  3
A3
350
229
  3
A4
350
22A
  3
A5
350
22B
  3
A6
350
22C
  3
A7
350
22D
  3
A8
350
22E
  3
A9
350
22F
  3
B0
350
230
  3
B1
350
231
  3
B2
350
232
  3
B3
350
233
  3
B4
350
234
  3
B5
350
235
  3
B6
350
236
  3
B7
350
237
  3
B8
350
238
  3
B9
350
239
  3
C0
350
23A
  3
C1
350
23B
  3
C2
350
23C
  3
C3
350
23D
  3
C4
350
23E
  3
C5
350
23F
  3
C6
350
240
  3
C7
350
241
  3
C8
350
242
  3
C9
350
243
  3
D0
350
244
  3
D1
350
245
  3
D2
350
246
  0
DICTIONARY
  5
220
102
{ACAD_REACTORS
330
B
102
}
330
B
100
AcDbDictionary
281
     1
  3
Standard
350
222
  0
DICTIONARY
  5
205
102
{ACAD_REACTORS
330
B
102
}
330
B
100
AcDbDictionary
281
     1
  3
2dWireframe
350
204
  3
3D Hidden
350
278
  3
3dWireframe
350
225
  3
Basic
350
277
  3
Brighten
350
27B
  3
ColorChange
350
27F
  3
Conceptual
350
279
  3
Dim
350
27A
  3
Facepattern
350
27E
  3
Flat
350
273
  3
FlatWithEdges
350
274
  3
Gouraud
350
275
  3
GouraudWithEdges
350
276
  3
Linepattern
350
27D
  3
Realistic
350
224
  3
Thicken
350
27C
  0
XRECORD
  5
270
102
{ACAD_REACTORS
330
B
102
}
330
B
100
AcDbXrecord
280
     1
 90
        1
330
CC
330
222
330
441
330
89F
330
8E3
330
8E4
330
909
330
90C
330
90D
330
917
330
918
330
919
330
927
330
928
330
929
  0
DICTIONARY
  5
248
102
{ACAD_REACTORS
330
B
102
}
330
B
100
AcDbDictionary
281
     1
  3
CANNOSCALE
350
24B
  3
CMLEADERSTYLE
350
24A
  3
CTABLESTYLE
350
249
  3
DIMASSOC
350
7BF
  3
HIDETEXT
350
7BE
  3
INDEXCTL
350
7BD
  3
LIGHTINGUNITS
350
24C
  3
MSLTSCALE
350
598
  3
SORTENTS
350
7BC
  0
DICTIONARY
  5
1F8
102
{ACAD_REACTORS
330
1F7
102
}
330
1F7
100
AcDbDictionary
281
     1
  0
DICTIONARY
  5
1F9
102
{ACAD_REACTORS
330
1F7
102
}
330
1F7
100
AcDbDictionary
281
     1
  0
DICTIONARY
  5
1FA
102
{ACAD_REACTORS
330
1F7
102
}
330
1F7
100
AcDbDictionary
281
     1
1001
ACAD
1000
<All
  0
XRECORD
  5
8
102
{ACAD_REACTORS
330
7
102
}
330
7
100
AcDbXrecord
280
     1
290
     1
  0
XRECORD
  5
19
102
{ACAD_REACTORS
330
18
102
}
330
18
100
AcDbXrecord
280
     1
290
     1
  0
XRECORD
  5
27
102
{ACAD_REACTORS
330
26
102
}
330
26
100
AcDbXrecord
280
     1
290
     1
  0
XRECORD
  5
9AC
102
{ACAD_REACTORS
330
9AB
102
}
330
9AB
100
AcDbXrecord
280
     1
 70
     1
340
226
340
25
 70
    -1
  0
SORTENTSTABLE
  5
247
102
{ACAD_REACTORS
330
3
102
}
330
3
100
AcDbSortentsTable
330
2
331
156
  5
15C
331
15E
  5
164
331
166
  5
16C
331
16E
  5
188
331
1C3
  5
1E6
331
1D3
  5
1E7
331
C8
  5
C9
331
10F
  5
115
331
117
  5
11D
331
D4
  5
DA
331
12C
  5
132
331
E0
  5
E6
331
11F
  5
128
331
137
  5
13D
331
19E
  5
1A4
331
E8
  5
EE
331
F0
  5
F6
331
1E2
  5
D6
331
13F
  5
145
331
F8
  5
FE
331
147
  5
14D
331
1A4
  5
1E3
331
1B4
  5
1E5
331
100
  5
106
331
14F
  5
155
331
157
  5
15D
331
15F
  5
165
331
167
  5
16D
331
16F
  5
198
331
108
  5
10E
331
C9
  5
CB
331
110
  5
116
331
118
  5
11E
331
E1
  5
E7
331
130
  5
136
331
12D
  5
133
331
19F
  5
1A5
331
E9
  5
EF
331
138
  5
13E
331
F1
  5
F7
331
1E3
  5
D1
331
140
  5
146
331
148
  5
14E
331
1A5
  5
1E4
331
F9
  5
FF
331
101
  5
107
331
150
  5
156
331
158
  5
15E
331
160
  5
166
331
168
  5
16E
331
109
  5
10F
331
CA
  5
CC
331
111
  5
117
331
DA
  5
E0
331
119
  5
11F
331
12E
  5
134
331
E2
  5
E8
331
131
  5
137
331
198
  5
19E
331
139
  5
13F
331
EA
  5
F0
331
F2
  5
F8
331
1E4
  5
CA
331
141
  5
147
331
1E8
  5
D7
331
FA
  5
100
331
149
  5
14F
331
102
  5
108
331
151
  5
157
331
159
  5
15F
331
161
  5
167
331
169
  5
16F
331
120
  5
12A
331
10A
  5
110
331
112
  5
118
331
CB
  5
CD
331
11A
  5
120
331
D7
  5
DD
331
DB
  5
E1
331
E3
  5
E9
331
132
  5
138
331
12F
  5
135
331
199
  5
19F
331
EB
  5
F1
331
13A
  5
140
331
F3
  5
F9
331
1E5
  5
C8
331
142
  5
148
331
14A
  5
150
331
1E9
  5
D2
331
FB
  5
101
331
103
  5
109
331
152
  5
158
331
15A
  5
160
331
162
  5
168
331
16A
  5
170
331
121
  5
12B
331
10B
  5
111
331
170
  5
199
331
CC
  5
CE
331
113
  5
119
331
D0
  5
D5
331
128
  5
12F
331
DC
  5
E2
331
11B
  5
121
331
133
  5
139
331
E4
  5
EA
331
19A
  5
1A0
331
13B
  5
141
331
188
  5
19D
331
EC
  5
F2
331
F4
  5
FA
331
1E6
  5
1E8
331
143
  5
149
331
1A0
  5
1B4
331
FC
  5
102
331
14B
  5
151
331
104
  5
10A
331
153
  5
159
331
15B
  5
161
331
163
  5
169
331
16B
  5
171
331
122
  5
12C
331
171
  5
19A
331
10C
  5
112
331
114
  5
11A
331
D1
  5
D8
331
CD
  5
CF
331
11C
  5
122
331
E5
  5
EB
331
134
  5
13A
331
19B
  5
1A1
331
ED
  5
F3
331
13C
  5
142
331
144
  5
14A
331
F5
  5
FB
331
1A1
  5
1C3
331
1E7
  5
1E9
331
14C
  5
152
331
FD
  5
103
331
105
  5
10B
331
154
  5
15A
331
15C
  5
162
331
164
  5
16A
331
16C
  5
172
331
123
  5
12D
331
10D
  5
113
331
172
  5
19B
331
CE
  5
D0
331
115
  5
11B
331
12A
  5
130
331
DE
  5
E4
331
11D
  5
123
331
135
  5
13B
331
E6
  5
EC
331
19C
  5
1A2
331
13D
  5
143
331
EE
  5
F4
331
F6
  5
FC
331
145
  5
14B
331
1A2
  5
1D3
331
FE
  5
104
331
14D
  5
153
331
106
  5
10C
331
155
  5
15B
331
15D
  5
163
331
165
  5
16B
331
16D
  5
173
331
124
  5
12E
331
173
  5
19C
331
10E
  5
114
331
116
  5
11C
331
CF
  5
D4
331
DF
  5
E5
331
11E
  5
124
331
12B
  5
131
331
E7
  5
ED
331
136
  5
13C
331
19D
  5
1A3
331
EF
  5
F5
331
13E
  5
144
331
146
  5
14C
331
1A3
  5
1E2
331
F7
  5
FD
331
14E
  5
154
331
FF
  5
105
331
107
  5
10D
  0
XRECORD
  5
9B1
102
{ACAD_REACTORS
330
9B0
102
}
330
9B0
100
AcDbXrecord
280
     1
 40
1420.0
  1
\pxqc;YL GAO
  0
XRECORD
  5
9B3
102
{ACAD_REACTORS
330
9B2
102
}
330
9B2
100
AcDbXrecord
280
     1
 40
3624820.0
  1
\pxqc;档案员{\H0.7x;\P\Fromans|c134;Filing Clerk\fFangSong_GB2312|b0|i0|c134|p49; }
  0
XRECORD
  5
9B5
102
{ACAD_REACTORS
330
9B4
102
}
330
9B4
100
AcDbXrecord
280
     1
 40
2054623.0
  1
\pxqc;日期{\Fromans|c134;/Date}
  0
XRECORD
  5
9B7
102
{ACAD_REACTORS
330
9B6
102
}
330
9B6
100
AcDbXrecord
280
     1
 40
1836818.0
  1
\pxsm0.7;{\fFangSong_GB2312|b0|i0|c134|p49;标准化}\PStand.
  0
XRECORD
  5
9B9
102
{ACAD_REACTORS
330
9B8
102
}
330
9B8
100
AcDbXrecord
280
     1
 40
1476476.0
  1
\pxsm0.7;签名\P{\Fromans|c134;Signature} 
  0
XRECORD
  5
9BB
102
{ACAD_REACTORS
330
9BA
102
}
330
9BA
100
AcDbXrecord
280
     1
 40
1354713.0
  1
\pxsm0.7,qc;处数\P{\Fromans|c134;Number }
  0
XRECORD
  5
9BD
102
{ACAD_REACTORS
330
9BC
102
}
330
9BC
100
AcDbXrecord
280
     1
 40
1692934.0
  1
\pxsm0.7;标记\P{\Fromans|c134;Mark}
  0
XRECORD
  5
9BF
102
{ACAD_REACTORS
330
9BE
102
}
330
9BE
100
AcDbXrecord
280
     1
 40
1391581.0
  1
\pxsm0.7;审核\P{\Fromans|c134;Checked}
  0
XRECORD
  5
9C1
102
{ACAD_REACTORS
330
9C0
102
}
330
9C0
100
AcDbXrecord
280
     1
 40
1546703.0
  1
\pxsm0.7;绘图\P{\Fromans|c134;Drawn\Ftxt|c134; }
  0
XRECORD
  5
9C3
102
{ACAD_REACTORS
330
9C2
102
}
330
9C2
100
AcDbXrecord
280
     1
 40
1293614.0
  1
\pxsm0.7;批准\P{\Fromans|c134;Approved}
  0
XRECORD
  5
9C5
102
{ACAD_REACTORS
330
9C4
102
}
330
9C4
100
AcDbXrecord
280
     1
 40
1583427.0
  1
\pxsm0.7;工艺\P{\Fromans|c134;Process}
  0
XRECORD
  5
9C7
102
{ACAD_REACTORS
330
9C6
102
}
330
9C6
100
AcDbXrecord
280
     1
 40
1435325.0
  1
\pxsm0.7;日期\P{\Fromans|c134;Date}
  0
DICTIONARY
  5
898
102
{ACAD_REACTORS
330
897
102
}
330
897
100
AcDbDictionary
281
     1
  3
ACDB_ANNOTATIONSCALES
350
899
  0
DIMASSOC
  5
175
102
{ACAD_REACTORS
330
174
102
}
330
174
100
AcDbDimAssoc
330
173
 90
        3
 70
     0
 71
     0
  1
AcDbOsnapPointRef
 72
    10
331
169
 73
     2
 91
        0
 40
0.9651737921256227
 10
0.0
 20
0.0
 30
0.0
 75
     0
  1
AcDbOsnapPointRef
 72
     8
331
168
 73
     2
 91
        0
 40
0.0348262078743771
 10
0.0
 20
0.0
 30
0.0
 75
     1
  1
AcDbOsnapPointRef
 72
    10
331
169
 73
     2
 91
        0
 40
0.9651737921256227
 10
0.0
 20
0.0
 30
0.0
 75
     0
  0
DIMASSOC
  5
18A
102
{ACAD_REACTORS
330
189
102
}
330
189
100
AcDbDimAssoc
330
188
 90
        1
 70
     0
 71
     0
  1
AcDbOsnapPointRef
 72
     1
331
16E
 73
     2
 91
        0
 40
1.0
 10
0.0
 20
0.0
 30
2.000000000000000E+50
 75
     0
  0
DIMASSOC
  5
1A7
102
{ACAD_REACTORS
330
1A6
102
}
330
1A6
100
AcDbDimAssoc
330
1A5
 90
        2
 70
     0
 71
     0
  1
AcDbOsnapPointRef
 72
    13
331
172
 73
     2
 91
        0
 40
0.0
 10
0.0
 20
0.0
 30
2.000000000000000E+50
 75
     0
  0
DIMASSOC
  5
1B6
102
{ACAD_REACTORS
330
1B5
102
}
330
1B5
100
AcDbDimAssoc
330
1B4
 90
        1
 70
     0
 71
     0
  1
AcDbOsnapPointRef
 72
     1
331
161
 73
     2
 91
        0
 40
1.0
 10
0.0
 20
0.0
 30
2.000000000000000E+50
 75
     0
  0
DIMASSOC
  5
1C5
102
{ACAD_REACTORS
330
1C4
102
}
330
1C4
100
AcDbDimAssoc
330
1C3
 90
        3
 70
     0
 71
     0
  1
AcDbOsnapPointRef
 72
    13
331
161
 73
     2
 91
        0
 40
0.0
 10
0.0
 20
0.0
 30
2.000000000000000E+50
 75
     0
  1
AcDbOsnapPointRef
 72
     8
331
15F
 73
     2
 91
        0
 40
0.0
 10
0.0
 20
0.0
 30
0.0
 75
     1
  1
AcDbOsnapPointRef
 72
    13
331
161
 73
     2
 91
        0
 40
0.0
 10
0.0
 20
0.0
 30
2.000000000000000E+50
 75
     0
  0
DIMASSOC
  5
1D5
102
{ACAD_REACTORS
330
1D4
102
}
330
1D4
100
AcDbDimAssoc
330
1D3
 90
        2
 70
     0
 71
     0
  1
AcDbOsnapPointRef
 72
    13
331
16B
 73
     2
 91
        0
 40
0.0
 10
0.0
 20
0.0
 30
2.000000000000000E+50
 75
     0
  0
XRECORD
  5
9AF
102
{ACAD_REACTORS
330
9AE
102
}
330
9AE
100
AcDbXrecord
280
     1
 40
325335237.0
  1
\A1;\pxql;{\f仿宋_GB2312|b0|i0|c134|p49;技术参数}:\P\pq*;- {\f仿宋_GB2312|b0|i0|c134|p49;材料}: {\f仿宋_GB2312|b0|i0|c134|p49;铜合金}\P- {\f仿宋_GB2312|b0|i0|c134|p49;表面处理}: {\f仿宋_GB2312|b0|i0|c134|p49;镀银}\P\pql;- {\f仿宋_GB2312|b0|i0|c134|p49;额定电流}: 5A\P- {\f仿宋_GB2312
  1
|b0|i0|c134|p49;接触电阻}: ≤3mΩ\P- {\f仿宋_GB2312|b0|i0|c134|p49;线径范围}: 0.52-0.82mm{\H0.7x;\S2^ ;}(20-18 AWG)\P\pq*;- {\f仿宋_GB2312|b0|i0|c134|p49;可插拔次数}: {\f仿宋_GB2312|b0|i0|c134|p49;≥}500\P\P\pql;Technical specification:\P- Material: copper alloy\P- Surface
  1
: hard-silver plated\P- Rated current: 5A\P- Contact resistance: ≤3mΩ\P- Wire gauge: 0.52-0.82mm{\H0.7x;\S2^ ;}(20-18 AWG)\P- Mating cycles: {\f仿宋_GB2312|b0|i0|c134|p49;≥}500
  0
LAYOUT
  5
1F1
102
{ACAD_REACTORS
330
1EC
102
}
330
1EC
100
AcDbPlotSettings
  1

  2
none_device
  4

  6

 40
0.0
 41
0.0
 42
0.0
 43
0.0
 44
0.0
 45
0.0
 46
0.0
 47
0.0
 48
0.0
 49
0.0
140
0.0
141
0.0
142
1.0
143
1.0
 70
   688
 72
     0
 73
     0
 74
     5
  7

 75
    16
147
1.0
 76
     0
 77
     2
 78
   300
148
0.0
149
0.0
100
AcDbLayout
  1
Layout1
 70
     1
 71
     1
 10
0.0
 20
0.0
 11
12.0
 21
9.0
 12
0.0
 22
0.0
 32
0.0
 14
1.000000000000000E+20
 24
1.000000000000000E+20
 34
1.000000000000000E+20
 15
-1.000000000000000E+20
 25
-1.000000000000000E+20
 35
-1.000000000000000E+20
146
0.0
 13
0.0
 23
0.0
 33
0.0
 16
1.0
 26
0.0
 36
0.0
 17
0.0
 27
1.0
 37
0.0
 76
     0
330
1EE
  0
LAYOUT
  5
1F5
102
{ACAD_REACTORS
330
1EC
102
}
330
1EC
100
AcDbPlotSettings
  1

  2
none_device
  4

  6

 40
0.0
 41
0.0
 42
0.0
 43
0.0
 44
0.0
 45
0.0
 46
0.0
 47
0.0
 48
0.0
 49
0.0
140
0.0
141
0.0
142
1.0
143
1.0
 70
   688
 72
     0
 73
     0
 74
     5
  7

 75
    16
147
1.0
 76
     0
 77
     2
 78
   300
148
0.0
149
0.0
100
AcDbLayout
  1
Layout2
 70
     1
 71
     2
 10
0.0
 20
0.0
 11
0.0
 21
0.0
 12
0.0
 22
0.0
 32
0.0
 14
0.0
 24
0.0
 34
0.0
 15
0.0
 25
0.0
 35
0.0
146
0.0
 13
0.0
 23
0.0
 33
0.0
 16
1.0
 26
0.0
 36
0.0
 17
0.0
 27
1.0
 37
0.0
 76
     0
330
1F2
  0
LAYOUT
  5
1EB
102
{ACAD_REACTORS
330
1EC
102
}
330
1EC
100
AcDbPlotSettings
  1

  2
Adobe PDF Converter.pc3
  4
A4
  6

 40
3.174999952316281
 41
3.174999952316281
 42
3.17498779296875
 43
3.175003051757812
 44
297.0318298339844
 45
209.9733276367186
 46
0.0000000000000076
 47
1.630241740247063
 48
246.9897427644609
 49
39.36804549891383
140
544.952097801264
141
244.7492402188181
142
1.0
143
1.025046328645055
 70
  3764
 72
     1
 73
     0
 74
     4
  7
monochrome.ctb
 75
     0
147
0.9755656618192436
 76
     1
 77
     2
 78
   300
148
-246.9897427644609
149
-39.36804549891383
100
AcDbLayout
  1
Model
 70
     1
 71
     0
 10
0.0
 20
0.0
 11
12.0
 21
9.0
 12
0.0
 22
0.0
 32
0.0
 14
1.000000000000000E+20
 24
1.000000000000000E+20
 34
1.000000000000000E+20
 15
-1.000000000000000E+20
 25
-1.000000000000000E+20
 35
-1.000000000000000E+20
146
0.0
 13
0.0
 23
0.0
 33
0.0
 16
1.0
 26
0.0
 36
0.0
 17
0.0
 27
1.0
 37
0.0
 76
     0
330
2
331
203
1001
ACAD_PSEXT
1000
Adobe PDF Converter.pc3
1000
Adobe PDF Converter
1000
桌面\*.pdf
1000

1070
     0
  0
MATERIAL
  5
216
102
{ACAD_XDICTIONARY
360
217
102
}
102
{ACAD_REACTORS
330
D
102
}
330
D
100
AcDbMaterial
  1
ByBlock
 72
     0
 43
0.0208333333333333
 43
0.0
 43
0.0
 43
0.0
 43
0.0
 43
0.0208333333333333
 43
0.0
 43
0.0
 43
0.0
 43
0.0
 43
1.0
 43
0.0
 43
0.0
 43
0.0
 43
0.0
 43
1.0
 77
     0
 47
0.0208333333333333
 47
0.0
 47
0.0
 47
0.0
 47
0.0
 47
0.0208333333333333
 47
0.0
 47
0.0
 47
0.0
 47
0.0
 47
1.0
 47
0.0
 47
0.0
 47
0.0
 47
0.0
 47
1.0
171
     0
 49
0.0208333333333333
 49
0.0
 49
0.0
 49
0.0
 49
0.0
 49
0.0208333333333333
 49
0.0
 49
0.0
 49
0.0
 49
0.0
 49
1.0
 49
0.0
 49
0.0
 49
0.0
 49
0.0
 49
1.0
175
     0
142
0.0208333333333333
142
0.0
142
0.0
142
0.0
142
0.0
142
0.0208333333333333
142
0.0
142
0.0
142
0.0
142
0.0
142
1.0
142
0.0
142
0.0
142
0.0
142
0.0
142
1.0
179
     0
144
0.0208333333333333
144
0.0
144
0.0
144
0.0
144
0.0
144
0.0208333333333333
144
0.0
144
0.0
144
0.0
144
0.0
144
1.0
144
0.0
144
0.0
144
0.0
144
0.0
144
1.0
147
0.0208333333333333
147
0.0
147
0.0
147
0.0
147
0.0
147
0.0208333333333333
147
0.0
147
0.0
147
0.0
147
0.0
147
1.0
147
0.0
147
0.0
147
0.0
147
0.0
147
1.0
  0
MATERIAL
  5
20E
102
{ACAD_XDICTIONARY
360
20F
102
}
102
{ACAD_REACTORS
330
D
102
}
330
D
100
AcDbMaterial
  1
ByLayer
 72
     0
 43
0.0208333333333333
 43
0.0
 43
0.0
 43
0.0
 43
0.0
 43
0.0208333333333333
 43
0.0
 43
0.0
 43
0.0
 43
0.0
 43
1.0
 43
0.0
 43
0.0
 43
0.0
 43
0.0
 43
1.0
 77
     0
 47
0.0208333333333333
 47
0.0
 47
0.0
 47
0.0
 47
0.0
 47
0.0208333333333333
 47
0.0
 47
0.0
 47
0.0
 47
0.0
 47
1.0
 47
0.0
 47
0.0
 47
0.0
 47
0.0
 47
1.0
171
     0
 49
0.0208333333333333
 49
0.0
 49
0.0
 49
0.0
 49
0.0
 49
0.0208333333333333
 49
0.0
 49
0.0
 49
0.0
 49
0.0
 49
1.0
 49
0.0
 49
0.0
 49
0.0
 49
0.0
 49
1.0
175
     0
142
0.0208333333333333
142
0.0
142
0.0
142
0.0
142
0.0
142
0.0208333333333333
142
0.0
142
0.0
142
0.0
142
0.0
142
1.0
142
0.0
142
0.0
142
0.0
142
0.0
142
1.0
179
     0
144
0.0208333333333333
144
0.0
144
0.0
144
0.0
144
0.0
144
0.0208333333333333
144
0.0
144
0.0
144
0.0
144
0.0
144
1.0
144
0.0
144
0.0
144
0.0
144
0.0
144
1.0
147
0.0208333333333333
147
0.0
147
0.0
147
0.0
147
0.0
147
0.0208333333333333
147
0.0
147
0.0
147
0.0
147
0.0
147
1.0
147
0.0
147
0.0
147
0.0
147
0.0
147
1.0
  0
MATERIAL
  5
C
102
{ACAD_XDICTIONARY
360
E
102
}
102
{ACAD_REACTORS
330
D
102
}
330
D
100
AcDbMaterial
  1
Global
 72
     0
 43
0.0208333333333333
 43
0.0
 43
0.0
 43
0.0
 43
0.0
 43
0.0208333333333333
 43
0.0
 43
0.0
 43
0.0
 43
0.0
 43
1.0
 43
0.0
 43
0.0
 43
0.0
 43
0.0
 43
1.0
 77
     0
 47
0.0208333333333333
 47
0.0
 47
0.0
 47
0.0
 47
0.0
 47
0.0208333333333333
 47
0.0
 47
0.0
 47
0.0
 47
0.0
 47
1.0
 47
0.0
 47
0.0
 47
0.0
 47
0.0
 47
1.0
171
     0
 49
0.0208333333333333
 49
0.0
 49
0.0
 49
0.0
 49
0.0
 49
0.0208333333333333
 49
0.0
 49
0.0
 49
0.0
 49
0.0
 49
1.0
 49
0.0
 49
0.0
 49
0.0
 49
0.0
 49
1.0
175
     0
142
0.0208333333333333
142
0.0
142
0.0
142
0.0
142
0.0
142
0.0208333333333333
142
0.0
142
0.0
142
0.0
142
0.0
142
1.0
142
0.0
142
0.0
142
0.0
142
0.0
142
1.0
179
     0
144
0.0208333333333333
144
0.0
144
0.0
144
0.0
144
0.0
144
0.0208333333333333
144
0.0
144
0.0
144
0.0
144
0.0
144
1.0
144
0.0
144
0.0
144
0.0
144
0.0
144
1.0
147
0.0208333333333333
147
0.0
147
0.0
147
0.0
147
0.0
147
0.0208333333333333
147
0.0
147
0.0
147
0.0
147
0.0
147
1.0
147
0.0
147
0.0
147
0.0
147
0.0
147
1.0
  0
MLEADERSTYLE
  5
281
102
{ACAD_REACTORS
330
280
102
}
330
280
100
AcDbMLeaderStyle
170
     2
171
     1
172
     0
 90
        2
 40
0.0
 41
0.0
173
     1
 91
-1056964608
340
1FE
 92
       -2
290
     1
 42
0.09
291
     1
 43
0.36
  3
Standard
 44
0.18
300

342
42
174
     1
178
     6
175
     1
176
     0
 93
-1056964608
 45
0.18
292
     0
297
     0
 46
0.18
 94
-1056964608
 47
1.0
 49
1.0
140
1.0
293
     1
141
0.0
294
     1
177
     0
142
1.0
295
     0
296
     0
143
0.125
1001
ACAD_MLEADERVER
1070
     2
  0
MLINESTYLE
  5
221
102
{ACAD_REACTORS
330
20C
102
}
330
20C
100
AcDbMlineStyle
  2
STANDARD
 70
     0
  3

 62
   256
 51
90.0
 52
90.0
 71
     2
 49
0.5
 62
   256
  6
BYLAYER
 49
-0.5
 62
   256
  6
BYLAYER
  0
ACDBPLACEHOLDER
  5
9
102
{ACAD_REACTORS
330
A
102
}
330
A
  0
SCALE
  5
226
102
{ACAD_REACTORS
330
21F
102
}
330
21F
100
AcDbScale
 70
     0
300
1:1
140
1.0
141
1.0
290
     1
  0
SCALE
  5
227
102
{ACAD_REACTORS
330
21F
102
}
330
21F
100
AcDbScale
 70
     0
300
1:2
140
1.0
141
2.0
290
     0
  0
SCALE
  5
228
102
{ACAD_REACTORS
330
21F
102
}
330
21F
100
AcDbScale
 70
     0
300
1:4
140
1.0
141
4.0
290
     0
  0
SCALE
  5
229
102
{ACAD_REACTORS
330
21F
102
}
330
21F
100
AcDbScale
 70
     0
300
1:5
140
1.0
141
5.0
290
     0
  0
SCALE
  5
22A
102
{ACAD_REACTORS
330
21F
102
}
330
21F
100
AcDbScale
 70
     0
300
1:8
140
1.0
141
8.0
290
     0
  0
SCALE
  5
22B
102
{ACAD_REACTORS
330
21F
102
}
330
21F
100
AcDbScale
 70
     0
300
1:10
140
1.0
141
10.0
290
     0
  0
SCALE
  5
22C
102
{ACAD_REACTORS
330
21F
102
}
330
21F
100
AcDbScale
 70
     0
300
1:16
140
1.0
141
16.0
290
     0
  0
SCALE
  5
22D
102
{ACAD_REACTORS
330
21F
102
}
330
21F
100
AcDbScale
 70
     0
300
1:20
140
1.0
141
20.0
290
     0
  0
SCALE
  5
22E
102
{ACAD_REACTORS
330
21F
102
}
330
21F
100
AcDbScale
 70
     0
300
1:30
140
1.0
141
30.0
290
     0
  0
SCALE
  5
22F
102
{ACAD_REACTORS
330
21F
102
}
330
21F
100
AcDbScale
 70
     0
300
1:40
140
1.0
141
40.0
290
     0
  0
SCALE
  5
230
102
{ACAD_REACTORS
330
21F
102
}
330
21F
100
AcDbScale
 70
     0
300
1:50
140
1.0
141
50.0
290
     0
  0
SCALE
  5
231
102
{ACAD_REACTORS
330
21F
102
}
330
21F
100
AcDbScale
 70
     0
300
1:100
140
1.0
141
100.0
290
     0
  0
SCALE
  5
232
102
{ACAD_REACTORS
330
21F
102
}
330
21F
100
AcDbScale
 70
     0
300
2:1
140
2.0
141
1.0
290
     0
  0
SCALE
  5
233
102
{ACAD_REACTORS
330
21F
102
}
330
21F
100
AcDbScale
 70
     0
300
4:1
140
4.0
141
1.0
290
     0
  0
SCALE
  5
234
102
{ACAD_REACTORS
330
21F
102
}
330
21F
100
AcDbScale
 70
     0
300
8:1
140
8.0
141
1.0
290
     0
  0
SCALE
  5
235
102
{ACAD_REACTORS
330
21F
102
}
330
21F
100
AcDbScale
 70
     0
300
10:1
140
10.0
141
1.0
290
     0
  0
SCALE
  5
236
102
{ACAD_REACTORS
330
21F
102
}
330
21F
100
AcDbScale
 70
     0
300
100:1
140
100.0
141
1.0
290
     0
  0
SCALE
  5
237
102
{ACAD_REACTORS
330
21F
102
}
330
21F
100
AcDbScale
 70
     0
300
1/128" = 1'-0"
140
0.0078125
141
12.0
290
     0
  0
SCALE
  5
238
102
{ACAD_REACTORS
330
21F
102
}
330
21F
100
AcDbScale
 70
     0
300
1/64" = 1'-0"
140
0.015625
141
12.0
290
     0
  0
SCALE
  5
239
102
{ACAD_REACTORS
330
21F
102
}
330
21F
100
AcDbScale
 70
     0
300
1/32" = 1'-0"
140
0.03125
141
12.0
290
     0
  0
SCALE
  5
23A
102
{ACAD_REACTORS
330
21F
102
}
330
21F
100
AcDbScale
 70
     0
300
1/16" = 1'-0"
140
0.0625
141
12.0
290
     0
  0
SCALE
  5
23B
102
{ACAD_REACTORS
330
21F
102
}
330
21F
100
AcDbScale
 70
     0
300
3/32" = 1'-0"
140
0.09375
141
12.0
290
     0
  0
SCALE
  5
23C
102
{ACAD_REACTORS
330
21F
102
}
330
21F
100
AcDbScale
 70
     0
300
1/8" = 1'-0"
140
0.125
141
12.0
290
     0
  0
SCALE
  5
23D
102
{ACAD_REACTORS
330
21F
102
}
330
21F
100
AcDbScale
 70
     0
300
3/16" = 1'-0"
140
0.1875
141
12.0
290
     0
  0
SCALE
  5
23E
102
{ACAD_REACTORS
330
21F
102
}
330
21F
100
AcDbScale
 70
     0
300
1/4" = 1'-0"
140
0.25
141
12.0
290
     0
  0
SCALE
  5
23F
102
{ACAD_REACTORS
330
21F
102
}
330
21F
100
AcDbScale
 70
     0
300
3/8" = 1'-0"
140
0.375
141
12.0
290
     0
  0
SCALE
  5
240
102
{ACAD_REACTORS
330
21F
102
}
330
21F
100
AcDbScale
 70
     0
300
1/2" = 1'-0"
140
0.5
141
12.0
290
     0
  0
SCALE
  5
241
102
{ACAD_REACTORS
330
21F
102
}
330
21F
100
AcDbScale
 70
     0
300
3/4" = 1'-0"
140
0.75
141
12.0
290
     0
  0
SCALE
  5
242
102
{ACAD_REACTORS
330
21F
102
}
330
21F
100
AcDbScale
 70
     0
300
1" = 1'-0"
140
1.0
141
12.0
290
     0
  0
SCALE
  5
243
102
{ACAD_REACTORS
330
21F
102
}
330
21F
100
AcDbScale
 70
     0
300
1-1/2" = 1'-0"
140
1.5
141
12.0
290
     0
  0
SCALE
  5
244
102
{ACAD_REACTORS
330
21F
102
}
330
21F
100
AcDbScale
 70
     0
300
3" = 1'-0"
140
3.0
141
12.0
290
     0
  0
SCALE
  5
245
102
{ACAD_REACTORS
330
21F
102
}
330
21F
100
AcDbScale
 70
     0
300
6" = 1'-0"
140
6.0
141
12.0
290
     0
  0
SCALE
  5
246
102
{ACAD_REACTORS
330
21F
102
}
330
21F
100
AcDbScale
 70
     0
300
1'-0" = 1'-0"
140
12.0
141
12.0
290
     0
  0
TABLESTYLE
  5
222
102
{ACAD_XDICTIONARY
360
223
102
}
102
{ACAD_REACTORS
330
220
102
}
330
220
100
AcDbTableStyle
  3
Standard
 70
     0
 71
     0
 40
0.06
 41
0.06
280
     0
281
     0
  7
Standard
140
0.18
170
     2
 62
     0
 63
     7
283
     0
 90
      512
 91
        0
  1

274
    -2
284
     1
 64
     0
275
    -2
285
     1
 65
     0
276
    -2
286
     1
 66
     0
277
    -2
287
     1
 67
     0
278
    -2
288
     1
 68
     0
279
    -2
289
     1
 69
     0
  7
Standard
140
0.25
170
     5
 62
     0
 63
     7
283
     0
 90
      512
 91
        0
  1

274
    -2
284
     1
 64
     0
275
    -2
285
     1
 65
     0
276
    -2
286
     1
 66
     0
277
    -2
287
     1
 67
     0
278
    -2
288
     1
 68
     0
279
    -2
289
     1
 69
     0
  7
Standard
140
0.18
170
     5
 62
     0
 63
     7
283
     0
 90
      512
 91
        0
  1

274
    -2
284
     1
 64
     0
275
    -2
285
     1
 65
     0
276
    -2
286
     1
 66
     0
277
    -2
287
     1
 67
     0
278
    -2
288
     1
 68
     0
279
    -2
289
     1
 69
     0
  0
VISUALSTYLE
  5
204
102
{ACAD_REACTORS
330
205
102
}
330
205
100
AcDbVisualStyle
  2
2dWireframe
 70
     4
 71
     0
 72
     2
 73
     0
 90
        0
 40
-0.6
 41
-30.0
 62
     5
 63
     7
 74
     1
 91
        4
 64
     7
 65
   257
 75
     1
175
     1
 42
1.0
 92
        0
 66
   257
 43
1.0
 76
     1
 77
     6
 78
     2
 67
     7
 79
     5
170
     0
171
     0
290
     0
174
     0
 93
        1
 44
0.0
173
     0
291
     0
 45
0.0
1001
ACAD
1000
AcDbSavedByObjectVersion
1070
     0
1000
AcDbSavedByObjectVersion
1070
     0
1000
AcDbSavedByObjectVersion
1070
     0
1000
AcDbSavedByObjectVersion
1070
     0
1000
AcDbSavedByObjectVersion
1070
     0
1000
AcDbSavedByObjectVersion
1070
     0
1000
AcDbSavedByObjectVersion
1070
     0
1000
AcDbSavedByObjectVersion
1070
     0
1000
AcDbSavedByObjectVersion
1070
     0
1000
AcDbSavedByObjectVersion
1070
     0
1000
AcDbSavedByObjectVersion
1070
     0
1000
AcDbSavedByObjectVersion
1070
     0
1000
AcDbSavedByObjectVersion
1070
     0
1000
AcDbSavedByObjectVersion
1070
     0
1000
AcDbSavedByObjectVersion
1070
     0
1000
AcDbSavedByObjectVersion
1070
     0
1000
AcDbSavedByObjectVersion
1070
     0
1000
AcDbSavedByObjectVersion
1070
     0
1000
AcDbSavedByObjectVersion
1070
     0
1000
AcDbSavedByObjectVersion
1070
     0
1000
AcDbSavedByObjectVersion
1070
     0
1000
AcDbSavedByObjectVersion
1070
     0
1000
AcDbSavedByObjectVersion
1070
     0
1000
AcDbSavedByObjectVersion
1070
     0
1000
AcDbSavedByObjectVersion
1070
     0
1000
AcDbSavedByObjectVersion
1070
     0
1000
AcDbSavedByObjectVersion
1070
     0
1000
AcDbSavedByObjectVersion
1070
     0
1000
AcDbSavedByObjectVersion
1070
     0
1000
AcDbSavedByObjectVersion
1070
     0
1000
AcDbSavedByObjectVersion
1070
     0
1000
AcDbSavedByObjectVersion
1070
     0
1000
AcDbSavedByObjectVersion
1070
     0
1000
AcDbSavedByObjectVersion
1070
     0
1000
AcDbSavedByObjectVersion
1070
     0
  0
VISUALSTYLE
  5
278
102
{ACAD_REACTORS
330
205
102
}
330
205
100
AcDbVisualStyle
  2
3D Hidden
 70
     6
 71
     1
 72
     2
 73
     2
 90
        0
 40
-0.6
 41
-30.0
 62
     5
 63
     7
 74
     2
 91
        2
 64
     7
 65
   257
 75
     2
175
     1
 42
40.0
 92
        0
 66
   257
 43
1.0
 76
     1
 77
     6
 78
     2
 67
     7
 79
     3
170
     0
171
     0
290
     0
174
     0
 93
        1
 44
0.0
173
     0
291
     0
 45
0.0
1001
ACAD
1000
AcDbSavedByObjectVersion
1070
     0
1000
AcDbSavedByObjectVersion
1070
     0
1000
AcDbSavedByObjectVersion
1070
     0
  0
VISUALSTYLE
  5
225
102
{ACAD_REACTORS
330
205
102
}
330
205
100
AcDbVisualStyle
  2
3dWireframe
 70
     5
 71
     0
 72
     2
 73
     0
 90
        0
 40
-0.6
 41
-30.0
 62
     5
 63
     7
 74
     1
 91
        4
 64
     7
 65
   257
 75
     1
175
     1
 42
1.0
 92
        0
 66
   257
 43
1.0
 76
     1
 77
     6
 78
     2
 67
     7
 79
     5
170
     0
171
     0
290
     0
174
     0
 93
        1
 44
0.0
173
     0
291
     0
 45
0.0
1001
ACAD
1000
AcDbSavedByObjectVersion
1070
     0
1000
AcDbSavedByObjectVersion
1070
     0
1000
AcDbSavedByObjectVersion
1070
     0
1000
AcDbSavedByObjectVersion
1070
     0
1000
AcDbSavedByObjectVersion
1070
     0
1000
AcDbSavedByObjectVersion
1070
     0
1000
AcDbSavedByObjectVersion
1070
     0
1000
AcDbSavedByObjectVersion
1070
     0
1000
AcDbSavedByObjectVersion
1070
     0
1000
AcDbSavedByObjectVersion
1070
     0
1000
AcDbSavedByObjectVersion
1070
     0
1000
AcDbSavedByObjectVersion
1070
     0
1000
AcDbSavedByObjectVersion
1070
     0
1000
AcDbSavedByObjectVersion
1070
     0
1000
AcDbSavedByObjectVersion
1070
     0
1000
AcDbSavedByObjectVersion
1070
     0
1000
AcDbSavedByObjectVersion
1070
     0
1000
AcDbSavedByObjectVersion
1070
     0
1000
AcDbSavedByObjectVersion
1070
     0
1000
AcDbSavedByObjectVersion
1070
     0
1000
AcDbSavedByObjectVersion
1070
     0
1000
AcDbSavedByObjectVersion
1070
     0
1000
AcDbSavedByObjectVersion
1070
     0
1000
AcDbSavedByObjectVersion
1070
     0
1000
AcDbSavedByObjectVersion
1070
     0
1000
AcDbSavedByObjectVersion
1070
     0
1000
AcDbSavedByObjectVersion
1070
     0
1000
AcDbSavedByObjectVersion
1070
     0
1000
AcDbSavedByObjectVersion
1070
     0
1000
AcDbSavedByObjectVersion
1070
     0
1000
AcDbSavedByObjectVersion
1070
     0
1000
AcDbSavedByObjectVersion
1070
     0
1000
AcDbSavedByObjectVersion
1070
     0
1000
AcDbSavedByObjectVersion
1070
     0
1000
AcDbSavedByObjectVersion
1070
     0
  0
VISUALSTYLE
  5
277
102
{ACAD_REACTORS
330
205
102
}
330
205
100
AcDbVisualStyle
  2
Basic
 70
     7
 71
     1
 72
     0
 73
     1
 90
        0
 40
-0.6
 41
-30.0
 62
     5
 63
     7
 74
     0
 91
        4
 64
     7
 65
   257
 75
     1
175
     1
 42
1.0
 92
        8
 66
     7
 43
1.0
 76
     1
 77
     6
 78
     2
 67
     7
 79
     5
170
     0
171
     0
290
     0
174
     0
 93
        1
 44
0.0
173
     0
291
     1
 45
0.0
1001
ACAD
1000
AcDbSavedByObjectVersion
1070
     0
1000
AcDbSavedByObjectVersion
1070
     0
1000
AcDbSavedByObjectVersion
1070
     0
  0
VISUALSTYLE
  5
27B
102
{ACAD_REACTORS
330
205
102
}
330
205
100
AcDbVisualStyle
  2
Brighten
 70
    12
 71
     2
 72
     2
 73
     0
 90
        0
 40
-0.6
 41
-30.0
 62
     5
 63
     7
 74
     1
 91
        4
 64
     7
 65
   257
 75
     1
175
     1
 42
1.0
 92
        8
 66
     7
 43
1.0
 76
     1
 77
     6
 78
     2
 67
     7
 79
     5
170
     0
171
     0
290
     0
174
     0
 93
        1
 44
50.0
173
     0
291
     1
 45
0.0
1001
ACAD
1000
AcDbSavedByObjectVersion
1070
     0
1000
AcDbSavedByObjectVersion
1070
     0
1000
AcDbSavedByObjectVersion
1070
     0
  0
VISUALSTYLE
  5
27F
102
{ACAD_REACTORS
330
205
102
}
330
205
100
AcDbVisualStyle
  2
ColorChange
 70
    16
 71
     2
 72
     2
 73
     3
 90
        0
 40
-0.6
 41
-30.0
 62
     5
 63
     8
 74
     1
 91
        4
 64
     7
 65
   257
 75
     1
175
     1
 42
1.0
 92
        8
 66
     8
 43
1.0
 76
     1
 77
     6
 78
     2
 67
     7
 79
     5
170
     0
171
     0
290
     0
174
     0
 93
        1
 44
0.0
173
     0
291
     1
 45
0.0
1001
ACAD
1000
AcDbSavedByObjectVersion
1070
     0
1000
AcDbSavedByObjectVersion
1070
     0
1000
AcDbSavedByObjectVersion
1070
     0
  0
VISUALSTYLE
  5
279
102
{ACAD_REACTORS
330
205
102
}
330
205
100
AcDbVisualStyle
  2
Conceptual
 70
     9
 71
     3
 72
     2
 73
     0
 90
        0
 40
-0.6
 41
-30.0
 62
     5
 63
     7
 74
     2
 91
        2
 64
     7
 65
   257
 75
     1
175
     1
 42
40.0
 92
        8
 66
     7
 43
1.0
 76
     1
 77
     6
 78
     2
 67
     7
 79
     3
170
     0
171
     0
290
     0
174
     0
 93
        1
 44
0.0
173
     0
291
     0
 45
0.0
1001
ACAD
1000
AcDbSavedByObjectVersion
1070
     0
1000
AcDbSavedByObjectVersion
1070
     0
1000
AcDbSavedByObjectVersion
1070
     0
  0
VISUALSTYLE
  5
27A
102
{ACAD_REACTORS
330
205
102
}
330
205
100
AcDbVisualStyle
  2
Dim
 70
    11
 71
     2
 72
     2
 73
     0
 90
        0
 40
-0.6
 41
-30.0
 62
     5
 63
     7
 74
     1
 91
        4
 64
     7
 65
   257
 75
     1
175
     1
 42
1.0
 92
        8
 66
     7
 43
1.0
 76
     1
 77
     6
 78
     2
 67
     7
 79
     5
170
     0
171
     0
290
     0
174
     0
 93
        1
 44
-50.0
173
     0
291
     1
 45
0.0
1001
ACAD
1000
AcDbSavedByObjectVersion
1070
     0
1000
AcDbSavedByObjectVersion
1070
     0
1000
AcDbSavedByObjectVersion
1070
     0
  0
VISUALSTYLE
  5
27E
102
{ACAD_REACTORS
330
205
102
}
330
205
100
AcDbVisualStyle
  2
Facepattern
 70
    15
 71
     2
 72
     2
 73
     0
 90
        0
 40
-0.6
 41
-30.0
 62
     5
 63
     7
 74
     1
 91
        4
 64
     7
 65
   257
 75
     1
175
     1
 42
1.0
 92
        8
 66
     7
 43
1.0
 76
     1
 77
     6
 78
     2
 67
     7
 79
     5
170
     0
171
     0
290
     0
174
     0
 93
        1
 44
0.0
173
     0
291
     1
 45
0.0
1001
ACAD
1000
AcDbSavedByObjectVersion
1070
     0
1000
AcDbSavedByObjectVersion
1070
     0
1000
AcDbSavedByObjectVersion
1070
     0
  0
VISUALSTYLE
  5
273
102
{ACAD_REACTORS
330
205
102
}
330
205
100
AcDbVisualStyle
  2
Flat
 70
     0
 71
     2
 72
     1
 73
     1
 90
        2
 40
-0.6
 41
30.0
 62
     5
 63
     7
 74
     0
 91
        4
 64
     7
 65
   257
 75
     1
175
     1
 42
1.0
 92
        8
 66
     7
 43
1.0
 76
     1
 77
     6
 78
     2
 67
     7
 79
     5
170
     0
171
     0
290
     0
174
     0
 93
       13
 44
0.0
173
     0
291
     1
 45
0.0
1001
ACAD
1000
AcDbSavedByObjectVersion
1070
     0
1000
AcDbSavedByObjectVersion
1070
     0
1000
AcDbSavedByObjectVersion
1070
     0
  0
VISUALSTYLE
  5
274
102
{ACAD_REACTORS
330
205
102
}
330
205
100
AcDbVisualStyle
  2
FlatWithEdges
 70
     1
 71
     2
 72
     1
 73
     1
 90
        2
 40
-0.6
 41
30.0
 62
     5
 63
     7
 74
     1
 91
        4
 64
     7
 65
   257
 75
     1
175
     1
 42
1.0
 92
        0
 66
   257
 43
1.0
 76
     1
 77
     6
 78
     2
 67
     7
 79
     5
170
     0
171
     0
290
     0
174
     0
 93
       13
 44
0.0
173
     0
291
     1
 45
0.0
1001
ACAD
1000
AcDbSavedByObjectVersion
1070
     0
1000
AcDbSavedByObjectVersion
1070
     0
1000
AcDbSavedByObjectVersion
1070
     0
  0
VISUALSTYLE
  5
275
102
{ACAD_REACTORS
330
205
102
}
330
205
100
AcDbVisualStyle
  2
Gouraud
 70
     2
 71
     2
 72
     2
 73
     1
 90
        2
 40
-0.6
 41
30.0
 62
     5
 63
     7
 74
     0
 91
        4
 64
     7
 65
   257
 75
     1
175
     1
 42
1.0
 92
        0
 66
     7
 43
1.0
 76
     1
 77
     6
 78
     2
 67
     7
 79
     5
170
     0
171
     0
290
     0
174
     0
 93
       13
 44
0.0
173
     0
291
     1
 45
0.0
1001
ACAD
1000
AcDbSavedByObjectVersion
1070
     0
1000
AcDbSavedByObjectVersion
1070
     0
1000
AcDbSavedByObjectVersion
1070
     0
  0
VISUALSTYLE
  5
276
102
{ACAD_REACTORS
330
205
102
}
330
205
100
AcDbVisualStyle
  2
GouraudWithEdges
 70
     3
 71
     2
 72
     2
 73
     1
 90
        2
 40
-0.6
 41
30.0
 62
     5
 63
     7
 74
     1
 91
        4
 64
     7
 65
   257
 75
     1
175
     1
 42
1.0
 92
        0
 66
   257
 43
1.0
 76
     1
 77
     6
 78
     2
 67
     7
 79
     5
170
     0
171
     0
290
     0
174
     0
 93
       13
 44
0.0
173
     0
291
     1
 45
0.0
1001
ACAD
1000
AcDbSavedByObjectVersion
1070
     0
1000
AcDbSavedByObjectVersion
1070
     0
1000
AcDbSavedByObjectVersion
1070
     0
  0
VISUALSTYLE
  5
27D
102
{ACAD_REACTORS
330
205
102
}
330
205
100
AcDbVisualStyle
  2
Linepattern
 70
    14
 71
     2
 72
     2
 73
     0
 90
        0
 40
-0.6
 41
-30.0
 62
     5
 63
     7
 74
     1
 91
        4
 64
     7
 65
   257
 75
     7
175
     7
 42
1.0
 92
        8
 66
     7
 43
1.0
 76
     1
 77
     6
 78
     2
 67
     7
 79
     5
170
     0
171
     0
290
     0
174
     0
 93
        1
 44
0.0
173
     0
291
     1
 45
0.0
1001
ACAD
1000
AcDbSavedByObjectVersion
1070
     0
1000
AcDbSavedByObjectVersion
1070
     0
1000
AcDbSavedByObjectVersion
1070
     0
  0
VISUALSTYLE
  5
224
102
{ACAD_REACTORS
330
205
102
}
330
205
100
AcDbVisualStyle
  2
Realistic
 70
     8
 71
     2
 72
     2
 73
     0
 90
        0
 40
-0.6
 41
-30.0
 62
     5
 63
     7
 74
     1
 91
        0
 64
     7
 65
   257
 75
     1
175
     1
 42
1.0
 92
        8
 66
     8
 43
1.0
 76
     1
 77
     6
 78
     2
 67
     7
 79
     5
170
     0
171
     0
290
     0
174
     0
 93
       13
 44
0.0
173
     0
291
     0
 45
0.0
1001
ACAD
1000
AcDbSavedByObjectVersion
1070
     0
1000
AcDbSavedByObjectVersion
1070
     0
1000
AcDbSavedByObjectVersion
1070
     0
1000
AcDbSavedByObjectVersion
1070
     0
1000
AcDbSavedByObjectVersion
1070
     0
1000
AcDbSavedByObjectVersion
1070
     0
1000
AcDbSavedByObjectVersion
1070
     0
1000
AcDbSavedByObjectVersion
1070
     0
1000
AcDbSavedByObjectVersion
1070
     0
1000
AcDbSavedByObjectVersion
1070
     0
1000
AcDbSavedByObjectVersion
1070
     0
1000
AcDbSavedByObjectVersion
1070
     0
1000
AcDbSavedByObjectVersion
1070
     0
1000
AcDbSavedByObjectVersion
1070
     0
1000
AcDbSavedByObjectVersion
1070
     0
1000
AcDbSavedByObjectVersion
1070
     0
1000
AcDbSavedByObjectVersion
1070
     0
1000
AcDbSavedByObjectVersion
1070
     0
1000
AcDbSavedByObjectVersion
1070
     0
1000
AcDbSavedByObjectVersion
1070
     0
1000
AcDbSavedByObjectVersion
1070
     0
1000
AcDbSavedByObjectVersion
1070
     0
1000
AcDbSavedByObjectVersion
1070
     0
1000
AcDbSavedByObjectVersion
1070
     0
1000
AcDbSavedByObjectVersion
1070
     0
1000
AcDbSavedByObjectVersion
1070
     0
1000
AcDbSavedByObjectVersion
1070
     0
1000
AcDbSavedByObjectVersion
1070
     0
1000
AcDbSavedByObjectVersion
1070
     0
1000
AcDbSavedByObjectVersion
1070
     0
1000
AcDbSavedByObjectVersion
1070
     0
1000
AcDbSavedByObjectVersion
1070
     0
1000
AcDbSavedByObjectVersion
1070
     0
1000
AcDbSavedByObjectVersion
1070
     0
1000
AcDbSavedByObjectVersion
1070
     0
  0
VISUALSTYLE
  5
27C
102
{ACAD_REACTORS
330
205
102
}
330
205
100
AcDbVisualStyle
  2
Thicken
 70
    13
 71
     2
 72
     2
 73
     0
 90
        0
 40
-0.6
 41
-30.0
 62
     5
 63
     7
 74
     1
 91
        4
 64
     7
 65
   257
 75
     1
175
     1
 42
1.0
 92
       12
 66
     7
 43
1.0
 76
     1
 77
     6
 78
     2
 67
     7
 79
     5
170
     0
171
     0
290
     0
174
     0
 93
        1
 44
0.0
173
     0
291
     1
 45
0.0
1001
ACAD
1000
AcDbSavedByObjectVersion
1070
     0
1000
AcDbSavedByObjectVersion
1070
     0
1000
AcDbSavedByObjectVersion
1070
     0
  0
DICTIONARYVAR
  5
24B
102
{ACAD_REACTORS
330
248
102
}
330
248
100
DictionaryVariables
280
     0
  1
1:1
  0
DICTIONARYVAR
  5
24A
102
{ACAD_REACTORS
330
248
102
}
330
248
100
DictionaryVariables
280
     0
  1
STANDARD
  0
DICTIONARYVAR
  5
249
102
{ACAD_REACTORS
330
248
102
}
330
248
100
DictionaryVariables
280
     0
  1
STANDARD
  0
DICTIONARYVAR
  5
7BF
102
{ACAD_REACTORS
330
248
102
}
330
248
100
DictionaryVariables
280
     0
  1
1
  0
DICTIONARYVAR
  5
7BE
102
{ACAD_REACTORS
330
248
102
}
330
248
100
DictionaryVariables
280
     0
  1
1
  0
DICTIONARYVAR
  5
7BD
102
{ACAD_REACTORS
330
248
102
}
330
248
100
DictionaryVariables
280
     0
  1
0
  0
DICTIONARYVAR
  5
24C
102
{ACAD_REACTORS
330
248
102
}
330
248
100
DictionaryVariables
280
     0
  1
0
  0
DICTIONARYVAR
  5
598
102
{ACAD_REACTORS
330
248
102
}
330
248
100
DictionaryVariables
280
     0
  1
1
  0
DICTIONARYVAR
  5
7BC
102
{ACAD_REACTORS
330
248
102
}
330
248
100
DictionaryVariables
280
     0
  1
127
  0
DICTIONARY
  5
899
102
{ACAD_REACTORS
330
898
102
}
330
898
100
AcDbDictionary
281
     1
  0
DICTIONARY
  5
217
330
216
100
AcDbDictionary
280
     1
281
     1
  3
ACAD_XREC_ROUNDTRIP
360
5B8
  3
BUMPTILE
360
218
  3
DIFFUSETILE
360
219
  3
OPACITYTILE
360
21A
  3
REFLECTIONTILE
360
21B
  3
REFRACTIONTILE
360
21C
  3
SPECULARTILE
360
21D
  0
DICTIONARY
  5
20F
330
20E
100
AcDbDictionary
280
     1
281
     1
  3
ACAD_XREC_ROUNDTRIP
360
5B7
  3
BUMPTILE
360
210
  3
DIFFUSETILE
360
211
  3
OPACITYTILE
360
212
  3
REFLECTIONTILE
360
213
  3
REFRACTIONTILE
360
214
  3
SPECULARTILE
360
215
  0
DICTIONARY
  5
E
330
C
100
AcDbDictionary
280
     1
281
     1
  3
ACAD_XREC_ROUNDTRIP
360
5B6
  3
BUMPTILE
360
F
  3
DIFFUSETILE
360
10
  3
OPACITYTILE
360
11
  3
REFLECTIONTILE
360
12
  3
REFRACTIONTILE
360
13
  3
SPECULARTILE
360
14
  0
DICTIONARY
  5
223
330
222
100
AcDbDictionary
280
     1
281
     1
  3
ACAD_ROUNDTRIP_2008_TABLESTYLE_CELLSTYLEMAP
360
9AD
  0
XRECORD
  5
5B8
102
{ACAD_REACTORS
330
217
102
}
330
217
100
AcDbXrecord
280
     1
102
MATERIAL
148
0.0
149
0.0
149
0.0
 93
        0
 94
      127
282
     0
 72
     0
 77
     0
171
     0
175
     0
179
     0
273
     0
  0
XRECORD
  5
218
102
{ACAD_REACTORS
330
217
102
}
330
217
100
AcDbXrecord
280
     1
270
     1
271
     1
  0
XRECORD
  5
219
102
{ACAD_REACTORS
330
217
102
}
330
217
100
AcDbXrecord
280
     1
270
     1
271
     1
  0
XRECORD
  5
21A
102
{ACAD_REACTORS
330
217
102
}
330
217
100
AcDbXrecord
280
     1
270
     1
271
     1
  0
XRECORD
  5
21B
102
{ACAD_REACTORS
330
217
102
}
330
217
100
AcDbXrecord
280
     1
270
     1
271
     1
  0
XRECORD
  5
21C
102
{ACAD_REACTORS
330
217
102
}
330
217
100
AcDbXrecord
280
     1
270
     1
271
     1
  0
XRECORD
  5
21D
102
{ACAD_REACTORS
330
217
102
}
330
217
100
AcDbXrecord
280
     1
270
     1
271
     1
  0
XRECORD
  5
5B7
102
{ACAD_REACTORS
330
20F
102
}
330
20F
100
AcDbXrecord
280
     1
102
MATERIAL
148
0.0
149
0.0
149
0.0
 93
        0
 94
      127
282
     0
 72
     0
 77
     0
171
     0
175
     0
179
     0
273
     0
  0
XRECORD
  5
210
102
{ACAD_REACTORS
330
20F
102
}
330
20F
100
AcDbXrecord
280
     1
270
     1
271
     1
  0
XRECORD
  5
211
102
{ACAD_REACTORS
330
20F
102
}
330
20F
100
AcDbXrecord
280
     1
270
     1
271
     1
  0
XRECORD
  5
212
102
{ACAD_REACTORS
330
20F
102
}
330
20F
100
AcDbXrecord
280
     1
270
     1
271
     1
  0
XRECORD
  5
213
102
{ACAD_REACTORS
330
20F
102
}
330
20F
100
AcDbXrecord
280
     1
270
     1
271
     1
  0
XRECORD
  5
214
102
{ACAD_REACTORS
330
20F
102
}
330
20F
100
AcDbXrecord
280
     1
270
     1
271
     1
  0
XRECORD
  5
215
102
{ACAD_REACTORS
330
20F
102
}
330
20F
100
AcDbXrecord
280
     1
270
     1
271
     1
  0
XRECORD
  5
5B6
102
{ACAD_REACTORS
330
E
102
}
330
E
100
AcDbXrecord
280
     1
102
MATERIAL
148
0.0
149
0.0
149
0.0
 93
        0
 94
      127
282
     0
 72
     0
 77
     0
171
     0
175
     0
179
     0
273
     0
  0
XRECORD
  5
F
102
{ACAD_REACTORS
330
E
102
}
330
E
100
AcDbXrecord
280
     1
270
     1
271
     1
  0
XRECORD
  5
10
102
{ACAD_REACTORS
330
E
102
}
330
E
100
AcDbXrecord
280
     1
270
     1
271
     1
  0
XRECORD
  5
11
102
{ACAD_REACTORS
330
E
102
}
330
E
100
AcDbXrecord
280
     1
270
     1
271
     1
  0
XRECORD
  5
12
102
{ACAD_REACTORS
330
E
102
}
330
E
100
AcDbXrecord
280
     1
270
     1
271
     1
  0
XRECORD
  5
13
102
{ACAD_REACTORS
330
E
102
}
330
E
100
AcDbXrecord
280
     1
270
     1
271
     1
  0
XRECORD
  5
14
102
{ACAD_REACTORS
330
E
102
}
330
E
100
AcDbXrecord
280
     1
270
     1
271
     1
  0
CELLSTYLEMAP
  5
9AD
102
{ACAD_REACTORS
330
223
102
}
330
223
100
AcDbCellStyleMap
 90
        3
300
CELLSTYLE
  1
TABLEFORMAT_BEGIN
 90
        5
170
     1
 91
        0
 92
    32768
 62
   257
 93
        1
300
CONTENTFORMAT
  1
CONTENTFORMAT_BEGIN
 90
        0
 91
        0
 92
      512
 93
        0
300

 40
0.0
140
1.0
 94
        5
 62
     0
340
42
144
0.25
309
CONTENTFORMAT_END
171
     1
301
MARGIN
  1
CELLMARGIN_BEGIN
 40
0.06
 40
0.06
 40
0.06
 40
0.06
 40
0.18
 40
0.18
309
CELLMARGIN_END
 94
        6
 95
        1
302
GRIDFORMAT
  1
GRIDFORMAT_BEGIN
 90
        0
 91
        1
 62
     0
 92
       -2
340
0
 93
        0
 40
0.045
309
GRIDFORMAT_END
 95
        2
302
GRIDFORMAT
  1
GRIDFORMAT_BEGIN
 90
        0
 91
        1
 62
     0
 92
       -2
340
0
 93
        0
 40
0.045
309
GRIDFORMAT_END
 95
        4
302
GRIDFORMAT
  1
GRIDFORMAT_BEGIN
 90
        0
 91
        1
 62
     0
 92
       -2
340
0
 93
        0
 40
0.045
309
GRIDFORMAT_END
 95
        8
302
GRIDFORMAT
  1
GRIDFORMAT_BEGIN
 90
        0
 91
        1
 62
     0
 92
       -2
340
0
 93
        0
 40
0.045
309
GRIDFORMAT_END
 95
       16
302
GRIDFORMAT
  1
GRIDFORMAT_BEGIN
 90
        0
 91
        1
 62
     0
 92
       -2
340
0
 93
        0
 40
0.045
309
GRIDFORMAT_END
 95
       32
302
GRIDFORMAT
  1
GRIDFORMAT_BEGIN
 90
        0
 91
        1
 62
     0
 92
       -2
340
0
 93
        0
 40
0.045
309
GRIDFORMAT_END
309
TABLEFORMAT_END
  1
CELLSTYLE_BEGIN
 90
        1
 91
        1
300
_TITLE
309
CELLSTYLE_END
300
CELLSTYLE
  1
TABLEFORMAT_BEGIN
 90
        5
170
     1
 91
        0
 92
        0
 62
   257
 93
        1
300
CONTENTFORMAT
  1
CONTENTFORMAT_BEGIN
 90
        0
 91
        0
 92
      512
 93
        0
300

 40
0.0
140
1.0
 94
        5
 62
     0
340
42
144
0.18
309
CONTENTFORMAT_END
171
     1
301
MARGIN
  1
CELLMARGIN_BEGIN
 40
0.06
 40
0.06
 40
0.06
 40
0.06
 40
0.18
 40
0.18
309
CELLMARGIN_END
 94
        6
 95
        1
302
GRIDFORMAT
  1
GRIDFORMAT_BEGIN
 90
        0
 91
        1
 62
     0
 92
       -2
340
0
 93
        0
 40
0.045
309
GRIDFORMAT_END
 95
        2
302
GRIDFORMAT
  1
GRIDFORMAT_BEGIN
 90
        0
 91
        1
 62
     0
 92
       -2
340
0
 93
        0
 40
0.045
309
GRIDFORMAT_END
 95
        4
302
GRIDFORMAT
  1
GRIDFORMAT_BEGIN
 90
        0
 91
        1
 62
     0
 92
       -2
340
0
 93
        0
 40
0.045
309
GRIDFORMAT_END
 95
        8
302
GRIDFORMAT
  1
GRIDFORMAT_BEGIN
 90
        0
 91
        1
 62
     0
 92
       -2
340
0
 93
        0
 40
0.045
309
GRIDFORMAT_END
 95
       16
302
GRIDFORMAT
  1
GRIDFORMAT_BEGIN
 90
        0
 91
        1
 62
     0
 92
       -2
340
0
 93
        0
 40
0.045
309
GRIDFORMAT_END
 95
       32
302
GRIDFORMAT
  1
GRIDFORMAT_BEGIN
 90
        0
 91
        1
 62
     0
 92
       -2
340
0
 93
        0
 40
0.045
309
GRIDFORMAT_END
309
TABLEFORMAT_END
  1
CELLSTYLE_BEGIN
 90
        2
 91
        1
300
_HEADER
309
CELLSTYLE_END
300
CELLSTYLE
  1
TABLEFORMAT_BEGIN
 90
        5
170
     1
 91
        0
 92
        0
 62
   257
 93
        1
300
CONTENTFORMAT
  1
CONTENTFORMAT_BEGIN
 90
        0
 91
        0
 92
      512
 93
        0
300

 40
0.0
140
1.0
 94
        2
 62
     0
340
42
144
0.18
309
CONTENTFORMAT_END
171
     1
301
MARGIN
  1
CELLMARGIN_BEGIN
 40
0.06
 40
0.06
 40
0.06
 40
0.06
 40
0.18
 40
0.18
309
CELLMARGIN_END
 94
        6
 95
        1
302
GRIDFORMAT
  1
GRIDFORMAT_BEGIN
 90
        0
 91
        1
 62
     0
 92
       -2
340
0
 93
        0
 40
0.045
309
GRIDFORMAT_END
 95
        2
302
GRIDFORMAT
  1
GRIDFORMAT_BEGIN
 90
        0
 91
        1
 62
     0
 92
       -2
340
0
 93
        0
 40
0.045
309
GRIDFORMAT_END
 95
        4
302
GRIDFORMAT
  1
GRIDFORMAT_BEGIN
 90
        0
 91
        1
 62
     0
 92
       -2
340
0
 93
        0
 40
0.045
309
GRIDFORMAT_END
 95
        8
302
GRIDFORMAT
  1
GRIDFORMAT_BEGIN
 90
        0
 91
        1
 62
     0
 92
       -2
340
0
 93
        0
 40
0.045
309
GRIDFORMAT_END
 95
       16
302
GRIDFORMAT
  1
GRIDFORMAT_BEGIN
 90
        0
 91
        1
 62
     0
 92
       -2
340
0
 93
        0
 40
0.045
309
GRIDFORMAT_END
 95
       32
302
GRIDFORMAT
  1
GRIDFORMAT_BEGIN
 90
        0
 91
        1
 62
     0
 92
       -2
340
0
 93
        0
 40
0.045
309
GRIDFORMAT_END
309
TABLEFORMAT_END
  1
CELLSTYLE_BEGIN
 90
        3
 91
        2
300
_DATA
309
CELLSTYLE_END
  0
ENDSEC
  0
EOF
